  0
SECTION
  2
HEADER
  9
$ACADVER
  1
AC1015
  9
$ACADMAINTVER
 70
     6
  9
$DWGCODEPAGE
  3
ANSI_949
  9
$INSBASE
 10
0.0
 20
0.0
 30
0.0
  9
$EXTMIN
 10
-38.47995503550774
 20
-40.00000000000001
 30
0.0
  9
$EXTMAX
 10
95.5134838153456
 20
46.8609549708239
 30
0.0
  9
$LIMMIN
 10
0.0
 20
0.0
  9
$LIMMAX
 10
420.0
 20
297.0
  9
$ORTHOMODE
 70
     1
  9
$REGENMODE
 70
     1
  9
$FILLMODE
 70
     1
  9
$QTEXTMODE
 70
     0
  9
$MIRRTEXT
 70
     1
  9
$LTSCALE
 40
1.0
  9
$ATTMODE
 70
     1
  9
$TEXTSIZE
 40
3.5
  9
$TRACEWID
 40
1.0
  9
$TEXTSTYLE
  7
Standard
  9
$CLAYER
  8
0
  9
$CELTYPE
  6
ByLayer
  9
$CECOLOR
 62
   256
  9
$CELTSCALE
 40
1.0
  9
$DISPSILH
 70
     0
  9
$DIMSCALE
 40
1.0
  9
$DIMASZ
 40
3.302
  9
$DIMEXO
 40
1.0
  9
$DIMDLI
 40
3.75
  9
$DIMRND
 40
0.0
  9
$DIMDLE
 40
0.0
  9
$DIMEXE
 40
1.0
  9
$DIMTP
 40
0.0
  9
$DIMTM
 40
0.0
  9
$DIMTXT
 40
3.5
  9
$DIMCEN
 40
2.5
  9
$DIMTSZ
 40
0.0
  9
$DIMTOL
 70
     0
  9
$DIMLIM
 70
     0
  9
$DIMTIH
 70
     1
  9
$DIMTOH
 70
     1
  9
$DIMSE1
 70
     0
  9
$DIMSE2
 70
     0
  9
$DIMTAD
 70
     1
  9
$DIMZIN
 70
     0
  9
$DIMBLK
  1

  9
$DIMASO
 70
     1
  9
$DIMSHO
 70
     1
  9
$DIMPOST
  1

  9
$DIMAPOST
  1

  9
$DIMALT
 70
     0
  9
$DIMALTD
 70
     3
  9
$DIMALTF
 40
0.0393700787401575
  9
$DIMLFAC
 40
1.0
  9
$DIMTOFL
 70
     1
  9
$DIMTVP
 40
0.0
  9
$DIMTIX
 70
     0
  9
$DIMSOXD
 70
     0
  9
$DIMSAH
 70
     0
  9
$DIMBLK1
  1

  9
$DIMBLK2
  1

  9
$DIMSTYLE
  2
ISO-25
  9
$DIMCLRD
 70
     0
  9
$DIMCLRE
 70
     0
  9
$DIMCLRT
 70
     0
  9
$DIMTFAC
 40
1.0
  9
$DIMGAP
 40
1.524
  9
$DIMJUST
 70
     0
  9
$DIMSD1
 70
     0
  9
$DIMSD2
 70
     0
  9
$DIMTOLJ
 70
     0
  9
$DIMTZIN
 70
     0
  9
$DIMALTZ
 70
     0
  9
$DIMALTTZ
 70
     0
  9
$DIMUPT
 70
     0
  9
$DIMDEC
 70
     2
  9
$DIMTDEC
 70
     2
  9
$DIMALTU
 70
     2
  9
$DIMALTTD
 70
     3
  9
$DIMTXSTY
  7
Standard
  9
$DIMAUNIT
 70
     0
  9
$DIMADEC
 70
     2
  9
$DIMALTRND
 40
0.0
  9
$DIMAZIN
 70
     0
  9
$DIMDSEP
 70
    44
  9
$DIMATFIT
 70
     3
  9
$DIMFRAC
 70
     0
  9
$DIMLDRBLK
  1

  9
$DIMLUNIT
 70
     2
  9
$DIMLWD
 70
    -2
  9
$DIMLWE
 70
    -2
  9
$DIMTMOVE
 70
     0
  9
$LUNITS
 70
     2
  9
$LUPREC
 70
     2
  9
$SKETCHINC
 40
1.0
  9
$FILLETRAD
 40
10.0
  9
$AUNITS
 70
     0
  9
$AUPREC
 70
     2
  9
$MENU
  1
.
  9
$ELEVATION
 40
0.0
  9
$PELEVATION
 40
0.0
  9
$THICKNESS
 40
0.0
  9
$LIMCHECK
 70
     0
  9
$CHAMFERA
 40
0.0
  9
$CHAMFERB
 40
0.0
  9
$CHAMFERC
 40
0.0
  9
$CHAMFERD
 40
0.0
  9
$SKPOLY
 70
     0
  9
$TDCREATE
 40
2458316.46757566
  9
$TDUCREATE
 40
2458316.09257566
  9
$TDUPDATE
 40
2459720.394810764
  9
$TDUUPDATE
 40
2459720.019810764
  9
$TDINDWG
 40
0.0014237963
  9
$TDUSRTIMER
 40
0.0001538773
  9
$USRTIMER
 70
     1
  9
$ANGBASE
 50
0.0
  9
$ANGDIR
 70
     0
  9
$PDMODE
 70
     0
  9
$PDSIZE
 40
-1.0
  9
$PLINEWID
 40
0.0
  9
$SPLFRAME
 70
     0
  9
$SPLINETYPE
 70
     6
  9
$SPLINESEGS
 70
     8
  9
$HANDSEED
  5
30C
  9
$SURFTAB1
 70
     6
  9
$SURFTAB2
 70
     6
  9
$SURFTYPE
 70
     6
  9
$SURFU
 70
     6
  9
$SURFV
 70
     6
  9
$UCSBASE
  2

  9
$UCSNAME
  2

  9
$UCSORG
 10
0.0
 20
0.0
 30
0.0
  9
$UCSXDIR
 10
1.0
 20
0.0
 30
0.0
  9
$UCSYDIR
 10
0.0
 20
1.0
 30
0.0
  9
$UCSORTHOREF
  2

  9
$UCSORTHOVIEW
 70
     0
  9
$UCSORGTOP
 10
0.0
 20
0.0
 30
0.0
  9
$UCSORGBOTTOM
 10
0.0
 20
0.0
 30
0.0
  9
$UCSORGLEFT
 10
0.0
 20
0.0
 30
0.0
  9
$UCSORGRIGHT
 10
0.0
 20
0.0
 30
0.0
  9
$UCSORGFRONT
 10
0.0
 20
0.0
 30
0.0
  9
$UCSORGBACK
 10
0.0
 20
0.0
 30
0.0
  9
$PUCSBASE
  2

  9
$PUCSNAME
  2

  9
$PUCSORG
 10
0.0
 20
0.0
 30
0.0
  9
$PUCSXDIR
 10
1.0
 20
0.0
 30
0.0
  9
$PUCSYDIR
 10
0.0
 20
1.0
 30
0.0
  9
$PUCSORTHOREF
  2

  9
$PUCSORTHOVIEW
 70
     0
  9
$PUCSORGTOP
 10
0.0
 20
0.0
 30
0.0
  9
$PUCSORGBOTTOM
 10
0.0
 20
0.0
 30
0.0
  9
$PUCSORGLEFT
 10
0.0
 20
0.0
 30
0.0
  9
$PUCSORGRIGHT
 10
0.0
 20
0.0
 30
0.0
  9
$PUCSORGFRONT
 10
0.0
 20
0.0
 30
0.0
  9
$PUCSORGBACK
 10
0.0
 20
0.0
 30
0.0
  9
$USERI1
 70
     0
  9
$USERI2
 70
     0
  9
$USERI3
 70
     0
  9
$USERI4
 70
     0
  9
$USERI5
 70
     0
  9
$USERR1
 40
0.0
  9
$USERR2
 40
0.0
  9
$USERR3
 40
0.0
  9
$USERR4
 40
0.0
  9
$USERR5
 40
0.0
  9
$WORLDVIEW
 70
     1
  9
$SHADEDGE
 70
     3
  9
$SHADEDIF
 70
    70
  9
$TILEMODE
 70
     1
  9
$MAXACTVP
 70
    64
  9
$PINSBASE
 10
0.0
 20
0.0
 30
0.0
  9
$PLIMCHECK
 70
     0
  9
$PEXTMIN
 10
1.000000000000000E+20
 20
1.000000000000000E+20
 30
1.000000000000000E+20
  9
$PEXTMAX
 10
-1.000000000000000E+20
 20
-1.000000000000000E+20
 30
-1.000000000000000E+20
  9
$PLIMMIN
 10
0.0
 20
0.0
  9
$PLIMMAX
 10
0.0
 20
0.0
  9
$UNITMODE
 70
     0
  9
$VISRETAIN
 70
     1
  9
$PLINEGEN
 70
     0
  9
$PSLTSCALE
 70
     1
  9
$TREEDEPTH
 70
  3020
  9
$CMLSTYLE
  2
Standard
  9
$CMLJUST
 70
     0
  9
$CMLSCALE
 40
20.0
  9
$PROXYGRAPHICS
 70
     1
  9
$MEASUREMENT
 70
     1
  9
$CELWEIGHT
370
    -1
  9
$ENDCAPS
280
     0
  9
$JOINSTYLE
280
     0
  9
$LWDISPLAY
290
     1
  9
$INSUNITS
 70
     4
  9
$HYPERLINKBASE
  1

  9
$STYLESHEET
  1

  9
$XEDIT
290
     1
  9
$CEPSNTYPE
380
     0
  9
$PSTYLEMODE
290
     1
  9
$FINGERPRINTGUID
  2
{8B8E3BB6-C50D-4998-9DDD-95C313BED17E}
  9
$VERSIONGUID
  2
{FAEB1C32-E019-11D5-929B-00C0DF256EC4}
  9
$EXTNAMES
290
     1
  9
$PSVPSCALE
 40
0.0
  9
$OLESTARTUP
290
     0
  0
ENDSEC
  0
SECTION
  2
CLASSES
  0
CLASS
  1
ACDBDICTIONARYWDFLT
  2
AcDbDictionaryWithDefault
  3
ObjectDBX Classes
 90
        0
280
     0
281
     0
  0
CLASS
  1
VISUALSTYLE
  2
AcDbVisualStyle
  3
ObjectDBX Classes
 90
     4095
280
     0
281
     0
  0
CLASS
  1
MATERIAL
  2
AcDbMaterial
  3
ObjectDBX Classes
 90
     1153
280
     0
281
     0
  0
CLASS
  1
SCALE
  2
AcDbScale
  3
ObjectDBX Classes
 90
     1153
280
     0
281
     0
  0
CLASS
  1
SUN
  2
AcDbSun
  3
SCENEOE
 90
     1153
280
     0
281
     0
  0
CLASS
  1
ACDBPLACEHOLDER
  2
AcDbPlaceHolder
  3
ObjectDBX Classes
 90
        0
280
     0
281
     0
  0
CLASS
  1
LAYOUT
  2
AcDbLayout
  3
ObjectDBX Classes
 90
        0
280
     0
281
     0
  0
CLASS
  1
TABLESTYLE
  2
AcDbTableStyle
  3
ObjectDBX Classes
 90
     4095
280
     0
281
     0
  0
CLASS
  1
MLEADERSTYLE
  2
AcDbMLeaderStyle
  3
ACDB_MLEADERSTYLE_CLASS
 90
     4095
280
     0
281
     0
  0
CLASS
  1
RASTERVARIABLES
  2
AcDbRasterVariables
  3
ISM
 90
        0
280
     0
281
     0
  0
ENDSEC
  0
SECTION
  2
TABLES
  0
TABLE
  2
VPORT
  5
8
330
0
100
AcDbSymbolTable
 70
     1
  0
VPORT
  5
29
330
8
100
AcDbSymbolTableRecord
100
AcDbViewportTableRecord
  2
*Active
 70
     0
 10
0.0
 20
0.0
 11
1.0
 21
1.0
 12
4.726007908619394
 22
6.228465708431386
 13
0.0
 23
0.0
 14
10.0
 24
10.0
 15
10.0
 25
10.0
 16
0.0
 26
0.0
 36
1.0
 17
0.0
 27
0.0
 37
0.0
 40
111.4488239580405
 41
1.519944979367263
 42
50.0
 43
0.0
 44
0.0
 50
0.0
 51
0.0
 71
    16
 72
  2000
 73
     1
 74
     3
 75
     0
 76
     0
 77
     0
 78
     0
281
     0
 65
     1
110
0.0
120
0.0
130
0.0
111
1.0
121
0.0
131
0.0
112
0.0
122
1.0
132
0.0
 79
     0
146
0.0
  0
ENDTAB
  0
TABLE
  2
LTYPE
  5
5
330
0
100
AcDbSymbolTable
 70
     6
  0
LTYPE
  5
14
330
5
100
AcDbSymbolTableRecord
100
AcDbLinetypeTableRecord
  2
ByBlock
 70
     0
  3

 72
    65
 73
     0
 40
0.0
  0
LTYPE
  5
15
330
5
100
AcDbSymbolTableRecord
100
AcDbLinetypeTableRecord
  2
ByLayer
 70
     0
  3

 72
    65
 73
     0
 40
0.0
  0
LTYPE
  5
16
330
5
100
AcDbSymbolTableRecord
100
AcDbLinetypeTableRecord
  2
Continuous
 70
     0
  3
Solid line
 72
    65
 73
     0
 40
0.0
  0
LTYPE
  5
6A
330
5
100
AcDbSymbolTableRecord
100
AcDbLinetypeTableRecord
  2
HIDDEN
 70
     0
  3
Hidden __ __ __ __ __ __ __ __ __ __ __ __ __ __
 72
    65
 73
     2
 40
1.905
 49
1.27
 74
     0
 49
-0.635
 74
     0
  0
LTYPE
  5
6B
330
5
100
AcDbSymbolTableRecord
100
AcDbLinetypeTableRecord
  2
PHANTOM
 70
     0
  3
Phantom ______  __  __  ______  __  __  ______
 72
    65
 73
     6
 40
12.7
 49
6.35
 74
     0
 49
-1.27
 74
     0
 49
1.27
 74
     0
 49
-1.27
 74
     0
 49
1.27
 74
     0
 49
-1.27
 74
     0
  0
LTYPE
  5
6C
330
5
100
AcDbSymbolTableRecord
100
AcDbLinetypeTableRecord
  2
CENTER
 70
     0
  3
Center ____ _ ____ _ ____ _ ____ _ ____ _ ____
 72
    65
 73
     4
 40
10.16
 49
6.35
 74
     0
 49
-1.27
 74
     0
 49
1.27
 74
     0
 49
-1.27
 74
     0
  0
LTYPE
  5
6D
330
5
100
AcDbSymbolTableRecord
100
AcDbLinetypeTableRecord
  2
CENTERX2
 70
     0
  3
Center (2x) ________  __  ________  __  _____
 72
    65
 73
     4
 40
20.32
 49
12.7
 74
     0
 49
-2.54
 74
     0
 49
2.54
 74
     0
 49
-2.54
 74
     0
  0
LTYPE
  5
6E
330
5
100
AcDbSymbolTableRecord
100
AcDbLinetypeTableRecord
  2
DOT2
 70
     0
  3
Dot (.5x) ........................................
 72
    65
 73
     2
 40
0.635
 49
0.0
 74
     0
 49
-0.635
 74
     0
  0
ENDTAB
  0
TABLE
  2
LAYER
  5
2
102
{ACAD_XDICTIONARY
360
22D
102
}
330
0
100
AcDbSymbolTable
 70
    18
  0
LAYER
  5
10
330
2
100
AcDbSymbolTableRecord
100
AcDbLayerTableRecord
  2
0
 70
     0
 62
     7
  6
Continuous
370
    -3
390
F
  0
LAYER
  5
6F
330
2
100
AcDbSymbolTableRecord
100
AcDbLayerTableRecord
  2
FORMAT
 70
     0
 62
     2
  6
Continuous
370
    -3
390
F
  0
LAYER
  5
70
330
2
100
AcDbSymbolTableRecord
100
AcDbLayerTableRecord
  2
외형선
 70
     0
 62
     4
  6
Continuous
370
    30
390
F
  0
LAYER
  5
71
330
2
100
AcDbSymbolTableRecord
100
AcDbLayerTableRecord
  2
숨은선
 70
     0
 62
     2
  6
HIDDEN
370
    15
390
F
  0
LAYER
  5
72
330
2
100
AcDbSymbolTableRecord
100
AcDbLayerTableRecord
  2
중심선
 70
     0
 62
     1
  6
CENTERX2
370
    -3
390
F
  0
LAYER
  5
73
330
2
100
AcDbSymbolTableRecord
100
AcDbLayerTableRecord
  2
파단선
 70
     0
 62
     4
  6
Continuous
370
    -3
390
F
  0
LAYER
  5
74
330
2
100
AcDbSymbolTableRecord
100
AcDbLayerTableRecord
  2
해칭선
 70
     0
 62
   100
  6
Continuous
370
    -3
390
F
  0
LAYER
  5
75
330
2
100
AcDbSymbolTableRecord
100
AcDbLayerTableRecord
  2
가는실선
 70
     0
 62
     4
  6
Continuous
370
    -3
390
F
  0
LAYER
  5
76
330
2
100
AcDbSymbolTableRecord
100
AcDbLayerTableRecord
  2
치수_보조선
 70
     0
 62
     4
  6
Continuous
370
    -3
390
F
  0
LAYER
  5
77
330
2
100
AcDbSymbolTableRecord
100
AcDbLayerTableRecord
  2
치수문자_일반주서
 70
     0
 62
     7
  6
Continuous
370
    15
390
F
  0
LAYER
  5
78
330
2
100
AcDbSymbolTableRecord
100
AcDbLayerTableRecord
  2
개별주서
 70
     0
 62
   100
  6
Continuous
370
    30
390
F
  0
LAYER
  5
79
330
2
100
AcDbSymbolTableRecord
100
AcDbLayerTableRecord
  2
중간선
 70
     0
 62
     2
  6
Continuous
370
    15
390
F
  0
LAYER
  5
7A
330
2
100
AcDbSymbolTableRecord
100
AcDbLayerTableRecord
  2
윤곽선
 70
     0
 62
     3
  6
Continuous
370
    40
390
F
  0
LAYER
  5
7B
330
2
100
AcDbSymbolTableRecord
100
AcDbLayerTableRecord
  2
중심마크
 70
     0
 62
   100
  6
Continuous
370
    30
390
F
  0
LAYER
  5
7C
330
2
100
AcDbSymbolTableRecord
100
AcDbLayerTableRecord
  2
가상선
 70
     0
 62
     4
  6
PHANTOM
370
    -3
390
F
  0
LAYER
  5
7D
330
2
100
AcDbSymbolTableRecord
100
AcDbLayerTableRecord
  2
특수지정선
 70
     0
 62
     5
  6
CENTERX2
370
    60
390
F
  0
LAYER
  5
7E
330
2
100
AcDbSymbolTableRecord
100
AcDbLayerTableRecord
  2
참조1
 70
     0
 62
    -4
  6
Continuous
370
    -3
390
F
  0
LAYER
  5
175
330
2
100
AcDbSymbolTableRecord
100
AcDbLayerTableRecord
  2
Defpoints
 70
     0
 62
     7
  6
Continuous
290
     0
370
    -3
390
F
  0
ENDTAB
  0
TABLE
  2
STYLE
  5
3
330
0
100
AcDbSymbolTable
 70
     2
  0
STYLE
  5
11
330
3
100
AcDbSymbolTableRecord
100
AcDbTextStyleTableRecord
  2
Standard
 70
     0
 40
0.0
 41
1.0
 50
0.0
 71
     0
 42
3.5
  3
txt
  4

  0
STYLE
  5
94
330
3
100
AcDbSymbolTableRecord
100
AcDbTextStyleTableRecord
  2
SLDTEXTSTYLE0
 70
     0
 40
0.0
 41
0.75
 50
0.0
 71
     0
 42
3.5
  3
TXT
  4

  0
ENDTAB
  0
TABLE
  2
VIEW
  5
6
330
0
100
AcDbSymbolTable
 70
     0
  0
ENDTAB
  0
TABLE
  2
UCS
  5
7
330
0
100
AcDbSymbolTable
 70
     0
  0
ENDTAB
  0
TABLE
  2
APPID
  5
9
330
0
100
AcDbSymbolTable
 70
     3
  0
APPID
  5
12
330
9
100
AcDbSymbolTableRecord
100
AcDbRegAppTableRecord
  2
ACAD
 70
     0
  0
APPID
  5
181
330
9
100
AcDbSymbolTableRecord
100
AcDbRegAppTableRecord
  2
PE_URL
 70
     0
  0
APPID
  5
182
330
9
100
AcDbSymbolTableRecord
100
AcDbRegAppTableRecord
  2
ACAD_DSTYLE_DIMRADIAL_EXTENSION
 70
     0
  0
ENDTAB
  0
TABLE
  2
DIMSTYLE
  5
A
330
0
100
AcDbSymbolTable
 70
     4
100
AcDbDimStyleTable
  0
DIMSTYLE
105
27
330
A
100
AcDbSymbolTableRecord
100
AcDbDimStyleTableRecord
  2
ISO-25
 70
     0
 41
2.5
 42
0.625
 43
3.75
 44
1.25
 73
     0
 74
     0
 77
     1
 78
     8
140
2.5
141
2.5
143
0.03937007874016
147
0.625
171
     3
172
     1
178
     0
271
     2
272
     2
274
     3
278
    44
283
     0
284
     8
340
11
  0
DIMSTYLE
105
F1
102
{ACAD_REACTORS
330
F0
330
105
330
12E
330
11A
102
}
330
A
100
AcDbSymbolTableRecord
100
AcDbDimStyleTableRecord
  2
SLDDIMSTYLE0
 70
     0
 41
3.302
 44
0.0
 45
0.000000001
 73
     0
 74
     0
 77
     1
 78
    12
 79
     3
140
3.5
143
0.0393700787401575
147
0.875
148
0.000000001
170
     1
172
     1
173
     1
178
     0
271
     2
272
     2
276
     2
284
    12
289
     0
340
94
  0
DIMSTYLE
105
11B
102
{ACAD_REACTORS
102
}
330
A
100
AcDbSymbolTableRecord
100
AcDbDimStyleTableRecord
  2
SLDDIMSTYLE1
 70
     0
 41
3.302
 44
0.0
 45
0.000000001
 73
     0
 74
     0
 77
     1
 78
     4
 79
     1
140
3.5
143
0.0393700787401575
147
0.875
148
0.000000001
170
     1
173
     1
178
     0
271
     2
272
     2
276
     2
284
    12
340
94
  0
DIMSTYLE
105
180
102
{ACAD_REACTORS
102
}
330
A
100
AcDbSymbolTableRecord
100
AcDbDimStyleTableRecord
  2
SLDDIMSTYLE2
 70
     0
 41
3.302
 44
0.0
 45
0.000000001
 73
     0
 74
     0
 77
     1
 78
    12
 79
     3
140
3.5
147
0.875
172
     1
173
     1
178
     0
271
     2
272
     2
276
     2
284
    12
289
     0
340
94
  0
ENDTAB
  0
TABLE
  2
BLOCK_RECORD
  5
1
330
0
100
AcDbSymbolTable
 70
    17
  0
BLOCK_RECORD
  5
1F
102
{ACAD_XDICTIONARY
360
309
102
}
330
1
100
AcDbSymbolTableRecord
100
AcDbBlockTableRecord
  2
*Model_Space
340
22
  0
BLOCK_RECORD
  5
1B
330
1
100
AcDbSymbolTableRecord
100
AcDbBlockTableRecord
  2
*Paper_Space
340
1E
  0
BLOCK_RECORD
  5
23
330
1
100
AcDbSymbolTableRecord
100
AcDbBlockTableRecord
  2
*Paper_Space0
340
26
  0
BLOCK_RECORD
  5
7F
330
1
100
AcDbSymbolTableRecord
100
AcDbBlockTableRecord
  2
블럭10
340
0
102
{BLKREFS
331
E9
102
}
  0
BLOCK_RECORD
  5
F2
330
1
100
AcDbSymbolTableRecord
100
AcDbBlockTableRecord
  2
_D
340
0
  0
BLOCK_RECORD
  5
106
330
1
100
AcDbSymbolTableRecord
100
AcDbBlockTableRecord
  2
_D_1
340
0
  0
BLOCK_RECORD
  5
11C
330
1
100
AcDbSymbolTableRecord
100
AcDbBlockTableRecord
  2
_D_2
340
0
  0
BLOCK_RECORD
  5
12F
330
1
100
AcDbSymbolTableRecord
100
AcDbBlockTableRecord
  2
_D_3
340
0
  0
BLOCK_RECORD
  5
149
330
1
100
AcDbSymbolTableRecord
100
AcDbBlockTableRecord
  2
SW_DOWELSYMBOL_0
340
0
102
{BLKREFS
331
14F
102
}
  0
BLOCK_RECORD
  5
20B
330
1
100
AcDbSymbolTableRecord
100
AcDbBlockTableRecord
  2
_D_4
340
0
  0
BLOCK_RECORD
  5
225
330
1
100
AcDbSymbolTableRecord
100
AcDbBlockTableRecord
  2
*D8
340
0
  0
BLOCK_RECORD
  5
231
330
1
100
AcDbSymbolTableRecord
100
AcDbBlockTableRecord
  2
*D9
340
0
  0
BLOCK_RECORD
  5
23D
330
1
100
AcDbSymbolTableRecord
100
AcDbBlockTableRecord
  2
*D10
340
0
  0
BLOCK_RECORD
  5
249
330
1
100
AcDbSymbolTableRecord
100
AcDbBlockTableRecord
  2
*D11
340
0
  0
BLOCK_RECORD
  5
2A4
330
1
100
AcDbSymbolTableRecord
100
AcDbBlockTableRecord
  2
*D12
340
0
  0
BLOCK_RECORD
  5
2B0
330
1
100
AcDbSymbolTableRecord
100
AcDbBlockTableRecord
  2
*D13
340
0
  0
BLOCK_RECORD
  5
2BC
330
1
100
AcDbSymbolTableRecord
100
AcDbBlockTableRecord
  2
*D14
340
0
  0
BLOCK_RECORD
  5
2CA
330
1
100
AcDbSymbolTableRecord
100
AcDbBlockTableRecord
  2
*D15
340
0
  0
BLOCK_RECORD
  5
2D8
330
1
100
AcDbSymbolTableRecord
100
AcDbBlockTableRecord
  2
*D16
340
0
  0
ENDTAB
  0
ENDSEC
  0
SECTION
  2
BLOCKS
  0
BLOCK
  5
20
330
1F
100
AcDbEntity
  8
0
100
AcDbBlockBegin
  2
*Model_Space
 70
     0
 10
0.0
 20
0.0
 30
0.0
  3
*Model_Space
  1
*Model_Space
  0
ENDBLK
  5
21
330
1F
100
AcDbEntity
  8
0
100
AcDbBlockEnd
  0
BLOCK
  5
1C
330
1B
100
AcDbEntity
 67
     1
  8
0
100
AcDbBlockBegin
  2
*Paper_Space
 70
     0
 10
0.0
 20
0.0
 30
0.0
  3
*Paper_Space
  1
*Paper_Space
  0
ENDBLK
  5
1D
330
1B
100
AcDbEntity
 67
     1
  8
0
100
AcDbBlockEnd
  0
BLOCK
  5
24
330
23
100
AcDbEntity
  8
0
100
AcDbBlockBegin
  2
*Paper_Space0
 70
     0
 10
0.0
 20
0.0
 30
0.0
  3
*Paper_Space0
  1
*Paper_Space0
  0
ENDBLK
  5
25
330
23
100
AcDbEntity
  8
0
100
AcDbBlockEnd
  0
BLOCK
  5
80
330
7F
100
AcDbEntity
  8
0
100
AcDbBlockBegin
  2
블럭10
 70
     2
 10
0.0
 20
0.0
 30
0.0
  3
블럭10
  1
블럭10
  0
ELLIPSE
  5
82
330
7F
100
AcDbEntity
  8
중심선
100
AcDbEllipse
 10
20.54032771741204
 20
12.0471743016438
 30
0.0
 11
6.600054785286829
 21
-1.261213355974178E-13
 31
0.0
210
0.0
220
0.0
230
1.0
 40
0.636358354079598
 41
0.9219305317359503
 42
6.513795318482858
  0
ELLIPSE
  5
83
330
7F
100
AcDbEntity
  8
중심선
100
AcDbEllipse
 10
20.54032771746488
 20
12.04717430159265
 30
0.0
 11
3.960054785062283
 21
1.540847449632565E-10
 31
0.0
210
0.0
220
0.0
230
1.0
 40
0.3939339440162632
 41
1.131841032648279
 42
5.62031148352944
  0
LINE
  5
84
330
7F
100
AcDbEntity
  8
중심선
100
AcDbLine
 10
2.268634060543552
 20
16.24717430164393
 30
0.0
 11
5.714909304380834
 21
16.24717430164393
 31
0.0
  0
LINE
  5
85
330
7F
100
AcDbEntity
  8
중심선
100
AcDbLine
 10
5.245725140726316
 20
7.84717430164391
 30
0.0
 11
8.692000384563599
 21
7.84717430164391
 31
0.0
  0
LINE
  5
86
330
7F
100
AcDbEntity
  8
중심선
100
AcDbLine
 10
15.74043728645272
 20
16.24717430164393
 30
0.0
 11
8.692000384563599
 21
7.84717430164391
 31
0.0
  0
LINE
  5
87
330
7F
100
AcDbEntity
  8
중심선
100
AcDbLine
 10
0.1404042013395286
 20
13.71084872107135
 30
0.0
 11
3.58671253028996
 21
13.71088815037384
 31
0.0
  0
LINE
  5
88
330
7F
100
AcDbEntity
  8
중심선
100
AcDbLine
 10
2.750260043222114
 20
10.84717430164391
 30
0.0
 11
6.196535287059397
 21
10.84717430164391
 31
0.0
  0
LINE
  5
89
330
7F
100
AcDbEntity
  8
중심선
100
AcDbLine
 10
12.29416204261559
 20
16.24717430164393
 30
0.0
 11
5.245725140726316
 21
7.84717430164391
 31
0.0
  0
LINE
  5
8A
330
7F
100
AcDbEntity
  8
중심선
100
AcDbLine
 10
10.72767329541681
 20
16.24717430164393
 30
0.0
 11
6.196535287059397
 21
10.84717430164391
 31
0.0
  0
LINE
  5
8B
330
7F
100
AcDbEntity
  8
중심선
100
AcDbLine
 10
7.28139805157953
 20
16.24717430164393
 30
0.0
 11
2.750260043222114
 21
10.84717430164391
 31
0.0
  0
LINE
  5
8C
330
7F
100
AcDbEntity
  8
중심선
100
AcDbLine
 10
5.714909304380834
 20
16.24717430164393
 30
0.0
 11
3.58671253028996
 21
13.71088815037384
 31
0.0
  0
LINE
  5
8D
330
7F
100
AcDbEntity
  8
중심선
100
AcDbLine
 10
2.268634060543552
 20
16.24717430164393
 30
0.0
 11
0.1404042013395286
 21
13.71084872107135
 31
0.0
  0
LINE
  5
8E
330
7F
100
AcDbEntity
  8
중심선
100
AcDbLine
 10
7.28139805157953
 20
16.24717430164393
 30
0.0
 11
10.72767329541681
 21
16.24717430164393
 31
0.0
  0
LINE
  5
8F
330
7F
100
AcDbEntity
  8
중심선
100
AcDbLine
 10
12.29416204261559
 20
16.24717430164393
 30
0.0
 11
15.74043728645272
 21
16.24717430164393
 31
0.0
  0
LINE
  5
90
330
7F
100
AcDbEntity
  8
중심선
100
AcDbLine
 10
19.22036997980202
 20
11.08717430171403
 30
0.0
 11
23.66174974927406
 21
11.08717430171406
 31
0.0
  0
LINE
  5
91
330
7F
100
AcDbEntity
  8
중심선
100
AcDbLine
 10
19.22039502424796
 20
13.00717430171391
 30
0.0
 11
19.22036997980202
 21
11.08717430171403
 31
0.0
  0
LINE
  5
92
330
7F
100
AcDbEntity
  8
중심선
100
AcDbLine
 10
19.22039502424796
 20
13.00717430171391
 30
0.0
 11
26.96566020931264
 21
13.00717430171391
 31
0.0
  0
LINE
  5
93
330
7F
100
AcDbEntity
  8
중심선
100
AcDbLine
 10
22.22332737316547
 20
13.45928029700563
 30
0.0
 11
24.52862924686651
 21
15.39360700705356
 31
0.0
  0
ATTDEF
  5
95
330
7F
100
AcDbEntity
  8
FORMAT
 62
     2
100
AcDbText
 10
4.408487351596664
 20
2.075366912832191
 30
0.0
 40
4.233333333333333
  1
E5058012
 41
0.75
  7
SLDTEXTSTYLE0
 11
4.408487351596664
 21
-0.0412997538344756
 31
0.0
100
AcDbAttributeDefinition
  3

  2
AUTOATTR0
 70
     0
 74
     1
  0
ENDBLK
  5
81
330
7F
100
AcDbEntity
  8
0
100
AcDbBlockEnd
  0
BLOCK
  5
F3
330
F2
100
AcDbEntity
  8
0
100
AcDbBlockBegin
  2
_D
 70
     0
 10
0.0
 20
0.0
 30
0.0
  3
_D
  1
_D
  0
LINE
  5
F5
330
F2
100
AcDbEntity
  8
치수문자_일반주서
 62
     0
370
    -2
100
AcDbLine
 10
25.9375
 20
2.381249999999997
 30
0.0
 11
38.04769263685267
 21
2.381250000000044
 31
0.0
  0
LINE
  5
F6
330
F2
100
AcDbEntity
  8
치수문자_일반주서
 62
     0
370
    -2
100
AcDbLine
 10
25.9375
 20
-2.381250000000005
 30
0.0
 11
38.04769263685269
 21
-2.381249999999959
 31
0.0
  0
LINE
  5
F7
330
F2
100
AcDbEntity
  8
치수문자_일반주서
 62
     0
370
    -2
100
AcDbLine
 10
38.04769263685267
 20
2.381250000000044
 30
0.0
 11
38.04769263685257
 21
36.98525000000004
 31
0.0
  0
LINE
  5
F8
330
F2
100
AcDbEntity
  8
치수문자_일반주서
 62
     0
370
    -2
100
AcDbLine
 10
38.04769263685267
 20
2.381250000000044
 30
0.0
 11
38.04769263685269
 21
-2.381249999999959
 31
0.0
  0
LINE
  5
F9
330
F2
100
AcDbEntity
  8
치수문자_일반주서
 62
     0
370
    -2
100
AcDbLine
 10
38.04769263685267
 20
5.683250000000044
 30
0.0
 11
38.04769263685266
 21
8.985250000000043
 31
0.0
  0
LINE
  5
FA
330
F2
100
AcDbEntity
  8
치수문자_일반주서
 62
     0
370
    -2
100
AcDbLine
 10
38.04769263685269
 20
-5.683249999999958
 30
0.0
 11
38.0476926368527
 21
-8.985249999999958
 31
0.0
  0
SOLID
  5
FB
330
F2
100
AcDbEntity
  8
치수문자_일반주서
 62
     0
100
AcDbTrace
 10
37.49735930351933
 20
5.683250000000042
 30
0.0
 11
38.598025970186
 21
5.683250000000045
 31
0.0
 12
38.04769263685267
 22
2.381250000000044
 32
0.0
 13
38.04769263685267
 23
2.381250000000044
 33
0.0
  0
SOLID
  5
FC
330
F2
100
AcDbEntity
  8
치수문자_일반주서
 62
     0
100
AcDbTrace
 10
38.59802597018603
 20
-5.683249999999957
 30
0.0
 11
37.49735930351936
 21
-5.68324999999996
 31
0.0
 12
38.04769263685269
 22
-2.381249999999959
 32
0.0
 13
38.04769263685269
 23
-2.381249999999959
 33
0.0
  0
MTEXT
  5
FD
330
F2
100
AcDbEntity
  8
치수문자_일반주서
 62
     0
100
AcDbMText
 10
33.67269263685262
 20
22.98525000000003
 30
0.0
 40
3.5
 41
0.0
 71
     2
 72
     1
  1
\A1;%%c4.76 [3/16]
  7
SLDTEXTSTYLE0
 11
-2.983906501879684E-15
 21
1.0
 31
0.0
 73
     1
 44
1.0
  0
POINT
  5
FE
330
F2
100
AcDbEntity
  8
Defpoints
 62
     0
100
AcDbPoint
 10
25.875
 20
2.381249999999997
 30
0.0
  0
POINT
  5
FF
330
F2
100
AcDbEntity
  8
Defpoints
 62
     0
100
AcDbPoint
 10
25.875
 20
-2.381250000000006
 30
0.0
  0
POINT
  5
100
330
F2
100
AcDbEntity
  8
Defpoints
 62
     0
100
AcDbPoint
 10
38.04769263685269
 20
-2.381249999999961
 30
0.0
  0
ENDBLK
  5
F4
330
F2
100
AcDbEntity
  8
0
100
AcDbBlockEnd
  0
BLOCK
  5
107
330
106
100
AcDbEntity
  8
0
100
AcDbBlockBegin
  2
_D_1
 70
     0
 10
0.0
 20
0.0
 30
0.0
  3
_D_1
  1
_D_1
  0
LINE
  5
109
330
106
100
AcDbEntity
  8
치수문자_일반주서
 62
     0
370
    -2
100
AcDbLine
 10
25.875
 20
2.426372949340951
 30
0.0
 11
25.875
 21
24.48595497082389
 31
0.0
  0
LINE
  5
10A
330
106
100
AcDbEntity
  8
치수문자_일반주서
 62
     0
370
    -2
100
AcDbLine
 10
9.999999999999979
 20
2.361960137482044
 30
0.0
 11
9.999999999999979
 21
24.48595497082389
 31
0.0
  0
LINE
  5
10B
330
106
100
AcDbEntity
  8
치수문자_일반주서
 62
     0
370
    -2
100
AcDbLine
 10
22.573
 20
24.48595497082389
 30
0.0
 11
13.30199999999998
 21
24.48595497082389
 31
0.0
  0
SOLID
  5
10C
330
106
100
AcDbEntity
  8
치수문자_일반주서
 62
     0
100
AcDbTrace
 10
22.573
 20
23.93562163749056
 30
0.0
 11
22.573
 21
25.03628830415722
 31
0.0
 12
25.875
 22
24.48595497082389
 32
0.0
 13
25.875
 23
24.48595497082389
 33
0.0
  0
SOLID
  5
10D
330
106
100
AcDbEntity
  8
치수문자_일반주서
 62
     0
100
AcDbTrace
 10
13.30199999999998
 20
25.03628830415722
 30
0.0
 11
13.30199999999998
 21
23.93562163749056
 31
0.0
 12
9.999999999999979
 22
24.48595497082389
 32
0.0
 13
9.999999999999979
 23
24.48595497082389
 33
0.0
  0
MTEXT
  5
10E
330
106
100
AcDbEntity
  8
치수문자_일반주서
 62
     0
100
AcDbMText
 10
17.93749999999999
 20
28.86095497082389
 30
0.0
 40
3.5
 41
0.0
 71
     2
 72
     1
  1
\A1;15.88 [5/8]
  7
SLDTEXTSTYLE0
 73
     1
 44
1.0
  0
POINT
  5
10F
330
106
100
AcDbEntity
  8
Defpoints
 62
     0
100
AcDbPoint
 10
25.875
 20
2.363872949340951
 30
0.0
  0
POINT
  5
110
330
106
100
AcDbEntity
  8
Defpoints
 62
     0
100
AcDbPoint
 10
9.999999999999979
 20
2.299460137482044
 30
0.0
  0
POINT
  5
111
330
106
100
AcDbEntity
  8
Defpoints
 62
     0
100
AcDbPoint
 10
9.999999999999979
 20
24.48595497082389
 30
0.0
  0
ENDBLK
  5
108
330
106
100
AcDbEntity
  8
0
100
AcDbBlockEnd
  0
BLOCK
  5
11D
330
11C
100
AcDbEntity
  8
0
100
AcDbBlockBegin
  2
_D_2
 70
     0
 10
0.0
 20
0.0
 30
0.0
  3
_D_2
  1
_D_2
  0
LINE
  5
11F
330
11C
100
AcDbEntity
  8
치수문자_일반주서
 62
     0
370
    -2
100
AcDbLine
 10
25.875
 20
2.426372949340951
 30
0.0
 11
25.875
 21
42.4859549708239
 31
0.0
  0
LINE
  5
120
330
11C
100
AcDbEntity
  8
치수문자_일반주서
 62
     0
370
    -2
100
AcDbLine
 10
-24.925
 20
1.967499999999997
 30
0.0
 11
-24.925
 21
42.4859549708239
 31
0.0
  0
LINE
  5
121
330
11C
100
AcDbEntity
  8
치수문자_일반주서
 62
     0
370
    -2
100
AcDbLine
 10
22.573
 20
42.4859549708239
 30
0.0
 11
-21.623
 21
42.4859549708239
 31
0.0
  0
SOLID
  5
122
330
11C
100
AcDbEntity
  8
치수문자_일반주서
 62
     0
100
AcDbTrace
 10
22.573
 20
41.93562163749057
 30
0.0
 11
22.573
 21
43.03628830415724
 31
0.0
 12
25.875
 22
42.4859549708239
 32
0.0
 13
25.875
 23
42.4859549708239
 33
0.0
  0
SOLID
  5
123
330
11C
100
AcDbEntity
  8
치수문자_일반주서
 62
     0
100
AcDbTrace
 10
-21.623
 20
43.03628830415724
 30
0.0
 11
-21.623
 21
41.93562163749057
 31
0.0
 12
-24.925
 22
42.4859549708239
 32
0.0
 13
-24.925
 23
42.4859549708239
 33
0.0
  0
MTEXT
  5
124
330
11C
100
AcDbEntity
  8
치수문자_일반주서
 62
     0
100
AcDbMText
 10
0.4749999999999981
 20
46.8609549708239
 30
0.0
 40
3.5
 41
0.0
 71
     2
 72
     1
  1
\A1;50.8 [2]
  7
SLDTEXTSTYLE0
 73
     1
 44
1.0
  0
POINT
  5
125
330
11C
100
AcDbEntity
  8
Defpoints
 62
     0
100
AcDbPoint
 10
25.875
 20
2.363872949340951
 30
0.0
  0
POINT
  5
126
330
11C
100
AcDbEntity
  8
Defpoints
 62
     0
100
AcDbPoint
 10
-24.925
 20
1.904999999999997
 30
0.0
  0
POINT
  5
127
330
11C
100
AcDbEntity
  8
Defpoints
 62
     0
100
AcDbPoint
 10
-24.925
 20
42.4859549708239
 30
0.0
  0
ENDBLK
  5
11E
330
11C
100
AcDbEntity
  8
0
100
AcDbBlockEnd
  0
BLOCK
  5
130
330
12F
100
AcDbEntity
  8
0
100
AcDbBlockBegin
  2
_D_3
 70
     0
 10
0.0
 20
0.0
 30
0.0
  3
_D_3
  1
_D_3
  0
LINE
  5
132
330
12F
100
AcDbEntity
  8
치수문자_일반주서
 62
     0
370
    -2
100
AcDbLine
 10
-24.51124999999999
 20
2.381249999999997
 30
0.0
 11
-34.10495503550763
 21
2.381249999999962
 31
0.0
  0
LINE
  5
133
330
12F
100
AcDbEntity
  8
치수문자_일반주서
 62
     0
370
    -2
100
AcDbLine
 10
-24.51124999999999
 20
-2.381250000000006
 30
0.0
 11
-34.10495503550761
 21
-2.381250000000041
 31
0.0
  0
LINE
  5
134
330
12F
100
AcDbEntity
  8
치수문자_일반주서
 62
     0
370
    -2
100
AcDbLine
 10
-34.10495503550763
 20
2.381249999999962
 30
0.0
 11
-34.10495503550773
 21
36.98524999999997
 31
0.0
  0
LINE
  5
135
330
12F
100
AcDbEntity
  8
치수문자_일반주서
 62
     0
370
    -2
100
AcDbLine
 10
-34.10495503550763
 20
2.381249999999962
 30
0.0
 11
-34.10495503550761
 21
-2.381250000000041
 31
0.0
  0
LINE
  5
136
330
12F
100
AcDbEntity
  8
치수문자_일반주서
 62
     0
370
    -2
100
AcDbLine
 10
-34.10495503550764
 20
5.683249999999962
 30
0.0
 11
-34.10495503550764
 21
8.985249999999962
 31
0.0
  0
LINE
  5
137
330
12F
100
AcDbEntity
  8
치수문자_일반주서
 62
     0
370
    -2
100
AcDbLine
 10
-34.10495503550761
 20
-5.68325000000004
 30
0.0
 11
-34.1049550355076
 21
-8.98525000000004
 31
0.0
  0
SOLID
  5
138
330
12F
100
AcDbEntity
  8
치수문자_일반주서
 62
     0
100
AcDbTrace
 10
-34.65528836884097
 20
5.68324999999996
 30
0.0
 11
-33.5546217021743
 21
5.683249999999964
 31
0.0
 12
-34.10495503550763
 22
2.381249999999962
 32
0.0
 13
-34.10495503550763
 23
2.381249999999962
 33
0.0
  0
SOLID
  5
139
330
12F
100
AcDbEntity
  8
치수문자_일반주서
 62
     0
100
AcDbTrace
 10
-33.55462170217427
 20
-5.683250000000038
 30
0.0
 11
-34.65528836884094
 21
-5.683250000000042
 31
0.0
 12
-34.10495503550761
 22
-2.381250000000041
 32
0.0
 13
-34.10495503550761
 23
-2.381250000000041
 33
0.0
  0
MTEXT
  5
13A
330
12F
100
AcDbEntity
  8
치수문자_일반주서
 62
     0
100
AcDbMText
 10
-38.47995503550769
 20
22.98524999999995
 30
0.0
 40
3.5
 41
0.0
 71
     2
 72
     1
  1
\A1;%%c4.76 [3/16]
  7
SLDTEXTSTYLE0
 11
-2.983906501879685E-15
 21
1.0
 31
0.0
 73
     1
 44
1.0
  0
POINT
  5
2E2
330
12F
100
AcDbEntity
  8
Defpoints
 62
     0
100
AcDbPoint
 10
-24.44874999999999
 20
2.381249999999997
 30
0.0
  0
POINT
  5
2E3
330
12F
100
AcDbEntity
  8
Defpoints
 62
     0
100
AcDbPoint
 10
-24.44874999999999
 20
-2.381250000000006
 30
0.0
  0
POINT
  5
2E4
330
12F
100
AcDbEntity
  8
Defpoints
 62
     0
100
AcDbPoint
 10
-34.10495503550761
 20
-2.381250000000042
 30
0.0
  0
ENDBLK
  5
131
330
12F
100
AcDbEntity
  8
0
100
AcDbBlockEnd
  0
BLOCK
  5
14A
330
149
100
AcDbEntity
  8
0
100
AcDbBlockBegin
  2
SW_DOWELSYMBOL_0
 70
     0
 10
0.0
 20
0.0
 30
0.0
  3
SW_DOWELSYMBOL_0
  1
SW_DOWELSYMBOL_0
  0
CIRCLE
  5
14C
330
149
100
AcDbEntity
  8
해칭선
 62
     0
100
AcDbCircle
 10
0.0
 20
0.0
 30
0.0
 40
3.000000000000002
  0
HATCH
  5
14D
330
149
100
AcDbEntity
  8
0
  6
Continuous
 62
     0
370
     0
100
AcDbHatch
 10
0.0
 20
0.0
 30
0.0
210
0.0
220
0.0
230
1.0
  2
SOLID
 70
     1
 71
     0
 91
        1
 92
        0
 93
        3
 72
     2
 10
0.0
 20
0.0
 40
3.000000000000002
 50
0.0
 51
90.0
 73
     1
 72
     1
 10
0.0
 20
3.000000000000002
 11
0.0
 21
0.0
 72
     1
 10
0.0
 20
0.0
 11
3.000000000000002
 21
0.0
 97
        0
 75
     0
 76
     1
 98
        1
 10
0.0
 20
0.0
  0
HATCH
  5
14E
330
149
100
AcDbEntity
  8
0
  6
Continuous
 62
     0
370
     0
100
AcDbHatch
 10
0.0
 20
0.0
 30
0.0
210
0.0
220
0.0
230
1.0
  2
SOLID
 70
     1
 71
     0
 91
        1
 92
        0
 93
        3
 72
     2
 10
0.0
 20
0.0
 40
3.000000000000002
 50
180.0
 51
270.0000000000007
 73
     1
 72
     1
 10
0.0
 20
-3.000000000000002
 11
0.0
 21
0.0
 72
     1
 10
0.0
 20
0.0
 11
-3.000000000000002
 21
0.0
 97
        0
 75
     0
 76
     1
 98
        1
 10
0.0
 20
0.0
  0
ENDBLK
  5
14B
330
149
100
AcDbEntity
  8
0
100
AcDbBlockEnd
  0
BLOCK
  5
20C
330
20B
100
AcDbEntity
  8
0
100
AcDbBlockBegin
  2
_D_4
 70
     0
 10
0.0
 20
0.0
 30
0.0
  3
_D_4
  1
_D_4
  0
LINE
  5
20D
330
20B
100
AcDbEntity
  8
치수문자_일반주서
 62
     0
370
    -2
100
AcDbLine
 10
102.4375000000001
 20
36.22143424691529
 30
0.0
 11
117.3750000000001
 21
36.22143424691535
 31
0.0
  0
LINE
  5
20E
330
20B
100
AcDbEntity
  8
치수문자_일반주서
 62
     0
370
    -2
100
AcDbLine
 10
102.4375000000001
 20
22.22143424691529
 30
0.0
 11
117.3750000000001
 21
22.22143424691535
 31
0.0
  0
LINE
  5
20F
330
20B
100
AcDbEntity
  8
치수문자_일반주서
 62
     0
370
    -2
100
AcDbLine
 10
117.3750000000001
 20
36.22143424691535
 30
0.0
 11
117.3750000000001
 21
22.22143424691535
 31
0.0
  0
LINE
  5
210
330
20B
100
AcDbEntity
  8
치수문자_일반주서
 62
     0
370
    -2
100
AcDbLine
 10
117.3750000000001
 20
39.52343424691535
 30
0.0
 11
117.375
 21
42.82543424691535
 31
0.0
  0
LINE
  5
211
330
20B
100
AcDbEntity
  8
치수문자_일반주서
 62
     0
370
    -2
100
AcDbLine
 10
117.3750000000001
 20
18.91943424691535
 30
0.0
 11
117.3750000000001
 21
15.61743424691535
 31
0.0
  0
SOLID
  5
212
330
20B
100
AcDbEntity
  8
치수문자_일반주서
 62
     0
100
AcDbTrace
 10
116.8246666666667
 20
39.52343424691535
 30
0.0
 11
117.9253333333334
 21
39.52343424691535
 31
0.0
 12
117.3750000000001
 22
36.22143424691535
 32
0.0
 13
117.3750000000001
 23
36.22143424691535
 33
0.0
  0
SOLID
  5
213
330
20B
100
AcDbEntity
  8
치수문자_일반주서
 62
     0
100
AcDbTrace
 10
117.9253333333335
 20
18.91943424691535
 30
0.0
 11
116.8246666666668
 21
18.91943424691535
 31
0.0
 12
117.3750000000001
 22
22.22143424691535
 32
0.0
 13
117.3750000000001
 23
22.22143424691535
 33
0.0
  0
MTEXT
  5
214
330
20B
100
AcDbEntity
  8
치수문자_일반주서
 62
     0
100
AcDbMText
 10
113.0000000000001
 20
29.28713862862833
 30
0.0
 40
3.5
 41
0.0
 71
     2
 72
     1
  1
\A1;%%c14
  7
SLDTEXTSTYLE0
 11
-3.045183153257572E-15
 21
1.0
 31
0.0
 73
     1
 44
1.0
  0
POINT
  5
215
330
20B
100
AcDbEntity
  8
Defpoints
 62
     0
100
AcDbPoint
 10
102.3750000000001
 20
36.22143424691529
 30
0.0
  0
POINT
  5
216
330
20B
100
AcDbEntity
  8
Defpoints
 62
     0
100
AcDbPoint
 10
102.3750000000001
 20
22.22143424691529
 30
0.0
  0
POINT
  5
217
330
20B
100
AcDbEntity
  8
Defpoints
 62
     0
100
AcDbPoint
 10
117.3750000000001
 20
22.22143424691535
 30
0.0
  0
ENDBLK
  5
218
330
20B
100
AcDbEntity
  8
0
100
AcDbBlockEnd
  0
BLOCK
  5
226
330
225
100
AcDbEntity
  8
0
100
AcDbBlockBegin
  2
*D8
 70
     1
 10
0.0
 20
0.0
 30
0.0
  3
*D8
  1
*D8
  0
LINE
  5
227
330
225
100
AcDbEntity
  8
치수문자_일반주서
 62
     0
370
    -2
100
AcDbLine
 10
103.8657751816695
 20
19.48229575403651
 30
0.0
 11
120.1921280501954
 21
-7.081888143622854
 31
0.0
  0
MTEXT
  5
228
330
225
100
AcDbEntity
  8
치수문자_일반주서
 62
     0
100
AcDbMText
 10
115.6706384014277
 20
5.288158154535728
 30
0.0
 40
3.5
 41
0.0
 71
     5
 72
     1
  1
\A1;R.50 [R0.02]
  7
SLDTEXTSTYLE0
 11
0.5236126201129557
 21
-0.8519564684057781
 31
0.0
 73
     1
 44
1.0
  0
SOLID
  5
229
330
225
100
AcDbEntity
  8
치수문자_일반주서
 62
     0
100
AcDbTrace
 10
104.3346352247821
 20
19.77045723263868
 30
0.0
 11
103.3969151385569
 21
19.19413427543435
 31
0.0
 12
102.1368063100565
 22
22.29545601271239
 32
0.0
 13
102.1368063100565
 23
22.29545601271239
 33
0.0
  0
LINE
  5
22A
330
225
100
AcDbEntity
  8
치수문자_일반주서
 62
     0
100
AcDbLine
 10
101.785
 20
22.72143424691529
 30
0.0
 11
101.965
 21
22.72143424691529
 31
0.0
  0
LINE
  5
22B
330
225
100
AcDbEntity
  8
치수문자_일반주서
 62
     0
100
AcDbLine
 10
101.875
 20
22.63143424691529
 30
0.0
 11
101.875
 21
22.81143424691529
 31
0.0
  0
POINT
  5
257
330
225
100
AcDbEntity
  8
Defpoints
 62
     0
100
AcDbPoint
 10
102.1368063100565
 20
22.29545601271239
 30
0.0
  0
POINT
  5
258
330
225
100
AcDbEntity
  8
Defpoints
 62
     0
100
AcDbPoint
 10
101.875
 20
22.72143424691529
 30
0.0
  0
ENDBLK
  5
22C
330
225
100
AcDbEntity
  8
0
100
AcDbBlockEnd
  0
BLOCK
  5
232
330
231
100
AcDbEntity
  8
0
100
AcDbBlockBegin
  2
*D9
 70
     1
 10
0.0
 20
0.0
 30
0.0
  3
*D9
  1
*D10
  0
LINE
  5
234
330
231
100
AcDbEntity
  8
치수문자_일반주서
 62
     0
370
    -2
100
AcDbLine
 10
19.37500000000004
 20
35.78393424691529
 30
0.0
 11
19.37500000000004
 21
70.88391841499404
 31
0.0
  0
LINE
  5
235
330
231
100
AcDbEntity
  8
치수문자_일반주서
 62
     0
370
    -2
100
AcDbLine
 10
102.3750000000001
 20
36.34643424691529
 30
0.0
 11
102.3750000000001
 21
70.88391841499404
 31
0.0
  0
LINE
  5
236
330
231
100
AcDbEntity
  8
치수문자_일반주서
 62
     0
370
    -2
100
AcDbLine
 10
22.67700000000004
 20
70.88391841499404
 30
0.0
 11
99.07300000000006
 21
70.88391841499404
 31
0.0
  0
SOLID
  5
237
330
231
100
AcDbEntity
  8
치수문자_일반주서
 62
     0
100
AcDbTrace
 10
22.67700000000004
 20
71.43425174832737
 30
0.0
 11
22.67700000000004
 21
70.33358508166071
 31
0.0
 12
19.37500000000004
 22
70.88391841499404
 32
0.0
 13
19.37500000000004
 23
70.88391841499404
 33
0.0
  0
SOLID
  5
238
330
231
100
AcDbEntity
  8
치수문자_일반주서
 62
     0
100
AcDbTrace
 10
99.07300000000006
 20
70.33358508166071
 30
0.0
 11
99.07300000000006
 21
71.43425174832737
 31
0.0
 12
102.3750000000001
 22
70.88391841499404
 32
0.0
 13
102.3750000000001
 23
70.88391841499404
 33
0.0
  0
MTEXT
  5
239
330
231
100
AcDbEntity
  8
치수문자_일반주서
 62
     0
100
AcDbMText
 10
60.87500000000005
 20
75.25891841499404
 30
0.0
 40
3.5
 41
0.0
 71
     2
 72
     1
  1
\A1;83 [3.27]
  7
SLDTEXTSTYLE0
 73
     1
 44
1.0
  0
POINT
  5
23A
330
231
100
AcDbEntity
  8
Defpoints
 62
     0
100
AcDbPoint
 10
19.37500000000004
 20
35.72143424691529
 30
0.0
  0
POINT
  5
23B
330
231
100
AcDbEntity
  8
Defpoints
 62
     0
100
AcDbPoint
 10
102.3750000000001
 20
36.28393424691529
 30
0.0
  0
POINT
  5
23C
330
231
100
AcDbEntity
  8
Defpoints
 62
     0
100
AcDbPoint
 10
102.3750000000001
 20
70.88391841499404
 30
0.0
  0
ENDBLK
  5
233
330
231
100
AcDbEntity
  8
0
100
AcDbBlockEnd
  0
BLOCK
  5
23E
330
23D
100
AcDbEntity
  8
0
100
AcDbBlockBegin
  2
*D10
 70
     1
 10
0.0
 20
0.0
 30
0.0
  3
*D10
  1
*D11
  0
LINE
  5
240
330
23D
100
AcDbEntity
  8
치수문자_일반주서
 62
     0
370
    -2
100
AcDbLine
 10
76.37504186422882
 20
28.62038676313042
 30
0.0
 11
76.37504186422882
 21
61.90091383617725
 31
0.0
  0
LINE
  5
241
330
23D
100
AcDbEntity
  8
치수문자_일반주서
 62
     0
370
    -2
100
AcDbLine
 10
102.3750000000001
 20
36.28393424691529
 30
0.0
 11
102.3750000000001
 21
61.90091383617725
 31
0.0
  0
LINE
  5
242
330
23D
100
AcDbEntity
  8
치수문자_일반주서
 62
     0
370
    -2
100
AcDbLine
 10
79.67704186422881
 20
61.90091383617725
 30
0.0
 11
99.07300000000006
 21
61.90091383617725
 31
0.0
  0
SOLID
  5
243
330
23D
100
AcDbEntity
  8
치수문자_일반주서
 62
     0
100
AcDbTrace
 10
79.67704186422881
 20
62.45124716951059
 30
0.0
 11
79.67704186422881
 21
61.35058050284392
 31
0.0
 12
76.37504186422882
 22
61.90091383617725
 32
0.0
 13
76.37504186422882
 23
61.90091383617725
 33
0.0
  0
SOLID
  5
244
330
23D
100
AcDbEntity
  8
치수문자_일반주서
 62
     0
100
AcDbTrace
 10
99.07300000000006
 20
61.35058050284392
 30
0.0
 11
99.07300000000006
 21
62.45124716951059
 31
0.0
 12
102.3750000000001
 22
61.90091383617725
 32
0.0
 13
102.3750000000001
 23
61.90091383617725
 33
0.0
  0
MTEXT
  5
245
330
23D
100
AcDbEntity
  8
치수문자_일반주서
 62
     0
100
AcDbMText
 10
89.42159572693208
 20
66.27591383617725
 30
0.0
 40
3.5
 41
0.0
 71
     2
 72
     1
  1
\A1;26 [1.02]
  7
SLDTEXTSTYLE0
 73
     1
 44
1.0
  0
POINT
  5
246
330
23D
100
AcDbEntity
  8
Defpoints
 62
     0
100
AcDbPoint
 10
76.37504186422882
 20
28.55788676313042
 30
0.0
  0
POINT
  5
247
330
23D
100
AcDbEntity
  8
Defpoints
 62
     0
100
AcDbPoint
 10
102.3750000000001
 20
36.22143424691529
 30
0.0
  0
POINT
  5
248
330
23D
100
AcDbEntity
  8
Defpoints
 62
     0
100
AcDbPoint
 10
102.3750000000001
 20
61.90091383617725
 30
0.0
  0
ENDBLK
  5
23F
330
23D
100
AcDbEntity
  8
0
100
AcDbBlockEnd
  0
BLOCK
  5
24A
330
249
100
AcDbEntity
  8
0
100
AcDbBlockBegin
  2
*D11
 70
     1
 10
0.0
 20
0.0
 30
0.0
  3
*D11
  1
*D12
  0
LINE
  5
24C
330
249
100
AcDbEntity
  8
치수문자_일반주서
 62
     0
370
    -2
100
AcDbLine
 10
19.81250000000005
 20
36.22143424691529
 30
0.0
 11
4.374999999999983
 21
36.22143424691524
 31
0.0
  0
LINE
  5
24D
330
249
100
AcDbEntity
  8
치수문자_일반주서
 62
     0
370
    -2
100
AcDbLine
 10
19.81250000000005
 20
22.22143424691529
 30
0.0
 11
4.375000000000032
 21
22.22143424691524
 31
0.0
  0
LINE
  5
24E
330
249
100
AcDbEntity
  8
치수문자_일반주서
 62
     0
370
    -2
100
AcDbLine
 10
4.374999999999983
 20
36.22143424691524
 30
0.0
 11
4.375000000000032
 21
22.22143424691524
 31
0.0
  0
LINE
  5
24F
330
249
100
AcDbEntity
  8
치수문자_일반주서
 62
     0
370
    -2
100
AcDbLine
 10
4.374999999999972
 20
39.52343424691524
 30
0.0
 11
4.37499999999996
 21
42.82543424691524
 31
0.0
  0
LINE
  5
250
330
249
100
AcDbEntity
  8
치수문자_일반주서
 62
     0
370
    -2
100
AcDbLine
 10
4.375000000000044
 20
18.91943424691524
 30
0.0
 11
4.375000000000055
 21
15.61743424691524
 31
0.0
  0
SOLID
  5
251
330
249
100
AcDbEntity
  8
치수문자_일반주서
 62
     0
100
AcDbTrace
 10
3.824666666666638
 20
39.52343424691524
 30
0.0
 11
4.925333333333305
 21
39.52343424691524
 31
0.0
 12
4.374999999999983
 22
36.22143424691524
 32
0.0
 13
4.374999999999983
 23
36.22143424691524
 33
0.0
  0
SOLID
  5
252
330
249
100
AcDbEntity
  8
치수문자_일반주서
 62
     0
100
AcDbTrace
 10
4.925333333333377
 20
18.91943424691524
 30
0.0
 11
3.82466666666671
 21
18.91943424691523
 31
0.0
 12
4.375000000000032
 22
22.22143424691524
 32
0.0
 13
4.375000000000032
 23
22.22143424691524
 33
0.0
  0
MTEXT
  5
253
330
249
100
AcDbEntity
  8
치수문자_일반주서
 62
     0
100
AcDbMText
 10
0.0000000000000071
 20
29.22143424691528
 30
0.0
 40
3.5
 41
0.0
 71
     2
 72
     1
  1
\A1;%%c14
  7
SLDTEXTSTYLE0
 11
-3.489272363107635E-15
 21
1.0
 31
0.0
 73
     1
 44
1.0
  0
POINT
  5
254
330
249
100
AcDbEntity
  8
Defpoints
 62
     0
100
AcDbPoint
 10
19.87500000000005
 20
36.22143424691529
 30
0.0
  0
POINT
  5
255
330
249
100
AcDbEntity
  8
Defpoints
 62
     0
100
AcDbPoint
 10
19.87500000000005
 20
22.22143424691529
 30
0.0
  0
POINT
  5
256
330
249
100
AcDbEntity
  8
Defpoints
 62
     0
100
AcDbPoint
 10
4.375000000000043
 20
22.22143424691524
 30
0.0
  0
ENDBLK
  5
24B
330
249
100
AcDbEntity
  8
0
100
AcDbBlockEnd
  0
BLOCK
  5
2A5
330
2A4
100
AcDbEntity
  8
0
100
AcDbBlockBegin
  2
*D12
 70
     1
 10
0.0
 20
0.0
 30
0.0
  3
*D12
  1
*D13
  0
LINE
  5
2A7
330
2A4
100
AcDbEntity
  8
치수문자_일반주서
 62
     0
370
    -2
100
AcDbLine
 10
-44.04897526592563
 20
102.2847392906821
 30
0.0
 11
-44.04897526592563
 21
137.3847234587608
 31
0.0
  0
LINE
  5
2A8
330
2A4
100
AcDbEntity
  8
치수문자_일반주서
 62
     0
370
    -2
100
AcDbLine
 10
38.95102473407438
 20
102.8472392906821
 30
0.0
 11
38.95102473407438
 21
137.3847234587608
 31
0.0
  0
LINE
  5
2A9
330
2A4
100
AcDbEntity
  8
치수문자_일반주서
 62
     0
370
    -2
100
AcDbLine
 10
-40.74697526592563
 20
137.3847234587608
 30
0.0
 11
35.64902473407438
 21
137.3847234587608
 31
0.0
  0
SOLID
  5
2AA
330
2A4
100
AcDbEntity
  8
치수문자_일반주서
 62
     0
100
AcDbTrace
 10
-40.74697526592563
 20
137.9350567920942
 30
0.0
 11
-40.74697526592563
 21
136.8343901254275
 31
0.0
 12
-44.04897526592563
 22
137.3847234587608
 32
0.0
 13
-44.04897526592563
 23
137.3847234587608
 33
0.0
  0
SOLID
  5
2AB
330
2A4
100
AcDbEntity
  8
치수문자_일반주서
 62
     0
100
AcDbTrace
 10
35.64902473407438
 20
136.8343901254275
 30
0.0
 11
35.64902473407438
 21
137.9350567920942
 31
0.0
 12
38.95102473407438
 22
137.3847234587608
 32
0.0
 13
38.95102473407438
 23
137.3847234587608
 33
0.0
  0
MTEXT
  5
2AC
330
2A4
100
AcDbEntity
  8
치수문자_일반주서
 62
     0
100
AcDbMText
 10
-2.548975265925627
 20
141.7597234587608
 30
0.0
 40
3.5
 41
0.0
 71
     2
 72
     1
  1
\A1;83 [3.27]
  7
SLDTEXTSTYLE0
 73
     1
 44
1.0
  0
POINT
  5
2AD
330
2A4
100
AcDbEntity
  8
Defpoints
 62
     0
100
AcDbPoint
 10
-44.04897526592563
 20
102.2222392906821
 30
0.0
  0
POINT
  5
2AE
330
2A4
100
AcDbEntity
  8
Defpoints
 62
     0
100
AcDbPoint
 10
38.95102473407438
 20
102.7847392906821
 30
0.0
  0
POINT
  5
2AF
330
2A4
100
AcDbEntity
  8
Defpoints
 62
     0
100
AcDbPoint
 10
38.95102473407438
 20
137.3847234587608
 30
0.0
  0
ENDBLK
  5
2A6
330
2A4
100
AcDbEntity
  8
0
100
AcDbBlockEnd
  0
BLOCK
  5
2B1
330
2B0
100
AcDbEntity
  8
0
100
AcDbBlockBegin
  2
*D13
 70
     1
 10
0.0
 20
0.0
 30
0.0
  3
*D13
  1
*D14
  0
LINE
  5
2B3
330
2B0
100
AcDbEntity
  8
치수문자_일반주서
 62
     0
370
    -2
100
AcDbLine
 10
12.95106659830314
 20
95.12119180689723
 30
0.0
 11
12.95106659830314
 21
128.401718879944
 31
0.0
  0
LINE
  5
2B4
330
2B0
100
AcDbEntity
  8
치수문자_일반주서
 62
     0
370
    -2
100
AcDbLine
 10
38.95102473407438
 20
102.7847392906821
 30
0.0
 11
38.95102473407438
 21
128.401718879944
 31
0.0
  0
LINE
  5
2B5
330
2B0
100
AcDbEntity
  8
치수문자_일반주서
 62
     0
370
    -2
100
AcDbLine
 10
16.25306659830314
 20
128.401718879944
 30
0.0
 11
35.64902473407438
 21
128.401718879944
 31
0.0
  0
SOLID
  5
2B6
330
2B0
100
AcDbEntity
  8
치수문자_일반주서
 62
     0
100
AcDbTrace
 10
16.25306659830314
 20
128.9520522132774
 30
0.0
 11
16.25306659830314
 21
127.8513855466107
 31
0.0
 12
12.95106659830314
 22
128.401718879944
 32
0.0
 13
12.95106659830314
 23
128.401718879944
 33
0.0
  0
SOLID
  5
2B7
330
2B0
100
AcDbEntity
  8
치수문자_일반주서
 62
     0
100
AcDbTrace
 10
35.64902473407438
 20
127.8513855466107
 30
0.0
 11
35.64902473407438
 21
128.9520522132774
 31
0.0
 12
38.95102473407438
 22
128.401718879944
 32
0.0
 13
38.95102473407438
 23
128.401718879944
 33
0.0
  0
MTEXT
  5
2B8
330
2B0
100
AcDbEntity
  8
치수문자_일반주서
 62
     0
100
AcDbMText
 10
25.99762046100641
 20
132.776718879944
 30
0.0
 40
3.5
 41
0.0
 71
     2
 72
     1
  1
\A1;26 [1.02]
  7
SLDTEXTSTYLE0
 73
     1
 44
1.0
  0
POINT
  5
2B9
330
2B0
100
AcDbEntity
  8
Defpoints
 62
     0
100
AcDbPoint
 10
12.95106659830314
 20
95.05869180689723
 30
0.0
  0
POINT
  5
2BA
330
2B0
100
AcDbEntity
  8
Defpoints
 62
     0
100
AcDbPoint
 10
38.95102473407438
 20
102.7222392906821
 30
0.0
  0
POINT
  5
2BB
330
2B0
100
AcDbEntity
  8
Defpoints
 62
     0
100
AcDbPoint
 10
38.95102473407438
 20
128.401718879944
 30
0.0
  0
ENDBLK
  5
2B2
330
2B0
100
AcDbEntity
  8
0
100
AcDbBlockEnd
  0
BLOCK
  5
2BD
330
2BC
100
AcDbEntity
  8
0
100
AcDbBlockBegin
  2
*D14
 70
     1
 10
0.0
 20
0.0
 30
0.0
  3
*D14
  1
*D15
  0
LINE
  5
2BF
330
2BC
100
AcDbEntity
  8
치수문자_일반주서
 62
     0
370
    -2
100
AcDbLine
 10
-43.61147526592563
 20
102.7222392906821
 30
0.0
 11
-59.04897526592569
 21
102.722239290682
 31
0.0
  0
LINE
  5
2C0
330
2BC
100
AcDbEntity
  8
치수문자_일반주서
 62
     0
370
    -2
100
AcDbLine
 10
-43.61147526592563
 20
88.7222392906821
 30
0.0
 11
-59.04897526592564
 21
88.72223929068204
 31
0.0
  0
LINE
  5
2C1
330
2BC
100
AcDbEntity
  8
치수문자_일반주서
 62
     0
370
    -2
100
AcDbLine
 10
-59.04897526592569
 20
102.722239290682
 30
0.0
 11
-59.04897526592564
 21
88.72223929068204
 31
0.0
  0
LINE
  5
2C2
330
2BC
100
AcDbEntity
  8
치수문자_일반주서
 62
     0
370
    -2
100
AcDbLine
 10
-59.04897526592571
 20
106.024239290682
 30
0.0
 11
-59.04897526592572
 21
109.3262392906821
 31
0.0
  0
LINE
  5
2C3
330
2BC
100
AcDbEntity
  8
치수문자_일반주서
 62
     0
370
    -2
100
AcDbLine
 10
-59.04897526592563
 20
85.42023929068203
 30
0.0
 11
-59.04897526592561
 21
82.11823929068203
 31
0.0
  0
SOLID
  5
2C4
330
2BC
100
AcDbEntity
  8
치수문자_일반주서
 62
     0
100
AcDbTrace
 10
-59.59930859925904
 20
106.024239290682
 30
0.0
 11
-58.49864193259237
 21
106.024239290682
 31
0.0
 12
-59.04897526592569
 22
102.722239290682
 32
0.0
 13
-59.04897526592569
 23
102.722239290682
 33
0.0
  0
SOLID
  5
2C5
330
2BC
100
AcDbEntity
  8
치수문자_일반주서
 62
     0
100
AcDbTrace
 10
-58.49864193259229
 20
85.42023929068203
 30
0.0
 11
-59.59930859925896
 21
85.42023929068203
 31
0.0
 12
-59.04897526592564
 22
88.72223929068204
 32
0.0
 13
-59.04897526592564
 23
88.72223929068204
 33
0.0
  0
MTEXT
  5
2C6
330
2BC
100
AcDbEntity
  8
치수문자_일반주서
 62
     0
100
AcDbMText
 10
-63.42397526592567
 20
95.72223929068208
 30
0.0
 40
3.5
 41
0.0
 71
     2
 72
     1
  1
\A1;%%c14
  7
SLDTEXTSTYLE0
 11
-3.552713678800501E-15
 21
1.0
 31
0.0
 73
     1
 44
1.0
  0
POINT
  5
2C7
330
2BC
100
AcDbEntity
  8
Defpoints
 62
     0
100
AcDbPoint
 10
-43.54897526592563
 20
102.7222392906821
 30
0.0
  0
POINT
  5
2C8
330
2BC
100
AcDbEntity
  8
Defpoints
 62
     0
100
AcDbPoint
 10
-43.54897526592563
 20
88.7222392906821
 30
0.0
  0
POINT
  5
2C9
330
2BC
100
AcDbEntity
  8
Defpoints
 62
     0
100
AcDbPoint
 10
-59.04897526592565
 20
88.72223929068204
 30
0.0
  0
ENDBLK
  5
2BE
330
2BC
100
AcDbEntity
  8
0
100
AcDbBlockEnd
  0
BLOCK
  5
2CB
330
2CA
100
AcDbEntity
  8
0
100
AcDbBlockBegin
  2
*D15
 70
     1
 10
0.0
 20
0.0
 30
0.0
  3
*D15
  1
*D16
  0
LINE
  5
2CD
330
2CA
100
AcDbEntity
  8
치수문자_일반주서
 62
     0
370
    -2
100
AcDbLine
 10
39.01352473407439
 20
102.7222392906821
 30
0.0
 11
53.95102473407439
 21
102.7222392906822
 31
0.0
  0
LINE
  5
2CE
330
2CA
100
AcDbEntity
  8
치수문자_일반주서
 62
     0
370
    -2
100
AcDbLine
 10
39.01352473407438
 20
88.7222392906821
 30
0.0
 11
53.95102473407444
 21
88.72223929068215
 31
0.0
  0
LINE
  5
2CF
330
2CA
100
AcDbEntity
  8
치수문자_일반주서
 62
     0
370
    -2
100
AcDbLine
 10
53.95102473407439
 20
102.7222392906822
 30
0.0
 11
53.95102473407444
 21
88.72223929068215
 31
0.0
  0
LINE
  5
2D0
330
2CA
100
AcDbEntity
  8
치수문자_일반주서
 62
     0
370
    -2
100
AcDbLine
 10
53.95102473407437
 20
106.0242392906822
 30
0.0
 11
53.95102473407436
 21
109.3262392906822
 31
0.0
  0
LINE
  5
2D1
330
2CA
100
AcDbEntity
  8
치수문자_일반주서
 62
     0
370
    -2
100
AcDbLine
 10
53.95102473407445
 20
85.42023929068215
 30
0.0
 11
53.95102473407447
 21
82.11823929068214
 31
0.0
  0
SOLID
  5
2D2
330
2CA
100
AcDbEntity
  8
치수문자_일반주서
 62
     0
100
AcDbTrace
 10
53.40069140074104
 20
106.0242392906822
 30
0.0
 11
54.50135806740771
 21
106.0242392906822
 31
0.0
 12
53.95102473407439
 22
102.7222392906822
 32
0.0
 13
53.95102473407439
 23
102.7222392906822
 33
0.0
  0
SOLID
  5
2D3
330
2CA
100
AcDbEntity
  8
치수문자_일반주서
 62
     0
100
AcDbTrace
 10
54.50135806740779
 20
85.42023929068215
 30
0.0
 11
53.40069140074112
 21
85.42023929068215
 31
0.0
 12
53.95102473407444
 22
88.72223929068215
 32
0.0
 13
53.95102473407444
 23
88.72223929068215
 33
0.0
  0
MTEXT
  5
2D4
330
2CA
100
AcDbEntity
  8
치수문자_일반주서
 62
     0
100
AcDbMText
 10
49.57602473407441
 20
95.78794367239513
 30
0.0
 40
3.5
 41
0.0
 71
     2
 72
     1
  1
\A1;%%c14
  7
SLDTEXTSTYLE0
 11
-3.552713678800501E-15
 21
1.0
 31
0.0
 73
     1
 44
1.0
  0
POINT
  5
2D5
330
2CA
100
AcDbEntity
  8
Defpoints
 62
     0
100
AcDbPoint
 10
38.95102473407439
 20
102.7222392906821
 30
0.0
  0
POINT
  5
2D6
330
2CA
100
AcDbEntity
  8
Defpoints
 62
     0
100
AcDbPoint
 10
38.95102473407438
 20
88.7222392906821
 30
0.0
  0
POINT
  5
2D7
330
2CA
100
AcDbEntity
  8
Defpoints
 62
     0
100
AcDbPoint
 10
53.95102473407444
 20
88.72223929068215
 30
0.0
  0
ENDBLK
  5
2CC
330
2CA
100
AcDbEntity
  8
0
100
AcDbBlockEnd
  0
BLOCK
  5
2D9
330
2D8
100
AcDbEntity
  8
0
100
AcDbBlockBegin
  2
*D16
 70
     1
 10
0.0
 20
0.0
 30
0.0
  3
*D16
  1
*D17
  0
LINE
  5
2DB
330
2D8
100
AcDbEntity
  8
치수문자_일반주서
 62
     0
370
    -2
100
AcDbLine
 10
40.44179991574383
 20
85.98310079780332
 30
0.0
 11
56.76815278426967
 21
59.41891690014394
 31
0.0
  0
MTEXT
  5
2DC
330
2D8
100
AcDbEntity
  8
치수문자_일반주서
 62
     0
100
AcDbMText
 10
52.246663135502
 20
71.78896319830253
 30
0.0
 40
3.5
 41
0.0
 71
     5
 72
     1
  1
\A1;R.50 [R0.02]
  7
SLDTEXTSTYLE0
 11
0.5236126201129557
 21
-0.8519564684057781
 31
0.0
 73
     1
 44
1.0
  0
SOLID
  5
2DD
330
2D8
100
AcDbEntity
  8
치수문자_일반주서
 62
     0
100
AcDbTrace
 10
40.91065995885648
 20
86.27126227640548
 30
0.0
 11
39.97293987263118
 21
85.69493931920115
 31
0.0
 12
38.71283104413085
 22
88.7962610564792
 32
0.0
 13
38.71283104413085
 23
88.7962610564792
 33
0.0
  0
LINE
  5
2DE
330
2D8
100
AcDbEntity
  8
치수문자_일반주서
 62
     0
100
AcDbLine
 10
38.36102473407436
 20
89.2222392906821
 30
0.0
 11
38.54102473407437
 21
89.2222392906821
 31
0.0
  0
LINE
  5
2DF
330
2D8
100
AcDbEntity
  8
치수문자_일반주서
 62
     0
100
AcDbLine
 10
38.45102473407437
 20
89.1322392906821
 30
0.0
 11
38.45102473407437
 21
89.3122392906821
 31
0.0
  0
POINT
  5
2E0
330
2D8
100
AcDbEntity
  8
Defpoints
 62
     0
100
AcDbPoint
 10
38.71283104413085
 20
88.7962610564792
 30
0.0
  0
POINT
  5
2E1
330
2D8
100
AcDbEntity
  8
Defpoints
 62
     0
100
AcDbPoint
 10
38.45102473407437
 20
89.2222392906821
 30
0.0
  0
ENDBLK
  5
2DA
330
2D8
100
AcDbEntity
  8
0
100
AcDbBlockEnd
  0
ENDSEC
  0
SECTION
  2
ENTITIES
  0
LINE
  5
96
330
1F
100
AcDbEntity
  8
외형선
  6
Continuous
370
    15
100
AcDbLine
 10
-24.44875
 20
-2.381250000000005
 30
0.0
 11
9.000304643182874
 21
-2.381250000000005
 31
0.0
  0
LINE
  5
97
330
1F
100
AcDbEntity
  8
외형선
  6
Continuous
370
    15
100
AcDbLine
 10
9.000304643182874
 20
2.381249999999996
 30
0.0
 11
-24.44875
 21
2.381249999999996
 31
0.0
  0
LINE
  5
98
330
1F
100
AcDbEntity
  8
외형선
  6
Continuous
370
    15
100
AcDbLine
 10
-24.44875
 20
2.381249999999996
 30
0.0
 11
-24.925
 21
1.904999999999997
 31
0.0
  0
LINE
  5
99
330
1F
100
AcDbEntity
  8
외형선
  6
Continuous
370
    15
100
AcDbLine
 10
-24.925
 20
-1.905000000000006
 30
0.0
 11
-24.44875
 21
-2.381250000000005
 31
0.0
  0
LINE
  5
9A
330
1F
100
AcDbEntity
  8
외형선
  6
Continuous
370
    15
100
AcDbLine
 10
10.41324629654991
 20
-0.4567226583126799
 30
0.0
 11
10.43303748186976
 21
-0.4759318923402878
 31
0.0
  0
LINE
  5
9B
330
1F
100
AcDbEntity
  8
0
  6
Continuous
 62
     1
370
    15
100
AcDbLine
 10
11.41821810412456
 20
0.452002690404076
 30
0.0
 11
11.39293693050311
 21
0.4762786344125429
 31
0.0
  0
LINE
  5
9C
330
1F
100
AcDbEntity
  8
0
  6
Continuous
 62
     1
370
    15
100
AcDbLine
 10
25.36678392986819
 20
-0.4488883041989087
 30
0.0
 11
25.39527493384817
 21
-0.4763243477597185
 31
0.0
  0
LINE
  5
9D
330
1F
100
AcDbEntity
  8
0
  6
Continuous
 62
     1
370
    15
100
AcDbLine
 10
22.87434797234662
 20
-0.4501031425516406
 30
0.0
 11
22.9015792948382
 21
-0.4762692793869931
 31
0.0
  0
LINE
  5
9E
330
1F
100
AcDbEntity
  8
0
  6
Continuous
 62
     1
370
    15
100
AcDbLine
 10
18.95834181646596
 20
0.3949386454086811
 30
0.0
 11
18.87370371157038
 21
0.4764256172070242
 31
0.0
  0
LINE
  5
9F
330
1F
100
AcDbEntity
  8
0
  6
Continuous
 62
     1
370
    15
100
AcDbLine
 10
15.36756628734959
 20
-0.4246778339325816
 30
0.0
 11
15.42039420456265
 21
-0.4760083340527089
 31
0.0
  0
LINE
  5
A0
330
1F
100
AcDbEntity
  8
0
  6
Continuous
 62
     1
370
    15
100
AcDbLine
 10
12.90014177416299
 20
-0.4503910450487955
 30
0.0
 11
12.92669217050999
 21
-0.4759470274549593
 31
0.0
  0
LINE
  5
A1
330
1F
100
AcDbEntity
  8
0
  6
Continuous
 62
     1
370
    15
100
AcDbLine
 10
13.91169909749885
 20
0.4521323042886168
 30
0.0
 11
13.88647436154083
 21
0.4763778462547784
 31
0.0
  0
LINE
  5
A2
330
1F
100
AcDbEntity
  8
0
  6
Continuous
 62
     1
370
    15
100
AcDbLine
 10
21.39677695811511
 20
0.4481000070110463
 30
0.0
 11
21.36739033447583
 21
0.4763793416016963
 31
0.0
  0
LINE
  5
A3
330
1F
100
AcDbEntity
  8
0
  6
Continuous
 62
     1
370
    15
100
AcDbLine
 10
20.38008376171018
 20
-0.449427191283886
 30
0.0
 11
20.40784093401295
 21
-0.4761725490239423
 31
0.0
  0
LINE
  5
A4
330
1F
100
AcDbEntity
  8
0
  6
Continuous
 62
     1
370
    15
100
AcDbLine
 10
15.6125281921167
 20
-2.381250000000006
 30
0.0
 11
16.18877941336107
 21
-2.381250000000006
 31
0.0
  0
LINE
  5
A5
330
1F
100
AcDbEntity
  8
0
  6
Continuous
 62
     1
370
    15
100
AcDbLine
 10
23.66943078740266
 20
2.381249999999997
 30
0.0
 11
23.09405477168314
 21
2.381249999999997
 31
0.0
  0
LINE
  5
A6
330
1F
100
AcDbEntity
  8
0
  6
Continuous
 62
     1
370
    15
100
AcDbLine
 10
13.11967957284084
 20
-2.381250000000006
 30
0.0
 11
13.69454289355702
 21
-2.381250000000006
 31
0.0
  0
LINE
  5
A7
330
1F
100
AcDbEntity
  8
0
  6
Continuous
 62
     1
370
    15
100
AcDbLine
 10
21.17480603423811
 20
2.381249999999997
 30
0.0
 11
20.60046946294551
 21
2.381249999999997
 31
0.0
  0
LINE
  5
A8
330
1F
100
AcDbEntity
  8
0
  6
Continuous
 62
     1
370
    15
100
AcDbLine
 10
23.09405477168312
 20
-2.381250000000006
 30
0.0
 11
23.66943078740267
 21
-2.381250000000006
 31
0.0
  0
LINE
  5
A9
330
1F
100
AcDbEntity
  8
0
  6
Continuous
 62
     1
370
    15
100
AcDbLine
 10
16.18877941336106
 20
2.381249999999997
 30
0.0
 11
15.61252819211669
 21
2.381249999999997
 31
0.0
  0
LINE
  5
AA
330
1F
100
AcDbEntity
  8
0
  6
Continuous
 62
     1
370
    15
100
AcDbLine
 10
20.60046946294549
 20
-2.381250000000006
 30
0.0
 11
21.17480603423809
 21
-2.381250000000006
 31
0.0
  0
LINE
  5
AB
330
1F
100
AcDbEntity
  8
0
  6
Continuous
 62
     1
370
    15
100
AcDbLine
 10
13.694542893557
 20
2.381249999999997
 30
0.0
 11
13.11967957284084
 21
2.381249999999997
 31
0.0
  0
LINE
  5
AC
330
1F
100
AcDbEntity
  8
0
  6
Continuous
 62
     1
370
    15
100
AcDbLine
 10
25.58680989830982
 20
-2.381250000000006
 30
0.0
 11
25.875
 21
-2.381250000000006
 31
0.0
  0
LINE
  5
AD
330
1F
100
AcDbEntity
  8
0
  6
Continuous
 62
     1
370
    15
100
AcDbLine
 10
10.62524677088577
 20
-2.381250000000006
 30
0.0
 11
11.200272397165
 21
-2.381250000000006
 31
0.0
  0
LINE
  5
AE
330
1F
100
AcDbEntity
  8
0
  6
Continuous
 62
     1
370
    15
100
AcDbLine
 10
18.68165368486765
 20
2.381249999999997
 30
0.0
 11
18.10580198271377
 21
2.381249999999997
 31
0.0
  0
LINE
  5
AF
330
1F
100
AcDbEntity
  8
0
  6
Continuous
 62
     1
370
    15
100
AcDbLine
 10
18.10580198271377
 20
-2.381250000000006
 30
0.0
 11
18.68165368486764
 21
-2.381250000000006
 31
0.0
  0
LINE
  5
B0
330
1F
100
AcDbEntity
  8
0
  6
Continuous
 62
     1
370
    15
100
AcDbLine
 10
11.20027239716498
 20
2.381249999999997
 30
0.0
 11
10.62524677088578
 21
2.381249999999997
 31
0.0
  0
LINE
  5
B1
330
1F
100
AcDbEntity
  8
0
  6
Continuous
 62
     1
370
    15
100
AcDbLine
 10
25.875
 20
2.381249999999997
 30
0.0
 11
25.58680989830982
 21
2.381249999999997
 31
0.0
  0
SPLINE
  5
B2
330
1F
100
AcDbEntity
  8
외형선
  6
Continuous
370
    15
100
AcDbSpline
210
0.0
220
0.0
230
1.0
 70
     8
 71
     3
 72
    10
 73
     6
 74
     0
 42
0.000000001
 43
0.00000001
 40
0.0
 40
0.0
 40
0.0
 40
0.0
 40
0.5
 40
0.5
 40
1.0
 40
1.0
 40
1.0
 40
1.0
 10
10.0
 20
-2.084447959699222
 30
0.0
 10
9.834535246034516
 20
-2.004070709755612
 30
0.0
 10
9.665390278243125
 20
-1.907694645874944
 30
0.0
 10
9.330802960964569
 20
-1.688945114039458
 30
0.0
 10
9.167620871752483
 20
-1.567316596371231
 30
0.0
 10
9.000304643182881
 20
-1.434106202837545
 30
0.0
  0
SPLINE
  5
B3
330
1F
100
AcDbEntity
  8
외형선
  6
Continuous
370
    15
100
AcDbSpline
210
0.0
220
0.0
230
1.0
 70
     8
 71
     3
 72
    10
 73
     6
 74
     0
 42
0.000000001
 43
0.00000001
 40
0.0
 40
0.0
 40
0.0
 40
0.0
 40
0.5
 40
0.5
 40
1.0
 40
1.0
 40
1.0
 40
1.0
 10
10.0
 20
-0.6138886939170062
 30
0.0
 10
9.834535246034516
 20
-0.4532588752382947
 30
0.0
 10
9.665390278243118
 20
-0.2869126804580898
 30
0.0
 10
9.330802960964569
 20
0.0463782260665337
 30
0.0
 10
9.167620871752483
 20
0.2125400548372977
 30
0.0
 10
9.000304643182874
 20
0.3772980636846891
 30
0.0
  0
SPLINE
  5
B4
330
1F
100
AcDbEntity
  8
외형선
  6
Continuous
370
    15
100
AcDbSpline
210
0.0
220
0.0
230
1.0
 70
    24
 71
     3
 72
    14
 73
    10
 74
     0
 42
0.000000001
 43
0.00000001
 40
0.0
 40
0.0
 40
0.0
 40
0.0
 40
0.1228123564484035
 40
0.2710538129018625
 40
0.4192952693550089
 40
0.5675367258087928
 40
0.7157781822622564
 40
0.8640196387157233
 40
1.0
 40
1.0
 40
1.0
 40
1.0
 10
10.0
 20
-2.084447959699221
 30
0.0
 10
10.00000000000001
 20
-2.012333310877058
 30
0.0
 10
10.0
 20
-1.853172204498172
 30
0.0
 10
10.00000000000004
 20
-1.552452185884038
 30
0.0
 10
10.0
 20
-1.228682577511759
 30
0.0
 10
10.00000000000003
 20
-0.9297939031317488
 30
0.0
 10
9.999999999999966
 20
-0.6942521865580832
 30
0.0
 10
10.00000000000001
 20
-0.5407019003132204
 30
0.0
 10
10.00000000000001
 20
-0.5253939828689221
 30
0.0
 10
10.0
 20
-0.5180702096232445
 30
0.0
  0
LINE
  5
B5
330
1F
100
AcDbEntity
  8
외형선
  6
Continuous
370
    15
100
AcDbLine
 10
9.000304643182874
 20
0.9291742748798731
 30
0.0
 11
9.000304643182874
 21
2.224860842876791
 31
0.0
  0
SPLINE
  5
B6
330
1F
100
AcDbEntity
  8
외형선
  6
Continuous
370
    15
100
AcDbSpline
210
0.0
220
0.0
230
1.0
 70
     8
 71
     3
 72
    10
 73
     6
 74
     0
 42
0.000000001
 43
0.00000001
 40
0.0
 40
0.0
 40
0.0
 40
0.0
 40
0.5
 40
0.5
 40
1.0
 40
1.0
 40
1.0
 40
1.0
 10
10.0
 20
-0.0451927870806312
 30
0.0
 10
9.834535246034516
 20
0.1210266450511969
 30
0.0
 10
9.665390278243125
 20
0.2887993769671834
 30
0.0
 10
9.330802960964569
 20
0.6164323914730045
 30
0.0
 10
9.167620871752483
 20
0.7755998134784526
 30
0.0
 10
9.000304643182881
 20
0.9292361262420843
 30
0.0
  0
SPLINE
  5
B7
330
1F
100
AcDbEntity
  8
외형선
  6
Continuous
370
    15
100
AcDbSpline
210
0.0
220
0.0
230
1.0
 70
     8
 71
     3
 72
    10
 73
     6
 74
     0
 42
0.000000001
 43
0.00000001
 40
0.0
 40
0.0
 40
0.0
 40
0.0
 40
0.5
 40
0.5
 40
1.0
 40
1.0
 40
1.0
 40
1.0
 10
10.0
 20
-2.299460137482054
 30
0.0
 10
9.834535246034516
 20
-2.256262435718338
 30
0.0
 10
9.665390278243118
 20
-2.195749156216366
 30
0.0
 10
9.330802960964569
 20
-2.043700279827198
 30
0.0
 10
9.167620871752483
 20
-1.952799395294699
 30
0.0
 10
9.000304643182874
 20
-1.847523431440151
 30
0.0
  0
LINE
  5
B8
330
1F
100
AcDbEntity
  8
외형선
  6
Continuous
370
    15
100
AcDbLine
 10
9.000304643182874
 20
-2.381250000000005
 30
0.0
 11
9.000304643182874
 21
-1.847453784502593
 31
0.0
  0
SPLINE
  5
B9
330
1F
100
AcDbEntity
  8
외형선
  6
Continuous
370
    15
100
AcDbSpline
210
0.0
220
0.0
230
1.0
 70
     8
 71
     3
 72
     9
 73
     5
 74
     0
 42
0.000000001
 43
0.00000001
 40
0.0
 40
0.0
 40
0.0
 40
0.0
 40
0.7479073475227594
 40
1.0
 40
1.0
 40
1.0
 40
1.0
 10
9.000304643182881
 20
-2.363342329079625
 30
0.0
 10
9.16606480939503
 20
-2.338103863113567
 30
0.0
 10
9.387696762552306
 20
-2.304358418507822
 30
0.0
 10
9.610243105094568
 20
-2.205018700511599
 30
0.0
 10
9.666345402885147
 20
-2.179975887505591
 30
0.0
  0
LINE
  5
BA
330
1F
100
AcDbEntity
  8
외형선
  6
Continuous
370
    15
100
AcDbLine
 10
10.0
 20
2.299460137482046
 30
0.0
 11
9.666345402885147
 21
2.179975887505582
 31
0.0
  0
LINE
  5
BB
330
1F
100
AcDbEntity
  8
외형선
  6
Continuous
370
    15
100
AcDbLine
 10
9.000304643182874
 20
2.363334105061234
 30
0.0
 11
9.000304643182874
 21
2.381249999999996
 31
0.0
  0
SPLINE
  5
BC
330
1F
100
AcDbEntity
  8
외형선
  6
Continuous
370
    15
100
AcDbSpline
210
0.0
220
0.0
230
1.0
 70
     8
 71
     3
 72
    10
 73
     6
 74
     0
 42
0.000000001
 43
0.00000001
 40
0.0
 40
0.0
 40
0.0
 40
0.0
 40
0.5
 40
0.5
 40
1.0
 40
1.0
 40
1.0
 40
1.0
 10
10.0
 20
2.039255172618569
 30
0.0
 10
9.834535246034516
 20
2.125097354806788
 30
0.0
 10
9.665390278243125
 20
2.196494022842109
 30
0.0
 10
9.330802960964569
 20
2.305377505512447
 30
0.0
 10
9.167620871752483
 20
2.34291640984967
 30
0.0
 10
9.000304643182881
 20
2.363342329079616
 30
0.0
  0
SPLINE
  5
BD
330
1F
100
AcDbEntity
  8
외형선
  6
Continuous
370
    15
100
AcDbSpline
210
0.0
220
0.0
230
1.0
 70
     8
 71
     3
 72
    10
 73
     6
 74
     0
 42
0.000000001
 43
0.00000001
 40
0.0
 40
0.0
 40
0.0
 40
0.0
 40
0.5000000000000001
 40
0.5000000000000001
 40
1.0
 40
1.0
 40
1.0
 40
1.0
 10
10.0
 20
1.685571443565042
 30
0.0
 10
9.834535246034516
 20
1.803003560480036
 30
0.0
 10
9.665390278243118
 20
1.908836475758267
 30
0.0
 10
9.330802960964583
 20
2.09007850589372
 30
0.0
 10
9.167620871752476
 20
2.165339450131981
 30
0.0
 10
9.000304643182874
 20
2.224821495124823
 30
0.0
  0
LINE
  5
BE
330
1F
100
AcDbEntity
  8
외형선
  6
Continuous
370
    15
100
AcDbLine
 10
-24.44875
 20
-0.0000000000000043
 30
0.0
 11
-24.44875
 21
2.381249999999996
 31
0.0
  0
LINE
  5
BF
330
1F
100
AcDbEntity
  8
외형선
  6
Continuous
370
    15
100
AcDbLine
 10
-24.44875
 20
-2.381250000000005
 30
0.0
 11
-24.44875
 21
-0.0000000000000043
 31
0.0
  0
LINE
  5
C0
330
1F
100
AcDbEntity
  8
외형선
  6
Continuous
370
    15
100
AcDbLine
 10
10.0
 20
1.68557144355286
 30
0.0
 11
10.0
 21
2.039255172618569
 31
0.0
  0
LINE
  5
C1
330
1F
100
AcDbEntity
  8
외형선
  6
Continuous
370
    15
100
AcDbLine
 10
10.0
 20
-2.299460137460038
 30
0.0
 11
10.0
 21
-2.084447959699221
 31
0.0
  0
LINE
  5
C2
330
1F
100
AcDbEntity
  8
외형선
  6
Continuous
370
    15
100
AcDbLine
 10
10.0
 20
-0.6138886939071724
 30
0.0
 11
10.0
 21
-0.0451927870806315
 31
0.0
  0
LINE
  5
C3
330
1F
100
AcDbEntity
  8
외형선
  6
Continuous
370
    15
100
AcDbLine
 10
9.000304643182874
 20
-1.434159830181373
 30
0.0
 11
9.000304643182874
 21
0.3774070583742143
 31
0.0
  0
SPLINE
  5
C4
330
1F
100
AcDbEntity
  8
외형선
  6
Continuous
370
    15
100
AcDbSpline
210
0.0
220
0.0
230
1.0
 70
    24
 71
     3
 72
    16
 73
    12
 74
     0
 42
0.000000001
 43
0.00000001
 40
0.0
 40
0.0
 40
0.0
 40
0.0
 40
0.0044174201158636
 40
0.1409409503448837
 40
0.2774644805736159
 40
0.4139880108029353
 40
0.5505115410319597
 40
0.6870350712609871
 40
0.8235586014899392
 40
0.960082131719033
 40
1.0
 40
1.0
 40
1.0
 40
1.0
 10
10.0
 20
-0.0560967658251181
 30
0.0
 10
10.00000000000001
 20
-0.0562592846779953
 30
0.0
 10
9.999999999999979
 20
-0.0614445649938093
 30
0.0
 10
10.00000000000006
 20
0.0172889334364224
 30
0.0
 10
9.999999999999993
 20
0.1938347562541669
 30
0.0
 10
10.00000000000002
 20
0.4593000896348032
 30
0.0
 10
9.999999999999973
 20
0.7706822126708273
 30
0.0
 10
10.00000000000001
 20
1.096671323616242
 30
0.0
 10
9.999999999999986
 20
1.398403459184692
 30
0.0
 10
10.00000000000001
 20
1.58798826923183
 30
0.0
 10
9.999999999999993
 20
1.667567535715865
 30
0.0
 10
10.0
 20
1.68557144355286
 30
0.0
  0
LINE
  5
C5
330
1F
100
AcDbEntity
  8
외형선
  6
Continuous
370
    15
100
AcDbLine
 10
-24.925
 20
-0.0000000000000043
 30
0.0
 11
-24.925
 21
1.904999999999997
 31
0.0
  0
LINE
  5
C6
330
1F
100
AcDbEntity
  8
외형선
  6
Continuous
370
    15
100
AcDbLine
 10
-24.925
 20
-1.905000000000006
 30
0.0
 11
-24.925
 21
-0.0000000000000043
 31
0.0
  0
SPLINE
  5
C7
330
1F
100
AcDbEntity
  8
외형선
  6
Continuous
370
    15
100
AcDbSpline
210
0.0
220
0.0
230
1.0
 70
    24
 71
     3
 72
     9
 73
     5
 74
     0
 42
0.000000001
 43
0.00000001
 40
0.0
 40
0.0
 40
0.0
 40
0.0
 40
0.5989772681736445
 40
1.0
 40
1.0
 40
1.0
 40
1.0
 10
10.0
 20
2.07431102530024
 30
0.0
 10
10.0
 20
2.117720522212664
 30
0.0
 10
10.00000000000001
 20
2.190193217286361
 30
0.0
 10
9.999999999999993
 20
2.268184043339005
 30
0.0
 10
10.0
 20
2.299460137460029
 30
0.0
  0
LINE
  5
C8
330
1F
100
AcDbEntity
  8
0
  6
Continuous
 62
     1
370
    15
100
AcDbLine
 10
25.875
 20
-0.9332555920003733
 30
0.0
 11
25.875
 21
0.933255592000409
 31
0.0
  0
SPLINE
  5
C9
330
1F
100
AcDbEntity
  8
0
  6
Continuous
 62
     1
370
    15
100
AcDbSpline
210
0.0
220
0.0
230
1.0
 70
     8
 71
     3
 72
    16
 73
    12
 74
     0
 42
0.000000001
 43
0.00000001
 40
0.0
 40
0.0
 40
0.0
 40
0.0
 40
0.1191390761560726
 40
0.238114120499934
 40
0.3517637604376671
 40
0.4649397097475993
 40
0.5781034756004559
 40
0.6917586930618317
 40
0.8048274318047999
 40
0.9181662296447731
 40
1.0
 40
1.0
 40
1.0
 40
1.0
 10
10.00000000000001
 20
-0.0451927870806273
 30
0.0
 10
10.18484771330027
 20
-0.2297374368057553
 30
0.0
 10
10.55428863981256
 20
-0.5985726534285718
 30
0.0
 10
11.09877773836607
 20
-1.112143885283937
 30
0.0
 10
11.63679003917093
 20
-1.557560602557408
 30
0.0
 10
12.1634735901043
 20
-1.921402046919296
 30
0.0
 10
12.69006734518824
 20
-2.190732389763883
 30
0.0
 10
13.21900496189279
 20
-2.353323191192247
 30
0.0
 10
13.74512886004601
 20
-2.39791387446118
 30
0.0
 10
14.22350790097408
 20
-2.344613758524505
 30
0.0
 10
14.52655805301389
 20
-2.228585269765752
 30
0.0
 10
14.65362374045898
 20
-2.179935765424285
 30
0.0
  0
SPLINE
  5
CA
330
1F
100
AcDbEntity
  8
0
  6
Continuous
 62
     1
370
    15
100
AcDbSpline
210
0.0
220
0.0
230
1.0
 70
     8
 71
     3
 72
    16
 73
    12
 74
     0
 42
0.000000001
 43
0.00000001
 40
0.0
 40
0.0
 40
0.0
 40
0.0
 40
0.1024375607604027
 40
0.2145919171255784
 40
0.3265761177768233
 40
0.4391250384532595
 40
0.5511316145214755
 40
0.6632476260118388
 40
0.7757464493846037
 40
0.8876789640806336
 40
0.9999999999999999
 40
0.9999999999999999
 40
0.9999999999999999
 40
0.9999999999999999
 10
21.17480603423811
 20
2.376508770090123
 30
0.0
 10
21.33551508137244
 20
2.369076538655887
 30
0.0
 10
21.67217735903681
 20
2.35350708561391
 30
0.0
 10
22.18371907114946
 20
2.187398739570959
 30
0.0
 10
22.709971756207
 20
1.918759340331772
 30
0.0
 10
23.23896632952796
 20
1.555639006140154
 30
0.0
 10
23.76536279897324
 20
1.115274917838396
 30
0.0
 10
24.2922809295403
 20
0.6203301877083316
 30
0.0
 10
24.82103538319526
 20
0.0980794812390741
 30
0.0
 10
25.34709355131964
 20
-0.4354945362543172
 30
0.0
 10
25.69882805607885
 20
-0.7671437117264301
 30
0.0
 10
25.87500000000001
 20
-0.9332555920003734
 30
0.0
  0
SPLINE
  5
CB
330
1F
100
AcDbEntity
  8
0
  6
Continuous
 62
     1
370
    15
100
AcDbSpline
210
0.0
220
0.0
230
1.0
 70
     8
 71
     3
 72
    15
 73
    11
 74
     0
 42
0.000000001
 43
0.00000001
 40
0.0
 40
0.0
 40
0.0
 40
0.0
 40
0.1411251454655094
 40
0.2817621355849549
 40
0.4231106611147413
 40
0.5639782047683551
 40
0.7047082488899963
 40
0.8461197189003973
 40
0.9868216495529186
 40
1.0
 40
1.0
 40
1.0
 40
1.0
 10
25.87500000000001
 20
0.933255592000409
 30
0.0
 10
25.69882808511995
 20
1.090556538482876
 30
0.0
 10
25.34709363834254
 20
1.404614323608538
 30
0.0
 10
24.82103503577743
 20
1.796845195285361
 30
0.0
 10
24.29228223798833
 20
2.102574923302328
 30
0.0
 10
23.76535793538858
 20
2.305304405282872
 30
0.0
 10
23.23898450035378
 20
2.398226854138847
 30
0.0
 10
22.70990371792018
 20
2.363145404570199
 30
0.0
 10
22.34278150600913
 20
2.286199340873683
 30
0.0
 10
22.15094343395186
 20
2.194099076276502
 30
0.0
 10
22.13451436763747
 20
2.186211583776115
 30
0.0
  0
SPLINE
  5
CC
330
1F
100
AcDbEntity
  8
0
  6
Continuous
 62
     1
370
    15
100
AcDbSpline
210
0.0
220
0.0
230
1.0
 70
     8
 71
     3
 72
    18
 73
    14
 74
     0
 42
0.000000001
 43
0.00000001
 40
0.0
 40
0.0
 40
0.0
 40
0.0
 40
0.05088652987535
 40
0.144606286323527
 40
0.2387367790360322
 40
0.3327074082294219
 40
0.4264541280136033
 40
0.5206871047126924
 40
0.6145126126742357
 40
0.7083482220939666
 40
0.8025765743977398
 40
0.9012202867749414
 40
1.0
 40
1.0
 40
1.0
 40
1.0
 10
15.6125281921167
 20
-2.366732050310234
 30
0.0
 10
15.51717346056696
 20
-2.369087198025115
 30
0.0
 10
15.24620010776492
 20
-2.375779915442209
 30
0.0
 10
14.80096635404254
 20
-2.258630791781278
 30
0.0
 10
14.27258405218622
 20
-2.03183796550806
 30
0.0
 10
13.74516029102197
 20
-1.700008181848103
 30
0.0
 10
13.21899649867837
 20
-1.285190550420125
 30
0.0
 10
12.69006960686816
 20
-0.8099506977344909
 30
0.0
 10
12.16347298529222
 20
-0.2930390039935863
 30
0.0
 10
11.63679020168856
 20
0.2386311866374429
 30
0.0
 10
11.09877769267655
 20
0.7635959566815661
 30
0.0
 10
10.55428865147069
 20
1.267694852287148
 30
0.0
 10
10.18484771718809
 20
1.5462152908473
 30
0.0
 10
9.999999999999993
 20
1.685571443565047
 30
0.0
  0
SPLINE
  5
CD
330
1F
100
AcDbEntity
  8
외형선
  6
Continuous
370
    15
100
AcDbSpline
210
0.0
220
0.0
230
1.0
 70
    24
 71
     3
 72
    15
 73
    11
 74
     0
 42
0.000000001
 43
0.00000001
 40
0.0
 40
0.0
 40
0.0
 40
0.0
 40
0.0896859095732191
 40
0.2259588718629137
 40
0.3622318341525428
 40
0.4985047964421687
 40
0.6347777587317989
 40
0.7710507210214187
 40
0.9073236833110417
 40
1.0
 40
1.0
 40
1.0
 40
1.0
 10
9.999999999999986
 20
1.685571443565044
 30
0.0
 10
10.00000000000001
 20
1.642908375652844
 30
0.0
 10
10.00000000000003
 20
1.535421048585244
 30
0.0
 10
10.0
 20
1.29254976476821
 30
0.0
 10
9.999999999999993
 20
0.9784983960049486
 30
0.0
 10
10.00000000000006
 20
0.6534949811804773
 30
0.0
 10
10.00000000000001
 20
0.354635044209031
 30
0.0
 10
9.99999999999996
 20
0.1202121844537867
 30
0.0
 10
10.00000000000006
 20
-0.0248764326995869
 30
0.0
 10
10.00000000000001
 20
-0.0400256123197682
 30
0.0
 10
9.999999999999986
 20
-0.0461578446391772
 30
0.0
  0
LINE
  5
CE
330
1F
100
AcDbEntity
  8
0
  6
Continuous
 62
     1
370
    15
100
AcDbLine
 10
25.875
 20
-2.363872949340958
 30
0.0
 11
25.875
 21
-1.422559149198963
 31
0.0
  0
SPLINE
  5
CF
330
1F
100
AcDbEntity
  8
0
  6
Continuous
 62
     1
370
    15
100
AcDbSpline
210
0.0
220
0.0
230
1.0
 70
     8
 71
     3
 72
    11
 73
     7
 74
     0
 42
0.000000001
 43
0.00000001
 40
0.0
 40
0.0
 40
0.0
 40
0.0
 40
0.256661413520349
 40
0.5129694531675503
 40
0.7578049695541731
 40
1.0
 40
1.0
 40
1.0
 40
1.0
 10
10.00000000000001
 20
-2.08444795969922
 30
0.0
 10
10.18484785155841
 20
-2.163023064255713
 30
0.0
 10
10.55428905439662
 20
-2.32006509041806
 30
0.0
 10
11.09877611356773
 20
-2.397019200184048
 30
0.0
 10
11.63562582154316
 20
-2.366246509223004
 30
0.0
 10
11.98582742402076
 20
-2.248801440062314
 30
0.0
 10
12.15997889834997
 20
-2.190397275711466
 30
0.0
  0
SPLINE
  5
D0
330
1F
100
AcDbEntity
  8
0
  6
Continuous
 62
     1
370
    15
100
AcDbSpline
210
0.0
220
0.0
230
1.0
 70
     8
 71
     3
 72
    21
 73
    17
 74
     0
 42
0.000000001
 43
0.00000001
 40
0.0
 40
0.0
 40
0.0
 40
0.0
 40
0.0470294704278645
 40
0.1201694068355487
 40
0.1935236469116254
 40
0.2669433325452686
 40
0.34007274833749
 40
0.4135581330511821
 40
0.4868366118041008
 40
0.5600039156345994
 40
0.6335401915292109
 40
0.7067221148231906
 40
0.7799755401213413
 40
0.8534790838571531
 40
0.9266126175489445
 40
1.0
 40
1.0
 40
1.0
 40
1.0
 10
18.68165368486765
 20
2.367770058215246
 30
0.0
 10
18.79464466279634
 20
2.368484252955689
 30
0.0
 10
19.08335849843871
 20
2.370309158861355
 30
0.0
 10
19.546123124673
 20
2.241118748405792
 30
0.0
 10
20.07378216050236
 20
2.002791386862001
 30
0.0
 10
20.60192874710251
 20
1.66260083507584
 30
0.0
 10
21.12795933917652
 20
1.240327927485768
 30
0.0
 10
21.65658544294403
 20
0.7598082836446688
 30
0.0
 10
22.18368586819601
 20
0.2408264460796723
 30
0.0
 10
22.70998069853901
 20
-0.2910069990231327
 30
0.0
 10
23.2389639413203
 20
-0.8056242096641855
 30
0.0
 10
23.76536343819847
 20
-1.283587470042673
 30
0.0
 10
24.2922807575698
 20
-1.698590695169826
 30
0.0
 10
24.8210354288567
 20
-2.027285749458907
 30
0.0
 10
25.34709353988215
 20
-2.266910453535188
 30
0.0
 10
25.69882805226194
 20
-2.331514808203921
 30
0.0
 10
25.87500000000001
 20
-2.363872949340958
 30
0.0
  0
SPLINE
  5
D1
330
1F
100
AcDbEntity
  8
0
  6
Continuous
 62
     1
370
    15
100
AcDbSpline
210
0.0
220
0.0
230
1.0
 70
     8
 71
     3
 72
    19
 73
    15
 74
     0
 42
0.000000001
 43
0.00000001
 40
0.0
 40
0.0
 40
0.0
 40
0.0
 40
0.0846815579538619
 40
0.169070200317863
 40
0.2538857965524042
 40
0.3384127816079275
 40
0.4228572606398291
 40
0.5077106264487822
 40
0.5921382361101922
 40
0.676694130298473
 40
0.7614887728726878
 40
0.845872663600379
 40
0.9305914961338371
 40
1.0
 40
1.0
 40
1.0
 40
1.0
 10
25.87500000000001
 20
-1.430617357340554
 30
0.0
 10
25.69882805220425
 20
-1.283352074119653
 30
0.0
 10
25.34709353970923
 20
-0.989330901911292
 30
0.0
 10
24.82103542954711
 20
-0.4787866825623999
 30
0.0
 10
24.29228075496961
 20
0.0469649552873332
 30
0.0
 10
23.76536344786362
 20
0.5737938030332834
 30
0.0
 10
23.23896390521042
 20
1.072750398165439
 30
0.0
 10
22.70998083374786
 20
1.516881321156445
 30
0.0
 10
22.1836853661644
 20
1.889477873821592
 30
0.0
 10
21.65658732225496
 20
2.168511840153161
 30
0.0
 10
21.12795231812833
 20
2.342163789436739
 30
0.0
 10
20.60195484993169
 20
2.398873625042877
 30
0.0
 10
20.10540148606746
 20
2.352742801471519
 30
0.0
 10
19.78513318762799
 20
2.235591349707386
 30
0.0
 10
19.64090605732315
 20
2.182834277648381
 30
0.0
  0
SPLINE
  5
D2
330
1F
100
AcDbEntity
  8
0
  6
Continuous
 62
     1
370
    15
100
AcDbSpline
210
0.0
220
0.0
230
1.0
 70
     8
 71
     3
 72
    13
 73
     9
 74
     0
 42
0.000000001
 43
0.00000001
 40
0.0
 40
0.0
 40
0.0
 40
0.0
 40
0.1376237954910919
 40
0.306433953192974
 40
0.4752622853634703
 40
0.6447972376166272
 40
0.8222762729501717
 40
1.0
 40
1.0
 40
1.0
 40
1.0
 10
13.11967957284084
 20
-2.372319329775486
 30
0.0
 10
12.97629190880031
 20
-2.36849653255313
 30
0.0
 10
12.65702409196487
 20
-2.359984669754106
 30
0.0
 10
12.163445135699
 20
-2.207987688571022
 30
0.0
 10
11.63679768508621
 20
-1.950333719048219
 30
0.0
 10
11.09877558882662
 20
-1.588956489419138
 30
0.0
 10
10.55428918828972
 20
-1.139764186853763
 30
0.0
 10
10.18484789620993
 20
-0.7892610096528683
 30
0.0
 10
9.999999999999993
 20
-0.6138886939170002
 30
0.0
  0
SPLINE
  5
D3
330
1F
100
AcDbEntity
  8
외형선
  6
Continuous
370
    15
100
AcDbSpline
210
0.0
220
0.0
230
1.0
 70
    24
 71
     3
 72
    15
 73
    11
 74
     0
 42
0.000000001
 43
0.00000001
 40
0.0
 40
0.0
 40
0.0
 40
0.0
 40
0.0379390433748154
 40
0.1867793741173696
 40
0.3356197048599202
 40
0.4844600356024756
 40
0.6333003663450198
 40
0.7821406970875673
 40
0.9309810278301224
 40
1.0
 40
1.0
 40
1.0
 40
1.0
 10
10.0
 20
-0.5243004566268412
 30
0.0
 10
10.0
 20
-0.5215203684366392
 30
0.0
 10
9.999999999999993
 20
-0.5078335939171276
 30
0.0
 10
9.999999999999986
 20
-0.5911190185602632
 30
0.0
 10
10.00000000000006
 20
-0.7691333920753223
 30
0.0
 10
10.00000000000001
 20
-1.034138495352898
 30
0.0
 10
9.999999999999966
 20
-1.345892988103901
 30
0.0
 10
10.00000000000007
 20
-1.670852850291656
 30
0.0
 10
9.999999999999952
 20
-1.921721719294778
 30
0.0
 10
9.999999999999993
 20
-2.04529826161016
 30
0.0
 10
10.0
 20
-2.08444795969922
 30
0.0
  0
SPLINE
  5
D4
330
1F
100
AcDbEntity
  8
0
  6
Continuous
 62
     1
370
    15
100
AcDbSpline
210
0.0
220
0.0
230
1.0
 70
     8
 71
     3
 72
    24
 73
    20
 74
     0
 42
0.000000001
 43
0.00000001
 40
0.0
 40
0.0
 40
0.0
 40
0.0
 40
0.0059833542972776
 40
0.0684778392446177
 40
0.1310786402651273
 40
0.1934062841139879
 40
0.2560200560613208
 40
0.318499583748548
 40
0.3808505624121488
 40
0.4435231746394314
 40
0.5059115316914866
 40
0.5683270038198378
 40
0.6309872029830867
 40
0.693325375292125
 40
0.7558462015609952
 40
0.818422807977413
 40
0.8807520134214015
 40
0.9433846160660605
 40
1.0
 40
1.0
 40
1.0
 40
1.0
 10
13.694542893557
 20
2.37621005450514
 30
0.0
 10
13.71135578847486
 20
2.37785652541038
 30
0.0
 10
13.90377473246849
 20
2.396699930692479
 30
0.0
 10
14.27258062550053
 20
2.322625289318973
 30
0.0
 10
14.80094756076013
 20
2.149076840632557
 30
0.0
 10
15.32696292162033
 20
1.856936807170388
 30
0.0
 10
15.85543029405594
 20
1.479117726805393
 30
0.0
 10
16.38273132344123
 20
1.027484068589905
 30
0.0
 10
16.90893842960061
 20
0.5244209260477186
 30
0.0
 10
17.4378941045167
 20
-0.0011723049585315
 30
0.0
 10
17.96441521540474
 20
-0.5294302966516382
 30
0.0
 10
18.4911667705821
 20
-1.031424716092382
 30
0.0
 10
19.02002065965823
 20
-1.481084022010915
 30
0.0
 10
19.54612274185763
 20
-1.861046760405222
 30
0.0
 10
20.07378122890966
 20
-2.148334726371109
 30
0.0
 10
20.60193285377874
 20
-2.331605727562015
 30
0.0
 10
21.1279438810666
 20
-2.398738575256686
 30
0.0
 10
21.64016654820687
 20
-2.359491148588126
 30
0.0
 10
21.97536984815963
 20
-2.241995167709185
 30
0.0
 10
22.13451436763745
 20
-2.186211583776122
 30
0.0
  0
SPLINE
  5
D5
330
1F
100
AcDbEntity
  8
0
  6
Continuous
 62
     1
370
    15
100
AcDbSpline
210
0.0
220
0.0
230
1.0
 70
     8
 71
     3
 72
    24
 73
    20
 74
     0
 42
0.000000001
 43
0.00000001
 40
0.0
 40
0.0
 40
0.0
 40
0.0
 40
0.0454824173215923
 40
0.107838415600915
 40
0.1702891614369778
 40
0.232916240512868
 40
0.2952399491446847
 40
0.3578110369306411
 40
0.4203263494882998
 40
0.4826590241943798
 40
0.5453136973551245
 40
0.607723665063445
 40
0.6701065200867486
 40
0.7327736052168183
 40
0.7951190851480673
 40
0.8575931027662056
 40
0.9202013528054493
 40
0.9825234999798561
 40
1.0
 40
1.0
 40
1.0
 40
1.0
 10
23.09405477168312
 20
-2.369610488990571
 30
0.0
 10
22.9658224242707
 20
-2.368326388245244
 30
0.0
 10
22.66178464466097
 20
-2.365281796554595
 30
0.0
 10
22.18366920105576
 20
-2.224996886870895
 30
0.0
 10
21.65658992322226
 20
-1.976840449186785
 30
0.0
 10
21.12795815609651
 20
-1.629409891666939
 30
0.0
 10
20.60192901954
 20
-1.201044993168636
 30
0.0
 10
20.07378225744599
 20
-0.7158940020930419
 30
0.0
 10
19.54612246593581
 20
-0.1955045740205672
 30
0.0
 10
19.02002073904179
 20
0.3364673178952361
 30
0.0
 10
18.49116673019847
 20
0.8487599966314586
 30
0.0
 10
17.96441529731977
 20
1.321929563541957
 30
0.0
 10
17.4378938166451
 20
1.730420910981845
 30
0.0
 10
16.90893950214131
 20
2.052874350902115
 30
0.0
 10
16.38272734196237
 20
2.27625942441038
 30
0.0
 10
15.85544520281845
 20
2.389692370773069
 30
0.0
 10
15.32690725927803
 20
2.378724311106034
 30
0.0
 10
14.92765098099117
 20
2.304460873438797
 30
0.0
 10
14.70285560709507
 20
2.202308006588003
 30
0.0
 10
14.65362374045897
 20
2.179935765424276
 30
0.0
  0
SPLINE
  5
D6
330
1F
100
AcDbEntity
  8
0
  6
Continuous
 62
     1
370
    15
100
AcDbSpline
210
0.0
220
0.0
230
1.0
 70
     8
 71
     3
 72
    24
 73
    20
 74
     0
 42
0.000000001
 43
0.00000001
 40
0.0
 40
0.0
 40
0.0
 40
0.0
 40
0.0516845758132636
 40
0.1140828965243743
 40
0.176474500019799
 40
0.2391370599796435
 40
0.3014762713182962
 40
0.3639643767837367
 40
0.4265587874695255
 40
0.4888800688677454
 40
0.5514874491562761
 40
0.6139605988884513
 40
0.6763052127193769
 40
0.7389714272813991
 40
0.8013534156851665
 40
0.8637625163973032
 40
0.9264163191624263
 40
0.9887481279460714
 40
1.0
 40
1.0
 40
1.0
 40
1.0
 10
11.20027239716498
 20
2.3728085255549
 30
0.0
 10
11.34596246836843
 20
2.368548381561103
 30
0.0
 10
11.66754284425819
 20
2.359145004271539
 30
0.0
 10
12.16349725282525
 20
2.205350511251052
 30
0.0
 10
12.69006297077951
 20
1.946111705195656
 30
0.0
 10
13.21899864938123
 20
1.590298135646513
 30
0.0
 10
13.74515830570597
 20
1.155343104100226
 30
0.0
 10
14.27258986447138
 20
0.6649035881836822
 30
0.0
 10
14.80094509762672
 20
0.1431516976668517
 30
0.0
 10
15.32696357702727
 20
-0.3885585486475032
 30
0.0
 10
15.85543014396539
 20
-0.8982315324989678
 30
0.0
 10
16.38273126888004
 20
-1.36540198257994
 30
0.0
 10
16.90893879734889
 20
-1.766692194712254
 30
0.0
 10
17.43789268230859
 20
-2.079814763123328
 30
0.0
 10
17.96442050821139
 20
-2.29231604022948
 30
0.0
 10
18.49114696931974
 20
-2.394744219134751
 30
0.0
 10
19.02009472086024
 20
-2.370968849382169
 30
0.0
 10
19.40210661657376
 20
-2.294770027879376
 30
0.0
 10
19.60923371403921
 20
-2.197680491257329
 30
0.0
 10
19.64090605732314
 20
-2.182834277648392
 30
0.0
  0
SPLINE
  5
D7
330
1F
100
AcDbEntity
  8
0
  6
Continuous
 62
     1
370
    15
100
AcDbSpline
210
0.0
220
0.0
230
1.0
 70
     8
 71
     3
 72
    24
 73
    20
 74
     0
 42
0.000000001
 43
0.00000001
 40
0.0
 40
0.0
 40
0.0
 40
0.0
 40
0.0623656921514259
 40
0.1248828053036954
 40
0.1872172753439671
 40
0.2498737531132502
 40
0.312285518381991
 40
0.3746701701848029
 40
0.4373390602809062
 40
0.4996863359151689
 40
0.562162152938522
 40
0.6247722062492043
 40
0.687096148454584
 40
0.749693231608786
 40
0.8121840050039393
 40
0.8745258779152714
 40
0.9371911132531633
 40
0.999585380558148
 40
1.0
 40
1.0
 40
1.0
 40
1.0
 10
20.60046946294549
 20
-2.381057772680089
 30
0.0
 10
20.42489096779416
 20
-2.369901600555715
 30
0.0
 10
20.0733076810688
 20
-2.347562169639756
 30
0.0
 10
19.54609339709747
 20
-2.168623350843453
 30
0.0
 10
19.02002855897803
 20
-1.890775491328821
 30
0.0
 10
18.49116465882307
 20
-1.520354455644102
 30
0.0
 10
17.96441577901361
 20
-1.074719627577319
 30
0.0
 10
17.43789395627443
 20
-0.5759110673580167
 30
0.0
 10
16.90893845590862
 20
-0.0517516738306679
 30
0.0
 10
16.38273136558455
 20
0.4781377314995849
 30
0.0
 10
15.85543009844491
 20
0.9831986800410886
 30
0.0
 10
15.32696366207834
 20
1.439296538647352
 30
0.0
 10
14.80094480381278
 20
1.827358856519598
 30
0.0
 10
14.27259095961145
 20
2.124320057101507
 30
0.0
 10
13.74515423259687
 20
2.317520600862036
 30
0.0
 10
13.21901384361986
 20
2.400856849105282
 30
0.0
 10
12.69000603723752
 20
2.354270294957251
 30
0.0
 10
12.33773607733247
 20
2.277514325878347
 30
0.0
 10
12.16114462905327
 20
2.190968588896905
 30
0.0
 10
12.15997889834996
 20
2.190397275711455
 30
0.0
  0
LINE
  5
D8
330
1F
100
AcDbEntity
  8
0
  6
Continuous
 62
     1
370
    15
100
AcDbLine
 10
25.875
 20
1.420099774524876
 30
0.0
 11
25.875
 21
2.363872949340951
 31
0.0
  0
SPLINE
  5
D9
330
1F
100
AcDbEntity
  8
0
  6
Continuous
 62
     1
370
    15
100
AcDbSpline
210
0.0
220
0.0
230
1.0
 70
     8
 71
     3
 72
    21
 73
    17
 74
     0
 42
0.000000001
 43
0.00000001
 40
0.0
 40
0.0
 40
0.0
 40
0.0
 40
0.0775694033048032
 40
0.1550320083180069
 40
0.2290273341188134
 40
0.3027142480992911
 40
0.3763932296404212
 40
0.4503921868709386
 40
0.5240092978952773
 40
0.597802239752686
 40
0.6717207187004878
 40
0.7453166560463798
 40
0.8192504509512571
 40
0.8930257314065951
 40
0.9666492222978733
 40
1.0
 40
1.0
 40
1.0
 40
1.0
 10
10.00000000000001
 20
2.039255172618573
 30
0.0
 10
10.18484771699829
 20
1.933167881052008
 30
0.0
 10
10.5542886509015
 20
1.721139359910036
 30
0.0
 10
11.09877769490732
 20
1.286259060930024
 30
0.0
 10
11.63679019375374
 20
0.8036968545462678
 30
0.0
 10
12.16347301482171
 20
0.2859837866405835
 30
0.0
 10
12.69006949644333
 20
-0.2453280105962459
 30
0.0
 10
13.21899691188846
 20
-0.7622398930066678
 30
0.0
 10
13.74515875642812
 20
-1.244994099567373
 30
0.0
 10
14.27258979966185
 20
-1.665286280098202
 30
0.0
 10
14.80094490464171
 20
-2.003975209615843
 30
0.0
 10
15.32696441068518
 20
-2.245765659919564
 30
0.0
 10
15.85542698787119
 20
-2.37822942850363
 30
0.0
 10
16.382743015911
 20
-2.389109345276037
 30
0.0
 10
16.81228614123772
 20
-2.320722804949613
 30
0.0
 10
17.06764963976802
 20
-2.211481444939015
 30
0.0
 10
17.14726290924586
 20
-2.177423868649906
 30
0.0
  0
SPLINE
  5
DA
330
1F
100
AcDbEntity
  8
0
  6
Continuous
 62
     1
370
    15
100
AcDbSpline
210
0.0
220
0.0
230
1.0
 70
     8
 71
     3
 72
    12
 73
     8
 74
     0
 42
0.000000001
 43
0.00000001
 40
0.0
 40
0.0
 40
0.0
 40
0.0
 40
0.04350213623883
 40
0.2824111994592916
 40
0.5221360001199142
 40
0.7606540482957322
 40
1.0
 40
1.0
 40
1.0
 40
1.0
 10
23.66943078740266
 20
2.372581436675488
 30
0.0
 10
23.70138483672425
 20
2.375307660917723
 30
0.0
 10
23.90882709535148
 20
2.393006016097743
 30
0.0
 10
24.29224211351648
 20
2.312389378240048
 30
0.0
 10
24.82104568958823
 20
2.127099469472992
 30
0.0
 10
25.3470909697251
 20
1.830981516867525
 30
0.0
 10
25.69882719455398
 20
1.564226129191223
 30
0.0
 10
25.87500000000001
 20
1.430617357340558
 30
0.0
  0
SPLINE
  5
DB
330
1F
100
AcDbEntity
  8
0
  6
Continuous
 62
     1
370
    15
100
AcDbSpline
210
0.0
220
0.0
230
1.0
 70
     8
 71
     3
 72
    10
 73
     6
 74
     0
 42
0.000000001
 43
0.00000001
 40
0.0
 40
0.0
 40
0.0
 40
0.0
 40
0.4233475991980625
 40
0.8452308286474866
 40
0.9999999999999999
 40
0.9999999999999999
 40
0.9999999999999999
 40
0.9999999999999999
 10
25.87500000000001
 20
2.363872949340951
 30
0.0
 10
25.69881748521171
 20
2.372597718596787
 30
0.0
 10
25.34706187528311
 20
2.390017077917206
 30
0.0
 10
24.93272219063898
 20
2.312252150674978
 30
0.0
 10
24.69262160787978
 20
2.206629444062653
 30
0.0
 10
24.62818041560655
 20
2.178281103267287
 30
0.0
  0
SPLINE
  5
DC
330
1F
100
AcDbEntity
  8
0
  6
Continuous
 62
     1
370
    15
100
AcDbSpline
210
0.0
220
0.0
230
1.0
 70
     8
 71
     3
 72
    23
 73
    19
 74
     0
 42
0.000000001
 43
0.00000001
 40
0.0
 40
0.0
 40
0.0
 40
0.0
 40
0.0174558891493351
 40
0.082411813026036
 40
0.1476636904811947
 40
0.2125806976774472
 40
0.2776315442788016
 40
0.3428221599068197
 40
0.4077148719537608
 40
0.4728919828418685
 40
0.53795840226314
 40
0.602869784055559
 40
0.6681178561164532
 40
0.7330837918119129
 40
0.798056721881262
 40
0.8633015919539626
 40
0.9316037116470994
 40
1.0
 40
1.0
 40
1.0
 40
1.0
 10
18.10580198271377
 20
-2.369809356259688
 30
0.0
 10
18.05865668944461
 20
-2.373193858008416
 30
0.0
 10
17.83607684485937
 20
-2.389172587187798
 30
0.0
 10
17.43794599083017
 20
-2.300700802560223
 30
0.0
 10
16.9089245688702
 20
-2.106038724535307
 30
0.0
 10
16.38273508099884
 20
-1.798078243428654
 30
0.0
 10
15.85542912126874
 20
-1.405250051939815
 30
0.0
 10
15.32696384151504
 20
-0.9444480774548014
 30
0.0
 10
14.80094505760735
 20
-0.434799124775896
 30
0.0
 10
14.27258975867394
 20
0.0932855385933787
 30
0.0
 10
13.74515876737204
 20
0.6178249023706963
 30
0.0
 10
13.21899690894168
 20
1.113617055879272
 30
0.0
 10
12.69006949723082
 20
1.552237404501918
 30
0.0
 10
12.16347301461113
 20
1.91708934855598
 30
0.0
 10
11.63679019381033
 20
2.18838969298165
 30
0.0
 10
11.09877769489142
 20
2.352714158904052
 30
0.0
 10
10.55428865090553
 20
2.407417776450292
 30
0.0
 10
10.18484771699963
 20
2.335462539954744
 30
0.0
 10
9.999999999999993
 20
2.299460137482045
 30
0.0
  0
SPLINE
  5
DD
330
1F
100
AcDbEntity
  8
외형선
  6
Continuous
370
    15
100
AcDbSpline
210
0.0
220
0.0
230
1.0
 70
    24
 71
     3
 72
     9
 73
     5
 74
     0
 42
0.000000001
 43
0.00000001
 40
0.0
 40
0.0
 40
0.0
 40
0.0
 40
0.9141447407439556
 40
1.0
 40
1.0
 40
1.0
 40
1.0
 10
9.999999999999979
 20
2.299460137482044
 30
0.0
 10
9.999999999999993
 20
2.227595214102041
 30
0.0
 10
10.00000000000001
 20
2.148980832618516
 30
0.0
 10
10.00000000000001
 20
2.080205729600235
 30
0.0
 10
10.00000000000001
 20
2.07430102530024
 30
0.0
  0
SPLINE
  5
DE
330
1F
100
AcDbEntity
  8
0
  6
Continuous
 62
     1
370
    15
100
AcDbSpline
210
0.0
220
0.0
230
1.0
 70
     8
 71
     3
 72
    24
 73
    20
 74
     0
 42
0.000000001
 43
0.00000001
 40
0.0
 40
0.0
 40
0.0
 40
0.0
 40
0.0230008147550283
 40
0.0853537357785947
 40
0.1480283003853833
 40
0.2104186009618171
 40
0.2728360174592365
 40
0.3354981686152993
 40
0.3978382828853593
 40
0.4603610568052938
 40
0.5229396126104411
 40
0.5852707597361152
 40
0.6479053135139002
 40
0.7103635130060337
 40
0.7727269536330652
 40
0.8354048840145184
 40
0.8977807853992253
 40
0.9602176308225725
 40
1.0
 40
1.0
 40
1.0
 40
1.0
 10
16.18877941336107
 20
2.367684612052984
 30
0.0
 10
16.25349868422008
 20
2.371257913748441
 30
0.0
 10
16.493665461072
 20
2.384518080921627
 30
0.0
 10
16.90888719368891
 20
2.286343522166058
 30
0.0
 10
17.4379077917912
 20
2.079811023999718
 30
0.0
 10
17.96441155894407
 20
1.762965403951987
 30
0.0
 10
18.49116773503826
 20
1.361830553674411
 30
0.0
 10
19.02002047682599
 20
0.8957745807274731
 30
0.0
 10
19.54612251434967
 20
0.3830873773173303
 30
0.0
 10
20.07378232660943
 20
-0.1464621871065325
 30
0.0
 10
20.6019286946239
 20
-0.6683532613755595
 30
0.0
 10
21.12795938363669
 20
-1.160098081610755
 30
0.0
 10
21.65658531720024
 20
-1.592295578308693
 30
0.0
 10
22.18368632478267
 20
-1.948359096141812
 30
0.0
 10
22.70997899655726
 20
-2.209103490766297
 30
0.0
 10
23.23897031543141
 20
-2.362121120481336
 30
0.0
 10
23.76533977156753
 20
-2.396106820731752
 30
0.0
 10
24.22807957718269
 20
-2.337288247239379
 30
0.0
 10
24.51609040337656
 20
-2.222827655038339
 30
0.0
 10
24.62818041560655
 20
-2.178281103267296
 30
0.0
  0
SPLINE
  5
DF
330
1F
100
AcDbEntity
  8
0
  6
Continuous
 62
     1
370
    15
100
AcDbSpline
210
0.0
220
0.0
230
1.0
 70
     8
 71
     3
 72
    24
 73
    20
 74
     0
 42
0.000000001
 43
0.00000001
 40
0.0
 40
0.0
 40
0.0
 40
0.0
 40
0.0284194700481494
 40
0.0907526679552448
 40
0.1534012329468676
 40
0.215836616908011
 40
0.2782110582570342
 40
0.3408875215331977
 40
0.4032495024162155
 40
0.465706239946311
 40
0.5283393276341236
 40
0.590669015771679
 40
0.6532461067976012
 40
0.7157674172439993
 40
0.7781060723160473
 40
0.8407667567361657
 40
0.9031827122261548
 40
0.9655715524298624
 40
1.0
 40
1.0
 40
1.0
 40
1.0
 10
25.58680989830982
 20
-2.366773099275639
 30
0.0
 10
25.50678519472955
 20
-2.369989632263977
 30
0.0
 10
25.2512401286205
 20
-2.380261074685781
 30
0.0
 10
24.82107481263305
 20
-2.272920145685728
 30
0.0
 10
24.29227022204034
 20
-2.05621343026334
 30
0.0
 10
23.7653662536118
 20
-1.731802218807909
 30
0.0
 10
23.23896318313508
 20
-1.323706261682088
 30
0.0
 10
22.70998090065829
 20
-0.8530762334691204
 30
0.0
 10
22.18368581518824
 20
-0.3380939111925215
 30
0.0
 10
21.65658545300326
 20
0.1924952672095199
 30
0.0
 10
21.12795935219189
 20
0.7120436411892092
 30
0.0
 10
20.6019286852932
 20
1.199841180285367
 30
0.0
 10
20.07378239578249
 20
1.626529923814287
 30
0.0
 10
19.54612224768721
 20
1.974601068758338
 30
0.0
 10
19.02002147340753
 20
2.22662820250493
 30
0.0
 10
18.49116399949729
 20
2.370087476491239
 30
0.0
 10
17.9644254349208
 20
2.393387158274844
 30
0.0
 10
17.51718672647953
 20
2.329722968264401
 30
0.0
 10
17.24430151178174
 20
2.217375045366722
 30
0.0
 10
17.14726290924586
 20
2.177423868649897
 30
0.0
  0
SPLINE
  5
E0
330
1F
100
AcDbEntity
  8
0
  6
Continuous
 62
     1
370
    15
100
AcDbSpline
210
0.0
220
0.0
230
1.0
 70
     8
 71
     3
 72
     9
 73
     5
 74
     0
 42
0.000000001
 43
0.00000001
 40
0.0
 40
0.0
 40
0.0
 40
0.0
 40
0.1134983954761768
 40
1.0
 40
1.0
 40
1.0
 40
1.0
 10
10.62524677088577
 20
-2.374061676398869
 30
0.0
 10
10.60160737659924
 20
-2.37641360930636
 30
0.0
 10
10.393327830555
 20
-2.397135778087906
 30
0.0
 10
10.18483194080235
 20
-2.345359707306081
 30
0.0
 10
9.999999999999993
 20
-2.299460137482053
 30
0.0
  0
LINE
  5
E1
330
1F
100
AcDbEntity
  8
0
  6
Continuous
 62
     1
370
    15
100
AcDbLine
 10
25.875
 20
0.933255592000409
 30
0.0
 11
25.875
 21
1.430617357340558
 31
0.0
  0
LINE
  5
E2
330
1F
100
AcDbEntity
  8
0
  6
Continuous
 62
     1
370
    15
100
AcDbLine
 10
25.875
 20
-1.430617357340554
 30
0.0
 11
25.875
 21
-0.9332555920003733
 31
0.0
  0
LINE
  5
E3
330
1F
100
AcDbEntity
  8
0
  6
Continuous
 62
     1
370
    15
100
AcDbLine
 10
25.875
 20
-2.381250000000005
 30
0.0
 11
25.875
 21
-2.363872949340958
 31
0.0
  0
LINE
  5
E4
330
1F
100
AcDbEntity
  8
0
  6
Continuous
 62
     1
370
    15
100
AcDbLine
 10
25.875
 20
2.363872949340951
 30
0.0
 11
25.875
 21
2.381249999999997
 31
0.0
  0
LINE
  5
E5
330
1F
100
AcDbEntity
  8
중심선
 62
     1
100
AcDbLine
 10
-27.925
 20
-0.0000000000000039
 30
0.0
 11
28.875
 21
0.0000000000000031
 31
0.0
  0
LINE
  5
E6
330
1F
100
AcDbEntity
  8
참조1
100
AcDbLine
 10
-0.0000000000000069
 20
-0.0000000000000039
 30
0.0
 11
-0.0000000000000017
 21
-40.00000000000001
 31
0.0
  0
LINE
  5
E7
330
1F
100
AcDbEntity
  8
참조1
100
AcDbLine
 10
-0.0000000000000017
 20
-40.00000000000001
 30
0.0
 11
-15.15885681430868
 21
-40.0
 31
0.0
  0
CIRCLE
  5
E8
330
1F
100
AcDbEntity
  8
해칭선
100
AcDbCircle
 10
0.0
 20
0.0
 30
0.0
 40
3.000000000000002
  0
INSERT
  5
E9
330
1F
100
AcDbEntity
  8
0
  6
Continuous
 62
     7
100
AcDbBlockReference
 66
     1
  2
블럭10
 10
-13.94027293212521
 20
-28.68311844138488
 30
0.0
  0
ATTRIB
  5
EA
330
E9
100
AcDbEntity
  8
FORMAT
 62
     2
100
AcDbText
 10
-23.12156822086649
 20
-26.60775152855268
 30
0.0
 40
4.233333333333333
  1
E5058012 [ 6 FLUTE ]
 41
0.75
  7
SLDTEXTSTYLE0
 11
-23.12156822086649
 21
-28.72441819521935
 31
0.0
100
AcDbAttribute
  2
AUTOATTR0
 70
     0
 74
     1
  0
SEQEND
  5
EB
330
E9
100
AcDbEntity
  8
0
  6
Continuous
 62
     7
  0
HATCH
  5
EC
330
1F
100
AcDbEntity
  8
중심선
100
AcDbHatch
 10
0.0
 20
0.0
 30
0.0
210
0.0
220
0.0
230
1.0
  2
SOLID
 70
     1
 71
     0
 91
        1
 92
        0
 93
        4
 72
     1
 10
-8.22536362774437
 20
-12.43594413974094
 11
-11.67163887158165
 21
-12.43594413974094
 72
     1
 10
-11.67163887158165
 20
-12.43594413974094
 11
-13.79986873078568
 21
-14.97226972031353
 72
     1
 10
-13.79986873078568
 20
-14.97226972031353
 11
-10.35356040183524
 21
-14.97223029101104
 72
     1
 10
-10.35356040183524
 20
-14.97223029101104
 11
-8.22536362774437
 21
-12.43594413974094
 97
        0
 75
     0
 76
     1
 98
        1
 10
0.0
 20
23.36405586025906
  0
HATCH
  5
ED
330
1F
100
AcDbEntity
  8
중심선
100
AcDbHatch
 10
0.0
 20
0.0
 30
0.0
210
0.0
220
0.0
230
1.0
  2
SOLID
 70
     1
 71
     0
 91
        1
 92
        0
 93
        4
 72
     1
 10
-3.212599636708391
 20
-12.43594413974094
 11
-6.658874880545673
 21
-12.43594413974094
 72
     1
 10
-6.658874880545673
 20
-12.43594413974094
 11
-11.19001288890309
 21
-17.83594413974096
 72
     1
 10
-11.19001288890309
 20
-17.83594413974096
 11
-7.743737645065806
 21
-17.83594413974096
 72
     1
 10
-7.743737645065806
 20
-17.83594413974096
 11
-3.212599636708391
 21
-12.43594413974094
 97
        0
 75
     0
 76
     1
 98
        1
 10
0.0
 20
23.36405586025906
  0
HATCH
  5
EE
330
1F
100
AcDbEntity
  8
중심선
100
AcDbHatch
 10
0.0
 20
0.0
 30
0.0
210
0.0
220
0.0
230
1.0
  2
SOLID
 70
     1
 71
     0
 91
        1
 92
        0
 93
        4
 72
     1
 10
1.800164354327477
 20
-12.43594413974094
 11
-1.646110889509639
 21
-12.43594413974094
 72
     1
 10
-1.646110889509639
 20
-12.43594413974094
 11
-8.694547791398888
 21
-20.83594413974096
 72
     1
 10
-8.694547791398888
 20
-20.83594413974096
 11
-5.248272547561605
 21
-20.83594413974096
 72
     1
 10
-5.248272547561605
 20
-20.83594413974096
 11
1.800164354327477
 21
-12.43594413974094
 97
        0
 75
     0
 76
     1
 98
        1
 10
0.0
 20
23.36405586025906
  0
HATCH
  5
EF
330
1F
100
AcDbEntity
  8
중심선
100
AcDbHatch
 10
0.0
 20
0.0
 30
0.0
210
0.0
220
0.0
230
1.0
  2
SOLID
 70
     1
 71
     0
 91
        1
 92
        0
 93
        6
 72
     3
 10
6.600054785339676
 20
-16.63594413979222
 11
3.960054785062283
 21
1.540882976769353E-10
 40
0.3939339440162628
 50
17.09539180608436
 51
320.0019657685075
 73
     0
 72
     1
 10
8.28305444104027
 20
-15.22383814437922
 11
10.58835631474131
 21
-13.28951143433132
 72
     3
 10
6.600054785286829
 20
-16.63594413974109
 11
6.600054785286829
 21
-1.278976924368180E-13
 40
0.636358354079598
 50
39.99873849337411
 51
368.4976242363724
 73
     1
 72
     1
 10
13.02538727718744
 20
-15.67594413967096
 11
5.280122092122753
 21
-15.67594413967093
 72
     1
 10
5.280122092122753
 20
-15.67594413967093
 11
5.280097047676819
 21
-17.59594413967086
 72
     1
 10
5.280097047676819
 20
-17.59594413967086
 11
9.721476817148854
 21
-17.59594413967083
 97
        0
 75
     0
 76
     1
 98
        1
 10
0.0
 20
23.36405586025906
  0
DIMENSION
  5
F0
330
1F
100
AcDbEntity
  8
치수문자_일반주서
100
AcDbDimension
  2
_D
 10
38.04769263685269
 20
-2.381249999999959
 30
0.0
 11
38.04769263685262
 21
22.98525000000004
 31
0.0
 70
   160
  1
%%c<>
 71
     2
 42
4.762500000000003
 52
-270.0
  3
SLDDIMSTYLE0
100
AcDbAlignedDimension
 13
25.875
 23
2.381249999999997
 33
0.0
 14
25.875
 24
-2.381250000000006
 34
0.0
 50
90.0000000000002
100
AcDbRotatedDimension
1001
ACAD
1000
DSTYLE
1002
{
1070
   171
1070
     6
1070
   273
1070
     5
1002
}
  0
DIMENSION
  5
105
330
1F
100
AcDbEntity
  8
치수문자_일반주서
100
AcDbDimension
  2
_D_1
 10
9.999999999999979
 20
24.48595497082389
 30
0.0
 11
17.93749999999999
 21
24.48595497082389
 31
0.0
 70
   160
  1
<>
 71
     2
 42
15.87500000000002
  3
SLDDIMSTYLE0
100
AcDbAlignedDimension
 13
25.875
 23
2.363872949340951
 33
0.0
 14
9.999999999999979
 24
2.299460137482044
 34
0.0
100
AcDbRotatedDimension
1001
ACAD
1000
DSTYLE
1002
{
1070
   171
1070
     6
1070
   273
1070
     5
1002
}
  0
DIMENSION
  5
11A
330
1F
100
AcDbEntity
  8
치수문자_일반주서
100
AcDbDimension
  2
_D_2
 10
-24.925
 20
42.4859549708239
 30
0.0
 11
0.4749999999999981
 21
42.4859549708239
 31
0.0
 70
   160
  1
<>
 71
     2
 42
50.8
  3
SLDDIMSTYLE0
100
AcDbAlignedDimension
 13
25.875
 23
2.363872949340951
 33
0.0
 14
-24.925
 24
1.904999999999997
 34
0.0
100
AcDbRotatedDimension
1001
ACAD
1000
DSTYLE
1002
{
1070
   171
1070
     6
1070
   273
1070
     5
1002
}
  0
DIMENSION
  5
12E
330
1F
100
AcDbEntity
  8
치수문자_일반주서
100
AcDbDimension
  2
_D_3
 10
-34.10495503550761
 20
-2.381250000000041
 30
0.0
 11
-34.10495503550769
 21
22.98524999999996
 31
0.0
 70
   160
  1
%%c<>
 71
     2
 42
4.762500000000003
 52
-270.0
  3
SLDDIMSTYLE0
100
AcDbAlignedDimension
 13
-24.44874999999999
 23
2.381249999999997
 33
0.0
 14
-24.44874999999999
 24
-2.381250000000006
 34
0.0
 50
90.0000000000002
100
AcDbRotatedDimension
1001
ACAD
1000
DSTYLE
1002
{
1070
   171
1070
     6
1070
   273
1070
     5
1002
}
  0
LINE
  5
142
330
1F
100
AcDbEntity
  8
참조1
100
AcDbLine
 10
82.81348381534559
 20
7.440000000000002
 30
0.0
 11
82.81348381534559
 21
-7.440000000000002
 31
0.0
  0
LINE
  5
143
330
1F
100
AcDbEntity
  8
참조1
100
AcDbLine
 10
95.5134838153456
 20
5.440000000000002
 30
0.0
 11
82.81348381534559
 21
5.440000000000002
 31
0.0
  0
SOLID
  5
144
330
1F
100
AcDbEntity
  8
참조1
100
AcDbTrace
 10
82.81348381534559
 20
5.440000000000002
 30
0.0
 11
89.16348381534559
 21
4.424000000000002
 31
0.0
 12
89.16348381534559
 22
6.456000000000002
 32
0.0
 13
89.16348381534559
 23
6.456000000000002
 33
0.0
  0
LINE
  5
145
330
1F
100
AcDbEntity
  8
참조1
100
AcDbLine
 10
95.5134838153456
 20
-5.440000000000002
 30
0.0
 11
82.81348381534559
 21
-5.440000000000002
 31
0.0
  0
SOLID
  5
146
330
1F
100
AcDbEntity
  8
참조1
100
AcDbTrace
 10
82.81348381534559
 20
-5.440000000000002
 30
0.0
 11
89.16348381534559
 21
-6.456000000000002
 31
0.0
 12
89.16348381534559
 22
-4.424000000000002
 32
0.0
 13
89.16348381534559
 23
-4.424000000000002
 33
0.0
  0
MTEXT
  5
147
330
1F
100
AcDbEntity
  8
참조1
100
AcDbMText
 10
92.41359862590816
 20
11.06571756601608
 30
0.0
 40
3.5
 41
0.0
 71
     1
 72
     1
  1
A
  7
SLDTEXTSTYLE0
 73
     1
 44
1.0
  0
MTEXT
  5
148
330
1F
100
AcDbEntity
  8
참조1
100
AcDbMText
 10
92.41359862590816
 20
0.1857175660160727
 30
0.0
 40
3.5
 41
0.0
 71
     1
 72
     1
  1
A
  7
SLDTEXTSTYLE0
 73
     1
 44
1.0
  0
INSERT
  5
14F
330
1F
100
AcDbEntity
  8
해칭선
100
AcDbBlockReference
  2
SW_DOWELSYMBOL_0
 10
0.0
 20
0.0
 30
0.0
  0
ENDSEC
  0
SECTION
  2
OBJECTS
  0
DICTIONARY
  5
C
330
0
100
AcDbDictionary
281
     1
  3
ACAD_GROUP
350
D
  3
ACAD_IMAGE_VARS
350
173
  3
ACAD_LAYOUT
350
1A
  3
ACAD_MLINESTYLE
350
17
  3
ACAD_PLOTSETTINGS
350
19
  3
ACAD_PLOTSTYLENAME
350
E
  3
ACAD_SCALELIST
350
47
  3
APPDATA
350
171
  3
DWGPROPS
350
30B
  0
DICTIONARY
  5
22D
330
2
100
AcDbDictionary
280
     1
281
     1
  3
ACAD_LAYERSTATES
360
22E
  0
DICTIONARY
  5
309
330
1F
100
AcDbDictionary
280
     1
281
     1
  3
DIM_BOUNDING_BOXES_V1
360
30A
  0
DICTIONARY
  5
D
102
{ACAD_REACTORS
330
C
102
}
330
C
100
AcDbDictionary
281
     1
  0
RASTERVARIABLES
  5
173
102
{ACAD_REACTORS
330
C
102
}
330
C
100
AcDbRasterVariables
 90
        0
 70
     1
 71
     1
 72
     1
  0
DICTIONARY
  5
1A
102
{ACAD_REACTORS
330
C
102
}
330
C
100
AcDbDictionary
281
     1
  3
Layout1
350
1E
  3
Layout2
350
26
  3
Model
350
22
  0
DICTIONARY
  5
17
102
{ACAD_REACTORS
330
C
102
}
330
C
100
AcDbDictionary
281
     1
  3
Standard
350
18
  0
DICTIONARY
  5
19
102
{ACAD_REACTORS
330
C
102
}
330
C
100
AcDbDictionary
281
     1
  0
ACDBDICTIONARYWDFLT
  5
E
102
{ACAD_REACTORS
330
C
102
}
330
C
100
AcDbDictionary
281
     1
  3
Normal
350
F
100
AcDbDictionaryWithDefault
340
F
  0
DICTIONARY
  5
47
102
{ACAD_REACTORS
330
C
102
}
330
C
100
AcDbDictionary
281
     1
  3
A0
350
48
  3
A1
350
49
  3
A2
350
4A
  3
A3
350
4B
  3
A4
350
4C
  3
A5
350
4D
  3
A6
350
4E
  3
A7
350
4F
  3
A8
350
50
  3
A9
350
51
  3
B0
350
52
  3
B1
350
53
  3
B2
350
54
  3
B3
350
55
  3
B4
350
56
  3
B5
350
57
  3
B6
350
58
  3
B7
350
59
  3
B8
350
5A
  3
B9
350
5B
  3
C0
350
5C
  3
C1
350
5D
  3
C2
350
5E
  3
C3
350
5F
  3
C4
350
60
  3
C5
350
61
  3
C6
350
62
  3
C7
350
63
  3
C8
350
64
  3
C9
350
65
  3
D0
350
66
  3
D1
350
67
  3
D2
350
68
  0
DICTIONARY
  5
171
102
{ACAD_REACTORS
330
C
102
}
330
C
100
AcDbDictionary
281
     1
  0
XRECORD
  5
30B
102
{ACAD_REACTORS
330
C
102
}
330
C
100
AcDbXrecord
280
     1
  1
DWGPROPS COOKIE
  2

  3

  4

  6

  7

  8
12011056
  9

300
=
301
=
302
=
303
=
304
=
305
=
306
=
307
=
308
=
309
=
 40
0.0
 41
2458316.09257566
 42
2459720.019810764
  1

 90
        0
  0
DICTIONARY
  5
22E
102
{ACAD_REACTORS
330
22D
102
}
330
22D
100
AcDbDictionary
281
     1
  0
DICTIONARY
  5
30A
102
{ACAD_REACTORS
330
309
102
}
330
309
100
AcDbDictionary
281
     1
  0
LAYOUT
  5
1E
102
{ACAD_REACTORS
330
1A
102
}
330
1A
100
AcDbPlotSettings
  1

  2
none_device
  4

  6

 40
0.0
 41
0.0
 42
0.0
 43
0.0
 44
0.0
 45
0.0
 46
0.0
 47
0.0
 48
0.0
 49
0.0
140
0.0
141
0.0
142
1.0
143
1.0
 70
   688
 72
     1
 73
     0
 74
     5
  7

 75
    16
147
1.0
148
0.0
149
0.0
100
AcDbLayout
  1
Layout1
 70
     1
 71
     1
 10
0.0
 20
0.0
 11
420.0
 21
297.0
 12
0.0
 22
0.0
 32
0.0
 14
1.000000000000000E+20
 24
1.000000000000000E+20
 34
1.000000000000000E+20
 15
-1.000000000000000E+20
 25
-1.000000000000000E+20
 35
-1.000000000000000E+20
146
0.0
 13
0.0
 23
0.0
 33
0.0
 16
1.0
 26
0.0
 36
0.0
 17
0.0
 27
1.0
 37
0.0
 76
     0
330
1B
  0
LAYOUT
  5
26
102
{ACAD_REACTORS
330
1A
102
}
330
1A
100
AcDbPlotSettings
  1

  2
none_device
  4

  6

 40
0.0
 41
0.0
 42
0.0
 43
0.0
 44
0.0
 45
0.0
 46
0.0
 47
0.0
 48
0.0
 49
0.0
140
0.0
141
0.0
142
1.0
143
1.0
 70
   688
 72
     1
 73
     0
 74
     5
  7

 75
    16
147
1.0
148
0.0
149
0.0
100
AcDbLayout
  1
Layout2
 70
     1
 71
     2
 10
0.0
 20
0.0
 11
0.0
 21
0.0
 12
0.0
 22
0.0
 32
0.0
 14
0.0
 24
0.0
 34
0.0
 15
0.0
 25
0.0
 35
0.0
146
0.0
 13
0.0
 23
0.0
 33
0.0
 16
1.0
 26
0.0
 36
0.0
 17
0.0
 27
1.0
 37
0.0
 76
     0
330
23
  0
LAYOUT
  5
22
102
{ACAD_REACTORS
330
1A
102
}
330
1A
100
AcDbPlotSettings
  1

  2
none_device
  4
ANSI_A_(11.00_x_8.50_Inches)
  6

 40
6.35
 41
19.05
 42
6.35000508
 43
19.05000254
 44
279.4
 45
215.9
 46
83.78886101955511
 47
86.3793717821534
 48
0.0
 49
0.0
140
0.0
141
0.0
142
0.0774364576462417
143
1.0
 70
  1696
 72
     0
 73
     0
 74
     0
  7

 75
     0
147
0.0235690232323232
148
0.0
149
0.0
100
AcDbLayout
  1
Model
 70
     1
 71
     0
 10
0.0
 20
0.0
 11
420.0
 21
297.0
 12
0.0
 22
0.0
 32
0.0
 14
-38.47995503550774
 24
-40.00000000000001
 34
0.0
 15
95.5134838153456
 25
46.8609549708239
 35
0.0
146
0.0
 13
0.0
 23
0.0
 33
0.0
 16
1.0
 26
0.0
 36
0.0
 17
0.0
 27
1.0
 37
0.0
 76
     0
330
1F
331
29
  0
MLINESTYLE
  5
18
102
{ACAD_REACTORS
330
17
102
}
330
17
100
AcDbMlineStyle
  2
Standard
 70
     0
  3

 62
   256
 51
90.0
 52
90.0
 71
     2
 49
0.5
 62
   256
  6
BYLAYER
 49
-0.5
 62
   256
  6
BYLAYER
  0
ACDBPLACEHOLDER
  5
F
102
{ACAD_REACTORS
330
E
102
}
330
E
  0
SCALE
  5
48
102
{ACAD_REACTORS
330
47
102
}
330
47
100
AcDbScale
 70
     0
300
1:1
140
1.0
141
1.0
290
     1
  0
SCALE
  5
49
102
{ACAD_REACTORS
330
47
102
}
330
47
100
AcDbScale
 70
     0
300
1:2
140
1.0
141
2.0
290
     0
  0
SCALE
  5
4A
102
{ACAD_REACTORS
330
47
102
}
330
47
100
AcDbScale
 70
     0
300
1:4
140
1.0
141
4.0
290
     0
  0
SCALE
  5
4B
102
{ACAD_REACTORS
330
47
102
}
330
47
100
AcDbScale
 70
     0
300
1:5
140
1.0
141
5.0
290
     0
  0
SCALE
  5
4C
102
{ACAD_REACTORS
330
47
102
}
330
47
100
AcDbScale
 70
     0
300
1:8
140
1.0
141
8.0
290
     0
  0
SCALE
  5
4D
102
{ACAD_REACTORS
330
47
102
}
330
47
100
AcDbScale
 70
     0
300
1:10
140
1.0
141
10.0
290
     0
  0
SCALE
  5
4E
102
{ACAD_REACTORS
330
47
102
}
330
47
100
AcDbScale
 70
     0
300
1:16
140
1.0
141
16.0
290
     0
  0
SCALE
  5
4F
102
{ACAD_REACTORS
330
47
102
}
330
47
100
AcDbScale
 70
     0
300
1:20
140
1.0
141
20.0
290
     0
  0
SCALE
  5
50
102
{ACAD_REACTORS
330
47
102
}
330
47
100
AcDbScale
 70
     0
300
1:30
140
1.0
141
30.0
290
     0
  0
SCALE
  5
51
102
{ACAD_REACTORS
330
47
102
}
330
47
100
AcDbScale
 70
     0
300
1:40
140
1.0
141
40.0
290
     0
  0
SCALE
  5
52
102
{ACAD_REACTORS
330
47
102
}
330
47
100
AcDbScale
 70
     0
300
1:50
140
1.0
141
50.0
290
     0
  0
SCALE
  5
53
102
{ACAD_REACTORS
330
47
102
}
330
47
100
AcDbScale
 70
     0
300
1:100
140
1.0
141
100.0
290
     0
  0
SCALE
  5
54
102
{ACAD_REACTORS
330
47
102
}
330
47
100
AcDbScale
 70
     0
300
2:1
140
2.0
141
1.0
290
     0
  0
SCALE
  5
55
102
{ACAD_REACTORS
330
47
102
}
330
47
100
AcDbScale
 70
     0
300
4:1
140
4.0
141
1.0
290
     0
  0
SCALE
  5
56
102
{ACAD_REACTORS
330
47
102
}
330
47
100
AcDbScale
 70
     0
300
8:1
140
8.0
141
1.0
290
     0
  0
SCALE
  5
57
102
{ACAD_REACTORS
330
47
102
}
330
47
100
AcDbScale
 70
     0
300
10:1
140
10.0
141
1.0
290
     0
  0
SCALE
  5
58
102
{ACAD_REACTORS
330
47
102
}
330
47
100
AcDbScale
 70
     0
300
100:1
140
100.0
141
1.0
290
     0
  0
SCALE
  5
59
102
{ACAD_REACTORS
330
47
102
}
330
47
100
AcDbScale
 70
     0
300
1/128" = 1'-0"
140
0.0078125
141
12.0
290
     0
  0
SCALE
  5
5A
102
{ACAD_REACTORS
330
47
102
}
330
47
100
AcDbScale
 70
     0
300
1/64" = 1'-0"
140
0.015625
141
12.0
290
     0
  0
SCALE
  5
5B
102
{ACAD_REACTORS
330
47
102
}
330
47
100
AcDbScale
 70
     0
300
1/32" = 1'-0"
140
0.03125
141
12.0
290
     0
  0
SCALE
  5
5C
102
{ACAD_REACTORS
330
47
102
}
330
47
100
AcDbScale
 70
     0
300
1/16" = 1'-0"
140
0.0625
141
12.0
290
     0
  0
SCALE
  5
5D
102
{ACAD_REACTORS
330
47
102
}
330
47
100
AcDbScale
 70
     0
300
3/32" = 1'-0"
140
0.09375
141
12.0
290
     0
  0
SCALE
  5
5E
102
{ACAD_REACTORS
330
47
102
}
330
47
100
AcDbScale
 70
     0
300
1/8" = 1'-0"
140
0.125
141
12.0
290
     0
  0
SCALE
  5
5F
102
{ACAD_REACTORS
330
47
102
}
330
47
100
AcDbScale
 70
     0
300
3/16" = 1'-0"
140
0.1875
141
12.0
290
     0
  0
SCALE
  5
60
102
{ACAD_REACTORS
330
47
102
}
330
47
100
AcDbScale
 70
     0
300
1/4" = 1'-0"
140
0.25
141
12.0
290
     0
  0
SCALE
  5
61
102
{ACAD_REACTORS
330
47
102
}
330
47
100
AcDbScale
 70
     0
300
3/8" = 1'-0"
140
0.375
141
12.0
290
     0
  0
SCALE
  5
62
102
{ACAD_REACTORS
330
47
102
}
330
47
100
AcDbScale
 70
     0
300
1/2" = 1'-0"
140
0.5
141
12.0
290
     0
  0
SCALE
  5
63
102
{ACAD_REACTORS
330
47
102
}
330
47
100
AcDbScale
 70
     0
300
3/4" = 1'-0"
140
0.75
141
12.0
290
     0
  0
SCALE
  5
64
102
{ACAD_REACTORS
330
47
102
}
330
47
100
AcDbScale
 70
     0
300
1" = 1'-0"
140
1.0
141
12.0
290
     0
  0
SCALE
  5
65
102
{ACAD_REACTORS
330
47
102
}
330
47
100
AcDbScale
 70
     0
300
1-1/2" = 1'-0"
140
1.5
141
12.0
290
     0
  0
SCALE
  5
66
102
{ACAD_REACTORS
330
47
102
}
330
47
100
AcDbScale
 70
     0
300
3" = 1'-0"
140
3.0
141
12.0
290
     0
  0
SCALE
  5
67
102
{ACAD_REACTORS
330
47
102
}
330
47
100
AcDbScale
 70
     0
300
6" = 1'-0"
140
6.0
141
12.0
290
     0
  0
SCALE
  5
68
102
{ACAD_REACTORS
330
47
102
}
330
47
100
AcDbScale
 70
     0
300
1'-0" = 1'-0"
140
12.0
141
12.0
290
     0
  0
ENDSEC
  0
EOF
