  0
SECTION
  2
HEADER
  9
$ACADVER
  1
AC1015
  9
$ACADMAINTVER
 70
     6
  9
$DWGCODEPAGE
  3
ANSI_949
  9
$INSBASE
 10
0.0
 20
0.0
 30
0.0
  9
$EXTMIN
 10
-65.7
 20
-49.20185351316033
 30
0.0
  9
$EXTMAX
 10
126.6017350925138
 20
44.96299028620469
 30
0.0
  9
$LIMMIN
 10
0.0
 20
0.0
  9
$LIMMAX
 10
420.0
 20
297.0
  9
$ORTHOMODE
 70
     1
  9
$REGENMODE
 70
     1
  9
$FILLMODE
 70
     1
  9
$QTEXTMODE
 70
     0
  9
$MIRRTEXT
 70
     1
  9
$LTSCALE
 40
1.0
  9
$ATTMODE
 70
     1
  9
$TEXTSIZE
 40
3.5
  9
$TRACEWID
 40
1.0
  9
$TEXTSTYLE
  7
Standard
  9
$CLAYER
  8
0
  9
$CELTYPE
  6
ByLayer
  9
$CECOLOR
 62
   256
  9
$CELTSCALE
 40
1.0
  9
$DISPSILH
 70
     0
  9
$DIMSCALE
 40
1.0
  9
$DIMASZ
 40
3.302
  9
$DIMEXO
 40
1.0
  9
$DIMDLI
 40
3.75
  9
$DIMRND
 40
0.0
  9
$DIMDLE
 40
0.0
  9
$DIMEXE
 40
1.0
  9
$DIMTP
 40
0.0
  9
$DIMTM
 40
0.0
  9
$DIMTXT
 40
3.5
  9
$DIMCEN
 40
2.5
  9
$DIMTSZ
 40
0.0
  9
$DIMTOL
 70
     0
  9
$DIMLIM
 70
     0
  9
$DIMTIH
 70
     1
  9
$DIMTOH
 70
     1
  9
$DIMSE1
 70
     0
  9
$DIMSE2
 70
     0
  9
$DIMTAD
 70
     1
  9
$DIMZIN
 70
     0
  9
$DIMBLK
  1

  9
$DIMASO
 70
     1
  9
$DIMSHO
 70
     1
  9
$DIMPOST
  1

  9
$DIMAPOST
  1

  9
$DIMALT
 70
     0
  9
$DIMALTD
 70
     3
  9
$DIMALTF
 40
0.0393700787401575
  9
$DIMLFAC
 40
1.0
  9
$DIMTOFL
 70
     1
  9
$DIMTVP
 40
0.0
  9
$DIMTIX
 70
     0
  9
$DIMSOXD
 70
     0
  9
$DIMSAH
 70
     0
  9
$DIMBLK1
  1

  9
$DIMBLK2
  1

  9
$DIMSTYLE
  2
ISO-25
  9
$DIMCLRD
 70
     0
  9
$DIMCLRE
 70
     0
  9
$DIMCLRT
 70
     0
  9
$DIMTFAC
 40
1.0
  9
$DIMGAP
 40
1.524
  9
$DIMJUST
 70
     0
  9
$DIMSD1
 70
     0
  9
$DIMSD2
 70
     0
  9
$DIMTOLJ
 70
     0
  9
$DIMTZIN
 70
     0
  9
$DIMALTZ
 70
     0
  9
$DIMALTTZ
 70
     0
  9
$DIMUPT
 70
     0
  9
$DIMDEC
 70
     2
  9
$DIMTDEC
 70
     2
  9
$DIMALTU
 70
     2
  9
$DIMALTTD
 70
     3
  9
$DIMTXSTY
  7
Standard
  9
$DIMAUNIT
 70
     0
  9
$DIMADEC
 70
     2
  9
$DIMALTRND
 40
0.0
  9
$DIMAZIN
 70
     0
  9
$DIMDSEP
 70
    44
  9
$DIMATFIT
 70
     3
  9
$DIMFRAC
 70
     0
  9
$DIMLDRBLK
  1

  9
$DIMLUNIT
 70
     2
  9
$DIMLWD
 70
    -2
  9
$DIMLWE
 70
    -2
  9
$DIMTMOVE
 70
     0
  9
$LUNITS
 70
     2
  9
$LUPREC
 70
     2
  9
$SKETCHINC
 40
1.0
  9
$FILLETRAD
 40
10.0
  9
$AUNITS
 70
     0
  9
$AUPREC
 70
     2
  9
$MENU
  1
.
  9
$ELEVATION
 40
0.0
  9
$PELEVATION
 40
0.0
  9
$THICKNESS
 40
0.0
  9
$LIMCHECK
 70
     0
  9
$CHAMFERA
 40
0.0
  9
$CHAMFERB
 40
0.0
  9
$CHAMFERC
 40
0.0
  9
$CHAMFERD
 40
0.0
  9
$SKPOLY
 70
     0
  9
$TDCREATE
 40
2458319.560618032
  9
$TDUCREATE
 40
2458319.185618032
  9
$TDUPDATE
 40
2459720.393458033
  9
$TDUUPDATE
 40
2459720.018458033
  9
$TDINDWG
 40
0.0008933333
  9
$TDUSRTIMER
 40
0.0001876505
  9
$USRTIMER
 70
     1
  9
$ANGBASE
 50
0.0
  9
$ANGDIR
 70
     0
  9
$PDMODE
 70
     0
  9
$PDSIZE
 40
-1.0
  9
$PLINEWID
 40
0.0
  9
$SPLFRAME
 70
     0
  9
$SPLINETYPE
 70
     6
  9
$SPLINESEGS
 70
     8
  9
$HANDSEED
  5
792
  9
$SURFTAB1
 70
     6
  9
$SURFTAB2
 70
     6
  9
$SURFTYPE
 70
     6
  9
$SURFU
 70
     6
  9
$SURFV
 70
     6
  9
$UCSBASE
  2

  9
$UCSNAME
  2

  9
$UCSORG
 10
0.0
 20
0.0
 30
0.0
  9
$UCSXDIR
 10
1.0
 20
0.0
 30
0.0
  9
$UCSYDIR
 10
0.0
 20
1.0
 30
0.0
  9
$UCSORTHOREF
  2

  9
$UCSORTHOVIEW
 70
     0
  9
$UCSORGTOP
 10
0.0
 20
0.0
 30
0.0
  9
$UCSORGBOTTOM
 10
0.0
 20
0.0
 30
0.0
  9
$UCSORGLEFT
 10
0.0
 20
0.0
 30
0.0
  9
$UCSORGRIGHT
 10
0.0
 20
0.0
 30
0.0
  9
$UCSORGFRONT
 10
0.0
 20
0.0
 30
0.0
  9
$UCSORGBACK
 10
0.0
 20
0.0
 30
0.0
  9
$PUCSBASE
  2

  9
$PUCSNAME
  2

  9
$PUCSORG
 10
0.0
 20
0.0
 30
0.0
  9
$PUCSXDIR
 10
1.0
 20
0.0
 30
0.0
  9
$PUCSYDIR
 10
0.0
 20
1.0
 30
0.0
  9
$PUCSORTHOREF
  2

  9
$PUCSORTHOVIEW
 70
     0
  9
$PUCSORGTOP
 10
0.0
 20
0.0
 30
0.0
  9
$PUCSORGBOTTOM
 10
0.0
 20
0.0
 30
0.0
  9
$PUCSORGLEFT
 10
0.0
 20
0.0
 30
0.0
  9
$PUCSORGRIGHT
 10
0.0
 20
0.0
 30
0.0
  9
$PUCSORGFRONT
 10
0.0
 20
0.0
 30
0.0
  9
$PUCSORGBACK
 10
0.0
 20
0.0
 30
0.0
  9
$USERI1
 70
     0
  9
$USERI2
 70
     0
  9
$USERI3
 70
     0
  9
$USERI4
 70
     0
  9
$USERI5
 70
     0
  9
$USERR1
 40
0.0
  9
$USERR2
 40
0.0
  9
$USERR3
 40
0.0
  9
$USERR4
 40
0.0
  9
$USERR5
 40
0.0
  9
$WORLDVIEW
 70
     1
  9
$SHADEDGE
 70
     3
  9
$SHADEDIF
 70
    70
  9
$TILEMODE
 70
     1
  9
$MAXACTVP
 70
    64
  9
$PINSBASE
 10
0.0
 20
0.0
 30
0.0
  9
$PLIMCHECK
 70
     0
  9
$PEXTMIN
 10
1.000000000000000E+20
 20
1.000000000000000E+20
 30
1.000000000000000E+20
  9
$PEXTMAX
 10
-1.000000000000000E+20
 20
-1.000000000000000E+20
 30
-1.000000000000000E+20
  9
$PLIMMIN
 10
0.0
 20
0.0
  9
$PLIMMAX
 10
0.0
 20
0.0
  9
$UNITMODE
 70
     0
  9
$VISRETAIN
 70
     1
  9
$PLINEGEN
 70
     0
  9
$PSLTSCALE
 70
     1
  9
$TREEDEPTH
 70
  3020
  9
$CMLSTYLE
  2
Standard
  9
$CMLJUST
 70
     0
  9
$CMLSCALE
 40
20.0
  9
$PROXYGRAPHICS
 70
     1
  9
$MEASUREMENT
 70
     1
  9
$CELWEIGHT
370
    -1
  9
$ENDCAPS
280
     0
  9
$JOINSTYLE
280
     0
  9
$LWDISPLAY
290
     1
  9
$INSUNITS
 70
     4
  9
$HYPERLINKBASE
  1

  9
$STYLESHEET
  1

  9
$XEDIT
290
     1
  9
$CEPSNTYPE
380
     0
  9
$PSTYLEMODE
290
     1
  9
$FINGERPRINTGUID
  2
{E91ED1E7-33AD-42A7-A318-3F43EFF88F01}
  9
$VERSIONGUID
  2
{FAEB1C32-E019-11D5-929B-00C0DF256EC4}
  9
$EXTNAMES
290
     1
  9
$PSVPSCALE
 40
0.0
  9
$OLESTARTUP
290
     0
  0
ENDSEC
  0
SECTION
  2
CLASSES
  0
CLASS
  1
ACDBDICTIONARYWDFLT
  2
AcDbDictionaryWithDefault
  3
ObjectDBX Classes
 90
        0
280
     0
281
     0
  0
CLASS
  1
VISUALSTYLE
  2
AcDbVisualStyle
  3
ObjectDBX Classes
 90
     4095
280
     0
281
     0
  0
CLASS
  1
MATERIAL
  2
AcDbMaterial
  3
ObjectDBX Classes
 90
     1153
280
     0
281
     0
  0
CLASS
  1
SCALE
  2
AcDbScale
  3
ObjectDBX Classes
 90
     1153
280
     0
281
     0
  0
CLASS
  1
SUN
  2
AcDbSun
  3
SCENEOE
 90
     1153
280
     0
281
     0
  0
CLASS
  1
ACDBPLACEHOLDER
  2
AcDbPlaceHolder
  3
ObjectDBX Classes
 90
        0
280
     0
281
     0
  0
CLASS
  1
LAYOUT
  2
AcDbLayout
  3
ObjectDBX Classes
 90
        0
280
     0
281
     0
  0
CLASS
  1
TABLESTYLE
  2
AcDbTableStyle
  3
ObjectDBX Classes
 90
     4095
280
     0
281
     0
  0
CLASS
  1
MLEADERSTYLE
  2
AcDbMLeaderStyle
  3
ACDB_MLEADERSTYLE_CLASS
 90
     4095
280
     0
281
     0
  0
CLASS
  1
RASTERVARIABLES
  2
AcDbRasterVariables
  3
ISM
 90
        0
280
     0
281
     0
  0
CLASS
  1
DIMASSOC
  2
AcDbDimAssoc
  3
"AcDbDimAssoc|Product Desc:     AcDim ARX App For Dimension|Company:          Autodesk, Inc.|WEB Address:      www.autodesk.com"
 90
        0
280
     0
281
     0
  0
ENDSEC
  0
SECTION
  2
TABLES
  0
TABLE
  2
VPORT
  5
8
330
0
100
AcDbSymbolTable
 70
     1
  0
VPORT
  5
29
330
8
100
AcDbSymbolTableRecord
100
AcDbViewportTableRecord
  2
*Active
 70
     0
 10
0.0
 20
0.0
 11
1.0
 21
1.0
 12
4.706570722140825
 22
-1.559594435147709
 13
0.0
 23
0.0
 14
10.0
 24
10.0
 15
10.0
 25
10.0
 16
0.0
 26
0.0
 36
1.0
 17
0.0
 27
0.0
 37
0.0
 40
162.2336133911005
 41
1.519944979367263
 42
50.0
 43
0.0
 44
0.0
 50
0.0
 51
0.0
 71
    16
 72
  2000
 73
     1
 74
     3
 75
     0
 76
     0
 77
     0
 78
     0
281
     0
 65
     1
110
0.0
120
0.0
130
0.0
111
1.0
121
0.0
131
0.0
112
0.0
122
1.0
132
0.0
 79
     0
146
0.0
  0
ENDTAB
  0
TABLE
  2
LTYPE
  5
5
330
0
100
AcDbSymbolTable
 70
     6
  0
LTYPE
  5
14
330
5
100
AcDbSymbolTableRecord
100
AcDbLinetypeTableRecord
  2
ByBlock
 70
     0
  3

 72
    65
 73
     0
 40
0.0
  0
LTYPE
  5
15
330
5
100
AcDbSymbolTableRecord
100
AcDbLinetypeTableRecord
  2
ByLayer
 70
     0
  3

 72
    65
 73
     0
 40
0.0
  0
LTYPE
  5
16
330
5
100
AcDbSymbolTableRecord
100
AcDbLinetypeTableRecord
  2
Continuous
 70
     0
  3
Solid line
 72
    65
 73
     0
 40
0.0
  0
LTYPE
  5
6A
330
5
100
AcDbSymbolTableRecord
100
AcDbLinetypeTableRecord
  2
HIDDEN
 70
     0
  3
Hidden __ __ __ __ __ __ __ __ __ __ __ __ __ __
 72
    65
 73
     2
 40
1.905
 49
1.27
 74
     0
 49
-0.635
 74
     0
  0
LTYPE
  5
6B
330
5
100
AcDbSymbolTableRecord
100
AcDbLinetypeTableRecord
  2
PHANTOM
 70
     0
  3
Phantom ______  __  __  ______  __  __  ______
 72
    65
 73
     6
 40
12.7
 49
6.35
 74
     0
 49
-1.27
 74
     0
 49
1.27
 74
     0
 49
-1.27
 74
     0
 49
1.27
 74
     0
 49
-1.27
 74
     0
  0
LTYPE
  5
6C
330
5
100
AcDbSymbolTableRecord
100
AcDbLinetypeTableRecord
  2
CENTER
 70
     0
  3
Center ____ _ ____ _ ____ _ ____ _ ____ _ ____
 72
    65
 73
     4
 40
10.16
 49
6.35
 74
     0
 49
-1.27
 74
     0
 49
1.27
 74
     0
 49
-1.27
 74
     0
  0
LTYPE
  5
6D
330
5
100
AcDbSymbolTableRecord
100
AcDbLinetypeTableRecord
  2
CENTERX2
 70
     0
  3
Center (2x) ________  __  ________  __  _____
 72
    65
 73
     4
 40
20.32
 49
12.7
 74
     0
 49
-2.54
 74
     0
 49
2.54
 74
     0
 49
-2.54
 74
     0
  0
LTYPE
  5
6E
330
5
100
AcDbSymbolTableRecord
100
AcDbLinetypeTableRecord
  2
DOT2
 70
     0
  3
Dot (.5x) ........................................
 72
    65
 73
     2
 40
0.635
 49
0.0
 74
     0
 49
-0.635
 74
     0
  0
ENDTAB
  0
TABLE
  2
LAYER
  5
2
102
{ACAD_XDICTIONARY
360
441
102
}
330
0
100
AcDbSymbolTable
 70
    18
  0
LAYER
  5
10
330
2
100
AcDbSymbolTableRecord
100
AcDbLayerTableRecord
  2
0
 70
     0
 62
     7
  6
Continuous
370
    -3
390
F
  0
LAYER
  5
6F
330
2
100
AcDbSymbolTableRecord
100
AcDbLayerTableRecord
  2
FORMAT
 70
     0
 62
     2
  6
Continuous
370
    -3
390
F
  0
LAYER
  5
70
330
2
100
AcDbSymbolTableRecord
100
AcDbLayerTableRecord
  2
외형선
 70
     0
 62
     4
  6
Continuous
370
    30
390
F
  0
LAYER
  5
71
330
2
100
AcDbSymbolTableRecord
100
AcDbLayerTableRecord
  2
숨은선
 70
     0
 62
     2
  6
HIDDEN
370
    15
390
F
  0
LAYER
  5
72
330
2
100
AcDbSymbolTableRecord
100
AcDbLayerTableRecord
  2
중심선
 70
     0
 62
     1
  6
CENTERX2
370
    -3
390
F
  0
LAYER
  5
73
330
2
100
AcDbSymbolTableRecord
100
AcDbLayerTableRecord
  2
파단선
 70
     0
 62
     4
  6
Continuous
370
    -3
390
F
  0
LAYER
  5
74
330
2
100
AcDbSymbolTableRecord
100
AcDbLayerTableRecord
  2
해칭선
 70
     0
 62
   100
  6
Continuous
370
    -3
390
F
  0
LAYER
  5
75
330
2
100
AcDbSymbolTableRecord
100
AcDbLayerTableRecord
  2
가는실선
 70
     0
 62
     4
  6
Continuous
370
    -3
390
F
  0
LAYER
  5
76
330
2
100
AcDbSymbolTableRecord
100
AcDbLayerTableRecord
  2
치수_보조선
 70
     0
 62
     4
  6
Continuous
370
    -3
390
F
  0
LAYER
  5
77
330
2
100
AcDbSymbolTableRecord
100
AcDbLayerTableRecord
  2
치수문자_일반주서
 70
     0
 62
     7
  6
Continuous
370
    15
390
F
  0
LAYER
  5
78
330
2
100
AcDbSymbolTableRecord
100
AcDbLayerTableRecord
  2
개별주서
 70
     0
 62
   100
  6
Continuous
370
    30
390
F
  0
LAYER
  5
79
330
2
100
AcDbSymbolTableRecord
100
AcDbLayerTableRecord
  2
중간선
 70
     0
 62
     2
  6
Continuous
370
    15
390
F
  0
LAYER
  5
7A
330
2
100
AcDbSymbolTableRecord
100
AcDbLayerTableRecord
  2
윤곽선
 70
     0
 62
     3
  6
Continuous
370
    40
390
F
  0
LAYER
  5
7B
330
2
100
AcDbSymbolTableRecord
100
AcDbLayerTableRecord
  2
중심마크
 70
     0
 62
   100
  6
Continuous
370
    30
390
F
  0
LAYER
  5
7C
330
2
100
AcDbSymbolTableRecord
100
AcDbLayerTableRecord
  2
가상선
 70
     0
 62
     4
  6
PHANTOM
370
    -3
390
F
  0
LAYER
  5
7D
330
2
100
AcDbSymbolTableRecord
100
AcDbLayerTableRecord
  2
특수지정선
 70
     0
 62
     5
  6
CENTERX2
370
    60
390
F
  0
LAYER
  5
7E
330
2
100
AcDbSymbolTableRecord
100
AcDbLayerTableRecord
  2
참조1
 70
     0
 62
    -4
  6
Continuous
370
    -3
390
F
  0
LAYER
  5
16F
330
2
100
AcDbSymbolTableRecord
100
AcDbLayerTableRecord
  2
Defpoints
 70
     0
 62
     7
  6
Continuous
290
     0
370
    -3
390
F
  0
ENDTAB
  0
TABLE
  2
STYLE
  5
3
330
0
100
AcDbSymbolTable
 70
     2
  0
STYLE
  5
11
330
3
100
AcDbSymbolTableRecord
100
AcDbTextStyleTableRecord
  2
Standard
 70
     0
 40
0.0
 41
1.0
 50
0.0
 71
     0
 42
3.5
  3
txt
  4

  0
STYLE
  5
94
330
3
100
AcDbSymbolTableRecord
100
AcDbTextStyleTableRecord
  2
SLDTEXTSTYLE0
 70
     0
 40
0.0
 41
0.75
 50
0.0
 71
     0
 42
3.5
  3
TXT
  4

  0
ENDTAB
  0
TABLE
  2
VIEW
  5
6
330
0
100
AcDbSymbolTable
 70
     0
  0
ENDTAB
  0
TABLE
  2
UCS
  5
7
330
0
100
AcDbSymbolTable
 70
     0
  0
ENDTAB
  0
TABLE
  2
APPID
  5
9
330
0
100
AcDbSymbolTable
 70
     2
  0
APPID
  5
12
330
9
100
AcDbSymbolTableRecord
100
AcDbRegAppTableRecord
  2
ACAD
 70
     0
  0
APPID
  5
17A
330
9
100
AcDbSymbolTableRecord
100
AcDbRegAppTableRecord
  2
ACAD_DSTYLE_DIMRADIAL_EXTENSION
 70
     0
  0
ENDTAB
  0
TABLE
  2
DIMSTYLE
  5
A
330
0
100
AcDbSymbolTable
 70
     4
100
AcDbDimStyleTable
  0
DIMSTYLE
105
27
330
A
100
AcDbSymbolTableRecord
100
AcDbDimStyleTableRecord
  2
ISO-25
 70
     0
 41
2.5
 42
0.625
 43
3.75
 44
1.25
 73
     0
 74
     0
 77
     1
 78
     8
140
2.5
141
2.5
143
0.03937007874016
147
0.625
171
     3
172
     1
178
     0
271
     2
272
     2
274
     3
278
    44
283
     0
284
     8
340
11
  0
DIMSTYLE
105
EC
102
{ACAD_REACTORS
330
EB
330
128
102
}
330
A
100
AcDbSymbolTableRecord
100
AcDbDimStyleTableRecord
  2
SLDDIMSTYLE0
 70
     0
 41
3.302
 44
0.0
 45
0.000000001
 73
     0
 74
     0
 77
     1
 78
    12
 79
     3
140
3.5
143
0.0393700787401575
147
0.875
148
0.000000001
170
     1
172
     1
173
     1
178
     0
271
     2
272
     2
276
     2
284
    12
289
     0
340
94
  0
DIMSTYLE
105
101
102
{ACAD_REACTORS
330
100
330
75F
102
}
330
A
100
AcDbSymbolTableRecord
100
AcDbDimStyleTableRecord
  2
SLDDIMSTYLE1
 70
     0
 41
3.302
 44
0.0
 45
0.000000001
 73
     0
 74
     0
 77
     1
 78
    12
 79
     3
140
3.5
143
0.0393700787401575
147
0.875
148
0.000000001
170
     1
173
     1
178
     0
271
     2
272
     2
276
     2
284
    12
340
94
  0
DIMSTYLE
105
115
102
{ACAD_REACTORS
330
114
102
}
330
A
100
AcDbSymbolTableRecord
100
AcDbDimStyleTableRecord
  2
SLDDIMSTYLE2
 70
     0
 41
3.302
 44
0.0
 45
0.000000001
 73
     0
 74
     0
 77
     1
 78
     4
 79
     1
140
3.5
143
0.0393700787401575
147
0.875
148
0.000000001
170
     1
173
     1
178
     0
271
     2
272
     2
276
     2
284
    12
340
94
  0
ENDTAB
  0
TABLE
  2
BLOCK_RECORD
  5
1
330
0
100
AcDbSymbolTable
 70
    18
  0
BLOCK_RECORD
  5
1F
102
{ACAD_XDICTIONARY
360
78F
102
}
330
1
100
AcDbSymbolTableRecord
100
AcDbBlockTableRecord
  2
*Model_Space
340
22
  0
BLOCK_RECORD
  5
1B
330
1
100
AcDbSymbolTableRecord
100
AcDbBlockTableRecord
  2
*Paper_Space
340
1E
  0
BLOCK_RECORD
  5
23
330
1
100
AcDbSymbolTableRecord
100
AcDbBlockTableRecord
  2
*Paper_Space0
340
26
  0
BLOCK_RECORD
  5
7F
330
1
100
AcDbSymbolTableRecord
100
AcDbBlockTableRecord
  2
블럭10
340
0
102
{BLKREFS
331
E4
102
}
  0
BLOCK_RECORD
  5
ED
330
1
100
AcDbSymbolTableRecord
100
AcDbBlockTableRecord
  2
_D
340
0
  0
BLOCK_RECORD
  5
102
330
1
100
AcDbSymbolTableRecord
100
AcDbBlockTableRecord
  2
_D_1
340
0
  0
BLOCK_RECORD
  5
116
330
1
100
AcDbSymbolTableRecord
100
AcDbBlockTableRecord
  2
_D_2
340
0
  0
BLOCK_RECORD
  5
129
330
1
100
AcDbSymbolTableRecord
100
AcDbBlockTableRecord
  2
_D_3
340
0
  0
BLOCK_RECORD
  5
143
330
1
100
AcDbSymbolTableRecord
100
AcDbBlockTableRecord
  2
SW_DOWELSYMBOL_0
340
0
102
{BLKREFS
331
149
102
}
  0
BLOCK_RECORD
  5
433
330
1
100
AcDbSymbolTableRecord
100
AcDbBlockTableRecord
  2
*D7
340
0
  0
BLOCK_RECORD
  5
445
330
1
100
AcDbSymbolTableRecord
100
AcDbBlockTableRecord
  2
*D8
340
0
  0
BLOCK_RECORD
  5
452
330
1
100
AcDbSymbolTableRecord
100
AcDbBlockTableRecord
  2
*D9
340
0
  0
BLOCK_RECORD
  5
45E
330
1
100
AcDbSymbolTableRecord
100
AcDbBlockTableRecord
  2
*D10
340
0
  0
BLOCK_RECORD
  5
46A
330
1
100
AcDbSymbolTableRecord
100
AcDbBlockTableRecord
  2
*D11
340
0
  0
BLOCK_RECORD
  5
6DE
330
1
100
AcDbSymbolTableRecord
100
AcDbBlockTableRecord
  2
*D12
340
0
  0
BLOCK_RECORD
  5
6EB
330
1
100
AcDbSymbolTableRecord
100
AcDbBlockTableRecord
  2
*D13
340
0
  0
BLOCK_RECORD
  5
6F7
330
1
100
AcDbSymbolTableRecord
100
AcDbBlockTableRecord
  2
*D14
340
0
  0
BLOCK_RECORD
  5
703
330
1
100
AcDbSymbolTableRecord
100
AcDbBlockTableRecord
  2
*D15
340
0
  0
BLOCK_RECORD
  5
710
330
1
100
AcDbSymbolTableRecord
100
AcDbBlockTableRecord
  2
*D16
340
0
  0
BLOCK_RECORD
  5
762
330
1
100
AcDbSymbolTableRecord
100
AcDbBlockTableRecord
  2
*D17
340
0
  0
ENDTAB
  0
ENDSEC
  0
SECTION
  2
BLOCKS
  0
BLOCK
  5
20
330
1F
100
AcDbEntity
  8
0
100
AcDbBlockBegin
  2
*Model_Space
 70
     0
 10
0.0
 20
0.0
 30
0.0
  3
*Model_Space
  1
*Model_Space
  0
ENDBLK
  5
21
330
1F
100
AcDbEntity
  8
0
100
AcDbBlockEnd
  0
BLOCK
  5
1C
330
1B
100
AcDbEntity
 67
     1
  8
0
100
AcDbBlockBegin
  2
*Paper_Space
 70
     0
 10
0.0
 20
0.0
 30
0.0
  3
*Paper_Space
  1
*Paper_Space
  0
ENDBLK
  5
1D
330
1B
100
AcDbEntity
 67
     1
  8
0
100
AcDbBlockEnd
  0
BLOCK
  5
24
330
23
100
AcDbEntity
  8
0
100
AcDbBlockBegin
  2
*Paper_Space0
 70
     0
 10
0.0
 20
0.0
 30
0.0
  3
*Paper_Space0
  1
*Paper_Space0
  0
ENDBLK
  5
25
330
23
100
AcDbEntity
  8
0
100
AcDbBlockEnd
  0
BLOCK
  5
80
330
7F
100
AcDbEntity
  8
0
100
AcDbBlockBegin
  2
블럭10
 70
     2
 10
0.0
 20
0.0
 30
0.0
  3
블럭10
  1
블럭10
  0
ELLIPSE
  5
82
330
7F
100
AcDbEntity
  8
중심선
100
AcDbEllipse
 10
20.54032771741204
 20
12.0471743016438
 30
0.0
 11
6.600054785286829
 21
-1.261213355974178E-13
 31
0.0
210
0.0
220
0.0
230
1.0
 40
0.636358354079598
 41
0.9219305317359503
 42
6.513795318482858
  0
ELLIPSE
  5
83
330
7F
100
AcDbEntity
  8
중심선
100
AcDbEllipse
 10
20.54032771746488
 20
12.04717430159265
 30
0.0
 11
3.960054785062283
 21
1.540847449632565E-10
 31
0.0
210
0.0
220
0.0
230
1.0
 40
0.3939339440162632
 41
1.131841032648279
 42
5.62031148352944
  0
LINE
  5
84
330
7F
100
AcDbEntity
  8
중심선
100
AcDbLine
 10
2.268634060543552
 20
16.24717430164393
 30
0.0
 11
5.714909304380834
 21
16.24717430164393
 31
0.0
  0
LINE
  5
85
330
7F
100
AcDbEntity
  8
중심선
100
AcDbLine
 10
5.245725140726316
 20
7.84717430164391
 30
0.0
 11
8.692000384563599
 21
7.84717430164391
 31
0.0
  0
LINE
  5
86
330
7F
100
AcDbEntity
  8
중심선
100
AcDbLine
 10
15.74043728645272
 20
16.24717430164393
 30
0.0
 11
8.692000384563599
 21
7.84717430164391
 31
0.0
  0
LINE
  5
87
330
7F
100
AcDbEntity
  8
중심선
100
AcDbLine
 10
0.1404042013395286
 20
13.71084872107135
 30
0.0
 11
3.58671253028996
 21
13.71088815037384
 31
0.0
  0
LINE
  5
88
330
7F
100
AcDbEntity
  8
중심선
100
AcDbLine
 10
2.750260043222114
 20
10.84717430164391
 30
0.0
 11
6.196535287059397
 21
10.84717430164391
 31
0.0
  0
LINE
  5
89
330
7F
100
AcDbEntity
  8
중심선
100
AcDbLine
 10
12.29416204261559
 20
16.24717430164393
 30
0.0
 11
5.245725140726316
 21
7.84717430164391
 31
0.0
  0
LINE
  5
8A
330
7F
100
AcDbEntity
  8
중심선
100
AcDbLine
 10
10.72767329541681
 20
16.24717430164393
 30
0.0
 11
6.196535287059397
 21
10.84717430164391
 31
0.0
  0
LINE
  5
8B
330
7F
100
AcDbEntity
  8
중심선
100
AcDbLine
 10
7.28139805157953
 20
16.24717430164393
 30
0.0
 11
2.750260043222114
 21
10.84717430164391
 31
0.0
  0
LINE
  5
8C
330
7F
100
AcDbEntity
  8
중심선
100
AcDbLine
 10
5.714909304380834
 20
16.24717430164393
 30
0.0
 11
3.58671253028996
 21
13.71088815037384
 31
0.0
  0
LINE
  5
8D
330
7F
100
AcDbEntity
  8
중심선
100
AcDbLine
 10
2.268634060543552
 20
16.24717430164393
 30
0.0
 11
0.1404042013395286
 21
13.71084872107135
 31
0.0
  0
LINE
  5
8E
330
7F
100
AcDbEntity
  8
중심선
100
AcDbLine
 10
7.28139805157953
 20
16.24717430164393
 30
0.0
 11
10.72767329541681
 21
16.24717430164393
 31
0.0
  0
LINE
  5
8F
330
7F
100
AcDbEntity
  8
중심선
100
AcDbLine
 10
12.29416204261559
 20
16.24717430164393
 30
0.0
 11
15.74043728645272
 21
16.24717430164393
 31
0.0
  0
LINE
  5
90
330
7F
100
AcDbEntity
  8
중심선
100
AcDbLine
 10
19.22036997980202
 20
11.08717430171403
 30
0.0
 11
23.66174974927406
 21
11.08717430171406
 31
0.0
  0
LINE
  5
91
330
7F
100
AcDbEntity
  8
중심선
100
AcDbLine
 10
19.22039502424796
 20
13.00717430171391
 30
0.0
 11
19.22036997980202
 21
11.08717430171403
 31
0.0
  0
LINE
  5
92
330
7F
100
AcDbEntity
  8
중심선
100
AcDbLine
 10
19.22039502424796
 20
13.00717430171391
 30
0.0
 11
26.96566020931264
 21
13.00717430171391
 31
0.0
  0
LINE
  5
93
330
7F
100
AcDbEntity
  8
중심선
100
AcDbLine
 10
22.22332737316547
 20
13.45928029700563
 30
0.0
 11
24.52862924686651
 21
15.39360700705356
 31
0.0
  0
ATTDEF
  5
95
330
7F
100
AcDbEntity
  8
FORMAT
 62
     2
100
AcDbText
 10
-9.18129528874128
 20
2.075366912832191
 30
0.0
 40
4.233333333333333
  1
E5057048 [ 5 FLUTE ]
 41
0.75
  7
SLDTEXTSTYLE0
 11
-9.18129528874128
 21
-0.0412997538344756
 31
0.0
100
AcDbAttributeDefinition
  3

  2
AUTOATTR0
 70
     0
 74
     1
  0
ENDBLK
  5
81
330
7F
100
AcDbEntity
  8
0
100
AcDbBlockEnd
  0
BLOCK
  5
EE
330
ED
100
AcDbEntity
  8
0
100
AcDbBlockBegin
  2
_D
 70
     0
 10
0.0
 20
0.0
 30
0.0
  3
_D
  1
_D
  0
LINE
  5
F0
330
ED
100
AcDbEntity
  8
치수문자_일반주서
 62
     0
370
    -2
100
AcDbLine
 10
-47.38749999999998
 20
9.524999999999993
 30
0.0
 11
-61.32499999999998
 21
9.524999999999938
 31
0.0
  0
LINE
  5
F1
330
ED
100
AcDbEntity
  8
치수문자_일반주서
 62
     0
370
    -2
100
AcDbLine
 10
-47.38749999999998
 20
-9.525000000000018
 30
0.0
 11
-61.32499999999992
 21
-9.525000000000073
 31
0.0
  0
LINE
  5
F2
330
ED
100
AcDbEntity
  8
치수문자_일반주서
 62
     0
370
    -2
100
AcDbLine
 10
-61.32499999999997
 20
6.222999999999939
 30
0.0
 11
-61.32499999999993
 21
-6.223000000000074
 31
0.0
  0
SOLID
  5
F3
330
ED
100
AcDbEntity
  8
치수문자_일반주서
 62
     0
100
AcDbTrace
 10
-60.77466666666663
 20
6.22299999999994
 30
0.0
 11
-61.8753333333333
 21
6.222999999999937
 31
0.0
 12
-61.32499999999998
 22
9.524999999999938
 32
0.0
 13
-61.32499999999998
 23
9.524999999999938
 33
0.0
  0
SOLID
  5
F4
330
ED
100
AcDbEntity
  8
치수문자_일반주서
 62
     0
100
AcDbTrace
 10
-61.87533333333327
 20
-6.223000000000075
 30
0.0
 11
-60.7746666666666
 21
-6.223000000000072
 31
0.0
 12
-61.32499999999992
 22
-9.525000000000073
 32
0.0
 13
-61.32499999999992
 23
-9.525000000000073
 33
0.0
  0
MTEXT
  5
F5
330
ED
100
AcDbEntity
  8
치수문자_일반주서
 62
     0
100
AcDbMText
 10
-65.69999999999996
 20
-0.0000000000000183
 30
0.0
 40
3.5
 41
0.0
 71
     2
 72
     1
  1
\A1;%%c19.05 [3/4]
  7
SLDTEXTSTYLE0
 11
-3.356894814614645E-15
 21
1.0
 31
0.0
 73
     1
 44
1.0
  0
POINT
  5
F6
330
ED
100
AcDbEntity
  8
Defpoints
 62
     0
100
AcDbPoint
 10
-47.32499999999998
 20
9.524999999999993
 30
0.0
  0
POINT
  5
F7
330
ED
100
AcDbEntity
  8
Defpoints
 62
     0
100
AcDbPoint
 10
-47.32499999999998
 20
-9.525000000000018
 30
0.0
  0
POINT
  5
F8
330
ED
100
AcDbEntity
  8
Defpoints
 62
     0
100
AcDbPoint
 10
-61.32499999999992
 20
-9.52500000000007
 30
0.0
  0
ENDBLK
  5
EF
330
ED
100
AcDbEntity
  8
0
100
AcDbBlockEnd
  0
BLOCK
  5
103
330
102
100
AcDbEntity
  8
0
100
AcDbBlockBegin
  2
_D_1
 70
     0
 10
0.0
 20
0.0
 30
0.0
  3
_D_1
  1
_D_1
  0
LINE
  5
105
330
102
100
AcDbEntity
  8
치수문자_일반주서
 62
     0
370
    -2
100
AcDbLine
 10
53.27500000000001
 20
9.387499999999992
 30
0.0
 11
53.27500000000001
 21
20.06755565969262
 31
0.0
  0
LINE
  5
106
330
102
100
AcDbEntity
  8
치수문자_일반주서
 62
     0
370
    -2
100
AcDbLine
 10
12.00000000000001
 20
4.255246426771812
 30
0.0
 11
12.00000000000001
 21
20.06755565969262
 31
0.0
  0
LINE
  5
107
330
102
100
AcDbEntity
  8
치수문자_일반주서
 62
     0
370
    -2
100
AcDbLine
 10
49.97300000000001
 20
20.06755565969262
 30
0.0
 11
15.30200000000001
 21
20.06755565969262
 31
0.0
  0
SOLID
  5
108
330
102
100
AcDbEntity
  8
치수문자_일반주서
 62
     0
100
AcDbTrace
 10
49.97300000000001
 20
19.51722232635929
 30
0.0
 11
49.97300000000001
 21
20.61788899302596
 31
0.0
 12
53.27500000000001
 22
20.06755565969262
 32
0.0
 13
53.27500000000001
 23
20.06755565969262
 33
0.0
  0
SOLID
  5
109
330
102
100
AcDbEntity
  8
치수문자_일반주서
 62
     0
100
AcDbTrace
 10
15.30200000000001
 20
20.61788899302596
 30
0.0
 11
15.30200000000001
 21
19.51722232635929
 31
0.0
 12
12.00000000000001
 22
20.06755565969262
 32
0.0
 13
12.00000000000001
 23
20.06755565969262
 33
0.0
  0
MTEXT
  5
10A
330
102
100
AcDbEntity
  8
치수문자_일반주서
 62
     0
100
AcDbMText
 10
33.80004848171328
 20
24.44255565969262
 30
0.0
 40
3.5
 41
0.0
 71
     2
 72
     1
  1
\A1;41.28 [1 5/8]
  7
SLDTEXTSTYLE0
 73
     1
 44
1.0
  0
POINT
  5
10B
330
102
100
AcDbEntity
  8
Defpoints
 62
     0
100
AcDbPoint
 10
53.27500000000001
 20
9.324999999999992
 30
0.0
  0
POINT
  5
10C
330
102
100
AcDbEntity
  8
Defpoints
 62
     0
100
AcDbPoint
 10
12.00000000000001
 20
4.192746426771812
 30
0.0
  0
POINT
  5
10D
330
102
100
AcDbEntity
  8
Defpoints
 62
     0
100
AcDbPoint
 10
12.00000000000001
 20
20.06755565969262
 30
0.0
  0
ENDBLK
  5
104
330
102
100
AcDbEntity
  8
0
100
AcDbBlockEnd
  0
BLOCK
  5
117
330
116
100
AcDbEntity
  8
0
100
AcDbBlockBegin
  2
_D_2
 70
     0
 10
0.0
 20
0.0
 30
0.0
  3
_D_2
  1
_D_2
  0
LINE
  5
119
330
116
100
AcDbEntity
  8
치수문자_일반주서
 62
     0
370
    -2
100
AcDbLine
 10
-48.32499999999998
 20
8.587499999999983
 30
0.0
 11
-48.32499999999997
 21
40.58799028620469
 31
0.0
  0
LINE
  5
11A
330
116
100
AcDbEntity
  8
치수문자_일반주서
 62
     0
370
    -2
100
AcDbLine
 10
53.27500000000001
 20
9.37533044715729
 30
0.0
 11
53.27500000000002
 21
40.58799028620469
 31
0.0
  0
LINE
  5
11B
330
116
100
AcDbEntity
  8
치수문자_일반주서
 62
     0
370
    -2
100
AcDbLine
 10
-45.02299999999997
 20
40.58799028620469
 30
0.0
 11
49.97300000000002
 21
40.58799028620469
 31
0.0
  0
SOLID
  5
11C
330
116
100
AcDbEntity
  8
치수문자_일반주서
 62
     0
100
AcDbTrace
 10
-45.02299999999997
 20
41.13832361953803
 30
0.0
 11
-45.02299999999997
 21
40.03765695287136
 31
0.0
 12
-48.32499999999997
 22
40.58799028620469
 32
0.0
 13
-48.32499999999997
 23
40.58799028620469
 33
0.0
  0
SOLID
  5
11D
330
116
100
AcDbEntity
  8
치수문자_일반주서
 62
     0
100
AcDbTrace
 10
49.97300000000002
 20
40.03765695287136
 30
0.0
 11
49.97300000000002
 21
41.13832361953803
 31
0.0
 12
53.27500000000002
 22
40.58799028620469
 32
0.0
 13
53.27500000000002
 23
40.58799028620469
 33
0.0
  0
MTEXT
  5
11E
330
116
100
AcDbEntity
  8
치수문자_일반주서
 62
     0
100
AcDbMText
 10
2.475000000000019
 20
44.96299028620469
 30
0.0
 40
3.5
 41
0.0
 71
     2
 72
     1
  1
\A1;101.60 [4]
  7
SLDTEXTSTYLE0
 73
     1
 44
1.0
  0
POINT
  5
11F
330
116
100
AcDbEntity
  8
Defpoints
 62
     0
100
AcDbPoint
 10
-48.32499999999998
 20
8.524999999999983
 30
0.0
  0
POINT
  5
120
330
116
100
AcDbEntity
  8
Defpoints
 62
     0
100
AcDbPoint
 10
53.27500000000001
 20
9.31283044715729
 30
0.0
  0
POINT
  5
121
330
116
100
AcDbEntity
  8
Defpoints
 62
     0
100
AcDbPoint
 10
53.27500000000001
 20
40.58799028620469
 30
0.0
  0
ENDBLK
  5
118
330
116
100
AcDbEntity
  8
0
100
AcDbBlockEnd
  0
BLOCK
  5
12A
330
129
100
AcDbEntity
  8
0
100
AcDbBlockBegin
  2
_D_3
 70
     0
 10
0.0
 20
0.0
 30
0.0
  3
_D_3
  1
_D_3
  0
LINE
  5
12C
330
129
100
AcDbEntity
  8
치수문자_일반주서
 62
     0
370
    -2
100
AcDbLine
 10
53.33750000000001
 20
9.524999999999999
 30
0.0
 11
73.07724369254943
 21
9.525000000000073
 31
0.0
  0
LINE
  5
12D
330
129
100
AcDbEntity
  8
치수문자_일반주서
 62
     0
370
    -2
100
AcDbLine
 10
53.33750000000001
 20
-9.525000000000002
 30
0.0
 11
73.0772436925495
 21
-9.524999999999928
 31
0.0
  0
LINE
  5
12E
330
129
100
AcDbEntity
  8
치수문자_일반주서
 62
     0
370
    -2
100
AcDbLine
 10
73.07724369254944
 20
6.223000000000074
 30
0.0
 11
73.07724369254949
 21
-6.222999999999928
 31
0.0
  0
SOLID
  5
12F
330
129
100
AcDbEntity
  8
치수문자_일반주서
 62
     0
100
AcDbTrace
 10
73.62757702588277
 20
6.223000000000075
 30
0.0
 11
72.52691035921612
 21
6.223000000000072
 31
0.0
 12
73.07724369254943
 22
9.525000000000073
 32
0.0
 13
73.07724369254943
 23
9.525000000000073
 33
0.0
  0
SOLID
  5
130
330
129
100
AcDbEntity
  8
치수문자_일반주서
 62
     0
100
AcDbTrace
 10
72.52691035921616
 20
-6.22299999999993
 30
0.0
 11
73.62757702588281
 21
-6.222999999999926
 31
0.0
 12
73.0772436925495
 22
-9.524999999999928
 32
0.0
 13
73.0772436925495
 23
-9.524999999999928
 33
0.0
  0
MTEXT
  5
131
330
129
100
AcDbEntity
  8
치수문자_일반주서
 62
     0
100
AcDbMText
 10
68.70224369254947
 20
-0.0000000000000243
 30
0.0
 40
3.5
 41
0.0
 71
     2
 72
     1
  1
\A1;%%c19.05 [3/4]
  7
SLDTEXTSTYLE0
 11
-3.729883127349607E-15
 21
1.0
 31
0.0
 73
     1
 44
1.0
  0
POINT
  5
132
330
129
100
AcDbEntity
  8
Defpoints
 62
     0
100
AcDbPoint
 10
53.27500000000001
 20
9.524999999999999
 30
0.0
  0
POINT
  5
133
330
129
100
AcDbEntity
  8
Defpoints
 62
     0
100
AcDbPoint
 10
53.27500000000001
 20
-9.525000000000002
 30
0.0
  0
POINT
  5
134
330
129
100
AcDbEntity
  8
Defpoints
 62
     0
100
AcDbPoint
 10
73.0772436925495
 20
-9.524999999999928
 30
0.0
  0
ENDBLK
  5
12B
330
129
100
AcDbEntity
  8
0
100
AcDbBlockEnd
  0
BLOCK
  5
144
330
143
100
AcDbEntity
  8
0
100
AcDbBlockBegin
  2
SW_DOWELSYMBOL_0
 70
     0
 10
0.0
 20
0.0
 30
0.0
  3
SW_DOWELSYMBOL_0
  1
SW_DOWELSYMBOL_0
  0
CIRCLE
  5
146
330
143
100
AcDbEntity
  8
해칭선
 62
     0
100
AcDbCircle
 10
0.0
 20
0.0
 30
0.0
 40
3.000000000000001
  0
HATCH
  5
147
330
143
100
AcDbEntity
  8
0
  6
Continuous
 62
     0
370
     0
100
AcDbHatch
 10
0.0
 20
0.0
 30
0.0
210
0.0
220
0.0
230
1.0
  2
SOLID
 70
     1
 71
     0
 91
        1
 92
        0
 93
        3
 72
     2
 10
0.0000000000000069
 20
0.0
 40
3.000000000000001
 50
0.0
 51
90.0
 73
     1
 72
     1
 10
0.0000000000000069
 20
3.000000000000001
 11
0.0000000000000069
 21
0.0
 72
     1
 10
0.0000000000000069
 20
0.0
 11
3.000000000000008
 21
0.0
 97
        0
 75
     0
 76
     1
 98
        1
 10
0.0
 20
0.0
  0
HATCH
  5
148
330
143
100
AcDbEntity
  8
0
  6
Continuous
 62
     0
370
     0
100
AcDbHatch
 10
0.0
 20
0.0
 30
0.0
210
0.0
220
0.0
230
1.0
  2
SOLID
 70
     1
 71
     0
 91
        1
 92
        0
 93
        3
 72
     2
 10
0.0000000000000069
 20
0.0
 40
3.000000000000001
 50
180.0
 51
270.0000000000007
 73
     1
 72
     1
 10
0.0000000000000069
 20
-3.000000000000001
 11
0.0000000000000069
 21
0.0
 72
     1
 10
0.0000000000000069
 20
0.0
 11
-2.999999999999994
 21
0.0
 97
        0
 75
     0
 76
     1
 98
        1
 10
0.0
 20
0.0
  0
ENDBLK
  5
145
330
143
100
AcDbEntity
  8
0
100
AcDbBlockEnd
  0
BLOCK
  5
434
330
433
100
AcDbEntity
  8
0
100
AcDbBlockBegin
  2
*D7
 70
     1
 10
0.0
 20
0.0
 30
0.0
  3
*D7
  1
*D19
  0
LINE
  5
435
330
433
100
AcDbEntity
  8
치수문자_일반주서
 62
     0
370
    -2
100
AcDbLine
 10
96.4955570672506
 20
14.74210910163115
 30
0.0
 11
118.3791719950714
 21
36.50732809756268
 31
0.0
  0
MTEXT
  5
436
330
433
100
AcDbEntity
  8
치수문자_일반주서
 62
     0
100
AcDbMText
 10
106.7568464077996
 20
28.65016420045916
 30
0.0
 40
3.5
 41
0.0
 71
     5
 72
     1
  1
\A1;R1.02 [R0.04]
  7
SLDTEXTSTYLE0
 11
0.7090221752440767
 21
0.7051861846435716
 31
0.0
 73
     1
 44
1.0
  0
SOLID
  5
437
330
433
100
AcDbEntity
  8
치수문자_일반주서
 62
     0
100
AcDbTrace
 10
96.1074696036351
 20
15.13230763874048
 30
0.0
 11
96.8836445308661
 21
14.35191056452183
 31
0.0
 12
94.15436584459466
 22
12.41358431993808
 32
0.0
 13
94.15436584459466
 23
12.41358431993808
 33
0.0
  0
LINE
  5
438
330
433
100
AcDbEntity
  8
치수문자_일반주서
 62
     0
100
AcDbLine
 10
93.34399931454668
 20
11.69711515634021
 30
0.0
 11
93.52399931454669
 21
11.69711515634021
 31
0.0
  0
LINE
  5
439
330
433
100
AcDbEntity
  8
치수문자_일반주서
 62
     0
100
AcDbLine
 10
93.43399931454668
 20
11.60711515634021
 30
0.0
 11
93.43399931454668
 21
11.78711515634021
 31
0.0
  0
POINT
  5
43A
330
433
100
AcDbEntity
  8
Defpoints
 62
     0
100
AcDbPoint
 10
94.15436584459466
 20
12.41358431993808
 30
0.0
  0
POINT
  5
43B
330
433
100
AcDbEntity
  8
Defpoints
 62
     0
100
AcDbPoint
 10
93.43399931454668
 20
11.69711515634021
 30
0.0
  0
ENDBLK
  5
43C
330
433
100
AcDbEntity
  8
0
100
AcDbBlockEnd
  0
BLOCK
  5
446
330
445
100
AcDbEntity
  8
0
100
AcDbBlockBegin
  2
*D8
 70
     1
 10
0.0
 20
0.0
 30
0.0
  3
*D8
  1
*D9
  0
LINE
  5
448
330
445
100
AcDbEntity
  8
치수문자_일반주서
 62
     0
370
    -2
100
AcDbLine
 10
19.18750000000011
 20
12.71311523308118
 30
0.0
 11
4.375000000000114
 21
12.71311523308113
 31
0.0
  0
LINE
  5
449
330
445
100
AcDbEntity
  8
치수문자_일반주서
 62
     0
370
    -2
100
AcDbLine
 10
19.18750000000011
 20
0.013115233081195
 30
0.0
 11
4.375000000000158
 21
0.0131152330811375
 31
0.0
  0
LINE
  5
44A
330
445
100
AcDbEntity
  8
치수문자_일반주서
 62
     0
370
    -2
100
AcDbLine
 10
4.375000000000114
 20
12.71311523308113
 30
0.0
 11
4.374999999999996
 21
46.44211523308113
 31
0.0
  0
LINE
  5
44B
330
445
100
AcDbEntity
  8
치수문자_일반주서
 62
     0
370
    -2
100
AcDbLine
 10
4.375000000000125
 20
9.411115233081127
 30
0.0
 11
4.375000000000147
 21
3.315115233081137
 31
0.0
  0
SOLID
  5
44C
330
445
100
AcDbEntity
  8
치수문자_일반주서
 62
     0
100
AcDbTrace
 10
4.925333333333459
 20
9.411115233081128
 30
0.0
 11
3.824666666666792
 21
9.411115233081125
 31
0.0
 12
4.375000000000114
 22
12.71311523308113
 32
0.0
 13
4.375000000000114
 23
12.71311523308113
 33
0.0
  0
SOLID
  5
44D
330
445
100
AcDbEntity
  8
치수문자_일반주서
 62
     0
100
AcDbTrace
 10
3.824666666666813
 20
3.315115233081135
 30
0.0
 11
4.92533333333348
 21
3.315115233081139
 31
0.0
 12
4.375000000000158
 22
0.0131152330811375
 32
0.0
 13
4.375000000000158
 23
0.0131152330811375
 33
0.0
  0
MTEXT
  5
44E
330
445
100
AcDbEntity
  8
치수문자_일반주서
 62
     0
100
AcDbMText
 10
0.0000000000000426
 20
33.09836523308112
 30
0.0
 40
3.5
 41
0.0
 71
     2
 72
     1
  1
\A1;%%c12.70 [1/2]
  7
SLDTEXTSTYLE0
 11
-3.496765431890260E-15
 21
1.0
 31
0.0
 73
     1
 44
1.0
  0
POINT
  5
44F
330
445
100
AcDbEntity
  8
Defpoints
 62
     0
100
AcDbPoint
 10
19.25000000000011
 20
12.71311523308118
 30
0.0
  0
POINT
  5
450
330
445
100
AcDbEntity
  8
Defpoints
 62
     0
100
AcDbPoint
 10
19.25000000000011
 20
0.0131152330811952
 30
0.0
  0
POINT
  5
451
330
445
100
AcDbEntity
  8
Defpoints
 62
     0
100
AcDbPoint
 10
4.375000000000163
 20
0.0131152330811396
 30
0.0
  0
ENDBLK
  5
447
330
445
100
AcDbEntity
  8
0
100
AcDbBlockEnd
  0
BLOCK
  5
453
330
452
100
AcDbEntity
  8
0
100
AcDbBlockBegin
  2
*D9
 70
     1
 10
0.0
 20
0.0
 30
0.0
  3
*D9
  1
*D10
  0
LINE
  5
455
330
452
100
AcDbEntity
  8
치수문자_일반주서
 62
     0
370
    -2
100
AcDbLine
 10
94.4500000000001
 20
12.77561523308131
 30
0.0
 11
94.4500000000001
 21
23.24746979456147
 31
0.0
  0
LINE
  5
456
330
452
100
AcDbEntity
  8
치수문자_일반주서
 62
     0
370
    -2
100
AcDbLine
 10
62.7000000000001
 20
11.12100049779808
 30
0.0
 11
62.7000000000001
 21
23.24746979456147
 31
0.0
  0
LINE
  5
457
330
452
100
AcDbEntity
  8
치수문자_일반주서
 62
     0
370
    -2
100
AcDbLine
 10
91.14800000000011
 20
23.24746979456147
 30
0.0
 11
66.0020000000001
 21
23.24746979456147
 31
0.0
  0
SOLID
  5
458
330
452
100
AcDbEntity
  8
치수문자_일반주서
 62
     0
100
AcDbTrace
 10
91.14800000000011
 20
22.69713646122814
 30
0.0
 11
91.14800000000011
 21
23.79780312789481
 31
0.0
 12
94.4500000000001
 22
23.24746979456147
 32
0.0
 13
94.4500000000001
 23
23.24746979456147
 33
0.0
  0
SOLID
  5
459
330
452
100
AcDbEntity
  8
치수문자_일반주서
 62
     0
100
AcDbTrace
 10
66.0020000000001
 20
23.79780312789481
 30
0.0
 11
66.0020000000001
 21
22.69713646122814
 31
0.0
 12
62.7000000000001
 22
23.24746979456147
 32
0.0
 13
62.7000000000001
 23
23.24746979456147
 33
0.0
  0
MTEXT
  5
45A
330
452
100
AcDbEntity
  8
치수문자_일반주서
 62
     0
100
AcDbMText
 10
79.46926806285646
 20
27.62246979456147
 30
0.0
 40
3.5
 41
0.0
 71
     2
 72
     1
  1
\A1;31.75 [1 1/4]
  7
SLDTEXTSTYLE0
 73
     1
 44
1.0
  0
POINT
  5
45B
330
452
100
AcDbEntity
  8
Defpoints
 62
     0
100
AcDbPoint
 10
94.4500000000001
 20
12.71311523308131
 30
0.0
  0
POINT
  5
45C
330
452
100
AcDbEntity
  8
Defpoints
 62
     0
100
AcDbPoint
 10
62.7000000000001
 20
11.05850049779808
 30
0.0
  0
POINT
  5
45D
330
452
100
AcDbEntity
  8
Defpoints
 62
     0
100
AcDbPoint
 10
62.7000000000001
 20
23.24746979456147
 30
0.0
  0
ENDBLK
  5
454
330
452
100
AcDbEntity
  8
0
100
AcDbBlockEnd
  0
BLOCK
  5
45F
330
45E
100
AcDbEntity
  8
0
100
AcDbBlockBegin
  2
*D10
 70
     1
 10
0.0
 20
0.0
 30
0.0
  3
*D10
  1
*D11
  0
LINE
  5
461
330
45E
100
AcDbEntity
  8
치수문자_일반주서
 62
     0
370
    -2
100
AcDbLine
 10
18.25000000000009
 20
11.77561523308118
 30
0.0
 11
18.25000000000009
 21
43.7761055192859
 31
0.0
  0
LINE
  5
462
330
45E
100
AcDbEntity
  8
치수문자_일반주서
 62
     0
370
    -2
100
AcDbLine
 10
94.4500000000001
 20
12.77561523308131
 30
0.0
 11
94.4500000000001
 21
43.7761055192859
 31
0.0
  0
LINE
  5
463
330
45E
100
AcDbEntity
  8
치수문자_일반주서
 62
     0
370
    -2
100
AcDbLine
 10
21.55200000000008
 20
43.7761055192859
 30
0.0
 11
91.14800000000011
 21
43.7761055192859
 31
0.0
  0
SOLID
  5
464
330
45E
100
AcDbEntity
  8
치수문자_일반주서
 62
     0
100
AcDbTrace
 10
21.55200000000008
 20
44.32643885261923
 30
0.0
 11
21.55200000000008
 21
43.22577218595256
 31
0.0
 12
18.25000000000009
 22
43.7761055192859
 32
0.0
 13
18.25000000000009
 23
43.7761055192859
 33
0.0
  0
SOLID
  5
465
330
45E
100
AcDbEntity
  8
치수문자_일반주서
 62
     0
100
AcDbTrace
 10
91.14800000000011
 20
43.22577218595256
 30
0.0
 11
91.14800000000011
 21
44.32643885261923
 31
0.0
 12
94.4500000000001
 22
43.7761055192859
 32
0.0
 13
94.4500000000001
 23
43.7761055192859
 33
0.0
  0
MTEXT
  5
466
330
45E
100
AcDbEntity
  8
치수문자_일반주서
 62
     0
100
AcDbMText
 10
56.3500000000001
 20
48.1511055192859
 30
0.0
 40
3.5
 41
0.0
 71
     2
 72
     1
  1
\A1;76.20 [3]
  7
SLDTEXTSTYLE0
 73
     1
 44
1.0
  0
POINT
  5
467
330
45E
100
AcDbEntity
  8
Defpoints
 62
     0
100
AcDbPoint
 10
18.25000000000009
 20
11.71311523308118
 30
0.0
  0
POINT
  5
468
330
45E
100
AcDbEntity
  8
Defpoints
 62
     0
100
AcDbPoint
 10
94.4500000000001
 20
12.71311523308131
 30
0.0
  0
POINT
  5
469
330
45E
100
AcDbEntity
  8
Defpoints
 62
     0
100
AcDbPoint
 10
94.4500000000001
 20
43.7761055192859
 30
0.0
  0
ENDBLK
  5
460
330
45E
100
AcDbEntity
  8
0
100
AcDbBlockEnd
  0
BLOCK
  5
46B
330
46A
100
AcDbEntity
  8
0
100
AcDbBlockBegin
  2
*D11
 70
     1
 10
0.0
 20
0.0
 30
0.0
  3
*D11
  1
*D12
  0
LINE
  5
46D
330
46A
100
AcDbEntity
  8
치수문자_일반주서
 62
     0
370
    -2
100
AcDbLine
 10
94.5125000000001
 20
12.71311523308131
 30
0.0
 11
125.2144723006845
 21
12.71311523308142
 31
0.0
  0
LINE
  5
46E
330
46A
100
AcDbEntity
  8
치수문자_일반주서
 62
     0
370
    -2
100
AcDbLine
 10
94.5125000000001
 20
0.0131153098221699
 30
0.0
 11
125.2144723006846
 21
0.0131153098222825
 31
0.0
  0
LINE
  5
46F
330
46A
100
AcDbEntity
  8
치수문자_일반주서
 62
     0
370
    -2
100
AcDbLine
 10
125.2144723006845
 20
12.71311523308142
 30
0.0
 11
125.2144723006844
 21
46.44211523308142
 31
0.0
  0
LINE
  5
470
330
46A
100
AcDbEntity
  8
치수문자_일반주서
 62
     0
370
    -2
100
AcDbLine
 10
125.2144723006845
 20
9.411115233081421
 30
0.0
 11
125.2144723006846
 21
3.315115309822282
 31
0.0
  0
SOLID
  5
471
330
46A
100
AcDbEntity
  8
치수문자_일반주서
 62
     0
100
AcDbTrace
 10
125.7648056340179
 20
9.411115233081423
 30
0.0
 11
124.6641389673512
 21
9.41111523308142
 31
0.0
 12
125.2144723006845
 22
12.71311523308142
 32
0.0
 13
125.2144723006845
 23
12.71311523308142
 33
0.0
  0
SOLID
  5
472
330
46A
100
AcDbEntity
  8
치수문자_일반주서
 62
     0
100
AcDbTrace
 10
124.6641389673512
 20
3.31511530982228
 30
0.0
 11
125.7648056340179
 21
3.315115309822284
 31
0.0
 12
125.2144723006846
 22
0.0131153098222825
 32
0.0
 13
125.2144723006846
 23
0.0131153098222825
 33
0.0
  0
MTEXT
  5
473
330
46A
100
AcDbEntity
  8
치수문자_일반주서
 62
     0
100
AcDbMText
 10
120.8394723006845
 20
33.0983652330814
 30
0.0
 40
3.5
 41
0.0
 71
     2
 72
     1
  1
\A1;%%c12.70 [1/2]
  7
SLDTEXTSTYLE0
 11
-3.356894834898977E-15
 21
1.0
 31
0.0
 73
     1
 44
1.0
  0
POINT
  5
474
330
46A
100
AcDbEntity
  8
Defpoints
 62
     0
100
AcDbPoint
 10
94.4500000000001
 20
12.71311523308131
 30
0.0
  0
POINT
  5
475
330
46A
100
AcDbEntity
  8
Defpoints
 62
     0
100
AcDbPoint
 10
94.4500000000001
 20
0.0131153098221697
 30
0.0
  0
POINT
  5
476
330
46A
100
AcDbEntity
  8
Defpoints
 62
     0
100
AcDbPoint
 10
125.2144723006846
 20
0.0131153098222846
 30
0.0
  0
ENDBLK
  5
46C
330
46A
100
AcDbEntity
  8
0
100
AcDbBlockEnd
  0
BLOCK
  5
6DF
330
6DE
100
AcDbEntity
  8
0
100
AcDbBlockBegin
  2
*D12
 70
     1
 10
0.0
 20
0.0
 30
0.0
  3
*D12
  1
*D13
  0
LINE
  5
6E1
330
6DE
100
AcDbEntity
  8
치수문자_일반주서
 62
     0
370
    -2
100
AcDbLine
 10
38.03492400945193
 20
-100.6547711230091
 30
0.0
 11
23.22242400945194
 21
-100.6547711230091
 31
0.0
  0
LINE
  5
6E2
330
6DE
100
AcDbEntity
  8
치수문자_일반주서
 62
     0
370
    -2
100
AcDbLine
 10
38.03492400945193
 20
-113.3547711230091
 30
0.0
 11
23.22242400945198
 21
-113.3547711230091
 31
0.0
  0
LINE
  5
6E3
330
6DE
100
AcDbEntity
  8
치수문자_일반주서
 62
     0
370
    -2
100
AcDbLine
 10
23.22242400945194
 20
-100.6547711230091
 30
0.0
 11
23.22242400945182
 21
-66.92577112300913
 31
0.0
  0
LINE
  5
6E4
330
6DE
100
AcDbEntity
  8
치수문자_일반주서
 62
     0
370
    -2
100
AcDbLine
 10
23.22242400945195
 20
-103.9567711230091
 30
0.0
 11
23.22242400945197
 21
-110.0527711230091
 31
0.0
  0
SOLID
  5
6E5
330
6DE
100
AcDbEntity
  8
치수문자_일반주서
 62
     0
100
AcDbTrace
 10
23.77275734278528
 20
-103.9567711230091
 30
0.0
 11
22.67209067611861
 21
-103.9567711230091
 31
0.0
 12
23.22242400945194
 22
-100.6547711230091
 32
0.0
 13
23.22242400945194
 23
-100.6547711230091
 33
0.0
  0
SOLID
  5
6E6
330
6DE
100
AcDbEntity
  8
치수문자_일반주서
 62
     0
100
AcDbTrace
 10
22.67209067611864
 20
-110.0527711230091
 30
0.0
 11
23.7727573427853
 21
-110.0527711230091
 31
0.0
 12
23.22242400945198
 22
-113.3547711230091
 32
0.0
 13
23.22242400945198
 23
-113.3547711230091
 33
0.0
  0
MTEXT
  5
6E7
330
6DE
100
AcDbEntity
  8
치수문자_일반주서
 62
     0
100
AcDbMText
 10
18.84742400945187
 20
-80.26952112300914
 30
0.0
 40
3.5
 41
0.0
 71
     2
 72
     1
  1
\A1;%%c12.70 [1/2]
  7
SLDTEXTSTYLE0
 11
-3.356894814614650E-15
 21
1.0
 31
0.0
 73
     1
 44
1.0
  0
POINT
  5
6E8
330
6DE
100
AcDbEntity
  8
Defpoints
 62
     0
100
AcDbPoint
 10
38.09742400945193
 20
-100.6547711230091
 30
0.0
  0
POINT
  5
6E9
330
6DE
100
AcDbEntity
  8
Defpoints
 62
     0
100
AcDbPoint
 10
38.09742400945193
 20
-113.3547711230091
 30
0.0
  0
POINT
  5
6EA
330
6DE
100
AcDbEntity
  8
Defpoints
 62
     0
100
AcDbPoint
 10
23.22242400945198
 20
-113.3547711230091
 30
0.0
  0
ENDBLK
  5
6E0
330
6DE
100
AcDbEntity
  8
0
100
AcDbBlockEnd
  0
BLOCK
  5
6EC
330
6EB
100
AcDbEntity
  8
0
100
AcDbBlockBegin
  2
*D13
 70
     1
 10
0.0
 20
0.0
 30
0.0
  3
*D13
  1
*D14
  0
LINE
  5
6EE
330
6EB
100
AcDbEntity
  8
치수문자_일반주서
 62
     0
370
    -2
100
AcDbLine
 10
113.2974240094519
 20
-100.5922711230089
 30
0.0
 11
113.2974240094519
 21
-90.12041656152877
 31
0.0
  0
LINE
  5
6EF
330
6EB
100
AcDbEntity
  8
치수문자_일반주서
 62
     0
370
    -2
100
AcDbLine
 10
81.54742400945193
 20
-102.2468858582922
 30
0.0
 11
81.54742400945193
 21
-90.12041656152877
 31
0.0
  0
LINE
  5
6F0
330
6EB
100
AcDbEntity
  8
치수문자_일반주서
 62
     0
370
    -2
100
AcDbLine
 10
109.9954240094519
 20
-90.12041656152877
 30
0.0
 11
84.84942400945192
 21
-90.12041656152877
 31
0.0
  0
SOLID
  5
6F1
330
6EB
100
AcDbEntity
  8
치수문자_일반주서
 62
     0
100
AcDbTrace
 10
109.9954240094519
 20
-90.6707498948621
 30
0.0
 11
109.9954240094519
 21
-89.57008322819544
 31
0.0
 12
113.2974240094519
 22
-90.12041656152877
 32
0.0
 13
113.2974240094519
 23
-90.12041656152877
 33
0.0
  0
SOLID
  5
6F2
330
6EB
100
AcDbEntity
  8
치수문자_일반주서
 62
     0
100
AcDbTrace
 10
84.84942400945192
 20
-89.57008322819544
 30
0.0
 11
84.84942400945192
 21
-90.6707498948621
 31
0.0
 12
81.54742400945193
 22
-90.12041656152877
 32
0.0
 13
81.54742400945193
 23
-90.12041656152877
 33
0.0
  0
MTEXT
  5
6F3
330
6EB
100
AcDbEntity
  8
치수문자_일반주서
 62
     0
100
AcDbMText
 10
98.31669207230829
 20
-85.74541656152877
 30
0.0
 40
3.5
 41
0.0
 71
     2
 72
     1
  1
\A1;31.75 [1 1/4]
  7
SLDTEXTSTYLE0
 73
     1
 44
1.0
  0
POINT
  5
6F4
330
6EB
100
AcDbEntity
  8
Defpoints
 62
     0
100
AcDbPoint
 10
113.2974240094519
 20
-100.6547711230089
 30
0.0
  0
POINT
  5
6F5
330
6EB
100
AcDbEntity
  8
Defpoints
 62
     0
100
AcDbPoint
 10
81.54742400945193
 20
-102.3093858582922
 30
0.0
  0
POINT
  5
6F6
330
6EB
100
AcDbEntity
  8
Defpoints
 62
     0
100
AcDbPoint
 10
81.54742400945193
 20
-90.12041656152877
 30
0.0
  0
ENDBLK
  5
6ED
330
6EB
100
AcDbEntity
  8
0
100
AcDbBlockEnd
  0
BLOCK
  5
6F8
330
6F7
100
AcDbEntity
  8
0
100
AcDbBlockBegin
  2
*D14
 70
     1
 10
0.0
 20
0.0
 30
0.0
  3
*D14
  1
*D15
  0
LINE
  5
6FA
330
6F7
100
AcDbEntity
  8
치수문자_일반주서
 62
     0
370
    -2
100
AcDbLine
 10
37.09742400945192
 20
-101.5922711230091
 30
0.0
 11
37.09742400945191
 21
-69.59178083680436
 31
0.0
  0
LINE
  5
6FB
330
6F7
100
AcDbEntity
  8
치수문자_일반주서
 62
     0
370
    -2
100
AcDbLine
 10
113.2974240094519
 20
-100.5922711230089
 30
0.0
 11
113.2974240094519
 21
-69.59178083680436
 31
0.0
  0
LINE
  5
6FC
330
6F7
100
AcDbEntity
  8
치수문자_일반주서
 62
     0
370
    -2
100
AcDbLine
 10
40.39942400945191
 20
-69.59178083680436
 30
0.0
 11
109.9954240094519
 21
-69.59178083680436
 31
0.0
  0
SOLID
  5
6FD
330
6F7
100
AcDbEntity
  8
치수문자_일반주서
 62
     0
100
AcDbTrace
 10
40.39942400945191
 20
-69.04144750347103
 30
0.0
 11
40.39942400945191
 21
-70.14211417013769
 31
0.0
 12
37.09742400945191
 22
-69.59178083680436
 32
0.0
 13
37.09742400945191
 23
-69.59178083680436
 33
0.0
  0
SOLID
  5
6FE
330
6F7
100
AcDbEntity
  8
치수문자_일반주서
 62
     0
100
AcDbTrace
 10
109.9954240094519
 20
-70.14211417013769
 30
0.0
 11
109.9954240094519
 21
-69.04144750347103
 31
0.0
 12
113.2974240094519
 22
-69.59178083680436
 32
0.0
 13
113.2974240094519
 23
-69.59178083680436
 33
0.0
  0
MTEXT
  5
6FF
330
6F7
100
AcDbEntity
  8
치수문자_일반주서
 62
     0
100
AcDbMText
 10
75.19742400945194
 20
-65.21678083680436
 30
0.0
 40
3.5
 41
0.0
 71
     2
 72
     1
  1
\A1;76.20 [3]
  7
SLDTEXTSTYLE0
 73
     1
 44
1.0
  0
POINT
  5
700
330
6F7
100
AcDbEntity
  8
Defpoints
 62
     0
100
AcDbPoint
 10
37.09742400945192
 20
-101.6547711230091
 30
0.0
  0
POINT
  5
701
330
6F7
100
AcDbEntity
  8
Defpoints
 62
     0
100
AcDbPoint
 10
113.2974240094519
 20
-100.6547711230089
 30
0.0
  0
POINT
  5
702
330
6F7
100
AcDbEntity
  8
Defpoints
 62
     0
100
AcDbPoint
 10
113.2974240094519
 20
-69.59178083680436
 30
0.0
  0
ENDBLK
  5
6F9
330
6F7
100
AcDbEntity
  8
0
100
AcDbBlockEnd
  0
BLOCK
  5
704
330
703
100
AcDbEntity
  8
0
100
AcDbBlockBegin
  2
*D15
 70
     1
 10
0.0
 20
0.0
 30
0.0
  3
*D15
  1
*D16
  0
LINE
  5
706
330
703
100
AcDbEntity
  8
치수문자_일반주서
 62
     0
370
    -2
100
AcDbLine
 10
113.3599240094519
 20
-100.6547711230089
 30
0.0
 11
144.0618963101364
 21
-100.6547711230088
 31
0.0
  0
LINE
  5
707
330
703
100
AcDbEntity
  8
치수문자_일반주서
 62
     0
370
    -2
100
AcDbLine
 10
113.3599240094519
 20
-113.3547710462681
 30
0.0
 11
144.0618963101364
 21
-113.354771046268
 31
0.0
  0
LINE
  5
708
330
703
100
AcDbEntity
  8
치수문자_일반주서
 62
     0
370
    -2
100
AcDbLine
 10
144.0618963101364
 20
-100.6547711230088
 30
0.0
 11
144.0618963101362
 21
-66.92577112300884
 31
0.0
  0
LINE
  5
709
330
703
100
AcDbEntity
  8
치수문자_일반주서
 62
     0
370
    -2
100
AcDbLine
 10
144.0618963101364
 20
-103.9567711230088
 30
0.0
 11
144.0618963101364
 21
-110.052771046268
 31
0.0
  0
SOLID
  5
70A
330
703
100
AcDbEntity
  8
치수문자_일반주서
 62
     0
100
AcDbTrace
 10
144.6122296434697
 20
-103.9567711230088
 30
0.0
 11
143.5115629768031
 21
-103.9567711230088
 31
0.0
 12
144.0618963101364
 22
-100.6547711230088
 32
0.0
 13
144.0618963101364
 23
-100.6547711230088
 33
0.0
  0
SOLID
  5
70B
330
703
100
AcDbEntity
  8
치수문자_일반주서
 62
     0
100
AcDbTrace
 10
143.5115629768031
 20
-110.052771046268
 30
0.0
 11
144.6122296434697
 21
-110.052771046268
 31
0.0
 12
144.0618963101364
 22
-113.354771046268
 32
0.0
 13
144.0618963101364
 23
-113.354771046268
 33
0.0
  0
MTEXT
  5
70C
330
703
100
AcDbEntity
  8
치수문자_일반주서
 62
     0
100
AcDbMText
 10
139.6868963101363
 20
-80.26952112300887
 30
0.0
 40
3.5
 41
0.0
 71
     2
 72
     1
  1
\A1;%%c12.70 [1/2]
  7
SLDTEXTSTYLE0
 11
-4.475859779865302E-15
 21
1.0
 31
0.0
 73
     1
 44
1.0
  0
POINT
  5
70D
330
703
100
AcDbEntity
  8
Defpoints
 62
     0
100
AcDbPoint
 10
113.2974240094519
 20
-100.6547711230089
 30
0.0
  0
POINT
  5
70E
330
703
100
AcDbEntity
  8
Defpoints
 62
     0
100
AcDbPoint
 10
113.2974240094519
 20
-113.3547710462681
 30
0.0
  0
POINT
  5
70F
330
703
100
AcDbEntity
  8
Defpoints
 62
     0
100
AcDbPoint
 10
144.0618963101364
 20
-113.354771046268
 30
0.0
  0
ENDBLK
  5
705
330
703
100
AcDbEntity
  8
0
100
AcDbBlockEnd
  0
BLOCK
  5
711
330
710
100
AcDbEntity
  8
0
100
AcDbBlockBegin
  2
*D16
 70
     1
 10
0.0
 20
0.0
 30
0.0
  3
*D16
  1
*D17
  0
LINE
  5
713
330
710
100
AcDbEntity
  8
치수문자_일반주서
 62
     0
370
    -2
100
AcDbLine
 10
115.3429810767024
 20
-98.62577725445908
 30
0.0
 11
137.2265960045231
 21
-76.86055825852742
 31
0.0
  0
MTEXT
  5
714
330
710
100
AcDbEntity
  8
치수문자_일반주서
 62
     0
100
AcDbMText
 10
125.6042704172513
 20
-84.71772215563101
 30
0.0
 40
3.5
 41
0.0
 71
     5
 72
     1
  1
\A1;R1.02 [R0.04]
  7
SLDTEXTSTYLE0
 11
0.7090221752440724
 21
0.7051861846435761
 31
0.0
 73
     1
 44
1.0
  0
SOLID
  5
715
330
710
100
AcDbEntity
  8
치수문자_일반주서
 62
     0
100
AcDbTrace
 10
114.9548936130869
 20
-98.23557871734975
 30
0.0
 11
115.7310685403179
 21
-99.01597579156841
 31
0.0
 12
113.0017898540465
 22
-100.9543020361522
 32
0.0
 13
113.0017898540465
 23
-100.9543020361522
 33
0.0
  0
LINE
  5
716
330
710
100
AcDbEntity
  8
치수문자_일반주서
 62
     0
100
AcDbLine
 10
112.1914233239985
 20
-101.67077119975
 30
0.0
 11
112.3714233239985
 21
-101.67077119975
 31
0.0
  0
LINE
  5
717
330
710
100
AcDbEntity
  8
치수문자_일반주서
 62
     0
100
AcDbLine
 10
112.2814233239985
 20
-101.7607711997501
 30
0.0
 11
112.2814233239985
 21
-101.58077119975
 31
0.0
  0
POINT
  5
718
330
710
100
AcDbEntity
  8
Defpoints
 62
     0
100
AcDbPoint
 10
113.0017898540465
 20
-100.9543020361522
 30
0.0
  0
POINT
  5
719
330
710
100
AcDbEntity
  8
Defpoints
 62
     0
100
AcDbPoint
 10
112.2814233239985
 20
-101.67077119975
 30
0.0
  0
ENDBLK
  5
712
330
710
100
AcDbEntity
  8
0
100
AcDbBlockEnd
  0
BLOCK
  5
763
330
762
100
AcDbEntity
  8
0
100
AcDbBlockBegin
  2
*D17
 70
     1
 10
0.0
 20
0.0
 30
0.0
  3
*D17
  1
*D19
  0
LINE
  5
765
330
762
100
AcDbEntity
  8
치수문자_일반주서
 62
     0
370
    -2
100
AcDbLine
 10
55.26546223343685
 20
11.30839027759179
 30
0.0
 11
81.24670324096408
 21
35.75881859099329
 31
0.0
  0
MTEXT
  5
766
330
762
100
AcDbEntity
  8
치수문자_일반주서
 62
     0
100
AcDbMText
 10
69.25242826190025
 20
28.07585088791113
 30
0.0
 40
3.5
 41
0.0
 71
     5
 72
     1
  1
\A1;R1.52 [R0.06]
  7
SLDTEXTSTYLE0
 11
0.7282350255774653
 21
0.6853274746587857
 31
0.0
 73
     1
 44
1.0
  0
SOLID
  5
767
330
762
100
AcDbEntity
  8
치수문자_일반주서
 62
     0
100
AcDbTrace
 10
54.88830367988297
 20
11.70916228666793
 30
0.0
 11
55.64262078699073
 21
10.90761826851566
 31
0.0
 12
52.86083017898006
 22
9.045438956268484
 32
0.0
 13
52.86083017898006
 23
9.045438956268484
 33
0.0
  0
LINE
  5
768
330
762
100
AcDbEntity
  8
치수문자_일반주서
 62
     0
100
AcDbLine
 10
51.661
 20
8.000999884888497
 30
0.0
 11
51.84100000000001
 21
8.000999884888497
 31
0.0
  0
LINE
  5
769
330
762
100
AcDbEntity
  8
치수문자_일반주서
 62
     0
100
AcDbLine
 10
51.751
 20
7.910999884888497
 30
0.0
 11
51.751
 21
8.090999884888497
 31
0.0
  0
POINT
  5
76A
330
762
100
AcDbEntity
  8
Defpoints
 62
     0
100
AcDbPoint
 10
52.86083017898006
 20
9.045438956268484
 30
0.0
  0
POINT
  5
76B
330
762
100
AcDbEntity
  8
Defpoints
 62
     0
100
AcDbPoint
 10
51.751
 20
8.000999884888497
 30
0.0
  0
ENDBLK
  5
764
330
762
100
AcDbEntity
  8
0
100
AcDbBlockEnd
  0
ENDSEC
  0
SECTION
  2
ENTITIES
  0
LINE
  5
99
330
1F
100
AcDbEntity
  8
외형선
  6
Continuous
370
    15
100
AcDbLine
 10
12.00000000000001
 20
9.525000117719161
 30
0.0
 11
-14.83192329083682
 21
9.525000117719161
 31
0.0
  0
LINE
  5
9A
330
1F
100
AcDbEntity
  8
외형선
  6
Continuous
370
    15
100
AcDbLine
 10
-47.32500010728835
 20
-9.525000117719186
 30
0.0
 11
12.0
 21
-9.525000000000006
 31
0.0
  0
LINE
  5
9C
330
1F
100
AcDbEntity
  8
외형선
  6
Continuous
370
    15
100
AcDbLine
 10
-47.32500010728835
 20
9.525000117719161
 30
0.0
 11
-48.32499840855598
 21
8.52499995380639
 31
0.0
  0
LINE
  5
9D
330
1F
100
AcDbEntity
  8
외형선
  6
Continuous
370
    15
100
AcDbLine
 10
-48.32499840855598
 20
-8.524999953806413
 30
0.0
 11
-47.32500010728835
 21
-9.525000117719186
 31
0.0
  0
LINE
  5
C6
330
1F
100
AcDbEntity
  8
외형선
  6
Continuous
370
    15
100
AcDbLine
 10
-47.32500010728835
 20
9.525000117719161
 30
0.0
 11
-47.32500010728835
 21
-9.525000117719186
 31
0.0
  0
LINE
  5
CE
330
1F
100
AcDbEntity
  8
외형선
  6
Continuous
370
    15
100
AcDbLine
 10
-48.32499840855598
 20
8.52499995380639
 30
0.0
 11
-48.32499840855598
 21
-8.524999953806413
 31
0.0
  0
LINE
  5
E0
330
1F
100
AcDbEntity
  8
중심선
 62
     1
100
AcDbLine
 10
-51.32499999999997
 20
-0.0000000000000129
 30
0.0
 11
56.27500000000003
 21
-0.0000000000000012
 31
0.0
  0
LINE
  5
E1
330
1F
100
AcDbEntity
  8
참조1
100
AcDbLine
 10
2.475000000000031
 20
0.7699538756514042
 30
0.0
 11
2.475000000000038
 21
-39.2300461243486
 31
0.0
  0
LINE
  5
E2
330
1F
100
AcDbEntity
  8
참조1
100
AcDbLine
 10
2.475000000000038
 20
-39.2300461243486
 30
0.0
 11
15.92939446285958
 21
-39.23004612434859
 31
0.0
  0
CIRCLE
  5
E3
330
1F
100
AcDbEntity
  8
해칭선
100
AcDbCircle
 10
0.0
 20
0.0
 30
0.0
 40
3.000000000000001
  0
INSERT
  5
E4
330
1F
100
AcDbEntity
  8
0
  6
Continuous
 62
     7
100
AcDbBlockReference
 66
     1
  2
블럭10
 10
-11.46527293212517
 20
-51.27722042599252
 30
0.0
  0
ATTRIB
  5
E5
330
E4
100
AcDbEntity
  8
FORMAT
 62
     2
100
AcDbText
 10
-20.64656822086645
 20
-49.20185351316033
 30
0.0
 40
4.233333333333333
  1
E5057048 [ 5 FLUTE ]
 41
0.75
  7
SLDTEXTSTYLE0
 11
-20.64656822086645
 21
-51.318520179827
 31
0.0
100
AcDbAttribute
  2
AUTOATTR0
 70
     0
 74
     1
  0
SEQEND
  5
E6
330
E4
100
AcDbEntity
  8
0
  6
Continuous
 62
     7
  0
HATCH
  5
E7
330
1F
100
AcDbEntity
  8
중심선
100
AcDbHatch
 10
0.0
 20
0.0
 30
0.0
210
0.0
220
0.0
230
1.0
  2
SOLID
 70
     1
 71
     0
 91
        1
 92
        0
 93
        4
 72
     1
 10
-5.750363627744324
 20
-35.03004612434859
 11
-9.196638871581607
 21
-35.03004612434859
 72
     1
 10
-9.196638871581607
 20
-35.03004612434859
 11
-11.32486873078563
 21
-37.56637170492119
 72
     1
 10
-11.32486873078563
 20
-37.56637170492119
 11
-7.878560401835198
 21
-37.5663322756187
 72
     1
 10
-7.878560401835198
 20
-37.5663322756187
 11
-5.750363627744324
 21
-35.03004612434859
 97
        0
 75
     0
 76
     1
 98
        1
 10
2.000000000000014
 20
0.768878946927515
  0
HATCH
  5
E8
330
1F
100
AcDbEntity
  8
중심선
100
AcDbHatch
 10
0.0
 20
0.0
 30
0.0
210
0.0
220
0.0
230
1.0
  2
SOLID
 70
     1
 71
     0
 91
        1
 92
        0
 93
        4
 72
     1
 10
-0.7375996367083735
 20
-35.03004612434859
 11
-4.183874880545655
 21
-35.03004612434859
 72
     1
 10
-4.183874880545655
 20
-35.03004612434859
 11
-8.715012888903043
 21
-40.43004612434861
 72
     1
 10
-8.715012888903043
 20
-40.43004612434861
 11
-5.268737645065761
 21
-40.43004612434861
 72
     1
 10
-5.268737645065761
 20
-40.43004612434861
 11
-0.7375996367083735
 21
-35.03004612434859
 97
        0
 75
     0
 76
     1
 98
        1
 10
2.000000000000014
 20
0.768878946927515
  0
HATCH
  5
E9
330
1F
100
AcDbEntity
  8
중심선
100
AcDbHatch
 10
0.0
 20
0.0
 30
0.0
210
0.0
220
0.0
230
1.0
  2
SOLID
 70
     1
 71
     0
 91
        1
 92
        0
 93
        4
 72
     1
 10
4.275164354327522
 20
-35.03004612434859
 11
0.8288891104904064
 21
-35.03004612434859
 72
     1
 10
0.8288891104904064
 20
-35.03004612434859
 11
-6.219547791398842
 21
-43.43004612434861
 72
     1
 10
-6.219547791398842
 20
-43.43004612434861
 11
-2.77327254756156
 21
-43.43004612434861
 72
     1
 10
-2.77327254756156
 20
-43.43004612434861
 11
4.275164354327522
 21
-35.03004612434859
 97
        0
 75
     0
 76
     1
 98
        1
 10
2.000000000000014
 20
0.768878946927515
  0
HATCH
  5
EA
330
1F
100
AcDbEntity
  8
중심선
100
AcDbHatch
 10
0.0
 20
0.0
 30
0.0
210
0.0
220
0.0
230
1.0
  2
SOLID
 70
     1
 71
     0
 91
        1
 92
        0
 93
        6
 72
     3
 10
9.075054785339722
 20
-39.23004612439986
 11
3.960054785062283
 21
1.540882976769353E-10
 40
0.3939339440162628
 50
17.09539180608436
 51
320.0019657685086
 73
     0
 72
     1
 10
10.75805444104032
 20
-37.81794012898692
 11
13.06335631474136
 21
-35.883613418939
 72
     3
 10
9.075054785286875
 20
-39.23004612434874
 11
6.600054785286829
 21
-1.278976924368180E-13
 40
0.636358354079598
 50
39.99873849337382
 51
368.4976242363724
 73
     1
 72
     1
 10
15.50038727718748
 20
-38.27004612427861
 11
7.755122092122797
 21
-38.27004612427861
 72
     1
 10
7.755122092122797
 20
-38.27004612427861
 11
7.755097047676863
 21
-40.1900461242785
 72
     1
 10
7.755097047676863
 20
-40.1900461242785
 11
12.1964768171489
 21
-40.19004612427847
 97
        0
 75
     0
 76
     1
 98
        1
 10
2.000000000000014
 20
0.768878946927515
  0
DIMENSION
  5
EB
330
1F
100
AcDbEntity
  8
치수문자_일반주서
100
AcDbDimension
  2
_D
 10
-61.32499999999992
 20
-9.525000000000073
 30
0.0
 11
-61.32499999999995
 21
-0.0000000000000038
 31
0.0
 70
   160
  1
%%c<>
 71
     2
 42
19.05000000000001
 52
-270.0
  3
SLDDIMSTYLE0
100
AcDbAlignedDimension
 13
-47.32499999999998
 23
9.524999999999993
 33
0.0
 14
-47.32499999999998
 24
-9.525000000000018
 34
0.0
 50
90.0000000000002
100
AcDbRotatedDimension
1001
ACAD
1000
DSTYLE
1002
{
1070
   171
1070
     6
1070
   273
1070
     7
1002
}
  0
DIMENSION
  5
100
330
1F
100
AcDbEntity
  8
치수문자_일반주서
100
AcDbDimension
  2
_D_1
 10
12.00000000000001
 20
20.06755565969262
 30
0.0
 11
33.80004848171328
 21
20.06755565969262
 31
0.0
 70
   160
  1
<>
 71
     2
 42
41.27500000000001
  3
SLDDIMSTYLE1
100
AcDbAlignedDimension
 13
53.27500000000001
 23
9.324999999999992
 33
0.0
 14
12.00000000000001
 24
4.192746426771812
 34
0.0
 50
0.0000000000000049
100
AcDbRotatedDimension
1001
ACAD
1000
DSTYLE
1002
{
1070
   171
1070
     6
1070
   273
1070
     7
1002
}
  0
DIMENSION
  5
114
330
1F
100
AcDbEntity
  8
치수문자_일반주서
100
AcDbDimension
  2
_D_2
 10
53.27500000000002
 20
40.58799028620469
 30
0.0
 11
2.475000000000019
 21
40.58799028620469
 31
0.0
 70
   160
  1
<>
 71
     2
 42
101.6
  3
SLDDIMSTYLE2
100
AcDbAlignedDimension
 13
-48.32499999999998
 23
8.524999999999983
 33
0.0
 14
53.27500000000001
 24
9.31283044715729
 34
0.0
100
AcDbRotatedDimension
1001
ACAD
1000
DSTYLE
1002
{
1070
   171
1070
     6
1070
   273
1070
     7
1002
}
  0
DIMENSION
  5
128
330
1F
100
AcDbEntity
  8
치수문자_일반주서
100
AcDbDimension
  2
_D_3
 10
73.0772436925495
 20
-9.524999999999928
 30
0.0
 11
73.07724369254947
 21
-0.000000000000008
 31
0.0
 70
   160
  1
%%c<>
 71
     2
 42
19.05
 52
-270.0
  3
SLDDIMSTYLE0
100
AcDbAlignedDimension
 13
53.27500000000001
 23
9.524999999999999
 33
0.0
 14
53.27500000000001
 24
-9.525000000000002
 34
0.0
 50
90.0000000000002
100
AcDbRotatedDimension
1001
ACAD
1000
DSTYLE
1002
{
1070
   171
1070
     6
1070
   273
1070
     7
1002
}
  0
LINE
  5
13C
330
1F
100
AcDbEntity
  8
참조1
100
AcDbLine
 10
113.9017350925138
 20
8.209953875651411
 30
0.0
 11
113.9017350925138
 21
-6.670046124348594
 31
0.0
  0
LINE
  5
13D
330
1F
100
AcDbEntity
  8
참조1
100
AcDbLine
 10
126.6017350925138
 20
6.209953875651411
 30
0.0
 11
113.9017350925138
 21
6.209953875651411
 31
0.0
  0
SOLID
  5
13E
330
1F
100
AcDbEntity
  8
참조1
100
AcDbTrace
 10
113.9017350925138
 20
6.209953875651411
 30
0.0
 11
120.2517350925138
 21
5.193953875651411
 31
0.0
 12
120.2517350925138
 22
7.225953875651411
 32
0.0
 13
120.2517350925138
 23
7.225953875651411
 33
0.0
  0
LINE
  5
13F
330
1F
100
AcDbEntity
  8
참조1
100
AcDbLine
 10
126.6017350925138
 20
-4.670046124348594
 30
0.0
 11
113.9017350925138
 21
-4.670046124348594
 31
0.0
  0
SOLID
  5
140
330
1F
100
AcDbEntity
  8
참조1
100
AcDbTrace
 10
113.9017350925138
 20
-4.670046124348594
 30
0.0
 11
120.2517350925138
 21
-5.686046124348594
 31
0.0
 12
120.2517350925138
 22
-3.654046124348594
 32
0.0
 13
120.2517350925138
 23
-3.654046124348594
 33
0.0
  0
MTEXT
  5
141
330
1F
100
AcDbEntity
  8
참조1
100
AcDbMText
 10
123.5018499030764
 20
11.83567144166748
 30
0.0
 40
3.5
 41
0.0
 71
     1
 72
     1
  1
A
  7
SLDTEXTSTYLE0
 73
     1
 44
1.0
  0
MTEXT
  5
142
330
1F
100
AcDbEntity
  8
참조1
100
AcDbMText
 10
123.5018499030764
 20
0.9556714416674817
 30
0.0
 40
3.5
 41
0.0
 71
     1
 72
     1
  1
A
  7
SLDTEXTSTYLE0
 73
     1
 44
1.0
  0
INSERT
  5
149
330
1F
100
AcDbEntity
  8
해칭선
100
AcDbBlockReference
  2
SW_DOWELSYMBOL_0
 10
0.0
 20
0.0
 30
0.0
  0
LINE
  5
47E
330
1F
100
AcDbEntity
  8
0
  6
Continuous
 62
     1
370
    15
100
AcDbLine
 10
33.89180141836403
 20
3.577650524675818
 30
0.0
 11
33.94114568233491
 21
3.551685833372147
 31
0.0
  0
LINE
  5
481
330
1F
100
AcDbEntity
  8
0
  6
Continuous
 62
     1
370
    15
100
AcDbLine
 10
53.07999781668187
 20
4.372776369564207
 30
0.0
 11
53.27500000000001
 21
4.282856709323795
 31
0.0
  0
LINE
  5
482
330
1F
100
AcDbEntity
  8
0
  6
Continuous
 62
     1
370
    15
100
AcDbLine
 10
14.84453065656126
 20
9.407649049535365
 30
0.0
 11
14.56113711334766
 21
9.277639444917412
 31
0.0
  0
LINE
  5
483
330
1F
100
AcDbEntity
  8
0
  6
Continuous
 62
     1
370
    15
100
AcDbLine
 10
14.01886080726982
 20
-9.424287127330928
 30
0.0
 11
14.36208088286222
 21
-9.27745085209611
 31
0.0
  0
LINE
  5
484
330
1F
100
AcDbEntity
  8
0
  6
Continuous
 62
     1
370
    15
100
AcDbLine
 10
34.60862457156182
 20
-9.388365782797365
 30
0.0
 11
34.82184621840716
 21
-9.279234800487785
 31
0.0
  0
LINE
  5
485
330
1F
100
AcDbEntity
  8
0
  6
Continuous
 62
     1
370
    15
100
AcDbLine
 10
35.60585311949254
 20
9.40784113481638
 30
0.0
 11
35.35139250904322
 21
9.279436664655776
 31
0.0
  0
SPLINE
  5
486
330
1F
100
AcDbEntity
  8
0
  6
Continuous
 62
     1
370
    15
100
AcDbSpline
210
0.0
220
0.0
230
1.0
 70
     8
 71
     3
 72
    11
 73
     7
 74
     0
 42
0.000000001
 43
0.00000001
 40
0.0
 40
0.0
 40
0.0
 40
0.0
 40
0.2448975724572274
 40
0.4999726399106563
 40
0.755061368021284
 40
1.0
 40
1.0
 40
1.0
 40
1.0
 10
35.21650533527136
 20
-9.28520970046523
 30
0.0
 10
35.3427379348322
 20
-9.351225746653483
 30
0.0
 10
35.60044912981047
 20
-9.486001345112953
 30
0.0
 10
36.04245450426168
 20
-9.539650979796022
 30
0.0
 10
36.48446968397258
 20
-9.479785103077006
 30
0.0
 10
36.7421872849138
 20
-9.340888935644188
 30
0.0
 10
36.86843037009237
 20
-9.272850584238796
 30
0.0
  0
SPLINE
  5
487
330
1F
100
AcDbEntity
  8
0
  6
Continuous
 62
     1
370
    15
100
AcDbSpline
210
0.0
220
0.0
230
1.0
 70
     8
 71
     3
 72
     9
 73
     5
 74
     0
 42
0.000000001
 43
0.00000001
 40
0.0
 40
0.0
 40
0.0
 40
0.0
 40
0.6657990336781288
 40
1.0
 40
1.0
 40
1.0
 40
1.0
 10
34.82184621840716
 20
-9.279234800487785
 30
0.0
 10
34.85862621505453
 20
-9.25726937412395
 30
0.0
 10
34.9138681045541
 20
-9.224278298359735
 30
0.0
 10
34.99368330730118
 20
-9.230469958962544
 30
0.0
 10
35.02035762518645
 20
-9.23253921791914
 30
0.0
  0
SPLINE
  5
488
330
1F
100
AcDbEntity
  8
0
  6
Continuous
 62
     1
370
    15
100
AcDbSpline
210
0.0
220
0.0
230
1.0
 70
     8
 71
     3
 72
    11
 73
     7
 74
     0
 42
0.000000001
 43
0.00000001
 40
0.0
 40
0.0
 40
0.0
 40
0.0
 40
0.2449521814586954
 40
0.5000426748100665
 40
0.7551106590245441
 40
1.0
 40
1.0
 40
1.0
 40
1.0
 10
34.95783421546221
 20
9.285401087254257
 30
0.0
 10
34.83159421419893
 20
9.351502064258852
 30
0.0
 10
34.57388927144726
 20
9.486439867841938
 30
0.0
 10
34.13188147828603
 20
9.540338687423997
 30
0.0
 10
33.689889221854
 20
9.480699465083205
 30
0.0
 10
33.43219282755848
 20
9.341929879883537
 30
0.0
 10
33.30596785396338
 20
9.273957693949313
 30
0.0
  0
SPLINE
  5
489
330
1F
100
AcDbEntity
  8
0
  6
Continuous
 62
     1
370
    15
100
AcDbSpline
210
0.0
220
0.0
230
1.0
 70
     8
 71
     3
 72
     9
 73
     5
 74
     0
 42
0.000000001
 43
0.00000001
 40
0.0
 40
0.0
 40
0.0
 40
0.0
 40
0.5408811229677128
 40
1.0
 40
1.0
 40
1.0
 40
1.0
 10
35.32452292144299
 20
9.252159856259794
 30
0.0
 10
35.28526590859218
 20
9.238698575087227
 30
0.0
 10
35.21268616568048
 20
9.213810886090556
 30
0.0
 10
35.12674454321009
 20
9.23033757455147
 30
0.0
 10
35.08728712201116
 20
9.237925289198728
 30
0.0
  0
SPLINE
  5
48A
330
1F
100
AcDbEntity
  8
0
  6
Continuous
 62
     1
370
    15
100
AcDbSpline
210
0.0
220
0.0
230
1.0
 70
     8
 71
     3
 72
     9
 73
     5
 74
     0
 42
0.000000001
 43
0.00000001
 40
0.0
 40
0.0
 40
0.0
 40
0.0
 40
0.538107182061547
 40
1.0
 40
1.0
 40
1.0
 40
1.0
 10
14.53501770608128
 20
9.251781273633213
 30
0.0
 10
14.49416267629101
 20
9.238078897728798
 30
0.0
 10
14.4182390849468
 20
9.21261487055881
 30
0.0
 10
14.33013845409823
 20
9.231840959841605
 30
0.0
 10
14.28944540545345
 20
9.240721352398367
 30
0.0
  0
SPLINE
  5
48B
330
1F
100
AcDbEntity
  8
0
  6
Continuous
 62
     1
370
    15
100
AcDbSpline
210
0.0
220
0.0
230
1.0
 70
     8
 71
     3
 72
     9
 73
     5
 74
     0
 42
0.000000001
 43
0.00000001
 40
0.0
 40
0.0
 40
0.0
 40
0.0
 40
0.2135310340894757
 40
0.9999999999999999
 40
0.9999999999999999
 40
0.9999999999999999
 40
0.9999999999999999
 10
13.95932624451817
 20
9.399090427905293
 30
0.0
 10
13.931686938431
 20
9.413924429424497
 30
0.0
 10
13.80224764542601
 20
9.48339443214553
 30
0.0
 10
13.6489855243878
 20
9.506530374999699
 30
0.0
 10
13.52844962254167
 20
9.524726076051564
 30
0.0
  0
SPLINE
  5
48C
330
1F
100
AcDbEntity
  8
0
  6
Continuous
 62
     1
370
    15
100
AcDbSpline
210
0.0
220
0.0
230
1.0
 70
     8
 71
     3
 72
     9
 73
     5
 74
     0
 42
0.000000001
 43
0.00000001
 40
0.0
 40
0.0
 40
0.0
 40
0.0
 40
0.5347968277902526
 40
0.9999999999999999
 40
0.9999999999999999
 40
0.9999999999999999
 40
0.9999999999999999
 10
14.3865497536957
 20
-9.25412680953744
 30
0.0
 10
14.42991293581181
 20
-9.239161374953085
 30
0.0
 10
14.51099640501496
 20
-9.211177973020455
 30
0.0
 10
14.60450232109923
 20
-9.234412814122948
 30
0.0
 10
14.64800156988204
 20
-9.24522173590961
 30
0.0
  0
SPLINE
  5
48D
330
1F
100
AcDbEntity
  8
0
  6
Continuous
 62
     1
370
    15
100
AcDbSpline
210
0.0
220
0.0
230
1.0
 70
     8
 71
     3
 72
     9
 73
     5
 74
     0
 42
0.000000001
 43
0.00000001
 40
0.0
 40
0.0
 40
0.0
 40
0.0
 40
0.4996281027945016
 40
1.0
 40
1.0
 40
1.0
 40
1.0
 10
14.76981437169016
 20
-9.283595485612778
 30
0.0
 10
14.87231069711208
 20
-9.341203372377947
 30
0.0
 10
15.07745593383649
 20
-9.456504906545007
 30
0.0
 10
15.30973919711883
 20
-9.495747736965711
 30
0.0
 10
15.42596721425653
 20
-9.51538374647501
 30
0.0
  0
SPLINE
  5
48E
330
1F
100
AcDbEntity
  8
0
  6
Continuous
 62
     1
370
    15
100
AcDbSpline
210
0.0
220
0.0
230
1.0
 70
     8
 71
     3
 72
     9
 73
     5
 74
     0
 42
0.000000001
 43
0.00000001
 40
0.0
 40
0.0
 40
0.0
 40
0.0
 40
0.500523129317481
 40
1.0
 40
1.0
 40
1.0
 40
1.0
 10
13.50524851456282
 20
9.520394727587671
 30
0.0
 10
13.38860995678323
 20
9.498703878573963
 30
0.0
 10
13.15557665432897
 20
9.455367521584236
 30
0.0
 10
12.94949005038109
 20
9.335707451433791
 30
0.0
 10
12.84655455835164
 20
9.275940014049382
 30
0.0
  0
SPLINE
  5
48F
330
1F
100
AcDbEntity
  8
0
  6
Continuous
 62
     1
370
    15
100
AcDbSpline
210
0.0
220
0.0
230
1.0
 70
     8
 71
     3
 72
     9
 73
     5
 74
     0
 42
0.000000001
 43
0.00000001
 40
0.0
 40
0.0
 40
0.0
 40
0.0
 40
0.5005220873921808
 40
0.9999999999999999
 40
0.9999999999999999
 40
0.9999999999999999
 40
0.9999999999999999
 10
15.4154241770506
 20
-9.521406842395692
 30
0.0
 10
15.53218320126248
 20
-9.499772507464598
 30
0.0
 10
15.76545767036782
 20
-9.456548970529752
 30
0.0
 10
15.97180930850888
 20
-9.336887852416396
 30
0.0
 10
16.07487739399076
 20
-9.277119766920833
 30
0.0
  0
SPLINE
  5
490
330
1F
100
AcDbEntity
  8
0
  6
Continuous
 62
     1
370
    15
100
AcDbSpline
210
0.0
220
0.0
230
1.0
 70
     8
 71
     3
 72
    11
 73
     7
 74
     0
 42
0.000000001
 43
0.00000001
 40
0.0
 40
0.0
 40
0.0
 40
0.0
 40
0.2478227862969976
 40
0.499830702653823
 40
0.7519187199596046
 40
1.0
 40
1.0
 40
1.0
 40
1.0
 10
12.85193224772812
 20
9.27978870458898
 30
0.0
 10
12.8230213947522
 20
9.263960646281049
 30
0.0
 10
12.76471145411608
 20
9.232037231877143
 30
0.0
 10
12.65901149858183
 20
9.218614390490671
 30
0.0
 10
12.55316253356736
 20
9.23471890392159
 30
0.0
 10
12.49457228914514
 20
9.26861803453059
 30
0.0
 10
12.46551184318957
 20
9.28543182089922
 30
0.0
  0
SPLINE
  5
491
330
1F
100
AcDbEntity
  8
0
  6
Continuous
 62
     1
370
    15
100
AcDbSpline
210
0.0
220
0.0
230
1.0
 70
     8
 71
     3
 72
     9
 73
     5
 74
     0
 42
0.000000001
 43
0.00000001
 40
0.0
 40
0.0
 40
0.0
 40
0.0
 40
0.2452893834087899
 40
0.3010863669304876
 40
0.3010863669304876
 40
0.3010863669304876
 40
0.3010863669304876
 10
12.48622631989417
 20
9.277992183342548
 30
0.0
 10
12.35845226337352
 20
9.34644948239827
 30
0.0
 10
12.20161291740939
 20
9.430479044445065
 30
0.0
 10
12.03181457636151
 20
9.47796582761356
 30
0.0
 10
12.00000000000001
 20
9.485580417063687
 30
0.0
  0
SPLINE
  5
492
330
1F
100
AcDbEntity
  8
0
  6
Continuous
 62
     1
370
    15
100
AcDbSpline
210
0.0
220
0.0
230
1.0
 70
     8
 71
     3
 72
    11
 73
     7
 74
     0
 42
0.000000001
 43
0.00000001
 40
0.0
 40
0.0
 40
0.0
 40
0.0
 40
0.2482507646551593
 40
0.5002255395768026
 40
0.7520901067347673
 40
1.0
 40
1.0
 40
1.0
 40
1.0
 10
16.06976443305612
 20
-9.280551457777648
 30
0.0
 10
16.09852493562872
 20
-9.264704455700468
 30
0.0
 10
16.15647737713633
 20
-9.232772730633059
 30
0.0
 10
16.26188692269096
 20
-9.219081407011856
 30
0.0
 10
16.36746794012254
 20
-9.234884659606394
 30
0.0
 10
16.42586084664367
 20
-9.268465985924792
 30
0.0
 10
16.45482627078891
 20
-9.285123785957722
 30
0.0
  0
SPLINE
  5
493
330
1F
100
AcDbEntity
  8
0
  6
Continuous
 62
     1
370
    15
100
AcDbSpline
210
0.0
220
0.0
230
1.0
 70
     8
 71
     3
 72
    11
 73
     7
 74
     0
 42
0.000000001
 43
0.00000001
 40
0.0
 40
0.0
 40
0.0
 40
0.0
 40
0.2482237387490195
 40
0.5001456769458952
 40
0.7520004817027023
 40
1.0
 40
1.0
 40
1.0
 40
1.0
 10
36.85959305018187
 20
-9.278975659981398
 30
0.0
 10
36.88850330629964
 20
-9.263403787448453
 30
0.0
 10
36.94675454242056
 20
-9.232028042450963
 30
0.0
 10
37.05226107098648
 20
-9.219323520125414
 30
0.0
 10
37.15762039906446
 20
-9.236100618259798
 30
0.0
 10
37.21558379579125
 20
-9.27016111062997
 30
0.0
 10
37.24434196352959
 20
-9.287060005590348
 30
0.0
  0
SPLINE
  5
494
330
1F
100
AcDbEntity
  8
0
  6
Continuous
 62
     1
370
    15
100
AcDbSpline
210
0.0
220
0.0
230
1.0
 70
     8
 71
     3
 72
    11
 73
     7
 74
     0
 42
0.000000001
 43
0.00000001
 40
0.0
 40
0.0
 40
0.0
 40
0.0
 40
0.2451478482202683
 40
0.4998300406497806
 40
0.7545981382718712
 40
1.0
 40
1.0
 40
1.0
 40
1.0
 10
16.4350589491427
 20
-9.276929777115612
 30
0.0
 10
16.56317002351508
 20
-9.345731432471837
 30
0.0
 10
16.82437469643429
 20
-9.486010592346673
 30
0.0
 10
17.27286179815079
 20
-9.544672849621804
 30
0.0
 10
17.72139972203144
 20
-9.48666219330326
 30
0.0
 10
17.98259568611093
 20
-9.346873260576501
 30
0.0
 10
18.11074807643891
 20
-9.278287645429401
 30
0.0
  0
SPLINE
  5
495
330
1F
100
AcDbEntity
  8
0
  6
Continuous
 62
     1
370
    15
100
AcDbSpline
210
0.0
220
0.0
230
1.0
 70
     8
 71
     3
 72
    11
 73
     7
 74
     0
 42
0.000000001
 43
0.00000001
 40
0.0
 40
0.0
 40
0.0
 40
0.0
 40
0.2479437554228998
 40
0.4997241998350999
 40
0.7516391566141948
 40
0.9999999999999999
 40
0.9999999999999999
 40
0.9999999999999999
 40
0.9999999999999999
 10
33.31421564668418
 20
9.279498830437632
 30
0.0
 10
33.28530414562408
 20
9.263878614718323
 30
0.0
 10
33.2270337660832
 20
9.232396475600666
 30
0.0
 10
33.12157519808378
 20
9.219524108951418
 30
0.0
 10
33.01629096756955
 20
9.236123831815178
 30
0.0
 10
32.95847985836139
 20
9.269977047018529
 30
0.0
 10
32.92977965772153
 20
9.28678340278563
 30
0.0
  0
SPLINE
  5
496
330
1F
100
AcDbEntity
  8
0
  6
Continuous
 62
     1
370
    15
100
AcDbSpline
210
0.0
220
0.0
230
1.0
 70
     8
 71
     3
 72
     9
 73
     5
 74
     0
 42
0.000000001
 43
0.00000001
 40
0.0
 40
0.0
 40
0.0
 40
0.0
 40
0.4994345737560307
 40
1.0
 40
1.0
 40
1.0
 40
1.0
 10
37.23659149706364
 20
-9.284797590225963
 30
0.0
 10
37.3396678760059
 20
-9.343897868879651
 30
0.0
 10
37.54605402618185
 20
-9.462232244910581
 30
0.0
 10
37.77932953957864
 20
-9.503993144214377
 30
0.0
 10
37.89609919637442
 20
-9.524897206574707
 30
0.0
  0
SPLINE
  5
497
330
1F
100
AcDbEntity
  8
0
  6
Continuous
 62
     1
370
    15
100
AcDbSpline
210
0.0
220
0.0
230
1.0
 70
     8
 71
     3
 72
     9
 73
     5
 74
     0
 42
0.000000001
 43
0.00000001
 40
0.0
 40
0.0
 40
0.0
 40
0.0
 40
0.4994575322770218
 40
1.0
 40
1.0
 40
1.0
 40
1.0
 10
32.93738204389811
 20
9.284335887059541
 30
0.0
 10
32.83423920817694
 20
9.343513451273907
 30
0.0
 10
32.62772948701826
 20
9.461997126841993
 30
0.0
 10
32.3943256776578
 20
9.503869735498483
 30
0.0
 10
32.27749715894458
 20
9.524828754365416
 30
0.0
  0
SPLINE
  5
498
330
1F
100
AcDbEntity
  8
0
  6
Continuous
 62
     1
370
    15
100
AcDbSpline
210
0.0
220
0.0
230
1.0
 70
     8
 71
     3
 72
     9
 73
     5
 74
     0
 42
0.000000001
 43
0.00000001
 40
0.0
 40
0.0
 40
0.0
 40
0.0
 40
0.5570019490515092
 40
1.0
 40
1.0
 40
1.0
 40
1.0
 10
37.89751573801041
 20
-9.524974739179044
 30
0.0
 10
38.03200130927297
 20
-9.500011425031602
 30
0.0
 10
38.27344673238437
 20
-9.45519414173495
 30
0.0
 10
38.48010585691372
 20
-9.333340677639171
 30
0.0
 10
38.57165544629098
 20
-9.279359830543427
 30
0.0
  0
SPLINE
  5
499
330
1F
100
AcDbEntity
  8
0
  6
Continuous
 62
     1
370
    15
100
AcDbSpline
210
0.0
220
0.0
230
1.0
 70
     8
 71
     3
 72
     9
 73
     5
 74
     0
 42
0.000000001
 43
0.00000001
 40
0.0
 40
0.0
 40
0.0
 40
0.0
 40
0.5627105833206714
 40
1.0
 40
1.0
 40
1.0
 40
1.0
 10
32.27511390447617
 20
9.524980327114434
 30
0.0
 10
32.14112577634899
 20
9.500388788264559
 30
0.0
 10
31.90301380174125
 20
9.456686857682882
 30
0.0
 10
31.69315232029035
 20
9.333359449932288
 30
0.0
 10
31.60138211548326
 20
9.279429679736467
 30
0.0
  0
SPLINE
  5
49A
330
1F
100
AcDbEntity
  8
0
  6
Continuous
 62
     1
370
    15
100
AcDbSpline
210
0.0
220
0.0
230
1.0
 70
     8
 71
     3
 72
     9
 73
     5
 74
     0
 42
0.000000001
 43
0.00000001
 40
0.0
 40
0.0
 40
0.0
 40
0.0
 40
0.438569949044658
 40
1.0
 40
1.0
 40
1.0
 40
1.0
 10
38.57170014977456
 20
-9.279331192374258
 30
0.0
 10
38.62478644673152
 20
-9.254841200969793
 30
0.0
 10
38.74583052891865
 20
-9.199000641310334
 30
0.0
 10
38.86462342291611
 20
-9.247179148551368
 30
0.0
 10
38.93131732344628
 20
-9.274228010326652
 30
0.0
  0
SPLINE
  5
49B
330
1F
100
AcDbEntity
  8
0
  6
Continuous
 62
     1
370
    15
100
AcDbSpline
210
0.0
220
0.0
230
1.0
 70
     8
 71
     3
 72
     9
 73
     5
 74
     0
 42
0.000000001
 43
0.00000001
 40
0.0
 40
0.0
 40
0.0
 40
0.0
 40
0.4490238016511781
 40
1.0
 40
1.0
 40
1.0
 40
1.0
 10
31.60148269832135
 20
9.279496036469908
 30
0.0
 10
31.54522869628676
 20
9.254472907608658
 30
0.0
 10
31.41994802780621
 20
9.198745062516167
 30
0.0
 10
31.30539681666903
 20
9.247109096623774
 30
0.0
 10
31.24228182584048
 20
9.273756528273196
 30
0.0
  0
SPLINE
  5
49D
330
1F
100
AcDbEntity
  8
0
  6
Continuous
 62
     1
370
    15
100
AcDbSpline
210
0.0
220
0.0
230
1.0
 70
     8
 71
     3
 72
    11
 73
     7
 74
     0
 42
0.000000001
 43
0.00000001
 40
0.0
 40
0.0
 40
0.0
 40
0.0
 40
0.2451178346004201
 40
0.499857485851703
 40
0.754668357455628
 40
1.0
 40
1.0
 40
1.0
 40
1.0
 10
38.93927733749152
 20
-9.279533056542306
 30
0.0
 10
39.06716604222734
 20
-9.347800398098087
 30
0.0
 10
39.32796357465611
 20
-9.487014836621
 30
0.0
 10
39.77565772610706
 20
-9.544573867933394
 30
0.0
 10
40.22339459419504
 20
-9.485928433812177
 30
0.0
 10
40.48418742292938
 20
-9.346045674239406
 30
0.0
 10
40.61211242675782
 20
-9.27742989733818
 30
0.0
  0
SPLINE
  5
49E
330
1F
100
AcDbEntity
  8
0
  6
Continuous
 62
     1
370
    15
100
AcDbSpline
210
0.0
220
0.0
230
1.0
 70
     8
 71
     3
 72
    11
 73
     7
 74
     0
 42
0.000000001
 43
0.00000001
 40
0.0
 40
0.0
 40
0.0
 40
0.0
 40
0.2453249942825426
 40
0.5001460879634189
 40
0.7548924800426674
 40
1.0
 40
1.0
 40
1.0
 40
1.0
 10
31.23339421451089
 20
9.279653895646305
 30
0.0
 10
31.10551022040571
 20
9.347888688033095
 30
0.0
 10
30.84479206752482
 20
9.486999521705172
 30
0.0
 10
30.39719574772863
 20
9.544558814566898
 30
0.0
 10
29.94964467979764
 20
9.485993876619744
 30
0.0
 10
29.6889230347368
 20
9.346166060893069
 30
0.0
 10
29.56107600927353
 20
9.277600329369278
 30
0.0
  0
SPLINE
  5
49F
330
1F
100
AcDbEntity
  8
0
  6
Continuous
 62
     1
370
    15
100
AcDbSpline
210
0.0
220
0.0
230
1.0
 70
     8
 71
     3
 72
     9
 73
     5
 74
     0
 42
0.000000001
 43
0.00000001
 40
0.0
 40
0.0
 40
0.0
 40
0.0
 40
0.5198558073841288
 40
1.0
 40
1.0
 40
1.0
 40
1.0
 10
18.11198021620513
 20
-9.277515811845689
 30
0.0
 10
18.18095544558767
 20
-9.251008625552146
 30
0.0
 10
18.31363690918357
 20
-9.200019128239575
 30
0.0
 10
18.41970627701656
 20
-9.250815579472885
 30
0.0
 10
18.47063486799595
 20
-9.275205200538068
 30
0.0
  0
SPLINE
  5
4A1
330
1F
100
AcDbEntity
  8
0
  6
Continuous
 62
     1
370
    15
100
AcDbSpline
210
0.0
220
0.0
230
1.0
 70
     8
 71
     3
 72
     9
 73
     5
 74
     0
 42
0.000000001
 43
0.00000001
 40
0.0
 40
0.0
 40
0.0
 40
0.0
 40
0.4510965917795314
 40
1.0
 40
1.0
 40
1.0
 40
1.0
 10
18.47319553941486
 20
-9.277195204049377
 30
0.0
 10
18.5638354630629
 20
-9.331317245980387
 30
0.0
 10
18.76476786933642
 20
-9.451296077382153
 30
0.0
 10
19.00974899749011
 20
-9.49869479084694
 30
0.0
 10
19.14421997368333
 20
-9.524712106213002
 30
0.0
  0
SPLINE
  5
4A3
330
1F
100
AcDbEntity
  8
0
  6
Continuous
 62
     1
370
    15
100
AcDbSpline
210
0.0
220
0.0
230
1.0
 70
     8
 71
     3
 72
     9
 73
     5
 74
     0
 42
0.000000001
 43
0.00000001
 40
0.0
 40
0.0
 40
0.0
 40
0.0
 40
0.5009746280110902
 40
1.0
 40
1.0
 40
1.0
 40
1.0
 10
19.15346521288157
 20
-9.524723980575828
 30
0.0
 10
19.27166376694217
 20
-9.503409082396786
 30
0.0
 10
19.50760097304362
 20
-9.460862220764994
 30
0.0
 10
19.71725194307092
 20
-9.339686432508387
 30
0.0
 10
19.82187309637663
 20
-9.27921663969758
 30
0.0
  0
SPLINE
  5
4A4
330
1F
100
AcDbEntity
  8
0
  6
Continuous
 62
     1
370
    15
100
AcDbSpline
210
0.0
220
0.0
230
1.0
 70
     8
 71
     3
 72
     9
 73
     5
 74
     0
 42
0.000000001
 43
0.00000001
 40
0.0
 40
0.0
 40
0.0
 40
0.0
 40
0.5011080401760921
 40
1.0
 40
1.0
 40
1.0
 40
1.0
 10
51.75099999999998
 20
9.524999884888501
 30
0.0
 10
50.90117872106217
 20
9.503425824410158
 30
0.0
 10
50.66541684684859
 20
9.46092230630643
 30
0.0
 10
50.4558377442778
 20
9.339793041047926
 30
0.0
 10
50.35128041505814
 20
9.279362624511094
 30
0.0
  0
SPLINE
  5
4A6
330
1F
100
AcDbEntity
  8
0
  6
Continuous
 62
     1
370
    15
100
AcDbSpline
210
0.0
220
0.0
230
1.0
 70
     8
 71
     3
 72
     9
 73
     5
 74
     0
 42
0.000000001
 43
0.00000001
 40
0.0
 40
0.0
 40
0.0
 40
0.0
 40
0.5005808441455742
 40
1.0
 40
1.0
 40
1.0
 40
1.0
 10
19.82175295576454
 20
-9.279295569285779
 30
0.0
 10
19.88222313504627
 20
-9.252269917732775
 30
0.0
 10
20.00302316163331
 20
-9.198281332534037
 30
0.0
 10
20.12511256178939
 20
-9.2511853406981
 30
0.0
 10
20.18608634695408
 20
-9.277606615796714
 30
0.0
  0
SPLINE
  5
4A7
330
1F
100
AcDbEntity
  8
0
  6
Continuous
 62
     1
370
    15
100
AcDbSpline
210
0.0
220
0.0
230
1.0
 70
     8
 71
     3
 72
     9
 73
     5
 74
     0
 42
0.000000001
 43
0.00000001
 40
0.0
 40
0.0
 40
0.0
 40
0.0
 40
0.5004933587603698
 40
1.0
 40
1.0
 40
1.0
 40
1.0
 10
40.61197272837163
 20
-9.277520701289205
 30
0.0
 10
40.67277606850698
 20
-9.251087668560132
 30
0.0
 10
40.79426287561651
 20
-9.198273715554791
 30
0.0
 10
40.91569291697331
 20
-9.252380586580642
 30
0.0
 10
40.97634802907703
 20
-9.279407327994733
 30
0.0
  0
SPLINE
  5
4A8
330
1F
100
AcDbEntity
  8
0
  6
Continuous
 62
     1
370
    15
100
AcDbSpline
210
0.0
220
0.0
230
1.0
 70
     8
 71
     3
 72
     9
 73
     5
 74
     0
 42
0.000000001
 43
0.00000001
 40
0.0
 40
0.0
 40
0.0
 40
0.0
 40
0.499502813324787
 40
1.0
 40
1.0
 40
1.0
 40
1.0
 10
50.35127203315494
 20
9.279357036575647
 30
0.0
 10
50.29065209679297
 20
9.252358693024348
 30
0.0
 10
50.16929154637188
 20
9.198308259611167
 30
0.0
 10
50.0478768086482
 20
9.25104040226185
 30
0.0
 10
49.98710907399655
 20
9.277432691305847
 30
0.0
  0
SPLINE
  5
4AA
330
1F
100
AcDbEntity
  8
0
  6
Continuous
 62
     1
370
    15
100
AcDbSpline
210
0.0
220
0.0
230
1.0
 70
     8
 71
     3
 72
     9
 73
     5
 74
     0
 42
0.000000001
 43
0.00000001
 40
0.0
 40
0.0
 40
0.0
 40
0.0
 40
0.4994172850533841
 40
1.0
 40
1.0
 40
1.0
 40
1.0
 10
29.56102012991906
 20
9.277564007788868
 30
0.0
 10
29.50007558783423
 20
9.251166929408754
 30
0.0
 10
29.37804428473615
 20
9.19831117296988
 30
0.0
 10
29.25730909144599
 20
9.252228602110932
 30
0.0
 10
29.19687114059926
 20
9.279218735173316
 30
0.0
  0
SPLINE
  5
4AB
330
1F
100
AcDbEntity
  8
0
  6
Continuous
 62
     1
370
    15
100
AcDbSpline
210
0.0
220
0.0
230
1.0
 70
     8
 71
     3
 72
    11
 73
     7
 74
     0
 42
0.000000001
 43
0.00000001
 40
0.0
 40
0.0
 40
0.0
 40
0.0
 40
0.2664773873391697
 40
0.5285355099526226
 40
0.7753841020012263
 40
1.0
 40
1.0
 40
1.0
 40
1.0
 10
20.18210633993147
 20
-9.27482941187921
 30
0.0
 10
20.32508076030339
 20
-9.350380917404578
 30
0.0
 10
20.60865851125632
 20
-9.50023098122901
 30
0.0
 10
21.07788881569573
 20
-9.544121720360096
 30
0.0
 10
21.51181831625843
 20
-9.470339913153424
 30
0.0
 10
21.75354396959699
 20
-9.336425430715678
 30
0.0
 10
21.86870730817316
 20
-9.272625669837026
 30
0.0
  0
SPLINE
  5
4AC
330
1F
100
AcDbEntity
  8
0
  6
Continuous
 62
     1
370
    15
100
AcDbSpline
210
0.0
220
0.0
230
1.0
 70
     8
 71
     3
 72
    11
 73
     7
 74
     0
 42
0.000000001
 43
0.00000001
 40
0.0
 40
0.0
 40
0.0
 40
0.0
 40
0.2542153682170801
 40
0.5119050017201132
 40
0.7632431813808708
 40
1.0
 40
1.0
 40
1.0
 40
1.0
 10
49.99119385480881
 20
9.274586336687179
 30
0.0
 10
49.85630726923719
 20
9.34675059093533
 30
0.0
 10
49.58469065414687
 20
9.492065340999915
 30
0.0
 10
49.12570106239667
 20
9.54484508487323
 30
0.0
 10
48.68163510358175
 20
9.479147661302306
 30
0.0
 10
48.42787332372106
 20
9.34034255335962
 30
0.0
 10
48.30478287637234
 20
9.273013332858653
 30
0.0
  0
SPLINE
  5
4AD
330
1F
100
AcDbEntity
  8
0
  6
Continuous
 62
     1
370
    15
100
AcDbSpline
210
0.0
220
0.0
230
1.0
 70
     8
 71
     3
 72
     9
 73
     5
 74
     0
 42
0.000000001
 43
0.00000001
 40
0.0
 40
0.0
 40
0.0
 40
0.0
 40
0.4988988098819513
 40
1.0
 40
1.0
 40
1.0
 40
1.0
 10
40.97644302397967
 20
-9.279468795284657
 30
0.0
 10
41.08097785914418
 20
-9.339874075507026
 30
0.0
 10
41.29050899670938
 20
-9.460951294024824
 30
0.0
 10
41.52623512749361
 20
-9.503438487036448
 30
0.0
 10
41.6443577721715
 20
-9.524728870019345
 30
0.0
  0
SPLINE
  5
4AE
330
1F
100
AcDbEntity
  8
0
  6
Continuous
 62
     1
370
    15
100
AcDbSpline
210
0.0
220
0.0
230
1.0
 70
     8
 71
     3
 72
     9
 73
     5
 74
     0
 42
0.000000001
 43
0.00000001
 40
0.0
 40
0.0
 40
0.0
 40
0.0
 40
0.4990229496469653
 40
1.0
 40
1.0
 40
1.0
 40
1.0
 10
29.19680129140616
 20
9.27926483564076
 30
0.0
 10
29.09216854567651
 20
9.339733837918516
 30
0.0
 10
28.88249332772588
 20
9.460908630221212
 30
0.0
 10
28.64653663673383
 20
9.503435206929339
 30
0.0
 10
28.52832774966956
 20
9.524740045890184
 30
0.0
  0
SPLINE
  5
4AF
330
1F
100
AcDbEntity
  8
0
  6
Continuous
 62
     1
370
    15
100
AcDbSpline
210
0.0
220
0.0
230
1.0
 70
     8
 71
     3
 72
     9
 73
     5
 74
     0
 42
0.000000001
 43
0.00000001
 40
0.0
 40
0.0
 40
0.0
 40
0.0
 40
0.5008345418843695
 40
1.0
 40
1.0
 40
1.0
 40
1.0
 10
41.65945357978345
 20
-9.523531654849677
 30
0.0
 10
41.77719582500583
 20
-9.501847467717226
 30
0.0
 10
42.01228792703901
 20
-9.45855135828586
 30
0.0
 10
42.22089482918111
 20
-9.337456948643819
 30
0.0
 10
42.32502418905497
 20
-9.277010802179603
 30
0.0
  0
SPLINE
  5
4B0
330
1F
100
AcDbEntity
  8
0
  6
Continuous
 62
     1
370
    15
100
AcDbSpline
210
0.0
220
0.0
230
1.0
 70
     8
 71
     3
 72
     9
 73
     5
 74
     0
 42
0.000000001
 43
0.00000001
 40
0.0
 40
0.0
 40
0.0
 40
0.0
 40
0.5008940582044071
 40
1.0
 40
1.0
 40
1.0
 40
1.0
 10
28.5133744344115
 20
9.523537242785068
 30
0.0
 10
28.39576759610682
 20
9.501902972908198
 30
0.0
 10
28.1609737582117
 20
9.45871166424223
 30
0.0
 10
27.95264332451421
 20
9.33785916033574
 30
0.0
 10
27.84866436719895
 20
9.277540957555146
 30
0.0
  0
SPLINE
  5
4B1
330
1F
100
AcDbEntity
  8
0
  6
Continuous
 62
     1
370
    15
100
AcDbSpline
210
0.0
220
0.0
230
1.0
 70
     8
 71
     3
 72
     9
 73
     5
 74
     0
 42
0.000000001
 43
0.00000001
 40
0.0
 40
0.0
 40
0.0
 40
0.0
 40
0.5005057674664852
 40
1.0
 40
1.0
 40
1.0
 40
1.0
 10
42.31997548937798
 20
-9.28042223677042
 30
0.0
 10
42.38120310684846
 20
-9.252789473748209
 30
0.0
 10
42.50353459921149
 20
-9.197579794223287
 30
0.0
 10
42.62706335701316
 20
-9.252039950123816
 30
0.0
 10
42.68876525908709
 20
-9.279242483899026
 30
0.0
  0
SPLINE
  5
4B2
330
1F
100
AcDbEntity
  8
0
  6
Continuous
 62
     1
370
    15
100
AcDbSpline
210
0.0
220
0.0
230
1.0
 70
     8
 71
     3
 72
     9
 73
     5
 74
     0
 42
0.000000001
 43
0.00000001
 40
0.0
 40
0.0
 40
0.0
 40
0.0
 40
0.499605200063734
 40
1.0
 40
1.0
 40
1.0
 40
1.0
 10
27.85381644368172
 20
9.280956583097549
 30
0.0
 10
27.79216049098639
 20
9.253096798379772
 30
0.0
 10
27.66875114158924
 20
9.197333198012473
 30
0.0
 10
27.54516913302939
 20
9.252222964843043
 30
0.0
 10
27.48332933858038
 20
9.279689518734784
 30
0.0
  0
SPLINE
  5
4B4
330
1F
100
AcDbEntity
  8
0
  6
Continuous
 62
     1
370
    15
100
AcDbSpline
210
0.0
220
0.0
230
1.0
 70
     8
 71
     3
 72
     9
 73
     5
 74
     0
 42
0.000000001
 43
0.00000001
 40
0.0
 40
0.0
 40
0.0
 40
0.0
 40
0.5003154908467796
 40
1.0
 40
1.0
 40
1.0
 40
1.0
 10
21.85676589012147
 20
-9.28051723167303
 30
0.0
 10
21.91939253775766
 20
-9.252570363744184
 30
0.0
 10
22.04456685033034
 20
-9.196711873571246
 30
0.0
 10
22.16947494479078
 20
-9.254025143983114
 30
0.0
 10
22.23188958466054
 20
-9.282663697376876
 30
0.0
  0
SPLINE
  5
4B5
330
1F
100
AcDbEntity
  8
0
  6
Continuous
 62
     1
370
    15
100
AcDbSpline
210
0.0
220
0.0
230
1.0
 70
     8
 71
     3
 72
    11
 73
     7
 74
     0
 42
0.000000001
 43
0.00000001
 40
0.0
 40
0.0
 40
0.0
 40
0.0
 40
0.2449569594423117
 40
0.4999349676013596
 40
0.7549460415307111
 40
1.0
 40
1.0
 40
1.0
 40
1.0
 10
42.69137761890889
 20
-9.280656231567292
 30
0.0
 10
42.81815727242
 20
-9.348302187412855
 30
0.0
 10
43.07690306235349
 20
-9.486361456359617
 30
0.0
 10
43.52074754776467
 20
-9.544167132304523
 30
0.0
 10
43.9646142720286
 20
-9.48768954073654
 30
0.0
 10
44.22336711017817
 20
-9.35053631110705
 30
0.0
 10
44.35016743242741
 20
-9.283325169235496
 30
0.0
  0
SPLINE
  5
4B6
330
1F
100
AcDbEntity
  8
0
  6
Continuous
 62
     1
370
    15
100
AcDbSpline
210
0.0
220
0.0
230
1.0
 70
     8
 71
     3
 72
     9
 73
     5
 74
     0
 42
0.000000001
 43
0.00000001
 40
0.0
 40
0.0
 40
0.0
 40
0.0
 40
0.4996123963669359
 40
1.0
 40
1.0
 40
1.0
 40
1.0
 10
48.31710148006678
 20
9.281016653403611
 30
0.0
 10
48.25420443433373
 20
9.25288860913571
 30
0.0
 10
48.12831275071974
 20
9.196588876638174
 30
0.0
 10
48.00348653399257
 20
9.253942369021416
 30
0.0
 10
47.94102504253388
 20
9.282641345635028
 30
0.0
  0
SPLINE
  5
4B7
330
1F
100
AcDbEntity
  8
0
  6
Continuous
 62
     1
370
    15
100
AcDbSpline
210
0.0
220
0.0
230
1.0
 70
     8
 71
     3
 72
    11
 73
     7
 74
     0
 42
0.000000001
 43
0.00000001
 40
0.0
 40
0.0
 40
0.0
 40
0.0
 40
0.2450417964222646
 40
0.5000576106982241
 40
0.7550433586459723
 40
0.9999999999999999
 40
0.9999999999999999
 40
0.9999999999999999
 40
0.9999999999999999
 10
27.48219359070063
 20
9.280297206714721
 30
0.0
 10
27.35542551640347
 20
9.347978683703587
 30
0.0
 10
27.09672948465948
 20
9.486096499381262
 30
0.0
 10
26.65297098174815
 20
9.54407329444922
 30
0.0
 10
26.2092320373018
 20
9.487819170610123
 30
0.0
 10
25.95054228753571
 20
9.350823830340914
 30
0.0
 10
25.82379213869569
 20
9.283700259402366
 30
0.0
  0
SPLINE
  5
4B9
330
1F
100
AcDbEntity
  8
0
  6
Continuous
 62
     1
370
    15
100
AcDbSpline
210
0.0
220
0.0
230
1.0
 70
     8
 71
     3
 72
     9
 73
     5
 74
     0
 42
0.000000001
 43
0.00000001
 40
0.0
 40
0.0
 40
0.0
 40
0.0
 40
0.4992286715380008
 40
1.0
 40
1.0
 40
1.0
 40
1.0
 10
22.23162834867836
 20
-9.28252818994227
 30
0.0
 10
22.33527985487171
 20
-9.342127784368557
 30
0.0
 10
22.5429031587858
 20
-9.461511140782534
 30
0.0
 10
22.77715171696113
 20
-9.50364254508142
 30
0.0
 10
22.89445667862893
 20
-9.524740744382171
 30
0.0
  0
SPLINE
  5
4BA
330
1F
100
AcDbEntity
  8
0
  6
Continuous
 62
     1
370
    15
100
AcDbSpline
210
0.0
220
0.0
230
1.0
 70
     8
 71
     3
 72
     9
 73
     5
 74
     0
 42
0.000000001
 43
0.00000001
 40
0.0
 40
0.0
 40
0.0
 40
0.0
 40
0.4993079822619252
 40
1.0
 40
1.0
 40
1.0
 40
1.0
 10
47.94190793633462
 20
9.282179642468662
 30
0.0
 10
47.83826530316347
 20
9.341811468510826
 30
0.0
 10
47.6306927490424
 20
9.461240414493233
 30
0.0
 10
47.39643024736674
 20
9.503485560288482
 30
0.0
 10
47.27913688272236
 20
9.524637367576332
 30
0.0
  0
SPLINE
  5
4BD
330
1F
100
AcDbEntity
  8
0
  6
Continuous
 62
     1
370
    15
100
AcDbSpline
210
0.0
220
0.0
230
1.0
 70
     8
 71
     3
 72
     9
 73
     5
 74
     0
 42
0.000000001
 43
0.00000001
 40
0.0
 40
0.0
 40
0.0
 40
0.0
 40
0.5004157261263347
 40
1.0
 40
1.0
 40
1.0
 40
1.0
 10
22.88776791989804
 20
-9.523364016786246
 30
0.0
 10
23.00419732394573
 20
-9.5031368038305
 30
0.0
 10
23.23686268190519
 20
-9.462715985899138
 30
0.0
 10
23.44246463898247
 20
-9.346046722323791
 30
0.0
 10
23.54518014341591
 20
-9.287760592997103
 30
0.0
  0
SPLINE
  5
4BE
330
1F
100
AcDbEntity
  8
0
  6
Continuous
 62
     1
370
    15
100
AcDbSpline
210
0.0
220
0.0
230
1.0
 70
     8
 71
     3
 72
     9
 73
     5
 74
     0
 42
0.000000001
 43
0.00000001
 40
0.0
 40
0.0
 40
0.0
 40
0.0
 40
0.5004306043151879
 40
1.0
 40
1.0
 40
1.0
 40
1.0
 10
47.28639561086894
 20
9.52294282615182
 30
0.0
 10
47.16999376693769
 20
9.502769633380012
 30
0.0
 10
46.93739039910304
 20
9.462457964593455
 30
0.0
 10
46.73184779151384
 20
9.345916288130269
 30
0.0
 10
46.62916499525309
 20
9.287695633247466
 30
0.0
  0
SPLINE
  5
4C1
330
1F
100
AcDbEntity
  8
0
  6
Continuous
 62
     1
370
    15
100
AcDbSpline
210
0.0
220
0.0
230
1.0
 70
     8
 71
     3
 72
    11
 73
     7
 74
     0
 42
0.000000001
 43
0.00000001
 40
0.0
 40
0.0
 40
0.0
 40
0.0
 40
0.2476451863220885
 40
0.5002052357761951
 40
0.7526668712105891
 40
1.0
 40
1.0
 40
1.0
 40
1.0
 10
23.53632605969906
 20
-9.286559186875849
 30
0.0
 10
23.56558574185206
 20
-9.26870996050161
 30
0.0
 10
23.62468580524299
 20
-9.232657265032117
 30
0.0
 10
23.73118085132546
 20
-9.21386482089278
 30
0.0
 10
23.83784426747161
 20
-9.224653591760699
 30
0.0
 10
23.89738140809138
 20
-9.255333618277973
 30
0.0
 10
23.92684451639653
 20
-9.270516224205522
 30
0.0
  0
SPLINE
  5
4C2
330
1F
100
AcDbEntity
  8
0
  6
Continuous
 62
     1
370
    15
100
AcDbSpline
210
0.0
220
0.0
230
1.0
 70
     8
 71
     3
 72
    11
 73
     7
 74
     0
 42
0.000000001
 43
0.00000001
 40
0.0
 40
0.0
 40
0.0
 40
0.0
 40
0.24756509705515
 40
0.5001274334451956
 40
0.7526323670766717
 40
1.0
 40
1.0
 40
1.0
 40
1.0
 10
44.32576212435961
 20
-9.284027153626113
 30
0.0
 10
44.35521918124439
 20
-9.266438589999893
 30
0.0
 10
44.41472790210963
 20
-9.230906427796867
 30
0.0
 10
44.52141915467161
 20
-9.21311935901079
 30
0.0
 10
44.62796104616422
 20
-9.224910124479322
 30
0.0
 10
44.68717210029928
 20
-9.256145297855767
 30
0.0
 10
44.71647336483002
 20
-9.271602379158168
 30
0.0
  0
SPLINE
  5
4C3
330
1F
100
AcDbEntity
  8
0
  6
Continuous
 62
     1
370
    15
100
AcDbSpline
210
0.0
220
0.0
230
1.0
 70
     8
 71
     3
 72
    11
 73
     7
 74
     0
 42
0.000000001
 43
0.00000001
 40
0.0
 40
0.0
 40
0.0
 40
0.0
 40
0.2298120086482843
 40
0.4882393688447215
 40
0.7466914475039821
 40
0.9999999999999999
 40
0.9999999999999999
 40
0.9999999999999999
 40
0.9999999999999999
 10
46.62990819066761
 20
9.281625039875479
 30
0.0
 10
46.60330131383807
 20
9.26542605473594
 30
0.0
 10
46.54677456910181
 20
9.231011046020882
 30
0.0
 10
46.44335150025577
 20
9.212954402614258
 30
0.0
 10
46.33677413747398
 20
9.223411810152669
 30
0.0
 10
46.27729014443855
 20
9.253938202841795
 30
0.0
 10
46.24784707427025
 20
9.269047994166584
 30
0.0
  0
SPLINE
  5
4C4
330
1F
100
AcDbEntity
  8
0
  6
Continuous
 62
     1
370
    15
100
AcDbSpline
210
0.0
220
0.0
230
1.0
 70
     8
 71
     3
 72
    11
 73
     7
 74
     0
 42
0.000000001
 43
0.00000001
 40
0.0
 40
0.0
 40
0.0
 40
0.0
 40
0.2157896537750249
 40
0.478897600277583
 40
0.7420708094860248
 40
1.0
 40
1.0
 40
1.0
 40
1.0
 10
25.8340501911938
 20
9.2757779639214
 30
0.0
 10
25.80931280661227
 20
9.261113196517158
 30
0.0
 10
25.75441363092898
 20
9.228567975763212
 30
0.0
 10
25.65313042081831
 20
9.21219972888494
 30
0.0
 10
25.54672068087257
 20
9.223569508213899
 30
0.0
 10
25.4875625112243
 20
9.254656345082537
 30
0.0
 10
25.45828109011055
 20
9.270043345168204
 30
0.0
  0
LINE
  5
4C7
330
1F
100
AcDbEntity
  8
0
  6
Continuous
 62
     1
370
    15
100
AcDbLine
 10
23.9154060125351
 20
-9.258605539798765
 30
0.0
 11
24.24918177872897
 21
-9.41552105359736
 31
0.0
  0
LINE
  5
4C8
330
1F
100
AcDbEntity
  8
0
  6
Continuous
 62
     1
370
    15
100
AcDbLine
 10
25.51887805908919
 20
-9.29834903217855
 30
0.0
 11
25.56343905031682
 21
-9.278529323637514
 31
0.0
  0
SPLINE
  5
4C9
330
1F
100
AcDbEntity
  8
0
  6
Continuous
 62
     1
370
    15
100
AcDbSpline
210
0.0
220
0.0
230
1.0
 70
     8
 71
     3
 72
     9
 73
     5
 74
     0
 42
0.000000001
 43
0.00000001
 40
0.0
 40
0.0
 40
0.0
 40
0.0
 40
0.4995713972001267
 40
1.0
 40
1.0
 40
1.0
 40
1.0
 10
44.70949682742358
 20
-9.264531545341043
 30
0.0
 10
44.81213792660216
 20
-9.324551403461356
 30
0.0
 10
45.01759624498035
 20
-9.444694106699956
 30
0.0
 10
45.25012374824425
 20
-9.488908226850128
 30
0.0
 10
45.36648716181517
 20
-9.511034237220912
 30
0.0
  0
LINE
  5
4CA
330
1F
100
AcDbEntity
  8
0
  6
Continuous
 62
     1
370
    15
100
AcDbLine
 10
46.25985554754735
 20
9.256228571757646
 30
0.0
 11
45.97687132060526
 21
9.38939815387127
 31
0.0
  0
LINE
  5
4CB
330
1F
100
AcDbEntity
  8
0
  6
Continuous
 62
     1
370
    15
100
AcDbLine
 10
44.70745443701745
 20
9.319801116362186
 30
0.0
 11
44.61154870092869
 21
9.27722454071042
 31
0.0
  0
SPLINE
  5
4CC
330
1F
100
AcDbEntity
  8
0
  6
Continuous
 62
     1
370
    15
100
AcDbSpline
210
0.0
220
0.0
230
1.0
 70
     8
 71
     3
 72
     9
 73
     5
 74
     0
 42
0.000000001
 43
0.00000001
 40
0.0
 40
0.0
 40
0.0
 40
0.0
 40
0.4995875662394306
 40
1.0
 40
1.0
 40
1.0
 40
1.0
 10
25.46567113474012
 20
9.262348758056731
 30
0.0
 10
25.3629858333548
 20
9.322454254691877
 30
0.0
 10
25.1574456871933
 20
9.442764487966059
 30
0.0
 10
24.92483208303568
 20
9.487159967443489
 30
0.0
 10
24.80842934325338
 20
9.509376017376752
 30
0.0
  0
SPLINE
  5
4D5
330
1F
100
AcDbEntity
  8
0
  6
Continuous
 62
     1
370
    15
100
AcDbSpline
210
0.0
220
0.0
230
1.0
 70
     8
 71
     3
 72
    10
 73
     6
 74
     0
 42
0.000000001
 43
0.00000001
 40
0.0
 40
0.0
 40
0.0
 40
0.0
 40
0.5
 40
0.5
 40
1.0
 40
1.0
 40
1.0
 40
1.0
 10
19.0502626803094
 20
0.3684125746552809
 30
0.0
 10
18.78771188585571
 20
0.4429585775287421
 30
0.0
 10
18.49979509388854
 20
0.5930360417744112
 30
0.0
 10
17.95010730060409
 20
0.9136687710102649
 30
0.0
 10
17.69396230156013
 20
1.082675545655889
 30
0.0
 10
17.48019788301039
 20
1.249359743599626
 30
0.0
  0
SPLINE
  5
4D6
330
1F
100
AcDbEntity
  8
0
  6
Continuous
 62
     1
370
    15
100
AcDbSpline
210
0.0
220
0.0
230
1.0
 70
     8
 71
     3
 72
    10
 73
     6
 74
     0
 42
0.000000001
 43
0.00000001
 40
0.0
 40
0.0
 40
0.0
 40
0.0
 40
0.5
 40
0.5
 40
1.0
 40
1.0
 40
1.0
 40
1.0
 10
17.10974734487203
 20
-4.332991569906682
 30
0.0
 10
17.37241334871126
 20
-4.472830945671717
 30
0.0
 10
17.66072695811022
 20
-4.636311060012275
 30
0.0
 10
18.21056095482476
 20
-4.908550595557841
 30
0.0
 10
18.46654700893413
 20
-5.016179459297803
 30
0.0
 10
18.67998247146738
 20
-5.093897435068072
 30
0.0
  0
SPLINE
  5
4D7
330
1F
100
AcDbEntity
  8
0
  6
Continuous
 62
     1
370
    15
100
AcDbSpline
210
0.0
220
0.0
230
1.0
 70
     8
 71
     3
 72
    10
 73
     6
 74
     0
 42
0.000000001
 43
0.00000001
 40
0.0
 40
0.0
 40
0.0
 40
0.0
 40
0.5
 40
0.5
 40
1.0
 40
1.0
 40
1.0
 40
1.0
 10
37.86811052776943
 20
1.44051581123037
 30
0.0
 10
37.60553451069939
 20
1.533679273024205
 30
0.0
 10
37.3173015372949
 20
1.68956996024346
 30
0.0
 10
36.76752532597408
 20
2.002990005123877
 30
0.0
 10
36.51153709552617
 20
2.15886606168155
 30
0.0
 10
36.29811096071708
 20
2.305048371935726
 30
0.0
  0
SPLINE
  5
4D8
330
1F
100
AcDbEntity
  8
0
  6
Continuous
 62
     1
370
    15
100
AcDbSpline
210
0.0
220
0.0
230
1.0
 70
     8
 71
     3
 72
    10
 73
     6
 74
     0
 42
0.000000001
 43
0.00000001
 40
0.0
 40
0.0
 40
0.0
 40
0.0
 40
0.5
 40
0.5
 40
1.0
 40
1.0
 40
1.0
 40
1.0
 10
35.92785082793614
 20
-3.353384087657901
 30
0.0
 10
36.19027467358023
 20
-3.478873312956949
 30
0.0
 10
36.47821463207595
 20
-3.642129763588827
 30
0.0
 10
37.02788425400141
 20
-3.932533563682796
 30
0.0
 10
37.2839888579141
 20
-4.058437689792356
 30
0.0
 10
37.49768281104582
 20
-4.161234590594717
 30
0.0
  0
SPLINE
  5
4D9
330
1F
100
AcDbEntity
  8
0
  6
Continuous
 62
     1
370
    15
100
AcDbSpline
210
0.0
220
0.0
230
1.0
 70
     8
 71
     3
 72
    10
 73
     6
 74
     0
 42
0.000000001
 43
0.00000001
 40
0.0
 40
0.0
 40
0.0
 40
0.0
 40
0.4999999999999999
 40
0.4999999999999999
 40
1.0
 40
1.0
 40
1.0
 40
1.0
 10
15.42895729634535
 20
2.38006731023674
 30
0.0
 10
15.16665576360057
 20
2.489710294853637
 30
0.0
 10
14.87895135582716
 20
2.650386681670682
 30
0.0
 10
14.32958721785911
 20
2.954430849815679
 30
0.0
 10
14.07360322911478
 20
3.096442713270761
 30
0.0
 10
13.86017022260251
 20
3.222076721517624
 30
0.0
  0
SPLINE
  5
4DA
330
1F
100
AcDbEntity
  8
0
  6
Continuous
 62
     1
370
    15
100
AcDbSpline
210
0.0
220
0.0
230
1.0
 70
     8
 71
     3
 72
    10
 73
     6
 74
     0
 42
0.000000001
 43
0.00000001
 40
0.0
 40
0.0
 40
0.0
 40
0.0
 40
0.5
 40
0.5
 40
1.0
 40
1.0
 40
1.0
 40
1.0
 10
13.48991977773247
 20
-2.441733567764089
 30
0.0
 10
13.75228622518677
 20
-2.551780576221887
 30
0.0
 10
14.04034461061391
 20
-2.712037937713859
 30
0.0
 10
14.58971325435647
 20
-3.015069570330894
 30
0.0
 10
14.8454574780518
 20
-3.156332106027065
 30
0.0
 10
15.05870720550948
 20
-3.28094084178548
 30
0.0
  0
SPLINE
  5
4DF
330
1F
100
AcDbEntity
  8
0
  6
Continuous
 62
     1
370
    15
100
AcDbSpline
210
0.0
220
0.0
230
1.0
 70
     8
 71
     3
 72
    12
 73
     8
 74
     0
 42
0.000000001
 43
0.00000001
 40
0.0
 40
0.0
 40
0.0
 40
0.0
 40
0.5000000000000001
 40
0.5000000000000001
 40
0.75
 40
0.75
 40
1.0
 40
1.0
 40
1.0
 40
1.0
 10
38.8880642399009
 20
0.792742831184313
 30
0.0
 10
38.82993296095455
 20
-0.1477334690017642
 30
0.0
 10
38.768333715973
 20
-1.118549204357464
 30
0.0
 10
38.67676627727261
 20
-2.523418306163109
 30
0.0
 10
38.6463956631726
 20
-2.983047660175487
 30
0.0
 10
38.58696611312524
 20
-3.870065147593436
 30
0.0
 10
38.55845549726732
 20
-4.294872665268997
 30
0.0
 10
38.52973265731259
 20
-4.703600360533272
 30
0.0
  0
SPLINE
  5
4E0
330
1F
100
AcDbEntity
  8
0
  6
Continuous
 62
     1
370
    15
100
AcDbSpline
210
0.0
220
0.0
230
1.0
 70
     8
 71
     3
 72
     8
 73
     4
 74
     0
 42
0.000000001
 43
0.00000001
 40
0.0
 40
0.0
 40
0.0
 40
0.0
 40
1.0
 40
1.0
 40
1.0
 40
1.0
 10
37.89862804720522
 20
-4.361492280826099
 30
0.0
 10
38.09752589494826
 20
-4.467990120654036
 30
0.0
 10
38.31521820007259
 20
-4.591479800053605
 30
0.0
 10
38.52973265731248
 20
-4.703600360534864
 30
0.0
  0
SPLINE
  5
4E1
330
1F
100
AcDbEntity
  8
0
  6
Continuous
 62
     1
370
    15
100
AcDbSpline
210
0.0
220
0.0
230
1.0
 70
     8
 71
     3
 72
     8
 73
     4
 74
     0
 42
0.000000001
 43
0.00000001
 40
0.0
 40
0.0
 40
0.0
 40
0.0
 40
1.0
 40
1.0
 40
1.0
 40
1.0
 10
38.8880642399086
 20
0.792742831180675
 30
0.0
 10
38.66024953361591
 20
0.9321171167283637
 30
0.0
 10
38.44816321709118
 20
1.07575515529399
 30
0.0
 10
38.26895350305713
 20
1.216873120932121
 30
0.0
  0
SPLINE
  5
4E2
330
1F
100
AcDbEntity
  8
0
  6
Continuous
 62
     1
370
    15
100
AcDbSpline
210
0.0
220
0.0
230
1.0
 70
     8
 71
     3
 72
     8
 73
     4
 74
     0
 42
0.000000001
 43
0.00000001
 40
0.0
 40
0.0
 40
0.0
 40
0.0
 40
1.0
 40
1.0
 40
1.0
 40
1.0
 10
16.08995945035721
 20
-3.823674405251893
 30
0.0
 10
16.31775251823598
 20
-3.942405539630926
 30
0.0
 10
16.52979288764428
 20
-4.045966380468798
 30
0.0
 10
16.70893834134753
 20
-4.132629887335156
 30
0.0
  0
SPLINE
  5
4E3
330
1F
100
AcDbEntity
  8
0
  6
Continuous
 62
     1
370
    15
100
AcDbSpline
210
0.0
220
0.0
230
1.0
 70
     8
 71
     3
 72
    12
 73
     8
 74
     0
 42
0.000000001
 43
0.00000001
 40
0.0
 40
0.0
 40
0.0
 40
0.0
 40
0.25
 40
0.25
 40
0.5
 40
0.5
 40
1.0
 40
1.0
 40
1.0
 40
1.0
 10
16.44821722985466
 20
1.768334217843375
 30
0.0
 10
16.4192537884021
 20
1.305150430499083
 30
0.0
 10
16.39110374000072
 20
0.8398166082541536
 30
0.0
 10
16.33202027728379
 20
-0.108411985235108
 30
0.0
 10
16.30176055330719
 20
-0.5877153087511715
 30
0.0
 10
16.21032089155165
 20
-2.016952707886986
 30
0.0
 10
16.14852616047679
 20
-2.957082599668524
 30
0.0
 10
16.08995948043099
 20
-3.823674420925215
 30
0.0
  0
SPLINE
  5
4E4
330
1F
100
AcDbEntity
  8
0
  6
Continuous
 62
     1
370
    15
100
AcDbSpline
210
0.0
220
0.0
230
1.0
 70
     8
 71
     3
 72
     8
 73
     4
 74
     0
 42
0.000000001
 43
0.00000001
 40
0.0
 40
0.0
 40
0.0
 40
0.0
 40
1.0
 40
1.0
 40
1.0
 40
1.0
 10
17.07923937539141
 20
1.471571286067501
 30
0.0
 10
16.8803829886061
 20
1.541779436106339
 30
0.0
 10
16.66272380386286
 20
1.651626836651559
 30
0.0
 10
16.44821722985466
 20
1.768334217843346
 30
0.0
  0
SPLINE
  5
4E5
330
1F
100
AcDbEntity
  8
0
  6
Continuous
 62
     1
370
    15
100
AcDbSpline
210
0.0
220
0.0
230
1.0
 70
     8
 71
     3
 72
     8
 73
     4
 74
     0
 42
0.000000001
 43
0.00000001
 40
0.0
 40
0.0
 40
0.0
 40
0.0
 40
1.0
 40
1.0
 40
1.0
 40
1.0
 10
15.45922209090557
 20
-3.491355398454886
 30
0.0
 10
15.65797625732498
 20
-3.587916177744603
 30
0.0
 10
15.87549825101127
 20
-3.708731052535995
 30
0.0
 10
16.08995948043085
 20
-3.823674420926949
 30
0.0
  0
SPLINE
  5
4E6
330
1F
100
AcDbEntity
  8
0
  6
Continuous
 62
     1
370
    15
100
AcDbSpline
210
0.0
220
0.0
230
1.0
 70
     8
 71
     3
 72
     8
 73
     4
 74
     0
 42
0.000000001
 43
0.00000001
 40
0.0
 40
0.0
 40
0.0
 40
0.0
 40
1.0
 40
1.0
 40
1.0
 40
1.0
 10
16.44821722992359
 20
1.768334217804551
 30
0.0
 10
16.22036964151715
 20
1.902587493825365
 30
0.0
 10
16.00837925774826
 20
2.035181155377387
 30
0.0
 10
15.82939074107884
 20
2.160704883750185
 30
0.0
  0
SPLINE
  5
4E7
330
1F
100
AcDbEntity
  8
0
  6
Continuous
 62
     1
370
    15
100
AcDbSpline
210
0.0
220
0.0
230
1.0
 70
     8
 71
     3
 72
    10
 73
     6
 74
     0
 42
0.000000001
 43
0.00000001
 40
0.0
 40
0.0
 40
0.0
 40
0.0
 40
0.5
 40
0.5
 40
1.0
 40
1.0
 40
1.0
 40
1.0
 10
34.24860367564614
 20
3.402261887738064
 30
0.0
 10
33.98630468721029
 20
3.527761916258186
 30
0.0
 10
33.69833269283225
 20
3.690482648379884
 30
0.0
 10
33.14911574987019
 20
3.979748968325339
 30
0.0
 10
32.8934473977356
 20
4.104944851213219
 30
0.0
 10
32.68033745926678
 20
4.206760404182035
 30
0.0
  0
SPLINE
  5
4E8
330
1F
100
AcDbEntity
  8
0
  6
Continuous
 62
     1
370
    15
100
AcDbSpline
210
0.0
220
0.0
230
1.0
 70
     8
 71
     3
 72
    10
 73
     6
 74
     0
 42
0.000000001
 43
0.00000001
 40
0.0
 40
0.0
 40
0.0
 40
0.0
 40
0.5
 40
0.5
 40
1.0
 40
1.0
 40
1.0
 40
1.0
 10
32.31017051723143
 20
-1.389257931435822
 30
0.0
 10
32.57238606317802
 20
-1.481950498541721
 30
0.0
 10
32.85997916969924
 20
-1.638157767758003
 30
0.0
 10
33.40913273650614
 20
-1.952084226367333
 30
0.0
 10
33.66500741594939
 20
-2.108332384487255
 30
0.0
 10
33.87836194526676
 20
-2.255126369734995
 30
0.0
  0
SPLINE
  5
4E9
330
1F
100
AcDbEntity
  8
0
  6
Continuous
 62
     1
370
    15
100
AcDbSpline
210
0.0
220
0.0
230
1.0
 70
     8
 71
     3
 72
     8
 73
     4
 74
     0
 42
0.000000001
 43
0.00000001
 40
0.0
 40
0.0
 40
0.0
 40
0.0
 40
1.0
 40
1.0
 40
1.0
 40
1.0
 10
34.90919592338338
 20
-2.787754057161862
 30
0.0
 10
35.13687722148177
 20
-2.915150272733655
 30
0.0
 10
35.3486670079366
 20
-3.034339174228194
 30
0.0
 10
35.52749057750819
 20
-3.141624668602674
 30
0.0
  0
SPLINE
  5
4EA
330
1F
100
AcDbEntity
  8
0
  6
Continuous
 62
     1
370
    15
100
AcDbSpline
210
0.0
220
0.0
230
1.0
 70
     8
 71
     3
 72
    12
 73
     8
 74
     0
 42
0.000000001
 43
0.00000001
 40
0.0
 40
0.0
 40
0.0
 40
0.0
 40
0.2499999999999999
 40
0.2499999999999999
 40
0.4999999999999999
 40
0.4999999999999999
 40
1.0
 40
1.0
 40
1.0
 40
1.0
 10
35.2670758606686
 20
2.840392515423304
 30
0.0
 10
35.23700877958154
 20
2.384688762118742
 30
0.0
 10
35.2074630179554
 20
1.920886799237081
 30
0.0
 10
35.15033207438776
 20
0.993098648824116
 30
0.0
 10
35.12141931087697
 20
0.5220141101217735
 30
0.0
 10
35.03185395671733
 20
-0.9068880692948653
 30
0.0
 10
34.96968410810703
 20
-1.872932293048564
 30
0.0
 10
34.90919595348183
 20
-2.787754074001725
 30
0.0
  0
SPLINE
  5
4EB
330
1F
100
AcDbEntity
  8
0
  6
Continuous
 62
     1
370
    15
100
AcDbSpline
210
0.0
220
0.0
230
1.0
 70
     8
 71
     3
 72
     8
 73
     4
 74
     0
 42
0.000000001
 43
0.00000001
 40
0.0
 40
0.0
 40
0.0
 40
0.0
 40
1.0
 40
1.0
 40
1.0
 40
1.0
 10
35.89761589866947
 20
2.522956689951513
 30
0.0
 10
35.6989219389568
 20
2.607446840088784
 30
0.0
 10
35.48147447467926
 20
2.723797568783453
 30
0.0
 10
35.26707586066865
 20
2.840392515424327
 30
0.0
  0
SPLINE
  5
4EC
330
1F
100
AcDbEntity
  8
0
  6
Continuous
 62
     1
370
    15
100
AcDbSpline
210
0.0
220
0.0
230
1.0
 70
     8
 71
     3
 72
     8
 73
     4
 74
     0
 42
0.000000001
 43
0.00000001
 40
0.0
 40
0.0
 40
0.0
 40
0.0
 40
1.0
 40
1.0
 40
1.0
 40
1.0
 10
38.52973262722421
 20
-4.703600346072818
 30
0.0
 10
38.75763206783876
 20
-4.813141209640889
 30
0.0
 10
38.96965395900651
 20
-4.90184063467396
 30
0.0
 10
39.14867531057516
 20
-4.969452088444143
 30
0.0
  0
SPLINE
  5
4ED
330
1F
100
AcDbEntity
  8
0
  6
Continuous
 62
     1
370
    15
100
AcDbSpline
210
0.0
220
0.0
230
1.0
 70
     8
 71
     3
 72
     8
 73
     4
 74
     0
 42
0.000000001
 43
0.00000001
 40
0.0
 40
0.0
 40
0.0
 40
0.0
 40
1.0
 40
1.0
 40
1.0
 40
1.0
 10
39.51884738510685
 20
0.5158323867820513
 30
0.0
 10
39.32004692612446
 20
0.5734077914246143
 30
0.0
 10
39.10253643816517
 20
0.6769596136608129
 30
0.0
 10
38.88806423990096
 20
0.7927428311857625
 30
0.0
  0
SPLINE
  5
4EE
330
1F
100
AcDbEntity
  8
0
  6
Continuous
 62
     1
370
    15
100
AcDbSpline
210
0.0
220
0.0
230
1.0
 70
     8
 71
     3
 72
     8
 73
     4
 74
     0
 42
0.000000001
 43
0.00000001
 40
0.0
 40
0.0
 40
0.0
 40
0.0
 40
1.0
 40
1.0
 40
1.0
 40
1.0
 10
34.27871403546993
 20
-2.472256240667434
 30
0.0
 10
34.47738692898645
 20
-2.555561532838652
 30
0.0
 10
34.69486359446822
 20
-2.671274816695359
 30
0.0
 10
34.9091959534818
 20
-2.787754074001924
 30
0.0
  0
SPLINE
  5
4EF
330
1F
100
AcDbEntity
  8
0
  6
Continuous
 62
     1
370
    15
100
AcDbSpline
210
0.0
220
0.0
230
1.0
 70
     8
 71
     3
 72
     8
 73
     4
 74
     0
 42
0.000000001
 43
0.00000001
 40
0.0
 40
0.0
 40
0.0
 40
0.0
 40
1.0
 40
1.0
 40
1.0
 40
1.0
 10
35.26707586067727
 20
2.840392515419552
 30
0.0
 10
35.03951863422085
 20
2.967454193295339
 30
0.0
 10
34.8276927346661
 20
3.085771793558138
 30
0.0
 10
34.64883912673235
 20
3.19184489071651
 30
0.0
  0
SPLINE
  5
4F2
330
1F
100
AcDbEntity
  8
0
  6
Continuous
 62
     1
370
    15
100
AcDbSpline
210
0.0
220
0.0
230
1.0
 70
     8
 71
     3
 72
    10
 73
     6
 74
     0
 42
0.000000001
 43
0.00000001
 40
0.0
 40
0.0
 40
0.0
 40
0.0
 40
0.5
 40
0.5
 40
1.0
 40
1.0
 40
1.0
 40
1.0
 10
41.48840973123509
 20
-0.5907305305981083
 30
0.0
 10
41.22605627575103
 20
-0.5346068889288915
 30
0.0
 10
40.93800421843031
 20
-0.3932913190230636
 30
0.0
 10
40.38856558963337
 20
-0.0711891693643452
 30
0.0
 10
40.13275430053218
 20
0.1076678503866333
 30
0.0
 10
39.91943170023302
 20
0.2909932451607347
 30
0.0
  0
SPLINE
  5
4F3
330
1F
100
AcDbEntity
  8
0
  6
Continuous
 62
     1
370
    15
100
AcDbSpline
210
0.0
220
0.0
230
1.0
 70
     8
 71
     3
 72
    10
 73
     6
 74
     0
 42
0.000000001
 43
0.00000001
 40
0.0
 40
0.0
 40
0.0
 40
0.0
 40
0.5
 40
0.5
 40
1.0
 40
1.0
 40
1.0
 40
1.0
 10
39.54915024942784
 20
-5.158618317546853
 30
0.0
 10
39.81141604730456
 20
-5.310578059495924
 30
0.0
 10
40.09925062293382
 20
-5.472856525146739
 30
0.0
 10
40.64870809385496
 20
-5.72547578556447
 30
0.0
 10
40.90470996580609
 20
-5.814825131207499
 30
0.0
 10
41.11814986530956
 20
-5.868389401918677
 30
0.0
  0
SPLINE
  5
4F4
330
1F
100
AcDbEntity
  8
0
  6
Continuous
 62
     1
370
    15
100
AcDbSpline
210
0.0
220
0.0
230
1.0
 70
     8
 71
     3
 72
     8
 73
     4
 74
     0
 42
0.000000001
 43
0.00000001
 40
0.0
 40
0.0
 40
0.0
 40
0.0
 40
1.0
 40
1.0
 40
1.0
 40
1.0
 10
12.47166622191526
 20
-1.834077328007197
 30
0.0
 10
12.69915195758165
 20
-1.967938904540546
 30
0.0
 10
12.91090171620638
 20
-2.099505472413682
 30
0.0
 10
13.08969893649598
 20
-2.223612604820175
 30
0.0
  0
SPLINE
  5
4F5
330
1F
100
AcDbEntity
  8
0
  6
Continuous
 62
     1
370
    15
100
AcDbSpline
210
0.0
220
0.0
230
1.0
 70
     8
 71
     3
 72
    12
 73
     8
 74
     0
 42
0.000000001
 43
0.00000001
 40
0.0
 40
0.0
 40
0.0
 40
0.0
 40
0.25
 40
0.25
 40
0.5
 40
0.5
 40
1.0
 40
1.0
 40
1.0
 40
1.0
 10
12.82939708140523
 20
3.762448216522472
 30
0.0
 10
12.79885572914435
 20
3.321495541234441
 30
0.0
 10
12.76848316628724
 20
2.866969070667182
 30
0.0
 10
12.70908343560214
 20
1.94672977383496
 30
0.0
 10
12.68065734382276
 20
1.48430208945814
 30
0.0
 10
12.5942215149478
 20
0.0799241583905825
 30
0.0
 10
12.53283637617648
 20
-0.8916204336223927
 30
0.0
 10
12.4716662519526
 20
-1.834077345681834
 30
0.0
  0
SPLINE
  5
4F6
330
1F
100
AcDbEntity
  8
0
  6
Continuous
 62
     1
370
    15
100
AcDbSpline
210
0.0
220
0.0
230
1.0
 70
     8
 71
     3
 72
     8
 73
     4
 74
     0
 42
0.000000001
 43
0.00000001
 40
0.0
 40
0.0
 40
0.0
 40
0.0
 40
1.0
 40
1.0
 40
1.0
 40
1.0
 10
13.45981212991066
 20
3.431934730950303
 30
0.0
 10
13.26115707008887
 20
3.527273632019444
 30
0.0
 10
13.04370341739175
 20
3.647505680005054
 30
0.0
 10
12.82939708140512
 20
3.762448216521278
 30
0.0
  0
ELLIPSE
  5
4F7
330
1F
100
AcDbEntity
  8
0
  6
Continuous
 62
     1
370
    15
100
AcDbEllipse
 10
45.05569629293799
 20
-11.61680695023639
 30
0.0
 11
12.07546735328537
 21
16.980790587081
 31
0.0
210
0.0
220
0.0
230
1.0
 40
0.1082739118711147
 41
0.6815688347718175
 42
0.6837355282213589
  0
LINE
  5
4F8
330
1F
100
AcDbEntity
  8
0
  6
Continuous
 62
     1
370
    15
100
AcDbLine
 10
53.27500000000001
 20
-0.4529406724032299
 30
0.0
 11
53.27500000000001
 21
2.393939648754866
 31
0.0
  0
LINE
  5
4F9
330
1F
100
AcDbEntity
  8
0
  6
Continuous
 62
     1
370
    15
100
AcDbLine
 10
51.12987540066243
 20
-1.081041467841743
 30
0.0
 11
53.27500000000001
 21
-0.4529406724032299
 31
0.0
  0
SPLINE
  5
4FA
330
1F
100
AcDbEntity
  8
0
  6
Continuous
 62
     1
370
    15
100
AcDbSpline
210
0.0
220
0.0
230
1.0
 70
     8
 71
     3
 72
    10
 73
     6
 74
     0
 42
0.000000001
 43
0.00000001
 40
0.0
 40
0.0
 40
0.0
 40
0.0
 40
0.5000000000000001
 40
0.5000000000000001
 40
1.0
 40
1.0
 40
1.0
 40
1.0
 10
51.32205787947615
 20
-0.384234238486215
 30
0.0
 10
51.31635450755127
 20
-0.4673516578000374
 30
0.0
 10
51.29860094746033
 20
-0.5656641272185539
 30
0.0
 10
51.23596479800622
 20
-0.7964982380123047
 30
0.0
 10
51.19021263956861
 20
-0.9311313113205983
 30
0.0
 10
51.12987673134543
 20
-1.081041424372955
 30
0.0
  0
SPLINE
  5
4FB
330
1F
100
AcDbEntity
  8
0
  6
Continuous
 62
     1
370
    15
100
AcDbSpline
210
0.0
220
0.0
230
1.0
 70
     8
 71
     3
 72
    12
 73
     8
 74
     0
 42
0.000000001
 43
0.00000001
 40
0.0
 40
0.0
 40
0.0
 40
0.0
 40
0.2499999999999984
 40
0.2499999999999984
 40
0.4999999999999969
 40
0.4999999999999969
 40
1.0
 40
1.0
 40
1.0
 40
1.0
 10
52.89654532586783
 20
1.885179031730473
 30
0.0
 10
52.76354769344695
 20
1.722416842872917
 30
0.0
 10
52.62930152961167
 20
1.549013498421914
 30
0.0
 10
52.35883283992695
 20
1.185362398993675
 30
0.0
 10
52.22152755944049
 20
0.9933626994501878
 30
0.0
 10
51.82013566816113
 20
0.4124252669481621
 30
0.0
 10
51.55983923346074
 20
0.0092274504767431
 30
0.0
 10
51.32205787947629
 20
-0.3842342384861581
 30
0.0
  0
SPLINE
  5
4FC
330
1F
100
AcDbEntity
  8
0
  6
Continuous
 62
     1
370
    15
100
AcDbSpline
210
0.0
220
0.0
230
1.0
 70
     8
 71
     3
 72
    10
 73
     6
 74
     0
 42
0.000000001
 43
0.00000001
 40
0.0
 40
0.0
 40
0.0
 40
0.0
 40
0.5
 40
0.5
 40
1.0
 40
1.0
 40
1.0
 40
1.0
 10
53.25540458641879
 20
2.372927264458326
 30
0.0
 10
53.19647119740193
 20
2.285930588416903
 30
0.0
 10
53.13623809778457
 20
2.20059027687833
 30
0.0
 10
53.01567244211435
 20
2.036252524842354
 30
0.0
 10
52.9552414775973
 20
1.95701124377149
 30
0.0
 10
52.89654532586783
 20
1.885179031730473
 30
0.0
  0
SPLINE
  5
4FD
330
1F
100
AcDbEntity
  8
0
  6
Continuous
 62
     1
370
    15
100
AcDbSpline
210
0.0
220
0.0
230
1.0
 70
     8
 71
     3
 72
     8
 73
     4
 74
     0
 42
0.000000001
 43
0.00000001
 40
0.2604909244170119
 40
0.2604909244170119
 40
0.2604909244170119
 40
0.2604909244170119
 40
1.0
 40
1.0
 40
1.0
 40
1.0
 10
12.0
 20
-1.598451521448467
 30
0.0
 10
12.15301006641499
 20
-1.664733535981313
 30
0.0
 10
12.31316942095944
 20
-1.747684971884667
 30
0.0
 10
12.47166625195254
 20
-1.834077345682289
 30
0.0
  0
SPLINE
  5
4FE
330
1F
100
AcDbEntity
  8
0
  6
Continuous
 62
     1
370
    15
100
AcDbSpline
210
0.0
220
0.0
230
1.0
 70
     8
 71
     3
 72
     8
 73
     4
 74
     0
 42
0.000000001
 43
0.00000001
 40
0.0
 40
0.0
 40
0.0
 40
0.0
 40
1.0
 40
1.0
 40
1.0
 40
1.0
 10
12.82939708141586
 20
3.762448216517043
 30
0.0
 10
12.60180374403603
 20
3.881582873248448
 30
0.0
 10
12.3901021207104
 20
3.986141176041997
 30
0.0
 10
12.21140136276784
 20
4.074137529115063
 30
0.0
  0
SPLINE
  5
4FF
330
1F
100
AcDbEntity
  8
0
  6
Continuous
 62
     1
370
    15
100
AcDbSpline
210
0.0
220
0.0
230
1.0
 70
     8
 71
     3
 72
     8
 73
     4
 74
     0
 42
0.000000001
 43
0.00000001
 40
0.0
 40
0.0
 40
0.0
 40
0.0
 40
1.0
 40
1.0
 40
1.0
 40
1.0
 10
51.13015306789066
 20
-0.3192176793312171
 30
0.0
 10
51.19309581076374
 20
-0.3367557522511504
 30
0.0
 10
51.25703152511352
 20
-0.3587998457307151
 30
0.0
 10
51.32205787947672
 20
-0.3842342384864139
 30
0.0
  0
SPLINE
  5
500
330
1F
100
AcDbEntity
  8
0
  6
Continuous
 62
     1
370
    15
100
AcDbSpline
210
0.0
220
0.0
230
1.0
 70
     8
 71
     3
 72
    10
 73
     6
 74
     0
 42
0.000000001
 43
0.00000001
 40
0.0
 40
0.0
 40
0.0
 40
0.0
 40
0.5
 40
0.5
 40
1.0
 40
1.0
 40
1.0
 40
1.0
 10
53.06887417230263
 20
4.378570208846952
 30
0.0
 10
52.80671354437627
 20
4.519368612529121
 30
0.0
 10
52.51894342427872
 20
4.682820665390238
 30
0.0
 10
51.96966820232979
 20
4.953634148065873
 30
0.0
 10
51.71378822529331
 20
5.059833179652145
 30
0.0
 10
51.50042434545924
 20
5.135769717197149
 30
0.0
  0
SPLINE
  5
501
330
1F
100
AcDbEntity
  8
0
  6
Continuous
 62
     1
370
    15
100
AcDbSpline
210
0.0
220
0.0
230
1.0
 70
     8
 71
     3
 72
    10
 73
     6
 74
     0
 42
0.000000001
 43
0.00000001
 40
0.0
 40
0.0
 40
0.0
 40
0.0
 40
0.5
 40
0.5
 40
1.0
 40
1.0
 40
1.0
 40
1.0
 10
30.63130169532076
 20
5.199902460161866
 30
0.0
 10
30.36882069093954
 20
5.351957479492057
 30
0.0
 10
30.08065447727833
 20
5.513982161566616
 30
0.0
 10
29.53118138880748
 20
5.765646306733657
 30
0.0
 10
29.27543212439824
 20
5.854395282854625
 30
0.0
 10
29.06210930585917
 20
5.907210766349152
 30
0.0
  0
SPLINE
  5
502
330
1F
100
AcDbEntity
  8
0
  6
Continuous
 62
     1
370
    15
100
AcDbSpline
210
0.0
220
0.0
230
1.0
 70
     8
 71
     3
 72
    10
 73
     6
 74
     0
 42
0.000000001
 43
0.00000001
 40
0.0
 40
0.0
 40
0.0
 40
0.0
 40
0.5
 40
0.5
 40
1.0
 40
1.0
 40
1.0
 40
1.0
 10
28.69180171048004
 20
0.641724965967569
 30
0.0
 10
28.95424348747829
 20
0.586072640880758
 30
0.0
 10
29.2420009757507
 20
0.4442275081367768
 30
0.0
 10
29.79144451305194
 20
0.1213450735630488
 30
0.0
 10
30.0475020465623
 20
-0.0579850823964705
 30
0.0
 10
30.26102702463899
 20
-0.2420270642263915
 30
0.0
  0
SPLINE
  5
507
330
1F
100
AcDbEntity
  8
0
  6
Continuous
 62
     1
370
    15
100
AcDbSpline
210
0.0
220
0.0
230
1.0
 70
     8
 71
     3
 72
    10
 73
     6
 74
     0
 42
0.000000001
 43
0.00000001
 40
0.0
 40
0.0
 40
0.0
 40
0.0
 40
0.5
 40
0.5
 40
1.0
 40
1.0
 40
1.0
 40
1.0
 10
37.49768281104579
 20
-4.161234590594688
 30
0.0
 10
37.55209391319971
 20
-4.187408904788867
 30
0.0
 10
37.61617606894319
 20
-4.218934006886911
 30
0.0
 10
37.75618185622176
 20
-4.28819253576475
 30
0.0
 10
37.83212922115786
 20
-4.325886157353693
 30
0.0
 10
37.89862804720519
 20
-4.361492280826099
 30
0.0
  0
SPLINE
  5
508
330
1F
100
AcDbEntity
  8
0
  6
Continuous
 62
     1
370
    15
100
AcDbSpline
210
0.0
220
0.0
230
1.0
 70
     8
 71
     3
 72
    10
 73
     6
 74
     0
 42
0.000000001
 43
0.00000001
 40
0.0
 40
0.0
 40
0.0
 40
0.0
 40
0.5
 40
0.5
 40
1.0
 40
1.0
 40
1.0
 40
1.0
 10
38.26895350305713
 20
1.216873120932121
 30
0.0
 10
38.21486997190775
 20
1.259460979137572
 30
0.0
 10
38.15100658254576
 20
1.30266248043236
 30
0.0
 10
38.01115230866395
 20
1.38157914006652
 30
0.0
 10
37.93507797660425
 20
1.416755380134788
 30
0.0
 10
37.86811052776943
 20
1.440515811230398
 30
0.0
  0
SPLINE
  5
509
330
1F
100
AcDbEntity
  8
0
  6
Continuous
 62
     1
370
    15
100
AcDbSpline
210
0.0
220
0.0
230
1.0
 70
     8
 71
     3
 72
    10
 73
     6
 74
     0
 42
0.000000001
 43
0.00000001
 40
0.0
 40
0.0
 40
0.0
 40
0.0
 40
0.5
 40
0.5
 40
1.0
 40
1.0
 40
1.0
 40
1.0
 10
16.70893834134756
 20
-4.132629887335185
 30
0.0
 10
16.76301464884969
 20
-4.158789872697014
 30
0.0
 10
16.8268744316845
 20
-4.190339982877958
 30
0.0
 10
16.9667222836612
 20
-4.259629595766057
 30
0.0
 10
17.04278672499203
 20
-4.297342756782797
 30
0.0
 10
17.10974734487203
 20
-4.332991569906653
 30
0.0
  0
SPLINE
  5
50A
330
1F
100
AcDbEntity
  8
0
  6
Continuous
 62
     1
370
    15
100
AcDbSpline
210
0.0
220
0.0
230
1.0
 70
     8
 71
     3
 72
    10
 73
     6
 74
     0
 42
0.000000001
 43
0.00000001
 40
0.0
 40
0.0
 40
0.0
 40
0.0
 40
0.5
 40
0.5
 40
1.0
 40
1.0
 40
1.0
 40
1.0
 10
17.48019788301039
 20
1.249359743599626
 30
0.0
 10
17.42578224796793
 20
1.291790689517512
 30
0.0
 10
17.36170089507385
 20
1.334777842978355
 30
0.0
 10
17.22169474176286
 20
1.413211424851511
 30
0.0
 10
17.14574095096972
 20
1.448092268513648
 30
0.0
 10
17.07923937539141
 20
1.471571286067444
 30
0.0
  0
SPLINE
  5
50B
330
1F
100
AcDbEntity
  8
0
  6
Continuous
 62
     1
370
    15
100
AcDbSpline
210
0.0
220
0.0
230
1.0
 70
     8
 71
     3
 72
     9
 73
     5
 74
     0
 42
0.000000001
 43
0.00000001
 40
0.0
 40
0.0
 40
0.0
 40
0.0
 40
0.575190761685683
 40
1.0
 40
1.0
 40
1.0
 40
1.0
 10
19.4323451012373
 20
9.00711980648336
 30
0.0
 10
19.57852012164156
 20
9.020909689089791
 30
0.0
 10
19.83265323736802
 20
9.044884139872039
 30
0.0
 10
20.03964462019067
 20
8.970679400438769
 30
0.0
 10
20.12757647186515
 20
8.939156541600795
 30
0.0
  0
SPLINE
  5
50C
330
1F
100
AcDbEntity
  8
0
  6
Continuous
 62
     1
370
    15
100
AcDbSpline
210
0.0
220
0.0
230
1.0
 70
     8
 71
     3
 72
    10
 73
     6
 74
     0
 42
0.000000001
 43
0.00000001
 40
0.0
 40
0.0
 40
0.0
 40
0.0
 40
0.5
 40
0.5
 40
1.0
 40
1.0
 40
1.0
 40
1.0
 10
20.12757705827786
 20
8.939156573026736
 30
0.0
 10
20.18188998430927
 20
8.91644802127442
 30
0.0
 10
20.24587335602905
 20
8.907628354230525
 30
0.0
 10
20.38572028046181
 20
8.924816905991207
 30
0.0
 10
20.46157698486414
 20
8.95200679981815
 30
0.0
 10
20.52798682830496
 20
8.999251913941436
 30
0.0
  0
SPLINE
  5
50D
330
1F
100
AcDbEntity
  8
0
  6
Continuous
 62
     1
370
    15
100
AcDbSpline
210
0.0
220
0.0
230
1.0
 70
     8
 71
     3
 72
     8
 73
     4
 74
     0
 42
0.000000001
 43
0.00000001
 40
0.0
 40
0.0
 40
0.0
 40
0.0
 40
1.0
 40
1.0
 40
1.0
 40
1.0
 10
20.52798682830493
 20
8.999251913941464
 30
0.0
 10
20.72665735716842
 20
9.140589572980815
 30
0.0
 10
20.94412619243099
 20
9.239572982334465
 30
0.0
 10
21.15844649403221
 20
9.290597111848285
 30
0.0
  0
SPLINE
  5
50E
330
1F
100
AcDbEntity
  8
0
  6
Continuous
 62
     1
370
    15
100
AcDbSpline
210
0.0
220
0.0
230
1.0
 70
     8
 71
     3
 72
     8
 73
     4
 74
     0
 42
0.000000001
 43
0.00000001
 40
0.0
 40
0.0
 40
0.0
 40
0.0
 40
1.0
 40
1.0
 40
1.0
 40
1.0
 10
21.15844646399128
 20
9.290597111378133
 30
0.0
 10
21.38605289511477
 20
9.29415982332543
 30
0.0
 10
21.59777003683382
 20
9.242390647522996
 30
0.0
 10
21.77648277381789
 20
9.14707364439019
 30
0.0
  0
SPLINE
  5
50F
330
1F
100
AcDbEntity
  8
0
  6
Continuous
 62
     1
370
    15
100
AcDbSpline
210
0.0
220
0.0
230
1.0
 70
     8
 71
     3
 72
    10
 73
     6
 74
     0
 42
0.000000001
 43
0.00000001
 40
0.0
 40
0.0
 40
0.0
 40
0.0
 40
0.4999999999999998
 40
0.4999999999999998
 40
1.0
 40
1.0
 40
1.0
 40
1.0
 10
21.77648277381789
 20
9.147073644390161
 30
0.0
 10
21.83044378116142
 20
9.118293370567443
 30
0.0
 10
21.89418471110841
 20
9.10387438176204
 30
0.0
 10
22.03380280471072
 20
9.111891484588938
 30
0.0
 10
22.10973754857918
 20
9.135589410674072
 30
0.0
 10
22.17660313436403
 20
9.181534301610043
 30
0.0
  0
SPLINE
  5
510
330
1F
100
AcDbEntity
  8
0
  6
Continuous
 62
     1
370
    15
100
AcDbSpline
210
0.0
220
0.0
230
1.0
 70
     8
 71
     3
 72
    10
 73
     6
 74
     0
 42
0.000000001
 43
0.00000001
 40
0.0
 40
0.0
 40
0.0
 40
0.0
 40
0.5
 40
0.5
 40
1.0
 40
1.0
 40
1.0
 40
1.0
 10
22.17660313436403
 20
9.181534301610043
 30
0.0
 10
22.43873171542381
 20
9.361648914031747
 30
0.0
 10
22.72643306686814
 20
9.455459224216952
 30
0.0
 10
23.27563935797016
 20
9.477593095613116
 30
0.0
 10
23.53151161271396
 20
9.406642994633614
 30
0.0
 10
23.7448564179868
 20
9.271675979481842
 30
0.0
  0
SPLINE
  5
511
330
1F
100
AcDbEntity
  8
0
  6
Continuous
 62
     1
370
    15
100
AcDbSpline
210
0.0
220
0.0
230
1.0
 70
     8
 71
     3
 72
    10
 73
     6
 74
     0
 42
0.000000001
 43
0.00000001
 40
0.0
 40
0.0
 40
0.0
 40
0.0
 40
0.5
 40
0.5
 40
1.0
 40
1.0
 40
1.0
 40
1.0
 10
23.74485641798677
 20
9.27167597948187
 30
0.0
 10
23.79916099658891
 20
9.23732160711441
 30
0.0
 10
23.86313965975054
 20
9.217708072549584
 30
0.0
 10
24.00297639307325
 20
9.217543647518738
 30
0.0
 10
24.07882416419443
 20
9.238394613281827
 30
0.0
 10
24.14522723677322
 20
9.283402616221792
 30
0.0
  0
SPLINE
  5
512
330
1F
100
AcDbEntity
  8
0
  6
Continuous
 62
     1
370
    15
100
AcDbSpline
210
0.0
220
0.0
230
1.0
 70
     8
 71
     3
 72
     8
 73
     4
 74
     0
 42
0.000000001
 43
0.00000001
 40
0.0
 40
0.0
 40
0.0
 40
0.0
 40
1.0
 40
1.0
 40
1.0
 40
1.0
 10
24.1452272367732
 20
9.28340261622185
 30
0.0
 10
24.34391910170146
 20
9.41807596330571
 30
0.0
 10
24.561406100749
 20
9.497998165222924
 30
0.0
 10
24.77572709975422
 20
9.524955465727231
 30
0.0
  0
SPLINE
  5
513
330
1F
100
AcDbEntity
  8
0
  6
Continuous
 62
     1
370
    15
100
AcDbSpline
210
0.0
220
0.0
230
1.0
 70
     8
 71
     3
 72
     8
 73
     4
 74
     0
 42
0.000000001
 43
0.00000001
 40
0.0
 40
0.0
 40
0.0
 40
0.0
 40
1.0
 40
1.0
 40
1.0
 40
1.0
 10
24.77572706970676
 20
9.524955469421883
 30
0.0
 10
25.00343452419872
 20
9.496957662687578
 30
0.0
 10
25.21522976147898
 20
9.410106946674802
 30
0.0
 10
25.39406265019898
 20
9.278361736618507
 30
0.0
  0
SPLINE
  5
514
330
1F
100
AcDbEntity
  8
0
  6
Continuous
 62
     1
370
    15
100
AcDbSpline
210
0.0
220
0.0
230
1.0
 70
     8
 71
     3
 72
    10
 73
     6
 74
     0
 42
0.000000001
 43
0.00000001
 40
0.0
 40
0.0
 40
0.0
 40
0.0
 40
0.5
 40
0.5
 40
1.0
 40
1.0
 40
1.0
 40
1.0
 10
25.394062650199
 20
9.278361736618479
 30
0.0
 10
25.44806882697992
 20
9.238575681853831
 30
0.0
 10
25.51185279672526
 20
9.213647861467592
 30
0.0
 10
25.65153457994623
 20
9.20396439477338
 30
0.0
 10
25.72752133016292
 20
9.220646221254299
 30
0.0
 10
25.79444798037699
 20
9.263212190701154
 30
0.0
  0
SPLINE
  5
515
330
1F
100
AcDbEntity
  8
0
  6
Continuous
 62
     1
370
    15
100
AcDbSpline
210
0.0
220
0.0
230
1.0
 70
     8
 71
     3
 72
    10
 73
     6
 74
     0
 42
0.000000001
 43
0.00000001
 40
0.0
 40
0.0
 40
0.0
 40
0.0
 40
0.5
 40
0.5
 40
1.0
 40
1.0
 40
1.0
 40
1.0
 10
25.79444798037696
 20
9.263212190701182
 30
0.0
 10
26.05687703012686
 20
9.430119497101515
 30
0.0
 10
26.34492472265805
 20
9.492425991718875
 30
0.0
 10
26.89468205476086
 20
9.443933598238686
 30
0.0
 10
27.15080292185266
 20
9.33428893690703
 30
0.0
 10
27.36451456154805
 20
9.160099461457577
 30
0.0
  0
SPLINE
  5
516
330
1F
100
AcDbEntity
  8
0
  6
Continuous
 62
     1
370
    15
100
AcDbSpline
210
0.0
220
0.0
230
1.0
 70
     8
 71
     3
 72
    10
 73
     6
 74
     0
 42
0.000000001
 43
0.00000001
 40
0.0
 40
0.0
 40
0.0
 40
0.0
 40
0.499999999999993
 40
0.499999999999993
 40
1.0
 40
1.0
 40
1.0
 40
1.0
 10
27.36451456154808
 20
9.160099461457548
 30
0.0
 10
27.41893428339824
 20
9.11574369863294
 30
0.0
 10
27.48302220045335
 20
9.086262318091457
 30
0.0
 10
27.6230325522283
 20
9.06869560098383
 30
0.0
 10
27.69898279119028
 20
9.082160503366566
 30
0.0
 10
27.76548282655187
 20
9.122805059933683
 30
0.0
  0
SPLINE
  5
517
330
1F
100
AcDbEntity
  8
0
  6
Continuous
 62
     1
370
    15
100
AcDbSpline
210
0.0
220
0.0
230
1.0
 70
     8
 71
     3
 72
     8
 73
     4
 74
     0
 42
0.000000001
 43
0.00000001
 40
0.0
 40
0.0
 40
0.0
 40
0.0
 40
1.0
 40
1.0
 40
1.0
 40
1.0
 10
27.76548282655187
 20
9.122805059933711
 30
0.0
 10
27.96436953218318
 20
9.244363821722715
 30
0.0
 10
28.18203883414591
 20
9.301296240259632
 30
0.0
 10
28.39651039791806
 20
9.302822811467763
 30
0.0
  0
SPLINE
  5
518
330
1F
100
AcDbEntity
  8
0
  6
Continuous
 62
     1
370
    15
100
AcDbSpline
210
0.0
220
0.0
230
1.0
 70
     8
 71
     3
 72
     8
 73
     4
 74
     0
 42
0.000000001
 43
0.00000001
 40
0.0
 40
0.0
 40
0.0
 40
0.0
 40
1.0
 40
1.0
 40
1.0
 40
1.0
 10
28.3965103678257
 20
9.302822819165243
 30
0.0
 10
28.62438415474907
 20
9.244527884957478
 30
0.0
 10
28.8363580078427
 20
9.12670925369406
 30
0.0
 10
29.01533018880878
 20
8.964671876521038
 30
0.0
  0
SPLINE
  5
519
330
1F
100
AcDbEntity
  8
0
  6
Continuous
 62
     1
370
    15
100
AcDbSpline
210
0.0
220
0.0
230
1.0
 70
     8
 71
     3
 72
    10
 73
     6
 74
     0
 42
0.000000001
 43
0.00000001
 40
0.0
 40
0.0
 40
0.0
 40
0.0
 40
0.5
 40
0.5
 40
1.0
 40
1.0
 40
1.0
 40
1.0
 10
29.01533018880878
 20
8.964671876521038
 30
0.0
 10
29.06933631295703
 20
8.915775949449994
 30
0.0
 10
29.13310281424214
 20
8.881496626815874
 30
0.0
 10
29.27280491783807
 20
8.854535646559725
 30
0.0
 10
29.3488239375383
 20
8.863414828225274
 30
0.0
 10
29.4157622073723
 20
8.90055211381781
 30
0.0
  0
SPLINE
  5
51A
330
1F
100
AcDbEntity
  8
0
  6
Continuous
 62
     1
370
    15
100
AcDbSpline
210
0.0
220
0.0
230
1.0
 70
     8
 71
     3
 72
    10
 73
     6
 74
     0
 42
0.000000001
 43
0.00000001
 40
0.0
 40
0.0
 40
0.0
 40
0.0
 40
0.5000000000000001
 40
0.5000000000000001
 40
1.0
 40
1.0
 40
1.0
 40
1.0
 10
29.4157622073723
 20
8.900552113817866
 30
0.0
 10
29.67801594682055
 20
9.046050227882631
 30
0.0
 10
29.96587223878583
 20
9.074035668130989
 30
0.0
 10
30.51531260939157
 20
8.95753097044522
 30
0.0
 10
30.77127725786065
 20
8.814534505168098
 30
0.0
 10
30.98467183756435
 20
8.609311104335063
 30
0.0
  0
SPLINE
  5
51B
330
1F
100
AcDbEntity
  8
0
  6
Continuous
 62
     1
370
    15
100
AcDbSpline
210
0.0
220
0.0
230
1.0
 70
     8
 71
     3
 72
    10
 73
     6
 74
     0
 42
0.000000001
 43
0.00000001
 40
0.0
 40
0.0
 40
0.0
 40
0.0
 40
0.5
 40
0.5
 40
1.0
 40
1.0
 40
1.0
 40
1.0
 10
30.98467183756435
 20
8.609311104335063
 30
0.0
 10
31.03897935256796
 20
8.557083100534271
 30
0.0
 10
31.10295768737799
 20
8.519156763670566
 30
0.0
 10
31.24278931928518
 20
8.48510480790668
 30
0.0
 10
31.31863290208159
 20
8.490615371220201
 30
0.0
 10
31.38503345326436
 20
8.524886246905083
 30
0.0
  0
SPLINE
  5
51C
330
1F
100
AcDbEntity
  8
0
  6
Continuous
 62
     1
370
    15
100
AcDbSpline
210
0.0
220
0.0
230
1.0
 70
     8
 71
     3
 72
     8
 73
     4
 74
     0
 42
0.000000001
 43
0.00000001
 40
0.0
 40
0.0
 40
0.0
 40
0.0
 40
1.0
 40
1.0
 40
1.0
 40
1.0
 10
31.38503345326436
 20
8.524886246905112
 30
0.0
 10
31.58371486580108
 20
8.627430365420025
 30
0.0
 10
31.80116878487451
 20
8.658767451894306
 30
0.0
 10
32.01542828517
 20
8.634828465268725
 30
0.0
  0
SPLINE
  5
51D
330
1F
100
AcDbEntity
  8
0
  6
Continuous
 62
     1
370
    15
100
AcDbSpline
210
0.0
220
0.0
230
1.0
 70
     8
 71
     3
 72
     8
 73
     4
 74
     0
 42
0.000000001
 43
0.00000001
 40
0.0
 40
0.0
 40
0.0
 40
0.0
 40
1.0
 40
1.0
 40
1.0
 40
1.0
 10
32.01542825513272
 20
8.63482847658807
 30
0.0
 10
32.24303025368548
 20
8.549059474683219
 30
0.0
 10
32.45466366950964
 20
8.405906445343987
 30
0.0
 10
32.63337962439229
 20
8.221501290938392
 30
0.0
  0
SPLINE
  5
51E
330
1F
100
AcDbEntity
  8
0
  6
Continuous
 62
     1
370
    15
100
AcDbSpline
210
0.0
220
0.0
230
1.0
 70
     8
 71
     3
 72
    10
 73
     6
 74
     0
 42
0.000000001
 43
0.00000001
 40
0.0
 40
0.0
 40
0.0
 40
0.0
 40
0.5
 40
0.5
 40
1.0
 40
1.0
 40
1.0
 40
1.0
 10
32.63337962439232
 20
8.221501290938363
 30
0.0
 10
32.68731597744494
 20
8.165847941357555
 30
0.0
 10
32.75103483271823
 20
8.123904296249293
 30
0.0
 10
32.89065627384133
 20
8.081064507263306
 30
0.0
 10
32.96662153289972
 20
8.08177252819786
 30
0.0
 10
33.03350372382411
 20
8.111700591260615
 30
0.0
  0
SPLINE
  5
51F
330
1F
100
AcDbEntity
  8
0
  6
Continuous
 62
     1
370
    15
100
AcDbSpline
210
0.0
220
0.0
230
1.0
 70
     8
 71
     3
 72
    10
 73
     6
 74
     0
 42
0.000000001
 43
0.00000001
 40
0.0
 40
0.0
 40
0.0
 40
0.0
 40
0.5
 40
0.5
 40
1.0
 40
1.0
 40
1.0
 40
1.0
 10
33.03350372382408
 20
8.111700591260643
 30
0.0
 10
33.29566771991935
 20
8.22901224776416
 30
0.0
 10
33.58347436375109
 20
8.221380454351475
 30
0.0
 10
34.1327499810476
 20
8.042392711971644
 30
0.0
 10
34.38859741709496
 20
7.872862913116393
 30
0.0
 10
34.6019133941659
 20
7.646630136679562
 30
0.0
  0
SPLINE
  5
520
330
1F
100
AcDbEntity
  8
0
  6
Continuous
 62
     1
370
    15
100
AcDbSpline
210
0.0
220
0.0
230
1.0
 70
     8
 71
     3
 72
    10
 73
     6
 74
     0
 42
0.000000001
 43
0.00000001
 40
0.0
 40
0.0
 40
0.0
 40
0.0
 40
0.5
 40
0.5
 40
1.0
 40
1.0
 40
1.0
 40
1.0
 10
34.6019133941659
 20
7.646630136679562
 30
0.0
 10
34.65622911737063
 20
7.58902546480499
 30
0.0
 10
34.7202180440874
 20
7.544467636508728
 30
0.0
 10
34.86006330991773
 20
7.495520830281606
 30
0.0
 10
34.93591347067002
 20
7.492765066770232
 30
0.0
 10
35.00232378889851
 20
7.519047232301119
 30
0.0
  0
SPLINE
  5
521
330
1F
100
AcDbEntity
  8
0
  6
Continuous
 62
     1
370
    15
100
AcDbSpline
210
0.0
220
0.0
230
1.0
 70
     8
 71
     3
 72
     8
 73
     4
 74
     0
 42
0.000000001
 43
0.00000001
 40
0.0
 40
0.0
 40
0.0
 40
0.0
 40
1.0
 40
1.0
 40
1.0
 40
1.0
 10
35.00232378889851
 20
7.519047232301119
 30
0.0
 10
35.20106517843521
 20
7.597699981406606
 30
0.0
 10
35.41857054324481
 20
7.601809759382547
 30
0.0
 10
35.63285772389614
 20
7.553473369417674
 30
0.0
  0
SPLINE
  5
522
330
1F
100
AcDbEntity
  8
0
  6
Continuous
 62
     1
370
    15
100
AcDbSpline
210
0.0
220
0.0
230
1.0
 70
     8
 71
     3
 72
     8
 73
     4
 74
     0
 42
0.000000001
 43
0.00000001
 40
0.0
 40
0.0
 40
0.0
 40
0.0
 40
1.0
 40
1.0
 40
1.0
 40
1.0
 10
35.63285769383455
 20
7.553473383837741
 30
0.0
 10
35.86058647376436
 20
7.444230844782567
 30
0.0
 10
36.07233347825604
 20
7.282496594487412
 30
0.0
 10
36.25129836654833
 20
7.084475301646961
 30
0.0
  0
SPLINE
  5
523
330
1F
100
AcDbEntity
  8
0
  6
Continuous
 62
     1
370
    15
100
AcDbSpline
210
0.0
220
0.0
230
1.0
 70
     8
 71
     3
 72
    10
 73
     6
 74
     0
 42
0.000000001
 43
0.00000001
 40
0.0
 40
0.0
 40
0.0
 40
0.0
 40
0.5
 40
0.5
 40
1.0
 40
1.0
 40
1.0
 40
1.0
 10
36.25129836654838
 20
7.084475301646904
 30
0.0
 10
36.30530571547692
 20
7.024717182835076
 30
0.0
 10
36.36909589410777
 20
6.977102637559483
 30
0.0
 10
36.50883406440727
 20
6.920382178773878
 30
0.0
 10
36.58486084819646
 20
6.912830021299385
 30
0.0
 10
36.65179924184622
 20
6.934135752565879
 30
0.0
  0
SPLINE
  5
524
330
1F
100
AcDbEntity
  8
0
  6
Continuous
 62
     1
370
    15
100
AcDbSpline
210
0.0
220
0.0
230
1.0
 70
     8
 71
     3
 72
    10
 73
     6
 74
     0
 42
0.000000001
 43
0.00000001
 40
0.0
 40
0.0
 40
0.0
 40
0.0
 40
0.5
 40
0.5
 40
1.0
 40
1.0
 40
1.0
 40
1.0
 10
36.65179924184622
 20
6.934135752565908
 30
0.0
 10
36.9143217668246
 20
7.017693693885121
 30
0.0
 10
37.20251934823222
 20
6.974520076648872
 30
0.0
 10
37.75242807723808
 20
6.741260314619467
 30
0.0
 10
38.00859789218288
 20
6.553206053123944
 30
0.0
 10
38.22229176100106
 20
6.316571327319707
 30
0.0
  0
SPLINE
  5
525
330
1F
100
AcDbEntity
  8
0
  6
Continuous
 62
     1
370
    15
100
AcDbSpline
210
0.0
220
0.0
230
1.0
 70
     8
 71
     3
 72
    10
 73
     6
 74
     0
 42
0.000000001
 43
0.00000001
 40
0.0
 40
0.0
 40
0.0
 40
0.0
 40
0.5
 40
0.5
 40
1.0
 40
1.0
 40
1.0
 40
1.0
 10
38.22229176100106
 20
6.316571327319707
 30
0.0
 10
38.27669694151842
 20
6.256325541863845
 30
0.0
 10
38.34076395484715
 20
6.207226498458539
 30
0.0
 10
38.48073413847609
 20
6.14563237398778
 30
0.0
 10
38.55666032075965
 20
6.134678150475423
 30
0.0
 10
38.62314340924871
 20
6.151695120391423
 30
0.0
  0
SPLINE
  5
526
330
1F
100
AcDbEntity
  8
0
  6
Continuous
 62
     1
370
    15
100
AcDbSpline
210
0.0
220
0.0
230
1.0
 70
     8
 71
     3
 72
     8
 73
     4
 74
     0
 42
0.000000001
 43
0.00000001
 40
0.0
 40
0.0
 40
0.0
 40
0.0
 40
1.0
 40
1.0
 40
1.0
 40
1.0
 10
38.62314340924871
 20
6.151695120391423
 30
0.0
 10
38.82201589175224
 20
6.202598397131283
 30
0.0
 10
39.0396328805727
 20
6.17917606488038
 30
0.0
 10
39.25400372929849
 20
6.108665766345979
 30
0.0
  0
SPLINE
  5
527
330
1F
100
AcDbEntity
  8
0
  6
Continuous
 62
     1
370
    15
100
AcDbSpline
210
0.0
220
0.0
230
1.0
 70
     8
 71
     3
 72
     8
 73
     4
 74
     0
 42
0.000000001
 43
0.00000001
 40
0.0
 40
0.0
 40
0.0
 40
0.0
 40
1.0
 40
1.0
 40
1.0
 40
1.0
 10
39.25400369923079
 20
6.108665783180129
 30
0.0
 10
39.48173051244385
 20
5.98116846224417
 30
0.0
 10
39.69358284974811
 20
5.80871204772248
 30
0.0
 10
39.87260585069762
 20
5.606572904308507
 30
0.0
  0
SPLINE
  5
528
330
1F
100
AcDbEntity
  8
0
  6
Continuous
 62
     1
370
    15
100
AcDbSpline
210
0.0
220
0.0
230
1.0
 70
     8
 71
     3
 72
    10
 73
     6
 74
     0
 42
0.000000001
 43
0.00000001
 40
0.0
 40
0.0
 40
0.0
 40
0.0
 40
0.5
 40
0.5
 40
1.0
 40
1.0
 40
1.0
 40
1.0
 10
39.87260585069765
 20
5.606572904308507
 30
0.0
 10
39.92659662225699
 20
5.545610635452647
 30
0.0
 10
39.9903658745213
 20
5.494633453759661
 30
0.0
 10
40.13007164931341
 20
5.426809279535519
 30
0.0
 10
40.20607661611734
 20
5.411410229283206
 30
0.0
 10
40.27298744297394
 20
5.423072935428877
 30
0.0
  0
SPLINE
  5
529
330
1F
100
AcDbEntity
  8
0
  6
Continuous
 62
     1
370
    15
100
AcDbSpline
210
0.0
220
0.0
230
1.0
 70
     8
 71
     3
 72
    10
 73
     6
 74
     0
 42
0.000000001
 43
0.00000001
 40
0.0
 40
0.0
 40
0.0
 40
0.0
 40
0.5
 40
0.5
 40
1.0
 40
1.0
 40
1.0
 40
1.0
 10
40.27298744297394
 20
5.423072935428905
 30
0.0
 10
40.53523620190518
 20
5.468783478194212
 30
0.0
 10
40.8231376978498
 20
5.392589817524083
 30
0.0
 10
41.37252887054967
 20
5.116895973132586
 30
0.0
 10
41.62840754472953
 20
4.919519213987286
 30
0.0
 10
41.84170731427503
 20
4.684031000697559
 30
0.0
  0
SPLINE
  5
52A
330
1F
100
AcDbEntity
  8
0
  6
Continuous
 62
     1
370
    15
100
AcDbSpline
210
0.0
220
0.0
230
1.0
 70
     8
 71
     3
 72
    10
 73
     6
 74
     0
 42
0.000000001
 43
0.00000001
 40
0.0
 40
0.0
 40
0.0
 40
0.0
 40
0.5
 40
0.5
 40
1.0
 40
1.0
 40
1.0
 40
1.0
 10
41.84170731427503
 20
4.684031000697559
 30
0.0
 10
41.89600901175481
 20
4.624080585629713
 30
0.0
 10
41.95998090803894
 20
4.572863443378822
 30
0.0
 10
42.09979161646356
 20
4.50172377303349
 30
0.0
 10
42.17562306472229
 20
4.483205526430993
 30
0.0
 10
42.24202064080797
 20
4.490142391655411
 30
0.0
  0
SPLINE
  5
52B
330
1F
100
AcDbEntity
  8
0
  6
Continuous
 62
     1
370
    15
100
AcDbSpline
210
0.0
220
0.0
230
1.0
 70
     8
 71
     3
 72
     8
 73
     4
 74
     0
 42
0.000000001
 43
0.00000001
 40
0.0
 40
0.0
 40
0.0
 40
0.0
 40
1.0
 40
1.0
 40
1.0
 40
1.0
 10
42.24202064080797
 20
4.490142391655439
 30
0.0
 10
42.44072567839504
 20
4.510902036004126
 30
0.0
 10
42.65815977909492
 20
4.461248274708822
 30
0.0
 10
42.87234483490727
 20
4.372049966361544
 30
0.0
  0
SPLINE
  5
52C
330
1F
100
AcDbEntity
  8
0
  6
Continuous
 62
     1
370
    15
100
AcDbSpline
210
0.0
220
0.0
230
1.0
 70
     8
 71
     3
 72
     8
 73
     4
 74
     0
 42
0.000000001
 43
0.00000001
 40
0.0
 40
0.0
 40
0.0
 40
0.0
 40
1.0
 40
1.0
 40
1.0
 40
1.0
 10
42.87234480487413
 20
4.372049984787253
 30
0.0
 10
43.09977439407942
 20
4.232519890663383
 30
0.0
 10
43.31148125717937
 20
4.057836126610283
 30
0.0
 10
43.49028932657029
 20
3.861502912018693
 30
0.0
  0
SPLINE
  5
52D
330
1F
100
AcDbEntity
  8
0
  6
Continuous
 62
     1
370
    15
100
AcDbSpline
210
0.0
220
0.0
230
1.0
 70
     8
 71
     3
 72
    10
 73
     6
 74
     0
 42
0.000000001
 43
0.00000001
 40
0.0
 40
0.0
 40
0.0
 40
0.0
 40
0.5
 40
0.5
 40
1.0
 40
1.0
 40
1.0
 40
1.0
 10
43.49028932657029
 20
3.861502912018693
 30
0.0
 10
43.5442378400117
 20
3.802266854594251
 30
0.0
 10
43.60797115457896
 20
3.750392941363828
 30
0.0
 10
43.74761821455181
 20
3.674761468523286
 30
0.0
 10
43.82358317787165
 20
3.65227757293431
 30
0.0
 10
43.89045350075861
 20
3.653755791876932
 30
0.0
  0
SPLINE
  5
52E
330
1F
100
AcDbEntity
  8
0
  6
Continuous
 62
     1
370
    15
100
AcDbSpline
210
0.0
220
0.0
230
1.0
 70
     8
 71
     3
 72
    10
 73
     6
 74
     0
 42
0.000000001
 43
0.00000001
 40
0.0
 40
0.0
 40
0.0
 40
0.0
 40
0.5
 40
0.5
 40
1.0
 40
1.0
 40
1.0
 40
1.0
 10
43.89045350075861
 20
3.653755791876961
 30
0.0
 10
44.15268103479039
 20
3.659552529373457
 30
0.0
 10
44.44059172717212
 20
3.553802840677662
 30
0.0
 10
44.9899185935605
 20
3.24855066684799
 30
0.0
 10
45.24573100424922
 20
3.051193711628855
 30
0.0
 10
45.45901922061708
 20
2.828062742001009
 30
0.0
  0
SPLINE
  5
52F
330
1F
100
AcDbEntity
  8
0
  6
Continuous
 62
     1
370
    15
100
AcDbSpline
210
0.0
220
0.0
230
1.0
 70
     8
 71
     3
 72
    10
 73
     6
 74
     0
 42
0.000000001
 43
0.00000001
 40
0.0
 40
0.0
 40
0.0
 40
0.0
 40
0.5
 40
0.5
 40
1.0
 40
1.0
 40
1.0
 40
1.0
 10
45.45901922061708
 20
2.828062742001009
 30
0.0
 10
45.51334573043968
 20
2.771229190576378
 30
0.0
 10
45.57734356503991
 20
2.720290031442772
 30
0.0
 10
45.71719179274518
 20
2.642893135014191
 30
0.0
 10
45.79304533350336
 20
2.617611826883291
 30
0.0
 10
45.8594692615608
 20
2.614120837705343
 30
0.0
  0
SPLINE
  5
530
330
1F
100
AcDbEntity
  8
0
  6
Continuous
 62
     1
370
    15
100
AcDbSpline
210
0.0
220
0.0
230
1.0
 70
     8
 71
     3
 72
     8
 73
     4
 74
     0
 42
0.000000001
 43
0.00000001
 40
0.0
 40
0.0
 40
0.0
 40
0.0
 40
1.0
 40
1.0
 40
1.0
 40
1.0
 10
45.85946926156078
 20
2.614120837705372
 30
0.0
 10
46.05826686681652
 20
2.603672791213
 30
0.0
 10
46.27572419495158
 20
2.529851492334473
 30
0.0
 10
46.49003566141451
 20
2.426241950049359
 30
0.0
  0
SPLINE
  5
531
330
1F
100
AcDbEntity
  8
0
  6
Continuous
 62
     1
370
    15
100
AcDbSpline
210
0.0
220
0.0
230
1.0
 70
     8
 71
     3
 72
     8
 73
     4
 74
     0
 42
0.000000001
 43
0.00000001
 40
0.0
 40
0.0
 40
0.0
 40
0.0
 40
1.0
 40
1.0
 40
1.0
 40
1.0
 10
46.49003563135631
 20
2.42624196919104
 30
0.0
 10
46.71766827159033
 20
2.281280550854632
 30
0.0
 10
46.92961275654054
 20
2.112511618286931
 30
0.0
 10
47.10867816408913
 20
1.931152575062526
 30
0.0
  0
SPLINE
  5
532
330
1F
100
AcDbEntity
  8
0
  6
Continuous
 62
     1
370
    15
100
AcDbSpline
210
0.0
220
0.0
230
1.0
 70
     8
 71
     3
 72
    10
 73
     6
 74
     0
 42
0.000000001
 43
0.00000001
 40
0.0
 40
0.0
 40
0.0
 40
0.0
 40
0.5
 40
0.5
 40
1.0
 40
1.0
 40
1.0
 40
1.0
 10
47.10867816408916
 20
1.931152575062498
 30
0.0
 10
47.16271428168699
 20
1.876424312796331
 30
0.0
 10
47.22653423363849
 20
1.826077572824744
 30
0.0
 10
47.36632177835057
 20
1.746139881489654
 30
0.0
 10
47.44236355218297
 20
1.717561797100075
 30
0.0
 10
47.50930662905287
 20
1.708753782086035
 30
0.0
  0
SPLINE
  5
533
330
1F
100
AcDbEntity
  8
0
  6
Continuous
 62
     1
370
    15
100
AcDbSpline
210
0.0
220
0.0
230
1.0
 70
     8
 71
     3
 72
    10
 73
     6
 74
     0
 42
0.000000001
 43
0.00000001
 40
0.0
 40
0.0
 40
0.0
 40
0.0
 40
0.5000000000000001
 40
0.5000000000000001
 40
1.0
 40
1.0
 40
1.0
 40
1.0
 10
47.50930662905287
 20
1.708753782086092
 30
0.0
 10
47.77190340737471
 20
1.674202690707574
 30
0.0
 10
48.06018881779917
 20
1.543645632730659
 30
0.0
 10
48.61015171364741
 20
1.223043131321901
 30
0.0
 10
48.86630398701948
 20
1.034981196292421
 30
0.0
 10
49.07992115125145
 20
0.8346319249944258
 30
0.0
  0
SPLINE
  5
534
330
1F
100
AcDbEntity
  8
0
  6
Continuous
 62
     1
370
    15
100
AcDbSpline
210
0.0
220
0.0
230
1.0
 70
     8
 71
     3
 72
    10
 73
     6
 74
     0
 42
0.000000001
 43
0.00000001
 40
0.0
 40
0.0
 40
0.0
 40
0.0
 40
0.5
 40
0.5
 40
1.0
 40
1.0
 40
1.0
 40
1.0
 10
49.07992115125148
 20
0.8346319249944258
 30
0.0
 10
49.13430381629303
 20
0.7836270005938388
 30
0.0
 10
49.19834793491998
 20
0.7353856337286402
 30
0.0
 10
49.33826809164319
 20
0.655393560189566
 30
0.0
 10
49.41416776798056
 20
0.6245319141267203
 30
0.0
 10
49.48063787723052
 20
0.6107521269327094
 30
0.0
  0
SPLINE
  5
535
330
1F
100
AcDbEntity
  8
0
  6
Continuous
 62
     1
370
    15
100
AcDbSpline
210
0.0
220
0.0
230
1.0
 70
     8
 71
     3
 72
     8
 73
     4
 74
     0
 42
0.000000001
 43
0.00000001
 40
0.0
 40
0.0
 40
0.0
 40
0.0
 40
1.0
 40
1.0
 40
1.0
 40
1.0
 10
49.48063787723052
 20
0.6107521269327378
 30
0.0
 10
49.6794741548193
 20
0.569531770556921
 30
0.0
 10
49.89693312211145
 20
0.4751894921708129
 30
0.0
 10
50.11134340593878
 20
0.3621940787128892
 30
0.0
  0
SPLINE
  5
536
330
1F
100
AcDbEntity
  8
0
  6
Continuous
 62
     1
370
    15
100
AcDbSpline
210
0.0
220
0.0
230
1.0
 70
     8
 71
     3
 72
     8
 73
     4
 74
     0
 42
0.000000001
 43
0.00000001
 40
0.0
 40
0.0
 40
0.0
 40
0.0
 40
1.0
 40
1.0
 40
1.0
 40
1.0
 10
50.1113433758708
 20
0.3621940976377402
 30
0.0
 10
50.33894229369565
 20
0.2189410033687409
 30
0.0
 10
50.55085716627568
 20
0.0643123185811305
 30
0.0
 10
50.72982036203592
 20
-0.0932187993102218
 30
0.0
  0
SPLINE
  5
537
330
1F
100
AcDbEntity
  8
0
  6
Continuous
 62
     1
370
    15
100
AcDbSpline
210
0.0
220
0.0
230
1.0
 70
     8
 71
     3
 72
    10
 73
     6
 74
     0
 42
0.000000001
 43
0.00000001
 40
0.0
 40
0.0
 40
0.0
 40
0.0
 40
0.5
 40
0.5
 40
1.0
 40
1.0
 40
1.0
 40
1.0
 10
50.72982036203592
 20
-0.0932187993102218
 30
0.0
 10
50.78380614447289
 20
-0.1407394116987462
 30
0.0
 10
50.8475729360386
 20
-0.1870759091928562
 30
0.0
 10
50.98727446838004
 20
-0.2673628685998608
 30
0.0
 10
51.06326450336695
 20
-0.3005801610315757
 30
0.0
 10
51.13015306789066
 20
-0.3192176793312456
 30
0.0
  0
SPLINE
  5
538
330
1F
100
AcDbEntity
  8
0
  6
Continuous
 62
     1
370
    15
100
AcDbSpline
210
0.0
220
0.0
230
1.0
 70
     8
 71
     3
 72
     8
 73
     4
 74
     0
 42
0.000000001
 43
0.00000001
 40
0.0
 40
0.0
 40
0.0
 40
0.0
 40
1.0
 40
1.0
 40
1.0
 40
1.0
 10
53.27500102818013
 20
-3.766232516623148
 30
0.0
 10
52.55929070399435
 20
-2.834370876198363
 30
0.0
 10
51.84238237335629
 20
-1.933670582952971
 30
0.0
 10
51.12987673134552
 20
-1.081041424372671
 30
0.0
  0
LINE
  5
539
330
1F
100
AcDbEntity
  8
0
  6
Continuous
 62
     1
370
    15
100
AcDbLine
 10
53.27500000000001
 20
-6.45482470281425
 30
0.0
 11
53.27500000000001
 21
-3.766232519410579
 31
0.0
  0
SPLINE
  5
53A
330
1F
100
AcDbEntity
  8
0
  6
Continuous
 62
     1
370
    15
100
AcDbSpline
210
0.0
220
0.0
230
1.0
 70
     8
 71
     3
 72
     8
 73
     4
 74
     0
 42
0.000000001
 43
0.00000001
 40
0.0
 40
0.0
 40
0.0
 40
0.0
 40
1.0
 40
1.0
 40
1.0
 40
1.0
 10
53.05160839025567
 20
-6.591499574714135
 30
0.0
 10
53.12581540625044
 20
-6.548874831294086
 30
0.0
 10
53.20026451416479
 20
-6.50341801527216
 30
0.0
 10
53.27500102818013
 20
-6.454824370589961
 30
0.0
  0
SPLINE
  5
53B
330
1F
100
AcDbEntity
  8
0
  6
Continuous
 62
     1
370
    15
100
AcDbSpline
210
0.0
220
0.0
230
1.0
 70
     8
 71
     3
 72
     8
 73
     4
 74
     0
 42
0.000000001
 43
0.00000001
 40
0.0
 40
0.0
 40
0.0
 40
0.0
 40
1.0
 40
1.0
 40
1.0
 40
1.0
 10
53.05160839025464
 20
-6.591499574712572
 30
0.0
 10
52.9418982424715
 20
-6.505979883546701
 30
0.0
 10
52.83953832376864
 20
-6.409965868306216
 30
0.0
 10
52.74563655499551
 20
-6.304223500628069
 30
0.0
  0
SPLINE
  5
53C
330
1F
100
AcDbEntity
  8
0
  6
Continuous
 62
     1
370
    15
100
AcDbSpline
210
0.0
220
0.0
230
1.0
 70
     8
 71
     3
 72
    10
 73
     6
 74
     0
 42
0.000000001
 43
0.00000001
 40
0.0
 40
0.0
 40
0.0
 40
0.0
 40
0.5
 40
0.5
 40
1.0
 40
1.0
 40
1.0
 40
1.0
 10
52.74563655499551
 20
-6.304223500628069
 30
0.0
 10
52.69168480995515
 20
-6.243468678482799
 30
0.0
 10
52.6279481783879
 20
-6.193735173937455
 30
0.0
 10
52.48829586534259
 20
-6.130577156264991
 30
0.0
 10
52.41232660908474
 20
-6.118667481843801
 30
0.0
 10
52.34545097256225
 20
-6.134750447608468
 30
0.0
  0
SPLINE
  5
53D
330
1F
100
AcDbEntity
  8
0
  6
Continuous
 62
     1
370
    15
100
AcDbSpline
210
0.0
220
0.0
230
1.0
 70
     8
 71
     3
 72
    10
 73
     6
 74
     0
 42
0.000000001
 43
0.00000001
 40
0.0
 40
0.0
 40
0.0
 40
0.0
 40
0.5
 40
0.5
 40
1.0
 40
1.0
 40
1.0
 40
1.0
 10
52.34545097256228
 20
-6.134750447608468
 30
0.0
 10
52.08319621283184
 20
-6.197820267077731
 30
0.0
 10
51.79525796147161
 20
-6.136134738983372
 30
0.0
 10
51.24587212329979
 20
-5.87797380670446
 30
0.0
 10
50.99002528191784
 20
-5.683608800681128
 30
0.0
 10
50.77668650948419
 20
-5.446255519537686
 30
0.0
  0
SPLINE
  5
53E
330
1F
100
AcDbEntity
  8
0
  6
Continuous
 62
     1
370
    15
100
AcDbSpline
210
0.0
220
0.0
230
1.0
 70
     8
 71
     3
 72
    10
 73
     6
 74
     0
 42
0.000000001
 43
0.00000001
 40
0.0
 40
0.0
 40
0.0
 40
0.0
 40
0.5
 40
0.5
 40
1.0
 40
1.0
 40
1.0
 40
1.0
 10
50.77668650948419
 20
-5.446255519537686
 30
0.0
 10
50.72234552496897
 20
-5.385797634512301
 30
0.0
 10
50.65833333892138
 20
-5.335215925059998
 30
0.0
 10
50.51846043788578
 20
-5.267915609735013
 30
0.0
 10
50.44259287348257
 20
-5.252666753617433
 30
0.0
 10
50.37615671868494
 20
-5.264153149587628
 30
0.0
  0
SPLINE
  5
53F
330
1F
100
AcDbEntity
  8
0
  6
Continuous
 62
     1
370
    15
100
AcDbSpline
210
0.0
220
0.0
230
1.0
 70
     8
 71
     3
 72
     8
 73
     4
 74
     0
 42
0.000000001
 43
0.00000001
 40
0.0
 40
0.0
 40
0.0
 40
0.0
 40
1.0
 40
1.0
 40
1.0
 40
1.0
 10
50.37615671868491
 20
-5.264153149587628
 30
0.0
 10
50.17732447492435
 20
-5.29853000192702
 30
0.0
 10
49.95980782962357
 20
-5.26016953024498
 30
0.0
 10
49.74548456468463
 20
-5.178787690663285
 30
0.0
  0
SPLINE
  5
540
330
1F
100
AcDbEntity
  8
0
  6
Continuous
 62
     1
370
    15
100
AcDbSpline
210
0.0
220
0.0
230
1.0
 70
     8
 71
     3
 72
     8
 73
     4
 74
     0
 42
0.000000001
 43
0.00000001
 40
0.0
 40
0.0
 40
0.0
 40
0.0
 40
1.0
 40
1.0
 40
1.0
 40
1.0
 10
49.74548456469546
 20
-5.178787690668372
 30
0.0
 10
49.51779236569809
 20
-5.043743732306808
 30
0.0
 10
49.30578282852488
 20
-4.869051221636653
 30
0.0
 10
49.12663769208919
 20
-4.66891782162233
 30
0.0
  0
SPLINE
  5
541
330
1F
100
AcDbEntity
  8
0
  6
Continuous
 62
     1
370
    15
100
AcDbSpline
210
0.0
220
0.0
230
1.0
 70
     8
 71
     3
 72
    10
 73
     6
 74
     0
 42
0.000000001
 43
0.00000001
 40
0.0
 40
0.0
 40
0.0
 40
0.0
 40
0.5
 40
0.5
 40
1.0
 40
1.0
 40
1.0
 40
1.0
 10
49.12663769208919
 20
-4.66891782162233
 30
0.0
 10
49.07257949836577
 20
-4.608526284772609
 30
0.0
 10
49.00873840762327
 20
-4.556726803089362
 30
0.0
 10
48.86891642299992
 20
-4.484116135744131
 30
0.0
 10
48.79285347809315
 20
-4.464646234697767
 30
0.0
 10
48.72588900716963
 20
-4.470707501039584
 30
0.0
  0
SPLINE
  5
542
330
1F
100
AcDbEntity
  8
0
  6
Continuous
 62
     1
370
    15
100
AcDbSpline
210
0.0
220
0.0
230
1.0
 70
     8
 71
     3
 72
    10
 73
     6
 74
     0
 42
0.000000001
 43
0.00000001
 40
0.0
 40
0.0
 40
0.0
 40
0.0
 40
0.5
 40
0.5
 40
1.0
 40
1.0
 40
1.0
 40
1.0
 10
48.72588900716963
 20
-4.470707501039584
 30
0.0
 10
48.46331628028778
 20
-4.494474182233091
 30
0.0
 10
48.17508081956899
 20
-4.401143680181065
 30
0.0
 10
47.62515129522981
 20
-4.107021540581826
 30
0.0
 10
47.36902076218007
 20
-3.90830634016632
 30
0.0
 10
47.15544939991761
 20
-3.678068487577775
 30
0.0
  0
SPLINE
  5
543
330
1F
100
AcDbEntity
  8
0
  6
Continuous
 62
     1
370
    15
100
AcDbSpline
210
0.0
220
0.0
230
1.0
 70
     8
 71
     3
 72
    10
 73
     6
 74
     0
 42
0.000000001
 43
0.00000001
 40
0.0
 40
0.0
 40
0.0
 40
0.0
 40
0.5
 40
0.5
 40
1.0
 40
1.0
 40
1.0
 40
1.0
 10
47.15544939991761
 20
-3.678068487577775
 30
0.0
 10
47.10108691196427
 20
-3.61946370857018
 30
0.0
 10
47.03706112134753
 20
-3.568054979258164
 30
0.0
 10
46.89716947650172
 20
-3.492914161943617
 30
0.0
 10
46.8212873223668
 20
-3.4704568375696
 30
0.0
 10
46.75483524821297
 20
-3.471590668673059
 30
0.0
  0
SPLINE
  5
544
330
1F
100
AcDbEntity
  8
0
  6
Continuous
 62
     1
370
    15
100
AcDbSpline
210
0.0
220
0.0
230
1.0
 70
     8
 71
     3
 72
     8
 73
     4
 74
     0
 42
0.000000001
 43
0.00000001
 40
0.0
 40
0.0
 40
0.0
 40
0.0
 40
1.0
 40
1.0
 40
1.0
 40
1.0
 10
46.75483524821297
 20
-3.471590668673088
 30
0.0
 10
46.55602964469008
 20
-3.474982767109253
 30
0.0
 10
46.33859876935287
 20
-3.411356113785075
 30
0.0
 10
46.12423684450974
 20
-3.313644385324153
 30
0.0
  0
SPLINE
  5
545
330
1F
100
AcDbEntity
  8
0
  6
Continuous
 62
     1
370
    15
100
AcDbSpline
210
0.0
220
0.0
230
1.0
 70
     8
 71
     3
 72
     8
 73
     4
 74
     0
 42
0.000000001
 43
0.00000001
 40
0.0
 40
0.0
 40
0.0
 40
0.0
 40
1.0
 40
1.0
 40
1.0
 40
1.0
 10
46.1242368445175
 20
-3.313644385329269
 30
0.0
 10
45.89669227272728
 20
-3.170368396095739
 30
0.0
 10
45.68483023387222
 20
-2.998058264805621
 30
0.0
 10
45.50591828453378
 20
-2.808965799759818
 30
0.0
  0
SPLINE
  5
546
330
1F
100
AcDbEntity
  8
0
  6
Continuous
 62
     1
370
    15
100
AcDbSpline
210
0.0
220
0.0
230
1.0
 70
     8
 71
     3
 72
    10
 73
     6
 74
     0
 42
0.000000001
 43
0.00000001
 40
0.0
 40
0.0
 40
0.0
 40
0.0
 40
0.5
 40
0.5
 40
1.0
 40
1.0
 40
1.0
 40
1.0
 10
45.50591828453378
 20
-2.808965799759818
 30
0.0
 10
45.45194538915874
 20
-2.751921718188555
 30
0.0
 10
45.38819044349171
 20
-2.700622538193159
 30
0.0
 10
45.24850809093562
 20
-2.622205782736415
 30
0.0
 10
45.17252833618224
 20
-2.596232631614413
 30
0.0
 10
45.10564890588273
 20
-2.592013971486978
 30
0.0
  0
SPLINE
  5
547
330
1F
100
AcDbEntity
  8
0
  6
Continuous
 62
     1
370
    15
100
AcDbSpline
210
0.0
220
0.0
230
1.0
 70
     8
 71
     3
 72
    10
 73
     6
 74
     0
 42
0.000000001
 43
0.00000001
 40
0.0
 40
0.0
 40
0.0
 40
0.0
 40
0.5
 40
0.5
 40
1.0
 40
1.0
 40
1.0
 40
1.0
 10
45.10564890588273
 20
-2.592013971486949
 30
0.0
 10
44.84340848548428
 20
-2.575472215667844
 30
0.0
 10
44.55549123081806
 20
-2.455455841958781
 30
0.0
 10
44.00620858525207
 20
-2.140033462755753
 30
0.0
 10
43.75044300346093
 20
-1.946729615877501
 30
0.0
 10
43.53725042534157
 20
-1.735020186449049
 30
0.0
  0
SPLINE
  5
548
330
1F
100
AcDbEntity
  8
0
  6
Continuous
 62
     1
370
    15
100
AcDbSpline
210
0.0
220
0.0
230
1.0
 70
     8
 71
     3
 72
    10
 73
     6
 74
     0
 42
0.000000001
 43
0.00000001
 40
0.0
 40
0.0
 40
0.0
 40
0.0
 40
0.5
 40
0.5
 40
1.0
 40
1.0
 40
1.0
 40
1.0
 10
43.53725042534157
 20
-1.735020186449077
 30
0.0
 10
43.48295639461205
 20
-1.681103871122758
 30
0.0
 10
43.41899294549486
 20
-1.631370238695638
 30
0.0
 10
43.27920833729823
 20
-1.552067729858635
 30
0.0
 10
43.2033886602602
 20
-1.523531181831515
 30
0.0
 10
43.13698979419749
 20
-1.514274723503178
 30
0.0
  0
SPLINE
  5
549
330
1F
100
AcDbEntity
  8
0
  6
Continuous
 62
     1
370
    15
100
AcDbSpline
210
0.0
220
0.0
230
1.0
 70
     8
 71
     3
 72
     8
 73
     4
 74
     0
 42
0.000000001
 43
0.00000001
 40
0.0
 40
0.0
 40
0.0
 40
0.0
 40
1.0
 40
1.0
 40
1.0
 40
1.0
 10
43.13698979419755
 20
-1.514274723503178
 30
0.0
 10
42.93831288366121
 20
-1.486577796549057
 30
0.0
 10
42.72099669862533
 20
-1.400953460861587
 30
0.0
 10
42.50669295688004
 20
-1.29165914703421
 30
0.0
  0
SPLINE
  5
54A
330
1F
100
AcDbEntity
  8
0
  6
Continuous
 62
     1
370
    15
100
AcDbSpline
210
0.0
220
0.0
230
1.0
 70
     8
 71
     3
 72
     8
 73
     4
 74
     0
 42
0.000000001
 43
0.00000001
 40
0.0
 40
0.0
 40
0.0
 40
0.0
 40
1.0
 40
1.0
 40
1.0
 40
1.0
 10
42.50669295688809
 20
-1.291659147039468
 30
0.0
 10
42.27922434476216
 20
-1.14699011995674
 30
0.0
 10
42.06746847988978
 20
-0.9852609077243244
 30
0.0
 10
41.88864999589532
 20
-0.816244510415089
 30
0.0
  0
SPLINE
  5
54B
330
1F
100
AcDbEntity
  8
0
  6
Continuous
 62
     1
370
    15
100
AcDbSpline
210
0.0
220
0.0
230
1.0
 70
     8
 71
     3
 72
    10
 73
     6
 74
     0
 42
0.000000001
 43
0.00000001
 40
0.0
 40
0.0
 40
0.0
 40
0.0
 40
0.5
 40
0.5
 40
1.0
 40
1.0
 40
1.0
 40
1.0
 10
41.88864999589532
 20
-0.8162445104151459
 30
0.0
 10
41.83468358679417
 20
-0.7652363157461934
 30
0.0
 10
41.77093108835578
 20
-0.7168582431254436
 30
0.0
 10
41.63125392132051
 20
-0.636321598525285
 30
0.0
 10
41.55528166171953
 20
-0.6050360264312644
 30
0.0
 10
41.48840973123509
 20
-0.5907305305981083
 30
0.0
  0
SPLINE
  5
54C
330
1F
100
AcDbEntity
  8
0
  6
Continuous
 62
     1
370
    15
100
AcDbSpline
210
0.0
220
0.0
230
1.0
 70
     8
 71
     3
 72
    10
 73
     6
 74
     0
 42
0.000000001
 43
0.00000001
 40
0.0
 40
0.0
 40
0.0
 40
0.0
 40
0.5
 40
0.5
 40
1.0
 40
1.0
 40
1.0
 40
1.0
 10
39.91943170023302
 20
0.2909932451607347
 30
0.0
 10
39.86507740160104
 20
0.3377042980000056
 30
0.0
 10
39.80105484809096
 20
0.3834505171647891
 30
0.0
 10
39.66117965991504
 20
0.4632489126400117
 30
0.0
 10
39.58530533722015
 20
0.4965852305922738
 30
0.0
 10
39.51884738510685
 20
0.5158323867820798
 30
0.0
  0
SPLINE
  5
54D
330
1F
100
AcDbEntity
  8
0
  6
Continuous
 62
     1
370
    15
100
AcDbSpline
210
0.0
220
0.0
230
1.0
 70
     8
 71
     3
 72
    10
 73
     6
 74
     0
 42
0.000000001
 43
0.00000001
 40
0.0
 40
0.0
 40
0.0
 40
0.0
 40
0.5
 40
0.5
 40
1.0
 40
1.0
 40
1.0
 40
1.0
 10
36.29811096071708
 20
2.305048371935726
 30
0.0
 10
36.243769720903
 20
2.342268405860835
 30
0.0
 10
36.17976708042823
 20
2.381792073658318
 30
0.0
 10
36.03992951954694
 20
2.458191575652137
 30
0.0
 10
35.96407118884466
 20
2.494698068237795
 30
0.0
 10
35.89761589866944
 20
2.522956689951513
 30
0.0
  0
SPLINE
  5
54E
330
1F
100
AcDbEntity
  8
0
  6
Continuous
 62
     1
370
    15
100
AcDbSpline
210
0.0
220
0.0
230
1.0
 70
     8
 71
     3
 72
    10
 73
     6
 74
     0
 42
0.000000001
 43
0.00000001
 40
0.0
 40
0.0
 40
0.0
 40
0.0
 40
0.5
 40
0.5
 40
1.0
 40
1.0
 40
1.0
 40
1.0
 10
34.64883912673235
 20
3.19184489071651
 30
0.0
 10
34.5948686573004
 20
3.223853274074713
 30
0.0
 10
34.53111469780703
 20
3.259695118944023
 30
0.0
 10
34.39143719683224
 20
3.333012079241684
 30
0.0
 10
34.31546902920215
 20
3.37026937481096
 30
0.0
 10
34.24860367564617
 20
3.402261887738035
 30
0.0
  0
SPLINE
  5
54F
330
1F
100
AcDbEntity
  8
0
  6
Continuous
 62
     1
370
    15
100
AcDbSpline
210
0.0
220
0.0
230
1.0
 70
     8
 71
     3
 72
    10
 73
     6
 74
     0
 42
0.000000001
 43
0.00000001
 40
0.0
 40
0.0
 40
0.0
 40
0.0
 40
0.5
 40
0.5
 40
1.0
 40
1.0
 40
1.0
 40
1.0
 10
32.68033745926678
 20
4.206760404181978
 30
0.0
 10
32.6260553520473
 20
4.232694261619969
 30
0.0
 10
32.56211731389413
 20
4.264098329152318
 30
0.0
 10
32.42236075445715
 20
4.33337047861616
 30
0.0
 10
32.3465188711952
 20
4.371193491677076
 30
0.0
 10
32.28009521622684
 20
4.407064619823274
 30
0.0
  0
SPLINE
  5
550
330
1F
100
AcDbEntity
  8
0
  6
Continuous
 62
     1
370
    15
100
AcDbSpline
210
0.0
220
0.0
230
1.0
 70
     8
 71
     3
 72
     8
 73
     4
 74
     0
 42
0.000000001
 43
0.00000001
 40
0.0
 40
0.0
 40
0.0
 40
0.0
 40
1.0
 40
1.0
 40
1.0
 40
1.0
 10
32.28009521622684
 20
4.407064619823274
 30
0.0
 10
32.08147125063235
 20
4.514328601700612
 30
0.0
 10
31.86407800690384
 20
4.638022271034515
 30
0.0
 10
31.64973451930013
 20
4.749882442157599
 30
0.0
  0
SPLINE
  5
551
330
1F
100
AcDbEntity
  8
0
  6
Continuous
 62
     1
370
    15
100
AcDbSpline
210
0.0
220
0.0
230
1.0
 70
     8
 71
     3
 72
     8
 73
     4
 74
     0
 42
0.000000001
 43
0.00000001
 40
0.0
 40
0.0
 40
0.0
 40
0.0
 40
1.0
 40
1.0
 40
1.0
 40
1.0
 10
31.64973451930416
 20
4.749882442153421
 30
0.0
 10
31.42219872854469
 20
4.858719694061449
 30
0.0
 10
31.21042201700632
 20
4.946223930555675
 30
0.0
 10
31.03159657103413
 20
5.012389517962305
 30
0.0
  0
SPLINE
  5
552
330
1F
100
AcDbEntity
  8
0
  6
Continuous
 62
     1
370
    15
100
AcDbSpline
210
0.0
220
0.0
230
1.0
 70
     8
 71
     3
 72
    10
 73
     6
 74
     0
 42
0.000000001
 43
0.00000001
 40
0.0
 40
0.0
 40
0.0
 40
0.0
 40
0.5
 40
0.5
 40
1.0
 40
1.0
 40
1.0
 40
1.0
 10
31.03159657103413
 20
5.012389517962305
 30
0.0
 10
30.9776158086074
 20
5.032362452100415
 30
0.0
 10
30.91384878504741
 20
5.059202715323465
 30
0.0
 10
30.77415236372224
 20
5.123535045316913
 30
0.0
 10
30.69817624868779
 20
5.16116208910563
 30
0.0
 10
30.63130169532076
 20
5.199902460161809
 30
0.0
  0
SPLINE
  5
553
330
1F
100
AcDbEntity
  8
0
  6
Continuous
 62
     1
370
    15
100
AcDbSpline
210
0.0
220
0.0
230
1.0
 70
     8
 71
     3
 72
    10
 73
     6
 74
     0
 42
0.000000001
 43
0.00000001
 40
0.0
 40
0.0
 40
0.0
 40
0.0
 40
0.5
 40
0.5
 40
1.0
 40
1.0
 40
1.0
 40
1.0
 10
29.0621093058592
 20
5.907210766349152
 30
0.0
 10
29.00776285485193
 20
5.920666120566835
 30
0.0
 10
28.94374695623219
 20
5.942445347945011
 30
0.0
 10
28.8038456316298
 20
6.001285972791152
 30
0.0
 10
28.72792423241555
 20
6.038675315099681
 30
0.0
 10
28.66143012006853
 20
6.08050394798542
 30
0.0
  0
SPLINE
  5
554
330
1F
100
AcDbEntity
  8
0
  6
Continuous
 62
     1
370
    15
100
AcDbSpline
210
0.0
220
0.0
230
1.0
 70
     8
 71
     3
 72
     8
 73
     4
 74
     0
 42
0.000000001
 43
0.00000001
 40
0.0
 40
0.0
 40
0.0
 40
0.0
 40
1.0
 40
1.0
 40
1.0
 40
1.0
 10
28.66143012006853
 20
6.08050394798542
 30
0.0
 10
28.46261031944564
 20
6.205573073012118
 30
0.0
 10
28.24500421635926
 20
6.330827411175335
 30
0.0
 10
28.03047551342752
 20
6.432718123293625
 30
0.0
  0
SPLINE
  5
555
330
1F
100
AcDbEntity
  8
0
  6
Continuous
 62
     1
370
    15
100
AcDbSpline
210
0.0
220
0.0
230
1.0
 70
     8
 71
     3
 72
     8
 73
     4
 74
     0
 42
0.000000001
 43
0.00000001
 40
0.0
 40
0.0
 40
0.0
 40
0.0
 40
1.0
 40
1.0
 40
1.0
 40
1.0
 10
28.03047551343559
 20
6.432718123290471
 30
0.0
 10
27.8025641315194
 20
6.518300546338452
 30
0.0
 10
27.59039740886706
 20
6.570992114162777
 30
0.0
 10
27.41118050517039
 20
6.594219081997267
 30
0.0
  0
SPLINE
  5
556
330
1F
100
AcDbEntity
  8
0
  6
Continuous
 62
     1
370
    15
100
AcDbSpline
210
0.0
220
0.0
230
1.0
 70
     8
 71
     3
 72
    10
 73
     6
 74
     0
 42
0.000000001
 43
0.00000001
 40
0.0
 40
0.0
 40
0.0
 40
0.0
 40
0.5
 40
0.5
 40
1.0
 40
1.0
 40
1.0
 40
1.0
 10
27.41118050517039
 20
6.594219081997267
 30
0.0
 10
27.35711024323422
 20
6.601226725857231
 30
0.0
 10
27.29326479678471
 20
6.617797293778949
 30
0.0
 10
27.15344193448556
 20
6.670091436857092
 30
0.0
 10
27.0773913108257
 20
6.706303258501549
 30
0.0
 10
27.01044659762366
 20
6.749976338783654
 30
0.0
  0
SPLINE
  5
557
330
1F
100
AcDbEntity
  8
0
  6
Continuous
 62
     1
370
    15
100
AcDbSpline
210
0.0
220
0.0
230
1.0
 70
     8
 71
     3
 72
    10
 73
     6
 74
     0
 42
0.000000001
 43
0.00000001
 40
0.0
 40
0.0
 40
0.0
 40
0.0
 40
0.5
 40
0.5
 40
1.0
 40
1.0
 40
1.0
 40
1.0
 10
27.01044659762366
 20
6.749976338783654
 30
0.0
 10
26.74786060117231
 20
6.921280968461645
 30
0.0
 10
26.45964331770844
 20
7.074729163409501
 30
0.0
 10
25.91006667522694
 20
7.276614780563335
 30
0.0
 10
25.65430542493033
 20
7.324655816687027
 30
0.0
 10
25.44091372156461
 20
7.325593199408928
 30
0.0
  0
SPLINE
  5
558
330
1F
100
AcDbEntity
  8
0
  6
Continuous
 62
     1
370
    15
100
AcDbSpline
210
0.0
220
0.0
230
1.0
 70
     8
 71
     3
 72
    10
 73
     6
 74
     0
 42
0.000000001
 43
0.00000001
 40
0.0
 40
0.0
 40
0.0
 40
0.0
 40
0.5
 40
0.5
 40
1.0
 40
1.0
 40
1.0
 40
1.0
 10
25.44091372156461
 20
7.325593199408928
 30
0.0
 10
25.38660631035151
 20
7.325831759897198
 30
0.0
 10
25.32263222067991
 20
7.336879390690058
 30
0.0
 10
25.18279699658095
 20
7.382392672161359
 30
0.0
 10
25.10691852316748
 20
7.41752353921143
 30
0.0
 10
25.04047254627105
 20
7.463255835570834
 30
0.0
  0
SPLINE
  5
559
330
1F
100
AcDbEntity
  8
0
  6
Continuous
 62
     1
370
    15
100
AcDbSpline
210
0.0
220
0.0
230
1.0
 70
     8
 71
     3
 72
     8
 73
     4
 74
     0
 42
0.000000001
 43
0.00000001
 40
0.0
 40
0.0
 40
0.0
 40
0.0
 40
1.0
 40
1.0
 40
1.0
 40
1.0
 10
25.04047254627105
 20
7.463255835570862
 30
0.0
 10
24.84180507836706
 20
7.599991270032461
 30
0.0
 10
24.62434970688784
 20
7.720695977205082
 30
0.0
 10
24.40996197817864
 20
7.807620920195546
 30
0.0
  0
SPLINE
  5
55A
330
1F
100
AcDbEntity
  8
0
  6
Continuous
 62
     1
370
    15
100
AcDbSpline
210
0.0
220
0.0
230
1.0
 70
     8
 71
     3
 72
     8
 73
     4
 74
     0
 42
0.000000001
 43
0.00000001
 40
0.0
 40
0.0
 40
0.0
 40
0.0
 40
1.0
 40
1.0
 40
1.0
 40
1.0
 10
24.40996197818706
 20
7.807620920193415
 30
0.0
 10
24.18239332623168
 20
7.865565239412945
 30
0.0
 10
23.97060327452482
 20
7.880602329259403
 30
0.0
 10
23.79180138139563
 20
7.859498038697183
 30
0.0
  0
SPLINE
  5
55B
330
1F
100
AcDbEntity
  8
0
  6
Continuous
 62
     1
370
    15
100
AcDbSpline
210
0.0
220
0.0
230
1.0
 70
     8
 71
     3
 72
    10
 73
     6
 74
     0
 42
0.000000001
 43
0.00000001
 40
0.0
 40
0.0
 40
0.0
 40
0.0
 40
0.5
 40
0.5
 40
1.0
 40
1.0
 40
1.0
 40
1.0
 10
23.79180138139563
 20
7.859498038697183
 30
0.0
 10
23.73783360268519
 20
7.853128130286422
 30
0.0
 10
23.67408192204627
 20
7.85857746699665
 30
0.0
 10
23.53441479912209
 20
7.896245524632292
 30
0.0
 10
23.45845735608083
 20
7.929265810619
 30
0.0
 10
23.39159976098301
 20
7.975693120649339
 30
0.0
  0
SPLINE
  5
55C
330
1F
100
AcDbEntity
  8
0
  6
Continuous
 62
     1
370
    15
100
AcDbSpline
210
0.0
220
0.0
230
1.0
 70
     8
 71
     3
 72
    10
 73
     6
 74
     0
 42
0.000000001
 43
0.00000001
 40
0.0
 40
0.0
 40
0.0
 40
0.0
 40
0.5
 40
0.5
 40
1.0
 40
1.0
 40
1.0
 40
1.0
 10
23.39159976098304
 20
7.975693120649368
 30
0.0
 10
23.12924474082044
 20
8.157877924653889
 30
0.0
 10
22.84125837775511
 20
8.295337355410737
 30
0.0
 10
22.29217974525025
 20
8.437540955679424
 30
0.0
 10
22.03666462058425
 20
8.44233316329047
 30
0.0
 10
21.82343785651051
 20
8.391423092189967
 30
0.0
  0
SPLINE
  5
55D
330
1F
100
AcDbEntity
  8
0
  6
Continuous
 62
     1
370
    15
100
AcDbSpline
210
0.0
220
0.0
230
1.0
 70
     8
 71
     3
 72
    10
 73
     6
 74
     0
 42
0.000000001
 43
0.00000001
 40
0.0
 40
0.0
 40
0.0
 40
0.0
 40
0.5
 40
0.5
 40
1.0
 40
1.0
 40
1.0
 40
1.0
 10
21.82343785651048
 20
8.391423092189967
 30
0.0
 10
21.76915922162107
 20
8.378463512873282
 30
0.0
 10
21.70520827411349
 20
8.378289742314848
 30
0.0
 10
21.56541066693202
 20
8.408362228231994
 30
0.0
 10
21.48956094221325
 20
8.439582055323228
 30
0.0
 10
21.42314502326332
 20
8.487042474839342
 30
0.0
  0
SPLINE
  5
55E
330
1F
100
AcDbEntity
  8
0
  6
Continuous
 62
     1
370
    15
100
AcDbSpline
210
0.0
220
0.0
230
1.0
 70
     8
 71
     3
 72
     8
 73
     4
 74
     0
 42
0.000000001
 43
0.00000001
 40
0.0
 40
0.0
 40
0.0
 40
0.0
 40
1.0
 40
1.0
 40
1.0
 40
1.0
 10
21.42314502326332
 20
8.48704247483937
 30
0.0
 10
21.22450895170053
 20
8.628986626730267
 30
0.0
 10
21.00707459301637
 20
8.739447906127651
 30
0.0
 10
20.79271459501584
 20
8.807325776921317
 30
0.0
  0
SPLINE
  5
55F
330
1F
100
AcDbEntity
  8
0
  6
Continuous
 62
     1
370
    15
100
AcDbSpline
210
0.0
220
0.0
230
1.0
 70
     8
 71
     3
 72
     8
 73
     4
 74
     0
 42
0.000000001
 43
0.00000001
 40
0.0
 40
0.0
 40
0.0
 40
0.0
 40
1.0
 40
1.0
 40
1.0
 40
1.0
 10
20.79271459502786
 20
8.807325776919697
 30
0.0
 10
20.56511284657819
 20
8.83504853808796
 30
0.0
 10
20.35331520091665
 20
8.811897399569887
 30
0.0
 10
20.17447641977088
 20
8.747689390967508
 30
0.0
  0
SPLINE
  5
560
330
1F
100
AcDbEntity
  8
0
  6
Continuous
 62
     1
370
    15
100
AcDbSpline
210
0.0
220
0.0
230
1.0
 70
     8
 71
     3
 72
    10
 73
     6
 74
     0
 42
0.000000001
 43
0.00000001
 40
0.0
 40
0.0
 40
0.0
 40
0.0
 40
0.5
 40
0.5
 40
1.0
 40
1.0
 40
1.0
 40
1.0
 10
20.17447641977088
 20
8.747689390967508
 30
0.0
 10
20.12048156164403
 20
8.728303761671242
 30
0.0
 10
20.0567012940239
 20
8.722420345170775
 30
0.0
 10
19.91699114478993
 20
8.743723434589498
 30
0.0
 10
19.84101033845852
 20
8.771993733587038
 30
0.0
 10
19.77412685967144
 20
8.819006091346466
 30
0.0
  0
SPLINE
  5
561
330
1F
100
AcDbEntity
  8
0
  6
Continuous
 62
     1
370
    15
100
AcDbSpline
210
0.0
220
0.0
230
1.0
 70
     8
 71
     3
 72
    10
 73
     6
 74
     0
 42
0.000000001
 43
0.00000001
 40
0.0
 40
0.0
 40
0.0
 40
0.0
 40
0.5
 40
0.5
 40
1.0
 40
1.0
 40
1.0
 40
1.0
 10
19.77412685967144
 20
8.819006091346466
 30
0.0
 10
19.51155629919441
 20
9.003566783315364
 30
0.0
 10
19.22336280159124
 20
9.118477574154639
 30
0.0
 10
18.6739881041884
 20
9.194280506753046
 30
0.0
 10
18.41822574445527
 20
9.155634847949727
 30
0.0
 10
18.20466026278675
 20
9.05548283467266
 30
0.0
  0
SPLINE
  5
562
330
1F
100
AcDbEntity
  8
0
  6
Continuous
 62
     1
370
    15
100
AcDbSpline
210
0.0
220
0.0
230
1.0
 70
     8
 71
     3
 72
    10
 73
     6
 74
     0
 42
0.000000001
 43
0.00000001
 40
0.0
 40
0.0
 40
0.0
 40
0.0
 40
0.5
 40
0.5
 40
1.0
 40
1.0
 40
1.0
 40
1.0
 10
18.20466026278672
 20
9.05548283467266
 30
0.0
 10
18.15028192363832
 20
9.029981990145615
 30
0.0
 10
18.08623297917862
 20
9.018624921263125
 30
0.0
 10
17.9462757430563
 20
9.031849832352805
 30
0.0
 10
17.87033772805708
 20
9.05766767036448
 30
0.0
 10
17.80383984869349
 20
9.104643427739404
 30
0.0
  0
SPLINE
  5
563
330
1F
100
AcDbEntity
  8
0
  6
Continuous
 62
     1
370
    15
100
AcDbSpline
210
0.0
220
0.0
230
1.0
 70
     8
 71
     3
 72
     8
 73
     4
 74
     0
 42
0.000000001
 43
0.00000001
 40
0.0
 40
0.0
 40
0.0
 40
0.0
 40
1.0
 40
1.0
 40
1.0
 40
1.0
 10
17.80383984869349
 20
9.104643427739404
 30
0.0
 10
17.60497090030253
 20
9.245129403509225
 30
0.0
 10
17.38729194098318
 20
9.340050190627977
 30
0.0
 10
17.17272098459873
 20
9.385648487887181
 30
0.0
  0
SPLINE
  5
564
330
1F
100
AcDbEntity
  8
0
  6
Continuous
 62
     1
370
    15
100
AcDbSpline
210
0.0
220
0.0
230
1.0
 70
     8
 71
     3
 72
     8
 73
     4
 74
     0
 42
0.000000001
 43
0.00000001
 40
0.0
 40
0.0
 40
0.0
 40
0.0
 40
1.0
 40
1.0
 40
1.0
 40
1.0
 10
17.17272098460776
 20
9.385648487887295
 30
0.0
 10
16.94480814462142
 20
9.38184543145806
 30
0.0
 10
16.73268257707463
 20
9.321659194873206
 30
0.0
 10
16.55354348243313
 20
9.217330244532434
 30
0.0
  0
SPLINE
  5
565
330
1F
100
AcDbEntity
  8
0
  6
Continuous
 62
     1
370
    15
100
AcDbSpline
210
0.0
220
0.0
230
1.0
 70
     8
 71
     3
 72
    10
 73
     6
 74
     0
 42
0.000000001
 43
0.00000001
 40
0.0
 40
0.0
 40
0.0
 40
0.0
 40
0.5
 40
0.5
 40
1.0
 40
1.0
 40
1.0
 40
1.0
 10
16.5535434824331
 20
9.217330244532405
 30
0.0
 10
16.49949272593517
 20
9.185851584322364
 30
0.0
 10
16.43566614224252
 20
9.168895000722387
 30
0.0
 10
16.29588299559728
 20
9.172767852673815
 30
0.0
 10
16.21985754769233
 20
9.194910837338512
 30
0.0
 10
16.1529308421257
 20
9.240257336351846
 30
0.0
  0
SPLINE
  5
566
330
1F
100
AcDbEntity
  8
0
  6
Continuous
 62
     1
370
    15
100
AcDbSpline
210
0.0
220
0.0
230
1.0
 70
     8
 71
     3
 72
    11
 73
     7
 74
     0
 42
0.000000001
 43
0.00000001
 40
0.0
 40
0.0
 40
0.0
 40
0.0
 40
0.3033524804410678
 40
0.5892742590073623
 40
0.9854987486317354
 40
1.0
 40
1.0
 40
1.0
 40
1.0
 10
16.152931073308
 20
9.240257553756209
 30
0.0
 10
16.01938237223629
 20
9.315735679883431
 30
0.0
 10
15.75995870854652
 20
9.462354942004538
 30
0.0
 10
15.31136998513486
 20
9.526510696245282
 30
0.0
 10
14.99722040898604
 20
9.499963838449503
 30
0.0
 10
14.84508385476568
 20
9.420473344762542
 30
0.0
 10
14.83971245922149
 20
9.417666820809217
 30
0.0
  0
SPLINE
  5
567
330
1F
100
AcDbEntity
  8
0
  6
Continuous
 62
     1
370
    15
100
AcDbSpline
210
0.0
220
0.0
230
1.0
 70
     8
 71
     3
 72
     9
 73
     5
 74
     0
 42
0.000000001
 43
0.00000001
 40
0.0
 40
0.0
 40
0.0
 40
0.0
 40
0.7477790115269449
 40
1.0
 40
1.0
 40
1.0
 40
1.0
 10
14.28940768688918
 20
9.240625659003825
 30
0.0
 10
14.26197876374457
 20
9.248452023182523
 30
0.0
 10
14.22529824353501
 20
9.25891816900642
 30
0.0
 10
14.19181595878877
 20
9.280394356723178
 30
0.0
 10
14.18337102383373
 20
9.285811102017732
 30
0.0
  0
SPLINE
  5
568
330
1F
100
AcDbEntity
  8
0
  6
Continuous
 62
     1
370
    15
100
AcDbSpline
210
0.0
220
0.0
230
1.0
 70
     8
 71
     3
 72
     9
 73
     5
 74
     0
 42
0.000000001
 43
0.00000001
 40
0.0
 40
0.0
 40
0.0
 40
0.0
 40
0.6784593279145557
 40
1.0
 40
1.0
 40
1.0
 40
1.0
 10
14.18337102383373
 20
9.285811102017732
 30
0.0
 10
14.13433575063399
 20
9.317370738826156
 30
0.0
 10
14.062061302952
 20
9.363887361871832
 30
0.0
 10
13.98563799328701
 20
9.393436478606588
 30
0.0
 10
13.96106479093433
 20
9.40293772146103
 30
0.0
  0
SPLINE
  5
57A
330
1F
100
AcDbEntity
  8
0
  6
Continuous
 62
     1
370
    15
100
AcDbSpline
210
0.0
220
0.0
230
1.0
 70
     8
 71
     3
 72
     8
 73
     4
 74
     0
 42
0.000000001
 43
0.00000001
 40
0.8771815015617309
 40
0.8771815015617309
 40
0.8771815015617309
 40
0.8771815015617309
 40
1.0
 40
1.0
 40
1.0
 40
1.0
 10
12.0
 20
8.298445850689717
 30
0.0
 10
12.05713574172196
 20
8.252481088088544
 30
0.0
 10
12.11206434369558
 20
8.202579798382644
 30
0.0
 10
12.16444084804792
 20
8.14908738183297
 30
0.0
  0
SPLINE
  5
57B
330
1F
100
AcDbEntity
  8
0
  6
Continuous
 62
     1
370
    15
100
AcDbSpline
210
0.0
220
0.0
230
1.0
 70
     8
 71
     3
 72
    10
 73
     6
 74
     0
 42
0.000000001
 43
0.00000001
 40
0.0
 40
0.0
 40
0.0
 40
0.0
 40
0.5
 40
0.5
 40
1.0
 40
1.0
 40
1.0
 40
1.0
 10
12.16444084804792
 20
8.14908738183297
 30
0.0
 10
12.21871599140133
 20
8.093655874662801
 30
0.0
 10
12.28266312666361
 20
8.051931242905482
 30
0.0
 10
12.42245460903212
 20
8.009667353650855
 30
0.0
 10
12.49830092867106
 20
8.01077522789484
 30
0.0
 10
12.56471341679014
 20
8.040994289899885
 30
0.0
  0
SPLINE
  5
57C
330
1F
100
AcDbEntity
  8
0
  6
Continuous
 62
     1
370
    15
100
AcDbSpline
210
0.0
220
0.0
230
1.0
 70
     8
 71
     3
 72
     8
 73
     4
 74
     0
 42
0.000000001
 43
0.00000001
 40
0.0
 40
0.0
 40
0.0
 40
0.0
 40
1.0
 40
1.0
 40
1.0
 40
1.0
 10
12.5647134167902
 20
8.040994289899942
 30
0.0
 10
12.76333688122807
 20
8.131372093194102
 30
0.0
 10
12.98075790208469
 20
8.148514717476928
 30
0.0
 10
13.19510609432365
 20
8.11163288921432
 30
0.0
  0
SPLINE
  5
57D
330
1F
100
AcDbEntity
  8
0
  6
Continuous
 62
     1
370
    15
100
AcDbSpline
210
0.0
220
0.0
230
1.0
 70
     8
 71
     3
 72
     8
 73
     4
 74
     0
 42
0.000000001
 43
0.00000001
 40
0.0
 40
0.0
 40
0.0
 40
0.0
 40
1.0
 40
1.0
 40
1.0
 40
1.0
 10
13.19510606428102
 20
8.111632902221487
 30
0.0
 10
13.4226759039741
 20
8.01310388564687
 30
0.0
 10
13.63444257231114
 20
7.859567107173234
 30
0.0
 10
13.81324180227463
 20
7.667092513943544
 30
0.0
  0
SPLINE
  5
57E
330
1F
100
AcDbEntity
  8
0
  6
Continuous
 62
     1
370
    15
100
AcDbSpline
210
0.0
220
0.0
230
1.0
 70
     8
 71
     3
 72
    10
 73
     6
 74
     0
 42
0.000000001
 43
0.00000001
 40
0.0
 40
0.0
 40
0.0
 40
0.0
 40
0.5
 40
0.5
 40
1.0
 40
1.0
 40
1.0
 40
1.0
 10
13.81324180227469
 20
7.667092513943459
 30
0.0
 10
13.86722371685673
 20
7.60898182155924
 30
0.0
 10
13.93099123332857
 20
7.563850060362824
 30
0.0
 10
14.07068074834149
 20
7.513537324883771
 30
0.0
 10
14.14664969126025
 20
7.509948740303116
 30
0.0
 10
14.21352149440375
 20
7.535502716324459
 30
0.0
  0
SPLINE
  5
57F
330
1F
100
AcDbEntity
  8
0
  6
Continuous
 62
     1
370
    15
100
AcDbSpline
210
0.0
220
0.0
230
1.0
 70
     8
 71
     3
 72
    10
 73
     6
 74
     0
 42
0.000000001
 43
0.00000001
 40
0.0
 40
0.0
 40
0.0
 40
0.0
 40
0.5000000000000002
 40
0.5000000000000002
 40
1.0
 40
1.0
 40
1.0
 40
1.0
 10
14.21352149440372
 20
7.535502716324544
 30
0.0
 10
14.4760270901167
 20
7.63581497624574
 30
0.0
 10
14.76415275969143
 20
7.609073890757941
 30
0.0
 10
15.31341163986716
 20
7.399451974060895
 30
0.0
 10
15.5691155356258
 20
7.218662708370658
 30
0.0
 10
15.78259953228741
 20
6.985385217630494
 30
0.0
  0
SPLINE
  5
580
330
1F
100
AcDbEntity
  8
0
  6
Continuous
 62
     1
370
    15
100
AcDbSpline
210
0.0
220
0.0
230
1.0
 70
     8
 71
     3
 72
    10
 73
     6
 74
     0
 42
0.000000001
 43
0.00000001
 40
0.0
 40
0.0
 40
0.0
 40
0.0
 40
0.5
 40
0.5
 40
1.0
 40
1.0
 40
1.0
 40
1.0
 10
15.78259953228746
 20
6.985385217630437
 30
0.0
 10
15.83695393557662
 20
6.925991263009678
 30
0.0
 10
15.90097978952011
 20
6.878708112916428
 30
0.0
 10
16.04089942345925
 20
6.822665512665708
 30
0.0
 10
16.11681544924718
 20
6.815498773565764
 30
0.0
 10
16.18329220849583
 20
6.837017271462713
 30
0.0
  0
SPLINE
  5
581
330
1F
100
AcDbEntity
  8
0
  6
Continuous
 62
     1
370
    15
100
AcDbSpline
210
0.0
220
0.0
230
1.0
 70
     8
 71
     3
 72
     8
 73
     4
 74
     0
 42
0.000000001
 43
0.00000001
 40
0.0
 40
0.0
 40
0.0
 40
0.0
 40
1.0
 40
1.0
 40
1.0
 40
1.0
 10
16.18329220849589
 20
6.83701727146277
 30
0.0
 10
16.38210729892594
 20
6.901373629288457
 30
0.0
 10
16.59973122025968
 20
6.891005615816795
 30
0.0
 10
16.81425283161761
 20
6.830851296478301
 30
0.0
  0
SPLINE
  5
582
330
1F
100
AcDbEntity
  8
0
  6
Continuous
 62
     1
370
    15
100
AcDbSpline
210
0.0
220
0.0
230
1.0
 70
     8
 71
     3
 72
     8
 73
     4
 74
     0
 42
0.000000001
 43
0.00000001
 40
0.0
 40
0.0
 40
0.0
 40
0.0
 40
1.0
 40
1.0
 40
1.0
 40
1.0
 10
16.81425280153292
 20
6.830851312229669
 30
0.0
 10
17.04219597280903
 20
6.71150781675729
 30
0.0
 10
17.2543458885529
 20
6.543455895486375
 30
0.0
 10
17.43354318141124
 20
6.342237909458532
 30
0.0
  0
SPLINE
  5
583
330
1F
100
AcDbEntity
  8
0
  6
Continuous
 62
     1
370
    15
100
AcDbSpline
210
0.0
220
0.0
230
1.0
 70
     8
 71
     3
 72
    10
 73
     6
 74
     0
 42
0.000000001
 43
0.00000001
 40
0.0
 40
0.0
 40
0.0
 40
0.0
 40
0.5
 40
0.5
 40
1.0
 40
1.0
 40
1.0
 40
1.0
 10
17.43354318141124
 20
6.342237909458532
 30
0.0
 10
17.48761955693934
 20
6.281516348312806
 30
0.0
 10
17.5514698351308
 20
6.231869538176738
 30
0.0
 10
17.69129170913558
 20
6.168978173698775
 30
0.0
 10
17.76733994112507
 20
6.157231952961837
 30
0.0
 10
17.83428839244635
 20
6.173551674962937
 30
0.0
  0
SPLINE
  5
584
330
1F
100
AcDbEntity
  8
0
  6
Continuous
 62
     1
370
    15
100
AcDbSpline
210
0.0
220
0.0
230
1.0
 70
     8
 71
     3
 72
    10
 73
     6
 74
     0
 42
0.000000001
 43
0.00000001
 40
0.0
 40
0.0
 40
0.0
 40
0.0
 40
0.5
 40
0.5
 40
1.0
 40
1.0
 40
1.0
 40
1.0
 10
17.83428839244635
 20
6.173551674962965
 30
0.0
 10
18.09688425770472
 20
6.237563484572831
 30
0.0
 10
18.38502324499689
 20
6.176176826110776
 30
0.0
 10
18.93434035758153
 20
5.917864647150338
 30
0.0
 10
19.19030198574015
 20
5.723368813963816
 30
0.0
 10
19.40384475859926
 20
5.485661346142649
 30
0.0
  0
SPLINE
  5
585
330
1F
100
AcDbEntity
  8
0
  6
Continuous
 62
     1
370
    15
100
AcDbSpline
210
0.0
220
0.0
230
1.0
 70
     8
 71
     3
 72
    10
 73
     6
 74
     0
 42
0.000000001
 43
0.00000001
 40
0.0
 40
0.0
 40
0.0
 40
0.0
 40
0.5
 40
0.5
 40
1.0
 40
1.0
 40
1.0
 40
1.0
 10
19.40384475859923
 20
5.485661346142649
 30
0.0
 10
19.45816488322845
 20
5.425194306661723
 30
0.0
 10
19.5221530847239
 20
5.37465332736619
 30
0.0
 10
19.66201236165799
 20
5.307595780879012
 30
0.0
 10
19.73789032980753
 20
5.292564524160071
 30
0.0
 10
19.80432548909604
 20
5.3043501902456
 30
0.0
  0
SPLINE
  5
586
330
1F
100
AcDbEntity
  8
0
  6
Continuous
 62
     1
370
    15
100
AcDbSpline
210
0.0
220
0.0
230
1.0
 70
     8
 71
     3
 72
     8
 73
     4
 74
     0
 42
0.000000001
 43
0.00000001
 40
0.0
 40
0.0
 40
0.0
 40
0.0
 40
1.0
 40
1.0
 40
1.0
 40
1.0
 10
19.80432548909607
 20
5.3043501902456
 30
0.0
 10
20.00300274435949
 20
5.339595741161702
 30
0.0
 10
20.22048469351333
 20
5.302424963061441
 30
0.0
 10
20.43487056539149
 20
5.222008126485235
 30
0.0
  0
SPLINE
  5
587
330
1F
100
AcDbEntity
  8
0
  6
Continuous
 62
     1
370
    15
100
AcDbSpline
210
0.0
220
0.0
230
1.0
 70
     8
 71
     3
 72
     8
 73
     4
 74
     0
 42
0.000000001
 43
0.00000001
 40
0.0
 40
0.0
 40
0.0
 40
0.0
 40
1.0
 40
1.0
 40
1.0
 40
1.0
 10
20.43487053533858
 20
5.222008144199322
 30
0.0
 10
20.66247621253677
 20
5.087848327742591
 30
0.0
 10
20.87425997307196
 20
4.91359476933323
 30
0.0
 10
21.05304395320667
 20
4.713609280066777
 30
0.0
  0
SPLINE
  5
588
330
1F
100
AcDbEntity
  8
0
  6
Continuous
 62
     1
370
    15
100
AcDbSpline
210
0.0
220
0.0
230
1.0
 70
     8
 71
     3
 72
    10
 73
     6
 74
     0
 42
0.000000001
 43
0.00000001
 40
0.0
 40
0.0
 40
0.0
 40
0.0
 40
0.5
 40
0.5
 40
1.0
 40
1.0
 40
1.0
 40
1.0
 10
21.0530439532067
 20
4.713609280066748
 30
0.0
 10
21.10701382073924
 20
4.653239271769536
 30
0.0
 10
21.17076618125088
 20
4.601528689322009
 30
0.0
 10
21.31042436193979
 20
4.529226455411759
 30
0.0
 10
21.38637615003762
 20
4.509998625003476
 30
0.0
 10
21.45323613127181
 20
4.516304672234043
 30
0.0
  0
SPLINE
  5
589
330
1F
100
AcDbEntity
  8
0
  6
Continuous
 62
     1
370
    15
100
AcDbSpline
210
0.0
220
0.0
230
1.0
 70
     8
 71
     3
 72
    10
 73
     6
 74
     0
 42
0.000000001
 43
0.00000001
 40
0.0
 40
0.0
 40
0.0
 40
0.0
 40
0.5
 40
0.5
 40
1.0
 40
1.0
 40
1.0
 40
1.0
 10
21.45323613127178
 20
4.516304672234071
 30
0.0
 10
21.71555803142414
 20
4.541046143311888
 30
0.0
 10
22.00333081939371
 20
4.448068653438639
 30
0.0
 10
22.55222769923876
 20
4.153879183070728
 30
0.0
 10
22.80804338887211
 20
3.955110225728106
 30
0.0
 10
23.0213768991876
 20
3.724655014906432
 30
0.0
  0
SPLINE
  5
58A
330
1F
100
AcDbEntity
  8
0
  6
Continuous
 62
     1
370
    15
100
AcDbSpline
210
0.0
220
0.0
230
1.0
 70
     8
 71
     3
 72
    10
 73
     6
 74
     0
 42
0.000000001
 43
0.00000001
 40
0.0
 40
0.0
 40
0.0
 40
0.0
 40
0.5
 40
0.5
 40
1.0
 40
1.0
 40
1.0
 40
1.0
 10
23.0213768991876
 20
3.724655014906432
 30
0.0
 10
23.07566429477748
 20
3.666010626703553
 30
0.0
 10
23.13962526658491
 20
3.614644599672062
 30
0.0
 10
23.2794392270728
 20
3.539805755752553
 30
0.0
 10
23.35528535611269
 20
3.517635661865086
 30
0.0
 10
23.42168932439407
 20
3.519137659578064
 30
0.0
  0
SPLINE
  5
58B
330
1F
100
AcDbEntity
  8
0
  6
Continuous
 62
     1
370
    15
100
AcDbSpline
210
0.0
220
0.0
230
1.0
 70
     8
 71
     3
 72
     8
 73
     4
 74
     0
 42
0.000000001
 43
0.00000001
 40
0.0
 40
0.0
 40
0.0
 40
0.0
 40
1.0
 40
1.0
 40
1.0
 40
1.0
 10
23.42168932439412
 20
3.519137659578149
 30
0.0
 10
23.62033133874962
 20
3.52363076230958
 30
0.0
 10
23.83778263067947
 20
3.461381528086065
 30
0.0
 10
24.05212936422532
 20
3.364517895990758
 30
0.0
  0
SPLINE
  5
58C
330
1F
100
AcDbEntity
  8
0
  6
Continuous
 62
     1
370
    15
100
AcDbSpline
210
0.0
220
0.0
230
1.0
 70
     8
 71
     3
 72
     8
 73
     4
 74
     0
 42
0.000000001
 43
0.00000001
 40
0.0
 40
0.0
 40
0.0
 40
0.0
 40
1.0
 40
1.0
 40
1.0
 40
1.0
 10
24.05212933418156
 20
3.364517914826223
 30
0.0
 10
24.27975515704412
 20
3.221812343368669
 30
0.0
 10
24.49153338477956
 20
3.049535526981032
 30
0.0
 10
24.67034172228645
 20
2.860181681331312
 30
0.0
  0
SPLINE
  5
58D
330
1F
100
AcDbEntity
  8
0
  6
Continuous
 62
     1
370
    15
100
AcDbSpline
210
0.0
220
0.0
230
1.0
 70
     8
 71
     3
 72
    10
 73
     6
 74
     0
 42
0.000000001
 43
0.00000001
 40
0.0
 40
0.0
 40
0.0
 40
0.0
 40
0.5
 40
0.5
 40
1.0
 40
1.0
 40
1.0
 40
1.0
 10
24.67034172228645
 20
2.860181681331312
 30
0.0
 10
24.72433472378145
 20
2.803004356080152
 30
0.0
 10
24.78811160584866
 20
2.751650244910621
 30
0.0
 10
24.9278050464911
 20
2.673282610127046
 30
0.0
 10
25.00377696511711
 20
2.647408684457645
 30
0.0
 10
25.07066155481334
 20
2.643383074831064
 30
0.0
  0
SPLINE
  5
58E
330
1F
100
AcDbEntity
  8
0
  6
Continuous
 62
     1
370
    15
100
AcDbSpline
210
0.0
220
0.0
230
1.0
 70
     8
 71
     3
 72
    10
 73
     6
 74
     0
 42
0.000000001
 43
0.00000001
 40
0.0
 40
0.0
 40
0.0
 40
0.0
 40
0.5
 40
0.5
 40
1.0
 40
1.0
 40
1.0
 40
1.0
 10
25.07066155481334
 20
2.643383074831092
 30
0.0
 10
25.33315966260878
 20
2.627583995932667
 30
0.0
 10
25.62103499779926
 20
2.50712347315752
 30
0.0
 10
26.17041301294068
 20
2.190853968869419
 30
0.0
 10
26.42643588182341
 20
1.997087969120457
 30
0.0
 10
26.64006332846631
 20
1.784691935809548
 30
0.0
  0
SPLINE
  5
58F
330
1F
100
AcDbEntity
  8
0
  6
Continuous
 62
     1
370
    15
100
AcDbSpline
210
0.0
220
0.0
230
1.0
 70
     8
 71
     3
 72
    10
 73
     6
 74
     0
 42
0.000000001
 43
0.00000001
 40
0.0
 40
0.0
 40
0.0
 40
0.0
 40
0.5
 40
0.5
 40
1.0
 40
1.0
 40
1.0
 40
1.0
 10
26.64006332846631
 20
1.784691935809519
 30
0.0
 10
26.69444633304801
 20
1.730622411344399
 30
0.0
 10
26.75850109036139
 20
1.68082903296019
 30
0.0
 10
26.89846664755191
 20
1.601668221507708
 30
0.0
 10
26.97439782386803
 20
1.573333210290258
 30
0.0
 10
27.04088243167692
 20
1.564444922491873
 30
0.0
  0
SPLINE
  5
590
330
1F
100
AcDbEntity
  8
0
  6
Continuous
 62
     1
370
    15
100
AcDbSpline
210
0.0
220
0.0
230
1.0
 70
     8
 71
     3
 72
     8
 73
     4
 74
     0
 42
0.000000001
 43
0.00000001
 40
0.0
 40
0.0
 40
0.0
 40
0.0
 40
1.0
 40
1.0
 40
1.0
 40
1.0
 10
27.04088243167698
 20
1.564444922491901
 30
0.0
 10
27.23975399741059
 20
1.537857900782512
 30
0.0
 10
27.45744083792516
 20
1.453295499733741
 30
0.0
 10
27.67198752317543
 20
1.344464400866826
 30
0.0
  0
SPLINE
  5
591
330
1F
100
AcDbEntity
  8
0
  6
Continuous
 62
     1
370
    15
100
AcDbSpline
210
0.0
220
0.0
230
1.0
 70
     8
 71
     3
 72
     8
 73
     4
 74
     0
 42
0.000000001
 43
0.00000001
 40
0.0
 40
0.0
 40
0.0
 40
0.0
 40
1.0
 40
1.0
 40
1.0
 40
1.0
 10
27.67198749308
 20
1.34446441995749
 30
0.0
 10
27.89993998469328
 20
1.199865132029572
 30
0.0
 10
28.11206312831462
 20
1.037649187189459
 30
0.0
 10
28.29119232592464
 20
0.8677811125121195
 30
0.0
  0
SPLINE
  5
592
330
1F
100
AcDbEntity
  8
0
  6
Continuous
 62
     1
370
    15
100
AcDbSpline
210
0.0
220
0.0
230
1.0
 70
     8
 71
     3
 72
    10
 73
     6
 74
     0
 42
0.000000001
 43
0.00000001
 40
0.0
 40
0.0
 40
0.0
 40
0.0
 40
0.4999999999999999
 40
0.4999999999999999
 40
1.0
 40
1.0
 40
1.0
 40
1.0
 10
28.29119232592467
 20
0.8677811125121195
 30
0.0
 10
28.34524619894751
 20
0.816521868001729
 30
0.0
 10
28.4090737335741
 20
0.7679611624869551
 30
0.0
 10
28.5488460728842
 20
0.6872313640876371
 30
0.0
 10
28.62486739483151
 20
0.6559187819695182
 30
0.0
 10
28.69180171048004
 20
0.641724965967569
 30
0.0
  0
SPLINE
  5
593
330
1F
100
AcDbEntity
  8
0
  6
Continuous
 62
     1
370
    15
100
AcDbSpline
210
0.0
220
0.0
230
1.0
 70
     8
 71
     3
 72
    10
 73
     6
 74
     0
 42
0.000000001
 43
0.00000001
 40
0.0
 40
0.0
 40
0.0
 40
0.0
 40
0.5
 40
0.5
 40
1.0
 40
1.0
 40
1.0
 40
1.0
 10
30.26102702463902
 20
-0.24202706422642
 30
0.0
 10
30.31534236410988
 20
-0.2888426771351362
 30
0.0
 10
30.37932762577026
 20
-0.3345949011761888
 30
0.0
 10
30.51917983634732
 20
-0.4141342079124115
 30
0.0
 10
30.5950431117621
 20
-0.4471740312206691
 30
0.0
 10
30.66145956550403
 20
-0.4659843554995859
 30
0.0
  0
SPLINE
  5
594
330
1F
100
AcDbEntity
  8
0
  6
Continuous
 62
     1
370
    15
100
AcDbSpline
210
0.0
220
0.0
230
1.0
 70
     8
 71
     3
 72
     8
 73
     4
 74
     0
 42
0.000000001
 43
0.00000001
 40
0.0
 40
0.0
 40
0.0
 40
0.0
 40
1.0
 40
1.0
 40
1.0
 40
1.0
 10
30.66145956550409
 20
-0.4659843554995575
 30
0.0
 10
30.86012931578441
 20
-0.5222511721788123
 30
0.0
 10
31.07760351238545
 20
-0.6247654784731935
 30
0.0
 10
31.29194794679165
 20
-0.7401226605327338
 30
0.0
  0
SPLINE
  5
595
330
1F
100
AcDbEntity
  8
0
  6
Continuous
 62
     1
370
    15
100
AcDbSpline
210
0.0
220
0.0
230
1.0
 70
     8
 71
     3
 72
     8
 73
     4
 74
     0
 42
0.000000001
 43
0.00000001
 40
0.0
 40
0.0
 40
0.0
 40
0.0
 40
1.0
 40
1.0
 40
1.0
 40
1.0
 10
31.29194791674797
 20
-0.7401226421576155
 30
0.0
 10
31.51955423840892
 20
-0.8793282212772624
 30
0.0
 10
31.73129281911449
 20
-1.023352360894677
 30
0.0
 10
31.91002703439929
 20
-1.165176381602748
 30
0.0
  0
SPLINE
  5
596
330
1F
100
AcDbEntity
  8
0
  6
Continuous
 62
     1
370
    15
100
AcDbSpline
210
0.0
220
0.0
230
1.0
 70
     8
 71
     3
 72
    10
 73
     6
 74
     0
 42
0.000000001
 43
0.00000001
 40
0.0
 40
0.0
 40
0.0
 40
0.0
 40
0.5
 40
0.5
 40
1.0
 40
1.0
 40
1.0
 40
1.0
 10
31.91002703439929
 20
-1.16517638160272
 30
0.0
 10
31.96399093485061
 20
-1.207996259838694
 30
0.0
 10
32.02773583275336
 20
-1.251367106953808
 30
0.0
 10
32.16736815112159
 20
-1.330459125082626
 30
0.0
 10
32.24330821581574
 20
-1.365622268117505
 30
0.0
 10
32.31017051723143
 20
-1.389257931435822
 30
0.0
  0
SPLINE
  5
597
330
1F
100
AcDbEntity
  8
0
  6
Continuous
 62
     1
370
    15
100
AcDbSpline
210
0.0
220
0.0
230
1.0
 70
     8
 71
     3
 72
    10
 73
     6
 74
     0
 42
0.000000001
 43
0.00000001
 40
0.0
 40
0.0
 40
0.0
 40
0.0
 40
0.5
 40
0.5
 40
1.0
 40
1.0
 40
1.0
 40
1.0
 10
33.87836194526682
 20
-2.255126369734995
 30
0.0
 10
33.93266111081692
 20
-2.292485740226113
 30
0.0
 10
33.996634432533
 20
-2.332041226005344
 30
0.0
 10
34.13646518288022
 20
-2.408211430971761
 30
0.0
 10
34.21231217959786
 20
-2.44441335829822
 30
0.0
 10
34.27871403546987
 20
-2.472256240667406
 30
0.0
  0
SPLINE
  5
598
330
1F
100
AcDbEntity
  8
0
  6
Continuous
 62
     1
370
    15
100
AcDbSpline
210
0.0
220
0.0
230
1.0
 70
     8
 71
     3
 72
    10
 73
     6
 74
     0
 42
0.000000001
 43
0.00000001
 40
0.0
 40
0.0
 40
0.0
 40
0.0
 40
0.5
 40
0.5
 40
1.0
 40
1.0
 40
1.0
 40
1.0
 10
35.52749057750822
 20
-3.141624668602674
 30
0.0
 10
35.58149452450868
 20
-3.174024425334949
 30
0.0
 10
35.64527958525932
 20
-3.210198318820233
 30
0.0
 10
35.78497144446771
 20
-3.283986927656684
 30
0.0
 10
35.86094709010547
 20
-3.321391193836178
 30
0.0
 10
35.92785082793614
 20
-3.353384087657901
 30
0.0
  0
SPLINE
  5
599
330
1F
100
AcDbEntity
  8
0
  6
Continuous
 62
     1
370
    15
100
AcDbSpline
210
0.0
220
0.0
230
1.0
 70
     8
 71
     3
 72
    10
 73
     6
 74
     0
 42
0.000000001
 43
0.00000001
 40
0.0
 40
0.0
 40
0.0
 40
0.0
 40
0.5
 40
0.5
 40
1.0
 40
1.0
 40
1.0
 40
1.0
 10
39.14867531057516
 20
-4.969452088444143
 30
0.0
 10
39.20270543353772
 20
-4.989857783792047
 30
0.0
 10
39.26650750069928
 20
-5.017078062909661
 30
0.0
 10
39.40622173418097
 20
-5.081990386822355
 30
0.0
 10
39.48221564042262
 20
-5.119835655094334
 30
0.0
 10
39.54915024942784
 20
-5.158618317546853
 30
0.0
  0
SPLINE
  5
59A
330
1F
100
AcDbEntity
  8
0
  6
Continuous
 62
     1
370
    15
100
AcDbSpline
210
0.0
220
0.0
230
1.0
 70
     8
 71
     3
 72
    10
 73
     6
 74
     0
 42
0.000000001
 43
0.00000001
 40
0.0
 40
0.0
 40
0.0
 40
0.0
 40
0.5
 40
0.5
 40
1.0
 40
1.0
 40
1.0
 40
1.0
 10
41.11814986530956
 20
-5.868389401918677
 30
0.0
 10
41.17245999195313
 20
-5.882018916984322
 30
0.0
 10
41.23644088519774
 20
-5.903901586550234
 30
0.0
 10
41.37628045014364
 20
-5.962768453781052
 30
0.0
 10
41.45213011316531
 20
-6.000058021911485
 30
0.0
 10
41.51853427089475
 20
-6.041626456712663
 30
0.0
  0
SPLINE
  5
59B
330
1F
100
AcDbEntity
  8
0
  6
Continuous
 62
     1
370
    15
100
AcDbSpline
210
0.0
220
0.0
230
1.0
 70
     8
 71
     3
 72
     8
 73
     4
 74
     0
 42
0.000000001
 43
0.00000001
 40
0.0
 40
0.0
 40
0.0
 40
0.0
 40
1.0
 40
1.0
 40
1.0
 40
1.0
 10
41.5185342708948
 20
-6.041626456712692
 30
0.0
 10
41.71720896304808
 20
-6.165995114787819
 30
0.0
 10
41.93467054624949
 20
-6.291125872441825
 30
0.0
 10
42.14896048352384
 20
-6.393316909015653
 30
0.0
  0
SPLINE
  5
59C
330
1F
100
AcDbEntity
  8
0
  6
Continuous
 62
     1
370
    15
100
AcDbSpline
210
0.0
220
0.0
230
1.0
 70
     8
 71
     3
 72
     8
 73
     4
 74
     0
 42
0.000000001
 43
0.00000001
 40
0.0
 40
0.0
 40
0.0
 40
0.0
 40
1.0
 40
1.0
 40
1.0
 40
1.0
 10
42.14896045348451
 20
-6.393316897640204
 30
0.0
 10
42.37656688984316
 20
-6.479506623719487
 30
0.0
 10
42.58826007068544
 20
-6.53319956920916
 30
0.0
 10
42.76695041459118
 20
-6.55768266892278
 30
0.0
  0
SPLINE
  5
59D
330
1F
100
AcDbEntity
  8
0
  6
Continuous
 62
     1
370
    15
100
AcDbSpline
210
0.0
220
0.0
230
1.0
 70
     8
 71
     3
 72
    10
 73
     6
 74
     0
 42
0.000000001
 43
0.00000001
 40
0.0
 40
0.0
 40
0.0
 40
0.0
 40
0.5
 40
0.5
 40
1.0
 40
1.0
 40
1.0
 40
1.0
 10
42.76695041459118
 20
-6.55768266892278
 30
0.0
 10
42.82090029284103
 20
-6.565074563861572
 30
0.0
 10
42.88461834171829
 20
-6.582007900258986
 30
0.0
 10
43.02421659450957
 20
-6.634837976183661
 30
0.0
 10
43.10017526395657
 20
-6.671204365491036
 30
0.0
 10
43.16706007795435
 20
-6.714850750726669
 30
0.0
  0
SPLINE
  5
59E
330
1F
100
AcDbEntity
  8
0
  6
Continuous
 62
     1
370
    15
100
AcDbSpline
210
0.0
220
0.0
230
1.0
 70
     8
 71
     3
 72
    10
 73
     6
 74
     0
 42
0.000000001
 43
0.00000001
 40
0.0
 40
0.0
 40
0.0
 40
0.0
 40
0.5
 40
0.5
 40
1.0
 40
1.0
 40
1.0
 40
1.0
 10
43.16706007795435
 20
-6.714850750726669
 30
0.0
 10
43.42920369764377
 20
-6.885915312742185
 30
0.0
 10
43.71696087460248
 20
-7.039650732440464
 30
0.0
 10
44.26620595786264
 20
-7.242488233454196
 30
0.0
 10
44.52206637990113
 20
-7.291042587467672
 30
0.0
 10
44.73539583211104
 20
-7.292983916146568
 30
0.0
  0
SPLINE
  5
59F
330
1F
100
AcDbEntity
  8
0
  6
Continuous
 62
     1
370
    15
100
AcDbSpline
210
0.0
220
0.0
230
1.0
 70
     8
 71
     3
 72
    10
 73
     6
 74
     0
 42
0.000000001
 43
0.00000001
 40
0.0
 40
0.0
 40
0.0
 40
0.0
 40
0.5
 40
0.5
 40
1.0
 40
1.0
 40
1.0
 40
1.0
 10
44.73539583211104
 20
-7.292983916146568
 30
0.0
 10
44.78970633114082
 20
-7.293478149494291
 30
0.0
 10
44.85369057412336
 20
-7.304733499017345
 30
0.0
 10
44.99353249832427
 20
-7.35048613846817
 30
0.0
 10
45.06938140260371
 20
-7.3856328856792
 30
0.0
 10
45.13578750191104
 20
-7.431218227816601
 30
0.0
  0
SPLINE
  5
5A0
330
1F
100
AcDbEntity
  8
0
  6
Continuous
 62
     1
370
    15
100
AcDbSpline
210
0.0
220
0.0
230
1.0
 70
     8
 71
     3
 72
     8
 73
     4
 74
     0
 42
0.000000001
 43
0.00000001
 40
0.0
 40
0.0
 40
0.0
 40
0.0
 40
1.0
 40
1.0
 40
1.0
 40
1.0
 10
45.1357875019111
 20
-7.431218227816657
 30
0.0
 10
45.33450385160404
 20
-7.567629685251006
 30
0.0
 10
45.55200111361125
 20
-7.688522475929204
 30
0.0
 10
45.76630596561117
 20
-7.775994713750066
 30
0.0
  0
SPLINE
  5
5A1
330
1F
100
AcDbEntity
  8
0
  6
Continuous
 62
     1
370
    15
100
AcDbSpline
210
0.0
220
0.0
230
1.0
 70
     8
 71
     3
 72
     8
 73
     4
 74
     0
 42
0.000000001
 43
0.00000001
 40
0.0
 40
0.0
 40
0.0
 40
0.0
 40
1.0
 40
1.0
 40
1.0
 40
1.0
 10
45.76630593555862
 20
-7.775994705977979
 30
0.0
 10
45.99404228728596
 20
-7.834890277805584
 30
0.0
 10
46.20583336229444
 20
-7.851198624289196
 30
0.0
 10
46.38468874329814
 20
-7.831563580715198
 30
0.0
  0
SPLINE
  5
5A2
330
1F
100
AcDbEntity
  8
0
  6
Continuous
 62
     1
370
    15
100
AcDbSpline
210
0.0
220
0.0
230
1.0
 70
     8
 71
     3
 72
    10
 73
     6
 74
     0
 42
0.000000001
 43
0.00000001
 40
0.0
 40
0.0
 40
0.0
 40
0.0
 40
0.5
 40
0.5
 40
1.0
 40
1.0
 40
1.0
 40
1.0
 10
46.38468874329814
 20
-7.831563580715198
 30
0.0
 10
46.43868232693603
 20
-7.825636074584281
 30
0.0
 10
46.50245789523768
 20
-7.831473742054982
 30
0.0
 10
46.64217066364796
 20
-7.869704169060412
 30
0.0
 10
46.71819062873291
 20
-7.902896865172579
 30
0.0
 10
46.7851290332222
 20
-7.949380641744057
 30
0.0
  0
SPLINE
  5
5A3
330
1F
100
AcDbEntity
  8
0
  6
Continuous
 62
     1
370
    15
100
AcDbSpline
210
0.0
220
0.0
230
1.0
 70
     8
 71
     3
 72
    10
 73
     6
 74
     0
 42
0.000000001
 43
0.00000001
 40
0.0
 40
0.0
 40
0.0
 40
0.0
 40
0.5
 40
0.5
 40
1.0
 40
1.0
 40
1.0
 40
1.0
 10
46.7851290332222
 20
-7.949380641744085
 30
0.0
 10
47.0476083898252
 20
-8.131653163177049
 30
0.0
 10
47.33574108723008
 20
-8.269613484141644
 30
0.0
 10
47.88558792497292
 20
-8.413182833927522
 30
0.0
 10
48.14173414072636
 20
-8.418755703321494
 30
0.0
 10
48.35545173684713
 20
-8.369125294357048
 30
0.0
  0
SPLINE
  5
5A4
330
1F
100
AcDbEntity
  8
0
  6
Continuous
 62
     1
370
    15
100
AcDbSpline
210
0.0
220
0.0
230
1.0
 70
     8
 71
     3
 72
    10
 73
     6
 74
     0
 42
0.000000001
 43
0.00000001
 40
0.0
 40
0.0
 40
0.0
 40
0.0
 40
0.5
 40
0.5
 40
1.0
 40
1.0
 40
1.0
 40
1.0
 10
48.35545173684713
 20
-8.369125294357076
 30
0.0
 10
48.40986741349462
 20
-8.356488654533706
 30
0.0
 10
48.47394474992322
 20
-8.356587981964708
 30
0.0
 10
48.61393659333183
 20
-8.387039481195814
 30
0.0
 10
48.68987562227187
 20
-8.418358731473404
 30
0.0
 10
48.75636704340033
 20
-8.465821887146461
 30
0.0
  0
SPLINE
  5
5A5
330
1F
100
AcDbEntity
  8
0
  6
Continuous
 62
     1
370
    15
100
AcDbSpline
210
0.0
220
0.0
230
1.0
 70
     8
 71
     3
 72
     8
 73
     4
 74
     0
 42
0.000000001
 43
0.00000001
 40
0.0
 40
0.0
 40
0.0
 40
0.0
 40
1.0
 40
1.0
 40
1.0
 40
1.0
 10
48.75636704340039
 20
-8.46582188714649
 30
0.0
 10
48.95524467056688
 20
-8.607785461061582
 30
0.0
 10
49.17288703893328
 20
-8.718622269820827
 30
0.0
 10
49.38730725750338
 20
-8.787162474647687
 30
0.0
  0
SPLINE
  5
5A6
330
1F
100
AcDbEntity
  8
0
  6
Continuous
 62
     1
370
    15
100
AcDbSpline
210
0.0
220
0.0
230
1.0
 70
     8
 71
     3
 72
     8
 73
     4
 74
     0
 42
0.000000001
 43
0.00000001
 40
0.0
 40
0.0
 40
0.0
 40
0.0
 40
1.0
 40
1.0
 40
1.0
 40
1.0
 10
49.38730722733945
 20
-8.787162470843896
 30
0.0
 10
49.615133642405
 20
-8.815863693787833
 30
0.0
 10
49.82699537659869
 20
-8.793984120918395
 30
0.0
 10
50.00599897457306
 20
-8.73092939987606
 30
0.0
  0
SPLINE
  5
5A7
330
1F
100
AcDbEntity
  8
0
  6
Continuous
 62
     1
370
    15
100
AcDbSpline
210
0.0
220
0.0
230
1.0
 70
     8
 71
     3
 72
    10
 73
     6
 74
     0
 42
0.000000001
 43
0.00000001
 40
0.0
 40
0.0
 40
0.0
 40
0.0
 40
0.5
 40
0.5
 40
1.0
 40
1.0
 40
1.0
 40
1.0
 10
50.00599897457309
 20
-8.73092939987606
 30
0.0
 10
50.05999201146361
 20
-8.711910140386948
 30
0.0
 10
50.12376196212014
 20
-8.706339342851152
 30
0.0
 10
50.26346781817864
 20
-8.728109349199599
 30
0.0
 10
50.33948017904584
 20
-8.756532922500725
 30
0.0
 10
50.40640381389304
 20
-8.803605514011707
 30
0.0
  0
SPLINE
  5
5A8
330
1F
100
AcDbEntity
  8
0
  6
Continuous
 62
     1
370
    15
100
AcDbSpline
210
0.0
220
0.0
230
1.0
 70
     8
 71
     3
 72
    10
 73
     6
 74
     0
 42
0.000000001
 43
0.00000001
 40
0.0
 40
0.0
 40
0.0
 40
0.0
 40
0.5
 40
0.5
 40
1.0
 40
1.0
 40
1.0
 40
1.0
 10
50.40640381389301
 20
-8.803605514011707
 30
0.0
 10
50.55244134880735
 20
-8.906325057592795
 30
0.0
 10
50.70539372064104
 20
-8.987487417931845
 30
0.0
 10
51.01762976748495
 20
-9.10533433603743
 30
0.0
 10
51.1742169105205
 20
-9.140502637191787
 30
0.0
 10
51.32397899862849
 20
-9.152455626954577
 30
0.0
  0
LINE
  5
5A9
330
1F
100
AcDbEntity
  8
0
  6
Continuous
 62
     1
370
    15
100
AcDbLine
 10
53.27500000000001
 20
-8.262673392891912
 30
0.0
 11
53.27500000000001
 21
-7.733162026852398
 31
0.0
  0
SPLINE
  5
5AA
330
1F
100
AcDbEntity
  8
0
  6
Continuous
 62
     1
370
    15
100
AcDbSpline
210
0.0
220
0.0
230
1.0
 70
     8
 71
     3
 72
     8
 73
     4
 74
     0
 42
0.000000001
 43
0.00000001
 40
0.0
 40
0.0
 40
0.0
 40
0.0
 40
1.0
 40
1.0
 40
1.0
 40
1.0
 10
53.12723398113735
 20
-8.401918528631114
 30
0.0
 10
53.17637293465427
 20
-8.35485346811987
 30
0.0
 10
53.22562424654953
 20
-8.308420936975352
 30
0.0
 10
53.27500102818013
 20
-8.262673327908146
 30
0.0
  0
SPLINE
  5
5AB
330
1F
100
AcDbEntity
  8
0
  6
Continuous
 62
     1
370
    15
100
AcDbSpline
210
0.0
220
0.0
230
1.0
 70
     8
 71
     3
 72
     8
 73
     4
 74
     0
 42
0.000000001
 43
0.00000001
 40
0.0
 40
0.0
 40
0.0
 40
0.0
 40
1.0
 40
1.0
 40
1.0
 40
1.0
 10
53.12723398113735
 20
-8.401918528631114
 30
0.0
 10
52.96883693262961
 20
-8.499992459330599
 30
0.0
 10
52.80409497063869
 20
-8.578341416346404
 30
0.0
 10
52.64023577603092
 20
-8.633550620578092
 30
0.0
  0
SPLINE
  5
5AC
330
1F
100
AcDbEntity
  8
0
  6
Continuous
 62
     1
370
    15
100
AcDbSpline
210
0.0
220
0.0
230
1.0
 70
     8
 71
     3
 72
     8
 73
     4
 74
     0
 42
0.000000001
 43
0.00000001
 40
0.0
 40
0.0
 40
0.0
 40
0.0
 40
1.0
 40
1.0
 40
1.0
 40
1.0
 10
52.64023577603837
 20
-8.633550620576784
 30
0.0
 10
52.41273520466359
 20
-8.667780174211032
 30
0.0
 10
52.20096949070521
 20
-8.652553404567442
 30
0.0
 10
52.02214851851019
 20
-8.597076005881888
 30
0.0
  0
SPLINE
  5
5AD
330
1F
100
AcDbEntity
  8
0
  6
Continuous
 62
     1
370
    15
100
AcDbSpline
210
0.0
220
0.0
230
1.0
 70
     8
 71
     3
 72
     9
 73
     5
 74
     0
 42
0.000000001
 43
0.00000001
 40
0.0
 40
0.0
 40
0.0
 40
0.0
 40
0.6041921677672955
 40
1.0
 40
1.0
 40
1.0
 40
1.0
 10
50.80263751894236
 20
-9.02205705642703
 30
0.0
 10
50.63733574517562
 20
-9.037689394654421
 30
0.0
 10
50.36374435722766
 20
-9.063562517580124
 30
0.0
 10
50.14097678639172
 20
-8.98392871269212
 30
0.0
 10
50.05280363708735
 20
-8.952409029006986
 30
0.0
  0
SPLINE
  5
5AE
330
1F
100
AcDbEntity
  8
0
  6
Continuous
 62
     1
370
    15
100
AcDbSpline
210
0.0
220
0.0
230
1.0
 70
     8
 71
     3
 72
    10
 73
     6
 74
     0
 42
0.000000001
 43
0.00000001
 40
0.0
 40
0.0
 40
0.0
 40
0.0
 40
0.5
 40
0.5
 40
1.0
 40
1.0
 40
1.0
 40
1.0
 10
50.0528031635904
 20
-8.952408974731242
 30
0.0
 10
49.99844578378094
 20
-8.929437267285266
 30
0.0
 10
49.93442364682699
 20
-8.920401438204578
 30
0.0
 10
49.79455719343807
 20
-8.937266983154188
 30
0.0
 10
49.7186687057158
 20
-8.964345350956762
 30
0.0
 10
49.65218671657826
 20
-9.011645537031058
 30
0.0
  0
SPLINE
  5
5AF
330
1F
100
AcDbEntity
  8
0
  6
Continuous
 62
     1
370
    15
100
AcDbSpline
210
0.0
220
0.0
230
1.0
 70
     8
 71
     3
 72
     8
 73
     4
 74
     0
 42
0.000000001
 43
0.00000001
 40
0.0
 40
0.0
 40
0.0
 40
0.0
 40
1.0
 40
1.0
 40
1.0
 40
1.0
 10
49.65218671657826
 20
-9.011645537031086
 30
0.0
 10
49.45338827732925
 20
-9.15308539600261
 30
0.0
 10
49.23582304244837
 20
-9.251691024886043
 30
0.0
 10
49.02132213774706
 20
-9.302163501524404
 30
0.0
  0
SPLINE
  5
5B0
330
1F
100
AcDbEntity
  8
0
  6
Continuous
 62
     1
370
    15
100
AcDbSpline
210
0.0
220
0.0
230
1.0
 70
     8
 71
     3
 72
     8
 73
     4
 74
     0
 42
0.000000001
 43
0.00000001
 40
0.0
 40
0.0
 40
0.0
 40
0.0
 40
1.0
 40
1.0
 40
1.0
 40
1.0
 10
49.02132213775454
 20
-9.302163501524234
 30
0.0
 10
48.79345183285059
 20
-9.304973285343806
 30
0.0
 10
48.58132060024454
 20
-9.252291008769106
 30
0.0
 10
48.402091259511
 20
-9.155955022594469
 30
0.0
  0
SPLINE
  5
5B1
330
1F
100
AcDbEntity
  8
0
  6
Continuous
 62
     1
370
    15
100
AcDbSpline
210
0.0
220
0.0
230
1.0
 70
     8
 71
     3
 72
    10
 73
     6
 74
     0
 42
0.000000001
 43
0.00000001
 40
0.0
 40
0.0
 40
0.0
 40
0.0
 40
0.5
 40
0.5
 40
1.0
 40
1.0
 40
1.0
 40
1.0
 10
48.40209125951094
 20
-9.155955022594469
 30
0.0
 10
48.34801082687372
 20
-9.126886725018096
 30
0.0
 10
48.28415596443537
 20
-9.112174095850207
 30
0.0
 10
48.14431440215009
 20
-9.119689848961087
 30
0.0
 10
48.06825018622209
 20
-9.143191160246403
 30
0.0
 10
48.0012934478583
 20
-9.189075546328127
 30
0.0
  0
SPLINE
  5
5B2
330
1F
100
AcDbEntity
  8
0
  6
Continuous
 62
     1
370
    15
100
AcDbSpline
210
0.0
220
0.0
230
1.0
 70
     8
 71
     3
 72
    10
 73
     6
 74
     0
 42
0.000000001
 43
0.00000001
 40
0.0
 40
0.0
 40
0.0
 40
0.0
 40
0.5
 40
0.5
 40
1.0
 40
1.0
 40
1.0
 40
1.0
 10
48.0012934478583
 20
-9.189075546328155
 30
0.0
 10
47.73871181911247
 20
-9.36901855319752
 30
0.0
 10
47.45048047301952
 20
-9.461993039160348
 30
0.0
 10
46.90078860087368
 20
-9.482266378515078
 30
0.0
 10
46.64487398105007
 20
-9.41033518741645
 30
0.0
 10
46.43151833701845
 20
-9.27438325968231
 30
0.0
  0
SPLINE
  5
5B3
330
1F
100
AcDbEntity
  8
0
  6
Continuous
 62
     1
370
    15
100
AcDbSpline
210
0.0
220
0.0
230
1.0
 70
     8
 71
     3
 72
    11
 73
     7
 74
     0
 42
0.000000001
 43
0.00000001
 40
0.0
 40
0.0
 40
0.0
 40
0.0
 40
0.2641450861204796
 40
0.6171786523866455
 40
0.9216181261334968
 40
1.0
 40
1.0
 40
1.0
 40
1.0
 10
46.36403422206641
 20
-9.250397561118035
 30
0.0
 10
46.33837403828778
 20
-9.238952521617165
 30
0.0
 10
46.27841866347057
 20
-9.21221102829847
 30
0.0
 10
46.16792043314479
 20
-9.221665419260916
 30
0.0
 10
46.0809867082684
 20
-9.25281954171956
 30
0.0
 10
46.03954303620773
 20
-9.279433047792168
 30
0.0
 10
46.03105753064156
 20
-9.28488210774961
 30
0.0
  0
SPLINE
  5
5B4
330
1F
100
AcDbEntity
  8
0
  6
Continuous
 62
     1
370
    15
100
AcDbSpline
210
0.0
220
0.0
230
1.0
 70
     8
 71
     3
 72
     8
 73
     4
 74
     0
 42
0.000000001
 43
0.00000001
 40
0.0
 40
0.0
 40
0.0
 40
0.0
 40
1.0
 40
1.0
 40
1.0
 40
1.0
 10
46.03105834266299
 20
-9.284881789966335
 30
0.0
 10
45.83237846274642
 20
-9.41929378368431
 30
0.0
 10
45.61492662715452
 20
-9.498656896081428
 30
0.0
 10
45.4005316054116
 20
-9.524964434857964
 30
0.0
  0
SPLINE
  5
5B5
330
1F
100
AcDbEntity
  8
0
  6
Continuous
 62
     1
370
    15
100
AcDbSpline
210
0.0
220
0.0
230
1.0
 70
     8
 71
     3
 72
     8
 73
     4
 74
     0
 42
0.000000001
 43
0.00000001
 40
0.0
 40
0.0
 40
0.0
 40
0.0
 40
1.0
 40
1.0
 40
1.0
 40
1.0
 10
45.40053160542195
 20
-9.524964434859157
 30
0.0
 10
45.17296883862105
 20
-9.496162936241035
 30
0.0
 10
44.96115992452386
 20
-9.408495793545598
 30
0.0
 10
44.78233158919448
 20
-9.275828373054622
 30
0.0
  0
SPLINE
  5
5B6
330
1F
100
AcDbEntity
  8
0
  6
Continuous
 62
     1
370
    15
100
AcDbSpline
210
0.0
220
0.0
230
1.0
 70
     8
 71
     3
 72
    10
 73
     6
 74
     0
 42
0.000000001
 43
0.00000001
 40
0.0
 40
0.0
 40
0.0
 40
0.0
 40
0.5
 40
0.5
 40
1.0
 40
1.0
 40
1.0
 40
1.0
 10
44.78233158919446
 20
-9.275828373054594
 30
0.0
 10
44.72836236080602
 20
-9.235790208504255
 30
0.0
 10
44.66460931983212
 20
-9.21060496053991
 30
0.0
 10
44.52493603891077
 20
-9.200503704218562
 30
0.0
 10
44.44897304911103
 20
-9.217045833507711
 30
0.0
 10
44.38211214939156
 20
-9.259476105329327
 30
0.0
  0
SPLINE
  5
5B7
330
1F
100
AcDbEntity
  8
0
  6
Continuous
 62
     1
370
    15
100
AcDbSpline
210
0.0
220
0.0
230
1.0
 70
     8
 71
     3
 72
    10
 73
     6
 74
     0
 42
0.000000001
 43
0.00000001
 40
0.0
 40
0.0
 40
0.0
 40
0.0
 40
0.5
 40
0.5
 40
1.0
 40
1.0
 40
1.0
 40
1.0
 10
44.38211214939153
 20
-9.259476105329327
 30
0.0
 10
44.11977767727214
 20
-9.425954914422675
 30
0.0
 10
43.83178265348755
 20
-9.487517136082943
 30
0.0
 10
43.28260725065948
 20
-9.437241540133812
 30
0.0
 10
43.0270358323433
 20
-9.326651069352067
 30
0.0
 10
42.81390661009078
 20
-9.151530585274173
 30
0.0
  0
SPLINE
  5
5B8
330
1F
100
AcDbEntity
  8
0
  6
Continuous
 62
     1
370
    15
100
AcDbSpline
210
0.0
220
0.0
230
1.0
 70
     8
 71
     3
 72
    10
 73
     6
 74
     0
 42
0.000000001
 43
0.00000001
 40
0.0
 40
0.0
 40
0.0
 40
0.0
 40
0.5
 40
0.5
 40
1.0
 40
1.0
 40
1.0
 40
1.0
 10
42.81390661009078
 20
-9.151530585274173
 30
0.0
 10
42.75963611114781
 20
-9.106938501909951
 30
0.0
 10
42.69569446216539
 20
-9.077203906456305
 30
0.0
 10
42.55591327909582
 20
-9.059180418608605
 30
0.0
 10
42.48006436602651
 20
-9.072450283271081
 30
0.0
 10
42.41364262957276
 20
-9.112927210289598
 30
0.0
  0
SPLINE
  5
5B9
330
1F
100
AcDbEntity
  8
0
  6
Continuous
 62
     1
370
    15
100
AcDbSpline
210
0.0
220
0.0
230
1.0
 70
     8
 71
     3
 72
     8
 73
     4
 74
     0
 42
0.000000001
 43
0.00000001
 40
0.0
 40
0.0
 40
0.0
 40
0.0
 40
1.0
 40
1.0
 40
1.0
 40
1.0
 10
42.41364262957276
 20
-9.112927210289627
 30
0.0
 10
42.21501444771803
 20
-9.2339697913782
 30
0.0
 10
41.99760110661865
 20
-9.29034567949941
 30
0.0
 10
41.78324821830807
 20
-9.291285219561047
 30
0.0
  0
SPLINE
  5
5BA
330
1F
100
AcDbEntity
  8
0
  6
Continuous
 62
     1
370
    15
100
AcDbSpline
210
0.0
220
0.0
230
1.0
 70
     8
 71
     3
 72
     8
 73
     4
 74
     0
 42
0.000000001
 43
0.00000001
 40
0.0
 40
0.0
 40
0.0
 40
0.0
 40
1.0
 40
1.0
 40
1.0
 40
1.0
 10
41.78324821836259
 20
-9.291285219571876
 30
0.0
 10
41.55568109655508
 20
-9.232331548236857
 30
0.0
 10
41.34389449019332
 20
-9.113922833307726
 30
0.0
 10
41.16506352008619
 20
-8.951394838855606
 30
0.0
  0
SPLINE
  5
5BB
330
1F
100
AcDbEntity
  8
0
  6
Continuous
 62
     1
370
    15
100
AcDbSpline
210
0.0
220
0.0
230
1.0
 70
     8
 71
     3
 72
    10
 73
     6
 74
     0
 42
0.000000001
 43
0.00000001
 40
0.0
 40
0.0
 40
0.0
 40
0.0
 40
0.5
 40
0.5
 40
1.0
 40
1.0
 40
1.0
 40
1.0
 10
41.16506352008614
 20
-8.951394838855549
 30
0.0
 10
41.11107606063877
 20
-8.902329100945138
 30
0.0
 10
41.04730261537256
 20
-8.867892839386883
 30
0.0
 10
40.90759901407105
 20
-8.84065802832933
 30
0.0
 10
40.83162078234355
 20
-8.849426003666224
 30
0.0
 10
40.76474279215137
 20
-8.886412031698995
 30
0.0
  0
SPLINE
  5
5BC
330
1F
100
AcDbEntity
  8
0
  6
Continuous
 62
     1
370
    15
100
AcDbSpline
210
0.0
220
0.0
230
1.0
 70
     8
 71
     3
 72
    10
 73
     6
 74
     0
 42
0.000000001
 43
0.00000001
 40
0.0
 40
0.0
 40
0.0
 40
0.0
 40
0.5
 40
0.5
 40
1.0
 40
1.0
 40
1.0
 40
1.0
 10
40.76474279215137
 20
-8.886412031698995
 30
0.0
 10
40.50220817485467
 20
-9.031603486869926
 30
0.0
 10
40.21400962023498
 20
-9.05863535877927
 30
0.0
 10
39.66455570636649
 20
-8.940037523491128
 30
0.0
 10
39.40888475275031
 20
-8.796016631513766
 30
0.0
 10
39.19543407561784
 20
-8.590114135128658
 30
0.0
  0
SPLINE
  5
5BD
330
1F
100
AcDbEntity
  8
0
  6
Continuous
 62
     1
370
    15
100
AcDbSpline
210
0.0
220
0.0
230
1.0
 70
     8
 71
     3
 72
    10
 73
     6
 74
     0
 42
0.000000001
 43
0.00000001
 40
0.0
 40
0.0
 40
0.0
 40
0.0
 40
0.5
 40
0.5
 40
1.0
 40
1.0
 40
1.0
 40
1.0
 10
39.19543407561784
 20
-8.590114135128658
 30
0.0
 10
39.14107245970581
 20
-8.537674889799547
 30
0.0
 10
39.07704071988215
 20
-8.499501470323679
 30
0.0
 10
38.93711219922645
 20
-8.46491827170047
 30
0.0
 10
38.86118305922727
 20
-8.470131944926095
 30
0.0
 10
38.79468796832944
 20
-8.50422098255271
 30
0.0
  0
SPLINE
  5
5BE
330
1F
100
AcDbEntity
  8
0
  6
Continuous
 62
     1
370
    15
100
AcDbSpline
210
0.0
220
0.0
230
1.0
 70
     8
 71
     3
 72
     8
 73
     4
 74
     0
 42
0.000000001
 43
0.00000001
 40
0.0
 40
0.0
 40
0.0
 40
0.0
 40
1.0
 40
1.0
 40
1.0
 40
1.0
 10
38.79468796832944
 20
-8.50422098255271
 30
0.0
 10
38.595846142092
 20
-8.606158229420515
 30
0.0
 10
38.37820461174883
 20
-8.636737153148545
 30
0.0
 10
38.16365400191296
 20
-8.612203421206829
 30
0.0
  0
SPLINE
  5
5BF
330
1F
100
AcDbEntity
  8
0
  6
Continuous
 62
     1
370
    15
100
AcDbSpline
210
0.0
220
0.0
230
1.0
 70
     8
 71
     3
 72
     8
 73
     4
 74
     0
 42
0.000000001
 43
0.00000001
 40
0.0
 40
0.0
 40
0.0
 40
0.0
 40
1.0
 40
1.0
 40
1.0
 40
1.0
 10
38.16365400192254
 20
-8.612203421210381
 30
0.0
 10
37.93572924529485
 20
-8.525841563435563
 30
0.0
 10
37.72356518696449
 20
-8.382315990255961
 30
0.0
 10
37.54437614829138
 20
-8.19751907874118
 30
0.0
  0
SPLINE
  5
5C0
330
1F
100
AcDbEntity
  8
0
  6
Continuous
 62
     1
370
    15
100
AcDbSpline
210
0.0
220
0.0
230
1.0
 70
     8
 71
     3
 72
    10
 73
     6
 74
     0
 42
0.000000001
 43
0.00000001
 40
0.0
 40
0.0
 40
0.0
 40
0.0
 40
0.5
 40
0.5
 40
1.0
 40
1.0
 40
1.0
 40
1.0
 10
37.54437614829135
 20
-8.197519078741152
 30
0.0
 10
37.49031508033724
 20
-8.14176612384452
 30
0.0
 10
37.42647839492651
 20
-8.099698229210588
 30
0.0
 10
37.28667362664987
 20
-8.05656732721934
 30
0.0
 10
37.21063501034212
 20
-8.0570991240958
 30
0.0
 10
37.14369959867852
 20
-8.086863195227238
 30
0.0
  0
SPLINE
  5
5C1
330
1F
100
AcDbEntity
  8
0
  6
Continuous
 62
     1
370
    15
100
AcDbSpline
210
0.0
220
0.0
230
1.0
 70
     8
 71
     3
 72
    10
 73
     6
 74
     0
 42
0.000000001
 43
0.00000001
 40
0.0
 40
0.0
 40
0.0
 40
0.0
 40
0.5
 40
0.5
 40
1.0
 40
1.0
 40
1.0
 40
1.0
 10
37.14369959867852
 20
-8.086863195227266
 30
0.0
 10
36.88113015531241
 20
-8.203619563718235
 30
0.0
 10
36.59296089868135
 20
-8.194822845605216
 30
0.0
 10
36.04353868450283
 20
-8.01365788624716
 30
0.0
 10
35.78779933022778
 20
-7.843165211893563
 30
0.0
 10
35.57435997779052
 20
-7.616227293322851
 30
0.0
  0
SPLINE
  5
5C2
330
1F
100
AcDbEntity
  8
0
  6
Continuous
 62
     1
370
    15
100
AcDbSpline
210
0.0
220
0.0
230
1.0
 70
     8
 71
     3
 72
    10
 73
     6
 74
     0
 42
0.000000001
 43
0.00000001
 40
0.0
 40
0.0
 40
0.0
 40
0.0
 40
0.5
 40
0.5
 40
1.0
 40
1.0
 40
1.0
 40
1.0
 10
35.57435997779055
 20
-7.616227293322879
 30
0.0
 10
35.5200532501226
 20
-7.558486039891307
 30
0.0
 10
35.45607843544417
 20
-7.51372975561037
 30
0.0
 10
35.31624117717101
 20
-7.464320904817271
 30
0.0
 10
35.24036912531349
 20
-7.461302084425398
 30
0.0
 10
35.17393474707183
 20
-7.487353864709831
 30
0.0
  0
SPLINE
  5
5C3
330
1F
100
AcDbEntity
  8
0
  6
Continuous
 62
     1
370
    15
100
AcDbSpline
210
0.0
220
0.0
230
1.0
 70
     8
 71
     3
 72
     8
 73
     4
 74
     0
 42
0.000000001
 43
0.00000001
 40
0.0
 40
0.0
 40
0.0
 40
0.0
 40
1.0
 40
1.0
 40
1.0
 40
1.0
 10
35.1739347470718
 20
-7.487353864709888
 30
0.0
 10
34.97527549850037
 20
-7.565256710077449
 30
0.0
 10
34.75781813405149
 20
-7.568787092851892
 30
0.0
 10
34.54343992678295
 20
-7.520071889562615
 30
0.0
  0
SPLINE
  5
5C4
330
1F
100
AcDbEntity
  8
0
  6
Continuous
 62
     1
370
    15
100
AcDbSpline
210
0.0
220
0.0
230
1.0
 70
     8
 71
     3
 72
     8
 73
     4
 74
     0
 42
0.000000001
 43
0.00000001
 40
0.0
 40
0.0
 40
0.0
 40
0.0
 40
1.0
 40
1.0
 40
1.0
 40
1.0
 10
34.54343992679341
 20
-7.520071889567504
 30
0.0
 10
34.31586621609929
 20
-7.410616133393319
 30
0.0
 10
34.10409306782904
 20
-7.248975233578676
 30
0.0
 10
33.92531341467554
 20
-7.05104499844947
 30
0.0
  0
SPLINE
  5
5C5
330
1F
100
AcDbEntity
  8
0
  6
Continuous
 62
     1
370
    15
100
AcDbSpline
210
0.0
220
0.0
230
1.0
 70
     8
 71
     3
 72
    10
 73
     6
 74
     0
 42
0.000000001
 43
0.00000001
 40
0.0
 40
0.0
 40
0.0
 40
0.0
 40
0.5
 40
0.5
 40
1.0
 40
1.0
 40
1.0
 40
1.0
 10
33.92531341467549
 20
-7.051044998449413
 30
0.0
 10
33.87134699542338
 20
-6.991297785255739
 30
0.0
 10
33.80759683642728
 20
-6.943659053683803
 30
0.0
 10
33.66793655497287
 20
-6.886805073035703
 30
0.0
 10
33.5919839013817
 20
-6.879156306601089
 30
0.0
 10
33.52512779086436
 20
-6.900252556018046
 30
0.0
  0
SPLINE
  5
5C6
330
1F
100
AcDbEntity
  8
0
  6
Continuous
 62
     1
370
    15
100
AcDbSpline
210
0.0
220
0.0
230
1.0
 70
     8
 71
     3
 72
    10
 73
     6
 74
     0
 42
0.000000001
 43
0.00000001
 40
0.0
 40
0.0
 40
0.0
 40
0.0
 40
0.5
 40
0.5
 40
1.0
 40
1.0
 40
1.0
 40
1.0
 10
33.52512779086433
 20
-6.900252556018046
 30
0.0
 10
33.26277670346872
 20
-6.983036671511428
 30
0.0
 10
32.97483657623312
 20
-6.938966310840357
 30
0.0
 10
32.42589795493294
 20
-6.703941438536134
 30
0.0
 10
32.17027175397507
 20
-6.515253615109174
 30
0.0
 10
31.95697933877844
 20
-6.27842827626128
 30
0.0
  0
SPLINE
  5
5C7
330
1F
100
AcDbEntity
  8
0
  6
Continuous
 62
     1
370
    15
100
AcDbSpline
210
0.0
220
0.0
230
1.0
 70
     8
 71
     3
 72
    10
 73
     6
 74
     0
 42
0.000000001
 43
0.00000001
 40
0.0
 40
0.0
 40
0.0
 40
0.0
 40
0.5
 40
0.5
 40
1.0
 40
1.0
 40
1.0
 40
1.0
 10
31.95697933877841
 20
-6.278428276261252
 30
0.0
 10
31.90269352651117
 20
-6.218153015779166
 30
0.0
 10
31.83873460107458
 20
-6.168973102110243
 30
0.0
 10
31.6989236247864
 20
-6.107126581116347
 30
0.0
 10
31.62307292274005
 20
-6.096017704113422
 30
0.0
 10
31.55666069175922
 20
-6.112804511312476
 30
0.0
  0
SPLINE
  5
5C8
330
1F
100
AcDbEntity
  8
0
  6
Continuous
 62
     1
370
    15
100
AcDbSpline
210
0.0
220
0.0
230
1.0
 70
     8
 71
     3
 72
     8
 73
     4
 74
     0
 42
0.000000001
 43
0.00000001
 40
0.0
 40
0.0
 40
0.0
 40
0.0
 40
1.0
 40
1.0
 40
1.0
 40
1.0
 10
31.55666069175919
 20
-6.112804511312532
 30
0.0
 10
31.35801465918902
 20
-6.163015633576663
 30
0.0
 10
31.14056263177315
 20
-6.139262971759734
 30
0.0
 10
30.9261992758309
 20
-6.068667141854434
 30
0.0
  0
SPLINE
  5
5C9
330
1F
100
AcDbEntity
  8
0
  6
Continuous
 62
     1
370
    15
100
AcDbSpline
210
0.0
220
0.0
230
1.0
 70
     8
 71
     3
 72
     8
 73
     4
 74
     0
 42
0.000000001
 43
0.00000001
 40
0.0
 40
0.0
 40
0.0
 40
0.0
 40
1.0
 40
1.0
 40
1.0
 40
1.0
 10
30.92619927583917
 20
-6.068667141859038
 30
0.0
 10
30.69856663705391
 20
-5.941258137152545
 30
0.0
 10
30.48675906735033
 20
-5.769138467453075
 30
0.0
 10
30.30791179939578
 20
-5.567405025512699
 30
0.0
  0
SPLINE
  5
5CA
330
1F
100
AcDbEntity
  8
0
  6
Continuous
 62
     1
370
    15
100
AcDbSpline
210
0.0
220
0.0
230
1.0
 70
     8
 71
     3
 72
    10
 73
     6
 74
     0
 42
0.000000001
 43
0.00000001
 40
0.0
 40
0.0
 40
0.0
 40
0.0
 40
0.5
 40
0.5
 40
1.0
 40
1.0
 40
1.0
 40
1.0
 10
30.30791179939575
 20
-5.56740502551267
 30
0.0
 10
30.25391034558842
 20
-5.506493280698635
 30
0.0
 10
30.19012424281937
 20
-5.455525318456409
 30
0.0
 10
30.05040951187632
 20
-5.387576421489996
 30
0.0
 10
29.97442620299188
 20
-5.372037201965725
 30
0.0
 10
29.90753630199282
 20
-5.38345500163831
 30
0.0
  0
SPLINE
  5
5CB
330
1F
100
AcDbEntity
  8
0
  6
Continuous
 62
     1
370
    15
100
AcDbSpline
210
0.0
220
0.0
230
1.0
 70
     8
 71
     3
 72
    10
 73
     6
 74
     0
 42
0.000000001
 43
0.00000001
 40
0.0
 40
0.0
 40
0.0
 40
0.0
 40
0.5
 40
0.5
 40
1.0
 40
1.0
 40
1.0
 40
1.0
 10
29.90753630199282
 20
-5.383455001638282
 30
0.0
 10
29.64495773370896
 20
-5.428275960351044
 30
0.0
 10
29.35681543953061
 20
-5.35068900599714
 30
0.0
 10
28.80755691958248
 20
-5.072601147519975
 30
0.0
 10
28.55155461151406
 20
-4.874732188091514
 30
0.0
 10
28.33790268512033
 20
-4.639191102601671
 30
0.0
  0
SPLINE
  5
5CC
330
1F
100
AcDbEntity
  8
0
  6
Continuous
 62
     1
370
    15
100
AcDbSpline
210
0.0
220
0.0
230
1.0
 70
     8
 71
     3
 72
    10
 73
     6
 74
     0
 42
0.000000001
 43
0.00000001
 40
0.0
 40
0.0
 40
0.0
 40
0.0
 40
0.5
 40
0.5
 40
1.0
 40
1.0
 40
1.0
 40
1.0
 10
28.33790268512033
 20
-4.639191102601643
 30
0.0
 10
28.28350947215063
 20
-4.579225172771629
 30
0.0
 10
28.21944546257751
 20
-4.527925781637265
 30
0.0
 10
28.07946383469107
 20
-4.456492557613956
 30
0.0
 10
28.00351761954551
 20
-4.437741435609411
 30
0.0
 10
27.93701571837229
 20
-4.44444266584452
 30
0.0
  0
SPLINE
  5
5CD
330
1F
100
AcDbEntity
  8
0
  6
Continuous
 62
     1
370
    15
100
AcDbSpline
210
0.0
220
0.0
230
1.0
 70
     8
 71
     3
 72
     8
 73
     4
 74
     0
 42
0.000000001
 43
0.00000001
 40
0.0
 40
0.0
 40
0.0
 40
0.0
 40
1.0
 40
1.0
 40
1.0
 40
1.0
 10
27.93701571837229
 20
-4.44444266584452
 30
0.0
 10
27.73813532668478
 20
-4.464483345440613
 30
0.0
 10
27.52044292580891
 20
-4.414387118823015
 30
0.0
 10
27.30587282833764
 20
-4.32515524327053
 30
0.0
  0
SPLINE
  5
5CE
330
1F
100
AcDbEntity
  8
0
  6
Continuous
 62
     1
370
    15
100
AcDbSpline
210
0.0
220
0.0
230
1.0
 70
     8
 71
     3
 72
     8
 73
     4
 74
     0
 42
0.000000001
 43
0.00000001
 40
0.0
 40
0.0
 40
0.0
 40
0.0
 40
1.0
 40
1.0
 40
1.0
 40
1.0
 10
27.30587282835509
 20
-4.325155243280619
 30
0.0
 10
27.07798076223347
 20
-4.185779118755136
 30
0.0
 10
26.86589857064695
 20
-4.011331697419195
 30
0.0
 10
26.68680923919439
 20
-3.815281379595035
 30
0.0
  0
SPLINE
  5
5CF
330
1F
100
AcDbEntity
  8
0
  6
Continuous
 62
     1
370
    15
100
AcDbSpline
210
0.0
220
0.0
230
1.0
 70
     8
 71
     3
 72
    10
 73
     6
 74
     0
 42
0.000000001
 43
0.00000001
 40
0.0
 40
0.0
 40
0.0
 40
0.0
 40
0.5
 40
0.5
 40
1.0
 40
1.0
 40
1.0
 40
1.0
 10
26.68680923919436
 20
-3.815281379594865
 30
0.0
 10
26.63276780557047
 20
-3.756121852046789
 30
0.0
 10
26.56895060180292
 20
-3.704251269418563
 30
0.0
 10
26.42918820145977
 20
-3.628427908840536
 30
0.0
 10
26.35317440435739
 20
-3.605724933446794
 30
0.0
 10
26.28625403752324
 20
-3.606895505317368
 30
0.0
  0
SPLINE
  5
5D0
330
1F
100
AcDbEntity
  8
0
  6
Continuous
 62
     1
370
    15
100
AcDbSpline
210
0.0
220
0.0
230
1.0
 70
     8
 71
     3
 72
    10
 73
     6
 74
     0
 42
0.000000001
 43
0.00000001
 40
0.0
 40
0.0
 40
0.0
 40
0.0
 40
0.5
 40
0.5
 40
1.0
 40
1.0
 40
1.0
 40
1.0
 10
26.28625403752324
 20
-3.60689550531734
 30
0.0
 10
26.02378593934901
 20
-3.611486600482834
 30
0.0
 10
25.73593331355139
 20
-3.50417568865646
 30
0.0
 10
25.18670561186275
 20
-3.197139963982295
 30
0.0
 10
24.93072127212608
 20
-2.999660717769501
 30
0.0
 10
24.7172443584393
 20
-2.776798340797995
 30
0.0
  0
SPLINE
  5
5D1
330
1F
100
AcDbEntity
  8
0
  6
Continuous
 62
     1
370
    15
100
AcDbSpline
210
0.0
220
0.0
230
1.0
 70
     8
 71
     3
 72
    10
 73
     6
 74
     0
 42
0.000000001
 43
0.00000001
 40
0.0
 40
0.0
 40
0.0
 40
0.0
 40
0.5
 40
0.5
 40
1.0
 40
1.0
 40
1.0
 40
1.0
 10
24.7172443584393
 20
-2.776798340797967
 30
0.0
 10
24.66293940603276
 20
-2.720105883681015
 30
0.0
 10
24.59896414647289
 20
-2.669231269702664
 30
0.0
 10
24.45912673117809
 20
-2.591806792672116
 30
0.0
 10
24.3832674206397
 20
-2.566439913430372
 30
0.0
 10
24.31685272885088
 20
-2.562765487092975
 30
0.0
  0
SPLINE
  5
5D2
330
1F
100
AcDbEntity
  8
0
  6
Continuous
 62
     1
370
    15
100
AcDbSpline
210
0.0
220
0.0
230
1.0
 70
     8
 71
     3
 72
     8
 73
     4
 74
     0
 42
0.000000001
 43
0.00000001
 40
0.0
 40
0.0
 40
0.0
 40
0.0
 40
1.0
 40
1.0
 40
1.0
 40
1.0
 10
24.31685272885088
 20
-2.562765487092975
 30
0.0
 10
24.11820176430916
 20
-2.551775022236455
 30
0.0
 10
23.90074381766391
 20
-2.4780745482187
 30
0.0
 10
23.68639509218536
 20
-2.374703578060888
 30
0.0
  0
SPLINE
  5
5D3
330
1F
100
AcDbEntity
  8
0
  6
Continuous
 62
     1
370
    15
100
AcDbSpline
210
0.0
220
0.0
230
1.0
 70
     8
 71
     3
 72
     8
 73
     4
 74
     0
 42
0.000000001
 43
0.00000001
 40
0.0
 40
0.0
 40
0.0
 40
0.0
 40
1.0
 40
1.0
 40
1.0
 40
1.0
 10
23.68639509219452
 20
-2.374703578066146
 30
0.0
 10
23.45881126752656
 20
-2.230308131884925
 30
0.0
 10
23.24707382919684
 20
-2.062144592084508
 30
0.0
 10
23.06833663187277
 20
-1.881521105232537
 30
0.0
  0
SPLINE
  5
5D4
330
1F
100
AcDbEntity
  8
0
  6
Continuous
 62
     1
370
    15
100
AcDbSpline
210
0.0
220
0.0
230
1.0
 70
     8
 71
     3
 72
    10
 73
     6
 74
     0
 42
0.000000001
 43
0.00000001
 40
0.0
 40
0.0
 40
0.0
 40
0.0
 40
0.5
 40
0.5
 40
1.0
 40
1.0
 40
1.0
 40
1.0
 10
23.06833663187271
 20
-1.88152110523248
 30
0.0
 10
23.01437325312691
 20
-1.826988228040136
 30
0.0
 10
22.95062723652433
 20
-1.776751853174744
 30
0.0
 10
22.8109855301955
 20
-1.696790290289954
 30
0.0
 10
22.73504244194447
 20
-1.668082110718984
 30
0.0
 10
22.66818485898668
 20
-1.658970949834412
 30
0.0
  0
SPLINE
  5
5D5
330
1F
100
AcDbEntity
  8
0
  6
Continuous
 62
     1
370
    15
100
AcDbSpline
210
0.0
220
0.0
230
1.0
 70
     8
 71
     3
 72
    10
 73
     6
 74
     0
 42
0.000000001
 43
0.00000001
 40
0.0
 40
0.0
 40
0.0
 40
0.0
 40
0.5
 40
0.5
 40
1.0
 40
1.0
 40
1.0
 40
1.0
 10
22.66818485898668
 20
-1.658970949834469
 30
0.0
 10
22.40590276118451
 20
-1.623227892958994
 30
0.0
 10
22.11827731608719
 20
-1.491482019713885
 30
0.0
 10
21.56921480035206
 20
-1.170196873842002
 30
0.0
 10
21.31335321263273
 20
-0.9825673359313214
 30
0.0
 10
21.09998487336023
 20
-0.7831535866112631
 30
0.0
  0
SPLINE
  5
5D6
330
1F
100
AcDbEntity
  8
0
  6
Continuous
 62
     1
370
    15
100
AcDbSpline
210
0.0
220
0.0
230
1.0
 70
     8
 71
     3
 72
    10
 73
     6
 74
     0
 42
0.000000001
 43
0.00000001
 40
0.0
 40
0.0
 40
0.0
 40
0.0
 40
0.5
 40
0.5
 40
1.0
 40
1.0
 40
1.0
 40
1.0
 10
21.09998487336028
 20
-0.7831535866112915
 30
0.0
 10
21.04568426327151
 20
-0.7324043129135589
 30
0.0
 10
20.98170959209884
 20
-0.6843522646923645
 30
0.0
 10
20.84187458228519
 20
-0.6045692088443104
 30
0.0
 10
20.76602103981344
 20
-0.5737441752640677
 30
0.0
 10
20.69961187200553
 20
-0.5598606544689062
 30
0.0
  0
SPLINE
  5
5D7
330
1F
100
AcDbEntity
  8
0
  6
Continuous
 62
     1
370
    15
100
AcDbSpline
210
0.0
220
0.0
230
1.0
 70
     8
 71
     3
 72
     8
 73
     4
 74
     0
 42
0.000000001
 43
0.00000001
 40
0.0
 40
0.0
 40
0.0
 40
0.0
 40
1.0
 40
1.0
 40
1.0
 40
1.0
 10
20.69961187200553
 20
-0.559860654468963
 30
0.0
 10
20.50093575038917
 20
-0.5183253641315275
 30
0.0
 10
20.28345002199941
 20
-0.4243588163737684
 30
0.0
 10
20.06908904363752
 20
-0.3116658185996357
 30
0.0
  0
SPLINE
  5
5D8
330
1F
100
AcDbEntity
  8
0
  6
Continuous
 62
     1
370
    15
100
AcDbSpline
210
0.0
220
0.0
230
1.0
 70
     8
 71
     3
 72
     8
 73
     4
 74
     0
 42
0.000000001
 43
0.00000001
 40
0.0
 40
0.0
 40
0.0
 40
0.0
 40
1.0
 40
1.0
 40
1.0
 40
1.0
 10
20.06908904370022
 20
-0.3116658186364987
 30
0.0
 10
19.84139155145755
 20
-0.1689336437736699
 30
0.0
 10
19.62956298258911
 20
-0.0148693779593714
 30
0.0
 10
19.4506932346342
 20
0.1419623087335822
 30
0.0
  0
SPLINE
  5
5D9
330
1F
100
AcDbEntity
  8
0
  6
Continuous
 62
     1
370
    15
100
AcDbSpline
210
0.0
220
0.0
230
1.0
 70
     8
 71
     3
 72
    10
 73
     6
 74
     0
 42
0.000000001
 43
0.00000001
 40
0.0
 40
0.0
 40
0.0
 40
0.0
 40
0.5
 40
0.5
 40
1.0
 40
1.0
 40
1.0
 40
1.0
 10
19.45069323463417
 20
0.1419623087336106
 30
0.0
 10
19.39667795234755
 20
0.1893225131564407
 30
0.0
 10
19.33288039364351
 20
0.2355879814763568
 30
0.0
 10
19.19316001054588
 20
0.315989707080746
 30
0.0
 10
19.11717083784515
 20
0.3494153527489914
 30
0.0
 10
19.05026268030937
 20
0.3684125746553093
 30
0.0
  0
SPLINE
  5
5DA
330
1F
100
AcDbEntity
  8
0
  6
Continuous
 62
     1
370
    15
100
AcDbSpline
210
0.0
220
0.0
230
1.0
 70
     8
 71
     3
 72
    10
 73
     6
 74
     0
 42
0.000000001
 43
0.00000001
 40
0.0
 40
0.0
 40
0.0
 40
0.0
 40
0.5
 40
0.5
 40
1.0
 40
1.0
 40
1.0
 40
1.0
 10
15.82939074107878
 20
2.160704883750185
 30
0.0
 10
15.77536921838512
 20
2.198589900437668
 30
0.0
 10
15.71157281716836
 20
2.2386390929058
 30
0.0
 10
15.57185849853468
 20
2.315583940892196
 30
0.0
 10
15.49586884930622
 20
2.352098040308277
 30
0.0
 10
15.42895729634535
 20
2.380067310236711
 30
0.0
  0
SPLINE
  5
5DB
330
1F
100
AcDbEntity
  8
0
  6
Continuous
 62
     1
370
    15
100
AcDbSpline
210
0.0
220
0.0
230
1.0
 70
     8
 71
     3
 72
    10
 73
     6
 74
     0
 42
0.000000001
 43
0.00000001
 40
0.0
 40
0.0
 40
0.0
 40
0.0
 40
0.5
 40
0.5
 40
1.0
 40
1.0
 40
1.0
 40
1.0
 10
13.86017022260253
 20
3.222076721517539
 30
0.0
 10
13.80586748494531
 20
3.254041180539787
 30
0.0
 10
13.74189322778042
 20
3.289793079675945
 30
0.0
 10
13.60206125361859
 20
3.362924327371729
 30
0.0
 10
13.52621358594553
 20
3.400067222247401
 30
0.0
 10
13.45981212991069
 20
3.431934730950331
 30
0.0
  0
SPLINE
  5
5DC
330
1F
100
AcDbEntity
  8
0
  6
Continuous
 62
     1
370
    15
100
AcDbSpline
210
0.0
220
0.0
230
1.0
 70
     8
 71
     3
 72
    10
 73
     6
 74
     0
 42
0.000000001
 43
0.00000001
 40
0.0
 40
0.0
 40
0.0
 40
0.0
 40
0.5
 40
0.5
 40
0.5565327916548937
 40
0.5565327916548937
 40
0.5565327916548937
 40
0.5565327916548937
 10
12.21140136276784
 20
4.074137529115006
 30
0.0
 10
12.1574412241321
 20
4.100708739365786
 30
0.0
 10
12.09370059561635
 20
4.132599531644473
 30
0.0
 10
12.01599888991302
 20
4.171420210319781
 30
0.0
 10
12.00802761731883
 20
4.175401253140322
 30
0.0
 10
12.0
 20
4.179412411243078
 30
0.0
  0
SPLINE
  5
5E8
330
1F
100
AcDbEntity
  8
0
  6
Continuous
 62
     1
370
    15
100
AcDbSpline
210
0.0
220
0.0
230
1.0
 70
     8
 71
     3
 72
    12
 73
     8
 74
     0
 42
0.000000001
 43
0.00000001
 40
0.0
 40
0.0
 40
0.0
 40
0.0
 40
0.5
 40
0.5
 40
0.75
 40
0.75
 40
1.0
 40
1.0
 40
1.0
 40
1.0
 10
31.64973451930015
 20
4.749882442157599
 30
0.0
 10
31.58876414710326
 20
3.918326275438631
 30
0.0
 10
31.52687633527063
 20
3.009162798707194
 30
0.0
 10
31.43879088846265
 20
1.622399109622336
 30
0.0
 10
31.41079587417627
 20
1.159673201555194
 30
0.0
 10
31.35236509863736
 20
0.2162260915706611
 30
0.0
 10
31.32232571469046
 20
-0.2624583288538531
 30
0.0
 10
31.29194794679165
 20
-0.7401226605327906
 30
0.0
  0
SPLINE
  5
5F5
330
1F
100
AcDbEntity
  8
0
  6
Continuous
 62
     1
370
    15
100
AcDbSpline
210
0.0
220
0.0
230
1.0
 70
     8
 71
     3
 72
    10
 73
     6
 74
     0
 42
0.000000001
 43
0.00000001
 40
0.0
 40
0.0
 40
0.0
 40
0.0
 40
0.5
 40
0.5
 40
1.0
 40
1.0
 40
1.0
 40
1.0
 10
13.08969893649598
 20
-2.223612604820175
 30
0.0
 10
13.14366413192954
 20
-2.261071048772322
 30
0.0
 10
13.20741559442681
 20
-2.300777935347639
 30
0.0
 10
13.34708929612407
 20
-2.377281555506158
 30
0.0
 10
13.42305532638392
 20
-2.413687935731218
 30
0.0
 10
13.48991977773244
 20
-2.441733567764061
 30
0.0
  0
SPLINE
  5
5F6
330
1F
100
AcDbEntity
  8
0
  6
Continuous
 62
     1
370
    15
100
AcDbSpline
210
0.0
220
0.0
230
1.0
 70
     8
 71
     3
 72
    10
 73
     6
 74
     0
 42
0.000000001
 43
0.00000001
 40
0.0
 40
0.0
 40
0.0
 40
0.0
 40
0.5
 40
0.5
 40
1.0
 40
1.0
 40
1.0
 40
1.0
 10
15.05870720550948
 20
-3.28094084178548
 30
0.0
 10
15.11304427693793
 20
-3.312691755872152
 30
0.0
 10
15.17704597986545
 20
-3.348357133916892
 30
0.0
 10
15.31687788014207
 20
-3.42165829728205
 30
0.0
 10
15.39275535929008
 20
-3.459063851981909
 30
0.0
 10
15.45922209090557
 20
-3.491355398454886
 30
0.0
  0
SPLINE
  5
5F7
330
1F
100
AcDbEntity
  8
0
  6
Continuous
 62
     1
370
    15
100
AcDbSpline
210
0.0
220
0.0
230
1.0
 70
     8
 71
     3
 72
    10
 73
     6
 74
     0
 42
0.000000001
 43
0.00000001
 40
0.0
 40
0.0
 40
0.0
 40
0.0
 40
0.5
 40
0.5
 40
1.0
 40
1.0
 40
1.0
 40
1.0
 10
18.67998247146738
 20
-5.093897435068101
 30
0.0
 10
18.73431527242261
 20
-5.113681566805411
 30
0.0
 10
18.79830100711243
 20
-5.14041348447148
 30
0.0
 10
18.93815969883767
 20
-5.204825207514375
 30
0.0
 10
19.01406076584075
 20
-5.242663319351323
 30
0.0
 10
19.08053495718096
 20
-5.281775487544849
 30
0.0
  0
SPLINE
  5
5F8
330
1F
100
AcDbEntity
  8
0
  6
Continuous
 62
     1
370
    15
100
AcDbSpline
210
0.0
220
0.0
230
1.0
 70
     8
 71
     3
 72
     8
 73
     4
 74
     0
 42
0.000000001
 43
0.00000001
 40
0.0
 40
0.0
 40
0.0
 40
0.0
 40
1.0
 40
1.0
 40
1.0
 40
1.0
 10
19.08053495718099
 20
-5.281775487544877
 30
0.0
 10
19.27924583310818
 20
-5.39869324230736
 30
0.0
 10
19.49673027666961
 20
-5.523916479339476
 30
0.0
 10
19.71115400893257
 20
-5.631393596993206
 30
0.0
  0
SPLINE
  5
5F9
330
1F
100
AcDbEntity
  8
0
  6
Continuous
 62
     1
370
    15
100
AcDbSpline
210
0.0
220
0.0
230
1.0
 70
     8
 71
     3
 72
     8
 73
     4
 74
     0
 42
0.000000001
 43
0.00000001
 40
0.0
 40
0.0
 40
0.0
 40
0.0
 40
1.0
 40
1.0
 40
1.0
 40
1.0
 10
19.71115397884807
 20
-5.631393584084549
 30
0.0
 10
19.93875732615248
 20
-5.729049958940379
 30
0.0
 10
20.15060762601541
 20
-5.799390397116326
 30
0.0
 10
20.32947609661181
 20
-5.844137909081752
 30
0.0
  0
SPLINE
  5
5FA
330
1F
100
AcDbEntity
  8
0
  6
Continuous
 62
     1
370
    15
100
AcDbSpline
210
0.0
220
0.0
230
1.0
 70
     8
 71
     3
 72
    10
 73
     6
 74
     0
 42
0.000000001
 43
0.00000001
 40
0.0
 40
0.0
 40
0.0
 40
0.0
 40
0.5
 40
0.5
 40
1.0
 40
1.0
 40
1.0
 40
1.0
 10
20.32947609661181
 20
-5.844137909081752
 30
0.0
 10
20.38345433627518
 20
-5.857641641277553
 30
0.0
 10
20.44721538716357
 20
-5.879422736252053
 30
0.0
 10
20.58690143600253
 20
-5.938018836251587
 30
0.0
 10
20.66287183401269
 20
-5.975144406910658
 30
0.0
 10
20.72973979390218
 20
-6.016595720653044
 30
0.0
  0
SPLINE
  5
5FB
330
1F
100
AcDbEntity
  8
0
  6
Continuous
 62
     1
370
    15
100
AcDbSpline
210
0.0
220
0.0
230
1.0
 70
     8
 71
     3
 72
    10
 73
     6
 74
     0
 42
0.000000001
 43
0.00000001
 40
0.0
 40
0.0
 40
0.0
 40
0.0
 40
0.5
 40
0.5
 40
1.0
 40
1.0
 40
1.0
 40
1.0
 10
20.72973979390218
 20
-6.016595720653044
 30
0.0
 10
20.99209001758675
 20
-6.179226096251483
 30
0.0
 10
21.2800953234761
 20
-6.337825256520688
 30
0.0
 10
21.82928631525326
 20
-6.565691099239871
 30
0.0
 10
22.08485761374877
 20
-6.634321609275162
 30
0.0
 10
22.29800372587667
 20
-6.6610956116875
 30
0.0
  0
SPLINE
  5
5FC
330
1F
100
AcDbEntity
  8
0
  6
Continuous
 62
     1
370
    15
100
AcDbSpline
210
0.0
220
0.0
230
1.0
 70
     8
 71
     3
 72
    10
 73
     6
 74
     0
 42
0.000000001
 43
0.00000001
 40
0.0
 40
0.0
 40
0.0
 40
0.0
 40
0.5
 40
0.5
 40
1.0
 40
1.0
 40
1.0
 40
1.0
 10
22.29800372587667
 20
-6.6610956116875
 30
0.0
 10
22.35227289300332
 20
-6.667912544903203
 30
0.0
 10
22.41621294577661
 20
-6.68436505149981
 30
0.0
 10
22.55599178271763
 20
-6.736776033463542
 30
0.0
 10
22.63183856360666
 20
-6.773229361292209
 30
0.0
 10
22.69825734160997
 20
-6.81725696803386
 30
0.0
  0
SPLINE
  5
5FD
330
1F
100
AcDbEntity
  8
0
  6
Continuous
 62
     1
370
    15
100
AcDbSpline
210
0.0
220
0.0
230
1.0
 70
     8
 71
     3
 72
     8
 73
     4
 74
     0
 42
0.000000001
 43
0.00000001
 40
0.0
 40
0.0
 40
0.0
 40
0.0
 40
1.0
 40
1.0
 40
1.0
 40
1.0
 10
22.69825734160997
 20
-6.81725696803386
 30
0.0
 10
22.89687628210129
 20
-6.948917273542179
 30
0.0
 10
23.11428122965592
 20
-7.072576896513709
 30
0.0
 10
23.32862565474898
 20
-7.167461154257694
 30
0.0
  0
SPLINE
  5
5FE
330
1F
100
AcDbEntity
  8
0
  6
Continuous
 62
     1
370
    15
100
AcDbSpline
210
0.0
220
0.0
230
1.0
 70
     8
 71
     3
 72
     8
 73
     4
 74
     0
 42
0.000000001
 43
0.00000001
 40
0.0
 40
0.0
 40
0.0
 40
0.0
 40
1.0
 40
1.0
 40
1.0
 40
1.0
 10
23.32862562470908
 20
-7.167461144749126
 30
0.0
 10
23.55616870821171
 20
-7.239485719084655
 30
0.0
 10
23.76792992415704
 20
-7.273340679837702
 30
0.0
 10
23.94672701020863
 20
-7.274206624995315
 30
0.0
  0
SPLINE
  5
5FF
330
1F
100
AcDbEntity
  8
0
  6
Continuous
 62
     1
370
    15
100
AcDbSpline
210
0.0
220
0.0
230
1.0
 70
     8
 71
     3
 72
    10
 73
     6
 74
     0
 42
0.000000001
 43
0.00000001
 40
0.0
 40
0.0
 40
0.0
 40
0.0
 40
0.5
 40
0.5
 40
1.0
 40
1.0
 40
1.0
 40
1.0
 10
23.94672701021037
 20
-7.274206624999323
 30
0.0
 10
24.00070361222186
 20
-7.274468043002059
 30
0.0
 10
24.06446627171383
 20
-7.285498952812418
 30
0.0
 10
24.20415201307341
 20
-7.330690581338558
 30
0.0
 10
24.28011982503662
 20
-7.365496504531279
 30
0.0
 10
24.34698777836979
 20
-7.410808586624142
 30
0.0
  0
SPLINE
  5
600
330
1F
100
AcDbEntity
  8
0
  6
Continuous
 62
     1
370
    15
100
AcDbSpline
210
0.0
220
0.0
230
1.0
 70
     8
 71
     3
 72
    10
 73
     6
 74
     0
 42
0.000000001
 43
0.00000001
 40
0.0
 40
0.0
 40
0.0
 40
0.0
 40
0.5
 40
0.5
 40
1.0
 40
1.0
 40
1.0
 40
1.0
 10
24.34698777836979
 20
-7.410808586624142
 30
0.0
 10
24.6094668121504
 20
-7.588673631589018
 30
0.0
 10
24.89760345784148
 20
-7.734969826942404
 30
0.0
 10
25.44694424006747
 20
-7.907848741060661
 30
0.0
 10
25.70256268361086
 20
-7.934289639135926
 30
0.0
 10
25.91595001847935
 20
-7.909055583267161
 30
0.0
  0
SPLINE
  5
601
330
1F
100
AcDbEntity
  8
0
  6
Continuous
 62
     1
370
    15
100
AcDbSpline
210
0.0
220
0.0
230
1.0
 70
     8
 71
     3
 72
    10
 73
     6
 74
     0
 42
0.000000001
 43
0.00000001
 40
0.0
 40
0.0
 40
0.0
 40
0.0
 40
0.5
 40
0.5
 40
1.0
 40
1.0
 40
1.0
 40
1.0
 10
25.91595001847932
 20
-7.90905558326719
 30
0.0
 10
25.9702906929187
 20
-7.902629542960739
 30
0.0
 10
26.03430232183169
 20
-7.90807964850697
 30
0.0
 10
26.17419819949524
 20
-7.946069219173722
 30
0.0
 10
26.25010740524507
 20
-7.979434570392186
 30
0.0
 10
26.31658268551806
 20
-8.026336801744208
 30
0.0
  0
SPLINE
  5
602
330
1F
100
AcDbEntity
  8
0
  6
Continuous
 62
     1
370
    15
100
AcDbSpline
210
0.0
220
0.0
230
1.0
 70
     8
 71
     3
 72
     8
 73
     4
 74
     0
 42
0.000000001
 43
0.00000001
 40
0.0
 40
0.0
 40
0.0
 40
0.0
 40
1.0
 40
1.0
 40
1.0
 40
1.0
 10
26.31658268551806
 20
-8.026336801744236
 30
0.0
 10
26.5153753469524
 20
-8.16659675039574
 30
0.0
 10
26.7329677683432
 20
-8.28285992679588
 30
0.0
 10
26.94747303182112
 20
-8.360696231097819
 30
0.0
  0
SPLINE
  5
603
330
1F
100
AcDbEntity
  8
0
  6
Continuous
 62
     1
370
    15
100
AcDbSpline
210
0.0
220
0.0
230
1.0
 70
     8
 71
     3
 72
     8
 73
     4
 74
     0
 42
0.000000001
 43
0.00000001
 40
0.0
 40
0.0
 40
0.0
 40
0.0
 40
1.0
 40
1.0
 40
1.0
 40
1.0
 10
26.94747300173933
 20
-8.36069622541143
 30
0.0
 10
27.17537712958384
 20
-8.403776669095862
 30
0.0
 10
27.38748888936766
 20
-8.399648822728636
 30
0.0
 10
27.56669380633539
 20
-8.356700908219693
 30
0.0
  0
SPLINE
  5
604
330
1F
100
AcDbEntity
  8
0
  6
Continuous
 62
     1
370
    15
100
AcDbSpline
210
0.0
220
0.0
230
1.0
 70
     8
 71
     3
 72
    10
 73
     6
 74
     0
 42
0.000000001
 43
0.00000001
 40
0.0
 40
0.0
 40
0.0
 40
0.0
 40
0.5
 40
0.5
 40
1.0
 40
1.0
 40
1.0
 40
1.0
 10
27.56669380633539
 20
-8.356700908219693
 30
0.0
 10
27.62078072825702
 20
-8.343738537889408
 30
0.0
 10
27.68464130396356
 20
-8.343504350477929
 30
0.0
 10
27.82448463510931
 20
-8.373135949907635
 30
0.0
 10
27.90054584188439
 20
-8.403955213981277
 30
0.0
 10
27.96750315582909
 20
-8.451004539782218
 30
0.0
  0
SPLINE
  5
605
330
1F
100
AcDbEntity
  8
0
  6
Continuous
 62
     1
370
    15
100
AcDbSpline
210
0.0
220
0.0
230
1.0
 70
     8
 71
     3
 72
    10
 73
     6
 74
     0
 42
0.000000001
 43
0.00000001
 40
0.0
 40
0.0
 40
0.0
 40
0.0
 40
0.5
 40
0.5
 40
1.0
 40
1.0
 40
1.0
 40
1.0
 10
27.96750315582909
 20
-8.451004539782218
 30
0.0
 10
28.23014491914572
 20
-8.635556714342584
 30
0.0
 10
28.5183787348785
 20
-8.762439336098794
 30
0.0
 10
29.06791613428393
 20
-8.872002068793506
 30
0.0
 10
29.32373319519374
 20
-8.85489691269953
 30
0.0
 10
29.53725322677477
 20
-8.778682360610532
 30
0.0
  0
SPLINE
  5
606
330
1F
100
AcDbEntity
  8
0
  6
Continuous
 62
     1
370
    15
100
AcDbSpline
210
0.0
220
0.0
230
1.0
 70
     8
 71
     3
 72
    10
 73
     6
 74
     0
 42
0.000000001
 43
0.00000001
 40
0.0
 40
0.0
 40
0.0
 40
0.0
 40
0.5
 40
0.5
 40
1.0
 40
1.0
 40
1.0
 40
1.0
 10
29.53725322677477
 20
-8.778682360610532
 30
0.0
 10
29.59157546392152
 20
-8.759292400137241
 30
0.0
 10
29.65556455092931
 20
-8.75344602856785
 30
0.0
 10
29.79542522628967
 20
-8.775157758819944
 30
0.0
 10
29.87131053620078
 20
-8.803831124243686
 30
0.0
 10
29.93775681102579
 20
-8.851329307375664
 30
0.0
  0
SPLINE
  5
607
330
1F
100
AcDbEntity
  8
0
  6
Continuous
 62
     1
370
    15
100
AcDbSpline
210
0.0
220
0.0
230
1.0
 70
     8
 71
     3
 72
     8
 73
     4
 74
     0
 42
0.000000001
 43
0.00000001
 40
0.0
 40
0.0
 40
0.0
 40
0.0
 40
1.0
 40
1.0
 40
1.0
 40
1.0
 10
29.93775681102582
 20
-8.851329307375693
 30
0.0
 10
30.13644193152803
 20
-8.993356565699287
 30
0.0
 10
30.35392584810899
 20
-9.096622295541493
 30
0.0
 10
30.56832686086435
 20
-9.153621668275605
 30
0.0
  0
SPLINE
  5
608
330
1F
100
AcDbEntity
  8
0
  6
Continuous
 62
     1
370
    15
100
AcDbSpline
210
0.0
220
0.0
230
1.0
 70
     8
 71
     3
 72
     8
 73
     4
 74
     0
 42
0.000000001
 43
0.00000001
 40
0.0
 40
0.0
 40
0.0
 40
0.0
 40
1.0
 40
1.0
 40
1.0
 40
1.0
 10
30.56832683081413
 20
-9.153621666704481
 30
0.0
 10
30.79593196403613
 20
-9.16552167885581
 30
0.0
 10
31.00773707457046
 20
-9.123453516611676
 30
0.0
 10
31.18654670880107
 20
-9.038520300135076
 30
0.0
  0
SPLINE
  5
609
330
1F
100
AcDbEntity
  8
0
  6
Continuous
 62
     1
370
    15
100
AcDbSpline
210
0.0
220
0.0
230
1.0
 70
     8
 71
     3
 72
    10
 73
     6
 74
     0
 42
0.000000001
 43
0.00000001
 40
0.0
 40
0.0
 40
0.0
 40
0.0
 40
0.5
 40
0.5
 40
1.0
 40
1.0
 40
1.0
 40
1.0
 10
31.18654670880107
 20
-9.038520300135076
 30
0.0
 10
31.24051932214664
 20
-9.012883719238232
 30
0.0
 10
31.30427477387525
 20
-9.001350776336125
 30
0.0
 10
31.44394322350516
 20
-9.01395543016082
 30
0.0
 10
31.51990080451148
 20
-9.039301732268086
 30
0.0
 10
31.58676186795222
 20
-9.08573789047648
 30
0.0
  0
SPLINE
  5
60A
330
1F
100
AcDbEntity
  8
0
  6
Continuous
 62
     1
370
    15
100
AcDbSpline
210
0.0
220
0.0
230
1.0
 70
     8
 71
     3
 72
    10
 73
     6
 74
     0
 42
0.000000001
 43
0.00000001
 40
0.0
 40
0.0
 40
0.0
 40
0.0
 40
0.5000000000000001
 40
0.5000000000000001
 40
1.0
 40
1.0
 40
1.0
 40
1.0
 10
31.58676186795219
 20
-9.085737890476508
 30
0.0
 10
31.8491138748787
 20
-9.267945870323047
 30
0.0
 10
32.13704596891884
 20
-9.36932708404467
 30
0.0
 10
32.68597069053737
 20
-9.410112834665995
 30
0.0
 10
32.94162289044672
 20
-9.350150770530007
 30
0.0
 10
33.15491650686675
 20
-9.226737073256999
 30
0.0
  0
SPLINE
  5
60B
330
1F
100
AcDbEntity
  8
0
  6
Continuous
 62
     1
370
    15
100
AcDbSpline
210
0.0
220
0.0
230
1.0
 70
     8
 71
     3
 72
    10
 73
     6
 74
     0
 42
0.000000001
 43
0.00000001
 40
0.0
 40
0.0
 40
0.0
 40
0.0
 40
0.5
 40
0.5
 40
1.0
 40
1.0
 40
1.0
 40
1.0
 10
33.15491650686675
 20
-9.226737073256999
 30
0.0
 10
33.20919816885652
 20
-9.19532919189274
 30
0.0
 10
33.27315278397847
 20
-9.178498576253645
 30
0.0
 10
33.41295682516653
 20
-9.182951274543427
 30
0.0
 10
33.48880291179714
 20
-9.20558610406971
 30
0.0
 10
33.55521010711118
 20
-9.251408874174388
 30
0.0
  0
SPLINE
  5
60C
330
1F
100
AcDbEntity
  8
0
  6
Continuous
 62
     1
370
    15
100
AcDbSpline
210
0.0
220
0.0
230
1.0
 70
     8
 71
     3
 72
     8
 73
     4
 74
     0
 42
0.000000001
 43
0.00000001
 40
0.0
 40
0.0
 40
0.0
 40
0.0
 40
1.0
 40
1.0
 40
1.0
 40
1.0
 10
33.55521010711121
 20
-9.251408874174416
 30
0.0
 10
33.75384182020787
 20
-9.388470156188816
 30
0.0
 10
33.97127941095246
 20
-9.473846559532603
 30
0.0
 10
34.18562843404291
 20
-9.507329847882374
 30
0.0
  0
SPLINE
  5
60D
330
1F
100
AcDbEntity
  8
0
  6
Continuous
 62
     1
370
    15
100
AcDbSpline
210
0.0
220
0.0
230
1.0
 70
     8
 71
     3
 72
     9
 73
     5
 74
     0
 42
0.000000001
 43
0.00000001
 40
0.0
 40
0.0
 40
0.0
 40
0.0
 40
0.566718105460906
 40
1.0
 40
1.0
 40
1.0
 40
1.0
 10
34.18562903404236
 20
-9.507330134511022
 30
0.0
 10
34.27005845540384
 20
-9.495903713642406
 30
0.0
 10
34.4190380284013
 20
-9.47574127175369
 30
0.0
 10
34.5532774012415
 20
-9.41910699700378
 30
0.0
 10
34.61144089102743
 20
-9.394568391144304
 30
0.0
  0
SPLINE
  5
60E
330
1F
100
AcDbEntity
  8
0
  6
Continuous
 62
     1
370
    15
100
AcDbSpline
210
0.0
220
0.0
230
1.0
 70
     8
 71
     3
 72
    10
 73
     6
 74
     0
 42
0.000000001
 43
0.00000001
 40
0.0
 40
0.0
 40
0.0
 40
0.0
 40
0.2837560959715695
 40
0.8565757364846036
 40
1.0
 40
1.0
 40
1.0
 40
1.0
 10
35.02039674073458
 20
-9.230506606400041
 30
0.0
 10
35.0377169498075
 20
-9.229987751304265
 30
0.0
 10
35.09000153876732
 20
-9.228421481214866
 30
0.0
 10
35.15429730610148
 20
-9.254432269570145
 30
0.0
 10
35.19579583368571
 20
-9.27990263368622
 30
0.0
 10
35.20410570651293
 20
-9.285002946853666
 30
0.0
  0
SPLINE
  5
60F
330
1F
100
AcDbEntity
  8
0
  6
Continuous
 62
     1
370
    15
100
AcDbSpline
210
0.0
220
0.0
230
1.0
 70
     8
 71
     3
 72
     8
 73
     4
 74
     0
 42
0.000000001
 43
0.00000001
 40
0.0
 40
0.0
 40
0.0
 40
0.0
 40
1.0
 40
1.0
 40
1.0
 40
1.0
 10
30.20253100108863
 20
-9.002322418723452
 30
0.0
 10
29.97480296031776
 20
-9.021828120268282
 30
0.0
 10
29.76296445537761
 20
-8.988769829818409
 30
0.0
 10
29.58408194028823
 20
-8.913701067565484
 30
0.0
  0
SPLINE
  5
610
330
1F
100
AcDbEntity
  8
0
  6
Continuous
 62
     1
370
    15
100
AcDbSpline
210
0.0
220
0.0
230
1.0
 70
     8
 71
     3
 72
    10
 73
     6
 74
     0
 42
0.000000001
 43
0.00000001
 40
0.0
 40
0.0
 40
0.0
 40
0.0
 40
0.5
 40
0.5
 40
1.0
 40
1.0
 40
1.0
 40
1.0
 10
29.58408194028823
 20
-8.913701067565484
 30
0.0
 10
29.5300601531172
 20
-8.891030608713834
 30
0.0
 10
29.46625757933896
 20
-8.882208807457488
 30
0.0
 10
29.32653643147745
 20
-8.899042191485023
 30
0.0
 10
29.25054422497269
 20
-8.925842769396695
 30
0.0
 10
29.18362519674216
 20
-8.972689440821085
 30
0.0
  0
SPLINE
  5
611
330
1F
100
AcDbEntity
  8
0
  6
Continuous
 62
     1
370
    15
100
AcDbSpline
210
0.0
220
0.0
230
1.0
 70
     8
 71
     3
 72
    10
 73
     6
 74
     0
 42
0.000000001
 43
0.00000001
 40
0.0
 40
0.0
 40
0.0
 40
0.0
 40
0.5
 40
0.5
 40
1.0
 40
1.0
 40
1.0
 40
1.0
 10
29.18362519674218
 20
-8.972689440821085
 30
0.0
 10
28.92111274714787
 20
-9.156461303565237
 30
0.0
 10
28.63310537960734
 20
-9.26447642587678
 30
0.0
 10
28.08329947194284
 20
-9.321896825004927
 30
0.0
 10
27.82710652907818
 20
-9.271856718313728
 30
0.0
 10
27.61333573615806
 20
-9.15931310505374
 30
0.0
  0
SPLINE
  5
612
330
1F
100
AcDbEntity
  8
0
  6
Continuous
 62
     1
370
    15
100
AcDbSpline
210
0.0
220
0.0
230
1.0
 70
     8
 71
     3
 72
    10
 73
     6
 74
     0
 42
0.000000001
 43
0.00000001
 40
0.0
 40
0.0
 40
0.0
 40
0.0
 40
0.5
 40
0.5
 40
1.0
 40
1.0
 40
1.0
 40
1.0
 10
27.61333573615806
 20
-9.15931310505374
 30
0.0
 10
27.55892615460968
 20
-9.130668168017337
 30
0.0
 10
27.49485396901707
 20
-9.116406835726025
 30
0.0
 10
27.35486258307409
 20
-9.125018302660663
 30
0.0
 10
27.2789204430288
 20
-9.149188479970292
 30
0.0
 10
27.2124301836057
 20
-9.195637594565483
 30
0.0
  0
SPLINE
  5
613
330
1F
100
AcDbEntity
  8
0
  6
Continuous
 62
     1
370
    15
100
AcDbSpline
210
0.0
220
0.0
230
1.0
 70
     8
 71
     3
 72
     8
 73
     4
 74
     0
 42
0.000000001
 43
0.00000001
 40
0.0
 40
0.0
 40
0.0
 40
0.0
 40
1.0
 40
1.0
 40
1.0
 40
1.0
 10
27.2124301836057
 20
-9.195637594565511
 30
0.0
 10
27.01358545662907
 20
-9.334547588151565
 30
0.0
 10
26.79594542191435
 20
-9.42458028554617
 30
0.0
 10
26.58147605757779
 20
-9.463887458811286
 30
0.0
  0
SPLINE
  5
614
330
1F
100
AcDbEntity
  8
0
  6
Continuous
 62
     1
370
    15
100
AcDbSpline
210
0.0
220
0.0
230
1.0
 70
     8
 71
     3
 72
     8
 73
     4
 74
     0
 42
0.000000001
 43
0.00000001
 40
0.0
 40
0.0
 40
0.0
 40
0.0
 40
1.0
 40
1.0
 40
1.0
 40
1.0
 10
26.58147605758776
 20
-9.463887458811968
 30
0.0
 10
26.35364975790731
 20
-9.451714143516597
 30
0.0
 10
26.14170292845594
 20
-9.382131634410229
 30
0.0
 10
25.96276010464717
 20
-9.267999692673328
 30
0.0
  0
SPLINE
  5
615
330
1F
100
AcDbEntity
  8
0
  6
Continuous
 62
     1
370
    15
100
AcDbSpline
210
0.0
220
0.0
230
1.0
 70
     8
 71
     3
 72
    10
 73
     6
 74
     0
 42
0.000000001
 43
0.00000001
 40
0.0
 40
0.0
 40
0.0
 40
0.0
 40
0.5
 40
0.5
 40
1.0
 40
1.0
 40
1.0
 40
1.0
 10
25.96276010464715
 20
-9.267999692673271
 30
0.0
 10
25.90874867370869
 20
-9.233550535351469
 30
0.0
 10
25.84496340923664
 20
-9.213789518598503
 30
0.0
 10
25.7052755347276
 20
-9.213002240269702
 30
0.0
 10
25.62929941323841
 20
-9.233332398828423
 30
0.0
 10
25.56238338982106
 20
-9.277873742732737
 30
0.0
  0
SPLINE
  5
616
330
1F
100
AcDbEntity
  8
0
  6
Continuous
 62
     1
370
    15
100
AcDbSpline
210
0.0
220
0.0
230
1.0
 70
     8
 71
     3
 72
    10
 73
     6
 74
     0
 42
0.000000001
 43
0.00000001
 40
0.0
 40
0.0
 40
0.0
 40
0.0
 40
0.5
 40
0.5
 40
1.0
 40
1.0
 40
1.0
 40
1.0
 10
25.56238338982109
 20
-9.277873742732737
 30
0.0
 10
25.30016748181544
 20
-9.452412639983379
 30
0.0
 10
25.012383291036
 20
-9.531056292920795
 30
0.0
 10
24.4630163803952
 20
-9.518091953001829
 30
0.0
 10
24.20705987833529
 20
-9.427402653491555
 30
0.0
 10
23.99366503697632
 20
-9.271936513958622
 30
0.0
  0
SPLINE
  5
617
330
1F
100
AcDbEntity
  8
0
  6
Continuous
 62
     1
370
    15
100
AcDbSpline
210
0.0
220
0.0
230
1.0
 70
     8
 71
     3
 72
    10
 73
     6
 74
     0
 42
0.000000001
 43
0.00000001
 40
0.0
 40
0.0
 40
0.0
 40
0.0
 40
0.5
 40
0.5
 40
1.0
 40
1.0
 40
1.0
 40
1.0
 10
23.99366503697632
 20
-9.271936513958622
 30
0.0
 10
23.93936349586792
 20
-9.232375806150287
 30
0.0
 10
23.87539020858253
 20
-9.207710872460723
 30
0.0
 10
23.73556275702231
 20
-9.198863386931919
 30
0.0
 10
23.65972022812755
 20
-9.216169762310471
 30
0.0
 10
23.59332281339954
 20
-9.259252848212128
 30
0.0
  0
SPLINE
  5
618
330
1F
100
AcDbEntity
  8
0
  6
Continuous
 62
     1
370
    15
100
AcDbSpline
210
0.0
220
0.0
230
1.0
 70
     8
 71
     3
 72
     8
 73
     4
 74
     0
 42
0.000000001
 43
0.00000001
 40
0.0
 40
0.0
 40
0.0
 40
0.0
 40
1.0
 40
1.0
 40
1.0
 40
1.0
 10
23.5933228133996
 20
-9.259252848212157
 30
0.0
 10
23.39466146673001
 20
-9.38815762408285
 30
0.0
 10
23.17721153573046
 20
-9.45711773248243
 30
0.0
 10
22.9629298387886
 20
-9.47154723669803
 30
0.0
  0
SPLINE
  5
619
330
1F
100
AcDbEntity
  8
0
  6
Continuous
 62
     1
370
    15
100
AcDbSpline
210
0.0
220
0.0
230
1.0
 70
     8
 71
     3
 72
     8
 73
     4
 74
     0
 42
0.000000001
 43
0.00000001
 40
0.0
 40
0.0
 40
0.0
 40
0.0
 40
1.0
 40
1.0
 40
1.0
 40
1.0
 10
22.96292983879795
 20
-9.471547236699735
 30
0.0
 10
22.73533215196329
 20
-9.428255935756766
 30
0.0
 10
22.52364755594658
 20
-9.325422086230361
 30
0.0
 10
22.34496198946769
 20
-9.17777776317638
 30
0.0
  0
SPLINE
  5
61A
330
1F
100
AcDbEntity
  8
0
  6
Continuous
 62
     1
370
    15
100
AcDbSpline
210
0.0
220
0.0
230
1.0
 70
     8
 71
     3
 72
    10
 73
     6
 74
     0
 42
0.000000001
 43
0.00000001
 40
0.0
 40
0.0
 40
0.0
 40
0.0
 40
0.5
 40
0.5
 40
1.0
 40
1.0
 40
1.0
 40
1.0
 10
22.34496198946769
 20
-9.177777763176351
 30
0.0
 10
22.29100977826732
 20
-9.133198126124995
 30
0.0
 10
22.22728522138934
 20
-9.103453854739882
 30
0.0
 10
22.08769003363193
 20
-9.085091873985647
 30
0.0
 10
22.01173304695655
 20
-9.097992907222505
 30
0.0
 10
21.9448480332652
 20
-9.138089146136139
 30
0.0
  0
SPLINE
  5
61B
330
1F
100
AcDbEntity
  8
0
  6
Continuous
 62
     1
370
    15
100
AcDbSpline
210
0.0
220
0.0
230
1.0
 70
     8
 71
     3
 72
    10
 73
     6
 74
     0
 42
0.000000001
 43
0.00000001
 40
0.0
 40
0.0
 40
0.0
 40
0.0
 40
0.5
 40
0.5
 40
1.0
 40
1.0
 40
1.0
 40
1.0
 10
21.94484803326523
 20
-9.138089146136195
 30
0.0
 10
21.68268502174919
 20
-9.29525067102685
 30
0.0
 10
21.39490872292987
 20
-9.34084599648071
 30
0.0
 10
20.84562876622465
 20
-9.258134660719065
 30
0.0
 10
20.58974961052041
 20
-9.131177055660999
 30
0.0
 10
20.37638668931808
 20
-8.94045181906543
 30
0.0
  0
SPLINE
  5
61C
330
1F
100
AcDbEntity
  8
0
  6
Continuous
 62
     1
370
    15
100
AcDbSpline
210
0.0
220
0.0
230
1.0
 70
     8
 71
     3
 72
    10
 73
     6
 74
     0
 42
0.000000001
 43
0.00000001
 40
0.0
 40
0.0
 40
0.0
 40
0.0
 40
0.5
 40
0.5
 40
1.0
 40
1.0
 40
1.0
 40
1.0
 10
20.37638668931808
 20
-8.940451819065402
 30
0.0
 10
20.32206511472546
 20
-8.891893732646054
 30
0.0
 10
20.25806989617985
 20
-8.858019839980102
 30
0.0
 10
20.11820976537587
 20
-8.832132600131985
 30
0.0
 10
20.04235014012761
 20
-8.841721916264845
 30
0.0
 10
19.97593388044911
 20
-8.879417481890215
 30
0.0
  0
SPLINE
  5
61D
330
1F
100
AcDbEntity
  8
0
  6
Continuous
 62
     1
370
    15
100
AcDbSpline
210
0.0
220
0.0
230
1.0
 70
     8
 71
     3
 72
     8
 73
     4
 74
     0
 42
0.000000001
 43
0.00000001
 40
0.0
 40
0.0
 40
0.0
 40
0.0
 40
1.0
 40
1.0
 40
1.0
 40
1.0
 10
19.97593388044913
 20
-8.879417481890243
 30
0.0
 10
19.77719066039273
 20
-8.992217241023013
 30
0.0
 10
19.55966403761565
 20
-9.036724915136404
 30
0.0
 10
19.34533031386169
 20
-9.025550697556326
 30
0.0
  0
SPLINE
  5
61E
330
1F
100
AcDbEntity
  8
0
  6
Continuous
 62
     1
370
    15
100
AcDbSpline
210
0.0
220
0.0
230
1.0
 70
     8
 71
     3
 72
     8
 73
     4
 74
     0
 42
0.000000001
 43
0.00000001
 40
0.0
 40
0.0
 40
0.0
 40
0.0
 40
1.0
 40
1.0
 40
1.0
 40
1.0
 10
19.34533031386934
 20
-9.025550697558884
 30
0.0
 10
19.11753778358027
 20
-8.953166283530152
 30
0.0
 10
18.90567829597512
 20
-8.821947579939376
 30
0.0
 10
18.72676430878883
 20
-8.647779789073951
 30
0.0
  0
SPLINE
  5
61F
330
1F
100
AcDbEntity
  8
0
  6
Continuous
 62
     1
370
    15
100
AcDbSpline
210
0.0
220
0.0
230
1.0
 70
     8
 71
     3
 72
    10
 73
     6
 74
     0
 42
0.000000001
 43
0.00000001
 40
0.0
 40
0.0
 40
0.0
 40
0.0
 40
0.5
 40
0.5
 40
1.0
 40
1.0
 40
1.0
 40
1.0
 10
18.72676430878883
 20
-8.647779789073923
 30
0.0
 10
18.67275029862697
 20
-8.595198652329799
 30
0.0
 10
18.60895648563667
 20
-8.55687310572739
 30
0.0
 10
18.46921313810279
 20
-8.521790652547821
 30
0.0
 10
18.39317459879533
 20
-8.526614712306895
 30
0.0
 10
18.32621726352113
 20
-8.560377970907297
 30
0.0
  0
SPLINE
  5
620
330
1F
100
AcDbEntity
  8
0
  6
Continuous
 62
     1
370
    15
100
AcDbSpline
210
0.0
220
0.0
230
1.0
 70
     8
 71
     3
 72
    10
 73
     6
 74
     0
 42
0.000000001
 43
0.00000001
 40
0.0
 40
0.0
 40
0.0
 40
0.0
 40
0.5
 40
0.5
 40
1.0
 40
1.0
 40
1.0
 40
1.0
 10
18.32621726352113
 20
-8.560377970907354
 30
0.0
 10
18.06369081267974
 20
-8.692757021132536
 30
0.0
 10
17.77552372807668
 20
-8.702920518792155
 30
0.0
 10
17.22558586090048
 20
-8.554236499808809
 30
0.0
 10
16.96935583000288
 20
-8.397078630557928
 30
0.0
 10
16.75563834935772
 20
-8.180025865300763
 30
0.0
  0
SPLINE
  5
621
330
1F
100
AcDbEntity
  8
0
  6
Continuous
 62
     1
370
    15
100
AcDbSpline
210
0.0
220
0.0
230
1.0
 70
     8
 71
     3
 72
    10
 73
     6
 74
     0
 42
0.000000001
 43
0.00000001
 40
0.0
 40
0.0
 40
0.0
 40
0.0
 40
0.5
 40
0.5
 40
1.0
 40
1.0
 40
1.0
 40
1.0
 10
16.75563834935772
 20
-8.180025865300763
 30
0.0
 10
16.70124792732807
 20
-8.124786623899439
 30
0.0
 10
16.63719389937475
 20
-8.083296355348637
 30
0.0
 10
16.49723971423455
 20
-8.0415436253069
 30
0.0
 10
16.42132304182971
 20
-8.042916587809088
 30
0.0
 10
16.35485305107622
 20
-8.073411765639776
 30
0.0
  0
SPLINE
  5
622
330
1F
100
AcDbEntity
  8
0
  6
Continuous
 62
     1
370
    15
100
AcDbSpline
210
0.0
220
0.0
230
1.0
 70
     8
 71
     3
 72
     8
 73
     4
 74
     0
 42
0.000000001
 43
0.00000001
 40
0.0
 40
0.0
 40
0.0
 40
0.0
 40
1.0
 40
1.0
 40
1.0
 40
1.0
 10
16.35485305107622
 20
-8.073411765639804
 30
0.0
 10
16.15602369233997
 20
-8.164630924600004
 30
0.0
 10
15.93842776480048
 20
-8.1824878547026
 30
0.0
 10
15.72404689919503
 20
-8.14617753283602
 30
0.0
  0
SPLINE
  5
623
330
1F
100
AcDbEntity
  8
0
  6
Continuous
 62
     1
370
    15
100
AcDbSpline
210
0.0
220
0.0
230
1.0
 70
     8
 71
     3
 72
     8
 73
     4
 74
     0
 42
0.000000001
 43
0.00000001
 40
0.0
 40
0.0
 40
0.0
 40
0.0
 40
1.0
 40
1.0
 40
1.0
 40
1.0
 10
15.7240468992033
 20
-8.146177532839602
 30
0.0
 10
15.49628005867709
 20
-8.048138963171198
 30
0.0
 10
15.28448092433879
 20
-7.894823907197235
 30
0.0
 10
15.10555561425221
 20
-7.702430288460647
 30
0.0
  0
SPLINE
  5
624
330
1F
100
AcDbEntity
  8
0
  6
Continuous
 62
     1
370
    15
100
AcDbSpline
210
0.0
220
0.0
230
1.0
 70
     8
 71
     3
 72
    10
 73
     6
 74
     0
 42
0.000000001
 43
0.00000001
 40
0.0
 40
0.0
 40
0.0
 40
0.0
 40
0.5
 40
0.5
 40
1.0
 40
1.0
 40
1.0
 40
1.0
 10
15.10555561425221
 20
-7.702430288460619
 30
0.0
 10
15.05157975649146
 20
-7.644391486717154
 30
0.0
 10
14.98782568890439
 20
-7.599354681654745
 30
0.0
 10
14.84814595866402
 20
-7.549305921632765
 30
0.0
 10
14.77214819139817
 20
-7.545884455238223
 30
0.0
 10
14.70523774101974
 20
-7.571682537689071
 30
0.0
  0
SPLINE
  5
625
330
1F
100
AcDbEntity
  8
0
  6
Continuous
 62
     1
370
    15
100
AcDbSpline
210
0.0
220
0.0
230
1.0
 70
     8
 71
     3
 72
    10
 73
     6
 74
     0
 42
0.000000001
 43
0.00000001
 40
0.0
 40
0.0
 40
0.0
 40
0.0
 40
0.4999999999999998
 40
0.4999999999999998
 40
1.0
 40
1.0
 40
1.0
 40
1.0
 10
14.70523774101974
 20
-7.571682537689071
 30
0.0
 10
14.44303153238818
 20
-7.672779113054133
 30
0.0
 10
14.15519187048403
 20
-7.647432316317179
 30
0.0
 10
13.60584711389686
 20
-7.440408956646678
 30
0.0
 10
13.34996229074872
 20
-7.26065344938911
 30
0.0
 10
13.13665179122049
 20
-7.027877164756404
 30
0.0
  0
SPLINE
  5
626
330
1F
100
AcDbEntity
  8
0
  6
Continuous
 62
     1
370
    15
100
AcDbSpline
210
0.0
220
0.0
230
1.0
 70
     8
 71
     3
 72
    10
 73
     6
 74
     0
 42
0.000000001
 43
0.00000001
 40
0.0
 40
0.0
 40
0.0
 40
0.0
 40
0.5
 40
0.5
 40
1.0
 40
1.0
 40
1.0
 40
1.0
 10
13.13665179122049
 20
-7.027877164756404
 30
0.0
 10
13.0823530815853
 20
-6.968623391889224
 30
0.0
 10
13.01838287763027
 20
-6.921549014364274
 30
0.0
 10
12.87856911770891
 20
-6.866035277852887
 30
0.0
 10
12.80273670539228
 20
-6.859204015261014
 30
0.0
 10
12.73634317323084
 20
-6.881016845773132
 30
0.0
  0
SPLINE
  5
627
330
1F
100
AcDbEntity
  8
0
  6
Continuous
 62
     1
370
    15
100
AcDbSpline
210
0.0
220
0.0
230
1.0
 70
     8
 71
     3
 72
     8
 73
     4
 74
     0
 42
0.000000001
 43
0.00000001
 40
0.0
 40
0.0
 40
0.0
 40
0.0
 40
1.0
 40
1.0
 40
1.0
 40
1.0
 10
12.73634317323084
 20
-6.881016845773132
 30
0.0
 10
12.53765920917547
 20
-6.946292174443386
 30
0.0
 10
12.32022072352072
 20
-6.936755754210168
 30
0.0
 10
12.10600102910098
 20
-6.877105648439766
 30
0.0
  0
SPLINE
  5
628
330
1F
100
AcDbEntity
  8
0
  6
Continuous
 62
     1
370
    15
100
AcDbSpline
210
0.0
220
0.0
230
1.0
 70
     8
 71
     3
 72
     8
 73
     4
 74
     0
 42
0.000000001
 43
0.00000001
 40
0.0
 40
0.0
 40
0.0
 40
0.0
 40
0.1571039532214118
 40
0.1571039532214118
 40
0.1571039532214118
 40
0.1571039532214118
 10
12.10600102910874
 20
-6.877105648444058
 30
0.0
 10
12.07025182352525
 20
-6.85841869928764
 30
0.0
 10
12.03489635595668
 20
-6.838520763186537
 30
0.0
 10
11.99999999999999
 20
-6.817473418471394
 30
0.0
  0
SPLINE
  5
635
330
1F
100
AcDbEntity
  8
0
  6
Continuous
 62
     1
370
    15
100
AcDbSpline
210
0.0
220
0.0
230
1.0
 70
     8
 71
     3
 72
    10
 73
     6
 74
     0
 42
0.000000001
 43
0.00000001
 40
0.0
 40
0.0
 40
0.0
 40
0.0
 40
0.5
 40
0.5
 40
1.0
 40
1.0
 40
1.0
 40
1.0
 10
49.45027450991068
 20
6.055479782760841
 30
0.0
 10
49.1877506619104
 20
6.219043593349681
 30
0.0
 10
48.89958843410329
 20
6.377576656797686
 30
0.0
 10
48.34965486115246
 20
6.60409087665991
 30
0.0
 10
48.09342438733705
 20
6.67139392613069
 30
0.0
 10
47.87970307239115
 20
6.696675977313021
 30
0.0
  0
SPLINE
  5
636
330
1F
100
AcDbEntity
  8
0
  6
Continuous
 62
     1
370
    15
100
AcDbSpline
210
0.0
220
0.0
230
1.0
 70
     8
 71
     3
 72
    12
 73
     8
 74
     0
 42
0.000000001
 43
0.00000001
 40
0.0
 40
0.0
 40
0.0
 40
0.0
 40
0.5000000000000001
 40
0.5000000000000001
 40
0.75
 40
0.75
 40
1.0
 40
1.0
 40
1.0
 40
1.0
 10
20.06908904363746
 20
-0.311665818600261
 30
0.0
 10
20.00883604472691
 20
-1.266600314638453
 30
0.0
 10
19.9466338698511
 20
-2.226637554945398
 30
0.0
 10
19.85662914750105
 20
-3.578462960624563
 30
0.0
 10
19.82717889022896
 20
-4.014453891711668
 30
0.0
 10
19.77028877199754
 20
-4.844421529975932
 30
0.0
 10
19.74107917128586
 20
-5.2469625491226
 30
0.0
 10
19.71115400893262
 20
-5.631393596993291
 30
0.0
  0
SPLINE
  5
638
330
1F
100
AcDbEntity
  8
0
  6
Continuous
 62
     1
370
    15
100
AcDbSpline
210
0.0
220
0.0
230
1.0
 70
     8
 71
     3
 72
    12
 73
     8
 74
     0
 42
0.000000001
 43
0.00000001
 40
0.0
 40
0.0
 40
0.0
 40
0.0
 40
0.5000000000000001
 40
0.5000000000000001
 40
0.75
 40
0.75
 40
1.0
 40
1.0
 40
1.0
 40
1.0
 10
50.46937363870461
 20
5.671660572917773
 30
0.0
 10
50.40975975440924
 20
4.906912812440851
 30
0.0
 10
50.34762490287133
 20
4.044742845606436
 30
0.0
 10
50.25684264144758
 20
2.690016313152029
 30
0.0
 10
50.22699115882759
 20
2.228557670882793
 30
0.0
 10
50.16905772594436
 20
1.30194417489173
 30
0.0
 10
50.14089596654838
 20
0.8364510948925101
 30
0.0
 10
50.11134340593929
 20
0.3621940787103881
 30
0.0
  0
SPLINE
  5
639
330
1F
100
AcDbEntity
  8
0
  6
Continuous
 62
     1
370
    15
100
AcDbSpline
210
0.0
220
0.0
230
1.0
 70
     8
 71
     3
 72
     8
 73
     4
 74
     0
 42
0.000000001
 43
0.00000001
 40
0.0
 40
0.0
 40
0.0
 40
0.0
 40
1.0
 40
1.0
 40
1.0
 40
1.0
 10
51.099974452259
 20
5.322116451423852
 30
0.0
 10
50.90123417201346
 20
5.43919711754441
 30
0.0
 10
50.68370886391625
 20
5.564357458990969
 30
0.0
 10
50.46937363870458
 20
5.671660572917745
 30
0.0
  0
SPLINE
  5
63B
330
1F
100
AcDbEntity
  8
0
  6
Continuous
 62
     1
370
    15
100
AcDbSpline
210
0.0
220
0.0
230
1.0
 70
     8
 71
     3
 72
     8
 73
     4
 74
     0
 42
0.000000001
 43
0.00000001
 40
0.0
 40
0.0
 40
0.0
 40
0.0
 40
1.0
 40
1.0
 40
1.0
 40
1.0
 10
50.46937363871263
 20
5.671660572914192
 30
0.0
 10
50.2415845811334
 20
5.768953845487033
 30
0.0
 10
50.0297262219384
 20
5.838794620653545
 30
0.0
 10
49.85081408405293
 20
5.882933948962233
 30
0.0
  0
SPLINE
  5
63C
330
1F
100
AcDbEntity
  8
0
  6
Continuous
 62
     1
370
    15
100
AcDbSpline
210
0.0
220
0.0
230
1.0
 70
     8
 71
     3
 72
    12
 73
     8
 74
     0
 42
0.000000001
 43
0.00000001
 40
0.0
 40
0.0
 40
0.0
 40
0.0
 40
0.5
 40
0.5
 40
0.75
 40
0.75
 40
1.0
 40
1.0
 40
1.0
 40
1.0
 10
42.50669295688004
 20
-1.291659147034323
 30
0.0
 10
42.4455772108592
 20
-2.242900929023989
 30
0.0
 10
42.38396978326591
 20
-3.176017850098845
 30
0.0
 10
42.29685529798093
 20
-4.458967083966684
 30
0.0
 10
42.26874254747466
 20
-4.86753651245354
 30
0.0
 10
42.20970260542921
 20
-5.658638885068314
 30
0.0
 10
42.17944946462435
 20
-6.037737007604079
 30
0.0
 10
42.14896048352372
 20
-6.393316909016988
 30
0.0
  0
SPLINE
  5
63D
330
1F
100
AcDbEntity
  8
0
  6
Continuous
 62
     1
370
    15
100
AcDbSpline
210
0.0
220
0.0
230
1.0
 70
     8
 71
     3
 72
    10
 73
     6
 74
     0
 42
0.000000001
 43
0.00000001
 40
0.0
 40
0.0
 40
0.0
 40
0.0
 40
0.5
 40
0.5
 40
1.0
 40
1.0
 40
1.0
 40
1.0
 10
28.03047551342738
 20
6.432718123291522
 30
0.0
 10
27.97307202526051
 20
5.739666022946381
 30
0.0
 10
27.91184167247951
 20
4.935379990158765
 30
0.0
 10
27.7896183914761
 20
3.200350027359946
 30
0.0
 10
27.7287471579468
 20
2.27135415710012
 30
0.0
 10
27.67198752317549
 20
1.34446440086694
 30
0.0
  0
SPLINE
  5
640
330
1F
100
AcDbEntity
  8
0
  6
Continuous
 62
     1
370
    15
100
AcDbSpline
210
0.0
220
0.0
230
1.0
 70
     8
 71
     3
 72
    12
 73
     8
 74
     0
 42
0.000000001
 43
0.00000001
 40
0.0
 40
0.0
 40
0.0
 40
0.0
 40
0.25
 40
0.25
 40
0.5
 40
0.5
 40
1.0
 40
1.0
 40
1.0
 40
1.0
 10
23.68639509218536
 20
-2.374703578060888
 30
0.0
 10
23.65593881042463
 20
-2.839102760248039
 30
0.0
 10
23.62575447895733
 20
-3.293013344020295
 30
0.0
 10
23.56691678864937
 20
-4.165445253792001
 30
0.0
 10
23.53889406922909
 20
-4.581174558735142
 30
0.0
 10
23.45142200267125
 20
-5.789560243242505
 30
0.0
 10
23.38970294956513
 20
-6.535236159898488
 30
0.0
 10
23.328625654749
 20
-7.167461154257694
 30
0.0
  0
SPLINE
  5
641
330
1F
100
AcDbEntity
  8
0
  6
Continuous
 62
     1
370
    15
100
AcDbSpline
210
0.0
220
0.0
230
1.0
 70
     8
 71
     3
 72
    12
 73
     8
 74
     0
 42
0.000000001
 43
0.00000001
 40
0.0
 40
0.0
 40
0.0
 40
0.0
 40
0.25
 40
0.25
 40
0.5
 40
0.5
 40
1.0
 40
1.0
 40
1.0
 40
1.0
 10
46.84809702744352
 20
7.201850100526542
 30
0.0
 10
46.81866664453727
 20
6.891689314316238
 30
0.0
 10
46.79064018568772
 20
6.560147187418551
 30
0.0
 10
46.73243133832796
 20
5.843385452201971
 30
0.0
 10
46.70247843184569
 20
5.458560714550231
 30
0.0
 10
46.61151731541824
 20
4.241370308573465
 30
0.0
 10
46.54943543455974
 20
3.345587157785531
 30
0.0
 10
46.49003566141513
 20
2.426241950049047
 30
0.0
  0
SPLINE
  5
642
330
1F
100
AcDbEntity
  8
0
  6
Continuous
 62
     1
370
    15
100
AcDbSpline
210
0.0
220
0.0
230
1.0
 70
     8
 71
     3
 72
     8
 73
     4
 74
     0
 42
0.000000001
 43
0.00000001
 40
0.0
 40
0.0
 40
0.0
 40
0.0
 40
1.0
 40
1.0
 40
1.0
 40
1.0
 10
47.47891129705974
 20
6.851642077221129
 30
0.0
 10
47.28008143306198
 20
6.983552861977785
 30
0.0
 10
47.06248300397752
 20
7.107151663064059
 30
0.0
 10
46.84809702744329
 20
7.201850100524496
 30
0.0
  0
SPLINE
  5
643
330
1F
100
AcDbEntity
  8
0
  6
Continuous
 62
     1
370
    15
100
AcDbSpline
210
0.0
220
0.0
230
1.0
 70
     8
 71
     3
 72
    10
 73
     6
 74
     0
 42
0.000000001
 43
0.00000001
 40
0.0
 40
0.0
 40
0.0
 40
0.0
 40
0.5
 40
0.5
 40
1.0
 40
1.0
 40
1.0
 40
1.0
 10
51.50042434545924
 20
5.135769717197121
 30
0.0
 10
51.44610352123419
 20
5.155102583244798
 30
0.0
 10
51.3821089999559
 20
5.181436767556136
 30
0.0
 10
51.24224957373315
 20
5.24530714877028
 30
0.0
 10
51.16639021005
 20
5.282990003813609
 30
0.0
 10
51.09997445225898
 20
5.322116451423852
 30
0.0
  0
SPLINE
  5
644
330
1F
100
AcDbEntity
  8
0
  6
Continuous
 62
     1
370
    15
100
AcDbSpline
210
0.0
220
0.0
230
1.0
 70
     8
 71
     3
 72
    10
 73
     6
 74
     0
 42
0.000000001
 43
0.00000001
 40
0.0
 40
0.0
 40
0.0
 40
0.0
 40
0.5
 40
0.5
 40
1.0
 40
1.0
 40
1.0
 40
1.0
 10
49.8508140840529
 20
5.882933948962233
 30
0.0
 10
49.79679778249556
 20
5.896260284987477
 30
0.0
 10
49.73300859830024
 20
5.917949964215921
 30
0.0
 10
49.59326889757182
 20
5.976531845865992
 30
0.0
 10
49.51723157859533
 20
6.013762607794291
 30
0.0
 10
49.45027450991066
 20
6.055479782760841
 30
0.0
  0
SPLINE
  5
645
330
1F
100
AcDbEntity
  8
0
  6
Continuous
 62
     1
370
    15
100
AcDbSpline
210
0.0
220
0.0
230
1.0
 70
     8
 71
     3
 72
     8
 73
     4
 74
     0
 42
0.000000001
 43
0.00000001
 40
0.0
 40
0.0
 40
0.0
 40
0.0
 40
1.0
 40
1.0
 40
1.0
 40
1.0
 10
46.84809702745159
 20
7.201850100521881
 30
0.0
 10
46.62032351430108
 20
7.273460288230268
 30
0.0
 10
46.40851442202617
 20
7.306839971000471
 30
0.0
 10
46.22959519386558
 20
7.306877939118209
 30
0.0
  0
SPLINE
  5
647
330
1F
100
AcDbEntity
  8
0
  6
Continuous
 62
     1
370
    15
100
AcDbSpline
210
0.0
220
0.0
230
1.0
 70
     8
 71
     3
 72
    10
 73
     6
 74
     0
 42
0.000000001
 43
0.00000001
 40
0.0
 40
0.0
 40
0.0
 40
0.0
 40
0.5
 40
0.5
 40
1.0
 40
1.0
 40
1.0
 40
1.0
 10
45.82927547016769
 20
7.442941341068746
 30
0.0
 10
45.56706944657196
 20
7.621106032190767
 30
0.0
 10
45.27923274563801
 20
7.766894667944428
 30
0.0
 10
44.72988634342653
 20
7.937860282321594
 30
0.0
 10
44.47399740947134
 20
7.962739684512741
 30
0.0
 10
44.26068240330562
 20
7.935886369423855
 30
0.0
  0
SPLINE
  5
648
330
1F
100
AcDbEntity
  8
0
  6
Continuous
 62
     1
370
    15
100
AcDbSpline
210
0.0
220
0.0
230
1.0
 70
     8
 71
     3
 72
    10
 73
     6
 74
     0
 42
0.000000001
 43
0.00000001
 40
0.0
 40
0.0
 40
0.0
 40
0.0
 40
0.5
 40
0.5
 40
1.0
 40
1.0
 40
1.0
 40
1.0
 10
47.87970307239118
 20
6.696675977313021
 30
0.0
 10
47.82531160800107
 20
6.703110187148127
 30
0.0
 10
47.76125656610441
 20
6.719235506496204
 30
0.0
 10
47.62130023531324
 20
6.771198563290397
 30
0.0
 10
47.54538221726136
 20
6.807542910873593
 30
0.0
 10
47.47891129705974
 20
6.851642077221129
 30
0.0
  0
SPLINE
  5
649
330
1F
100
AcDbEntity
  8
0
  6
Continuous
 62
     1
370
    15
100
AcDbSpline
210
0.0
220
0.0
230
1.0
 70
     8
 71
     3
 72
     8
 73
     4
 74
     0
 42
0.000000001
 43
0.00000001
 40
0.0
 40
0.0
 40
0.0
 40
0.0
 40
1.0
 40
1.0
 40
1.0
 40
1.0
 10
53.27495412589781
 20
4.27339708347219
 30
0.0
 10
53.27425743537211
 20
3.666877348487475
 30
0.0
 10
53.26642334240788
 20
3.030063122725693
 30
0.0
 10
53.25540458640305
 20
2.37292726445682
 30
0.0
  0
SPLINE
  5
64A
330
1F
100
AcDbEntity
  8
0
  6
Continuous
 62
     1
370
    15
100
AcDbSpline
210
0.0
220
0.0
230
1.0
 70
     8
 71
     3
 72
     8
 73
     4
 74
     0
 42
0.000000001
 43
0.00000001
 40
0.0
 40
0.0
 40
0.0
 40
0.0
 40
1.0
 40
1.0
 40
1.0
 40
1.0
 10
53.27495412589792
 20
4.273397083472503
 30
0.0
 10
53.20622887739484
 20
4.307548606730023
 30
0.0
 10
53.13365960999178
 20
4.343775944427335
 30
0.0
 10
53.0688741723026
 20
4.378570208846952
 30
0.0
  0
SPLINE
  5
64B
330
1F
100
AcDbEntity
  8
0
  6
Continuous
 62
     1
370
    15
100
AcDbSpline
210
0.0
220
0.0
230
1.0
 70
     8
 71
     3
 72
    12
 73
     8
 74
     0
 42
0.000000001
 43
0.00000001
 40
0.0
 40
0.0
 40
0.0
 40
0.0
 40
0.2499999999999998
 40
0.2499999999999998
 40
0.4999999999999997
 40
0.4999999999999997
 40
1.0
 40
1.0
 40
1.0
 40
1.0
 10
46.12423684450985
 20
-3.313644385322618
 30
0.0
 10
46.0943989310654
 20
-3.760058893225647
 30
0.0
 10
46.06553471121478
 20
-4.189206337425532
 30
0.0
 10
46.00837732071716
 20
-5.011312613961422
 30
0.0
 10
45.97882265439219
 20
-5.410138739680747
 30
0.0
 10
45.88860920165706
 20
-6.547416015281016
 30
0.0
 10
45.82641155255254
 20
-7.224704174019763
 30
0.0
 10
45.7663059656112
 20
-7.775994713750066
 30
0.0
  0
SPLINE
  5
64C
330
1F
100
AcDbEntity
  8
0
  6
Continuous
 62
     1
370
    15
100
AcDbSpline
210
0.0
220
0.0
230
1.0
 70
     8
 71
     3
 72
    12
 73
     8
 74
     0
 42
0.000000001
 43
0.00000001
 40
0.0
 40
0.0
 40
0.0
 40
0.0
 40
0.2499999999999999
 40
0.2499999999999999
 40
0.4999999999999998
 40
0.4999999999999998
 40
1.0
 40
1.0
 40
1.0
 40
1.0
 10
24.40996197817867
 20
7.807620920195546
 30
0.0
 10
24.37970698583072
 20
7.53356324891601
 30
0.0
 10
24.34987367818516
 20
7.231088900376108
 30
0.0
 10
24.29199926922706
 20
6.581738894924968
 30
0.0
 10
24.26377103778009
 20
6.234626930110693
 30
0.0
 10
24.17496966892361
 20
5.11125004677092
 30
0.0
 10
24.1129171394866
 20
4.261108575253701
 30
0.0
 10
24.05212936422544
 20
3.36451789599198
 30
0.0
  0
LINE
  5
64F
330
1F
100
AcDbEntity
  8
0
  6
Continuous
 62
     1
370
    15
100
AcDbLine
 10
53.27500000000001
 20
2.393939648754866
 30
0.0
 11
53.27500000000001
 21
4.273372585885198
 31
0.0
  0
LINE
  5
650
330
1F
100
AcDbEntity
  8
0
  6
Continuous
 62
     1
370
    15
100
AcDbLine
 10
53.27495529651642
 20
4.273397033102782
 30
0.0
 11
53.27500000000001
 21
4.273372585885198
 31
0.0
  0
SPLINE
  5
651
330
1F
100
AcDbEntity
  8
0
  6
Continuous
 62
     1
370
    15
100
AcDbSpline
210
0.0
220
0.0
230
1.0
 70
     8
 71
     3
 72
    10
 73
     6
 74
     0
 42
0.000000001
 43
0.00000001
 40
0.0
 40
0.0
 40
0.0
 40
0.0
 40
0.5
 40
0.5
 40
1.0
 40
1.0
 40
1.0
 40
1.0
 10
46.22959519386563
 20
7.306877939118209
 30
0.0
 10
46.17561923508387
 20
7.30688939325637
 30
0.0
 10
46.11186525458217
 20
7.317718772307899
 30
0.0
 10
45.9721858446942
 20
7.362681507090599
 30
0.0
 10
45.89618735686309
 20
7.397475811856253
 30
0.0
 10
45.82927547016769
 20
7.442941341068746
 30
0.0
  0
SPLINE
  5
657
330
1F
100
AcDbEntity
  8
0
  6
Continuous
 62
     1
370
    15
100
AcDbSpline
210
0.0
220
0.0
230
1.0
 70
     8
 71
     3
 72
    12
 73
     8
 74
     0
 42
0.000000001
 43
0.00000001
 40
0.0
 40
0.0
 40
0.0
 40
0.0
 40
0.25
 40
0.25
 40
0.5
 40
0.5
 40
1.0
 40
1.0
 40
1.0
 40
1.0
 10
27.30587282833773
 20
-4.325155243270217
 30
0.0
 10
27.2772840311174
 20
-4.743290634546184
 30
0.0
 10
27.24849640259183
 20
-5.146741209729441
 30
0.0
 10
27.1888888348646
 20
-5.921250416122945
 30
0.0
 10
27.15846326512425
 20
-6.290355624779096
 30
0.0
 10
27.0668422477967
 20
-7.322882092193254
 30
0.0
 10
27.00535965037835
 20
-7.909183187499707
 30
0.0
 10
26.94747303182118
 20
-8.360696231097819
 30
0.0
  0
SPLINE
  5
658
330
1F
100
AcDbEntity
  8
0
  6
Continuous
 62
     1
370
    15
100
AcDbSpline
210
0.0
220
0.0
230
1.0
 70
     8
 71
     3
 72
    10
 73
     6
 74
     0
 42
0.000000001
 43
0.00000001
 40
0.0
 40
0.0
 40
0.0
 40
0.0
 40
0.5
 40
0.5
 40
1.0
 40
1.0
 40
1.0
 40
1.0
 10
43.23002694596846
 20
8.385575762424196
 30
0.0
 10
43.16884708679024
 20
7.93007038028216
 30
0.0
 10
43.10780667240959
 20
7.344612796945967
 30
0.0
 10
42.99381420458653
 20
6.006139845875396
 30
0.0
 10
42.93350158625333
 20
5.225210194718102
 30
0.0
 10
42.87234483490667
 20
4.372049966344377
 30
0.0
  0
SPLINE
  5
659
330
1F
100
AcDbEntity
  8
0
  6
Continuous
 62
     1
370
    15
100
AcDbSpline
210
0.0
220
0.0
230
1.0
 70
     8
 71
     3
 72
     8
 73
     4
 74
     0
 42
0.000000001
 43
0.00000001
 40
0.0
 40
0.0
 40
0.0
 40
0.0
 40
1.0
 40
1.0
 40
1.0
 40
1.0
 10
43.86037197291958
 20
8.051762334240124
 30
0.0
 10
43.66168955255944
 20
8.192058393858701
 30
0.0
 10
43.44425032655434
 20
8.308100398003546
 30
0.0
 10
43.2300269459684
 20
8.38557576242414
 30
0.0
  0
SPLINE
  5
65B
330
1F
100
AcDbEntity
  8
0
  6
Continuous
 62
     1
370
    15
100
AcDbSpline
210
0.0
220
0.0
230
1.0
 70
     8
 71
     3
 72
    10
 73
     6
 74
     0
 42
0.000000001
 43
0.00000001
 40
0.0
 40
0.0
 40
0.0
 40
0.0
 40
0.2999312629195045
 40
0.6468903683646561
 40
0.9999999999999999
 40
0.9999999999999999
 40
0.9999999999999999
 40
0.9999999999999999
 10
40.04963922649623
 20
8.986213942989679
 30
0.0
 10
40.10941596768279
 20
8.98831058981574
 30
0.0
 10
40.23834216813756
 20
8.99283262804687
 30
0.0
 10
40.42263969350549
 20
8.961754864394749
 30
0.0
 10
40.53813179686148
 20
8.920588021632085
 30
0.0
 10
40.59638518244029
 20
8.899823762476416
 30
0.0
  0
SPLINE
  5
65C
330
1F
100
AcDbEntity
  8
0
  6
Continuous
 62
     1
370
    15
100
AcDbSpline
210
0.0
220
0.0
230
1.0
 70
     8
 71
     3
 72
    10
 73
     6
 74
     0
 42
0.000000001
 43
0.00000001
 40
0.0
 40
0.0
 40
0.0
 40
0.0
 40
0.5
 40
0.5
 40
1.0
 40
1.0
 40
1.0
 40
1.0
 10
40.59638558034709
 20
8.899824029181417
 30
0.0
 10
40.65036890801645
 20
8.877435473847783
 30
0.0
 10
40.71413407641987
 20
8.868845443986345
 30
0.0
 10
40.85383168121672
 20
8.88602002956273
 30
0.0
 10
40.92981497323308
 20
8.91293284847032
 30
0.0
 10
40.99669524892667
 20
8.95973765433962
 30
0.0
  0
SPLINE
  5
65D
330
1F
100
AcDbEntity
  8
0
  6
Continuous
 62
     1
370
    15
100
AcDbSpline
210
0.0
220
0.0
230
1.0
 70
     8
 71
     3
 72
    10
 73
     6
 74
     0
 42
0.000000001
 43
0.00000001
 40
0.0
 40
0.0
 40
0.0
 40
0.0
 40
0.5
 40
0.5
 40
1.0
 40
1.0
 40
1.0
 40
1.0
 10
40.99669524892667
 20
8.959737654339648
 30
0.0
 10
41.25898802671887
 20
9.143297940510394
 30
0.0
 10
41.54695551160171
 20
9.25188971907835
 30
0.0
 10
42.09624150822643
 20
9.310948403165327
 30
0.0
 10
42.35197438157547
 20
9.261956208698194
 30
0.0
 10
42.5651358029329
 20
9.150624137979491
 30
0.0
  0
SPLINE
  5
65E
330
1F
100
AcDbEntity
  8
0
  6
Continuous
 62
     1
370
    15
100
AcDbSpline
210
0.0
220
0.0
230
1.0
 70
     8
 71
     3
 72
    10
 73
     6
 74
     0
 42
0.000000001
 43
0.00000001
 40
0.0
 40
0.0
 40
0.0
 40
0.0
 40
0.4999999999999998
 40
0.4999999999999998
 40
1.0
 40
1.0
 40
1.0
 40
1.0
 10
42.5651358029329
 20
9.150624137979491
 30
0.0
 10
42.61942784849035
 20
9.122267947553581
 30
0.0
 10
42.68338716621457
 20
9.108300456113142
 30
0.0
 10
42.82315551063235
 20
9.117410200037853
 30
0.0
 10
42.8989683864072
 20
9.141773630315697
 30
0.0
 10
42.96537819597074
 20
9.188282706260964
 30
0.0
  0
SPLINE
  5
65F
330
1F
100
AcDbEntity
  8
0
  6
Continuous
 62
     1
370
    15
100
AcDbSpline
210
0.0
220
0.0
230
1.0
 70
     8
 71
     3
 72
     8
 73
     4
 74
     0
 42
0.000000001
 43
0.00000001
 40
0.0
 40
0.0
 40
0.0
 40
0.0
 40
1.0
 40
1.0
 40
1.0
 40
1.0
 10
42.96537819597071
 20
9.188282706260964
 30
0.0
 10
43.16399624559983
 20
9.327381764291829
 30
0.0
 10
43.38136556016931
 20
9.417952449049011
 30
0.0
 10
43.59569391039309
 20
9.457872571866972
 30
0.0
  0
SPLINE
  5
660
330
1F
100
AcDbEntity
  8
0
  6
Continuous
 62
     1
370
    15
100
AcDbSpline
210
0.0
220
0.0
230
1.0
 70
     8
 71
     3
 72
     8
 73
     4
 74
     0
 42
0.000000001
 43
0.00000001
 40
0.0
 40
0.0
 40
0.0
 40
0.0
 40
1.0
 40
1.0
 40
1.0
 40
1.0
 10
43.5956938803553
 20
9.457872573370764
 30
0.0
 10
43.82318273530856
 20
9.446483667019493
 30
0.0
 10
44.03493310773459
 20
9.377751274710391
 30
0.0
 10
44.21373015728742
 20
9.264502797876958
 30
0.0
  0
SPLINE
  5
661
330
1F
100
AcDbEntity
  8
0
  6
Continuous
 62
     1
370
    15
100
AcDbSpline
210
0.0
220
0.0
230
1.0
 70
     8
 71
     3
 72
    10
 73
     6
 74
     0
 42
0.000000001
 43
0.00000001
 40
0.0
 40
0.0
 40
0.0
 40
0.0
 40
0.5
 40
0.5
 40
1.0
 40
1.0
 40
1.0
 40
1.0
 10
44.21373015728742
 20
9.264502797876958
 30
0.0
 10
44.26769597354252
 20
9.230321325043661
 30
0.0
 10
44.33144807162628
 20
9.21081482483362
 30
0.0
 10
44.47112256245319
 20
9.210469668751529
 30
0.0
 10
44.5470886672087
 20
9.230995686142847
 30
0.0
 10
44.61395314672512
 20
9.275581582618571
 30
0.0
  0
SPLINE
  5
662
330
1F
100
AcDbEntity
  8
0
  6
Continuous
 62
     1
370
    15
100
AcDbSpline
210
0.0
220
0.0
230
1.0
 70
     8
 71
     3
 72
    10
 73
     6
 74
     0
 42
0.000000001
 43
0.00000001
 40
0.0
 40
0.0
 40
0.0
 40
0.0
 40
0.5
 40
0.5
 40
1.0
 40
1.0
 40
1.0
 40
1.0
 10
44.61395314672512
 20
9.2755815826186
 30
0.0
 10
44.87632601433882
 20
9.450534406570398
 30
0.0
 10
45.16439002507877
 20
9.529981624582263
 30
0.0
 10
45.71375953612193
 20
9.518669120008951
 30
0.0
 10
45.96950072967388
 20
9.428919487504658
 30
0.0
 10
46.18274900358136
 20
9.274650081950881
 30
0.0
  0
SPLINE
  5
663
330
1F
100
AcDbEntity
  8
0
  6
Continuous
 62
     1
370
    15
100
AcDbSpline
210
0.0
220
0.0
230
1.0
 70
     8
 71
     3
 72
    10
 73
     6
 74
     0
 42
0.000000001
 43
0.00000001
 40
0.0
 40
0.0
 40
0.0
 40
0.0
 40
0.5
 40
0.5
 40
1.0
 40
1.0
 40
1.0
 40
1.0
 10
46.18274900358136
 20
9.27465008195091
 30
0.0
 10
46.23708530958129
 20
9.235341770221112
 30
0.0
 10
46.30108417573837
 20
9.210931002907046
 30
0.0
 10
46.44091457909943
 20
9.20248718498513
 30
0.0
 10
46.51679971681466
 20
9.219930673243596
 30
0.0
 10
46.58326846760912
 20
9.263151367340953
 30
0.0
  0
SPLINE
  5
664
330
1F
100
AcDbEntity
  8
0
  6
Continuous
 62
     1
370
    15
100
AcDbSpline
210
0.0
220
0.0
230
1.0
 70
     8
 71
     3
 72
     8
 73
     4
 74
     0
 42
0.000000001
 43
0.00000001
 40
0.0
 40
0.0
 40
0.0
 40
0.0
 40
1.0
 40
1.0
 40
1.0
 40
1.0
 10
46.58326846760912
 20
9.263151367340953
 30
0.0
 10
46.78202440039001
 20
9.392390585290457
 30
0.0
 10
46.99955032241709
 20
9.461858553174352
 30
0.0
 10
47.21401425064042
 20
9.476911212616443
 30
0.0
  0
SPLINE
  5
665
330
1F
100
AcDbEntity
  8
0
  6
Continuous
 62
     1
370
    15
100
AcDbSpline
210
0.0
220
0.0
230
1.0
 70
     8
 71
     3
 72
     8
 73
     4
 74
     0
 42
0.000000001
 43
0.00000001
 40
0.0
 40
0.0
 40
0.0
 40
0.0
 40
1.0
 40
1.0
 40
1.0
 40
1.0
 10
47.21401422056999
 20
9.476911218231749
 30
0.0
 10
47.44181331067145
 20
9.434372653318121
 30
0.0
 10
47.65385731455851
 20
9.332336143836386
 30
0.0
 10
47.83300605390747
 20
9.185459227900395
 30
0.0
  0
SPLINE
  5
666
330
1F
100
AcDbEntity
  8
0
  6
Continuous
 62
     1
370
    15
100
AcDbSpline
210
0.0
220
0.0
230
1.0
 70
     8
 71
     3
 72
    10
 73
     6
 74
     0
 42
0.000000001
 43
0.00000001
 40
0.0
 40
0.0
 40
0.0
 40
0.0
 40
0.5
 40
0.5
 40
1.0
 40
1.0
 40
1.0
 40
1.0
 10
47.83300605390747
 20
9.185459227900395
 30
0.0
 10
47.88708387375891
 20
9.141122977312278
 30
0.0
 10
47.9509451145087
 20
9.111627277227257
 30
0.0
 10
48.09079503363316
 20
9.093740348716068
 30
0.0
 10
48.16686036761041
 20
9.106853544235065
 30
0.0
 10
48.23382190429862
 20
9.147116682707491
 30
0.0
  0
SPLINE
  5
667
330
1F
100
AcDbEntity
  8
0
  6
Continuous
 62
     1
370
    15
100
AcDbSpline
210
0.0
220
0.0
230
1.0
 70
     8
 71
     3
 72
    10
 73
     6
 74
     0
 42
0.000000001
 43
0.00000001
 40
0.0
 40
0.0
 40
0.0
 40
0.0
 40
0.5
 40
0.5
 40
1.0
 40
1.0
 40
1.0
 40
1.0
 10
48.23382190429859
 20
9.147116682707491
 30
0.0
 10
48.49648942876848
 20
9.305055395482043
 30
0.0
 10
48.78480199016531
 20
9.351400513744835
 30
0.0
 10
49.3346256316035
 20
9.270172753887636
 30
0.0
 10
49.5906028462212
 20
9.143933832611964
 30
0.0
 10
49.80402985116552
 20
8.953850296391806
 30
0.0
  0
SPLINE
  5
668
330
1F
100
AcDbEntity
  8
0
  6
Continuous
 62
     1
370
    15
100
AcDbSpline
210
0.0
220
0.0
230
1.0
 70
     8
 71
     3
 72
    10
 73
     6
 74
     0
 42
0.000000001
 43
0.00000001
 40
0.0
 40
0.0
 40
0.0
 40
0.0
 40
0.5
 40
0.5
 40
1.0
 40
1.0
 40
1.0
 40
1.0
 10
49.80402985116552
 20
8.953850296391806
 30
0.0
 10
49.85835846823119
 20
8.905463843831626
 30
0.0
 10
49.92234620454167
 20
8.871744452536234
 30
0.0
 10
50.06220579910695
 20
8.846133799413622
 30
0.0
 10
50.13810648564157
 20
8.855839763501024
 30
0.0
 10
50.20457937702179
 20
8.893688469222894
 30
0.0
  0
SPLINE
  5
669
330
1F
100
AcDbEntity
  8
0
  6
Continuous
 62
     1
370
    15
100
AcDbSpline
210
0.0
220
0.0
230
1.0
 70
     8
 71
     3
 72
     8
 73
     4
 74
     0
 42
0.000000001
 43
0.00000001
 40
0.0
 40
0.0
 40
0.0
 40
0.0
 40
1.0
 40
1.0
 40
1.0
 40
1.0
 10
50.20457937702173
 20
8.893688469222894
 30
0.0
 10
50.40328854971952
 20
9.006830606499022
 30
0.0
 10
50.62077309159076
 20
9.051932751867838
 30
0.0
 10
50.83519591938142
 20
9.041418202547192
 30
0.0
  0
SPLINE
  5
66A
330
1F
100
AcDbEntity
  8
0
  6
Continuous
 62
     1
370
    15
100
AcDbSpline
210
0.0
220
0.0
230
1.0
 70
     8
 71
     3
 72
     8
 73
     4
 74
     0
 42
0.000000001
 43
0.00000001
 40
0.0
 40
0.0
 40
0.0
 40
0.0
 40
1.0
 40
1.0
 40
1.0
 40
1.0
 10
50.83519588932776
 20
9.041418212003208
 30
0.0
 10
51.00899337676864
 20
8.986735648173692
 30
0.0
 10
51.17364502439025
 20
8.897770423807458
 30
0.0
 10
51.32143565757502
 20
8.781483599500916
 30
0.0
  0
SPLINE
  5
66B
330
1F
100
AcDbEntity
  8
0
  6
Continuous
 62
     1
370
    15
100
AcDbSpline
210
0.0
220
0.0
230
1.0
 70
     8
 71
     3
 72
    10
 73
     6
 74
     0
 42
0.000000001
 43
0.00000001
 40
0.0
 40
0.0
 40
0.0
 40
0.0
 40
0.5
 40
0.5
 40
1.0
 40
1.0
 40
1.0
 40
1.0
 10
51.32143565757497
 20
8.781483599500945
 30
0.0
 10
51.31501564766407
 20
8.54196959386067
 30
0.0
 10
51.29692322405
 20
8.306129709001567
 30
0.0
 10
51.23443311483533
 20
7.842730035600539
 30
0.0
 10
51.18918972821959
 20
7.612267184901839
 30
0.0
 10
51.12987673134552
 20
7.396076002887952
 30
0.0
  0
SPLINE
  5
66C
330
1F
100
AcDbEntity
  8
0
  6
Continuous
 62
     1
370
    15
100
AcDbSpline
210
0.0
220
0.0
230
1.0
 70
     8
 71
     3
 72
     8
 73
     4
 74
     0
 42
0.000000001
 43
0.00000001
 40
0.0
 40
0.0
 40
0.0
 40
0.0
 40
1.0
 40
1.0
 40
1.0
 40
1.0
 10
53.27500102818013
 20
5.160573045142371
 30
0.0
 10
52.55929070399435
 20
5.850427749608741
 30
0.0
 10
51.84238237335626
 20
6.592401587716921
 30
0.0
 10
51.12987673134549
 20
7.39607600288798
 30
0.0
  0
SPLINE
  5
66D
330
1F
100
AcDbEntity
  8
0
  6
Continuous
 62
     1
370
    15
100
AcDbSpline
210
0.0
220
0.0
230
1.0
 70
     8
 71
     3
 72
    10
 73
     6
 74
     0
 42
0.000000001
 43
0.00000001
 40
0.0
 40
0.0
 40
0.0
 40
0.0
 40
0.5
 40
0.5
 40
1.0
 40
1.0
 40
1.0
 40
1.0
 10
44.26068240330568
 20
7.935886369423855
 30
0.0
 10
44.20638353107506
 20
7.929050916301321
 30
0.0
 10
44.14241312563939
 20
7.934149428456124
 30
0.0
 10
44.00259848524016
 20
7.971649953812488
 30
0.0
 10
43.92676555329376
 20
8.004879687584264
 30
0.0
 10
43.86037197291958
 20
8.051762334240095
 30
0.0
  0
SPLINE
  5
66E
330
1F
100
AcDbEntity
  8
0
  6
Continuous
 62
     1
370
    15
100
AcDbSpline
210
0.0
220
0.0
230
1.0
 70
     8
 71
     3
 72
     8
 73
     4
 74
     0
 42
0.000000001
 43
0.00000001
 40
0.0
 40
0.0
 40
0.0
 40
0.0
 40
1.0
 40
1.0
 40
1.0
 40
1.0
 10
43.23002694599057
 20
8.38557576241945
 30
0.0
 10
43.00246746865352
 20
8.428011320782588
 30
0.0
 10
42.79087189348058
 20
8.423171711123189
 30
0.0
 10
42.61209133710781
 20
8.379146906965104
 30
0.0
  0
SPLINE
  5
66F
330
1F
100
AcDbEntity
  8
0
  6
Continuous
 62
     1
370
    15
100
AcDbSpline
210
0.0
220
0.0
230
1.0
 70
     8
 71
     3
 72
    10
 73
     6
 74
     0
 42
0.000000001
 43
0.00000001
 40
0.0
 40
0.0
 40
0.0
 40
0.0
 40
0.5
 40
0.5
 40
1.0
 40
1.0
 40
1.0
 40
1.0
 10
42.61209133710781
 20
8.379146906965104
 30
0.0
 10
42.55814665131766
 20
8.36586300028381
 30
0.0
 10
42.49441801270069
 20
8.365357154942245
 30
0.0
 10
42.35477943824193
 20
8.394612149116028
 30
0.0
 10
42.27881130456257
 20
8.425333048610128
 30
0.0
 10
42.21193169049363
 20
8.47238211635701
 30
0.0
  0
SPLINE
  5
670
330
1F
100
AcDbEntity
  8
0
  6
Continuous
 62
     1
370
    15
100
AcDbSpline
210
0.0
220
0.0
230
1.0
 70
     8
 71
     3
 72
    10
 73
     6
 74
     0
 42
0.000000001
 43
0.00000001
 40
0.0
 40
0.0
 40
0.0
 40
0.0
 40
0.5
 40
0.5
 40
1.0
 40
1.0
 40
1.0
 40
1.0
 10
42.21193169049366
 20
8.47238211635701
 30
0.0
 10
41.94971374304163
 20
8.656849538094917
 30
0.0
 10
41.6618293365047
 20
8.783089729987097
 30
0.0
 10
41.11247474845757
 20
8.890554713661032
 30
0.0
 10
40.85661481949927
 20
8.871978585144404
 30
0.0
 10
40.64326820282693
 20
8.794520136734093
 30
0.0
  0
SPLINE
  5
671
330
1F
100
AcDbEntity
  8
0
  6
Continuous
 62
     1
370
    15
100
AcDbSpline
210
0.0
220
0.0
230
1.0
 70
     8
 71
     3
 72
    10
 73
     6
 74
     0
 42
0.000000001
 43
0.00000001
 40
0.0
 40
0.0
 40
0.0
 40
0.0
 40
0.5
 40
0.5
 40
1.0
 40
1.0
 40
1.0
 40
1.0
 10
40.64326820282693
 20
8.794520136734093
 30
0.0
 10
40.58893361358372
 20
8.774793210460587
 30
0.0
 10
40.52492678437048
 20
8.768663500772163
 30
0.0
 10
40.38505689871022
 20
8.789957481240975
 30
0.0
 10
40.30919220129286
 20
8.818496896712588
 30
0.0
 10
40.24276410879662
 20
8.865969642959215
 30
0.0
  0
SPLINE
  5
672
330
1F
100
AcDbEntity
  8
0
  6
Continuous
 62
     1
370
    15
100
AcDbSpline
210
0.0
220
0.0
230
1.0
 70
     8
 71
     3
 72
     8
 73
     4
 74
     0
 42
0.000000001
 43
0.00000001
 40
0.0
 40
0.0
 40
0.0
 40
0.0
 40
1.0
 40
1.0
 40
1.0
 40
1.0
 10
40.24276410879662
 20
8.865969642959215
 30
0.0
 10
40.0439630229684
 20
9.008042569433911
 30
0.0
 10
39.82641549131409
 20
9.110984051266428
 30
0.0
 10
39.61211453078383
 20
9.167554724023319
 30
0.0
  0
SPLINE
  5
673
330
1F
100
AcDbEntity
  8
0
  6
Continuous
 62
     1
370
    15
100
AcDbSpline
210
0.0
220
0.0
230
1.0
 70
     8
 71
     3
 72
     8
 73
     4
 74
     0
 42
0.000000001
 43
0.00000001
 40
0.0
 40
0.0
 40
0.0
 40
0.0
 40
1.0
 40
1.0
 40
1.0
 40
1.0
 10
39.6121145307921
 20
9.16755472402292
 30
0.0
 10
39.38437222008517
 20
9.178857707681743
 30
0.0
 10
39.17249266543479
 20
9.136060501988652
 30
0.0
 10
38.99338550937927
 20
9.05020531500864
 30
0.0
  0
SPLINE
  5
674
330
1F
100
AcDbEntity
  8
0
  6
Continuous
 62
     1
370
    15
100
AcDbSpline
210
0.0
220
0.0
230
1.0
 70
     8
 71
     3
 72
    10
 73
     6
 74
     0
 42
0.000000001
 43
0.00000001
 40
0.0
 40
0.0
 40
0.0
 40
0.0
 40
0.5
 40
0.5
 40
1.0
 40
1.0
 40
1.0
 40
1.0
 10
38.99338550937927
 20
9.050205315008611
 30
0.0
 10
38.93934218370742
 20
9.024299595032005
 30
0.0
 10
38.87551628165406
 20
9.012514484432785
 30
0.0
 10
38.73571919362942
 20
9.024698036035858
 30
0.0
 10
38.65966455487273
 20
9.049880029648023
 30
0.0
 10
38.59270388813752
 20
9.096319595938553
 30
0.0
  0
SPLINE
  5
675
330
1F
100
AcDbEntity
  8
0
  6
Continuous
 62
     1
370
    15
100
AcDbSpline
210
0.0
220
0.0
230
1.0
 70
     8
 71
     3
 72
    10
 73
     6
 74
     0
 42
0.000000001
 43
0.00000001
 40
0.0
 40
0.0
 40
0.0
 40
0.0
 40
0.5
 40
0.5
 40
1.0
 40
1.0
 40
1.0
 40
1.0
 10
38.59270388813752
 20
9.096319595938553
 30
0.0
 10
38.3301413197851
 20
9.278415927903552
 30
0.0
 10
38.04191659477814
 20
9.378996663616562
 30
0.0
 10
37.49195452820999
 20
9.417880236052156
 30
0.0
 10
37.23577505762424
 20
9.356804220277354
 30
0.0
 10
37.0221458583969
 20
9.232304011044874
 30
0.0
  0
SPLINE
  5
676
330
1F
100
AcDbEntity
  8
0
  6
Continuous
 62
     1
370
    15
100
AcDbSpline
210
0.0
220
0.0
230
1.0
 70
     8
 71
     3
 72
    10
 73
     6
 74
     0
 42
0.000000001
 43
0.00000001
 40
0.0
 40
0.0
 40
0.0
 40
0.0
 40
0.5
 40
0.5
 40
1.0
 40
1.0
 40
1.0
 40
1.0
 10
37.0221458583969
 20
9.232304011044874
 30
0.0
 10
36.96777396119492
 20
9.200616804415347
 30
0.0
 10
36.90373843401062
 20
9.183523820317191
 30
0.0
 10
36.76382465193998
 20
9.187539072892747
 30
0.0
 10
36.68793118817354
 20
9.2099972000685
 30
0.0
 10
36.62147454885462
 20
9.255774285237749
 30
0.0
  0
SPLINE
  5
677
330
1F
100
AcDbEntity
  8
0
  6
Continuous
 62
     1
370
    15
100
AcDbSpline
210
0.0
220
0.0
230
1.0
 70
     8
 71
     3
 72
     8
 73
     4
 74
     0
 42
0.000000001
 43
0.00000001
 40
0.0
 40
0.0
 40
0.0
 40
0.0
 40
1.0
 40
1.0
 40
1.0
 40
1.0
 10
36.62147454885462
 20
9.255774285237749
 30
0.0
 10
36.42264805784802
 20
9.392731213935747
 30
0.0
 10
36.20510310045398
 20
9.477572117185417
 30
0.0
 10
35.99081403017598
 20
9.510444986578989
 30
0.0
  0
SPLINE
  5
678
330
1F
100
AcDbEntity
  8
0
  6
Continuous
 62
     1
370
    15
100
AcDbSpline
210
0.0
220
0.0
230
1.0
 70
     8
 71
     3
 72
     9
 73
     5
 74
     0
 42
0.000000001
 43
0.00000001
 40
0.0
 40
0.0
 40
0.0
 40
0.0
 40
0.6284335691584173
 40
1.0
 40
1.0
 40
1.0
 40
1.0
 10
35.99081437438727
 20
9.510444710031123
 30
0.0
 10
35.90605783587355
 20
9.499123380435805
 30
0.0
 10
35.77118830841147
 20
9.481108223144844
 30
0.0
 10
35.64957405902246
 20
9.430050630773195
 30
0.0
 10
35.60438628643749
 20
9.411079343408318
 30
0.0
  0
SPLINE
  5
679
330
1F
100
AcDbEntity
  8
0
  6
Continuous
 62
     1
370
    15
100
AcDbSpline
210
0.0
220
0.0
230
1.0
 70
     8
 71
     3
 72
     9
 73
     5
 74
     0
 42
0.000000001
 43
0.00000001
 40
0.0
 40
0.0
 40
0.0
 40
0.0
 40
0.7697997860474831
 40
0.9999999999999999
 40
0.9999999999999999
 40
0.9999999999999999
 40
0.9999999999999999
 10
35.08695463985205
 20
9.237067541107507
 30
0.0
 10
35.05645994184209
 20
9.245424601711079
 30
0.0
 10
35.01684613762615
 20
9.25628074996547
 30
0.0
 10
34.98053003780257
 20
9.279003763217332
 30
0.0
 10
34.97217006385327
 20
9.284234605729552
 30
0.0
  0
LINE
  5
67A
330
1F
100
AcDbEntity
  8
0
  6
Continuous
 62
     1
370
    15
100
AcDbLine
 10
53.27500000000001
 20
4.273372585885198
 30
0.0
 11
53.27500000000001
 21
5.160572938621016
 31
0.0
  0
SPLINE
  5
67B
330
1F
100
AcDbEntity
  8
0
  6
Continuous
 62
     1
370
    15
100
AcDbSpline
210
0.0
220
0.0
230
1.0
 70
     8
 71
     3
 72
    12
 73
     8
 74
     0
 42
0.000000001
 43
0.00000001
 40
0.0
 40
0.0
 40
0.0
 40
0.0
 40
0.4999999999999998
 40
0.4999999999999998
 40
0.7499999999999999
 40
0.7499999999999999
 40
1.0
 40
1.0
 40
1.0
 40
1.0
 10
49.74548456468457
 20
-5.17878769066391
 30
0.0
 10
49.68670079839089
 20
-5.973841977714159
 30
0.0
 10
49.62482311853009
 20
-6.703987725843888
 30
0.0
 10
49.53348645422633
 20
-7.624315288009853
 30
0.0
 10
49.5032979230985
 20
-7.902273572265784
 30
0.0
 10
49.44442275807543
 20
-8.393193361537925
 30
0.0
 10
49.41639109119672
 20
-8.605009259611535
 30
0.0
 10
49.38730725750338
 20
-8.787162474647687
 30
0.0
  0
SPLINE
  5
67C
330
1F
100
AcDbEntity
  8
0
  6
Continuous
 62
     1
370
    15
100
AcDbSpline
210
0.0
220
0.0
230
1.0
 70
     8
 71
     3
 72
    12
 73
     8
 74
     0
 42
0.000000001
 43
0.00000001
 40
0.0
 40
0.0
 40
0.0
 40
0.0
 40
0.5000000000000001
 40
0.5000000000000001
 40
0.75
 40
0.75
 40
1.0
 40
1.0
 40
1.0
 40
1.0
 10
20.79271459501581
 20
8.807325776921147
 30
0.0
 10
20.73197324557231
 20
8.442464487461365
 30
0.0
 10
20.66989290306987
 20
7.938427612514602
 30
0.0
 10
20.58094727829277
 20
7.028269199230778
 30
0.0
 10
20.55262986623697
 20
6.702389065881107
 30
0.0
 10
20.49488122124933
 20
6.00020326333609
 30
0.0
 10
20.46509561488261
 20
5.622015725423978
 30
0.0
 10
20.43487056539152
 20
5.222008126485264
 30
0.0
  0
LINE
  5
67F
330
1F
100
AcDbEntity
  8
0
  6
Continuous
 62
     1
370
    15
100
AcDbLine
 10
53.27500000000001
 20
-0.4529406724032299
 30
0.0
 11
53.27500000000001
 21
-3.766232519410579
 31
0.0
  0
SPLINE
  5
682
330
1F
100
AcDbEntity
  8
0
  6
Continuous
 62
     1
370
    15
100
AcDbSpline
210
0.0
220
0.0
230
1.0
 70
     8
 71
     3
 72
    10
 73
     6
 74
     0
 42
0.000000001
 43
0.00000001
 40
0.0
 40
0.0
 40
0.0
 40
0.0
 40
0.5
 40
0.5
 40
1.0
 40
1.0
 40
1.0
 40
1.0
 10
52.07140648040092
 20
-8.589560598415233
 30
0.0
 10
51.94603110227311
 20
-8.72122903272981
 30
0.0
 10
51.82100150015586
 20
-8.830825269968983
 30
0.0
 10
51.57146420798159
 20
-9.016702113815114
 30
0.0
 10
51.44618674467691
 20
-9.092982956910419
 30
0.0
 10
51.32397899862855
 20
-9.152455626954549
 30
0.0
  0
SPLINE
  5
684
330
1F
100
AcDbEntity
  8
0
  6
Continuous
 62
     1
370
    15
100
AcDbSpline
210
0.0
220
0.0
230
1.0
 70
     8
 71
     3
 72
    12
 73
     8
 74
     0
 42
0.000000001
 43
0.00000001
 40
0.0
 40
0.0
 40
0.0
 40
0.0
 40
0.5000000000000002
 40
0.5000000000000002
 40
0.7500000000000001
 40
0.7500000000000001
 40
1.0
 40
1.0
 40
1.0
 40
1.0
 10
30.92619927583087
 20
-6.068667141854888
 30
0.0
 10
30.86559522550886
 20
-6.806568593203707
 30
0.0
 10
30.80345464677379
 20
-7.456341404612402
 30
0.0
 10
30.71414152320818
 20
-8.236618458175684
 30
0.0
 10
30.68551813650188
 20
-8.463706618339359
 30
0.0
 10
30.6281170931737
 20
-8.85535558877919
 30
0.0
 10
30.5984652953629
 20
-9.02149648080632
 30
0.0
 10
30.56832686086437
 20
-9.153621668275605
 30
0.0
  0
SPLINE
  5
685
330
1F
100
AcDbEntity
  8
0
  6
Continuous
 62
     1
370
    15
100
AcDbSpline
210
0.0
220
0.0
230
1.0
 70
     8
 71
     3
 72
    12
 73
     8
 74
     0
 42
0.000000001
 43
0.00000001
 40
0.0
 40
0.0
 40
0.0
 40
0.0
 40
0.5
 40
0.5
 40
0.75
 40
0.75
 40
1.0
 40
1.0
 40
1.0
 40
1.0
 10
39.61211453078383
 20
9.167554724023347
 30
0.0
 10
39.55304809654137
 20
8.910059007454521
 30
0.0
 10
39.49106943800447
 20
8.50882681424568
 30
0.0
 10
39.39988560836724
 20
7.725886562652704
 30
0.0
 10
39.36979732622373
 20
7.435341555977232
 30
0.0
 10
39.31121026698008
 20
6.806885686053192
 30
0.0
 10
39.28324571134348
 20
6.471484332048874
 30
0.0
 10
39.254003729299
 20
6.108665766344188
 30
0.0
  0
SPLINE
  5
687
330
1F
100
AcDbEntity
  8
0
  6
Continuous
 62
     1
370
    15
100
AcDbSpline
210
0.0
220
0.0
230
1.0
 70
     8
 71
     3
 72
    10
 73
     6
 74
     0
 42
0.000000001
 43
0.00000001
 40
0.0
 40
0.0
 40
0.0
 40
0.0
 40
0.5
 40
0.5
 40
1.0
 40
1.0
 40
1.0
 40
1.0
 10
52.52812135753601
 20
-8.316454956622522
 30
0.0
 10
52.45744422544584
 20
-8.327462761789604
 30
0.0
 10
52.3819179209099
 20
-8.358687718499368
 30
0.0
 10
52.22778826846263
 20
-8.449277959895852
 30
0.0
 10
52.14932298231656
 20
-8.507733177691762
 30
0.0
 10
52.07140648040149
 20
-8.589560598415147
 30
0.0
  0
SPLINE
  5
688
330
1F
100
AcDbEntity
  8
0
  6
Continuous
 62
     1
370
    15
100
AcDbSpline
210
0.0
220
0.0
230
1.0
 70
     8
 71
     3
 72
    10
 73
     6
 74
     0
 42
0.000000001
 43
0.00000001
 40
0.0
 40
0.0
 40
0.0
 40
0.0
 40
0.5
 40
0.5
 40
1.0
 40
1.0
 40
1.0
 40
1.0
 10
17.17272098459873
 20
9.385648487887181
 30
0.0
 10
17.11592366105413
 20
9.226041141686665
 30
0.0
 10
17.05530984740838
 20
8.92399797525593
 30
0.0
 10
16.93309481583239
 20
8.05364448216244
 30
0.0
 10
16.87179141947226
 20
7.486302056467196
 30
0.0
 10
16.81425283161767
 20
6.830851296478301
 30
0.0
  0
SPLINE
  5
689
330
1F
100
AcDbEntity
  8
0
  6
Continuous
 62
     1
370
    15
100
AcDbSpline
210
0.0
220
0.0
230
1.0
 70
     8
 71
     3
 72
     8
 73
     4
 74
     0
 42
0.000000001
 43
0.00000001
 40
0.0
 40
0.0
 40
0.0
 40
0.0
 40
1.0
 40
1.0
 40
1.0
 40
1.0
 10
53.05160839025626
 20
-6.591499574714049
 30
0.0
 10
53.0377367096311
 20
-7.189735993398529
 30
0.0
 10
53.02524987069611
 20
-7.711091144625954
 30
0.0
 10
53.01451466411288
 20
-8.141769386394742
 30
0.0
  0
SPLINE
  5
68A
330
1F
100
AcDbEntity
  8
0
  6
Continuous
 62
     1
370
    15
100
AcDbSpline
210
0.0
220
0.0
230
1.0
 70
     8
 71
     3
 72
     8
 73
     4
 74
     0
 42
0.000000001
 43
0.00000001
 40
0.0
 40
0.0
 40
0.0
 40
0.0
 40
1.0
 40
1.0
 40
1.0
 40
1.0
 10
53.01451466411288
 20
-8.141769386394714
 30
0.0
 10
52.84638502098159
 20
-8.232494184430692
 30
0.0
 10
52.68289487201693
 20
-8.29234932808265
 30
0.0
 10
52.52812135753601
 20
-8.316454956622522
 30
0.0
  0
ELLIPSE
  5
68E
330
1F
100
AcDbEntity
  8
0
  6
Continuous
 62
     1
370
    15
100
AcDbEllipse
 10
45.05569629293799
 20
-7.179581535992043
 30
0.0
 11
10.90673513994715
 21
13.69173216414361
 31
0.0
210
0.0
220
0.0
230
1.0
 40
0.4016385608855503
 41
4.955056758960079
 42
4.983521313204956
  0
LINE
  5
68F
330
1F
100
AcDbEntity
  8
0
  6
Continuous
 62
     1
370
    15
100
AcDbLine
 10
53.27500000000001
 20
-7.733162026852398
 30
0.0
 11
53.27500000000001
 21
-6.45482470281425
 31
0.0
  0
LINE
  5
691
330
1F
100
AcDbEntity
  8
0
  6
Continuous
 62
     1
370
    15
100
AcDbLine
 10
14.56276040859521
 20
9.256168501451583
 30
0.0
 11
14.53801283948124
 21
9.221577085554571
 31
0.0
  0
LINE
  5
692
330
1F
100
AcDbEntity
  8
0
  6
Continuous
 62
     1
370
    15
100
AcDbLine
 10
14.38471830785272
 20
-9.22911800444129
 30
0.0
 11
14.36086271293462
 21
-9.256191551685362
 31
0.0
  0
SPLINE
  5
693
330
1F
100
AcDbEntity
  8
0
  6
Continuous
 62
     1
370
    15
100
AcDbSpline
210
0.0
220
0.0
230
1.0
 70
     8
 71
     3
 72
    10
 73
     6
 74
     0
 42
0.000000001
 43
0.00000001
 40
0.0
 40
0.0
 40
0.0
 40
0.0
 40
0.3186448287716128
 40
0.6181409585505411
 40
1.0
 40
1.0
 40
1.0
 40
1.0
 10
12.76642426252366
 20
-9.246454574167757
 30
0.0
 10
12.89954732516296
 20
-9.320754985417182
 30
0.0
 10
13.15779352944713
 20
-9.46489078579242
 30
0.0
 10
13.5988619552823
 20
-9.539873830240168
 30
0.0
 10
13.87002582044184
 20
-9.472232627965155
 30
0.0
 10
14.02199703603981
 20
-9.434323757886915
 30
0.0
  0
SPLINE
  5
698
330
1F
100
AcDbEntity
  8
0
  6
Continuous
 62
     1
370
    15
100
AcDbSpline
210
0.0
220
0.0
230
1.0
 70
     8
 71
     3
 72
    10
 73
     6
 74
     0
 42
0.000000001
 43
0.00000001
 40
0.0
 40
0.0
 40
0.0
 40
0.0
 40
0.5
 40
0.5
 40
1.0
 40
1.0
 40
1.0
 40
1.0
 10
12.36626198406526
 20
-9.225109674064157
 30
0.0
 10
12.42020985187929
 20
-9.19326412082367
 30
0.0
 10
12.48394242402659
 20
-9.175963991345498
 30
0.0
 10
12.62358825025552
 20
-9.17927874101838
 30
0.0
 10
12.69955320738364
 20
-9.201219238070195
 30
0.0
 10
12.76642400522812
 20
-9.246454630112538
 30
0.0
  0
SPLINE
  5
699
330
1F
100
AcDbEntity
  8
0
  6
Continuous
 62
     1
370
    15
100
AcDbSpline
210
0.0
220
0.0
230
1.0
 70
     8
 71
     3
 72
     9
 73
     5
 74
     0
 42
0.000000001
 43
0.00000001
 40
0.0
 40
0.0
 40
0.0
 40
0.0
 40
0.6979638032227691
 40
1.0
 40
1.0
 40
1.0
 40
1.0
 10
14.64766559526325
 20
-9.246082976460485
 30
0.0
 10
14.66888859468864
 20
-9.252202126577771
 30
0.0
 10
14.69929561483411
 20
-9.260969271935494
 30
0.0
 10
14.72704706764938
 20
-9.278906362178503
 30
0.0
 10
14.73542901091278
 20
-9.284324012696771
 30
0.0
  0
SPLINE
  5
6A3
330
1F
100
AcDbEntity
  8
0
  6
Continuous
 62
     1
370
    15
100
AcDbSpline
210
0.0
220
0.0
230
1.0
 70
     8
 71
     3
 72
    12
 73
     8
 74
     0
 42
0.000000001
 43
0.00000001
 40
0.0
 40
0.0
 40
0.0
 40
0.0
 40
0.2499999999999999
 40
0.2499999999999999
 40
0.4999999999999998
 40
0.4999999999999998
 40
1.0
 40
1.0
 40
1.0
 40
1.0
 10
34.54343992678292
 20
-7.520071889562644
 30
0.0
 10
34.51311046035434
 20
-7.813967292627609
 30
0.0
 10
34.48315493592207
 20
-8.077972763361572
 30
0.0
 10
34.42495385519527
 20
-8.539854528126028
 30
0.0
 10
34.39689567886725
 20
-8.737938196330134
 30
0.0
 10
34.30849512217543
 20
-9.24247183351352
 30
0.0
 10
34.24652895421846
 20
-9.44894305074385
 30
0.0
 10
34.18562843404294
 20
-9.507329847882374
 30
0.0
  0
SPLINE
  5
6A4
330
1F
100
AcDbEntity
  8
0
  6
Continuous
 62
     1
370
    15
100
AcDbSpline
210
0.0
220
0.0
230
1.0
 70
     8
 71
     3
 72
    12
 73
     8
 74
     0
 42
0.000000001
 43
0.00000001
 40
0.0
 40
0.0
 40
0.0
 40
0.0
 40
0.2500000000000001
 40
0.2500000000000001
 40
0.5000000000000001
 40
0.5000000000000001
 40
1.0
 40
1.0
 40
1.0
 40
1.0
 10
35.99081403017598
 20
9.510444986578989
 30
0.0
 10
35.9610988670461
 20
9.484169573414363
 30
0.0
 10
35.93261068630329
 20
9.423041997336412
 30
0.0
 10
35.87510179488083
 20
9.232635826550734
 30
0.0
 10
35.84541140324643
 20
9.102104381536037
 30
0.0
 10
35.75493276728093
 20
8.606170587324982
 30
0.0
 10
35.69275350519342
 20
8.134292237219029
 30
0.0
 10
35.63285772389682
 20
7.553473369417532
 30
0.0
  0
LINE
  5
6A5
330
1F
100
AcDbEntity
  8
0
  6
Continuous
 62
     1
370
    15
100
AcDbLine
 10
35.35305771380663
 20
9.259859332814784
 30
0.0
 11
35.32750967293975
 21
9.223414817824931
 31
0.0
  0
LINE
  5
6A6
330
1F
100
AcDbEntity
  8
0
  6
Continuous
 62
     1
370
    15
100
AcDbLine
 10
35.21724014878274
 20
-9.271579328924446
 30
0.0
 11
35.20410570651293
 21
-9.285002946853666
 31
0.0
  0
SPLINE
  5
6A7
330
1F
100
AcDbEntity
  8
0
  6
Continuous
 62
     1
370
    15
100
AcDbSpline
210
0.0
220
0.0
230
1.0
 70
     8
 71
     3
 72
     9
 73
     5
 74
     0
 42
0.000000001
 43
0.00000001
 40
0.0
 40
0.0
 40
0.0
 40
0.0
 40
0.1810959743871077
 40
1.0
 40
1.0
 40
1.0
 40
1.0
 10
36.86755027025939
 20
-9.271818911656766
 30
0.0
 10
36.86705799893207
 20
-9.272877512196203
 30
0.0
 10
36.86433970920223
 20
-9.278723034400684
 30
0.0
 10
36.86167017650936
 20
-9.274863911646719
 30
0.0
 10
36.85948408544064
 20
-9.271703660488157
 30
0.0
  0
LINE
  5
6A8
330
1F
100
AcDbEntity
  8
0
  6
Continuous
 62
     1
370
    15
100
AcDbLine
 10
34.97217006385327
 20
9.284234605729552
 30
0.0
 11
34.95719439685342
 21
9.27702826447782
 31
0.0
  0
LINE
  5
6A9
330
1F
100
AcDbEntity
  8
0
  6
Continuous
 62
     1
370
    15
100
AcDbLine
 10
33.31433578729627
 20
9.276956319808932
 30
0.0
 11
33.30692059695718
 21
9.264902444556327
 31
0.0
  0
SPLINE
  5
6AA
330
1F
100
AcDbEntity
  8
0
  6
Continuous
 62
     1
370
    15
100
AcDbSpline
210
0.0
220
0.0
230
1.0
 70
     8
 71
     3
 72
    12
 73
     8
 74
     0
 42
0.000000001
 43
0.00000001
 40
0.0
 40
0.0
 40
0.0
 40
0.0
 40
0.0626957834096729
 40
0.2753718360785901
 40
0.5146659840917536
 40
0.7568433906170006
 40
1.0
 40
1.0
 40
1.0
 40
1.0
 10
13.50530648939312
 20
9.508039103820892
 30
0.0
 10
13.49876385934917
 20
9.508374209619433
 30
0.0
 10
13.47002738059419
 20
9.509846058187264
 30
0.0
 10
13.41824294504437
 20
9.38840642715084
 30
0.0
 10
13.34778757628575
 20
9.124757836883134
 30
0.0
 10
13.27179940007454
 20
8.704762133623973
 30
0.0
 10
13.22070497771492
 20
8.309608393172539
 30
0.0
 10
13.19510622285304
 20
8.111632894724579
 30
0.0
  0
LINE
  5
6AB
330
1F
100
AcDbEntity
  8
0
  6
Continuous
 62
     1
370
    15
100
AcDbLine
 10
14.77050448171795
 20
-9.25698992796245
 30
0.0
 11
14.73542901091278
 21
-9.284324012696771
 31
0.0
  0
SPLINE
  5
6AC
330
1F
100
AcDbEntity
  8
0
  6
Continuous
 62
     1
370
    15
100
AcDbSpline
210
0.0
220
0.0
230
1.0
 70
     8
 71
     3
 72
    11
 73
     7
 74
     0
 42
0.000000001
 43
0.00000001
 40
0.0
 40
0.0
 40
0.0
 40
0.0
 40
0.2966000985527368
 40
0.5963138802572804
 40
0.8984624441378308
 40
0.9999999999999999
 40
0.9999999999999999
 40
0.9999999999999999
 40
0.9999999999999999
 10
15.7240465503186
 20
-8.146177511662273
 30
0.0
 10
15.69531220369865
 20
-8.373665343806692
 30
0.0
 10
15.63754185967923
 20
-8.831029156426041
 30
0.0
 10
15.54824962870171
 20
-9.261151753180826
 30
0.0
 10
15.47666531858249
 20
-9.48853934127888
 30
0.0
 10
15.43622772698001
 20
-9.490773435097168
 30
0.0
 10
15.42605662122369
 20
-9.491335367783932
 30
0.0
  0
LINE
  5
6AD
330
1F
100
AcDbEntity
  8
0
  6
Continuous
 62
     1
370
    15
100
AcDbLine
 10
12.85197066478432
 20
9.278958896174998
 30
0.0
 11
12.84751498475671
 21
9.27142775617537
 31
0.0
  0
LINE
  5
6AE
330
1F
100
AcDbEntity
  8
0
  6
Continuous
 62
     1
370
    15
100
AcDbLine
 10
16.07539148405195
 20
-9.274378186091809
 30
0.0
 11
16.06963311657307
 21
-9.27209830842915
 31
0.0
  0
LINE
  5
6AF
330
1F
100
AcDbEntity
  8
0
  6
Continuous
 62
     1
370
    15
100
AcDbLine
 10
12.48531828038392
 20
9.25337732769546
 30
0.0
 11
12.46511300429702
 21
9.267734130844445
 31
0.0
  0
LINE
  5
6B0
330
1F
100
AcDbEntity
  8
0
  6
Continuous
 62
     1
370
    15
100
AcDbLine
 10
10.81648485139013
 20
9.273551171645494
 30
0.0
 11
10.81131391562522
 21
9.275108110159607
 31
0.0
  0
LINE
  5
6B1
330
1F
100
AcDbEntity
  8
0
  6
Continuous
 62
     1
370
    15
100
AcDbLine
 10
16.45565188825128
 20
-9.265127358958154
 30
0.0
 11
16.43652019426227
 21
-9.250217350199847
 31
0.0
  0
LINE
  5
6B2
330
1F
100
AcDbEntity
  8
0
  6
Continuous
 62
     1
370
    15
100
AcDbLine
 10
37.24516897797585
 20
-9.267597226426034
 30
0.0
 11
37.2376559987664
 21
-9.261339437216549
 31
0.0
  0
LINE
  5
6B3
330
1F
100
AcDbEntity
  8
0
  6
Continuous
 62
     1
370
    15
100
AcDbLine
 10
32.93671428561208
 20
9.261147351935477
 30
0.0
 11
32.92927674353123
 21
9.267778135836096
 31
0.0
  0
SPLINE
  5
6B4
330
1F
100
AcDbEntity
  8
0
  6
Continuous
 62
     1
370
    15
100
AcDbSpline
210
0.0
220
0.0
230
1.0
 70
     8
 71
     3
 72
    10
 73
     6
 74
     0
 42
0.000000001
 43
0.00000001
 40
0.0
 40
0.0
 40
0.0
 40
0.0
 40
0.3342021418827251
 40
0.672274758662301
 40
1.0
 40
1.0
 40
1.0
 40
1.0
 10
38.1636551335454
 20
-8.612203644588618
 30
0.0
 10
38.13448579412801
 20
-8.79506566144525
 30
0.0
 10
38.07580929820048
 20
-9.162907463889269
 30
0.0
 10
37.98527197601283
 20
-9.470624664319388
 30
0.0
 10
37.92551388310267
 20
-9.504834086476535
 30
0.0
 10
37.89609919637442
 20
-9.521672967821388
 30
0.0
  0
SPLINE
  5
6B5
330
1F
100
AcDbEntity
  8
0
  6
Continuous
 62
     1
370
    15
100
AcDbSpline
210
0.0
220
0.0
230
1.0
 70
     8
 71
     3
 72
    11
 73
     7
 74
     0
 42
0.000000001
 43
0.00000001
 40
0.0
 40
0.0
 40
0.0
 40
0.0
 40
0.0279595665468866
 40
0.4086146133501362
 40
0.7025136137150895
 40
1.0
 40
1.0
 40
1.0
 40
1.0
 10
32.27758097797633
 20
9.515550686046453
 30
0.0
 10
32.27508661801835
 20
9.518846945315971
 30
0.0
 10
32.2386328365169
 20
9.56702007077061
 30
0.0
 10
32.17831768640073
 20
9.419174675175583
 30
0.0
 10
32.09469324867075
 20
9.121269232552322
 30
0.0
 10
32.04195676689858
 20
8.797629815260365
 30
0.0
 10
32.01542857438326
 20
8.634828496724339
 30
0.0
  0
LINE
  5
6B6
330
1F
100
AcDbEntity
  8
0
  6
Continuous
 62
     1
370
    15
100
AcDbLine
 10
38.93971878439189
 20
-9.279308142140536
 30
0.0
 11
38.93182861953974
 21
-9.266312699764995
 31
0.0
  0
LINE
  5
6B7
330
1F
100
AcDbEntity
  8
0
  6
Continuous
 62
     1
370
    15
100
AcDbLine
 10
53.27500000000001
 20
5.160572938621016
 30
0.0
 11
53.27500000000001
 21
8.0009998848885
 31
0.0
  0
LINE
  5
6B8
330
1F
100
AcDbEntity
  8
0
  6
Continuous
 62
     1
370
    15
100
AcDbLine
 10
31.24170906245706
 20
9.254156844690414
 30
0.0
 11
31.23243588358164
 21
9.258428821340175
 31
0.0
  0
SPLINE
  5
6BA
330
1F
100
AcDbEntity
  8
0
  6
Continuous
 62
     1
370
    15
100
AcDbSpline
210
0.0
220
0.0
230
1.0
 70
     8
 71
     3
 72
     9
 73
     5
 74
     0
 42
0.000000001
 43
0.00000001
 40
0.0
 40
0.0
 40
0.0
 40
0.0
 40
0.5262826672650582
 40
1.0
 40
1.0
 40
1.0
 40
1.0
 10
19.34532977044583
 20
-9.0255509130657
 30
0.0
 10
19.31177278791438
 20
-9.17541444431862
 30
0.0
 10
19.24801050840435
 20
-9.460173074185207
 30
0.0
 10
19.18395100727778
 20
-9.495745492532194
 30
0.0
 10
19.15360491126776
 20
-9.512596763670473
 30
0.0
  0
LINE
  5
6BC
330
1F
100
AcDbEntity
  8
0
  6
Continuous
 62
     1
370
    15
100
AcDbLine
 10
20.18660742193458
 20
-9.268969763070373
 30
0.0
 11
20.18379669040442
 21
-9.26452875137332
 31
0.0
  0
LINE
  5
6BD
330
1F
100
AcDbEntity
  8
0
  6
Continuous
 62
     1
370
    15
100
AcDbLine
 10
49.98993936330081
 20
9.247569367289515
 30
0.0
 11
49.98608648180962
 21
9.252761956304283
 31
0.0
  0
LINE
  5
6BF
330
1F
100
AcDbEntity
  8
0
  6
Continuous
 62
     1
370
    15
100
AcDbLine
 10
21.86735502779484
 20
-9.244447108358173
 30
0.0
 11
21.85614982023836
 21
-9.259825106710224
 31
0.0
  0
LINE
  5
6C0
330
1F
100
AcDbEntity
  8
0
  6
Continuous
 62
     1
370
    15
100
AcDbLine
 10
48.31746748983861
 20
9.273117408156367
 30
0.0
 11
48.30660454332829
 21
9.256752440705867
 31
0.0
  0
SPLINE
  5
6C1
330
1F
100
AcDbEntity
  8
0
  6
Continuous
 62
     1
370
    15
100
AcDbSpline
210
0.0
220
0.0
230
1.0
 70
     8
 71
     3
 72
     9
 73
     5
 74
     0
 42
0.000000001
 43
0.00000001
 40
0.0
 40
0.0
 40
0.0
 40
0.0
 40
0.6514116765902991
 40
1.0
 40
1.0
 40
1.0
 40
1.0
 10
41.78324870169163
 20
-9.291285183280735
 30
0.0
 10
41.75631313878421
 20
-9.374791772260636
 30
0.0
 10
41.71496361455033
 20
-9.502985036184015
 30
0.0
 10
41.67402785133282
 20
-9.502770962594639
 30
0.0
 10
41.65975812226532
 20
-9.502696339041023
 30
0.0
  0
SPLINE
  5
6C2
330
1F
100
AcDbEntity
  8
0
  6
Continuous
 62
     1
370
    15
100
AcDbSpline
210
0.0
220
0.0
230
1.0
 70
     8
 71
     3
 72
    10
 73
     6
 74
     0
 42
0.000000001
 43
0.00000001
 40
0.0
 40
0.0
 40
0.0
 40
0.0
 40
0.0935201457108884
 40
0.7891810754912537
 40
1.0
 40
1.0
 40
1.0
 40
1.0
 10
28.51336884647606
 20
9.51277348212895
 30
0.0
 10
28.50962914437338
 20
9.515202890604144
 30
0.0
 10
28.47807121527714
 20
9.535703748239598
 30
0.0
 10
28.43946320029374
 20
9.442419258463389
 30
0.0
 10
28.4046156087004
 20
9.329162792459158
 30
0.0
 10
28.39651114642621
 20
9.302822872996302
 30
0.0
  0
LINE
  5
6C3
330
1F
100
AcDbEntity
  8
0
  6
Continuous
 62
     1
370
    15
100
AcDbLine
 10
42.32400718480349
 20
-9.252145886421232
 30
0.0
 11
42.31915126889945
 21
-9.259685408324032
 31
0.0
  0
LINE
  5
6C4
330
1F
100
AcDbEntity
  8
0
  6
Continuous
 62
     1
370
    15
100
AcDbLine
 10
27.85426906645296
 20
9.272515308111878
 30
0.0
 11
27.85002223551274
 21
9.265878936275811
 31
0.0
  0
LINE
  5
6C5
330
1F
100
AcDbEntity
  8
0
  6
Continuous
 62
     1
370
    15
100
AcDbLine
 10
42.69255946725605
 20
-9.262632345780759
 30
0.0
 11
42.6898437306285
 21
-9.258847916498809
 31
0.0
  0
LINE
  5
6C7
330
1F
100
AcDbEntity
  8
0
  6
Continuous
 62
     1
370
    15
100
AcDbLine
 10
22.96292984262107
 20
-9.47154709137979
 30
0.0
 11
22.89446086958051
 21
-9.509827941656141
 31
0.0
  0
LINE
  5
6C8
330
1F
100
AcDbEntity
  8
0
  6
Continuous
 62
     1
370
    15
100
AcDbLine
 10
47.27949730455873
 20
9.503489825874539
 30
0.0
 11
47.21401508301497
 21
9.476911509409518
 31
0.0
  0
LINE
  5
6CC
330
1F
100
AcDbEntity
  8
0
  6
Continuous
 62
     1
370
    15
100
AcDbLine
 10
45.40053165853024
 20
-9.52496426180008
 30
0.0
 11
45.36682243794203
 21
-9.478385327383904
 31
0.0
  0
LINE
  5
6CD
330
1F
100
AcDbEntity
  8
0
  6
Continuous
 62
     1
370
    15
100
AcDbLine
 10
24.80863469988108
 20
9.484337875619502
 30
0.0
 11
24.77572734802959
 21
9.52495518140492
 31
0.0
  0
LINE
  5
71B
330
1F
100
AcDbEntity
  8
외형선
  6
Continuous
370
    15
100
AcDbLine
 10
12.0
 20
9.525000000000006
 30
0.0
 11
12.0
 21
-9.525000000000006
 31
0.0
  0
SPLINE
  5
71C
330
1F
100
AcDbEntity
  8
0
  6
Continuous
 62
     1
370
    15
100
AcDbSpline
210
0.0
220
0.0
230
1.0
 70
     8
 71
     3
 72
     8
 73
     4
 74
     0
 42
0.000000001
 43
0.00000001
 40
0.3802467336562568
 40
0.3802467336562568
 40
0.3802467336562568
 40
0.3802467336562568
 40
1.0
 40
1.0
 40
1.0
 40
1.0
 10
12.0
 20
-9.367426101158614
 30
0.0
 10
12.13199916649407
 20
-9.33893792523331
 30
0.0
 10
12.25544529991674
 20
-9.290525023325927
 30
0.0
 10
12.36626198406523
 20
-9.225109674064157
 30
0.0
  0
LINE
  5
758
330
1F
100
AcDbEntity
  8
외형선
  6
Continuous
370
    15
100
AcDbLine
 10
-28.31932340855596
 20
7.61999999999999
 30
0.0
 11
-16.73692340855595
 21
7.61999999999999
 31
0.0
  0
LINE
  5
759
330
1F
100
AcDbEntity
  8
외형선
  6
Continuous
370
    15
100
AcDbLine
 10
-28.31932340855596
 20
7.619999999999976
 30
0.0
 11
-30.22432352627526
 21
9.52500011771916
 31
0.0
  0
LINE
  5
75A
330
1F
100
AcDbEntity
  8
외형선
  6
Continuous
370
    15
100
AcDbLine
 10
-16.73692340855595
 20
7.619999999999976
 30
0.0
 11
-14.83192329083682
 21
9.525000117719161
 31
0.0
  0
LINE
  5
75B
330
1F
100
AcDbEntity
  8
외형선
  6
Continuous
370
    15
100
AcDbLine
 10
-30.22432352627526
 20
9.525000117719161
 30
0.0
 11
-47.32500010728835
 21
9.525000117719161
 31
0.0
  0
ARC
  5
75E
330
1F
100
AcDbEntity
  8
0
  6
Continuous
 62
     1
370
    15
100
AcDbCircle
 10
51.751
 20
8.000999884888497
 30
0.0
 40
1.524
100
AcDbArc
 50
0.0
 51
92.98980176136502
  0
DIMENSION
  5
75F
330
1F
100
AcDbEntity
  8
치수문자_일반주서
100
AcDbDimension
  2
*D17
 10
51.751
 20
8.000999884888497
 30
0.0
 11
71.05141288287956
 21
26.16423394577029
 31
0.0
 70
   164
  1
<>
 71
     5
 42
1.523999999999996
  3
SLDDIMSTYLE1
100
AcDbRadialDimension
 15
52.86083017898006
 25
9.045438956268484
 35
0.0
 40
0.0
1001
ACAD
1000
DSTYLE
1002
{
1070
   171
1070
     2
1070
   273
1070
     2
1002
}
1001
ACAD_DSTYLE_DIMRADIAL_EXTENSION
1070
   387
1070
     1
1070
   388
1040
0.0
1070
   390
1040
1.622978211512642
  0
ENDSEC
  0
SECTION
  2
OBJECTS
  0
DICTIONARY
  5
C
330
0
100
AcDbDictionary
281
     1
  3
ACAD_GROUP
350
D
  3
ACAD_IMAGE_VARS
350
16D
  3
ACAD_LAYOUT
350
1A
  3
ACAD_MLINESTYLE
350
17
  3
ACAD_PLOTSETTINGS
350
19
  3
ACAD_PLOTSTYLENAME
350
E
  3
ACAD_SCALELIST
350
47
  3
APPDATA
350
16B
  3
DWGPROPS
350
791
  0
DICTIONARY
  5
441
330
2
100
AcDbDictionary
280
     1
281
     1
  3
ACAD_LAYERSTATES
360
442
  0
DICTIONARY
  5
78F
330
1F
100
AcDbDictionary
280
     1
281
     1
  3
DIM_BOUNDING_BOXES_V1
360
790
  0
DICTIONARY
  5
D
102
{ACAD_REACTORS
330
C
102
}
330
C
100
AcDbDictionary
281
     1
  0
RASTERVARIABLES
  5
16D
102
{ACAD_REACTORS
330
C
102
}
330
C
100
AcDbRasterVariables
 90
        0
 70
     1
 71
     1
 72
     1
  0
DICTIONARY
  5
1A
102
{ACAD_REACTORS
330
C
102
}
330
C
100
AcDbDictionary
281
     1
  3
Layout1
350
1E
  3
Layout2
350
26
  3
Model
350
22
  0
DICTIONARY
  5
17
102
{ACAD_REACTORS
330
C
102
}
330
C
100
AcDbDictionary
281
     1
  3
Standard
350
18
  0
DICTIONARY
  5
19
102
{ACAD_REACTORS
330
C
102
}
330
C
100
AcDbDictionary
281
     1
  0
ACDBDICTIONARYWDFLT
  5
E
102
{ACAD_REACTORS
330
C
102
}
330
C
100
AcDbDictionary
281
     1
  3
Normal
350
F
100
AcDbDictionaryWithDefault
340
F
  0
DICTIONARY
  5
47
102
{ACAD_REACTORS
330
C
102
}
330
C
100
AcDbDictionary
281
     1
  3
A0
350
48
  3
A1
350
49
  3
A2
350
4A
  3
A3
350
4B
  3
A4
350
4C
  3
A5
350
4D
  3
A6
350
4E
  3
A7
350
4F
  3
A8
350
50
  3
A9
350
51
  3
B0
350
52
  3
B1
350
53
  3
B2
350
54
  3
B3
350
55
  3
B4
350
56
  3
B5
350
57
  3
B6
350
58
  3
B7
350
59
  3
B8
350
5A
  3
B9
350
5B
  3
C0
350
5C
  3
C1
350
5D
  3
C2
350
5E
  3
C3
350
5F
  3
C4
350
60
  3
C5
350
61
  3
C6
350
62
  3
C7
350
63
  3
C8
350
64
  3
C9
350
65
  3
D0
350
66
  3
D1
350
67
  3
D2
350
68
  0
DICTIONARY
  5
16B
102
{ACAD_REACTORS
330
C
102
}
330
C
100
AcDbDictionary
281
     1
  0
XRECORD
  5
791
102
{ACAD_REACTORS
330
C
102
}
330
C
100
AcDbXrecord
280
     1
  1
DWGPROPS COOKIE
  2

  3

  4

  6

  7

  8
12011056
  9

300
=
301
=
302
=
303
=
304
=
305
=
306
=
307
=
308
=
309
=
 40
0.0
 41
2458319.185618032
 42
2459720.018458033
  1

 90
        0
  0
DICTIONARY
  5
442
102
{ACAD_REACTORS
330
441
102
}
330
441
100
AcDbDictionary
281
     1
  0
DICTIONARY
  5
790
102
{ACAD_REACTORS
330
78F
102
}
330
78F
100
AcDbDictionary
281
     1
  0
LAYOUT
  5
1E
102
{ACAD_REACTORS
330
1A
102
}
330
1A
100
AcDbPlotSettings
  1

  2
none_device
  4

  6

 40
0.0
 41
0.0
 42
0.0
 43
0.0
 44
0.0
 45
0.0
 46
0.0
 47
0.0
 48
0.0
 49
0.0
140
0.0
141
0.0
142
1.0
143
1.0
 70
   688
 72
     1
 73
     0
 74
     5
  7

 75
    16
147
1.0
148
0.0
149
0.0
100
AcDbLayout
  1
Layout1
 70
     1
 71
     1
 10
0.0
 20
0.0
 11
420.0
 21
297.0
 12
0.0
 22
0.0
 32
0.0
 14
1.000000000000000E+20
 24
1.000000000000000E+20
 34
1.000000000000000E+20
 15
-1.000000000000000E+20
 25
-1.000000000000000E+20
 35
-1.000000000000000E+20
146
0.0
 13
0.0
 23
0.0
 33
0.0
 16
1.0
 26
0.0
 36
0.0
 17
0.0
 27
1.0
 37
0.0
 76
     0
330
1B
  0
LAYOUT
  5
26
102
{ACAD_REACTORS
330
1A
102
}
330
1A
100
AcDbPlotSettings
  1

  2
none_device
  4

  6

 40
0.0
 41
0.0
 42
0.0
 43
0.0
 44
0.0
 45
0.0
 46
0.0
 47
0.0
 48
0.0
 49
0.0
140
0.0
141
0.0
142
1.0
143
1.0
 70
   688
 72
     1
 73
     0
 74
     5
  7

 75
    16
147
1.0
148
0.0
149
0.0
100
AcDbLayout
  1
Layout2
 70
     1
 71
     2
 10
0.0
 20
0.0
 11
0.0
 21
0.0
 12
0.0
 22
0.0
 32
0.0
 14
0.0
 24
0.0
 34
0.0
 15
0.0
 25
0.0
 35
0.0
146
0.0
 13
0.0
 23
0.0
 33
0.0
 16
1.0
 26
0.0
 36
0.0
 17
0.0
 27
1.0
 37
0.0
 76
     0
330
23
  0
LAYOUT
  5
22
102
{ACAD_REACTORS
330
1A
102
}
330
1A
100
AcDbPlotSettings
  1

  2
none_device
  4
ANSI_A_(11.00_x_8.50_Inches)
  6

 40
6.35
 41
19.05
 42
6.35000508
 43
19.05000254
 44
279.4
 45
215.9
 46
98.21472251503825
 47
88.97147848409243
 48
0.0
 49
0.0
140
0.0
141
0.0
142
0.0548008303100305
143
1.0
 70
  1696
 72
     0
 73
     0
 74
     0
  7

 75
     0
147
0.0235690232323232
148
0.0
149
0.0
100
AcDbLayout
  1
Model
 70
     1
 71
     0
 10
0.0
 20
0.0
 11
420.0
 21
297.0
 12
0.0
 22
0.0
 32
0.0
 14
-65.7
 24
-49.20185351316033
 34
0.0
 15
126.6017350925138
 25
44.96299028620469
 35
0.0
146
0.0
 13
0.0
 23
0.0
 33
0.0
 16
1.0
 26
0.0
 36
0.0
 17
0.0
 27
1.0
 37
0.0
 76
     0
330
1F
331
29
  0
MLINESTYLE
  5
18
102
{ACAD_REACTORS
330
17
102
}
330
17
100
AcDbMlineStyle
  2
Standard
 70
     0
  3

 62
   256
 51
90.0
 52
90.0
 71
     2
 49
0.5
 62
   256
  6
BYLAYER
 49
-0.5
 62
   256
  6
BYLAYER
  0
ACDBPLACEHOLDER
  5
F
102
{ACAD_REACTORS
330
E
102
}
330
E
  0
SCALE
  5
48
102
{ACAD_REACTORS
330
47
102
}
330
47
100
AcDbScale
 70
     0
300
1:1
140
1.0
141
1.0
290
     1
  0
SCALE
  5
49
102
{ACAD_REACTORS
330
47
102
}
330
47
100
AcDbScale
 70
     0
300
1:2
140
1.0
141
2.0
290
     0
  0
SCALE
  5
4A
102
{ACAD_REACTORS
330
47
102
}
330
47
100
AcDbScale
 70
     0
300
1:4
140
1.0
141
4.0
290
     0
  0
SCALE
  5
4B
102
{ACAD_REACTORS
330
47
102
}
330
47
100
AcDbScale
 70
     0
300
1:5
140
1.0
141
5.0
290
     0
  0
SCALE
  5
4C
102
{ACAD_REACTORS
330
47
102
}
330
47
100
AcDbScale
 70
     0
300
1:8
140
1.0
141
8.0
290
     0
  0
SCALE
  5
4D
102
{ACAD_REACTORS
330
47
102
}
330
47
100
AcDbScale
 70
     0
300
1:10
140
1.0
141
10.0
290
     0
  0
SCALE
  5
4E
102
{ACAD_REACTORS
330
47
102
}
330
47
100
AcDbScale
 70
     0
300
1:16
140
1.0
141
16.0
290
     0
  0
SCALE
  5
4F
102
{ACAD_REACTORS
330
47
102
}
330
47
100
AcDbScale
 70
     0
300
1:20
140
1.0
141
20.0
290
     0
  0
SCALE
  5
50
102
{ACAD_REACTORS
330
47
102
}
330
47
100
AcDbScale
 70
     0
300
1:30
140
1.0
141
30.0
290
     0
  0
SCALE
  5
51
102
{ACAD_REACTORS
330
47
102
}
330
47
100
AcDbScale
 70
     0
300
1:40
140
1.0
141
40.0
290
     0
  0
SCALE
  5
52
102
{ACAD_REACTORS
330
47
102
}
330
47
100
AcDbScale
 70
     0
300
1:50
140
1.0
141
50.0
290
     0
  0
SCALE
  5
53
102
{ACAD_REACTORS
330
47
102
}
330
47
100
AcDbScale
 70
     0
300
1:100
140
1.0
141
100.0
290
     0
  0
SCALE
  5
54
102
{ACAD_REACTORS
330
47
102
}
330
47
100
AcDbScale
 70
     0
300
2:1
140
2.0
141
1.0
290
     0
  0
SCALE
  5
55
102
{ACAD_REACTORS
330
47
102
}
330
47
100
AcDbScale
 70
     0
300
4:1
140
4.0
141
1.0
290
     0
  0
SCALE
  5
56
102
{ACAD_REACTORS
330
47
102
}
330
47
100
AcDbScale
 70
     0
300
8:1
140
8.0
141
1.0
290
     0
  0
SCALE
  5
57
102
{ACAD_REACTORS
330
47
102
}
330
47
100
AcDbScale
 70
     0
300
10:1
140
10.0
141
1.0
290
     0
  0
SCALE
  5
58
102
{ACAD_REACTORS
330
47
102
}
330
47
100
AcDbScale
 70
     0
300
100:1
140
100.0
141
1.0
290
     0
  0
SCALE
  5
59
102
{ACAD_REACTORS
330
47
102
}
330
47
100
AcDbScale
 70
     0
300
1/128" = 1'-0"
140
0.0078125
141
12.0
290
     0
  0
SCALE
  5
5A
102
{ACAD_REACTORS
330
47
102
}
330
47
100
AcDbScale
 70
     0
300
1/64" = 1'-0"
140
0.015625
141
12.0
290
     0
  0
SCALE
  5
5B
102
{ACAD_REACTORS
330
47
102
}
330
47
100
AcDbScale
 70
     0
300
1/32" = 1'-0"
140
0.03125
141
12.0
290
     0
  0
SCALE
  5
5C
102
{ACAD_REACTORS
330
47
102
}
330
47
100
AcDbScale
 70
     0
300
1/16" = 1'-0"
140
0.0625
141
12.0
290
     0
  0
SCALE
  5
5D
102
{ACAD_REACTORS
330
47
102
}
330
47
100
AcDbScale
 70
     0
300
3/32" = 1'-0"
140
0.09375
141
12.0
290
     0
  0
SCALE
  5
5E
102
{ACAD_REACTORS
330
47
102
}
330
47
100
AcDbScale
 70
     0
300
1/8" = 1'-0"
140
0.125
141
12.0
290
     0
  0
SCALE
  5
5F
102
{ACAD_REACTORS
330
47
102
}
330
47
100
AcDbScale
 70
     0
300
3/16" = 1'-0"
140
0.1875
141
12.0
290
     0
  0
SCALE
  5
60
102
{ACAD_REACTORS
330
47
102
}
330
47
100
AcDbScale
 70
     0
300
1/4" = 1'-0"
140
0.25
141
12.0
290
     0
  0
SCALE
  5
61
102
{ACAD_REACTORS
330
47
102
}
330
47
100
AcDbScale
 70
     0
300
3/8" = 1'-0"
140
0.375
141
12.0
290
     0
  0
SCALE
  5
62
102
{ACAD_REACTORS
330
47
102
}
330
47
100
AcDbScale
 70
     0
300
1/2" = 1'-0"
140
0.5
141
12.0
290
     0
  0
SCALE
  5
63
102
{ACAD_REACTORS
330
47
102
}
330
47
100
AcDbScale
 70
     0
300
3/4" = 1'-0"
140
0.75
141
12.0
290
     0
  0
SCALE
  5
64
102
{ACAD_REACTORS
330
47
102
}
330
47
100
AcDbScale
 70
     0
300
1" = 1'-0"
140
1.0
141
12.0
290
     0
  0
SCALE
  5
65
102
{ACAD_REACTORS
330
47
102
}
330
47
100
AcDbScale
 70
     0
300
1-1/2" = 1'-0"
140
1.5
141
12.0
290
     0
  0
SCALE
  5
66
102
{ACAD_REACTORS
330
47
102
}
330
47
100
AcDbScale
 70
     0
300
3" = 1'-0"
140
3.0
141
12.0
290
     0
  0
SCALE
  5
67
102
{ACAD_REACTORS
330
47
102
}
330
47
100
AcDbScale
 70
     0
300
6" = 1'-0"
140
6.0
141
12.0
290
     0
  0
SCALE
  5
68
102
{ACAD_REACTORS
330
47
102
}
330
47
100
AcDbScale
 70
     0
300
1'-0" = 1'-0"
140
12.0
141
12.0
290
     0
  0
ENDSEC
  0
EOF
