  0
SECTION
  2
HEADER
  9
$ACADVER
  1
AC1015
  9
$ACADMAINTVER
 70
     6
  9
$DWGCODEPAGE
  3
ANSI_949
  9
$INSBASE
 10
0.0
 20
0.0
 30
0.0
  9
$EXTMIN
 10
-45.25775326418199
 20
-39.99892507127611
 30
0.0
  9
$EXTMAX
 10
124.6017350925138
 20
40.2004902862047
 30
0.0
  9
$LIMMIN
 10
0.0
 20
0.0
  9
$LIMMAX
 10
420.0
 20
297.0
  9
$ORTHOMODE
 70
     1
  9
$REGENMODE
 70
     1
  9
$FILLMODE
 70
     1
  9
$QTEXTMODE
 70
     0
  9
$MIRRTEXT
 70
     1
  9
$LTSCALE
 40
1.0
  9
$ATTMODE
 70
     1
  9
$TEXTSIZE
 40
3.5
  9
$TRACEWID
 40
1.0
  9
$TEXTSTYLE
  7
Standard
  9
$CLAYER
  8
0
  9
$CELTYPE
  6
ByLayer
  9
$CECOLOR
 62
   256
  9
$CELTSCALE
 40
1.0
  9
$DISPSILH
 70
     0
  9
$DIMSCALE
 40
1.0
  9
$DIMASZ
 40
3.302
  9
$DIMEXO
 40
1.0
  9
$DIMDLI
 40
3.75
  9
$DIMRND
 40
0.0
  9
$DIMDLE
 40
0.0
  9
$DIMEXE
 40
1.0
  9
$DIMTP
 40
0.0
  9
$DIMTM
 40
0.0
  9
$DIMTXT
 40
3.5
  9
$DIMCEN
 40
2.5
  9
$DIMTSZ
 40
0.0
  9
$DIMTOL
 70
     0
  9
$DIMLIM
 70
     0
  9
$DIMTIH
 70
     1
  9
$DIMTOH
 70
     1
  9
$DIMSE1
 70
     0
  9
$DIMSE2
 70
     0
  9
$DIMTAD
 70
     1
  9
$DIMZIN
 70
     0
  9
$DIMBLK
  1

  9
$DIMASO
 70
     1
  9
$DIMSHO
 70
     1
  9
$DIMPOST
  1

  9
$DIMAPOST
  1

  9
$DIMALT
 70
     0
  9
$DIMALTD
 70
     3
  9
$DIMALTF
 40
0.0393700787401575
  9
$DIMLFAC
 40
1.0
  9
$DIMTOFL
 70
     1
  9
$DIMTVP
 40
0.0
  9
$DIMTIX
 70
     0
  9
$DIMSOXD
 70
     0
  9
$DIMSAH
 70
     0
  9
$DIMBLK1
  1

  9
$DIMBLK2
  1

  9
$DIMSTYLE
  2
ISO-25
  9
$DIMCLRD
 70
     0
  9
$DIMCLRE
 70
     0
  9
$DIMCLRT
 70
     0
  9
$DIMTFAC
 40
1.0
  9
$DIMGAP
 40
1.524
  9
$DIMJUST
 70
     0
  9
$DIMSD1
 70
     0
  9
$DIMSD2
 70
     0
  9
$DIMTOLJ
 70
     0
  9
$DIMTZIN
 70
     0
  9
$DIMALTZ
 70
     0
  9
$DIMALTTZ
 70
     0
  9
$DIMUPT
 70
     0
  9
$DIMDEC
 70
     2
  9
$DIMTDEC
 70
     2
  9
$DIMALTU
 70
     2
  9
$DIMALTTD
 70
     3
  9
$DIMTXSTY
  7
Standard
  9
$DIMAUNIT
 70
     0
  9
$DIMADEC
 70
     2
  9
$DIMALTRND
 40
0.0
  9
$DIMAZIN
 70
     0
  9
$DIMDSEP
 70
    44
  9
$DIMATFIT
 70
     3
  9
$DIMFRAC
 70
     0
  9
$DIMLDRBLK
  1

  9
$DIMLUNIT
 70
     2
  9
$DIMLWD
 70
    -2
  9
$DIMLWE
 70
    -2
  9
$DIMTMOVE
 70
     0
  9
$LUNITS
 70
     2
  9
$LUPREC
 70
     2
  9
$SKETCHINC
 40
1.0
  9
$FILLETRAD
 40
10.0
  9
$AUNITS
 70
     0
  9
$AUPREC
 70
     2
  9
$MENU
  1
.
  9
$ELEVATION
 40
0.0
  9
$PELEVATION
 40
0.0
  9
$THICKNESS
 40
0.0
  9
$LIMCHECK
 70
     0
  9
$CHAMFERA
 40
0.0
  9
$CHAMFERB
 40
0.0
  9
$CHAMFERC
 40
0.0
  9
$CHAMFERD
 40
0.0
  9
$SKPOLY
 70
     0
  9
$TDCREATE
 40
2458319.558287778
  9
$TDUCREATE
 40
2458319.183287778
  9
$TDUPDATE
 40
2459720.392607141
  9
$TDUUPDATE
 40
2459720.017607141
  9
$TDINDWG
 40
0.0009226505
  9
$TDUSRTIMER
 40
0.0002417014
  9
$USRTIMER
 70
     1
  9
$ANGBASE
 50
0.0
  9
$ANGDIR
 70
     0
  9
$PDMODE
 70
     0
  9
$PDSIZE
 40
-1.0
  9
$PLINEWID
 40
0.0
  9
$SPLFRAME
 70
     0
  9
$SPLINETYPE
 70
     6
  9
$SPLINESEGS
 70
     8
  9
$HANDSEED
  5
510
  9
$SURFTAB1
 70
     6
  9
$SURFTAB2
 70
     6
  9
$SURFTYPE
 70
     6
  9
$SURFU
 70
     6
  9
$SURFV
 70
     6
  9
$UCSBASE
  2

  9
$UCSNAME
  2

  9
$UCSORG
 10
0.0
 20
0.0
 30
0.0
  9
$UCSXDIR
 10
1.0
 20
0.0
 30
0.0
  9
$UCSYDIR
 10
0.0
 20
1.0
 30
0.0
  9
$UCSORTHOREF
  2

  9
$UCSORTHOVIEW
 70
     0
  9
$UCSORGTOP
 10
0.0
 20
0.0
 30
0.0
  9
$UCSORGBOTTOM
 10
0.0
 20
0.0
 30
0.0
  9
$UCSORGLEFT
 10
0.0
 20
0.0
 30
0.0
  9
$UCSORGRIGHT
 10
0.0
 20
0.0
 30
0.0
  9
$UCSORGFRONT
 10
0.0
 20
0.0
 30
0.0
  9
$UCSORGBACK
 10
0.0
 20
0.0
 30
0.0
  9
$PUCSBASE
  2

  9
$PUCSNAME
  2

  9
$PUCSORG
 10
0.0
 20
0.0
 30
0.0
  9
$PUCSXDIR
 10
1.0
 20
0.0
 30
0.0
  9
$PUCSYDIR
 10
0.0
 20
1.0
 30
0.0
  9
$PUCSORTHOREF
  2

  9
$PUCSORTHOVIEW
 70
     0
  9
$PUCSORGTOP
 10
0.0
 20
0.0
 30
0.0
  9
$PUCSORGBOTTOM
 10
0.0
 20
0.0
 30
0.0
  9
$PUCSORGLEFT
 10
0.0
 20
0.0
 30
0.0
  9
$PUCSORGRIGHT
 10
0.0
 20
0.0
 30
0.0
  9
$PUCSORGFRONT
 10
0.0
 20
0.0
 30
0.0
  9
$PUCSORGBACK
 10
0.0
 20
0.0
 30
0.0
  9
$USERI1
 70
     0
  9
$USERI2
 70
     0
  9
$USERI3
 70
     0
  9
$USERI4
 70
     0
  9
$USERI5
 70
     0
  9
$USERR1
 40
0.0
  9
$USERR2
 40
0.0
  9
$USERR3
 40
0.0
  9
$USERR4
 40
0.0
  9
$USERR5
 40
0.0
  9
$WORLDVIEW
 70
     1
  9
$SHADEDGE
 70
     3
  9
$SHADEDIF
 70
    70
  9
$TILEMODE
 70
     1
  9
$MAXACTVP
 70
    64
  9
$PINSBASE
 10
0.0
 20
0.0
 30
0.0
  9
$PLIMCHECK
 70
     0
  9
$PEXTMIN
 10
1.000000000000000E+20
 20
1.000000000000000E+20
 30
1.000000000000000E+20
  9
$PEXTMAX
 10
-1.000000000000000E+20
 20
-1.000000000000000E+20
 30
-1.000000000000000E+20
  9
$PLIMMIN
 10
0.0
 20
0.0
  9
$PLIMMAX
 10
0.0
 20
0.0
  9
$UNITMODE
 70
     0
  9
$VISRETAIN
 70
     1
  9
$PLINEGEN
 70
     0
  9
$PSLTSCALE
 70
     1
  9
$TREEDEPTH
 70
  3020
  9
$CMLSTYLE
  2
Standard
  9
$CMLJUST
 70
     0
  9
$CMLSCALE
 40
20.0
  9
$PROXYGRAPHICS
 70
     1
  9
$MEASUREMENT
 70
     1
  9
$CELWEIGHT
370
    -1
  9
$ENDCAPS
280
     0
  9
$JOINSTYLE
280
     0
  9
$LWDISPLAY
290
     1
  9
$INSUNITS
 70
     4
  9
$HYPERLINKBASE
  1

  9
$STYLESHEET
  1

  9
$XEDIT
290
     1
  9
$CEPSNTYPE
380
     0
  9
$PSTYLEMODE
290
     1
  9
$FINGERPRINTGUID
  2
{D7A1764F-A040-41B5-9E4F-708443794771}
  9
$VERSIONGUID
  2
{FAEB1C32-E019-11D5-929B-00C0DF256EC4}
  9
$EXTNAMES
290
     1
  9
$PSVPSCALE
 40
0.0
  9
$OLESTARTUP
290
     0
  0
ENDSEC
  0
SECTION
  2
CLASSES
  0
CLASS
  1
ACDBDICTIONARYWDFLT
  2
AcDbDictionaryWithDefault
  3
ObjectDBX Classes
 90
        0
280
     0
281
     0
  0
CLASS
  1
VISUALSTYLE
  2
AcDbVisualStyle
  3
ObjectDBX Classes
 90
     4095
280
     0
281
     0
  0
CLASS
  1
MATERIAL
  2
AcDbMaterial
  3
ObjectDBX Classes
 90
     1153
280
     0
281
     0
  0
CLASS
  1
SCALE
  2
AcDbScale
  3
ObjectDBX Classes
 90
     1153
280
     0
281
     0
  0
CLASS
  1
SUN
  2
AcDbSun
  3
SCENEOE
 90
     1153
280
     0
281
     0
  0
CLASS
  1
ACDBPLACEHOLDER
  2
AcDbPlaceHolder
  3
ObjectDBX Classes
 90
        0
280
     0
281
     0
  0
CLASS
  1
LAYOUT
  2
AcDbLayout
  3
ObjectDBX Classes
 90
        0
280
     0
281
     0
  0
CLASS
  1
TABLESTYLE
  2
AcDbTableStyle
  3
ObjectDBX Classes
 90
     4095
280
     0
281
     0
  0
CLASS
  1
MLEADERSTYLE
  2
AcDbMLeaderStyle
  3
ACDB_MLEADERSTYLE_CLASS
 90
     4095
280
     0
281
     0
  0
CLASS
  1
RASTERVARIABLES
  2
AcDbRasterVariables
  3
ISM
 90
        0
280
     0
281
     0
  0
CLASS
  1
DIMASSOC
  2
AcDbDimAssoc
  3
"AcDbDimAssoc|Product Desc:     AcDim ARX App For Dimension|Company:          Autodesk, Inc.|WEB Address:      www.autodesk.com"
 90
        0
280
     0
281
     0
  0
ENDSEC
  0
SECTION
  2
TABLES
  0
TABLE
  2
VPORT
  5
8
330
0
100
AcDbSymbolTable
 70
     1
  0
VPORT
  5
29
330
8
100
AcDbSymbolTableRecord
100
AcDbViewportTableRecord
  2
*Active
 70
     0
 10
0.0
 20
0.0
 11
1.0
 21
1.0
 12
9.55331454046506
 22
5.226642505774139
 13
0.0
 23
0.0
 14
10.0
 24
10.0
 15
10.0
 25
10.0
 16
0.0
 26
0.0
 36
1.0
 17
0.0
 27
0.0
 37
0.0
 40
103.5895419452045
 41
1.519944979367263
 42
50.0
 43
0.0
 44
0.0
 50
0.0
 51
0.0
 71
    16
 72
  2000
 73
     1
 74
     3
 75
     0
 76
     0
 77
     0
 78
     0
281
     0
 65
     1
110
0.0
120
0.0
130
0.0
111
1.0
121
0.0
131
0.0
112
0.0
122
1.0
132
0.0
 79
     0
146
0.0
  0
ENDTAB
  0
TABLE
  2
LTYPE
  5
5
330
0
100
AcDbSymbolTable
 70
     6
  0
LTYPE
  5
14
330
5
100
AcDbSymbolTableRecord
100
AcDbLinetypeTableRecord
  2
ByBlock
 70
     0
  3

 72
    65
 73
     0
 40
0.0
  0
LTYPE
  5
15
330
5
100
AcDbSymbolTableRecord
100
AcDbLinetypeTableRecord
  2
ByLayer
 70
     0
  3

 72
    65
 73
     0
 40
0.0
  0
LTYPE
  5
16
330
5
100
AcDbSymbolTableRecord
100
AcDbLinetypeTableRecord
  2
Continuous
 70
     0
  3
Solid line
 72
    65
 73
     0
 40
0.0
  0
LTYPE
  5
6A
330
5
100
AcDbSymbolTableRecord
100
AcDbLinetypeTableRecord
  2
HIDDEN
 70
     0
  3
Hidden __ __ __ __ __ __ __ __ __ __ __ __ __ __
 72
    65
 73
     2
 40
1.905
 49
1.27
 74
     0
 49
-0.635
 74
     0
  0
LTYPE
  5
6B
330
5
100
AcDbSymbolTableRecord
100
AcDbLinetypeTableRecord
  2
PHANTOM
 70
     0
  3
Phantom ______  __  __  ______  __  __  ______
 72
    65
 73
     6
 40
12.7
 49
6.35
 74
     0
 49
-1.27
 74
     0
 49
1.27
 74
     0
 49
-1.27
 74
     0
 49
1.27
 74
     0
 49
-1.27
 74
     0
  0
LTYPE
  5
6C
330
5
100
AcDbSymbolTableRecord
100
AcDbLinetypeTableRecord
  2
CENTER
 70
     0
  3
Center ____ _ ____ _ ____ _ ____ _ ____ _ ____
 72
    65
 73
     4
 40
10.16
 49
6.35
 74
     0
 49
-1.27
 74
     0
 49
1.27
 74
     0
 49
-1.27
 74
     0
  0
LTYPE
  5
6D
330
5
100
AcDbSymbolTableRecord
100
AcDbLinetypeTableRecord
  2
CENTERX2
 70
     0
  3
Center (2x) ________  __  ________  __  _____
 72
    65
 73
     4
 40
20.32
 49
12.7
 74
     0
 49
-2.54
 74
     0
 49
2.54
 74
     0
 49
-2.54
 74
     0
  0
LTYPE
  5
6E
330
5
100
AcDbSymbolTableRecord
100
AcDbLinetypeTableRecord
  2
DOT2
 70
     0
  3
Dot (.5x) ........................................
 72
    65
 73
     2
 40
0.635
 49
0.0
 74
     0
 49
-0.635
 74
     0
  0
ENDTAB
  0
TABLE
  2
LAYER
  5
2
102
{ACAD_XDICTIONARY
360
3DE
102
}
330
0
100
AcDbSymbolTable
 70
    18
  0
LAYER
  5
10
330
2
100
AcDbSymbolTableRecord
100
AcDbLayerTableRecord
  2
0
 70
     0
 62
     7
  6
Continuous
370
    -3
390
F
  0
LAYER
  5
6F
330
2
100
AcDbSymbolTableRecord
100
AcDbLayerTableRecord
  2
FORMAT
 70
     0
 62
     2
  6
Continuous
370
    -3
390
F
  0
LAYER
  5
70
330
2
100
AcDbSymbolTableRecord
100
AcDbLayerTableRecord
  2
외형선
 70
     0
 62
     4
  6
Continuous
370
    30
390
F
  0
LAYER
  5
71
330
2
100
AcDbSymbolTableRecord
100
AcDbLayerTableRecord
  2
숨은선
 70
     0
 62
     2
  6
HIDDEN
370
    15
390
F
  0
LAYER
  5
72
330
2
100
AcDbSymbolTableRecord
100
AcDbLayerTableRecord
  2
중심선
 70
     0
 62
     1
  6
CENTERX2
370
    -3
390
F
  0
LAYER
  5
73
330
2
100
AcDbSymbolTableRecord
100
AcDbLayerTableRecord
  2
파단선
 70
     0
 62
     4
  6
Continuous
370
    -3
390
F
  0
LAYER
  5
74
330
2
100
AcDbSymbolTableRecord
100
AcDbLayerTableRecord
  2
해칭선
 70
     0
 62
   100
  6
Continuous
370
    -3
390
F
  0
LAYER
  5
75
330
2
100
AcDbSymbolTableRecord
100
AcDbLayerTableRecord
  2
가는실선
 70
     0
 62
     4
  6
Continuous
370
    -3
390
F
  0
LAYER
  5
76
330
2
100
AcDbSymbolTableRecord
100
AcDbLayerTableRecord
  2
치수_보조선
 70
     0
 62
     4
  6
Continuous
370
    -3
390
F
  0
LAYER
  5
77
330
2
100
AcDbSymbolTableRecord
100
AcDbLayerTableRecord
  2
치수문자_일반주서
 70
     0
 62
     7
  6
Continuous
370
    15
390
F
  0
LAYER
  5
78
330
2
100
AcDbSymbolTableRecord
100
AcDbLayerTableRecord
  2
개별주서
 70
     0
 62
   100
  6
Continuous
370
    30
390
F
  0
LAYER
  5
79
330
2
100
AcDbSymbolTableRecord
100
AcDbLayerTableRecord
  2
중간선
 70
     0
 62
     2
  6
Continuous
370
    15
390
F
  0
LAYER
  5
7A
330
2
100
AcDbSymbolTableRecord
100
AcDbLayerTableRecord
  2
윤곽선
 70
     0
 62
     3
  6
Continuous
370
    40
390
F
  0
LAYER
  5
7B
330
2
100
AcDbSymbolTableRecord
100
AcDbLayerTableRecord
  2
중심마크
 70
     0
 62
   100
  6
Continuous
370
    30
390
F
  0
LAYER
  5
7C
330
2
100
AcDbSymbolTableRecord
100
AcDbLayerTableRecord
  2
가상선
 70
     0
 62
     4
  6
PHANTOM
370
    -3
390
F
  0
LAYER
  5
7D
330
2
100
AcDbSymbolTableRecord
100
AcDbLayerTableRecord
  2
특수지정선
 70
     0
 62
     5
  6
CENTERX2
370
    60
390
F
  0
LAYER
  5
7E
330
2
100
AcDbSymbolTableRecord
100
AcDbLayerTableRecord
  2
참조1
 70
     0
 62
    -4
  6
Continuous
370
    -3
390
F
  0
LAYER
  5
326
330
2
100
AcDbSymbolTableRecord
100
AcDbLayerTableRecord
  2
Defpoints
 70
     0
 62
     7
  6
Continuous
290
     0
370
    -3
390
F
  0
ENDTAB
  0
TABLE
  2
STYLE
  5
3
330
0
100
AcDbSymbolTable
 70
     2
  0
STYLE
  5
11
330
3
100
AcDbSymbolTableRecord
100
AcDbTextStyleTableRecord
  2
Standard
 70
     0
 40
0.0
 41
1.0
 50
0.0
 71
     0
 42
3.5
  3
txt
  4

  0
STYLE
  5
94
330
3
100
AcDbSymbolTableRecord
100
AcDbTextStyleTableRecord
  2
SLDTEXTSTYLE0
 70
     0
 40
0.0
 41
0.75
 50
0.0
 71
     0
 42
3.5
  3
TXT
  4

  0
ENDTAB
  0
TABLE
  2
VIEW
  5
6
330
0
100
AcDbSymbolTable
 70
     0
  0
ENDTAB
  0
TABLE
  2
UCS
  5
7
330
0
100
AcDbSymbolTable
 70
     0
  0
ENDTAB
  0
TABLE
  2
APPID
  5
9
330
0
100
AcDbSymbolTable
 70
     3
  0
APPID
  5
12
330
9
100
AcDbSymbolTableRecord
100
AcDbRegAppTableRecord
  2
ACAD
 70
     0
  0
APPID
  5
332
330
9
100
AcDbSymbolTableRecord
100
AcDbRegAppTableRecord
  2
PE_URL
 70
     0
  0
APPID
  5
333
330
9
100
AcDbSymbolTableRecord
100
AcDbRegAppTableRecord
  2
ACAD_DSTYLE_DIMRADIAL_EXTENSION
 70
     0
  0
ENDTAB
  0
TABLE
  2
DIMSTYLE
  5
A
330
0
100
AcDbSymbolTable
 70
     4
100
AcDbDimStyleTable
  0
DIMSTYLE
105
27
330
A
100
AcDbSymbolTableRecord
100
AcDbDimStyleTableRecord
  2
ISO-25
 70
     0
 41
2.5
 42
0.625
 43
3.75
 44
1.25
 73
     0
 74
     0
 77
     1
 78
     8
140
2.5
141
2.5
143
0.03937007874016
147
0.625
171
     3
172
     1
178
     0
271
     2
272
     2
274
     3
278
    44
283
     0
284
     8
340
11
  0
DIMSTYLE
105
2A1
102
{ACAD_REACTORS
330
2A0
330
2DF
330
2B5
330
2CB
330
49E
102
}
330
A
100
AcDbSymbolTableRecord
100
AcDbDimStyleTableRecord
  2
SLDDIMSTYLE0
 70
     0
 41
3.302
 44
0.0
 45
0.000000001
 73
     0
 74
     0
 77
     1
 78
    12
 79
     3
140
3.5
143
0.0393700787401575
147
0.875
148
0.000000001
170
     1
172
     1
173
     1
178
     0
271
     2
272
     2
276
     2
284
    12
289
     0
340
94
  0
DIMSTYLE
105
2B6
102
{ACAD_REACTORS
102
}
330
A
100
AcDbSymbolTableRecord
100
AcDbDimStyleTableRecord
  2
SLDDIMSTYLE1
 70
     0
 41
3.302
 44
0.0
 45
0.000000001
 73
     0
 74
     0
 77
     1
 78
     4
 79
     1
140
3.5
143
0.0393700787401575
147
0.875
148
0.000000001
170
     1
172
     1
173
     1
178
     0
271
     2
272
     2
276
     2
284
    12
289
     0
340
94
  0
DIMSTYLE
105
2CC
102
{ACAD_REACTORS
102
}
330
A
100
AcDbSymbolTableRecord
100
AcDbDimStyleTableRecord
  2
SLDDIMSTYLE2
 70
     0
 41
3.302
 44
0.0
 45
0.000000001
 73
     0
 74
     0
 77
     1
 78
     4
 79
     1
140
3.5
143
0.0393700787401575
147
0.875
148
0.000000001
170
     1
173
     1
178
     0
271
     2
272
     2
276
     2
284
    12
340
94
  0
ENDTAB
  0
TABLE
  2
BLOCK_RECORD
  5
1
330
0
100
AcDbSymbolTable
 70
    18
  0
BLOCK_RECORD
  5
1F
102
{ACAD_XDICTIONARY
360
50D
102
}
330
1
100
AcDbSymbolTableRecord
100
AcDbBlockTableRecord
  2
*Model_Space
340
22
  0
BLOCK_RECORD
  5
1B
330
1
100
AcDbSymbolTableRecord
100
AcDbBlockTableRecord
  2
*Paper_Space
340
1E
  0
BLOCK_RECORD
  5
23
330
1
100
AcDbSymbolTableRecord
100
AcDbBlockTableRecord
  2
*Paper_Space0
340
26
  0
BLOCK_RECORD
  5
7F
330
1
100
AcDbSymbolTableRecord
100
AcDbBlockTableRecord
  2
블럭10
340
0
102
{BLKREFS
331
299
102
}
  0
BLOCK_RECORD
  5
2A2
330
1
100
AcDbSymbolTableRecord
100
AcDbBlockTableRecord
  2
_D
340
0
  0
BLOCK_RECORD
  5
2B7
330
1
100
AcDbSymbolTableRecord
100
AcDbBlockTableRecord
  2
_D_1
340
0
  0
BLOCK_RECORD
  5
2CD
330
1
100
AcDbSymbolTableRecord
100
AcDbBlockTableRecord
  2
_D_2
340
0
  0
BLOCK_RECORD
  5
2E0
330
1
100
AcDbSymbolTableRecord
100
AcDbBlockTableRecord
  2
_D_3
340
0
  0
BLOCK_RECORD
  5
2FA
330
1
100
AcDbSymbolTableRecord
100
AcDbBlockTableRecord
  2
SW_DOWELSYMBOL_0
340
0
102
{BLKREFS
331
300
102
}
  0
BLOCK_RECORD
  5
3BC
330
1
100
AcDbSymbolTableRecord
100
AcDbBlockTableRecord
  2
_D_4
340
0
  0
BLOCK_RECORD
  5
3D6
330
1
100
AcDbSymbolTableRecord
100
AcDbBlockTableRecord
  2
*D8
340
0
  0
BLOCK_RECORD
  5
3E2
330
1
100
AcDbSymbolTableRecord
100
AcDbBlockTableRecord
  2
*D9
340
0
  0
BLOCK_RECORD
  5
3EE
330
1
100
AcDbSymbolTableRecord
100
AcDbBlockTableRecord
  2
*D10
340
0
  0
BLOCK_RECORD
  5
3FA
330
1
100
AcDbSymbolTableRecord
100
AcDbBlockTableRecord
  2
*D11
340
0
  0
BLOCK_RECORD
  5
454
330
1
100
AcDbSymbolTableRecord
100
AcDbBlockTableRecord
  2
*D12
340
0
  0
BLOCK_RECORD
  5
460
330
1
100
AcDbSymbolTableRecord
100
AcDbBlockTableRecord
  2
*D13
340
0
  0
BLOCK_RECORD
  5
46C
330
1
100
AcDbSymbolTableRecord
100
AcDbBlockTableRecord
  2
*D14
340
0
  0
BLOCK_RECORD
  5
47A
330
1
100
AcDbSymbolTableRecord
100
AcDbBlockTableRecord
  2
*D15
340
0
  0
BLOCK_RECORD
  5
488
330
1
100
AcDbSymbolTableRecord
100
AcDbBlockTableRecord
  2
*D16
340
0
  0
BLOCK_RECORD
  5
4A1
330
1
100
AcDbSymbolTableRecord
100
AcDbBlockTableRecord
  2
*D17
340
0
  0
ENDTAB
  0
ENDSEC
  0
SECTION
  2
BLOCKS
  0
BLOCK
  5
20
330
1F
100
AcDbEntity
  8
0
100
AcDbBlockBegin
  2
*Model_Space
 70
     0
 10
0.0
 20
0.0
 30
0.0
  3
*Model_Space
  1
*Model_Space
  0
ENDBLK
  5
21
330
1F
100
AcDbEntity
  8
0
100
AcDbBlockEnd
  0
BLOCK
  5
1C
330
1B
100
AcDbEntity
 67
     1
  8
0
100
AcDbBlockBegin
  2
*Paper_Space
 70
     0
 10
0.0
 20
0.0
 30
0.0
  3
*Paper_Space
  1
*Paper_Space
  0
ENDBLK
  5
1D
330
1B
100
AcDbEntity
 67
     1
  8
0
100
AcDbBlockEnd
  0
BLOCK
  5
24
330
23
100
AcDbEntity
  8
0
100
AcDbBlockBegin
  2
*Paper_Space0
 70
     0
 10
0.0
 20
0.0
 30
0.0
  3
*Paper_Space0
  1
*Paper_Space0
  0
ENDBLK
  5
25
330
23
100
AcDbEntity
  8
0
100
AcDbBlockEnd
  0
BLOCK
  5
80
330
7F
100
AcDbEntity
  8
0
100
AcDbBlockBegin
  2
블럭10
 70
     2
 10
0.0
 20
0.0
 30
0.0
  3
블럭10
  1
블럭10
  0
ELLIPSE
  5
82
330
7F
100
AcDbEntity
  8
중심선
100
AcDbEllipse
 10
20.54032771741204
 20
12.0471743016438
 30
0.0
 11
6.600054785286829
 21
-1.261213355974178E-13
 31
0.0
210
0.0
220
0.0
230
1.0
 40
0.636358354079598
 41
0.9219305317359503
 42
6.513795318482858
  0
ELLIPSE
  5
83
330
7F
100
AcDbEntity
  8
중심선
100
AcDbEllipse
 10
20.54032771746488
 20
12.04717430159265
 30
0.0
 11
3.960054785062283
 21
1.540847449632565E-10
 31
0.0
210
0.0
220
0.0
230
1.0
 40
0.3939339440162632
 41
1.131841032648279
 42
5.62031148352944
  0
LINE
  5
84
330
7F
100
AcDbEntity
  8
중심선
100
AcDbLine
 10
2.268634060543552
 20
16.24717430164393
 30
0.0
 11
5.714909304380834
 21
16.24717430164393
 31
0.0
  0
LINE
  5
85
330
7F
100
AcDbEntity
  8
중심선
100
AcDbLine
 10
5.245725140726316
 20
7.84717430164391
 30
0.0
 11
8.692000384563599
 21
7.84717430164391
 31
0.0
  0
LINE
  5
86
330
7F
100
AcDbEntity
  8
중심선
100
AcDbLine
 10
15.74043728645272
 20
16.24717430164393
 30
0.0
 11
8.692000384563599
 21
7.84717430164391
 31
0.0
  0
LINE
  5
87
330
7F
100
AcDbEntity
  8
중심선
100
AcDbLine
 10
0.1404042013395286
 20
13.71084872107135
 30
0.0
 11
3.58671253028996
 21
13.71088815037384
 31
0.0
  0
LINE
  5
88
330
7F
100
AcDbEntity
  8
중심선
100
AcDbLine
 10
2.750260043222114
 20
10.84717430164391
 30
0.0
 11
6.196535287059397
 21
10.84717430164391
 31
0.0
  0
LINE
  5
89
330
7F
100
AcDbEntity
  8
중심선
100
AcDbLine
 10
12.29416204261559
 20
16.24717430164393
 30
0.0
 11
5.245725140726316
 21
7.84717430164391
 31
0.0
  0
LINE
  5
8A
330
7F
100
AcDbEntity
  8
중심선
100
AcDbLine
 10
10.72767329541681
 20
16.24717430164393
 30
0.0
 11
6.196535287059397
 21
10.84717430164391
 31
0.0
  0
LINE
  5
8B
330
7F
100
AcDbEntity
  8
중심선
100
AcDbLine
 10
7.28139805157953
 20
16.24717430164393
 30
0.0
 11
2.750260043222114
 21
10.84717430164391
 31
0.0
  0
LINE
  5
8C
330
7F
100
AcDbEntity
  8
중심선
100
AcDbLine
 10
5.714909304380834
 20
16.24717430164393
 30
0.0
 11
3.58671253028996
 21
13.71088815037384
 31
0.0
  0
LINE
  5
8D
330
7F
100
AcDbEntity
  8
중심선
100
AcDbLine
 10
2.268634060543552
 20
16.24717430164393
 30
0.0
 11
0.1404042013395286
 21
13.71084872107135
 31
0.0
  0
LINE
  5
8E
330
7F
100
AcDbEntity
  8
중심선
100
AcDbLine
 10
7.28139805157953
 20
16.24717430164393
 30
0.0
 11
10.72767329541681
 21
16.24717430164393
 31
0.0
  0
LINE
  5
8F
330
7F
100
AcDbEntity
  8
중심선
100
AcDbLine
 10
12.29416204261559
 20
16.24717430164393
 30
0.0
 11
15.74043728645272
 21
16.24717430164393
 31
0.0
  0
LINE
  5
90
330
7F
100
AcDbEntity
  8
중심선
100
AcDbLine
 10
19.22036997980202
 20
11.08717430171403
 30
0.0
 11
23.66174974927406
 21
11.08717430171406
 31
0.0
  0
LINE
  5
91
330
7F
100
AcDbEntity
  8
중심선
100
AcDbLine
 10
19.22039502424796
 20
13.00717430171391
 30
0.0
 11
19.22036997980202
 21
11.08717430171403
 31
0.0
  0
LINE
  5
92
330
7F
100
AcDbEntity
  8
중심선
100
AcDbLine
 10
19.22039502424796
 20
13.00717430171391
 30
0.0
 11
26.96566020931264
 21
13.00717430171391
 31
0.0
  0
LINE
  5
93
330
7F
100
AcDbEntity
  8
중심선
100
AcDbLine
 10
22.22332737316547
 20
13.45928029700563
 30
0.0
 11
24.52862924686651
 21
15.39360700705356
 31
0.0
  0
ATTDEF
  5
95
330
7F
100
AcDbEntity
  8
FORMAT
 62
     2
100
AcDbText
 10
-9.18129528874128
 20
2.075366912832191
 30
0.0
 40
4.233333333333333
  1
E5057024 [ 5 FLUTE ]
 41
0.75
  7
SLDTEXTSTYLE0
 11
-9.18129528874128
 21
-0.0412997538344756
 31
0.0
100
AcDbAttributeDefinition
  3

  2
AUTOATTR0
 70
     0
 74
     1
  0
ENDBLK
  5
81
330
7F
100
AcDbEntity
  8
0
100
AcDbBlockEnd
  0
BLOCK
  5
2A3
330
2A2
100
AcDbEntity
  8
0
100
AcDbBlockBegin
  2
_D
 70
     0
 10
0.0
 20
0.0
 30
0.0
  3
_D
  1
_D
  0
LINE
  5
2A5
330
2A2
100
AcDbEntity
  8
치수문자_일반주서
 62
     0
370
    -2
100
AcDbLine
 10
-27.16250004749745
 20
4.762499999999998
 30
0.0
 11
-40.88275326418187
 21
4.762499999999946
 31
0.0
  0
LINE
  5
2A6
330
2A2
100
AcDbEntity
  8
치수문자_일반주서
 62
     0
370
    -2
100
AcDbLine
 10
-27.16250004749745
 20
-4.762500000000007
 30
0.0
 11
-40.88275326418184
 21
-4.76250000000006
 31
0.0
  0
LINE
  5
2A7
330
2A2
100
AcDbEntity
  8
치수문자_일반주서
 62
     0
370
    -2
100
AcDbLine
 10
-40.88275326418187
 20
4.762499999999946
 30
0.0
 11
-40.88275326418199
 21
37.83524999999995
 31
0.0
  0
LINE
  5
2A8
330
2A2
100
AcDbEntity
  8
치수문자_일반주서
 62
     0
370
    -2
100
AcDbLine
 10
-40.88275326418187
 20
4.762499999999946
 30
0.0
 11
-40.88275326418184
 21
-4.76250000000006
 31
0.0
  0
LINE
  5
2A9
330
2A2
100
AcDbEntity
  8
치수문자_일반주서
 62
     0
370
    -2
100
AcDbLine
 10
-40.88275326418189
 20
8.064499999999946
 30
0.0
 11
-40.8827532641819
 21
11.36649999999995
 31
0.0
  0
LINE
  5
2AA
330
2A2
100
AcDbEntity
  8
치수문자_일반주서
 62
     0
370
    -2
100
AcDbLine
 10
-40.88275326418182
 20
-8.06450000000006
 30
0.0
 11
-40.88275326418181
 21
-11.36650000000006
 31
0.0
  0
SOLID
  5
2AB
330
2A2
100
AcDbEntity
  8
치수문자_일반주서
 62
     0
100
AcDbTrace
 10
-41.43308659751522
 20
8.064499999999944
 30
0.0
 11
-40.33241993084855
 21
8.064499999999947
 31
0.0
 12
-40.88275326418187
 22
4.762499999999946
 32
0.0
 13
-40.88275326418187
 23
4.762499999999946
 33
0.0
  0
SOLID
  5
2AC
330
2A2
100
AcDbEntity
  8
치수문자_일반주서
 62
     0
100
AcDbTrace
 10
-40.33241993084849
 20
-8.064500000000058
 30
0.0
 11
-41.43308659751516
 21
-8.064500000000061
 31
0.0
 12
-40.88275326418184
 22
-4.76250000000006
 32
0.0
 13
-40.88275326418184
 23
-4.76250000000006
 33
0.0
  0
MTEXT
  5
2AD
330
2A2
100
AcDbEntity
  8
치수문자_일반주서
 62
     0
100
AcDbMText
 10
-45.25775326418194
 20
24.71024999999993
 30
0.0
 40
3.5
 41
0.0
 71
     2
 72
     1
  1
\A1;%%c9.53 [3/8]
  7
SLDTEXTSTYLE0
 11
-3.729883127349605E-15
 21
1.0
 31
0.0
 73
     1
 44
1.0
  0
POINT
  5
494
330
2A2
100
AcDbEntity
  8
Defpoints
 62
     0
100
AcDbPoint
 10
-27.10000004749745
 20
4.762499999999998
 30
0.0
  0
POINT
  5
495
330
2A2
100
AcDbEntity
  8
Defpoints
 62
     0
100
AcDbPoint
 10
-27.10000004749745
 20
-4.762500000000007
 30
0.0
  0
POINT
  5
496
330
2A2
100
AcDbEntity
  8
Defpoints
 62
     0
100
AcDbPoint
 10
-40.88275326418184
 20
-4.762500000000059
 30
0.0
  0
ENDBLK
  5
2A4
330
2A2
100
AcDbEntity
  8
0
100
AcDbBlockEnd
  0
BLOCK
  5
2B8
330
2B7
100
AcDbEntity
  8
0
100
AcDbBlockBegin
  2
_D_1
 70
     0
 10
0.0
 20
0.0
 30
0.0
  3
_D_1
  1
_D_1
  0
LINE
  5
2BA
330
2B7
100
AcDbEntity
  8
치수문자_일반주서
 62
     0
370
    -2
100
AcDbLine
 10
35.39999995250255
 20
4.825000058859582
 30
0.0
 11
35.39999995250255
 21
15.29883733825191
 31
0.0
  0
LINE
  5
2BB
330
2B7
100
AcDbEntity
  8
치수문자_일반주서
 62
     0
370
    -2
100
AcDbLine
 10
9.999999952502549
 20
4.085218078813931
 30
0.0
 11
9.999999952502549
 21
15.29883733825191
 31
0.0
  0
LINE
  5
2BC
330
2B7
100
AcDbEntity
  8
치수문자_일반주서
 62
     0
370
    -2
100
AcDbLine
 10
32.09799995250255
 20
15.29883733825191
 30
0.0
 11
13.30199995250255
 21
15.29883733825191
 31
0.0
  0
SOLID
  5
2BD
330
2B7
100
AcDbEntity
  8
치수문자_일반주서
 62
     0
100
AcDbTrace
 10
32.09799995250255
 20
14.74850400491858
 30
0.0
 11
32.09799995250255
 21
15.84917067158524
 31
0.0
 12
35.39999995250255
 22
15.29883733825191
 32
0.0
 13
35.39999995250255
 23
15.29883733825191
 33
0.0
  0
SOLID
  5
2BE
330
2B7
100
AcDbEntity
  8
치수문자_일반주서
 62
     0
100
AcDbTrace
 10
13.30199995250255
 20
15.84917067158524
 30
0.0
 11
13.30199995250255
 21
14.74850400491858
 31
0.0
 12
9.999999952502549
 22
15.29883733825191
 32
0.0
 13
9.999999952502549
 23
15.29883733825191
 33
0.0
  0
MTEXT
  5
2BF
330
2B7
100
AcDbEntity
  8
치수문자_일반주서
 62
     0
100
AcDbMText
 10
23.41541440278764
 20
19.67383733825191
 30
0.0
 40
3.5
 41
0.0
 71
     2
 72
     1
  1
\A1;25.4 [1]
  7
SLDTEXTSTYLE0
 73
     1
 44
1.0
  0
POINT
  5
2C0
330
2B7
100
AcDbEntity
  8
Defpoints
 62
     0
100
AcDbPoint
 10
35.39999995250255
 20
4.762500058859582
 30
0.0
  0
POINT
  5
2C1
330
2B7
100
AcDbEntity
  8
Defpoints
 62
     0
100
AcDbPoint
 10
9.999999952502549
 20
4.022718078813931
 30
0.0
  0
POINT
  5
2C2
330
2B7
100
AcDbEntity
  8
Defpoints
 62
     0
100
AcDbPoint
 10
9.999999952502549
 20
15.29883733825191
 30
0.0
  0
ENDBLK
  5
2B9
330
2B7
100
AcDbEntity
  8
0
100
AcDbBlockEnd
  0
BLOCK
  5
2CE
330
2CD
100
AcDbEntity
  8
0
100
AcDbBlockBegin
  2
_D_2
 70
     0
 10
0.0
 20
0.0
 30
0.0
  3
_D_2
  1
_D_2
  0
LINE
  5
2D0
330
2CD
100
AcDbEntity
  8
치수문자_일반주서
 62
     0
370
    -2
100
AcDbLine
 10
-28.10000004749745
 20
3.824999999999992
 30
0.0
 11
-28.10000004749745
 21
35.8254902862047
 31
0.0
  0
LINE
  5
2D1
330
2CD
100
AcDbEntity
  8
치수문자_일반주서
 62
     0
370
    -2
100
AcDbLine
 10
35.39999995250255
 20
4.825000058859582
 30
0.0
 11
35.39999995250255
 21
35.8254902862047
 31
0.0
  0
LINE
  5
2D2
330
2CD
100
AcDbEntity
  8
치수문자_일반주서
 62
     0
370
    -2
100
AcDbLine
 10
-24.79800004749745
 20
35.8254902862047
 30
0.0
 11
32.09799995250255
 21
35.8254902862047
 31
0.0
  0
SOLID
  5
2D3
330
2CD
100
AcDbEntity
  8
치수문자_일반주서
 62
     0
100
AcDbTrace
 10
-24.79800004749745
 20
36.37582361953803
 30
0.0
 11
-24.79800004749745
 21
35.27515695287136
 31
0.0
 12
-28.10000004749745
 22
35.8254902862047
 32
0.0
 13
-28.10000004749745
 23
35.8254902862047
 33
0.0
  0
SOLID
  5
2D4
330
2CD
100
AcDbEntity
  8
치수문자_일반주서
 62
     0
100
AcDbTrace
 10
32.09799995250255
 20
35.27515695287136
 30
0.0
 11
32.09799995250255
 21
36.37582361953803
 31
0.0
 12
35.39999995250255
 22
35.8254902862047
 32
0.0
 13
35.39999995250255
 23
35.8254902862047
 33
0.0
  0
MTEXT
  5
2D5
330
2CD
100
AcDbEntity
  8
치수문자_일반주서
 62
     0
100
AcDbMText
 10
3.649999952502556
 20
40.2004902862047
 30
0.0
 40
3.5
 41
0.0
 71
     2
 72
     1
  1
\A1;63.5 [2 1/2]
  7
SLDTEXTSTYLE0
 73
     1
 44
1.0
  0
POINT
  5
2D6
330
2CD
100
AcDbEntity
  8
Defpoints
 62
     0
100
AcDbPoint
 10
-28.10000004749745
 20
3.762499999999992
 30
0.0
  0
POINT
  5
2D7
330
2CD
100
AcDbEntity
  8
Defpoints
 62
     0
100
AcDbPoint
 10
35.39999995250255
 20
4.762500058859582
 30
0.0
  0
POINT
  5
2D8
330
2CD
100
AcDbEntity
  8
Defpoints
 62
     0
100
AcDbPoint
 10
35.39999995250255
 20
35.8254902862047
 30
0.0
  0
ENDBLK
  5
2CF
330
2CD
100
AcDbEntity
  8
0
100
AcDbBlockEnd
  0
BLOCK
  5
2E1
330
2E0
100
AcDbEntity
  8
0
100
AcDbBlockBegin
  2
_D_3
 70
     0
 10
0.0
 20
0.0
 30
0.0
  3
_D_3
  1
_D_3
  0
LINE
  5
2E3
330
2E0
100
AcDbEntity
  8
치수문자_일반주서
 62
     0
370
    -2
100
AcDbLine
 10
35.46249995250255
 20
4.762500058859582
 30
0.0
 11
63.88100338263023
 21
4.76250005885969
 31
0.0
  0
LINE
  5
2E4
330
2E0
100
AcDbEntity
  8
치수문자_일반주서
 62
     0
370
    -2
100
AcDbLine
 10
35.46249995250255
 20
-4.762500058859591
 30
0.0
 11
63.88100338263027
 21
-4.762500058859484
 31
0.0
  0
LINE
  5
2E5
330
2E0
100
AcDbEntity
  8
치수문자_일반주서
 62
     0
370
    -2
100
AcDbLine
 10
63.88100338263023
 20
4.76250005885969
 30
0.0
 11
63.88100338263011
 21
37.83525005885968
 31
0.0
  0
LINE
  5
2E6
330
2E0
100
AcDbEntity
  8
치수문자_일반주서
 62
     0
370
    -2
100
AcDbLine
 10
63.88100338263023
 20
4.76250005885969
 30
0.0
 11
63.88100338263027
 21
-4.762500058859484
 31
0.0
  0
LINE
  5
2E7
330
2E0
100
AcDbEntity
  8
치수문자_일반주서
 62
     0
370
    -2
100
AcDbLine
 10
63.88100338263022
 20
8.06450005885969
 30
0.0
 11
63.8810033826302
 21
11.36650005885969
 31
0.0
  0
LINE
  5
2E8
330
2E0
100
AcDbEntity
  8
치수문자_일반주서
 62
     0
370
    -2
100
AcDbLine
 10
63.88100338263028
 20
-8.064500058859483
 30
0.0
 11
63.8810033826303
 21
-11.36650005885948
 31
0.0
  0
SOLID
  5
2E9
330
2E0
100
AcDbEntity
  8
치수문자_일반주서
 62
     0
100
AcDbTrace
 10
63.33067004929688
 20
8.064500058859688
 30
0.0
 11
64.43133671596355
 21
8.064500058859691
 31
0.0
 12
63.88100338263023
 22
4.76250005885969
 32
0.0
 13
63.88100338263023
 23
4.76250005885969
 33
0.0
  0
SOLID
  5
2EA
330
2E0
100
AcDbEntity
  8
치수문자_일반주서
 62
     0
100
AcDbTrace
 10
64.43133671596361
 20
-8.064500058859482
 30
0.0
 11
63.33067004929695
 21
-8.064500058859485
 31
0.0
 12
63.88100338263027
 22
-4.762500058859484
 32
0.0
 13
63.88100338263027
 23
-4.762500058859484
 33
0.0
  0
MTEXT
  5
2EB
330
2E0
100
AcDbEntity
  8
치수문자_일반주서
 62
     0
100
AcDbMText
 10
59.50600338263016
 20
24.71025005885966
 30
0.0
 40
3.5
 41
0.0
 71
     2
 72
     1
  1
\A1;%%c9.53 [3/8]
  7
SLDTEXTSTYLE0
 11
-3.729883081252101E-15
 21
1.0
 31
0.0
 73
     1
 44
1.0
  0
POINT
  5
491
330
2E0
100
AcDbEntity
  8
Defpoints
 62
     0
100
AcDbPoint
 10
35.39999995250255
 20
4.762500058859582
 30
0.0
  0
POINT
  5
492
330
2E0
100
AcDbEntity
  8
Defpoints
 62
     0
100
AcDbPoint
 10
35.39999995250255
 20
-4.762500058859591
 30
0.0
  0
POINT
  5
493
330
2E0
100
AcDbEntity
  8
Defpoints
 62
     0
100
AcDbPoint
 10
63.88100338263027
 20
-4.762500058859485
 30
0.0
  0
ENDBLK
  5
2E2
330
2E0
100
AcDbEntity
  8
0
100
AcDbBlockEnd
  0
BLOCK
  5
2FB
330
2FA
100
AcDbEntity
  8
0
100
AcDbBlockBegin
  2
SW_DOWELSYMBOL_0
 70
     0
 10
0.0
 20
0.0
 30
0.0
  3
SW_DOWELSYMBOL_0
  1
SW_DOWELSYMBOL_0
  0
CIRCLE
  5
2FD
330
2FA
100
AcDbEntity
  8
해칭선
 62
     0
100
AcDbCircle
 10
0.0
 20
0.0
 30
0.0
 40
3.000000000000001
  0
HATCH
  5
2FE
330
2FA
100
AcDbEntity
  8
0
  6
Continuous
 62
     0
370
     0
100
AcDbHatch
 10
0.0
 20
0.0
 30
0.0
210
0.0
220
0.0
230
1.0
  2
SOLID
 70
     1
 71
     0
 91
        1
 92
        0
 93
        3
 72
     2
 10
0.0000000000000069
 20
0.0
 40
3.000000000000001
 50
0.0
 51
90.0
 73
     1
 72
     1
 10
0.0000000000000069
 20
3.000000000000001
 11
0.0000000000000069
 21
0.0
 72
     1
 10
0.0000000000000069
 20
0.0
 11
3.000000000000008
 21
0.0
 97
        0
 75
     0
 76
     1
 98
        1
 10
0.0
 20
0.0
  0
HATCH
  5
2FF
330
2FA
100
AcDbEntity
  8
0
  6
Continuous
 62
     0
370
     0
100
AcDbHatch
 10
0.0
 20
0.0
 30
0.0
210
0.0
220
0.0
230
1.0
  2
SOLID
 70
     1
 71
     0
 91
        1
 92
        0
 93
        3
 72
     2
 10
0.0000000000000069
 20
0.0
 40
3.000000000000001
 50
180.0
 51
270.0000000000007
 73
     1
 72
     1
 10
0.0000000000000069
 20
-3.000000000000001
 11
0.0000000000000069
 21
0.0
 72
     1
 10
0.0000000000000069
 20
0.0
 11
-2.999999999999994
 21
0.0
 97
        0
 75
     0
 76
     1
 98
        1
 10
0.0
 20
0.0
  0
ENDBLK
  5
2FC
330
2FA
100
AcDbEntity
  8
0
100
AcDbBlockEnd
  0
BLOCK
  5
3BD
330
3BC
100
AcDbEntity
  8
0
100
AcDbBlockBegin
  2
_D_4
 70
     0
 10
0.0
 20
0.0
 30
0.0
  3
_D_4
  1
_D_4
  0
LINE
  5
3BE
330
3BC
100
AcDbEntity
  8
치수문자_일반주서
 62
     0
370
    -2
100
AcDbLine
 10
102.4375000000001
 20
36.22143424691529
 30
0.0
 11
117.3750000000001
 21
36.22143424691535
 31
0.0
  0
LINE
  5
3BF
330
3BC
100
AcDbEntity
  8
치수문자_일반주서
 62
     0
370
    -2
100
AcDbLine
 10
102.4375000000001
 20
22.22143424691529
 30
0.0
 11
117.3750000000001
 21
22.22143424691535
 31
0.0
  0
LINE
  5
3C0
330
3BC
100
AcDbEntity
  8
치수문자_일반주서
 62
     0
370
    -2
100
AcDbLine
 10
117.3750000000001
 20
36.22143424691535
 30
0.0
 11
117.3750000000001
 21
22.22143424691535
 31
0.0
  0
LINE
  5
3C1
330
3BC
100
AcDbEntity
  8
치수문자_일반주서
 62
     0
370
    -2
100
AcDbLine
 10
117.3750000000001
 20
39.52343424691535
 30
0.0
 11
117.375
 21
42.82543424691535
 31
0.0
  0
LINE
  5
3C2
330
3BC
100
AcDbEntity
  8
치수문자_일반주서
 62
     0
370
    -2
100
AcDbLine
 10
117.3750000000001
 20
18.91943424691535
 30
0.0
 11
117.3750000000001
 21
15.61743424691535
 31
0.0
  0
SOLID
  5
3C3
330
3BC
100
AcDbEntity
  8
치수문자_일반주서
 62
     0
100
AcDbTrace
 10
116.8246666666667
 20
39.52343424691535
 30
0.0
 11
117.9253333333334
 21
39.52343424691535
 31
0.0
 12
117.3750000000001
 22
36.22143424691535
 32
0.0
 13
117.3750000000001
 23
36.22143424691535
 33
0.0
  0
SOLID
  5
3C4
330
3BC
100
AcDbEntity
  8
치수문자_일반주서
 62
     0
100
AcDbTrace
 10
117.9253333333335
 20
18.91943424691535
 30
0.0
 11
116.8246666666668
 21
18.91943424691535
 31
0.0
 12
117.3750000000001
 22
22.22143424691535
 32
0.0
 13
117.3750000000001
 23
22.22143424691535
 33
0.0
  0
MTEXT
  5
3C5
330
3BC
100
AcDbEntity
  8
치수문자_일반주서
 62
     0
100
AcDbMText
 10
113.0000000000001
 20
29.28713862862833
 30
0.0
 40
3.5
 41
0.0
 71
     2
 72
     1
  1
\A1;%%c14.00 [0.55]
  7
SLDTEXTSTYLE0
 11
-3.045183153257572E-15
 21
1.0
 31
0.0
 73
     1
 44
1.0
  0
POINT
  5
3C6
330
3BC
100
AcDbEntity
  8
Defpoints
 62
     0
100
AcDbPoint
 10
102.3750000000001
 20
36.22143424691529
 30
0.0
  0
POINT
  5
3C7
330
3BC
100
AcDbEntity
  8
Defpoints
 62
     0
100
AcDbPoint
 10
102.3750000000001
 20
22.22143424691529
 30
0.0
  0
POINT
  5
3C8
330
3BC
100
AcDbEntity
  8
Defpoints
 62
     0
100
AcDbPoint
 10
117.3750000000001
 20
22.22143424691535
 30
0.0
  0
ENDBLK
  5
3C9
330
3BC
100
AcDbEntity
  8
0
100
AcDbBlockEnd
  0
BLOCK
  5
3D7
330
3D6
100
AcDbEntity
  8
0
100
AcDbBlockBegin
  2
*D8
 70
     1
 10
0.0
 20
0.0
 30
0.0
  3
*D8
  1
*D8
  0
LINE
  5
3D8
330
3D6
100
AcDbEntity
  8
치수문자_일반주서
 62
     0
370
    -2
100
AcDbLine
 10
103.8657751816695
 20
19.48229575403651
 30
0.0
 11
120.1921280501954
 21
-7.081888143622854
 31
0.0
  0
MTEXT
  5
3D9
330
3D6
100
AcDbEntity
  8
치수문자_일반주서
 62
     0
100
AcDbMText
 10
115.6706384014277
 20
5.288158154535728
 30
0.0
 40
3.5
 41
0.0
 71
     5
 72
     1
  1
\A1;R.50 [R0.02]
  7
SLDTEXTSTYLE0
 11
0.5236126201129557
 21
-0.8519564684057781
 31
0.0
 73
     1
 44
1.0
  0
LINE
  5
3DA
330
3D6
100
AcDbEntity
  8
치수문자_일반주서
 62
     0
370
    -2
100
AcDbLine
 10
101.875
 20
22.72143424691529
 30
0.0
 11
102.1368063100565
 21
22.29545601271239
 31
0.0
  0
SOLID
  5
3DB
330
3D6
100
AcDbEntity
  8
치수문자_일반주서
 62
     0
100
AcDbTrace
 10
104.3346352247821
 20
19.77045723263868
 30
0.0
 11
103.3969151385569
 21
19.19413427543435
 31
0.0
 12
102.1368063100565
 22
22.29545601271239
 32
0.0
 13
102.1368063100565
 23
22.29545601271239
 33
0.0
  0
POINT
  5
3DC
330
3D6
100
AcDbEntity
  8
Defpoints
 62
     0
100
AcDbPoint
 10
102.1368063100565
 20
22.29545601271239
 30
0.0
  0
POINT
  5
408
330
3D6
100
AcDbEntity
  8
Defpoints
 62
     0
100
AcDbPoint
 10
101.875
 20
22.72143424691529
 30
0.0
  0
ENDBLK
  5
3DD
330
3D6
100
AcDbEntity
  8
0
100
AcDbBlockEnd
  0
BLOCK
  5
3E3
330
3E2
100
AcDbEntity
  8
0
100
AcDbBlockBegin
  2
*D9
 70
     1
 10
0.0
 20
0.0
 30
0.0
  3
*D9
  1
*D10
  0
LINE
  5
3E5
330
3E2
100
AcDbEntity
  8
치수문자_일반주서
 62
     0
370
    -2
100
AcDbLine
 10
19.37500000000004
 20
35.78393424691529
 30
0.0
 11
19.37500000000004
 21
70.88391841499404
 31
0.0
  0
LINE
  5
3E6
330
3E2
100
AcDbEntity
  8
치수문자_일반주서
 62
     0
370
    -2
100
AcDbLine
 10
102.3750000000001
 20
36.34643424691529
 30
0.0
 11
102.3750000000001
 21
70.88391841499404
 31
0.0
  0
LINE
  5
3E7
330
3E2
100
AcDbEntity
  8
치수문자_일반주서
 62
     0
370
    -2
100
AcDbLine
 10
22.67700000000004
 20
70.88391841499404
 30
0.0
 11
99.07300000000006
 21
70.88391841499404
 31
0.0
  0
SOLID
  5
3E8
330
3E2
100
AcDbEntity
  8
치수문자_일반주서
 62
     0
100
AcDbTrace
 10
22.67700000000004
 20
71.43425174832737
 30
0.0
 11
22.67700000000004
 21
70.33358508166071
 31
0.0
 12
19.37500000000004
 22
70.88391841499404
 32
0.0
 13
19.37500000000004
 23
70.88391841499404
 33
0.0
  0
SOLID
  5
3E9
330
3E2
100
AcDbEntity
  8
치수문자_일반주서
 62
     0
100
AcDbTrace
 10
99.07300000000006
 20
70.33358508166071
 30
0.0
 11
99.07300000000006
 21
71.43425174832737
 31
0.0
 12
102.3750000000001
 22
70.88391841499404
 32
0.0
 13
102.3750000000001
 23
70.88391841499404
 33
0.0
  0
MTEXT
  5
3EA
330
3E2
100
AcDbEntity
  8
치수문자_일반주서
 62
     0
100
AcDbMText
 10
60.87500000000005
 20
75.25891841499404
 30
0.0
 40
3.5
 41
0.0
 71
     2
 72
     1
  1
\A1;83 [3.27]
  7
SLDTEXTSTYLE0
 73
     1
 44
1.0
  0
POINT
  5
3EB
330
3E2
100
AcDbEntity
  8
Defpoints
 62
     0
100
AcDbPoint
 10
19.37500000000004
 20
35.72143424691529
 30
0.0
  0
POINT
  5
3EC
330
3E2
100
AcDbEntity
  8
Defpoints
 62
     0
100
AcDbPoint
 10
102.3750000000001
 20
36.28393424691529
 30
0.0
  0
POINT
  5
3ED
330
3E2
100
AcDbEntity
  8
Defpoints
 62
     0
100
AcDbPoint
 10
102.3750000000001
 20
70.88391841499404
 30
0.0
  0
ENDBLK
  5
3E4
330
3E2
100
AcDbEntity
  8
0
100
AcDbBlockEnd
  0
BLOCK
  5
3EF
330
3EE
100
AcDbEntity
  8
0
100
AcDbBlockBegin
  2
*D10
 70
     1
 10
0.0
 20
0.0
 30
0.0
  3
*D10
  1
*D11
  0
LINE
  5
3F1
330
3EE
100
AcDbEntity
  8
치수문자_일반주서
 62
     0
370
    -2
100
AcDbLine
 10
76.37504186422882
 20
28.62038676313042
 30
0.0
 11
76.37504186422882
 21
61.90091383617725
 31
0.0
  0
LINE
  5
3F2
330
3EE
100
AcDbEntity
  8
치수문자_일반주서
 62
     0
370
    -2
100
AcDbLine
 10
102.3750000000001
 20
36.28393424691529
 30
0.0
 11
102.3750000000001
 21
61.90091383617725
 31
0.0
  0
LINE
  5
3F3
330
3EE
100
AcDbEntity
  8
치수문자_일반주서
 62
     0
370
    -2
100
AcDbLine
 10
79.67704186422881
 20
61.90091383617725
 30
0.0
 11
99.07300000000006
 21
61.90091383617725
 31
0.0
  0
SOLID
  5
3F4
330
3EE
100
AcDbEntity
  8
치수문자_일반주서
 62
     0
100
AcDbTrace
 10
79.67704186422881
 20
62.45124716951059
 30
0.0
 11
79.67704186422881
 21
61.35058050284392
 31
0.0
 12
76.37504186422882
 22
61.90091383617725
 32
0.0
 13
76.37504186422882
 23
61.90091383617725
 33
0.0
  0
SOLID
  5
3F5
330
3EE
100
AcDbEntity
  8
치수문자_일반주서
 62
     0
100
AcDbTrace
 10
99.07300000000006
 20
61.35058050284392
 30
0.0
 11
99.07300000000006
 21
62.45124716951059
 31
0.0
 12
102.3750000000001
 22
61.90091383617725
 32
0.0
 13
102.3750000000001
 23
61.90091383617725
 33
0.0
  0
MTEXT
  5
3F6
330
3EE
100
AcDbEntity
  8
치수문자_일반주서
 62
     0
100
AcDbMText
 10
89.42159572693208
 20
66.27591383617725
 30
0.0
 40
3.5
 41
0.0
 71
     2
 72
     1
  1
\A1;26 [1.02]
  7
SLDTEXTSTYLE0
 73
     1
 44
1.0
  0
POINT
  5
3F7
330
3EE
100
AcDbEntity
  8
Defpoints
 62
     0
100
AcDbPoint
 10
76.37504186422882
 20
28.55788676313042
 30
0.0
  0
POINT
  5
3F8
330
3EE
100
AcDbEntity
  8
Defpoints
 62
     0
100
AcDbPoint
 10
102.3750000000001
 20
36.22143424691529
 30
0.0
  0
POINT
  5
3F9
330
3EE
100
AcDbEntity
  8
Defpoints
 62
     0
100
AcDbPoint
 10
102.3750000000001
 20
61.90091383617725
 30
0.0
  0
ENDBLK
  5
3F0
330
3EE
100
AcDbEntity
  8
0
100
AcDbBlockEnd
  0
BLOCK
  5
3FB
330
3FA
100
AcDbEntity
  8
0
100
AcDbBlockBegin
  2
*D11
 70
     1
 10
0.0
 20
0.0
 30
0.0
  3
*D11
  1
*D12
  0
LINE
  5
3FD
330
3FA
100
AcDbEntity
  8
치수문자_일반주서
 62
     0
370
    -2
100
AcDbLine
 10
19.81250000000005
 20
36.22143424691529
 30
0.0
 11
4.374999999999983
 21
36.22143424691524
 31
0.0
  0
LINE
  5
3FE
330
3FA
100
AcDbEntity
  8
치수문자_일반주서
 62
     0
370
    -2
100
AcDbLine
 10
19.81250000000005
 20
22.22143424691529
 30
0.0
 11
4.375000000000032
 21
22.22143424691524
 31
0.0
  0
LINE
  5
3FF
330
3FA
100
AcDbEntity
  8
치수문자_일반주서
 62
     0
370
    -2
100
AcDbLine
 10
4.374999999999983
 20
36.22143424691524
 30
0.0
 11
4.375000000000032
 21
22.22143424691524
 31
0.0
  0
LINE
  5
400
330
3FA
100
AcDbEntity
  8
치수문자_일반주서
 62
     0
370
    -2
100
AcDbLine
 10
4.374999999999972
 20
39.52343424691524
 30
0.0
 11
4.37499999999996
 21
42.82543424691524
 31
0.0
  0
LINE
  5
401
330
3FA
100
AcDbEntity
  8
치수문자_일반주서
 62
     0
370
    -2
100
AcDbLine
 10
4.375000000000044
 20
18.91943424691524
 30
0.0
 11
4.375000000000055
 21
15.61743424691524
 31
0.0
  0
SOLID
  5
402
330
3FA
100
AcDbEntity
  8
치수문자_일반주서
 62
     0
100
AcDbTrace
 10
3.824666666666638
 20
39.52343424691524
 30
0.0
 11
4.925333333333305
 21
39.52343424691524
 31
0.0
 12
4.374999999999983
 22
36.22143424691524
 32
0.0
 13
4.374999999999983
 23
36.22143424691524
 33
0.0
  0
SOLID
  5
403
330
3FA
100
AcDbEntity
  8
치수문자_일반주서
 62
     0
100
AcDbTrace
 10
4.925333333333377
 20
18.91943424691524
 30
0.0
 11
3.82466666666671
 21
18.91943424691523
 31
0.0
 12
4.375000000000032
 22
22.22143424691524
 32
0.0
 13
4.375000000000032
 23
22.22143424691524
 33
0.0
  0
MTEXT
  5
404
330
3FA
100
AcDbEntity
  8
치수문자_일반주서
 62
     0
100
AcDbMText
 10
0.0000000000000071
 20
29.22143424691528
 30
0.0
 40
3.5
 41
0.0
 71
     2
 72
     1
  1
\A1;%%c14.00 [0.55]
  7
SLDTEXTSTYLE0
 11
-3.489272363107635E-15
 21
1.0
 31
0.0
 73
     1
 44
1.0
  0
POINT
  5
405
330
3FA
100
AcDbEntity
  8
Defpoints
 62
     0
100
AcDbPoint
 10
19.87500000000005
 20
36.22143424691529
 30
0.0
  0
POINT
  5
406
330
3FA
100
AcDbEntity
  8
Defpoints
 62
     0
100
AcDbPoint
 10
19.87500000000005
 20
22.22143424691529
 30
0.0
  0
POINT
  5
407
330
3FA
100
AcDbEntity
  8
Defpoints
 62
     0
100
AcDbPoint
 10
4.375000000000043
 20
22.22143424691524
 30
0.0
  0
ENDBLK
  5
3FC
330
3FA
100
AcDbEntity
  8
0
100
AcDbBlockEnd
  0
BLOCK
  5
455
330
454
100
AcDbEntity
  8
0
100
AcDbBlockBegin
  2
*D12
 70
     1
 10
0.0
 20
0.0
 30
0.0
  3
*D12
  1
*D13
  0
LINE
  5
457
330
454
100
AcDbEntity
  8
치수문자_일반주서
 62
     0
370
    -2
100
AcDbLine
 10
-75.91702204729164
 20
122.7711254921699
 30
0.0
 11
-75.91702204729164
 21
157.8711096602486
 31
0.0
  0
LINE
  5
458
330
454
100
AcDbEntity
  8
치수문자_일반주서
 62
     0
370
    -2
100
AcDbLine
 10
7.082977952708376
 20
123.3336254921699
 30
0.0
 11
7.082977952708376
 21
157.8711096602486
 31
0.0
  0
LINE
  5
459
330
454
100
AcDbEntity
  8
치수문자_일반주서
 62
     0
370
    -2
100
AcDbLine
 10
-72.61502204729163
 20
157.8711096602486
 30
0.0
 11
3.780977952708376
 21
157.8711096602486
 31
0.0
  0
SOLID
  5
45A
330
454
100
AcDbEntity
  8
치수문자_일반주서
 62
     0
100
AcDbTrace
 10
-72.61502204729163
 20
158.421442993582
 30
0.0
 11
-72.61502204729163
 21
157.3207763269153
 31
0.0
 12
-75.91702204729164
 22
157.8711096602486
 32
0.0
 13
-75.91702204729164
 23
157.8711096602486
 33
0.0
  0
SOLID
  5
45B
330
454
100
AcDbEntity
  8
치수문자_일반주서
 62
     0
100
AcDbTrace
 10
3.780977952708376
 20
157.3207763269153
 30
0.0
 11
3.780977952708376
 21
158.421442993582
 31
0.0
 12
7.082977952708376
 22
157.8711096602486
 32
0.0
 13
7.082977952708376
 23
157.8711096602486
 33
0.0
  0
MTEXT
  5
45C
330
454
100
AcDbEntity
  8
치수문자_일반주서
 62
     0
100
AcDbMText
 10
-34.41702204729163
 20
162.2461096602486
 30
0.0
 40
3.5
 41
0.0
 71
     2
 72
     1
  1
\A1;83 [3.27]
  7
SLDTEXTSTYLE0
 73
     1
 44
1.0
  0
POINT
  5
45D
330
454
100
AcDbEntity
  8
Defpoints
 62
     0
100
AcDbPoint
 10
-75.91702204729164
 20
122.7086254921699
 30
0.0
  0
POINT
  5
45E
330
454
100
AcDbEntity
  8
Defpoints
 62
     0
100
AcDbPoint
 10
7.082977952708376
 20
123.2711254921699
 30
0.0
  0
POINT
  5
45F
330
454
100
AcDbEntity
  8
Defpoints
 62
     0
100
AcDbPoint
 10
7.082977952708376
 20
157.8711096602486
 30
0.0
  0
ENDBLK
  5
456
330
454
100
AcDbEntity
  8
0
100
AcDbBlockEnd
  0
BLOCK
  5
461
330
460
100
AcDbEntity
  8
0
100
AcDbBlockBegin
  2
*D13
 70
     1
 10
0.0
 20
0.0
 30
0.0
  3
*D13
  1
*D14
  0
LINE
  5
463
330
460
100
AcDbEntity
  8
치수문자_일반주서
 62
     0
370
    -2
100
AcDbLine
 10
-18.91698018306286
 20
115.607578008385
 30
0.0
 11
-18.91698018306286
 21
148.8881050814319
 31
0.0
  0
LINE
  5
464
330
460
100
AcDbEntity
  8
치수문자_일반주서
 62
     0
370
    -2
100
AcDbLine
 10
7.082977952708376
 20
123.2711254921699
 30
0.0
 11
7.082977952708376
 21
148.8881050814319
 31
0.0
  0
LINE
  5
465
330
460
100
AcDbEntity
  8
치수문자_일반주서
 62
     0
370
    -2
100
AcDbLine
 10
-15.61498018306286
 20
148.8881050814319
 30
0.0
 11
3.780977952708376
 21
148.8881050814319
 31
0.0
  0
SOLID
  5
466
330
460
100
AcDbEntity
  8
치수문자_일반주서
 62
     0
100
AcDbTrace
 10
-15.61498018306286
 20
149.4384384147652
 30
0.0
 11
-15.61498018306286
 21
148.3377717480985
 31
0.0
 12
-18.91698018306286
 22
148.8881050814319
 32
0.0
 13
-18.91698018306286
 23
148.8881050814319
 33
0.0
  0
SOLID
  5
467
330
460
100
AcDbEntity
  8
치수문자_일반주서
 62
     0
100
AcDbTrace
 10
3.780977952708376
 20
148.3377717480985
 30
0.0
 11
3.780977952708376
 21
149.4384384147652
 31
0.0
 12
7.082977952708376
 22
148.8881050814319
 32
0.0
 13
7.082977952708376
 23
148.8881050814319
 33
0.0
  0
MTEXT
  5
468
330
460
100
AcDbEntity
  8
치수문자_일반주서
 62
     0
100
AcDbMText
 10
-5.870426320359599
 20
153.2631050814319
 30
0.0
 40
3.5
 41
0.0
 71
     2
 72
     1
  1
\A1;26 [1.02]
  7
SLDTEXTSTYLE0
 73
     1
 44
1.0
  0
POINT
  5
469
330
460
100
AcDbEntity
  8
Defpoints
 62
     0
100
AcDbPoint
 10
-18.91698018306286
 20
115.545078008385
 30
0.0
  0
POINT
  5
46A
330
460
100
AcDbEntity
  8
Defpoints
 62
     0
100
AcDbPoint
 10
7.082977952708376
 20
123.2086254921699
 30
0.0
  0
POINT
  5
46B
330
460
100
AcDbEntity
  8
Defpoints
 62
     0
100
AcDbPoint
 10
7.082977952708376
 20
148.8881050814319
 30
0.0
  0
ENDBLK
  5
462
330
460
100
AcDbEntity
  8
0
100
AcDbBlockEnd
  0
BLOCK
  5
46D
330
46C
100
AcDbEntity
  8
0
100
AcDbBlockBegin
  2
*D14
 70
     1
 10
0.0
 20
0.0
 30
0.0
  3
*D14
  1
*D15
  0
LINE
  5
46F
330
46C
100
AcDbEntity
  8
치수문자_일반주서
 62
     0
370
    -2
100
AcDbLine
 10
-75.47952204729162
 20
123.2086254921699
 30
0.0
 11
-90.9170220472917
 21
123.2086254921698
 31
0.0
  0
LINE
  5
470
330
46C
100
AcDbEntity
  8
치수문자_일반주서
 62
     0
370
    -2
100
AcDbLine
 10
-75.47952204729162
 20
109.2086254921699
 30
0.0
 11
-90.91702204729165
 21
109.2086254921698
 31
0.0
  0
LINE
  5
471
330
46C
100
AcDbEntity
  8
치수문자_일반주서
 62
     0
370
    -2
100
AcDbLine
 10
-90.9170220472917
 20
123.2086254921698
 30
0.0
 11
-90.91702204729165
 21
109.2086254921698
 31
0.0
  0
LINE
  5
472
330
46C
100
AcDbEntity
  8
치수문자_일반주서
 62
     0
370
    -2
100
AcDbLine
 10
-90.91702204729171
 20
126.5106254921699
 30
0.0
 11
-90.91702204729172
 21
129.8126254921698
 31
0.0
  0
LINE
  5
473
330
46C
100
AcDbEntity
  8
치수문자_일반주서
 62
     0
370
    -2
100
AcDbLine
 10
-90.91702204729164
 20
105.9066254921698
 30
0.0
 11
-90.91702204729162
 21
102.6046254921698
 31
0.0
  0
SOLID
  5
474
330
46C
100
AcDbEntity
  8
치수문자_일반주서
 62
     0
100
AcDbTrace
 10
-91.46735538062504
 20
126.5106254921699
 30
0.0
 11
-90.36668871395838
 21
126.5106254921699
 31
0.0
 12
-90.9170220472917
 22
123.2086254921698
 32
0.0
 13
-90.9170220472917
 23
123.2086254921698
 33
0.0
  0
SOLID
  5
475
330
46C
100
AcDbEntity
  8
치수문자_일반주서
 62
     0
100
AcDbTrace
 10
-90.36668871395831
 20
105.9066254921698
 30
0.0
 11
-91.46735538062497
 21
105.9066254921698
 31
0.0
 12
-90.91702204729165
 22
109.2086254921698
 32
0.0
 13
-90.91702204729165
 23
109.2086254921698
 33
0.0
  0
MTEXT
  5
476
330
46C
100
AcDbEntity
  8
치수문자_일반주서
 62
     0
100
AcDbMText
 10
-95.29202204729168
 20
116.2086254921699
 30
0.0
 40
3.5
 41
0.0
 71
     2
 72
     1
  1
\A1;%%c14.00 [0.55]
  7
SLDTEXTSTYLE0
 11
-3.045183153257572E-15
 21
1.0
 31
0.0
 73
     1
 44
1.0
  0
POINT
  5
477
330
46C
100
AcDbEntity
  8
Defpoints
 62
     0
100
AcDbPoint
 10
-75.41702204729162
 20
123.2086254921699
 30
0.0
  0
POINT
  5
478
330
46C
100
AcDbEntity
  8
Defpoints
 62
     0
100
AcDbPoint
 10
-75.41702204729162
 20
109.2086254921699
 30
0.0
  0
POINT
  5
479
330
46C
100
AcDbEntity
  8
Defpoints
 62
     0
100
AcDbPoint
 10
-90.91702204729165
 20
109.2086254921698
 30
0.0
  0
ENDBLK
  5
46E
330
46C
100
AcDbEntity
  8
0
100
AcDbBlockEnd
  0
BLOCK
  5
47B
330
47A
100
AcDbEntity
  8
0
100
AcDbBlockBegin
  2
*D15
 70
     1
 10
0.0
 20
0.0
 30
0.0
  3
*D15
  1
*D16
  0
LINE
  5
47D
330
47A
100
AcDbEntity
  8
치수문자_일반주서
 62
     0
370
    -2
100
AcDbLine
 10
7.14547795270839
 20
123.2086254921699
 30
0.0
 11
22.08297795270838
 21
123.20862549217
 31
0.0
  0
LINE
  5
47E
330
47A
100
AcDbEntity
  8
치수문자_일반주서
 62
     0
370
    -2
100
AcDbLine
 10
7.145477952708376
 20
109.2086254921699
 30
0.0
 11
22.08297795270843
 21
109.20862549217
 31
0.0
  0
LINE
  5
47F
330
47A
100
AcDbEntity
  8
치수문자_일반주서
 62
     0
370
    -2
100
AcDbLine
 10
22.08297795270838
 20
123.20862549217
 30
0.0
 11
22.08297795270843
 21
109.20862549217
 31
0.0
  0
LINE
  5
480
330
47A
100
AcDbEntity
  8
치수문자_일반주서
 62
     0
370
    -2
100
AcDbLine
 10
22.08297795270837
 20
126.51062549217
 30
0.0
 11
22.08297795270836
 21
129.81262549217
 31
0.0
  0
LINE
  5
481
330
47A
100
AcDbEntity
  8
치수문자_일반주서
 62
     0
370
    -2
100
AcDbLine
 10
22.08297795270844
 20
105.90662549217
 30
0.0
 11
22.08297795270845
 21
102.60462549217
 31
0.0
  0
SOLID
  5
482
330
47A
100
AcDbEntity
  8
치수문자_일반주서
 62
     0
100
AcDbTrace
 10
21.53264461937503
 20
126.51062549217
 30
0.0
 11
22.6333112860417
 21
126.51062549217
 31
0.0
 12
22.08297795270838
 22
123.20862549217
 32
0.0
 13
22.08297795270838
 23
123.20862549217
 33
0.0
  0
SOLID
  5
483
330
47A
100
AcDbEntity
  8
치수문자_일반주서
 62
     0
100
AcDbTrace
 10
22.63331128604177
 20
105.90662549217
 30
0.0
 11
21.53264461937511
 21
105.90662549217
 31
0.0
 12
22.08297795270843
 22
109.20862549217
 32
0.0
 13
22.08297795270843
 23
109.20862549217
 33
0.0
  0
MTEXT
  5
484
330
47A
100
AcDbEntity
  8
치수문자_일반주서
 62
     0
100
AcDbMText
 10
17.7079779527084
 20
116.2743298738829
 30
0.0
 40
3.5
 41
0.0
 71
     2
 72
     1
  1
\A1;%%c14.00 [0.55]
  7
SLDTEXTSTYLE0
 11
-3.552713678800501E-15
 21
1.0
 31
0.0
 73
     1
 44
1.0
  0
POINT
  5
485
330
47A
100
AcDbEntity
  8
Defpoints
 62
     0
100
AcDbPoint
 10
7.08297795270839
 20
123.2086254921699
 30
0.0
  0
POINT
  5
486
330
47A
100
AcDbEntity
  8
Defpoints
 62
     0
100
AcDbPoint
 10
7.082977952708376
 20
109.2086254921699
 30
0.0
  0
POINT
  5
487
330
47A
100
AcDbEntity
  8
Defpoints
 62
     0
100
AcDbPoint
 10
22.08297795270843
 20
109.20862549217
 30
0.0
  0
ENDBLK
  5
47C
330
47A
100
AcDbEntity
  8
0
100
AcDbBlockEnd
  0
BLOCK
  5
489
330
488
100
AcDbEntity
  8
0
100
AcDbBlockBegin
  2
*D16
 70
     1
 10
0.0
 20
0.0
 30
0.0
  3
*D16
  1
*D17
  0
LINE
  5
48B
330
488
100
AcDbEntity
  8
치수문자_일반주서
 62
     0
370
    -2
100
AcDbLine
 10
8.573753134377826
 20
106.4694869992911
 30
0.0
 11
24.90010600290366
 21
79.90530310163174
 31
0.0
  0
MTEXT
  5
48C
330
488
100
AcDbEntity
  8
치수문자_일반주서
 62
     0
100
AcDbMText
 10
20.37861635413599
 20
92.27534939979033
 30
0.0
 40
3.5
 41
0.0
 71
     5
 72
     1
  1
\A1;R.50 [R0.02]
  7
SLDTEXTSTYLE0
 11
0.5236126201129557
 21
-0.8519564684057781
 31
0.0
 73
     1
 44
1.0
  0
LINE
  5
48D
330
488
100
AcDbEntity
  8
치수문자_일반주서
 62
     0
370
    -2
100
AcDbLine
 10
6.582977952708362
 20
109.7086254921699
 30
0.0
 11
6.844784262764847
 21
109.282647257967
 31
0.0
  0
SOLID
  5
48E
330
488
100
AcDbEntity
  8
치수문자_일반주서
 62
     0
100
AcDbTrace
 10
9.042613177490473
 20
106.7576484778933
 30
0.0
 11
8.104893091265179
 21
106.181325520689
 31
0.0
 12
6.844784262764847
 22
109.282647257967
 32
0.0
 13
6.844784262764847
 23
109.282647257967
 33
0.0
  0
POINT
  5
48F
330
488
100
AcDbEntity
  8
Defpoints
 62
     0
100
AcDbPoint
 10
6.844784262764847
 20
109.282647257967
 30
0.0
  0
POINT
  5
490
330
488
100
AcDbEntity
  8
Defpoints
 62
     0
100
AcDbPoint
 10
6.582977952708362
 20
109.7086254921699
 30
0.0
  0
ENDBLK
  5
48A
330
488
100
AcDbEntity
  8
0
100
AcDbBlockEnd
  0
BLOCK
  5
4A2
330
4A1
100
AcDbEntity
  8
0
100
AcDbBlockBegin
  2
*D17
 70
     1
 10
0.0
 20
0.0
 30
0.0
  3
*D17
  1
*D18
  0
LINE
  5
4A4
330
4A1
100
AcDbEntity
  8
치수문자_일반주서
 62
     0
370
    -2
100
AcDbLine
 10
37.25696849116678
 20
6.970034729969157
 30
0.0
 11
57.79257234980553
 21
30.0114395137722
 31
0.0
  0
MTEXT
  5
4A5
330
4A1
100
AcDbEntity
  8
치수문자_일반주서
 62
     0
100
AcDbMText
 10
46.66360611888171
 20
21.46980107647825
 30
0.0
 40
3.5
 41
0.0
 71
     5
 72
     1
  1
\A1;R1.02 [R0.04]
  7
SLDTEXTSTYLE0
 11
0.6653470446188581
 21
0.7465341989600687
 31
0.0
 73
     1
 44
1.0
  0
LINE
  5
4A6
330
4A1
100
AcDbEntity
  8
치수문자_일반주서
 62
     0
370
    -2
100
AcDbLine
 10
34.38399995250256
 20
3.746500058859582
 30
0.0
 11
35.05999254983531
 21
4.50497880500301
 31
0.0
  0
SOLID
  5
4A7
330
4A1
100
AcDbEntity
  8
치수문자_일반주서
 62
     0
100
AcDbTrace
 10
36.84612583700576
 20
7.336197386857735
 30
0.0
 11
37.6678111453278
 21
6.603872073080579
 31
0.0
 12
35.05999254983531
 22
4.50497880500301
 32
0.0
 13
35.05999254983531
 23
4.50497880500301
 33
0.0
  0
POINT
  5
4A8
330
4A1
100
AcDbEntity
  8
Defpoints
 62
     0
100
AcDbPoint
 10
35.05999254983531
 20
4.50497880500301
 30
0.0
  0
POINT
  5
4A9
330
4A1
100
AcDbEntity
  8
Defpoints
 62
     0
100
AcDbPoint
 10
34.38399995250256
 20
3.746500058859582
 30
0.0
  0
ENDBLK
  5
4A3
330
4A1
100
AcDbEntity
  8
0
100
AcDbBlockEnd
  0
ENDSEC
  0
SECTION
  2
ENTITIES
  0
SPLINE
  5
96
330
1F
100
AcDbEntity
  8
외형선
  6
Continuous
370
    15
100
AcDbSpline
210
0.0
220
0.0
230
1.0
 70
     8
 71
     3
 72
     9
 73
     5
 74
     0
 42
0.000000001
 43
0.00000001
 40
0.0
 40
0.0
 40
0.0
 40
0.0
 40
0.5013062412352968
 40
1.0
 40
1.0
 40
1.0
 40
1.0
 10
7.652832651510834
 20
-4.762310534715657
 30
0.0
 10
7.732461426296426
 20
-4.747993230147815
 30
0.0
 10
7.891304002421899
 20
-4.719433233502727
 30
0.0
 10
8.03294753409264
 20
-4.637653767508623
 30
0.0
 10
8.103584279306233
 20
-4.596870858222251
 30
0.0
  0
SPLINE
  5
97
330
1F
100
AcDbEntity
  8
외형선
  6
Continuous
370
    15
100
AcDbSpline
210
0.0
220
0.0
230
1.0
 70
     8
 71
     3
 72
     9
 73
     5
 74
     0
 42
0.000000001
 43
0.00000001
 40
0.0
 40
0.0
 40
0.0
 40
0.0
 40
0.498697981703096
 40
1.0
 40
1.0
 40
1.0
 40
1.0
 10
6.85403739567846
 20
4.596573300659652
 30
0.0
 10
6.783413860198926
 20
4.637388828287384
 30
0.0
 10
6.641798016400338
 20
4.719233008783849
 30
0.0
 10
6.482978077395726
 20
4.74788644100566
 30
0.0
 10
6.403361321426927
 20
4.762250464409585
 30
0.0
  0
LINE
  5
98
330
1F
100
AcDbEntity
  8
외형선
  6
Continuous
370
    15
100
AcDbLine
 10
6.399257448501884
 20
4.762500058859582
 30
0.0
 11
-3.417548432956528
 21
4.762500058859582
 31
0.0
  0
LINE
  5
99
330
1F
100
AcDbEntity
  8
외형선
  6
Continuous
370
    15
100
AcDbLine
 10
-27.1000001905486
 20
-4.762500058859591
 30
0.0
 11
7.649278608150779
 21
-4.762500058859591
 31
0.0
  0
LINE
  5
9A
330
1F
100
AcDbEntity
  8
외형선
  6
Continuous
370
    15
100
AcDbLine
 10
-27.1000001905486
 20
4.762500058859582
 30
0.0
 11
-28.09999849181622
 21
3.762499894946809
 31
0.0
  0
LINE
  5
9B
330
1F
100
AcDbEntity
  8
외형선
  6
Continuous
370
    15
100
AcDbLine
 10
-28.09999849181622
 20
-3.762499894946818
 30
0.0
 11
-27.1000001905486
 21
-4.762500058859591
 31
0.0
  0
SPLINE
  5
9C
330
1F
100
AcDbEntity
  8
외형선
  6
Continuous
370
    15
100
AcDbSpline
210
0.0
220
0.0
230
1.0
 70
     8
 71
     3
 72
     9
 73
     5
 74
     0
 42
0.000000001
 43
0.00000001
 40
0.0
 40
0.0
 40
0.0
 40
0.0
 40
0.5621320813302325
 40
1.0
 40
1.0
 40
1.0
 40
1.0
 10
8.103820369578898
 20
-4.596716258674864
 30
0.0
 10
8.147894140088015
 20
-4.578378633189724
 30
0.0
 10
8.22629879261171
 20
-4.545757073072136
 30
0.0
 10
8.302070621330945
 20
-4.580609749075466
 30
0.0
 10
8.33524867426604
 20
-4.595870617777114
 30
0.0
  0
SPLINE
  5
9D
330
1F
100
AcDbEntity
  8
외형선
  6
Continuous
370
    15
100
AcDbSpline
210
0.0
220
0.0
230
1.0
 70
     8
 71
     3
 72
     9
 73
     5
 74
     0
 42
0.000000001
 43
0.00000001
 40
0.0
 40
0.0
 40
0.0
 40
0.0
 40
0.4378781001954438
 40
1.0
 40
1.0
 40
1.0
 40
1.0
 10
7.085249633528291
 20
4.59587154909968
 30
0.0
 10
7.052071660658712
 20
4.580610016603385
 30
0.0
 10
6.976301776632149
 20
4.545756635058426
 30
0.0
 10
6.897893081212168
 20
4.57837988057336
 30
0.0
 10
6.853817836381494
 20
4.596718121320005
 30
0.0
  0
SPLINE
  5
9E
330
1F
100
AcDbEntity
  8
외형선
  6
Continuous
370
    15
100
AcDbSpline
210
0.0
220
0.0
230
1.0
 70
     8
 71
     3
 72
    11
 73
     7
 74
     0
 42
0.000000001
 43
0.00000001
 40
0.0
 40
0.0
 40
0.0
 40
0.0
 40
0.2449057667706276
 40
0.4998573097181955
 40
0.7548818702659428
 40
1.0
 40
1.0
 40
1.0
 40
1.0
 10
8.34153801202774
 20
-4.599320236593489
 30
0.0
 10
8.42721655009839
 20
-4.6447386101837
 30
0.0
 10
8.602088069480343
 20
-4.737438371132334
 30
0.0
 10
8.901387438712772
 20
-4.775469069853384
 30
0.0
 10
9.20072103118148
 20
-4.736316727287626
 30
0.0
 10
9.375611456500042
 20
-4.6429177648888
 30
0.0
 10
9.461324623553082
 20
-4.597143270075326
 30
0.0
  0
SPLINE
  5
9F
330
1F
100
AcDbEntity
  8
외형선
  6
Continuous
370
    15
100
AcDbSpline
210
0.0
220
0.0
230
1.0
 70
     8
 71
     3
 72
    11
 73
     7
 74
     0
 42
0.000000001
 43
0.00000001
 40
0.0
 40
0.0
 40
0.0
 40
0.0
 40
0.2453288400879058
 40
0.5002487528046001
 40
0.7550416589785229
 40
1.0
 40
1.0
 40
1.0
 40
1.0
 10
8.21380979847163
 20
4.595635924488302
 30
0.0
 10
8.127357292482017
 20
4.641979229995869
 30
0.0
 10
7.951072440351954
 20
4.736477621512723
 30
0.0
 10
7.649353452470084
 20
4.775745695332771
 30
0.0
 10
7.347691592856792
 20
4.736549523505584
 30
0.0
 10
7.171427139100355
 20
4.642049637519753
 30
0.0
 10
7.085029259324073
 20
4.59572952240705
 30
0.0
  0
LINE
  5
A0
330
1F
100
AcDbEntity
  8
외형선
  6
Continuous
370
    15
100
AcDbLine
 10
8.480821202974766
 20
4.587789997458454
 30
0.0
 11
8.406574362888932
 21
4.548959899693723
 31
0.0
  0
SPLINE
  5
A1
330
1F
100
AcDbEntity
  8
외형선
  6
Continuous
370
    15
100
AcDbSpline
210
0.0
220
0.0
230
1.0
 70
     8
 71
     3
 72
     9
 73
     5
 74
     0
 42
0.000000001
 43
0.00000001
 40
0.0
 40
0.0
 40
0.0
 40
0.0
 40
0.4832745853780607
 40
1.0
 40
1.0
 40
1.0
 40
1.0
 10
8.445370933040977
 20
4.597038496285673
 30
0.0
 10
8.408038836956473
 20
4.580262685982099
 30
0.0
 10
8.330790628145122
 20
4.545549893687321
 30
0.0
 10
8.253496457513922
 20
4.578678906218704
 30
0.0
 10
8.213556595146656
 20
4.595797508954997
 30
0.0
  0
LINE
  5
A2
330
1F
100
AcDbEntity
  8
0
  6
Continuous
 62
     1
370
    15
100
AcDbLine
 10
15.5218922207132
 20
-4.643677733838563
 30
0.0
 11
15.60387049335986
 21
-4.596683196723466
 31
0.0
  0
SPLINE
  5
A3
330
1F
100
AcDbEntity
  8
0
  6
Continuous
 62
     1
370
    15
100
AcDbSpline
210
0.0
220
0.0
230
1.0
 70
     8
 71
     3
 72
    11
 73
     7
 74
     0
 42
0.000000001
 43
0.00000001
 40
0.0
 40
0.0
 40
0.0
 40
0.0
 40
0.087806666466916
 40
0.3959996069414882
 40
0.7042119565686846
 40
1.0
 40
1.0
 40
1.0
 40
1.0
 10
26.04788389522582
 20
-4.683018196374182
 30
0.0
 10
26.07327102833899
 20
-4.695178459674787
 30
0.0
 10
26.18776455301888
 20
-4.750020075705836
 30
0.0
 10
26.41940722101424
 20
-4.767140075985606
 30
0.0
 10
26.71387658248546
 20
-4.729664672127387
 30
0.0
 10
26.88665046590577
 20
-4.635963965730221
 30
0.0
 10
26.97126042563468
 20
-4.590077325701718
 30
0.0
  0
SPLINE
  5
A4
330
1F
100
AcDbEntity
  8
0
  6
Continuous
 62
     1
370
    15
100
AcDbSpline
210
0.0
220
0.0
230
1.0
 70
     8
 71
     3
 72
     9
 73
     5
 74
     0
 42
0.000000001
 43
0.00000001
 40
0.0
 40
0.0
 40
0.0
 40
0.0
 40
0.1710941313606583
 40
1.0
 40
1.0
 40
1.0
 40
1.0
 10
27.05273624975234
 20
4.573237150907512
 30
0.0
 10
27.05267871614605
 20
4.573443900141335
 30
0.0
 10
27.05234244741587
 20
4.57465229479624
 30
0.0
 10
27.05179393284077
 20
4.574668081154472
 30
0.0
 10
27.05133926589042
 20
4.574681166559454
 30
0.0
  0
SPLINE
  5
A5
330
1F
100
AcDbEntity
  8
0
  6
Continuous
 62
     1
370
    15
100
AcDbSpline
210
0.0
220
0.0
230
1.0
 70
     8
 71
     3
 72
     9
 73
     5
 74
     0
 42
0.000000001
 43
0.00000001
 40
0.0
 40
0.0
 40
0.0
 40
0.0
 40
0.5299995425510112
 40
1.0
 40
1.0
 40
1.0
 40
1.0
 10
25.6359599204734
 20
-4.571282304823403
 30
0.0
 10
25.63639603585823
 20
-4.572580368515113
 30
0.0
 10
25.63721889578513
 20
-4.575029547405843
 30
0.0
 10
25.63868885531562
 20
-4.57506054644564
 30
0.0
 10
25.63937973696738
 20
-4.575075116008525
 30
0.0
  0
SPLINE
  5
A6
330
1F
100
AcDbEntity
  8
0
  6
Continuous
 62
     1
370
    15
100
AcDbSpline
210
0.0
220
0.0
230
1.0
 70
     8
 71
     3
 72
     9
 73
     5
 74
     0
 42
0.000000001
 43
0.00000001
 40
0.0
 40
0.0
 40
0.0
 40
0.0
 40
0.5005170775480647
 40
1.0
 40
1.0
 40
1.0
 40
1.0
 10
16.36787863913924
 20
4.747700411826368
 30
0.0
 10
16.29006004470693
 20
4.732641759213363
 30
0.0
 10
16.13458364255595
 20
4.702555567775553
 30
0.0
 10
15.99708085091057
 20
4.62192795632059
 30
0.0
 10
15.92840055469424
 20
4.581655841320749
 30
0.0
  0
SPLINE
  5
A7
330
1F
100
AcDbEntity
  8
0
  6
Continuous
 62
     1
370
    15
100
AcDbSpline
210
0.0
220
0.0
230
1.0
 70
     8
 71
     3
 72
    11
 73
     7
 74
     0
 42
0.000000001
 43
0.00000001
 40
0.0
 40
0.0
 40
0.0
 40
0.0
 40
0.2448404063732208
 40
0.4999521807241707
 40
0.7550883781328532
 40
0.9999999999999999
 40
0.9999999999999999
 40
0.9999999999999999
 40
0.9999999999999999
 10
15.8561033802107
 20
-4.602883942425255
 30
0.0
 10
15.94085732098458
 20
-4.647144856071394
 30
0.0
 10
16.11392073867177
 20
-4.737523485260972
 30
0.0
 10
16.4102594807655
 20
-4.773541698047497
 30
0.0
 10
16.70661078574021
 20
-4.733627931388209
 30
0.0
 10
16.87968563531383
 20
-4.640720944681922
 30
0.0
 10
16.96445361245424
 20
-4.595217294991022
 30
0.0
  0
SPLINE
  5
A8
330
1F
100
AcDbEntity
  8
0
  6
Continuous
 62
     1
370
    15
100
AcDbSpline
210
0.0
220
0.0
230
1.0
 70
     8
 71
     3
 72
     9
 73
     5
 74
     0
 42
0.000000001
 43
0.00000001
 40
0.0
 40
0.0
 40
0.0
 40
0.0
 40
0.8447306024412583
 40
1.0
 40
1.0
 40
1.0
 40
1.0
 10
15.60387095902115
 20
-4.596683196723466
 30
0.0
 10
15.62000051633227
 20
-4.585862047317492
 30
0.0
 10
15.63909483736728
 20
-4.573051869285938
 30
0.0
 10
15.66845823255387
 20
-4.569878810922065
 30
0.0
 10
15.67301746923476
 20
-4.569386132061486
 30
0.0
  0
SPLINE
  5
A9
330
1F
100
AcDbEntity
  8
0
  6
Continuous
 62
     1
370
    15
100
AcDbSpline
210
0.0
220
0.0
230
1.0
 70
     8
 71
     3
 72
     9
 73
     5
 74
     0
 42
0.000000001
 43
0.00000001
 40
0.0
 40
0.0
 40
0.0
 40
0.0
 40
0.500596228542051
 40
1.0
 40
1.0
 40
1.0
 40
1.0
 10
26.37718651909381
 20
4.755207803100343
 30
0.0
 10
26.29920455910286
 20
4.740393368007346
 30
0.0
 10
26.14342639789284
 20
4.710799786896789
 30
0.0
 10
26.00555200842198
 20
4.630403225820682
 30
0.0
 10
25.93669701833278
 20
4.590252880007024
 30
0.0
  0
SPLINE
  5
AA
330
1F
100
AcDbEntity
  8
0
  6
Continuous
 62
     1
370
    15
100
AcDbSpline
210
0.0
220
0.0
230
1.0
 70
     8
 71
     3
 72
    11
 73
     7
 74
     0
 42
0.000000001
 43
0.00000001
 40
0.0
 40
0.0
 40
0.0
 40
0.0
 40
0.2449896949938654
 40
0.50009327822623
 40
0.7551488960758281
 40
1.0
 40
1.0
 40
1.0
 40
1.0
 10
15.70133945439011
 20
4.601439926773305
 30
0.0
 10
15.61623318506555
 20
4.646283419259586
 30
0.0
 10
15.44250721171313
 20
4.737821674226347
 30
0.0
 10
15.14510090296876
 20
4.775135990424959
 30
0.0
 10
14.84771820023236
 20
4.736103381131879
 30
0.0
 10
14.67401018995743
 20
4.643424081145402
 30
0.0
 10
14.58892912138253
 20
4.598030354827639
 30
0.0
  0
SPLINE
  5
AB
330
1F
100
AcDbEntity
  8
0
  6
Continuous
 62
     1
370
    15
100
AcDbSpline
210
0.0
220
0.0
230
1.0
 70
     8
 71
     3
 72
     9
 73
     5
 74
     0
 42
0.000000001
 43
0.00000001
 40
0.0
 40
0.0
 40
0.0
 40
0.0
 40
0.4991854296823843
 40
1.0
 40
1.0
 40
1.0
 40
1.0
 10
15.93494775239378
 20
4.588613286614414
 30
0.0
 10
15.90594015366433
 20
4.576743753332519
 30
0.0
 10
15.84783028706044
 20
4.552965949382093
 30
0.0
 10
15.7821016716426
 20
4.569152571330171
 30
0.0
 10
15.74918382335454
 20
4.577259067445989
 30
0.0
  0
SPLINE
  5
AC
330
1F
100
AcDbEntity
  8
0
  6
Continuous
 62
     1
370
    15
100
AcDbSpline
210
0.0
220
0.0
230
1.0
 70
     8
 71
     3
 72
    11
 73
     7
 74
     0
 42
0.000000001
 43
0.00000001
 40
0.0
 40
0.0
 40
0.0
 40
0.0
 40
0.2476301696683789
 40
0.4998308142266256
 40
0.7521050250534885
 40
1.0
 40
1.0
 40
1.0
 40
1.0
 10
25.94230171758682
 20
4.594892729073758
 30
0.0
 10
25.92330230802017
 20
4.584714592330529
 30
0.0
 10
25.88495281948153
 20
4.564170462419009
 30
0.0
 10
25.81539125407568
 20
4.556272541171001
 30
0.0
 10
25.74573721087678
 20
4.567966332514301
 30
0.0
 10
25.70721800063836
 20
4.591234727347445
 30
0.0
 10
25.68812702316791
 20
4.602767061442133
 30
0.0
  0
SPLINE
  5
AD
330
1F
100
AcDbEntity
  8
0
  6
Continuous
 62
     1
370
    15
100
AcDbSpline
210
0.0
220
0.0
230
1.0
 70
     8
 71
     3
 72
    11
 73
     7
 74
     0
 42
0.000000001
 43
0.00000001
 40
0.0
 40
0.0
 40
0.0
 40
0.0
 40
0.245143886004884
 40
0.5001591726498567
 40
0.7550932334602647
 40
1.0
 40
1.0
 40
1.0
 40
1.0
 10
25.70905384141952
 20
4.598367959260936
 30
0.0
 10
25.62326593359757
 20
4.643982813779154
 30
0.0
 10
25.44823562915536
 20
4.737049331848143
 30
0.0
 10
25.14866473224303
 20
4.775547712241519
 30
0.0
 10
24.84913182083977
 20
4.736742739738727
 30
0.0
 10
24.67412162655442
 20
4.643443067100376
 30
0.0
 10
24.5883719669655
 20
4.59772907197475
 30
0.0
  0
SPLINE
  5
AE
330
1F
100
AcDbEntity
  8
0
  6
Continuous
 62
     1
370
    15
100
AcDbSpline
210
0.0
220
0.0
230
1.0
 70
     8
 71
     3
 72
    11
 73
     7
 74
     0
 42
0.000000001
 43
0.00000001
 40
0.0
 40
0.0
 40
0.0
 40
0.0
 40
0.2482186515277637
 40
0.5001357146796187
 40
0.7519902419800738
 40
1.0
 40
1.0
 40
1.0
 40
1.0
 10
26.96283195633441
 20
-4.596249666064982
 30
0.0
 10
26.98167456162344
 20
-4.586177964726151
 30
0.0
 10
27.01964052350684
 20
-4.565884495576544
 30
0.0
 10
27.08870750747936
 20
-4.558096044539699
 30
0.0
 10
27.15767743346728
 20
-4.569830936972991
 30
0.0
 10
27.19546323616985
 20
-4.592773841998019
 30
0.0
 10
27.21421082038432
 20
-4.604157060384755
 30
0.0
  0
SPLINE
  5
AF
330
1F
100
AcDbEntity
  8
0
  6
Continuous
 62
     1
370
    15
100
AcDbSpline
210
0.0
220
0.0
230
1.0
 70
     8
 71
     3
 72
     9
 73
     5
 74
     0
 42
0.000000001
 43
0.00000001
 40
0.0
 40
0.0
 40
0.0
 40
0.0
 40
0.4993128963160797
 40
1.0
 40
1.0
 40
1.0
 40
1.0
 10
27.20684219617397
 20
-4.602603614330296
 30
0.0
 10
27.27590242288982
 20
-4.641999729379591
 30
0.0
 10
27.41421294365824
 20
-4.72090038534093
 30
0.0
 10
27.57034741229725
 20
-4.748615528074333
 30
0.0
 10
27.64852192718536
 20
-4.762492142617707
 30
0.0
  0
SPLINE
  5
B0
330
1F
100
AcDbEntity
  8
0
  6
Continuous
 62
     1
370
    15
100
AcDbSpline
210
0.0
220
0.0
230
1.0
 70
     8
 71
     3
 72
     9
 73
     5
 74
     0
 42
0.000000001
 43
0.00000001
 40
0.0
 40
0.0
 40
0.0
 40
0.0
 40
0.50028267676071
 40
0.9999999999999999
 40
0.9999999999999999
 40
0.9999999999999999
 40
0.9999999999999999
 10
16.95985287893564
 20
-4.597953986376528
 30
0.0
 10
17.00083744928956
 20
-4.579810774385892
 30
0.0
 10
17.08276027463963
 20
-4.543544853470717
 30
0.0
 10
17.16451363455197
 20
-4.582591305578458
 30
0.0
 10
17.20536720473319
 20
-4.602103494107728
 30
0.0
  0
SPLINE
  5
B1
330
1F
100
AcDbEntity
  8
0
  6
Continuous
 62
     1
370
    15
100
AcDbSpline
210
0.0
220
0.0
230
1.0
 70
     8
 71
     3
 72
     9
 73
     5
 74
     0
 42
0.000000001
 43
0.00000001
 40
0.0
 40
0.0
 40
0.0
 40
0.0
 40
0.4991157944587059
 40
1.0
 40
1.0
 40
1.0
 40
1.0
 10
17.19901092816144
 20
-4.599221982061867
 30
0.0
 10
17.26844682494089
 20
-4.639158099324078
 30
0.0
 10
17.40756463597862
 20
-4.719171831018386
 30
0.0
 10
17.56433684748362
 20
-4.747634481714348
 30
0.0
 10
17.64286157209426
 20
-4.761890973895793
 30
0.0
  0
SPLINE
  5
B2
330
1F
100
AcDbEntity
  8
0
  6
Continuous
 62
     1
370
    15
100
AcDbSpline
210
0.0
220
0.0
230
1.0
 70
     8
 71
     3
 72
     9
 73
     5
 74
     0
 42
0.000000001
 43
0.00000001
 40
0.0
 40
0.0
 40
0.0
 40
0.0
 40
0.4966649295074231
 40
1.0
 40
1.0
 40
1.0
 40
1.0
 10
27.64956314582378
 20
-4.762498661875729
 30
0.0
 10
27.72987921395247
 20
-4.74833271991342
 30
0.0
 10
27.89158998384384
 20
-4.719810589356792
 30
0.0
 10
28.03442269077227
 20
-4.636780573954476
 30
0.0
 10
28.10631540138274
 20
-4.594988655298953
 30
0.0
  0
SPLINE
  5
B3
330
1F
100
AcDbEntity
  8
0
  6
Continuous
 62
     1
370
    15
100
AcDbSpline
210
0.0
220
0.0
230
1.0
 70
     8
 71
     3
 72
     9
 73
     5
 74
     0
 42
0.000000001
 43
0.00000001
 40
0.0
 40
0.0
 40
0.0
 40
0.0
 40
0.4855549670579282
 40
0.9999999999999999
 40
0.9999999999999999
 40
0.9999999999999999
 40
0.9999999999999999
 10
14.58515167701989
 20
4.595808219164605
 30
0.0
 10
14.5546540534202
 20
4.579544895245865
 30
0.0
 10
14.4918442261735
 20
4.546050594863599
 30
0.0
 10
14.39873694576443
 20
4.580717002782846
 30
0.0
 10
14.35083836782724
 20
4.598550964146848
 30
0.0
  0
SPLINE
  5
B4
330
1F
100
AcDbEntity
  8
0
  6
Continuous
 62
     1
370
    15
100
AcDbSpline
210
0.0
220
0.0
230
1.0
 70
     8
 71
     3
 72
     9
 73
     5
 74
     0
 42
0.000000001
 43
0.00000001
 40
0.0
 40
0.0
 40
0.0
 40
0.0
 40
0.4988513240357191
 40
1.0
 40
1.0
 40
1.0
 40
1.0
 10
14.35560999903828
 20
4.595495294779535
 30
0.0
 10
14.28536163241362
 20
4.636231426683352
 30
0.0
 10
14.14454138549848
 20
4.717891291939923
 30
0.0
 10
13.98636480824809
 20
4.747002196666774
 30
0.0
 10
13.9070948259905
 20
4.761591088026758
 30
0.0
  0
SPLINE
  5
B5
330
1F
100
AcDbEntity
  8
0
  6
Continuous
 62
     1
370
    15
100
AcDbSpline
210
0.0
220
0.0
230
1.0
 70
     8
 71
     3
 72
     9
 73
     5
 74
     0
 42
0.000000001
 43
0.00000001
 40
0.0
 40
0.0
 40
0.0
 40
0.0
 40
0.5012206140075287
 40
1.0
 40
1.0
 40
1.0
 40
1.0
 10
17.65556481201202
 20
-4.761910997331147
 30
0.0
 10
17.7349923946578
 20
-4.747400436398322
 30
0.0
 10
17.89346070267635
 20
-4.718449989175482
 30
0.0
 10
18.03464192078679
 20
-4.636669758556187
 30
0.0
 10
18.10506020206958
 20
-4.595879465341572
 30
0.0
  0
SPLINE
  5
B6
330
1F
100
AcDbEntity
  8
0
  6
Continuous
 62
     1
370
    15
100
AcDbSpline
210
0.0
220
0.0
230
1.0
 70
     8
 71
     3
 72
     9
 73
     5
 74
     0
 42
0.000000001
 43
0.00000001
 40
0.0
 40
0.0
 40
0.0
 40
0.0
 40
0.4686887252724042
 40
1.0
 40
1.0
 40
1.0
 40
1.0
 10
24.58522689063102
 20
4.595857113599773
 30
0.0
 10
24.54790865373112
 20
4.579915502222192
 30
0.0
 10
24.46828600678521
 20
4.545902285095375
 30
0.0
 10
24.39519436775812
 20
4.577936729068733
 30
0.0
 10
24.35635995585471
 20
4.594956990331407
 30
0.0
  0
SPLINE
  5
B7
330
1F
100
AcDbEntity
  8
0
  6
Continuous
 62
     1
370
    15
100
AcDbSpline
210
0.0
220
0.0
230
1.0
 70
     8
 71
     3
 72
     9
 73
     5
 74
     0
 42
0.000000001
 43
0.00000001
 40
0.0
 40
0.0
 40
0.0
 40
0.0
 40
0.5053012805347633
 40
1.0
 40
1.0
 40
1.0
 40
1.0
 10
28.10382318217307
 20
-4.596713930368428
 30
0.0
 10
28.14407097542781
 20
-4.579750047453304
 30
0.0
 10
28.2237220564861
 20
-4.546178228879699
 30
0.0
 10
28.29619764756432
 20
-4.577951949360223
 30
0.0
 10
28.33205122966319
 20
-4.593670368194585
 30
0.0
  0
SPLINE
  5
B8
330
1F
100
AcDbEntity
  8
0
  6
Continuous
 62
     1
370
    15
100
AcDbSpline
210
0.0
220
0.0
230
1.0
 70
     8
 71
     3
 72
    11
 73
     7
 74
     0
 42
0.000000001
 43
0.00000001
 40
0.0
 40
0.0
 40
0.0
 40
0.0
 40
0.2449459184046263
 40
0.4997912418187139
 40
0.7547427903149044
 40
1.0
 40
1.0
 40
1.0
 40
1.0
 10
28.33788875956088
 20
-4.597460385411982
 30
0.0
 10
28.42406677542124
 20
-4.643391801728519
 30
0.0
 10
28.59990566200015
 20
-4.737110936747594
 30
0.0
 10
28.90083898702509
 20
-4.775640789908523
 30
0.0
 10
29.2018206643893
 20
-4.736131667975152
 30
0.0
 10
29.37767918075778
 20
-4.641817885778701
 30
0.0
 10
29.46390431839973
 20
-4.595574922859673
 30
0.0
  0
SPLINE
  5
B9
330
1F
100
AcDbEntity
  8
0
  6
Continuous
 62
     1
370
    15
100
AcDbSpline
210
0.0
220
0.0
230
1.0
 70
     8
 71
     3
 72
     9
 73
     5
 74
     0
 42
0.000000001
 43
0.00000001
 40
0.0
 40
0.0
 40
0.0
 40
0.0
 40
0.5126622350587237
 40
1.0
 40
1.0
 40
1.0
 40
1.0
 10
24.35790036339313
 20
4.593800753355022
 30
0.0
 10
24.28634645471102
 20
4.635871251367803
 30
0.0
 10
24.14677325468017
 20
4.717934050489258
 30
0.0
 10
23.98152452402236
 20
4.747867604209318
 30
0.0
 10
23.9009925769642
 20
4.762455355376002
 30
0.0
  0
SPLINE
  5
BA
330
1F
100
AcDbEntity
  8
0
  6
Continuous
 62
     1
370
    15
100
AcDbSpline
210
0.0
220
0.0
230
1.0
 70
     8
 71
     3
 72
     9
 73
     5
 74
     0
 42
0.000000001
 43
0.00000001
 40
0.0
 40
0.0
 40
0.0
 40
0.0
 40
0.501320202622498
 40
1.0
 40
1.0
 40
1.0
 40
1.0
 10
13.89352638740093
 20
4.762011580169196
 30
0.0
 10
13.81426804609082
 20
4.747598309960008
 30
0.0
 10
13.65616880952408
 20
4.718847682848251
 30
0.0
 10
13.51534733285336
 20
4.637460962424143
 30
0.0
 10
13.44512250740081
 20
4.596875049173828
 30
0.0
  0
SPLINE
  5
BC
330
1F
100
AcDbEntity
  8
0
  6
Continuous
 62
     1
370
    15
100
AcDbSpline
210
0.0
220
0.0
230
1.0
 70
     8
 71
     3
 72
     9
 73
     5
 74
     0
 42
0.000000001
 43
0.00000001
 40
0.0
 40
0.0
 40
0.0
 40
0.0
 40
0.5488553290889052
 40
1.0
 40
1.0
 40
1.0
 40
1.0
 10
18.10389604885131
 20
-4.596666432917123
 30
0.0
 10
18.14850440168643
 20
-4.578883829187284
 30
0.0
 10
18.22977964940821
 20
-4.546484392054447
 30
0.0
 10
18.30073955556728
 20
-4.579351189708698
 30
0.0
 10
18.3327527390793
 20
-4.594178870320325
 30
0.0
  0
SPLINE
  5
BE
330
1F
100
AcDbEntity
  8
0
  6
Continuous
 62
     1
370
    15
100
AcDbSpline
210
0.0
220
0.0
230
1.0
 70
     8
 71
     3
 72
    11
 73
     7
 74
     0
 42
0.000000001
 43
0.00000001
 40
0.0
 40
0.0
 40
0.0
 40
0.0
 40
0.2851583903010534
 40
0.5541880985458829
 40
0.7942801971232284
 40
0.9999999999999999
 40
0.9999999999999999
 40
0.9999999999999999
 40
0.9999999999999999
 10
18.33509222138673
 20
-4.595770034939055
 30
0.0
 10
18.43896631585159
 20
-4.649353615867493
 30
0.0
 10
18.64083934101097
 20
-4.753490067180249
 30
0.0
 10
18.96445297944457
 20
-4.773804226054522
 30
0.0
 10
19.2446796076722
 20
-4.717794721265023
 30
0.0
 10
19.39525442725613
 20
-4.633792140199962
 30
0.0
 10
19.46473714429885
 20
-4.595029167830949
 30
0.0
  0
SPLINE
  5
C0
330
1F
100
AcDbEntity
  8
0
  6
Continuous
 62
     1
370
    15
100
AcDbSpline
210
0.0
220
0.0
230
1.0
 70
     8
 71
     3
 72
     9
 73
     5
 74
     0
 42
0.000000001
 43
0.00000001
 40
0.0
 40
0.0
 40
0.0
 40
0.0
 40
0.5014682664755854
 40
1.0
 40
1.0
 40
1.0
 40
1.0
 10
23.89692642260343
 20
4.762419033795591
 30
0.0
 10
23.81741648955598
 20
4.74824595028851
 30
0.0
 10
23.65886222328854
 20
4.719982779008117
 30
0.0
 10
23.5174567578054
 20
4.638608339679188
 30
0.0
 10
23.44696164596826
 20
4.59804059937596
 30
0.0
  0
SPLINE
  5
C1
330
1F
100
AcDbEntity
  8
0
  6
Continuous
 62
     1
370
    15
100
AcDbSpline
210
0.0
220
0.0
230
1.0
 70
     8
 71
     3
 72
     9
 73
     5
 74
     0
 42
0.000000001
 43
0.00000001
 40
0.0
 40
0.0
 40
0.0
 40
0.0
 40
0.4993442756000461
 40
1.0
 40
1.0
 40
1.0
 40
1.0
 10
13.44511645380408
 20
4.596870858222242
 30
0.0
 10
13.40659317344898
 20
4.579808942903543
 30
0.0
 10
13.32944543743296
 20
4.545640301842834
 30
0.0
 10
13.25244401178854
 20
4.578920778135079
 30
0.0
 10
13.21389280725271
 20
4.595582839101549
 30
0.0
  0
SPLINE
  5
C2
330
1F
100
AcDbEntity
  8
0
  6
Continuous
 62
     1
370
    15
100
AcDbSpline
210
0.0
220
0.0
230
1.0
 70
     8
 71
     3
 72
    11
 73
     7
 74
     0
 42
0.000000001
 43
0.00000001
 40
0.0
 40
0.0
 40
0.0
 40
0.0
 40
0.2875134676336181
 40
0.5572950889464303
 40
0.7966546614809427
 40
1.0
 40
1.0
 40
1.0
 40
1.0
 10
13.21592635009438
 20
4.594215657562014
 30
0.0
 10
13.11175181821643
 20
4.64828586370689
 30
0.0
 10
12.90982752059414
 20
4.753091598863824
 30
0.0
 10
12.58497669398881
 20
4.774002350335325
 30
0.0
 10
12.30353095153228
 20
4.717840684145102
 30
0.0
 10
12.15093436394266
 20
4.632129343551528
 30
0.0
 10
12.08084296900779
 20
4.592760000377889
 30
0.0
  0
SPLINE
  5
C3
330
1F
100
AcDbEntity
  8
0
  6
Continuous
 62
     1
370
    15
100
AcDbSpline
210
0.0
220
0.0
230
1.0
 70
     8
 71
     3
 72
     9
 73
     5
 74
     0
 42
0.000000001
 43
0.00000001
 40
0.0
 40
0.0
 40
0.0
 40
0.0
 40
0.474103494450035
 40
1.0
 40
1.0
 40
1.0
 40
1.0
 10
34.38399995250256
 20
4.762500058859582
 30
0.0
 10
33.81961551674539
 20
4.748579037365598
 30
0.0
 10
33.65573712421409
 20
4.719335050260415
 30
0.0
 10
33.51525278090913
 20
4.637320050817211
 30
0.0
 10
33.44137255568057
 20
4.594188649207349
 30
0.0
  0
SPLINE
  5
C4
330
1F
100
AcDbEntity
  8
0
  6
Continuous
 62
     1
370
    15
100
AcDbSpline
210
0.0
220
0.0
230
1.0
 70
     8
 71
     3
 72
     9
 73
     5
 74
     0
 42
0.000000001
 43
0.00000001
 40
0.0
 40
0.0
 40
0.0
 40
0.0
 40
0.4577417056947357
 40
1.0
 40
1.0
 40
1.0
 40
1.0
 10
23.44173599500209
 20
4.594466648995872
 30
0.0
 10
23.4104870938309
 20
4.579530888180429
 30
0.0
 10
23.34221955171616
 20
4.546901655078818
 30
0.0
 10
23.25902505006843
 20
4.578458373786496
 30
0.0
 10
23.21391214150935
 20
4.595570266246791
 30
0.0
  0
SPLINE
  5
C5
330
1F
100
AcDbEntity
  8
0
  6
Continuous
 62
     1
370
    15
100
AcDbSpline
210
0.0
220
0.0
230
1.0
 70
     8
 71
     3
 72
    11
 73
     7
 74
     0
 42
0.000000001
 43
0.00000001
 40
0.0
 40
0.0
 40
0.0
 40
0.0
 40
0.2085388592906343
 40
0.4493804718068074
 40
0.7173606928063914
 40
1.0
 40
1.0
 40
1.0
 40
1.0
 10
23.21639039088041
 20
4.593886900693174
 30
0.0
 10
23.14669504806616
 20
4.632979265390898
 30
0.0
 10
22.99650852578853
 20
4.717219417809797
 30
0.0
 10
22.71514861990499
 20
4.773847098082006
 30
0.0
 10
22.39081810114161
 20
4.75352431253716
 30
0.0
 10
22.18810573163472
 20
4.648825094664309
 30
0.0
 10
22.08405115175992
 20
4.595081787556405
 30
0.0
  0
SPLINE
  5
C6
330
1F
100
AcDbEntity
  8
0
  6
Continuous
 62
     1
370
    15
100
AcDbSpline
210
0.0
220
0.0
230
1.0
 70
     8
 71
     3
 72
     9
 73
     5
 74
     0
 42
0.000000001
 43
0.00000001
 40
0.0
 40
0.0
 40
0.0
 40
0.0
 40
0.4924916693829337
 40
1.0
 40
1.0
 40
1.0
 40
1.0
 10
29.46721237618476
 20
-4.593290854245429
 30
0.0
 10
29.50161961735508
 20
-4.577777797449286
 30
0.0
 10
29.57148321771489
 20
-4.546278672163411
 30
0.0
 10
29.65358991448508
 20
-4.579901823645899
 30
0.0
 10
29.69525974709541
 20
-4.596965853124861
 30
0.0
  0
SPLINE
  5
C7
330
1F
100
AcDbEntity
  8
0
  6
Continuous
 62
     1
370
    15
100
AcDbSpline
210
0.0
220
0.0
230
1.0
 70
     8
 71
     3
 72
     9
 73
     5
 74
     0
 42
0.000000001
 43
0.00000001
 40
0.0
 40
0.0
 40
0.0
 40
0.0
 40
0.5343681018586962
 40
1.0
 40
1.0
 40
1.0
 40
1.0
 10
33.44290923792869
 20
4.595340229570861
 30
0.0
 10
33.40250485356885
 20
4.578141314156218
 30
0.0
 10
33.32689333368339
 20
4.545955793810185
 30
0.0
 10
33.24974770283863
 20
4.579845535288101
 30
0.0
 10
33.21382623631507
 20
4.595625679939981
 30
0.0
  0
SPLINE
  5
C8
330
1F
100
AcDbEntity
  8
0
  6
Continuous
 62
     1
370
    15
100
AcDbSpline
210
0.0
220
0.0
230
1.0
 70
     8
 71
     3
 72
     9
 73
     5
 74
     0
 42
0.000000001
 43
0.00000001
 40
0.0
 40
0.0
 40
0.0
 40
0.0
 40
0.5266441481892777
 40
1.0
 40
1.0
 40
1.0
 40
1.0
 10
29.69275076407939
 20
-4.595223814249043
 30
0.0
 10
29.76861490060076
 20
-4.638896357195213
 30
0.0
 10
29.9126668886124
 20
-4.721822452731118
 30
0.0
 10
30.07291230607669
 20
-4.749428737246965
 30
0.0
 10
30.14876541215926
 20
-4.762496333569293
 30
0.0
  0
SPLINE
  5
C9
330
1F
100
AcDbEntity
  8
0
  6
Continuous
 62
     1
370
    15
100
AcDbSpline
210
0.0
220
0.0
230
1.0
 70
     8
 71
     3
 72
    11
 73
     7
 74
     0
 42
0.000000001
 43
0.00000001
 40
0.0
 40
0.0
 40
0.0
 40
0.0
 40
0.2451253715208769
 40
0.5001487587421714
 40
0.7550943019754496
 40
1.0
 40
1.0
 40
1.0
 40
1.0
 10
33.21016241330653
 20
4.597788676619525
 30
0.0
 10
33.1244300658634
 20
4.643475280455911
 30
0.0
 10
32.94950355013109
 20
4.736693285830628
 30
0.0
 10
32.65010824916168
 20
4.77552935952759
 30
0.0
 10
32.35074889710491
 20
4.737150314362001
 30
0.0
 10
32.17584163731861
 20
4.644198574645284
 30
0.0
 10
32.09014457184821
 20
4.59865620359778
 30
0.0
  0
SPLINE
  5
CA
330
1F
100
AcDbEntity
  8
0
  6
Continuous
 62
     1
370
    15
100
AcDbSpline
210
0.0
220
0.0
230
1.0
 70
     8
 71
     3
 72
     9
 73
     5
 74
     0
 42
0.000000001
 43
0.00000001
 40
0.0
 40
0.0
 40
0.0
 40
0.0
 40
0.5204551209179892
 40
1.0
 40
1.0
 40
1.0
 40
1.0
 10
19.46235668379813
 20
-4.596538376063113
 30
0.0
 10
19.50984468484057
 20
-4.579396744060919
 30
0.0
 10
19.60108790473374
 20
-4.546460893661447
 30
0.0
 10
19.664727180601
 20
-4.580589439289899
 30
0.0
 10
19.69524506945163
 20
-4.596955608576541
 30
0.0
  0
SPLINE
  5
CB
330
1F
100
AcDbEntity
  8
0
  6
Continuous
 62
     1
370
    15
100
AcDbSpline
210
0.0
220
0.0
230
1.0
 70
     8
 71
     3
 72
     9
 73
     5
 74
     0
 42
0.000000001
 43
0.00000001
 40
0.0
 40
0.0
 40
0.0
 40
0.0
 40
0.498572048792052
 40
1.0
 40
1.0
 40
1.0
 40
1.0
 10
19.69821040052921
 20
-4.59877541288734
 30
0.0
 10
19.76863947587688
 20
-4.639206089325163
 30
0.0
 10
19.90990105585978
 20
-4.720299035742394
 30
0.0
 10
20.06834507500676
 20
-4.748384893911243
 30
0.0
 10
20.14779333490878
 20
-4.762467928230767
 30
0.0
  0
SPLINE
  5
CC
330
1F
100
AcDbEntity
  8
외형선
  6
Continuous
370
    15
100
AcDbSpline
210
0.0
220
0.0
230
1.0
 70
     8
 71
     3
 72
     9
 73
     5
 74
     0
 42
0.000000001
 43
0.00000001
 40
0.0
 40
0.0
 40
0.0
 40
0.0
 40
0.5003636488271073
 40
1.0
 40
1.0
 40
1.0
 40
1.0
 10
9.455180368386209
 20
-4.600121174007659
 30
0.0
 10
9.495863820946282
 20
-4.581335102212745
 30
0.0
 10
9.577171591115913
 20
-4.543790264895029
 30
0.0
 10
9.658376325608469
 20
-4.58073103646911
 30
0.0
 10
9.698949162848294
 20
-4.599187988787894
 30
0.0
  0
SPLINE
  5
CD
330
1F
100
AcDbEntity
  8
0
  6
Continuous
 62
     1
370
    15
100
AcDbSpline
210
0.0
220
0.0
230
1.0
 70
     8
 71
     3
 72
     9
 73
     5
 74
     0
 42
0.000000001
 43
0.00000001
 40
0.0
 40
0.0
 40
0.0
 40
0.0
 40
0.4995456400839082
 40
1.0
 40
1.0
 40
1.0
 40
1.0
 10
12.09345587063581
 20
4.600141663104292
 30
0.0
 10
12.05273352474315
 20
4.581378521947435
 30
0.0
 10
11.97121475523528
 20
4.543818107740424
 30
0.0
 10
11.89048385507825
 20
4.5805792864184
 30
0.0
 10
11.85008172411472
 20
4.598976578563447
 30
0.0
  0
SPLINE
  5
CE
330
1F
100
AcDbEntity
  8
0
  6
Continuous
 62
     1
370
    15
100
AcDbSpline
210
0.0
220
0.0
230
1.0
 70
     8
 71
     3
 72
     9
 73
     5
 74
     0
 42
0.000000001
 43
0.00000001
 40
0.0
 40
0.0
 40
0.0
 40
0.0
 40
0.5006519930913612
 40
1.0
 40
1.0
 40
1.0
 40
1.0
 10
30.15053865034133
 20
-4.762475844472651
 30
0.0
 10
30.22875881354733
 20
-4.748565517853405
 30
0.0
 10
30.38499540959685
 20
-4.720781095118253
 30
0.0
 10
30.52340911158548
 20
-4.641785751680899
 30
0.0
 10
30.59252571780235
 20
-4.602339584380393
 30
0.0
  0
SPLINE
  5
CF
330
1F
100
AcDbEntity
  8
0
  6
Continuous
 62
     1
370
    15
100
AcDbSpline
210
0.0
220
0.0
230
1.0
 70
     8
 71
     3
 72
     9
 73
     5
 74
     0
 42
0.000000001
 43
0.00000001
 40
0.0
 40
0.0
 40
0.0
 40
0.0
 40
0.4991405359214122
 40
1.0
 40
1.0
 40
1.0
 40
1.0
 10
11.85085891280323
 20
4.598539322614665
 30
0.0
 10
11.78127338161568
 20
4.638604773652537
 30
0.0
 10
11.64186268226403
 20
4.718873652163698
 30
0.0
 10
11.4848199153628
 20
4.747470909409683
 30
0.0
 10
11.40616355929524
 20
4.761794116348024
 30
0.0
  0
SPLINE
  5
D0
330
1F
100
AcDbEntity
  8
외형선
  6
Continuous
370
    15
100
AcDbSpline
210
0.0
220
0.0
230
1.0
 70
     8
 71
     3
 72
     9
 73
     5
 74
     0
 42
0.000000001
 43
0.00000001
 40
0.0
 40
0.0
 40
0.0
 40
0.0
 40
0.6553490884242221
 40
1.0
 40
1.0
 40
1.0
 40
1.0
 10
9.698524770792574
 20
-4.598952829837804
 30
0.0
 10
9.725312748491888
 20
-4.615907942751464
 30
0.0
 10
9.766188639177454
 20
-4.641779822659664
 30
0.0
 10
9.809955263919885
 20
-4.661770270254848
 30
0.0
 10
9.82503947103396
 20
-4.668659996241336
 30
0.0
  0
SPLINE
  5
D1
330
1F
100
AcDbEntity
  8
0
  6
Continuous
 62
     1
370
    15
100
AcDbSpline
210
0.0
220
0.0
230
1.0
 70
     8
 71
     3
 72
    11
 73
     7
 74
     0
 42
0.000000001
 43
0.00000001
 40
0.0
 40
0.0
 40
0.0
 40
0.0
 40
0.2480349452191923
 40
0.4997247798228405
 40
0.7515488806985954
 40
1.0
 40
1.0
 40
1.0
 40
1.0
 10
22.10205827374011
 20
4.602509550750252
 30
0.0
 10
22.08328313220169
 20
4.591446087199262
 30
0.0
 10
22.04545619026356
 20
4.569156135748224
 30
0.0
 10
21.9765992730873
 20
4.558363505811147
 30
0.0
 10
21.90786213265554
 20
4.567055164099852
 30
0.0
 10
21.870352647164
 20
4.587753049801826
 30
0.0
 10
21.85172435361892
 20
4.598032217472787
 30
0.0
  0
SPLINE
  5
D2
330
1F
100
AcDbEntity
  8
0
  6
Continuous
 62
     1
370
    15
100
AcDbSpline
210
0.0
220
0.0
230
1.0
 70
     8
 71
     3
 72
    11
 73
     7
 74
     0
 42
0.000000001
 43
0.00000001
 40
0.0
 40
0.0
 40
0.0
 40
0.0
 40
0.248385786151913
 40
0.5003253678498616
 40
0.752109670522777
 40
0.9999999999999999
 40
0.9999999999999999
 40
0.9999999999999999
 40
0.9999999999999999
 10
30.58528561610729
 20
-4.604042042046791
 30
0.0
 10
30.6039966982186
 20
-4.592719136657306
 30
0.0
 10
30.64168657244711
 20
-4.569911322684172
 30
0.0
 10
30.71063247801488
 20
-4.55829981541977
 30
0.0
 10
30.77970266207781
 20
-4.566207912378841
 30
0.0
 10
30.81772755490971
 20
-4.586592000072693
 30
0.0
 10
30.83659183699638
 20
-4.596704617142682
 30
0.0
  0
SPLINE
  5
D3
330
1F
100
AcDbEntity
  8
0
  6
Continuous
 62
     1
370
    15
100
AcDbSpline
210
0.0
220
0.0
230
1.0
 70
     8
 71
     3
 72
     9
 73
     5
 74
     0
 42
0.000000001
 43
0.00000001
 40
0.0
 40
0.0
 40
0.0
 40
0.0
 40
0.775324932159552
 40
1.0
 40
1.0
 40
1.0
 40
1.0
 10
20.1431478979066
 20
-4.761944524943833
 30
0.0
 10
20.22196408960824
 20
-4.750731686548979
 30
0.0
 10
20.32361978057396
 20
-4.736269571466951
 30
0.0
 10
20.41370735254962
 20
-4.688865809330737
 30
0.0
 10
20.43394778389484
 20
-4.67821536585689
 30
0.0
  0
LINE
  5
D4
330
1F
100
AcDbEntity
  8
외형선
  6
Continuous
370
    15
100
AcDbLine
 10
9.840324104297906
 20
-4.673282615840439
 30
0.0
 11
10.0
 21
-4.656329751014714
 31
0.0
  0
SPLINE
  5
D6
330
1F
100
AcDbEntity
  8
0
  6
Continuous
 62
     1
370
    15
100
AcDbSpline
210
0.0
220
0.0
230
1.0
 70
     8
 71
     3
 72
     9
 73
     5
 74
     0
 42
0.000000001
 43
0.00000001
 40
0.0
 40
0.0
 40
0.0
 40
0.0
 40
0.3321276197465933
 40
0.9999999999999999
 40
0.9999999999999999
 40
0.9999999999999999
 40
0.9999999999999999
 10
9.998810701072216
 20
-4.732619505375628
 30
0.0
 10
10.01454909300184
 20
-4.737148317766579
 30
0.0
 10
10.06193567271968
 20
-4.750784077401403
 30
0.0
 10
10.11073086968293
 20
-4.757493932016114
 30
0.0
 10
10.14331983402371
 20
-4.761975258588795
 30
0.0
  0
SPLINE
  5
D7
330
1F
100
AcDbEntity
  8
0
  6
Continuous
 62
     1
370
    15
100
AcDbSpline
210
0.0
220
0.0
230
1.0
 70
     8
 71
     3
 72
     9
 73
     5
 74
     0
 42
0.000000001
 43
0.00000001
 40
0.0
 40
0.0
 40
0.0
 40
0.0
 40
0.4993221622281731
 40
1.0
 40
1.0
 40
1.0
 40
1.0
 10
21.85602426994592
 20
4.595199599862094
 30
0.0
 10
21.78686374989196
 20
4.635298534270604
 30
0.0
 10
21.64835493677351
 20
4.715605272969269
 30
0.0
 10
21.49204176632644
 20
4.744779051710349
 30
0.0
 10
21.41377922613174
 20
4.759385716170068
 30
0.0
  0
SPLINE
  5
D8
330
1F
100
AcDbEntity
  8
0
  6
Continuous
 62
     1
370
    15
100
AcDbSpline
210
0.0
220
0.0
230
1.0
 70
     8
 71
     3
 72
     9
 73
     5
 74
     0
 42
0.000000001
 43
0.00000001
 40
0.0
 40
0.0
 40
0.0
 40
0.0
 40
0.4906762351053802
 40
0.9999999999999999
 40
0.9999999999999999
 40
0.9999999999999999
 40
0.9999999999999999
 10
30.8286551060155
 20
-4.591000266373162
 30
0.0
 10
30.91315260677918
 20
-4.637638210876583
 30
0.0
 10
31.08535882896462
 20
-4.732686515984339
 30
0.0
 10
31.28063698483248
 20
-4.749116019093703
 30
0.0
 10
31.38009679038078
 20
-4.757483955472712
 30
0.0
  0
LINE
  5
D9
330
1F
100
AcDbEntity
  8
0
  6
Continuous
 62
     1
370
    15
100
AcDbLine
 10
31.72496367711574
 20
-4.695363342761998
 30
0.0
 11
31.77063573617488
 21
-4.67499485239387
 31
0.0
  0
SPLINE
  5
DA
330
1F
100
AcDbEntity
  8
0
  6
Continuous
 62
     1
370
    15
100
AcDbSpline
210
0.0
220
0.0
230
1.0
 70
     8
 71
     3
 72
    11
 73
     7
 74
     0
 42
0.000000001
 43
0.00000001
 40
0.0
 40
0.0
 40
0.0
 40
0.0
 40
0.247612106253441
 40
0.4998174139285543
 40
0.7521095014493206
 40
1.0
 40
1.0
 40
1.0
 40
1.0
 10
32.11153332609683
 20
4.602647386491294
 30
0.0
 10
32.09242960176334
 20
4.591056797210863
 30
0.0
 10
32.05386777925293
 20
4.567660613366264
 30
0.0
 10
31.98423469670713
 20
4.555823070011934
 30
0.0
 10
31.91471609083631
 20
4.563576142486151
 30
0.0
 10
31.8764425053331
 20
4.584003110530266
 30
0.0
 10
31.85747411567718
 20
4.594126716256138
 30
0.0
  0
SPLINE
  5
DB
330
1F
100
AcDbEntity
  8
0
  6
Continuous
 62
     1
370
    15
100
AcDbSpline
210
0.0
220
0.0
230
1.0
 70
     8
 71
     3
 72
    11
 73
     7
 74
     0
 42
0.000000001
 43
0.00000001
 40
0.0
 40
0.0
 40
0.0
 40
0.0
 40
0.2478681841969135
 40
0.5002656668875677
 40
0.7525358581181163
 40
1.0
 40
1.0
 40
1.0
 40
1.0
 10
20.57582732755691
 20
-4.604008514434104
 30
0.0
 10
20.5948597964857
 20
-4.592175573332157
 30
0.0
 10
20.63327251489097
 20
-4.568293467644468
 30
0.0
 10
20.70296064442021
 20
-4.555657799470195
 30
0.0
 10
20.77276664337634
 20
-4.562625765416937
 30
0.0
 10
20.8114984866414
 20
-4.582694841199659
 30
0.0
 10
20.83067816216499
 20
-4.592632874846463
 30
0.0
  0
LINE
  5
DC
330
1F
100
AcDbEntity
  8
0
  6
Continuous
 62
     1
370
    15
100
AcDbLine
 10
10.13450440019369
 20
-4.759251605719332
 30
0.0
 11
10.16605958808213
 21
-4.752033855766062
 31
0.0
  0
LINE
  5
DD
330
1F
100
AcDbEntity
  8
0
  6
Continuous
 62
     1
370
    15
100
AcDbLine
 10
11.41433661337942
 20
4.759142640978093
 30
0.0
 11
11.37849326711148
 21
4.750945139676328
 31
0.0
  0
SPLINE
  5
DE
330
1F
100
AcDbEntity
  8
0
  6
Continuous
 62
     1
370
    15
100
AcDbSpline
210
0.0
220
0.0
230
1.0
 70
     8
 71
     3
 72
     9
 73
     5
 74
     0
 42
0.000000001
 43
0.00000001
 40
0.0
 40
0.0
 40
0.0
 40
0.0
 40
0.86305220593324
 40
1.0
 40
1.0
 40
1.0
 40
1.0
 10
31.86341781634837
 20
4.589115269482131
 30
0.0
 10
31.79559200908407
 20
4.632406846326628
 30
0.0
 10
31.71700370724319
 20
4.682567863872123
 30
0.0
 10
31.62805541154287
 20
4.703331118896218
 30
0.0
 10
31.61587413866073
 20
4.706174600869413
 30
0.0
  0
SPLINE
  5
DF
330
1F
100
AcDbEntity
  8
0
  6
Continuous
 62
     1
370
    15
100
AcDbSpline
210
0.0
220
0.0
230
1.0
 70
     8
 71
     3
 72
    10
 73
     6
 74
     0
 42
0.000000001
 43
0.00000001
 40
0.0
 40
0.0
 40
0.0
 40
0.0
 40
0.4638738089487695
 40
0.9942330697160331
 40
1.0
 40
1.0
 40
1.0
 40
1.0
 10
20.84193412680179
 20
-4.59429901093245
 30
0.0
 10
20.90923403069694
 20
-4.631571020121581
 30
0.0
 10
21.05347970430568
 20
-4.711457108526899
 30
0.0
 10
21.21753403109201
 20
-4.760576105961819
 30
0.0
 10
21.30547137839307
 20
-4.757526998253752
 30
0.0
 10
21.30641729105264
 20
-4.757494200021033
 30
0.0
  0
LINE
  5
E0
330
1F
100
AcDbEntity
  8
0
  6
Continuous
 62
     1
370
    15
100
AcDbLine
 10
10.65804668702185
 20
-4.574000369757418
 30
0.0
 11
10.72432169690728
 21
-4.564665723592047
 31
0.0
  0
LINE
  5
E1
330
1F
100
AcDbEntity
  8
0
  6
Continuous
 62
     1
370
    15
100
AcDbLine
 10
10.88942097499967
 20
4.573674872517581
 30
0.0
 11
10.82594132982194
 21
4.564863163977857
 31
0.0
  0
LINE
  5
E2
330
1F
100
AcDbEntity
  8
0
  6
Continuous
 62
     1
370
    15
100
AcDbLine
 10
21.39522076118737
 20
4.762257449328895
 30
0.0
 11
21.3069984363392
 21
4.746707621961828
 31
0.0
  0
SPLINE
  5
E3
330
1F
100
AcDbEntity
  8
0
  6
Continuous
 62
     1
370
    15
100
AcDbSpline
210
0.0
220
0.0
230
1.0
 70
     8
 71
     3
 72
     9
 73
     5
 74
     0
 42
0.000000001
 43
0.00000001
 40
0.0
 40
0.0
 40
0.0
 40
0.0
 40
0.4857575082232974
 40
1.0
 40
1.0
 40
1.0
 40
1.0
 10
11.09266943763942
 20
-4.707265179604296
 30
0.0
 10
11.10387984350717
 20
-4.713768227972586
 30
0.0
 10
11.12695803721076
 20
-4.727155665651262
 30
0.0
 10
11.15303790266523
 20
-4.727485483856134
 30
0.0
 10
11.16644927766174
 20
-4.72765509039164
 30
0.0
  0
SPLINE
  5
E4
330
1F
100
AcDbEntity
  8
0
  6
Continuous
 62
     1
370
    15
100
AcDbSpline
210
0.0
220
0.0
230
1.0
 70
     8
 71
     3
 72
     9
 73
     5
 74
     0
 42
0.000000001
 43
0.00000001
 40
0.0
 40
0.0
 40
0.0
 40
0.0
 40
0.4522191145675164
 40
1.0
 40
1.0
 40
1.0
 40
1.0
 10
10.46252354513854
 20
4.706143401563164
 30
0.0
 10
10.45261657772064
 20
4.711856419567807
 30
0.0
 10
10.43070912821494
 20
4.724489715730237
 30
0.0
 10
10.40583730659259
 20
4.725141550398417
 30
0.0
 10
10.39221299812198
 20
4.725498612970109
 30
0.0
  0
SPLINE
  5
E5
330
1F
100
AcDbEntity
  8
0
  6
Continuous
 62
     1
370
    15
100
AcDbSpline
210
0.0
220
0.0
230
1.0
 70
     8
 71
     3
 72
     9
 73
     5
 74
     0
 42
0.000000001
 43
0.00000001
 40
0.0
 40
0.0
 40
0.0
 40
0.0
 40
0.2054314416262002
 40
1.0
 40
1.0
 40
1.0
 40
1.0
 10
20.64953405875713
 20
4.627130459994074
 30
0.0
 10
20.64497543230939
 20
4.630456219394764
 30
0.0
 10
20.62278493210339
 20
4.646645364417378
 30
0.0
 10
20.59883700303739
 20
4.65642324520752
 30
0.0
 10
20.57980873156339
 20
4.664192441850897
 30
0.0
  0
SPLINE
  5
E6
330
1F
100
AcDbEntity
  8
0
  6
Continuous
 62
     1
370
    15
100
AcDbSpline
210
0.0
220
0.0
230
1.0
 70
     8
 71
     3
 72
    10
 73
     6
 74
     0
 42
0.000000001
 43
0.00000001
 40
0.0
 40
0.0
 40
0.0
 40
0.0
 40
0.5
 40
0.5
 40
1.0
 40
1.0
 40
1.0
 40
1.0
 10
17.61694055012774
 20
0.574634890964193
 30
0.0
 10
17.4428463282557
 20
0.6283428818042918
 30
0.0
 10
17.25275342326579
 20
0.7318780346632312
 30
0.0
 10
16.89000796203174
 20
0.9401650826435126
 30
0.0
 10
16.72103125656444
 20
1.044149885726628
 30
0.0
 10
16.58203439759011
 20
1.142182550278162
 30
0.0
  0
SPLINE
  5
E7
330
1F
100
AcDbEntity
  8
0
  6
Continuous
 62
     1
370
    15
100
AcDbSpline
210
0.0
220
0.0
230
1.0
 70
     8
 71
     3
 72
    10
 73
     6
 74
     0
 42
0.000000001
 43
0.00000001
 40
0.0
 40
0.0
 40
0.0
 40
0.0
 40
0.5000000000000008
 40
0.5000000000000008
 40
1.0
 40
1.0
 40
1.0
 40
1.0
 10
16.33484119971574
 20
-1.666521988134584
 30
0.0
 10
16.50888893344524
 20
-1.745025704221925
 30
0.0
 10
16.69892761327555
 20
-1.854299894591539
 30
0.0
 10
17.061424600156
 20
-2.04539573073648
 30
0.0
 10
17.23053827254062
 20
-2.126198956762447
 30
0.0
 10
17.36966536914002
 20
-2.190946901103277
 30
0.0
  0
SPLINE
  5
E8
330
1F
100
AcDbEntity
  8
0
  6
Continuous
 62
     1
370
    15
100
AcDbSpline
210
0.0
220
0.0
230
1.0
 70
     8
 71
     3
 72
    10
 73
     6
 74
     0
 42
0.000000001
 43
0.00000001
 40
0.0
 40
0.0
 40
0.0
 40
0.0
 40
0.5
 40
0.5
 40
1.0
 40
1.0
 40
1.0
 40
1.0
 10
27.63335208047362
 20
0.7681591748125676
 30
0.0
 10
27.45946977245187
 20
0.8265491926419485
 30
0.0
 10
27.26957073074072
 20
0.9312770439602653
 30
0.0
 10
26.90677864447996
 20
1.136604742632007
 30
0.0
 10
26.73767617025813
 20
1.236504965422832
 30
0.0
 10
26.59879954507159
 20
1.329032419136276
 30
0.0
  0
SPLINE
  5
E9
330
1F
100
AcDbEntity
  8
0
  6
Continuous
 62
     1
370
    15
100
AcDbSpline
210
0.0
220
0.0
230
1.0
 70
     8
 71
     3
 72
    10
 73
     6
 74
     0
 42
0.000000001
 43
0.00000001
 40
0.0
 40
0.0
 40
0.0
 40
0.0
 40
0.5
 40
0.5
 40
1.0
 40
1.0
 40
1.0
 40
1.0
 10
26.35163598315301
 20
-1.484180140728073
 30
0.0
 10
26.52546006414391
 20
-1.558879328745419
 30
0.0
 10
26.7153241998943
 20
-1.667391025997065
 30
0.0
 10
27.07804629421742
 20
-1.861321780621723
 30
0.0
 10
27.24711146620487
 20
-1.946177909465831
 30
0.0
 10
27.38610046093763
 20
-2.016901918173921
 30
0.0
  0
SPLINE
  5
EA
330
1F
100
AcDbEntity
  8
외형선
  6
Continuous
370
    15
100
AcDbSpline
210
0.0
220
0.0
230
1.0
 70
     8
 71
     3
 72
     8
 73
     4
 74
     0
 42
0.000000001
 43
0.00000001
 40
0.0
 40
0.0
 40
0.0
 40
0.0
 40
1.0
 40
1.0
 40
1.0
 40
1.0
 10
9.092861774686064
 20
-3.187441810378438
 30
0.0
 10
9.24333543995901
 20
-3.245546998007301
 30
0.0
 10
9.393694805422196
 20
-3.301518194718734
 30
0.0
 10
9.544109715236964
 20
-3.35514302801398
 30
0.0
  0
SPLINE
  5
EB
330
1F
100
AcDbEntity
  8
외형선
  6
Continuous
370
    15
100
AcDbSpline
210
0.0
220
0.0
230
1.0
 70
     8
 71
     3
 72
    14
 73
    10
 74
     0
 42
0.000000001
 43
0.00000001
 40
0.0
 40
0.0
 40
0.0
 40
0.0
 40
0.25
 40
0.25
 40
0.5
 40
0.5
 40
0.75
 40
0.75
 40
1.0
 40
1.0
 40
1.0
 40
1.0
 10
9.0928617746832
 20
-3.187441810378196
 30
0.0
 10
9.104435726283185
 20
-3.009645396923192
 30
0.0
 10
9.116380181385203
 20
-2.820525428398036
 30
0.0
 10
9.140742568305713
 20
-2.419341560912225
 30
0.0
 10
9.153005255419446
 20
-2.206293727509147
 30
0.0
 10
9.178289043435026
 20
-1.771115649931605
 30
0.0
 10
9.19137490397594
 20
-1.547401817791836
 30
0.0
 10
9.218378617744335
 20
-1.087754422961062
 30
0.0
 10
9.232375641734636
 20
-0.8504863706487762
 30
0.0
 10
9.246533331568743
 20
-0.6108879777023173
 30
0.0
  0
SPLINE
  5
EC
330
1F
100
AcDbEntity
  8
외형선
  6
Continuous
370
    15
100
AcDbSpline
210
0.0
220
0.0
230
1.0
 70
     8
 71
     3
 72
     8
 73
     4
 74
     0
 42
0.000000001
 43
0.00000001
 40
0.0
 40
0.0
 40
0.0
 40
0.0
 40
1.0
 40
1.0
 40
1.0
 40
1.0
 10
9.864286823197144
 20
-0.921380240379932
 30
0.0
 10
9.65766497080866
 20
-0.8205421864667255
 30
0.0
 10
9.451945388698476
 20
-0.7166947564700616
 30
0.0
 10
9.246533331568529
 20
-0.6108879777022118
 30
0.0
  0
SPLINE
  5
ED
330
1F
100
AcDbEntity
  8
외형선
  6
Continuous
370
    15
100
AcDbSpline
210
0.0
220
0.0
230
1.0
 70
     8
 71
     3
 72
    12
 73
     8
 74
     0
 42
0.000000001
 43
0.00000001
 40
0.0
 40
0.0
 40
0.0
 40
0.0
 40
0.2500000000000002
 40
0.2500000000000002
 40
0.5000000000000004
 40
0.5000000000000004
 40
1.0
 40
1.0
 40
1.0
 40
1.0
 10
9.864286823197286
 20
-0.9213802403799274
 30
0.0
 10
9.838175068096135
 20
-1.149459672270307
 30
0.0
 10
9.812061932531803
 20
-1.373192865327701
 30
0.0
 10
9.75977074728391
 20
-1.811938714014641
 30
0.0
 10
9.733509559074715
 20
-2.028591698478079
 30
0.0
 10
9.65596974817926
 20
-2.646930715528629
 30
0.0
 10
9.601590154008498
 20
-3.022084673900701
 30
0.0
 10
9.544109715236967
 20
-3.355143028013932
 30
0.0
  0
SPLINE
  5
EE
330
1F
100
AcDbEntity
  8
외형선
  6
Continuous
370
    15
100
AcDbSpline
210
0.0
220
0.0
230
1.0
 70
     8
 71
     3
 72
    49
 73
    45
 74
     0
 42
0.000000001
 43
0.00000001
 40
0.0
 40
0.0
 40
0.0
 40
0.0
 40
0.056077670856157
 40
0.1121504472941114
 40
0.1268421683706109
 40
0.1415335700660808
 40
0.1562246369974396
 40
0.1709153772938625
 40
0.1856057945880653
 40
0.2002958871306405
 40
0.2039142890136052
 40
0.2141788661690021
 40
0.2302475263239221
 40
0.2680234264057447
 40
0.3139876259063419
 40
0.3483317663410201
 40
0.3777987439762511
 40
0.4023878612233569
 40
0.4189865994076946
 40
0.4355848950685511
 40
0.4521827579249468
 40
0.4687802034213055
 40
0.4853771803906162
 40
0.501973770787044
 40
0.5148535639905738
 40
0.5359769684830065
 40
0.5467352668580071
 40
0.5588126659307996
 40
0.5722091355007882
 40
0.5869246440595036
 40
0.6029591765563345
 40
0.6360562196658381
 40
0.6726813991343733
 40
0.712834290851649
 40
0.7565143915039981
 40
0.8037212502846629
 40
0.8289648812817714
 40
0.8542095780770342
 40
0.8794553273002083
 40
0.9047021244967426
 40
0.9299499846457803
 40
0.9551989194744077
 40
0.9804489342135083
 40
1.0
 40
1.0
 40
1.0
 40
1.0
 10
8.430158651899546
 20
1.81487412191927
 30
0.0
 10
8.415471299128546
 20
1.652032090958146
 30
0.0
 10
8.386097875487977
 20
1.326362241769564
 30
0.0
 10
8.353387979933396
 20
0.9413127730660555
 30
0.0
 10
8.331521620720034
 20
0.6797496412582786
 30
0.0
 10
8.320281927224329
 20
0.5442279241964183
 30
0.0
 10
8.309076786645782
 20
0.4082737769181617
 30
0.0
 10
8.29791905425417
 20
0.2719785766260468
 30
0.0
 10
8.286761705923738
 20
0.1354645537419354
 30
0.0
 10
8.278538558584973
 20
0.0331509757278846
 30
0.0
 10
8.271225374746479
 20
-0.0554188483064527
 30
0.0
 10
8.263400011213834
 20
-0.1482422263607056
 30
0.0
 10
8.246630710476493
 20
-0.3467795729183276
 30
0.0
 10
8.2204018836223
 20
-0.6549858724258408
 30
0.0
 10
8.18929460951975
 20
-1.015717063943113
 30
0.0
 10
8.160498870928748
 20
-1.345103715445945
 30
0.0
 10
8.137444288678877
 20
-1.605490359539478
 30
0.0
 10
8.119180140959845
 20
-1.809681734723665
 30
0.0
 10
8.104371786031262
 20
-1.973908880968568
 30
0.0
 10
8.091649586208662
 20
-2.113356894539439
 30
0.0
 10
8.078977435439118
 20
-2.250584426964342
 30
0.0
 10
8.066361561519074
 20
-2.3854482810722
 30
0.0
 10
8.053765029754063
 20
-2.517804272495369
 30
0.0
 10
8.042257957357716
 20
-2.637841961251642
 30
0.0
 10
8.02928663421695
 20
-2.76713390055883
 30
0.0
 10
8.017608105287628
 20
-2.878851434251744
 30
0.0
 10
8.00611866875484
 20
-2.985965741163579
 30
0.0
 10
7.996625225003479
 20
-3.072685420637236
 30
0.0
 10
7.986078122913521
 20
-3.166878423321669
 30
0.0
 10
7.974479398299883
 20
-3.267852670843195
 30
0.0
 10
7.957668423139411
 20
-3.409809446012164
 30
0.0
 10
7.935189320515586
 20
-3.591499039067096
 30
0.0
 10
7.906645073603086
 20
-3.806849352971
 30
0.0
 10
7.875547788923088
 20
-4.020637435147381
 30
0.0
 10
7.841897013891254
 20
-4.225193073626769
 30
0.0
 10
7.812251297723197
 20
-4.378207213073596
 30
0.0
 10
7.787296929643698
 20
-4.487060019995775
 30
0.0
 10
7.767804930845613
 20
-4.560545095538102
 30
0.0
 10
7.748202666324347
 20
-4.622954956201051
 30
0.0
 10
7.728479770816381
 20
-4.674106137867813
 30
0.0
 10
7.708639959855699
 20
-4.713999184149712
 30
0.0
 10
7.688678077560665
 20
-4.742072034167466
 30
0.0
 10
7.670121691769564
 20
-4.758645532838766
 30
0.0
 10
7.658164806228958
 20
-4.760491950104026
 30
0.0
 10
7.652946854941546
 20
-4.761297721415763
 30
0.0
  0
SPLINE
  5
EF
330
1F
100
AcDbEntity
  8
외형선
  6
Continuous
370
    15
100
AcDbSpline
210
0.0
220
0.0
230
1.0
 70
     8
 71
     3
 72
    24
 73
    20
 74
     0
 42
0.000000001
 43
0.00000001
 40
0.0
 40
0.0
 40
0.0
 40
0.0
 40
0.0011244677887083
 40
0.0376468000980066
 40
0.0881675314455055
 40
0.1516320597309559
 40
0.2056802493464876
 40
0.2426401747630161
 40
0.2857669072103386
 40
0.333609055409943
 40
0.4451825981727821
 40
0.5561219653094402
 40
0.666421160609739
 40
0.7215904939513713
 40
0.7562226290025021
 40
0.7864387858915745
 40
0.8371457709887298
 40
0.9083362489762019
 40
0.9999999999999999
 40
0.9999999999999999
 40
0.9999999999999999
 40
0.9999999999999999
 10
6.399257448501884
 20
4.76232916116714
 30
0.0
 10
6.399076343943774
 20
4.762386158507709
 30
0.0
 10
6.393013024776761
 20
4.764294410134012
 30
0.0
 10
6.379127375784039
 20
4.757514261444507
 30
0.0
 10
6.355888322738126
 20
4.738234642427253
 30
0.0
 10
6.330273661365436
 20
4.693265639644096
 30
0.0
 10
6.306631881009374
 20
4.632839255876763
 30
0.0
 10
6.285984590748893
 20
4.567150668255187
 30
0.0
 10
6.265938471447849
 20
4.49367174573038
 30
0.0
 10
6.234136287079113
 20
4.358151807547237
 30
0.0
 10
6.191266477493696
 20
4.13302828115312
 30
0.0
 10
6.137633260862819
 20
3.785134818464302
 30
0.0
 10
6.094752564655794
 20
3.442339200057809
 30
0.0
 10
6.064348356289
 20
3.16848750636438
 30
0.0
 10
6.046592261473743
 20
2.996353662315824
 30
0.0
 10
6.028346354994563
 20
2.8255291522821
 30
0.0
 10
6.004393418873551
 20
2.592316895637583
 30
0.0
 10
5.970551745952004
 20
2.250073248844505
 30
0.0
 10
5.944706229458017
 20
1.971611039229796
 30
0.0
 10
5.930158882401883
 20
1.814876450225706
 30
0.0
  0
SPLINE
  5
F0
330
1F
100
AcDbEntity
  8
외형선
  6
Continuous
370
    15
100
AcDbSpline
210
0.0
220
0.0
230
1.0
 70
     8
 71
     3
 72
     8
 73
     4
 74
     0
 42
0.000000001
 43
0.00000001
 40
0.0
 40
0.0
 40
0.0
 40
0.0
 40
1.0
 40
1.0
 40
1.0
 40
1.0
 10
8.479960968176131
 20
2.342197690546722
 30
0.0
 10
8.463389735169084
 20
2.172010571340712
 30
0.0
 10
8.446725929229078
 20
1.995568256739967
 30
0.0
 10
8.430158458320799
 20
1.814872163863748
 30
0.0
  0
SPLINE
  5
F1
330
1F
100
AcDbEntity
  8
외형선
  6
Continuous
370
    15
100
AcDbSpline
210
0.0
220
0.0
230
1.0
 70
     8
 71
     3
 72
    11
 73
     7
 74
     0
 42
0.000000001
 43
0.00000001
 40
0.0
 40
0.0
 40
0.0
 40
0.0
 40
0.0001205322650776
 40
0.0001205322650776
 40
0.0001205322650776
 40
0.0002439619321891
 40
0.0002439619321891
 40
0.0002439619321891
 40
0.0002439619321891
 10
8.687596236490483
 20
-0.2257761026212363
 30
0.0
 10
8.654805830407096
 20
-0.2196019914115229
 30
0.0
 10
8.620995171282003
 20
-0.2109007380327925
 30
0.0
 10
8.586741378479577
 20
-0.2002565858331207
 30
0.0
 10
8.551654546373339
 20
-0.1893535718720893
 30
0.0
 10
8.515896781751028
 20
-0.1763540074484052
 30
0.0
 10
8.479960968176131
 20
-0.1618299574673079
 30
0.0
  0
SPLINE
  5
F2
330
1F
100
AcDbEntity
  8
외형선
  6
Continuous
370
    15
100
AcDbSpline
210
0.0
220
0.0
230
1.0
 70
    24
 71
     3
 72
    12
 73
     8
 74
     0
 42
0.000000001
 43
0.00000001
 40
0.0
 40
0.0
 40
0.0
 40
0.0
 40
0.2499999999999999
 40
0.2499999999999999
 40
0.4999999999999999
 40
0.4999999999999999
 40
1.0
 40
1.0
 40
1.0
 40
1.0
 10
8.479960968176128
 20
2.342197690546783
 30
0.0
 10
8.479960968176128
 20
2.150697102549057
 30
0.0
 10
8.479960968176128
 20
1.953121400306778
 30
0.0
 10
8.479960968176128
 20
1.545979388041748
 30
0.0
 10
8.479960968176115
 20
1.33542965404147
 30
0.0
 10
8.479960968176115
 20
0.7023376004989127
 30
0.0
 10
8.479960968176128
 20
0.2737152226527677
 30
0.0
 10
8.479960968176128
 20
-0.1618339534683976
 30
0.0
  0
SPLINE
  5
F3
330
1F
100
AcDbEntity
  8
0
  6
Continuous
 62
     1
370
    15
100
AcDbSpline
210
0.0
220
0.0
230
1.0
 70
     8
 71
     3
 72
    12
 73
     8
 74
     0
 42
0.000000001
 43
0.00000001
 40
0.0
 40
0.0
 40
0.0
 40
0.0
 40
0.4999999999999999
 40
0.4999999999999999
 40
0.7499999999999999
 40
0.7499999999999999
 40
1.0
 40
1.0
 40
1.0
 40
1.0
 10
28.30401725966395
 20
0.3395066057432707
 30
0.0
 10
28.26553866960136
 20
-0.1263827933398471
 30
0.0
 10
28.22489914787268
 20
-0.6058588012613426
 30
0.0
 10
28.16460334427398
 20
-1.298605894384464
 30
0.0
 10
28.14462313324356
 20
-1.525070105810017
 30
0.0
 10
28.10554515187101
 20
-1.961948987617682
 30
0.0
 10
28.08684077920942
 20
-2.170985422630468
 30
0.0
 10
28.06787432807085
 20
-2.372531799263192
 30
0.0
  0
SPLINE
  5
F4
330
1F
100
AcDbEntity
  8
0
  6
Continuous
 62
     1
370
    15
100
AcDbSpline
210
0.0
220
0.0
230
1.0
 70
     8
 71
     3
 72
     8
 73
     4
 74
     0
 42
0.000000001
 43
0.00000001
 40
0.0
 40
0.0
 40
0.0
 40
0.0
 40
1.0
 40
1.0
 40
1.0
 40
1.0
 10
27.65039128331819
 20
-2.148366955078893
 30
0.0
 10
27.78234851477432
 20
-2.215779201537215
 30
0.0
 10
27.92617447737631
 20
-2.298269788651565
 30
0.0
 10
28.06787432807079
 20
-2.37253179926381
 30
0.0
  0
SPLINE
  5
F5
330
1F
100
AcDbEntity
  8
0
  6
Continuous
 62
     1
370
    15
100
AcDbSpline
210
0.0
220
0.0
230
1.0
 70
     8
 71
     3
 72
     8
 73
     4
 74
     0
 42
0.000000001
 43
0.00000001
 40
0.0
 40
0.0
 40
0.0
 40
0.0
 40
1.0
 40
1.0
 40
1.0
 40
1.0
 10
28.30401725969271
 20
0.3395066057267136
 30
0.0
 10
28.1536902447025
 20
0.4318607543683575
 30
0.0
 10
28.01404821347637
 20
0.5273378001559471
 30
0.0
 10
27.89752706991387
 20
0.6217096790136036
 30
0.0
  0
SPLINE
  5
F6
330
1F
100
AcDbEntity
  8
0
  6
Continuous
 62
     1
370
    15
100
AcDbSpline
210
0.0
220
0.0
230
1.0
 70
     8
 71
     3
 72
    10
 73
     6
 74
     0
 42
0.000000001
 43
0.00000001
 40
0.0
 40
0.0
 40
0.0
 40
0.0
 40
0.5
 40
0.5
 40
1.0
 40
1.0
 40
1.0
 40
1.0
 10
15.23155669879442
 20
1.852992164295297
 30
0.0
 10
15.05785017881514
 20
1.935561377762826
 30
0.0
 10
14.86836455650267
 20
2.045300706926171
 30
0.0
 10
14.50604817976016
 20
2.231248588844991
 30
0.0
 10
14.33708937154629
 20
2.307115905607662
 30
0.0
 10
14.19829568493314
 20
2.365234825504379
 30
0.0
  0
SPLINE
  5
F7
330
1F
100
AcDbEntity
  8
0
  6
Continuous
 62
     1
370
    15
100
AcDbSpline
210
0.0
220
0.0
230
1.0
 70
     8
 71
     3
 72
    10
 73
     6
 74
     0
 42
0.000000001
 43
0.00000001
 40
0.0
 40
0.0
 40
0.0
 40
0.0
 40
0.5
 40
0.5
 40
1.0
 40
1.0
 40
1.0
 40
1.0
 10
13.95112524037513
 20
-0.3752748191693673
 30
0.0
 10
14.12487737871687
 20
-0.4240637354576748
 30
0.0
 10
14.31468399578766
 20
-0.5255475332891208
 30
0.0
 10
14.67707091714563
 20
-0.7348295903698918
 30
0.0
 10
14.84586410693009
 20
-0.8418431774454136
 30
0.0
 10
14.98445561841351
 20
-0.9452206130036038
 30
0.0
  0
SPLINE
  5
F8
330
1F
100
AcDbEntity
  8
0
  6
Continuous
 62
     1
370
    15
100
AcDbSpline
210
0.0
220
0.0
230
1.0
 70
     8
 71
     3
 72
    10
 73
     6
 74
     0
 42
0.000000001
 43
0.00000001
 40
0.0
 40
0.0
 40
0.0
 40
0.0
 40
0.5
 40
0.5
 40
1.0
 40
1.0
 40
1.0
 40
1.0
 10
25.24868506245519
 20
2.029732993974776
 30
0.0
 10
25.0748930350476
 20
2.115676915079919
 30
0.0
 10
24.88504300051553
 20
2.225020150257754
 30
0.0
 10
24.52266972053038
 20
2.406367964464751
 30
0.0
 10
24.35396785155717
 20
2.47799461791502
 30
0.0
 10
24.21530886105318
 20
2.530116109348023
 30
0.0
  0
SPLINE
  5
F9
330
1F
100
AcDbEntity
  8
0
  6
Continuous
 62
     1
370
    15
100
AcDbSpline
210
0.0
220
0.0
230
1.0
 70
     8
 71
     3
 72
    10
 73
     6
 74
     0
 42
0.000000001
 43
0.00000001
 40
0.0
 40
0.0
 40
0.0
 40
0.0
 40
0.5000000000000001
 40
0.5000000000000001
 40
1.0
 40
1.0
 40
1.0
 40
1.0
 10
23.96816969911337
 20
-0.1804121401860196
 30
0.0
 10
24.14193709419901
 20
-0.224704186441796
 30
0.0
 10
24.33146347831535
 20
-0.325081327200091
 30
0.0
 10
24.69374528343662
 20
-0.5361817605278436
 30
0.0
 10
24.86272511312696
 20
-0.6461876654881018
 30
0.0
 10
25.00152600304833
 20
-0.7543050281916404
 30
0.0
  0
SPLINE
  5
FA
330
1F
100
AcDbEntity
  8
0
  6
Continuous
 62
     1
370
    15
100
AcDbSpline
210
0.0
220
0.0
230
1.0
 70
     8
 71
     3
 72
    12
 73
     8
 74
     0
 42
0.000000001
 43
0.00000001
 40
0.0
 40
0.0
 40
0.0
 40
0.0
 40
0.4999999999999999
 40
0.4999999999999999
 40
0.7499999999999998
 40
0.7499999999999998
 40
1.0
 40
1.0
 40
1.0
 40
1.0
 10
18.28739295005114
 20
0.1389812275732079
 30
0.0
 10
18.24833745672352
 20
-0.3303500592964363
 30
0.0
 10
18.20747074589557
 20
-0.8088589954457697
 30
0.0
 10
18.1474282355417
 20
-1.493415026573361
 30
0.0
 10
18.12762881157926
 20
-1.716058065882023
 30
0.0
 10
18.08908560740853
 20
-2.143448058402119
 30
0.0
 10
18.0706526869247
 20
-2.347221296961889
 30
0.0
 10
18.05135592962077
 20
-2.54487988563644
 30
0.0
  0
SPLINE
  5
FB
330
1F
100
AcDbEntity
  8
0
  6
Continuous
 62
     1
370
    15
100
AcDbSpline
210
0.0
220
0.0
230
1.0
 70
     8
 71
     3
 72
     8
 73
     4
 74
     0
 42
0.000000001
 43
0.00000001
 40
0.0
 40
0.0
 40
0.0
 40
0.0
 40
1.0
 40
1.0
 40
1.0
 40
1.0
 10
17.63395041602173
 20
-2.319428243415661
 30
0.0
 10
17.76579638748567
 20
-2.389328231416833
 30
0.0
 10
17.90962683405832
 20
-2.471947860718749
 30
0.0
 10
18.0513559296209
 20
-2.54487988563528
 30
0.0
  0
SPLINE
  5
FC
330
1F
100
AcDbEntity
  8
0
  6
Continuous
 62
     1
370
    15
100
AcDbSpline
210
0.0
220
0.0
230
1.0
 70
     8
 71
     3
 72
     8
 73
     4
 74
     0
 42
0.000000001
 43
0.00000001
 40
0.0
 40
0.0
 40
0.0
 40
0.0
 40
1.0
 40
1.0
 40
1.0
 40
1.0
 10
18.28739295005184
 20
0.1389812275723479
 30
0.0
 10
18.13723295422079
 20
0.2321323363331887
 30
0.0
 10
17.99755002208062
 20
0.3298175343640165
 30
0.0
 10
17.88109257865667
 20
0.4278344185078304
 30
0.0
  0
SPLINE
  5
FD
330
1F
100
AcDbEntity
  8
0
  6
Continuous
 62
     1
370
    15
100
AcDbSpline
210
0.0
220
0.0
230
1.0
 70
     8
 71
     3
 72
     8
 73
     4
 74
     0
 42
0.000000001
 43
0.00000001
 40
0.0
 40
0.0
 40
0.0
 40
0.0
 40
1.0
 40
1.0
 40
1.0
 40
1.0
 10
15.66514667140821
 20
-1.291390116770883
 30
0.0
 10
15.81518599220161
 20
-1.376328370135435
 30
0.0
 10
15.95472298115943
 20
-1.455904093882367
 30
0.0
 10
16.0709890631353
 20
-1.528478121684496
 30
0.0
  0
SPLINE
  5
FE
330
1F
100
AcDbEntity
  8
0
  6
Continuous
 62
     1
370
    15
100
AcDbSpline
210
0.0
220
0.0
230
1.0
 70
     8
 71
     3
 72
    12
 73
     8
 74
     0
 42
0.000000001
 43
0.00000001
 40
0.0
 40
0.0
 40
0.0
 40
0.0
 40
0.25
 40
0.25
 40
0.5
 40
0.5
 40
1.0
 40
1.0
 40
1.0
 40
1.0
 10
15.90095243540794
 20
1.490825047578011
 30
0.0
 10
15.88106774887189
 20
1.266424020927634
 30
0.0
 10
15.86148882047442
 20
1.037654302682619
 30
0.0
 10
15.82354509638055
 20
0.579138144235936
 30
0.0
 10
15.80479343640874
 20
0.3478678381305419
 30
0.0
 10
15.74607682123918
 20
-0.3570468353163276
 30
0.0
 10
15.70516589631623
 20
-0.8355945009195889
 30
0.0
 10
15.66514668491912
 20
-1.291390124419556
 30
0.0
  0
SPLINE
  5
FF
330
1F
100
AcDbEntity
  8
0
  6
Continuous
 62
     1
370
    15
100
AcDbSpline
210
0.0
220
0.0
230
1.0
 70
     8
 71
     3
 72
     8
 73
     4
 74
     0
 42
0.000000001
 43
0.00000001
 40
0.0
 40
0.0
 40
0.0
 40
0.0
 40
1.0
 40
1.0
 40
1.0
 40
1.0
 10
16.31806321997529
 20
1.283927584735524
 30
0.0
 10
16.18632508591389
 20
1.336715997777785
 30
0.0
 10
16.04260415453773
 20
1.414056603523758
 30
0.0
 10
15.90095243540797
 20
1.490825047578247
 30
0.0
  0
ELLIPSE
  5
100
330
1F
100
AcDbEntity
  8
0
  6
Continuous
 62
     1
370
    15
100
AcDbEllipse
 10
31.33844269488387
 20
-5.743078317541861
 30
0.0
 11
5.969829319528941
 21
8.394906677293609
 31
0.0
210
0.0
220
0.0
230
1.0
 40
0.1082739118710996
 41
0.6819885573185613
 42
0.6849444462741939
  0
LINE
  5
101
330
1F
100
AcDbEntity
  8
0
  6
Continuous
 62
     1
370
    15
100
AcDbLine
 10
35.3999998094514
 20
-0.2264703362016052
 30
0.0
 11
35.3999998094514
 21
1.181498169898982
 31
0.0
  0
LINE
  5
102
330
1F
100
AcDbEntity
  8
0
  6
Continuous
 62
     1
370
    15
100
AcDbLine
 10
34.32744402904063
 20
-0.5405190167948648
 30
0.0
 11
35.3999998094514
 21
-0.2264703362016052
 31
0.0
  0
SPLINE
  5
103
330
1F
100
AcDbEntity
  8
0
  6
Continuous
 62
     1
370
    15
100
AcDbSpline
210
0.0
220
0.0
230
1.0
 70
     8
 71
     3
 72
    10
 73
     6
 74
     0
 42
0.000000001
 43
0.00000001
 40
0.0
 40
0.0
 40
0.0
 40
0.0
 40
0.5
 40
0.5
 40
1.0
 40
1.0
 40
1.0
 40
1.0
 10
34.42451059706305
 20
-0.1700061267106965
 30
0.0
 10
34.42382277940656
 20
-0.2123159776333107
 30
0.0
 10
34.41602912462704
 20
-0.2635862632493136
 30
0.0
 10
34.38455622670637
 20
-0.3861585034621131
 30
0.0
 10
34.36038037130568
 20
-0.4586903017135815
 30
0.0
 10
34.32744364878322
 20
-0.5405190008361072
 30
0.0
  0
SPLINE
  5
104
330
1F
100
AcDbEntity
  8
0
  6
Continuous
 62
     1
370
    15
100
AcDbSpline
210
0.0
220
0.0
230
1.0
 70
     8
 71
     3
 72
    10
 73
     6
 74
     0
 42
0.000000001
 43
0.00000001
 40
0.0
 40
0.0
 40
0.0
 40
0.0
 40
0.5
 40
0.5
 40
1.0
 40
1.0
 40
1.0
 40
1.0
 10
35.13849340756222
 20
0.8281023524343112
 30
0.0
 10
35.01928532139796
 20
0.680335748698356
 30
0.0
 10
34.89913061438847
 20
0.5204564195280105
 30
0.0
 10
34.65731550249863
 20
0.1814312248650161
 30
0.0
 10
34.53865277667372
 20
0.0062610607066901
 30
0.0
 10
34.42451059706305
 20
-0.1700061267107001
 30
0.0
  0
SPLINE
  5
105
330
1F
100
AcDbEntity
  8
0
  6
Continuous
 62
     1
370
    15
100
AcDbSpline
210
0.0
220
0.0
230
1.0
 70
     8
 71
     3
 72
    10
 73
     6
 74
     0
 42
0.000000001
 43
0.00000001
 40
0.0
 40
0.0
 40
0.0
 40
0.0
 40
0.4999999999999998
 40
0.4999999999999998
 40
1.0
 40
1.0
 40
1.0
 40
1.0
 10
35.3867734047153
 20
1.167309691537814
 30
0.0
 10
35.34592030031588
 20
1.107084839360712
 30
0.0
 10
35.30420071093392
 20
1.047873040444559
 30
0.0
 10
35.22093576891
 20
0.9337868141347837
 30
0.0
 10
35.17952006158368
 20
0.8789577056427128
 30
0.0
 10
35.13849340756336
 20
0.8281023524338366
 30
0.0
  0
SPLINE
  5
106
330
1F
100
AcDbEntity
  8
0
  6
Continuous
 62
     1
370
    15
100
AcDbSpline
210
0.0
220
0.0
230
1.0
 70
     8
 71
     3
 72
     8
 73
     4
 74
     0
 42
0.000000001
 43
0.00000001
 40
0.0
 40
0.0
 40
0.0
 40
0.0
 40
1.0
 40
1.0
 40
1.0
 40
1.0
 10
25.68225744778032
 20
-1.095760050620252
 30
0.0
 10
25.83232604389916
 20
-1.182567945218687
 30
0.0
 10
25.97177591837524
 20
-1.265876520966696
 30
0.0
 10
26.08792441512544
 20
-1.343448353764655
 30
0.0
  0
SPLINE
  5
107
330
1F
100
AcDbEntity
  8
0
  6
Continuous
 62
     1
370
    15
100
AcDbSpline
210
0.0
220
0.0
230
1.0
 70
     8
 71
     3
 72
    12
 73
     8
 74
     0
 42
0.000000001
 43
0.00000001
 40
0.0
 40
0.0
 40
0.0
 40
0.0
 40
0.2500000000000002
 40
0.2500000000000002
 40
0.5000000000000002
 40
0.5000000000000002
 40
1.0
 40
1.0
 40
1.0
 40
1.0
 10
25.91798296167506
 20
1.681124555140316
 30
0.0
 10
25.89795227128198
 20
1.459515632620985
 30
0.0
 10
25.87813360516994
 20
1.232431851309373
 30
0.0
 10
25.83954836621685
 20
0.7750869484154179
 30
0.0
 10
25.82110431907934
 20
0.5461699197235621
 30
0.0
 10
25.7632012672221
 20
-0.1541975421214076
 30
0.0
 10
25.72247959278019
 20
-0.6341414192496875
 30
0.0
 10
25.68225746128873
 20
-1.095760058434237
 30
0.0
  0
SPLINE
  5
108
330
1F
100
AcDbEntity
  8
0
  6
Continuous
 62
     1
370
    15
100
AcDbSpline
210
0.0
220
0.0
230
1.0
 70
     8
 71
     3
 72
     8
 73
     4
 74
     0
 42
0.000000001
 43
0.00000001
 40
0.0
 40
0.0
 40
0.0
 40
0.0
 40
1.0
 40
1.0
 40
1.0
 40
1.0
 10
26.33492539859035
 20
1.469163044498007
 30
0.0
 10
26.20316795558824
 20
1.525364170019566
 30
0.0
 10
26.05957975686135
 20
1.604461791568151
 30
0.0
 10
25.91798296167504
 20
1.681124555140318
 30
0.0
  0
SPLINE
  5
109
330
1F
100
AcDbEntity
  8
0
  6
Continuous
 62
     1
370
    15
100
AcDbSpline
210
0.0
220
0.0
230
1.0
 70
     8
 71
     3
 72
     8
 73
     4
 74
     0
 42
0.000000001
 43
0.00000001
 40
0.0
 40
0.0
 40
0.0
 40
0.0
 40
1.0
 40
1.0
 40
1.0
 40
1.0
 10
15.24818487063238
 20
-1.088820402132116
 30
0.0
 10
15.37987207858644
 20
-1.138361815233485
 30
0.0
 10
15.52352354710082
 20
-1.214373683743635
 30
0.0
 10
15.66514668491912
 20
-1.291390124419596
 30
0.0
  0
SPLINE
  5
10A
330
1F
100
AcDbEntity
  8
0
  6
Continuous
 62
     1
370
    15
100
AcDbSpline
210
0.0
220
0.0
230
1.0
 70
     8
 71
     3
 72
     8
 73
     4
 74
     0
 42
0.000000001
 43
0.00000001
 40
0.0
 40
0.0
 40
0.0
 40
0.0
 40
1.0
 40
1.0
 40
1.0
 40
1.0
 10
15.90095243540769
 20
1.490825047578158
 30
0.0
 10
15.75089669338848
 20
1.573728970689917
 30
0.0
 10
15.61138465003248
 20
1.649596280292827
 30
0.0
 10
15.49520077535852
 20
1.717190861048163
 30
0.0
  0
SPLINE
  5
10B
330
1F
100
AcDbEntity
  8
0
  6
Continuous
 62
     1
370
    15
100
AcDbSpline
210
0.0
220
0.0
230
1.0
 70
     8
 71
     3
 72
     8
 73
     4
 74
     0
 42
0.000000001
 43
0.00000001
 40
0.0
 40
0.0
 40
0.0
 40
0.0
 40
1.0
 40
1.0
 40
1.0
 40
1.0
 10
28.06787431453894
 20
-2.372531792765191
 30
0.0
 10
28.21800041001497
 20
-2.444629257648214
 30
0.0
 10
28.3577446205094
 20
-2.501561370153519
 30
0.0
 10
28.47420845876434
 20
-2.544377119003808
 30
0.0
  0
SPLINE
  5
10C
330
1F
100
AcDbEntity
  8
0
  6
Continuous
 62
     1
370
    15
100
AcDbSpline
210
0.0
220
0.0
230
1.0
 70
     8
 71
     3
 72
     8
 73
     4
 74
     0
 42
0.000000001
 43
0.00000001
 40
0.0
 40
0.0
 40
0.0
 40
0.0
 40
1.0
 40
1.0
 40
1.0
 40
1.0
 10
28.72130312205936
 20
0.1633481026543243
 30
0.0
 10
28.58946872707346
 20
0.1957036990622674
 30
0.0
 10
28.44566412059962
 20
0.2632309414850666
 30
0.0
 10
28.30401725966394
 20
0.3395066057432818
 30
0.0
  0
SPLINE
  5
10D
330
1F
100
AcDbEntity
  8
0
  6
Continuous
 62
     1
370
    15
100
AcDbSpline
210
0.0
220
0.0
230
1.0
 70
     8
 71
     3
 72
     8
 73
     4
 74
     0
 42
0.000000001
 43
0.00000001
 40
0.0
 40
0.0
 40
0.0
 40
0.0
 40
1.0
 40
1.0
 40
1.0
 40
1.0
 10
25.26530383335661
 20
-0.898379614633277
 30
0.0
 10
25.39701058443403
 20
-0.9442665822817811
 30
0.0
 10
25.54069355727266
 20
-1.01863575565046
 30
0.0
 10
25.68225746128872
 20
-1.095760058434244
 30
0.0
  0
SPLINE
  5
10E
330
1F
100
AcDbEntity
  8
0
  6
Continuous
 62
     1
370
    15
100
AcDbSpline
210
0.0
220
0.0
230
1.0
 70
     8
 71
     3
 72
     8
 73
     4
 74
     0
 42
0.000000001
 43
0.00000001
 40
0.0
 40
0.0
 40
0.0
 40
0.0
 40
1.0
 40
1.0
 40
1.0
 40
1.0
 10
25.91798296167514
 20
1.681124555140212
 30
0.0
 10
25.76805489633188
 20
1.762169087972225
 30
0.0
 10
25.62855415828165
 20
1.834307502397036
 30
0.0
 10
25.51234136719641
 20
1.896862039457713
 30
0.0
  0
SPLINE
  5
10F
330
1F
100
AcDbEntity
  8
0
  6
Continuous
 62
     1
370
    15
100
AcDbSpline
210
0.0
220
0.0
230
1.0
 70
     8
 71
     3
 72
     8
 73
     4
 74
     0
 42
0.000000001
 43
0.00000001
 40
0.0
 40
0.0
 40
0.0
 40
0.0
 40
1.0
 40
1.0
 40
1.0
 40
1.0
 10
33.98500394176603
 20
0.0134796926727597
 30
0.0
 10
34.12538267193925
 20
-0.0183753604445805
 30
0.0
 10
34.27647926489681
 20
-0.0894423209552627
 30
0.0
 10
34.42451059706305
 20
-0.1700061267107021
 30
0.0
  0
SPLINE
  5
110
330
1F
100
AcDbEntity
  8
0
  6
Continuous
 62
     1
370
    15
100
AcDbSpline
210
0.0
220
0.0
230
1.0
 70
     8
 71
     3
 72
    10
 73
     6
 74
     0
 42
0.000000001
 43
0.00000001
 40
0.0
 40
0.0
 40
0.0
 40
0.0
 40
0.5
 40
0.5
 40
1.0
 40
1.0
 40
1.0
 40
1.0
 10
35.26579969606913
 20
2.202716988110253
 30
0.0
 10
35.0921231852627
 20
2.292519322187483
 30
0.0
 10
34.90243165630547
 20
2.401862820252028
 30
0.0
 10
34.53996585398559
 20
2.578132418904707
 30
0.0
 10
34.37100763661957
 20
2.644620672205743
 30
0.0
 10
34.23219342462066
 20
2.690132065376208
 30
0.0
  0
SPLINE
  5
111
330
1F
100
AcDbEntity
  8
0
  6
Continuous
 62
     1
370
    15
100
AcDbSpline
210
0.0
220
0.0
230
1.0
 70
     8
 71
     3
 72
    10
 73
     6
 74
     0
 42
0.000000001
 43
0.00000001
 40
0.0
 40
0.0
 40
0.0
 40
0.0
 40
0.5
 40
0.5
 40
1.0
 40
1.0
 40
1.0
 40
1.0
 10
30.01888535241395
 20
-0.5586969944693108
 30
0.0
 10
29.84513666971675
 20
-0.5328928403627149
 30
0.0
 10
29.65558908439185
 20
-0.4410024194555937
 30
0.0
 10
29.29317826288091
 20
-0.228344052999451
 30
0.0
 10
29.12418318264086
 20
-0.1082425385812271
 30
0.0
 10
28.98531120074568
 20
0.0170320066270001
 30
0.0
  0
SPLINE
  5
112
330
1F
100
AcDbEntity
  8
0
  6
Continuous
 62
     1
370
    15
100
AcDbSpline
210
0.0
220
0.0
230
1.0
 70
     8
 71
     3
 72
    10
 73
     6
 74
     0
 42
0.000000001
 43
0.00000001
 40
0.0
 40
0.0
 40
0.0
 40
0.0
 40
0.5
 40
0.5
 40
1.0
 40
1.0
 40
1.0
 40
1.0
 10
28.73810711185141
 20
-2.665415397930958
 30
0.0
 10
28.91191704163477
 20
-2.763913952841097
 30
0.0
 10
29.10177267093581
 20
-2.871893375594181
 30
0.0
 10
29.46427518282481
 20
-3.033006875009516
 30
0.0
 10
29.63313941017982
 20
-3.085823767982121
 30
0.0
 10
29.77178302529671
 20
-3.113265711744206
 30
0.0
  0
SPLINE
  5
113
330
1F
100
AcDbEntity
  8
0
  6
Continuous
 62
     1
370
    15
100
AcDbSpline
210
0.0
220
0.0
230
1.0
 70
     8
 71
     3
 72
    10
 73
     6
 74
     0
 42
0.000000001
 43
0.00000001
 40
0.0
 40
0.0
 40
0.0
 40
0.0
 40
0.5
 40
0.5
 40
1.0
 40
1.0
 40
1.0
 40
1.0
 10
20.00184585082102
 20
-0.7507142555608965
 30
0.0
 10
19.82812015687922
 20
-0.7302315006735298
 30
0.0
 10
19.63833081176388
 20
-0.6416588479152188
 30
0.0
 10
19.27590010107569
 20
-0.4298059245984303
 30
0.0
 10
19.10705462593844
 20
-0.3074574515409763
 30
0.0
 10
18.96837519123935
 20
-0.1780539755772674
 30
0.0
  0
SPLINE
  5
114
330
1F
100
AcDbEntity
  8
0
  6
Continuous
 62
     1
370
    15
100
AcDbSpline
210
0.0
220
0.0
230
1.0
 70
     8
 71
     3
 72
    10
 73
     6
 74
     0
 42
0.000000001
 43
0.00000001
 40
0.0
 40
0.0
 40
0.0
 40
0.0
 40
0.5
 40
0.5
 40
1.0
 40
1.0
 40
1.0
 40
1.0
 10
18.7212457309946
 20
-2.82155535536856
 30
0.0
 10
18.89490908632963
 20
-2.923301613650415
 30
0.0
 10
19.08450842549335
 20
-3.03067634698036
 30
0.0
 10
19.44693027322115
 20
-3.185801762858822
 30
0.0
 10
19.61591343544691
 20
-3.233277284324749
 30
0.0
 10
19.75468962590345
 20
-3.253823853783902
 30
0.0
  0
SPLINE
  5
115
330
1F
100
AcDbEntity
  8
0
  6
Continuous
 62
     1
370
    15
100
AcDbSpline
210
0.0
220
0.0
230
1.0
 70
     8
 71
     3
 72
     9
 73
     5
 74
     0
 42
0.000000001
 43
0.00000001
 40
0.0
 40
0.0
 40
0.0
 40
0.0
 40
0.3195995237167074
 40
1.0
 40
1.0
 40
1.0
 40
1.0
 10
18.72776017058641
 20
4.485537763684984
 30
0.0
 10
18.75690821416183
 20
4.501523948724718
 30
0.0
 10
18.84810998829609
 20
4.551543375705794
 30
0.0
 10
18.94166030970658
 20
4.579670104112168
 30
0.0
 10
19.00531199295074
 20
4.598807543516155
 30
0.0
  0
SPLINE
  5
116
330
1F
100
AcDbEntity
  8
0
  6
Continuous
 62
     1
370
    15
100
AcDbSpline
210
0.0
220
0.0
230
1.0
 70
     8
 71
     3
 72
     8
 73
     4
 74
     0
 42
0.000000001
 43
0.00000001
 40
0.0
 40
0.0
 40
0.0
 40
0.0
 40
1.0
 40
1.0
 40
1.0
 40
1.0
 10
19.00531236777048
 20
4.598807347773899
 30
0.0
 10
19.15526530859071
 20
4.604864990020427
 30
0.0
 10
19.29478736987834
 20
4.573586993378834
 30
0.0
 10
19.41101583107603
 20
4.513387682604655
 30
0.0
  0
SPLINE
  5
117
330
1F
100
AcDbEntity
  8
0
  6
Continuous
 62
     1
370
    15
100
AcDbSpline
210
0.0
220
0.0
230
1.0
 70
     8
 71
     3
 72
    10
 73
     6
 74
     0
 42
0.000000001
 43
0.00000001
 40
0.0
 40
0.0
 40
0.0
 40
0.0
 40
0.5
 40
0.5
 40
1.0
 40
1.0
 40
1.0
 40
1.0
 10
19.41101583107604
 20
4.513387682604657
 30
0.0
 10
19.44610163375227
 20
4.49521535960129
 30
0.0
 10
19.4878016196532
 20
4.486228808788033
 30
0.0
 10
19.58016131683608
 20
4.492424123707635
 30
0.0
 10
19.63038430789408
 20
4.508424635166468
 30
0.0
 10
19.67468370802256
 20
4.538836403394239
 30
0.0
  0
SPLINE
  5
118
330
1F
100
AcDbEntity
  8
0
  6
Continuous
 62
     1
370
    15
100
AcDbSpline
210
0.0
220
0.0
230
1.0
 70
     8
 71
     3
 72
    10
 73
     6
 74
     0
 42
0.000000001
 43
0.00000001
 40
0.0
 40
0.0
 40
0.0
 40
0.0
 40
0.5
 40
0.5
 40
1.0
 40
1.0
 40
1.0
 40
1.0
 10
19.67468370802261
 20
4.538836403394275
 30
0.0
 10
19.84847132302151
 20
4.658142503541784
 30
0.0
 10
20.03830991356778
 20
4.722425300978232
 30
0.0
 10
20.40064827074053
 20
4.738118238488408
 30
0.0
 10
20.56931901462617
 20
4.690080404995602
 30
0.0
 10
20.70797727237328
 20
4.598897868100811
 30
0.0
  0
SPLINE
  5
119
330
1F
100
AcDbEntity
  8
0
  6
Continuous
 62
     1
370
    15
100
AcDbSpline
210
0.0
220
0.0
230
1.0
 70
     8
 71
     3
 72
    10
 73
     6
 74
     0
 42
0.000000001
 43
0.00000001
 40
0.0
 40
0.0
 40
0.0
 40
0.0
 40
0.5
 40
0.5
 40
1.0
 40
1.0
 40
1.0
 40
1.0
 10
20.70797727237327
 20
4.598897868100817
 30
0.0
 10
20.7432837951532
 20
4.575680078058488
 30
0.0
 10
20.78513796962601
 20
4.562006324672038
 30
0.0
 10
20.87761658651198
 20
4.560889522335042
 30
0.0
 10
20.92778085430476
 20
4.57442721381455
 30
0.0
 10
20.97179355337069
 20
4.604122723373286
 30
0.0
  0
SPLINE
  5
11A
330
1F
100
AcDbEntity
  8
0
  6
Continuous
 62
     1
370
    15
100
AcDbSpline
210
0.0
220
0.0
230
1.0
 70
     8
 71
     3
 72
     8
 73
     4
 74
     0
 42
0.000000001
 43
0.00000001
 40
0.0
 40
0.0
 40
0.0
 40
0.0
 40
1.0
 40
1.0
 40
1.0
 40
1.0
 10
20.97179355337069
 20
4.604122723373298
 30
0.0
 10
21.10351901156766
 20
4.692998313510515
 30
0.0
 10
21.24722389562152
 20
4.745075254266253
 30
0.0
 10
21.38887968200271
 20
4.760895185357057
 30
0.0
  0
SPLINE
  5
11B
330
1F
100
AcDbEntity
  8
0
  6
Continuous
 62
     1
370
    15
100
AcDbSpline
210
0.0
220
0.0
230
1.0
 70
     8
 71
     3
 72
     8
 73
     4
 74
     0
 42
0.000000001
 43
0.00000001
 40
0.0
 40
0.0
 40
0.0
 40
0.0
 40
1.0
 40
1.0
 40
1.0
 40
1.0
 10
21.38887966848535
 20
4.760895187283945
 30
0.0
 10
21.53902129448965
 20
4.739492608690908
 30
0.0
 10
21.67863223861119
 20
4.677740256514134
 30
0.0
 10
21.79498708183463
 20
4.585801985554976
 30
0.0
  0
SPLINE
  5
11C
330
1F
100
AcDbEntity
  8
0
  6
Continuous
 62
     1
370
    15
100
AcDbSpline
210
0.0
220
0.0
230
1.0
 70
     8
 71
     3
 72
    10
 73
     6
 74
     0
 42
0.000000001
 43
0.00000001
 40
0.0
 40
0.0
 40
0.0
 40
0.0
 40
0.5000000000000001
 40
0.5000000000000001
 40
1.0
 40
1.0
 40
1.0
 40
1.0
 10
21.79498708183463
 20
4.585801985554975
 30
0.0
 10
21.83010348474867
 20
4.558054611429595
 30
0.0
 10
21.87181565034209
 20
4.539925049182624
 30
0.0
 10
21.96415462476029
 20
4.530841806869656
 30
0.0
 10
22.01471224000682
 20
4.541072282057545
 30
0.0
 10
22.05900098802817
 20
4.568738359218871
 30
0.0
  0
SPLINE
  5
11D
330
1F
100
AcDbEntity
  8
0
  6
Continuous
 62
     1
370
    15
100
AcDbSpline
210
0.0
220
0.0
230
1.0
 70
     8
 71
     3
 72
    10
 73
     6
 74
     0
 42
0.000000001
 43
0.00000001
 40
0.0
 40
0.0
 40
0.0
 40
0.0
 40
0.5
 40
0.5
 40
1.0
 40
1.0
 40
1.0
 40
1.0
 10
22.05900098802821
 20
4.568738359218925
 30
0.0
 10
22.23307762913385
 20
4.677479698723292
 30
0.0
 10
22.42295037809647
 20
4.713601213767111
 30
0.0
 10
22.78572253100398
 20
4.668089261530598
 30
0.0
 10
22.95499503814562
 20
4.587113200005961
 30
0.0
 10
23.0941144506369
 20
4.462580402415563
 30
0.0
  0
SPLINE
  5
11E
330
1F
100
AcDbEntity
  8
0
  6
Continuous
 62
     1
370
    15
100
AcDbSpline
210
0.0
220
0.0
230
1.0
 70
     8
 71
     3
 72
    10
 73
     6
 74
     0
 42
0.000000001
 43
0.00000001
 40
0.0
 40
0.0
 40
0.0
 40
0.0
 40
0.5
 40
0.5
 40
1.0
 40
1.0
 40
1.0
 40
1.0
 10
23.09411445063689
 20
4.46258040241558
 30
0.0
 10
23.12948632749777
 20
4.430917252732684
 30
0.0
 10
23.17139865301692
 20
4.408825249000488
 30
0.0
 10
23.26396811070814
 20
4.392812524096961
 30
0.0
 10
23.31416667630062
 20
4.400087126633899
 30
0.0
 10
23.35820062362608
 20
4.425853696695832
 30
0.0
  0
SPLINE
  5
11F
330
1F
100
AcDbEntity
  8
0
  6
Continuous
 62
     1
370
    15
100
AcDbSpline
210
0.0
220
0.0
230
1.0
 70
     8
 71
     3
 72
     8
 73
     4
 74
     0
 42
0.000000001
 43
0.00000001
 40
0.0
 40
0.0
 40
0.0
 40
0.0
 40
1.0
 40
1.0
 40
1.0
 40
1.0
 10
23.35820062362607
 20
4.425853696695839
 30
0.0
 10
23.48998753471289
 20
4.502969124315054
 30
0.0
 10
23.63375254672471
 20
4.534305207164438
 30
0.0
 10
23.77539920085307
 20
4.527932431566333
 30
0.0
  0
SPLINE
  5
120
330
1F
100
AcDbEntity
  8
0
  6
Continuous
 62
     1
370
    15
100
AcDbSpline
210
0.0
220
0.0
230
1.0
 70
     8
 71
     3
 72
     8
 73
     4
 74
     0
 42
0.000000001
 43
0.00000001
 40
0.0
 40
0.0
 40
0.0
 40
0.0
 40
1.0
 40
1.0
 40
1.0
 40
1.0
 10
23.77539918733542
 20
4.527932435805754
 30
0.0
 10
23.92551473607318
 20
4.48085288667875
 30
0.0
 10
24.06503710355666
 20
4.393721393833648
 30
0.0
 10
24.18122379920613
 20
4.277467356217521
 30
0.0
  0
SPLINE
  5
121
330
1F
100
AcDbEntity
  8
0
  6
Continuous
 62
     1
370
    15
100
AcDbSpline
210
0.0
220
0.0
230
1.0
 70
     8
 71
     3
 72
    10
 73
     6
 74
     0
 42
0.000000001
 43
0.00000001
 40
0.0
 40
0.0
 40
0.0
 40
0.0
 40
0.5
 40
0.5
 40
1.0
 40
1.0
 40
1.0
 40
1.0
 10
24.18122379920613
 20
4.277467356217526
 30
0.0
 10
24.21627293470038
 20
4.242397906196725
 30
0.0
 10
24.25790526867008
 20
4.216575914580453
 30
0.0
 10
24.35009997783138
 20
4.192920010121522
 30
0.0
 10
24.40061202617898
 20
4.196412225234528
 30
0.0
 10
24.44486920982293
 20
4.219026862955985
 30
0.0
  0
SPLINE
  5
122
330
1F
100
AcDbEntity
  8
0
  6
Continuous
 62
     1
370
    15
100
AcDbSpline
210
0.0
220
0.0
230
1.0
 70
     8
 71
     3
 72
    10
 73
     6
 74
     0
 42
0.000000001
 43
0.00000001
 40
0.0
 40
0.0
 40
0.0
 40
0.0
 40
0.5
 40
0.5
 40
1.0
 40
1.0
 40
1.0
 40
1.0
 10
24.44486920982298
 20
4.219026862956043
 30
0.0
 10
24.61850723514335
 20
4.307752821410142
 30
0.0
 10
24.80815047015036
 20
4.313222580619564
 30
0.0
 10
25.17054512517028
 20
4.210665766373817
 30
0.0
 10
25.33947316093379
 20
4.103522334679377
 30
0.0
 10
25.47820383090444
 20
3.956323542195122
 30
0.0
  0
SPLINE
  5
123
330
1F
100
AcDbEntity
  8
0
  6
Continuous
 62
     1
370
    15
100
AcDbSpline
210
0.0
220
0.0
230
1.0
 70
     8
 71
     3
 72
    10
 73
     6
 74
     0
 42
0.000000001
 43
0.00000001
 40
0.0
 40
0.0
 40
0.0
 40
0.0
 40
0.5
 40
0.5
 40
1.0
 40
1.0
 40
1.0
 40
1.0
 10
25.47820383090445
 20
3.956323542195125
 30
0.0
 10
25.51352185602078
 20
3.918849704209965
 30
0.0
 10
25.55538749286347
 20
3.890200806393414
 30
0.0
 10
25.64786742261445
 20
3.860666675501412
 30
0.0
 10
25.69800795480748
 20
3.861093336784115
 30
0.0
 10
25.74199315309868
 20
3.880761237204945
 30
0.0
  0
SPLINE
  5
124
330
1F
100
AcDbEntity
  8
0
  6
Continuous
 62
     1
370
    15
100
AcDbSpline
210
0.0
220
0.0
230
1.0
 70
     8
 71
     3
 72
     8
 73
     4
 74
     0
 42
0.000000001
 43
0.00000001
 40
0.0
 40
0.0
 40
0.0
 40
0.0
 40
1.0
 40
1.0
 40
1.0
 40
1.0
 10
25.7419931530987
 20
3.880761237204913
 30
0.0
 10
25.87375885214903
 20
3.939680026899721
 30
0.0
 10
26.01743747475442
 20
3.94753475945152
 30
0.0
 10
26.15893453649209
 20
3.919325824564249
 30
0.0
  0
SPLINE
  5
125
330
1F
100
AcDbEntity
  8
0
  6
Continuous
 62
     1
370
    15
100
AcDbSpline
210
0.0
220
0.0
230
1.0
 70
     8
 71
     3
 72
     8
 73
     4
 74
     0
 42
0.000000001
 43
0.00000001
 40
0.0
 40
0.0
 40
0.0
 40
0.0
 40
1.0
 40
1.0
 40
1.0
 40
1.0
 10
26.15893452298322
 20
3.91932583078182
 30
0.0
 10
26.30888837302377
 20
3.850308204359641
 30
0.0
 10
26.44843844702497
 20
3.745029813991195
 30
0.0
 10
26.56476219838218
 20
3.61421917324459
 30
0.0
  0
SPLINE
  5
126
330
1F
100
AcDbEntity
  8
0
  6
Continuous
 62
     1
370
    15
100
AcDbSpline
210
0.0
220
0.0
230
1.0
 70
     8
 71
     3
 72
    10
 73
     6
 74
     0
 42
0.000000001
 43
0.00000001
 40
0.0
 40
0.0
 40
0.0
 40
0.0
 40
0.5
 40
0.5
 40
1.0
 40
1.0
 40
1.0
 40
1.0
 10
26.56476219838218
 20
3.614219173244592
 30
0.0
 10
26.59984236589278
 20
3.574770142964695
 30
0.0
 10
26.64151974302924
 20
3.543454978805706
 30
0.0
 10
26.73382060709508
 20
3.507360615200666
 30
0.0
 10
26.78436885721678
 20
3.503911425407332
 30
0.0
 10
26.828643158543
 20
3.51966164817514
 30
0.0
  0
SPLINE
  5
127
330
1F
100
AcDbEntity
  8
0
  6
Continuous
 62
     1
370
    15
100
AcDbSpline
210
0.0
220
0.0
230
1.0
 70
     8
 71
     3
 72
    10
 73
     6
 74
     0
 42
0.000000001
 43
0.00000001
 40
0.0
 40
0.0
 40
0.0
 40
0.0
 40
0.5
 40
0.5
 40
1.0
 40
1.0
 40
1.0
 40
1.0
 10
26.82864315854304
 20
3.5196616481752
 30
0.0
 10
27.00265658441435
 20
3.58156550978256
 30
0.0
 10
27.19275575532845
 20
3.55554044755218
 30
0.0
 10
27.55565740062006
 20
3.403808073496105
 30
0.0
 10
27.72474238513995
 20
3.279143806877863
 30
0.0
 10
27.86371297270992
 20
3.121134313256333
 30
0.0
  0
SPLINE
  5
128
330
1F
100
AcDbEntity
  8
0
  6
Continuous
 62
     1
370
    15
100
AcDbSpline
210
0.0
220
0.0
230
1.0
 70
     8
 71
     3
 72
    10
 73
     6
 74
     0
 42
0.000000001
 43
0.00000001
 40
0.0
 40
0.0
 40
0.0
 40
0.0
 40
0.5
 40
0.5
 40
1.0
 40
1.0
 40
1.0
 40
1.0
 10
27.86371297270992
 20
3.121134313256321
 30
0.0
 10
27.89911187194789
 20
3.080885781238461
 30
0.0
 10
27.94104116244922
 20
3.047938994638101
 30
0.0
 10
28.03359840275311
 20
3.007037742457003
 30
0.0
 10
28.08381033581072
 20
3.000405945694485
 30
0.0
 10
28.12788905826501
 20
3.012321604990326
 30
0.0
  0
SPLINE
  5
129
330
1F
100
AcDbEntity
  8
0
  6
Continuous
 62
     1
370
    15
100
AcDbSpline
210
0.0
220
0.0
230
1.0
 70
     8
 71
     3
 72
     8
 73
     4
 74
     0
 42
0.000000001
 43
0.00000001
 40
0.0
 40
0.0
 40
0.0
 40
0.0
 40
1.0
 40
1.0
 40
1.0
 40
1.0
 10
28.12788905826502
 20
3.012321604990329
 30
0.0
 10
28.2596986206473
 20
3.047953260125299
 30
0.0
 10
28.4034625963271
 20
3.031778703830256
 30
0.0
 10
28.54519390351616
 20
2.984390223559235
 30
0.0
  0
SPLINE
  5
12A
330
1F
100
AcDbEntity
  8
0
  6
Continuous
 62
     1
370
    15
100
AcDbSpline
210
0.0
220
0.0
230
1.0
 70
     8
 71
     3
 72
     8
 73
     4
 74
     0
 42
0.000000001
 43
0.00000001
 40
0.0
 40
0.0
 40
0.0
 40
0.0
 40
1.0
 40
1.0
 40
1.0
 40
1.0
 10
28.54519388999176
 20
2.984390231206117
 30
0.0
 10
28.69530128835585
 20
2.899517419869976
 30
0.0
 10
28.83494243705716
 20
2.784996504483962
 30
0.0
 10
28.95126962967672
 20
2.650548993762953
 30
0.0
  0
SPLINE
  5
12B
330
1F
100
AcDbEntity
  8
0
  6
Continuous
 62
     1
370
    15
100
AcDbSpline
210
0.0
220
0.0
230
1.0
 70
     8
 71
     3
 72
    10
 73
     6
 74
     0
 42
0.000000001
 43
0.00000001
 40
0.0
 40
0.0
 40
0.0
 40
0.0
 40
0.5
 40
0.5
 40
1.0
 40
1.0
 40
1.0
 40
1.0
 10
28.95126962967672
 20
2.650548993762959
 30
0.0
 10
28.98634322090155
 20
2.610011979793699
 30
0.0
 10
29.02800893055841
 20
2.575808757783885
 30
0.0
 10
29.12028307864172
 20
2.530239550957487
 30
0.0
 10
29.1708051240422
 20
2.520112434003972
 30
0.0
 10
29.21505214365882
 20
2.527655210933727
 30
0.0
  0
SPLINE
  5
12C
330
1F
100
AcDbEntity
  8
0
  6
Continuous
 62
     1
370
    15
100
AcDbSpline
210
0.0
220
0.0
230
1.0
 70
     8
 71
     3
 72
    10
 73
     6
 74
     0
 42
0.000000001
 43
0.00000001
 40
0.0
 40
0.0
 40
0.0
 40
0.0
 40
0.5
 40
0.5
 40
1.0
 40
1.0
 40
1.0
 40
1.0
 10
29.21505214365887
 20
2.527655210933768
 30
0.0
 10
29.38886919336544
 20
2.557285754276194
 30
0.0
 10
29.57866828692324
 20
2.502012202222351
 30
0.0
 10
29.94082475484178
 20
2.313717999588776
 30
0.0
 10
30.10961743354579
 20
2.182014784202198
 30
0.0
 10
30.24837612002704
 20
2.026577188776966
 30
0.0
  0
SPLINE
  5
12D
330
1F
100
AcDbEntity
  8
0
  6
Continuous
 62
     1
370
    15
100
AcDbSpline
210
0.0
220
0.0
230
1.0
 70
     8
 71
     3
 72
    10
 73
     6
 74
     0
 42
0.000000001
 43
0.00000001
 40
0.0
 40
0.0
 40
0.0
 40
0.0
 40
0.5
 40
0.5
 40
1.0
 40
1.0
 40
1.0
 40
1.0
 10
30.24837612002705
 20
2.026577188776964
 30
0.0
 10
30.28367874739381
 20
1.987031156386218
 30
0.0
 10
30.32552920236932
 20
1.952704057738385
 30
0.0
 10
30.41800179402149
 20
1.904327043617528
 30
0.0
 10
30.46815242481223
 20
1.891502252329512
 30
0.0
 10
30.5121416858555
 20
1.894789865337807
 30
0.0
  0
SPLINE
  5
12E
330
1F
100
AcDbEntity
  8
0
  6
Continuous
 62
     1
370
    15
100
AcDbSpline
210
0.0
220
0.0
230
1.0
 70
     8
 71
     3
 72
     8
 73
     4
 74
     0
 42
0.000000001
 43
0.00000001
 40
0.0
 40
0.0
 40
0.0
 40
0.0
 40
1.0
 40
1.0
 40
1.0
 40
1.0
 10
30.51214168585551
 20
1.894789865337808
 30
0.0
 10
30.64383253241498
 20
1.904632007032268
 30
0.0
 10
30.78750891326128
 20
1.866060137047863
 30
0.0
 10
30.92910885987606
 20
1.803417459154526
 30
0.0
  0
SPLINE
  5
12F
330
1F
100
AcDbEntity
  8
0
  6
Continuous
 62
     1
370
    15
100
AcDbSpline
210
0.0
220
0.0
230
1.0
 70
     8
 71
     3
 72
     8
 73
     4
 74
     0
 42
0.000000001
 43
0.00000001
 40
0.0
 40
0.0
 40
0.0
 40
0.0
 40
1.0
 40
1.0
 40
1.0
 40
1.0
 10
30.92910884636492
 20
1.803417467598416
 30
0.0
 10
31.07916474384056
 20
1.709637736673882
 30
0.0
 10
31.21864892352148
 20
1.595210803382843
 30
0.0
 10
31.33483721784303
 20
1.468203765959556
 30
0.0
  0
SPLINE
  5
130
330
1F
100
AcDbEntity
  8
0
  6
Continuous
 62
     1
370
    15
100
AcDbSpline
210
0.0
220
0.0
230
1.0
 70
     8
 71
     3
 72
    10
 73
     6
 74
     0
 42
0.000000001
 43
0.00000001
 40
0.0
 40
0.0
 40
0.0
 40
0.0
 40
0.5
 40
0.5
 40
1.0
 40
1.0
 40
1.0
 40
1.0
 10
31.33483721784302
 20
1.468203765959559
 30
0.0
 10
31.36990673165416
 20
1.429868793585312
 30
0.0
 10
31.41157089094401
 20
1.395540785056208
 30
0.0
 10
31.50382102618639
 20
1.344098800506855
 30
0.0
 10
31.55432951627137
 20
1.328013027752009
 30
0.0
 10
31.59858196201668
 20
1.326630679746149
 30
0.0
  0
SPLINE
  5
131
330
1F
100
AcDbEntity
  8
0
  6
Continuous
 62
     1
370
    15
100
AcDbSpline
210
0.0
220
0.0
230
1.0
 70
     8
 71
     3
 72
    10
 73
     6
 74
     0
 42
0.000000001
 43
0.00000001
 40
0.0
 40
0.0
 40
0.0
 40
0.0
 40
0.5
 40
0.5
 40
1.0
 40
1.0
 40
1.0
 40
1.0
 10
31.59858196201674
 20
1.326630679746172
 30
0.0
 10
31.77244998357376
 20
1.321199429363627
 30
0.0
 10
31.96218514004321
 20
1.240865999575977
 30
0.0
 10
32.32488215931351
 20
1.032250508582067
 30
0.0
 10
32.49399904849606
 20
0.9047264315122248
 30
0.0
 10
32.63305896151953
 20
0.7647305918223635
 30
0.0
  0
SPLINE
  5
132
330
1F
100
AcDbEntity
  8
0
  6
Continuous
 62
     1
370
    15
100
AcDbSpline
210
0.0
220
0.0
230
1.0
 70
     8
 71
     3
 72
    10
 73
     6
 74
     0
 42
0.000000001
 43
0.00000001
 40
0.0
 40
0.0
 40
0.0
 40
0.0
 40
0.5
 40
0.5
 40
1.0
 40
1.0
 40
1.0
 40
1.0
 10
32.63305896151953
 20
0.7647305918223642
 30
0.0
 10
32.66847627639793
 20
0.7290749048011568
 30
0.0
 10
32.71044057449242
 20
0.696107987361249
 30
0.0
 10
32.80308556241393
 20
0.6439748710357132
 30
0.0
 10
32.85331740817534
 20
0.6258084987164474
 30
0.0
 10
32.8973912718751
 20
0.6201015110112393
 30
0.0
  0
SPLINE
  5
133
330
1F
100
AcDbEntity
  8
0
  6
Continuous
 62
     1
370
    15
100
AcDbSpline
210
0.0
220
0.0
230
1.0
 70
     8
 71
     3
 72
     8
 73
     4
 74
     0
 42
0.000000001
 43
0.00000001
 40
0.0
 40
0.0
 40
0.0
 40
0.0
 40
1.0
 40
1.0
 40
1.0
 40
1.0
 10
32.89739127187511
 20
0.6201015110112444
 30
0.0
 10
33.02931314216691
 20
0.6030193578119748
 30
0.0
 10
33.17319199026381
 20
0.5447017186159409
 30
0.0
 10
33.31489481653841
 20
0.4715394767163575
 30
0.0
  0
SPLINE
  5
134
330
1F
100
AcDbEntity
  8
0
  6
Continuous
 62
     1
370
    15
100
AcDbSpline
210
0.0
220
0.0
230
1.0
 70
     8
 71
     3
 72
     8
 73
     4
 74
     0
 42
0.000000001
 43
0.00000001
 40
0.0
 40
0.0
 40
0.0
 40
0.0
 40
1.0
 40
1.0
 40
1.0
 40
1.0
 10
33.31489480300669
 20
0.4715394853059671
 30
0.0
 10
33.46513638731309
 20
0.3761695110159067
 30
0.0
 10
33.60473157208166
 20
0.2708558056965636
 30
0.0
 10
33.72114968403053
 20
0.1615635310173177
 30
0.0
  0
SPLINE
  5
135
330
1F
100
AcDbEntity
  8
0
  6
Continuous
 62
     1
370
    15
100
AcDbSpline
210
0.0
220
0.0
230
1.0
 70
     8
 71
     3
 72
    10
 73
     6
 74
     0
 42
0.000000001
 43
0.00000001
 40
0.0
 40
0.0
 40
0.0
 40
0.0
 40
0.5
 40
0.5
 40
1.0
 40
1.0
 40
1.0
 40
1.0
 10
33.72114968403052
 20
0.1615635310173239
 30
0.0
 10
33.75622596929411
 20
0.1286342304164046
 30
0.0
 10
33.79789102050569
 20
0.0970526031249248
 30
0.0
 10
33.89017349489592
 20
0.0441244165062543
 30
0.0
 10
33.94072411356998
 20
0.0235277695962905
 30
0.0
 10
33.98500394176598
 20
0.0134796926727444
 30
0.0
  0
SPLINE
  5
136
330
1F
100
AcDbEntity
  8
0
  6
Continuous
 62
     1
370
    15
100
AcDbSpline
210
0.0
220
0.0
230
1.0
 70
     8
 71
     3
 72
     8
 73
     4
 74
     0
 42
0.000000001
 43
0.00000001
 40
0.0
 40
0.0
 40
0.0
 40
0.0
 40
1.0
 40
1.0
 40
1.0
 40
1.0
 10
35.39999995250255
 20
-1.883116258311564
 30
0.0
 10
35.04116928970794
 20
-1.415920795000806
 30
0.0
 10
34.68353243731885
 20
-0.966618492890434
 30
0.0
 10
34.32744364878342
 20
-0.5405190008362128
 30
0.0
  0
LINE
  5
137
330
1F
100
AcDbEntity
  8
0
  6
Continuous
 62
     1
370
    15
100
AcDbLine
 10
35.3999998094514
 20
-3.174119163304572
 30
0.0
 11
35.3999998094514
 21
-1.883116201497619
 31
0.0
  0
SPLINE
  5
138
330
1F
100
AcDbEntity
  8
0
  6
Continuous
 62
     1
370
    15
100
AcDbSpline
210
0.0
220
0.0
230
1.0
 70
     8
 71
     3
 72
     8
 73
     4
 74
     0
 42
0.000000001
 43
0.00000001
 40
0.0
 40
0.0
 40
0.0
 40
0.0
 40
1.0
 40
1.0
 40
1.0
 40
1.0
 10
35.25166968389053
 20
-3.267430371707647
 30
0.0
 10
35.30091948112722
 20
-3.238954354351699
 30
0.0
 10
35.3503477575084
 20
-3.207979817334541
 30
0.0
 10
35.39999995250255
 20
-3.17411906986815
 30
0.0
  0
SPLINE
  5
139
330
1F
100
AcDbEntity
  8
0
  6
Continuous
 62
     1
370
    15
100
AcDbSpline
210
0.0
220
0.0
230
1.0
 70
     8
 71
     3
 72
     8
 73
     4
 74
     0
 42
0.000000001
 43
0.00000001
 40
0.0
 40
0.0
 40
0.0
 40
0.0
 40
1.0
 40
1.0
 40
1.0
 40
1.0
 10
35.25166968389037
 20
-3.267430371707381
 30
0.0
 10
35.17999980707599
 20
-3.210796154980483
 30
0.0
 10
35.11348676275452
 20
-3.147288763080513
 30
0.0
 10
35.05280093625191
 20
-3.077131124187677
 30
0.0
  0
SPLINE
  5
13A
330
1F
100
AcDbEntity
  8
0
  6
Continuous
 62
     1
370
    15
100
AcDbSpline
210
0.0
220
0.0
230
1.0
 70
     8
 71
     3
 72
    10
 73
     6
 74
     0
 42
0.000000001
 43
0.00000001
 40
0.0
 40
0.0
 40
0.0
 40
0.0
 40
0.5
 40
0.5
 40
1.0
 40
1.0
 40
1.0
 40
1.0
 10
35.05280093625191
 20
-3.077131124187683
 30
0.0
 10
35.01771807952254
 20
-3.036572553338476
 30
0.0
 10
34.97601957490277
 20
-3.003171253705406
 30
0.0
 10
34.88365936017828
 20
-2.961056478792232
 30
0.0
 10
34.83342798197877
 20
-2.95364012564491
 30
0.0
 10
34.78911455541446
 20
-2.96467709068461
 30
0.0
  0
SPLINE
  5
13B
330
1F
100
AcDbEntity
  8
0
  6
Continuous
 62
     1
370
    15
100
AcDbSpline
210
0.0
220
0.0
230
1.0
 70
     8
 71
     3
 72
    10
 73
     6
 74
     0
 42
0.000000001
 43
0.00000001
 40
0.0
 40
0.0
 40
0.0
 40
0.0
 40
0.5
 40
0.5
 40
1.0
 40
1.0
 40
1.0
 40
1.0
 10
34.78911455541446
 20
-2.964677090684603
 30
0.0
 10
34.61529858322288
 20
-3.00796872839256
 30
0.0
 10
34.42540806687939
 20
-2.964427041250407
 30
0.0
 10
34.06282508948818
 20
-2.789826395914122
 30
0.0
 10
33.89391382296152
 20
-2.65981349409494
 30
0.0
 10
33.75511589987811
 20
-2.501768254374261
 30
0.0
  0
SPLINE
  5
13C
330
1F
100
AcDbEntity
  8
0
  6
Continuous
 62
     1
370
    15
100
AcDbSpline
210
0.0
220
0.0
230
1.0
 70
     8
 71
     3
 72
    10
 73
     6
 74
     0
 42
0.000000001
 43
0.00000001
 40
0.0
 40
0.0
 40
0.0
 40
0.0
 40
0.5
 40
0.5
 40
1.0
 40
1.0
 40
1.0
 40
1.0
 10
33.75511589987808
 20
-2.501768254374226
 30
0.0
 10
33.71973838361201
 20
-2.461484884747476
 30
0.0
 10
33.67781714654628
 20
-2.427340771077765
 30
0.0
 10
33.58527003566473
 20
-2.381462180295842
 30
0.0
 10
33.53509379536631
 20
-2.370963670783271
 30
0.0
 10
33.49103571615633
 20
-2.377785581046524
 30
0.0
  0
SPLINE
  5
13D
330
1F
100
AcDbEntity
  8
0
  6
Continuous
 62
     1
370
    15
100
AcDbSpline
210
0.0
220
0.0
230
1.0
 70
     8
 71
     3
 72
     8
 73
     4
 74
     0
 42
0.000000001
 43
0.00000001
 40
0.0
 40
0.0
 40
0.0
 40
0.0
 40
1.0
 40
1.0
 40
1.0
 40
1.0
 10
33.49103571615633
 20
-2.377785581046526
 30
0.0
 10
33.35918627239253
 20
-2.398201021068986
 30
0.0
 10
33.21538234670184
 20
-2.368261968490223
 30
0.0
 10
33.07361260416741
 20
-2.311163715581603
 30
0.0
  0
SPLINE
  5
13E
330
1F
100
AcDbEntity
  8
0
  6
Continuous
 62
     1
370
    15
100
AcDbSpline
210
0.0
220
0.0
230
1.0
 70
     8
 71
     3
 72
     8
 73
     4
 74
     0
 42
0.000000001
 43
0.00000001
 40
0.0
 40
0.0
 40
0.0
 40
0.0
 40
1.0
 40
1.0
 40
1.0
 40
1.0
 10
33.07361260416859
 20
-2.311163715582865
 30
0.0
 10
32.92332493902352
 20
-2.219940312427479
 30
0.0
 10
32.78347727233436
 20
-2.104229225987293
 30
0.0
 10
32.66692778145752
 20
-1.97273734520413
 30
0.0
  0
SPLINE
  5
13F
330
1F
100
AcDbEntity
  8
0
  6
Continuous
 62
     1
370
    15
100
AcDbSpline
210
0.0
220
0.0
230
1.0
 70
     8
 71
     3
 72
    10
 73
     6
 74
     0
 42
0.000000001
 43
0.00000001
 40
0.0
 40
0.0
 40
0.0
 40
0.0
 40
0.5
 40
0.5
 40
1.0
 40
1.0
 40
1.0
 40
1.0
 10
32.66692778145752
 20
-1.972737345204127
 30
0.0
 10
32.63180244267082
 20
-1.933108713406079
 30
0.0
 10
32.59008982923105
 20
-1.898491874408802
 30
0.0
 10
32.49773877491592
 20
-1.849000496130047
 30
0.0
 10
32.44716941990625
 20
-1.83525037370044
 30
0.0
 10
32.40287931419761
 20
-1.837610129832154
 30
0.0
  0
SPLINE
  5
140
330
1F
100
AcDbEntity
  8
0
  6
Continuous
 62
     1
370
    15
100
AcDbSpline
210
0.0
220
0.0
230
1.0
 70
     8
 71
     3
 72
    10
 73
     6
 74
     0
 42
0.000000001
 43
0.00000001
 40
0.0
 40
0.0
 40
0.0
 40
0.0
 40
0.5
 40
0.5
 40
1.0
 40
1.0
 40
1.0
 40
1.0
 10
32.40287931419761
 20
-1.837610129832175
 30
0.0
 10
32.22894640991505
 20
-1.846877193679078
 30
0.0
 10
32.03902163551643
 20
-1.776317047610323
 30
0.0
 10
31.67659319780248
 20
-1.573778147115005
 30
0.0
 10
31.50776126323799
 20
-1.442916160357366
 30
0.0
 10
31.36892551444036
 20
-1.294974820971238
 30
0.0
  0
SPLINE
  5
141
330
1F
100
AcDbEntity
  8
0
  6
Continuous
 62
     1
370
    15
100
AcDbSpline
210
0.0
220
0.0
230
1.0
 70
     8
 71
     3
 72
    10
 73
     6
 74
     0
 42
0.000000001
 43
0.00000001
 40
0.0
 40
0.0
 40
0.0
 40
0.0
 40
0.5
 40
0.5
 40
1.0
 40
1.0
 40
1.0
 40
1.0
 10
31.36892551444032
 20
-1.294974820971195
 30
0.0
 10
31.33361326096723
 20
-1.257346601144586
 30
0.0
 10
31.29175600036011
 20
-1.223476181244375
 30
0.0
 10
31.19927183395985
 20
-1.172362144885593
 30
0.0
 10
31.14911163191423
 20
-1.156232940685684
 30
0.0
 10
31.10511171058279
 20
-1.154200287612581
 30
0.0
  0
SPLINE
  5
142
330
1F
100
AcDbEntity
  8
0
  6
Continuous
 62
     1
370
    15
100
AcDbSpline
210
0.0
220
0.0
230
1.0
 70
     8
 71
     3
 72
     8
 73
     4
 74
     0
 42
0.000000001
 43
0.00000001
 40
0.0
 40
0.0
 40
0.0
 40
0.0
 40
1.0
 40
1.0
 40
1.0
 40
1.0
 10
31.10511171058279
 20
-1.154200287612583
 30
0.0
 10
30.9734197285597
 20
-1.148116546918008
 30
0.0
 10
30.82974440653403
 20
-1.097545569360296
 30
0.0
 10
30.68813631690243
 20
-1.028202299710085
 30
0.0
  0
SPLINE
  5
143
330
1F
100
AcDbEntity
  8
0
  6
Continuous
 62
     1
370
    15
100
AcDbSpline
210
0.0
220
0.0
230
1.0
 70
     8
 71
     3
 72
     8
 73
     4
 74
     0
 42
0.000000001
 43
0.00000001
 40
0.0
 40
0.0
 40
0.0
 40
0.0
 40
1.0
 40
1.0
 40
1.0
 40
1.0
 10
30.68813631690274
 20
-1.028202299710454
 30
0.0
 10
30.53812080049101
 20
-0.9327870248737171
 30
0.0
 10
30.39865969444153
 20
-0.8229888507516054
 30
0.0
 10
30.2825163767482
 20
-0.7054523546709408
 30
0.0
  0
SPLINE
  5
144
330
1F
100
AcDbEntity
  8
0
  6
Continuous
 62
     1
370
    15
100
AcDbSpline
210
0.0
220
0.0
230
1.0
 70
     8
 71
     3
 72
    10
 73
     6
 74
     0
 42
0.000000001
 43
0.00000001
 40
0.0
 40
0.0
 40
0.0
 40
0.0
 40
0.5
 40
0.5
 40
1.0
 40
1.0
 40
1.0
 40
1.0
 10
30.2825163767482
 20
-0.7054523546709466
 30
0.0
 10
30.24746828585545
 20
-0.6699838500710869
 30
0.0
 10
30.20582567387017
 20
-0.6369795253829189
 30
0.0
 10
30.11360599915022
 20
-0.5841817762217325
 30
0.0
 10
30.06311617825756
 20
-0.5652659020927309
 30
0.0
 10
30.01888535241395
 20
-0.5586969944692997
 30
0.0
  0
SPLINE
  5
145
330
1F
100
AcDbEntity
  8
0
  6
Continuous
 62
     1
370
    15
100
AcDbSpline
210
0.0
220
0.0
230
1.0
 70
     8
 71
     3
 72
    10
 73
     6
 74
     0
 42
0.000000001
 43
0.00000001
 40
0.0
 40
0.0
 40
0.0
 40
0.0
 40
0.5
 40
0.5
 40
1.0
 40
1.0
 40
1.0
 40
1.0
 10
28.98531120074565
 20
0.0170320066270303
 30
0.0
 10
28.94995681673036
 20
0.048924720464546
 30
0.0
 10
28.90805354704242
 20
0.0797454703244641
 30
0.0
 10
28.81550400778647
 20
0.1319814993138372
 30
0.0
 10
28.76532311873959
 20
0.1525444482163796
 30
0.0
 10
28.72130312205935
 20
0.163348102654333
 30
0.0
  0
SPLINE
  5
146
330
1F
100
AcDbEntity
  8
0
  6
Continuous
 62
     1
370
    15
100
AcDbSpline
210
0.0
220
0.0
230
1.0
 70
     8
 71
     3
 72
    10
 73
     6
 74
     0
 42
0.000000001
 43
0.00000001
 40
0.0
 40
0.0
 40
0.0
 40
0.0
 40
0.5
 40
0.5
 40
1.0
 40
1.0
 40
1.0
 40
1.0
 10
27.89752706991387
 20
0.6217096790136208
 30
0.0
 10
27.86239060276468
 20
0.6501671273350921
 30
0.0
 10
27.82066805468453
 20
0.6789086762671146
 30
0.0
 10
27.72829639304898
 20
0.73072961874678
 30
0.0
 10
27.67768823794906
 20
0.7532710067468994
 30
0.0
 10
27.63335208047361
 20
0.7681591748125866
 30
0.0
  0
SPLINE
  5
147
330
1F
100
AcDbEntity
  8
0
  6
Continuous
 62
     1
370
    15
100
AcDbSpline
210
0.0
220
0.0
230
1.0
 70
     8
 71
     3
 72
    10
 73
     6
 74
     0
 42
0.000000001
 43
0.00000001
 40
0.0
 40
0.0
 40
0.0
 40
0.0
 40
0.5
 40
0.5
 40
1.0
 40
1.0
 40
1.0
 40
1.0
 10
26.59879954507156
 20
1.329032419136291
 30
0.0
 10
26.56345948249508
 20
1.35257796540719
 30
0.0
 10
26.52157808827369
 20
1.377847650756077
 30
0.0
 10
26.4290810481748
 20
1.427017736282706
 30
0.0
 10
26.37892950217903
 20
1.450393098050186
 30
0.0
 10
26.33492539859034
 20
1.469163044498007
 30
0.0
  0
SPLINE
  5
148
330
1F
100
AcDbEntity
  8
0
  6
Continuous
 62
     1
370
    15
100
AcDbSpline
210
0.0
220
0.0
230
1.0
 70
     8
 71
     3
 72
    10
 73
     6
 74
     0
 42
0.000000001
 43
0.00000001
 40
0.0
 40
0.0
 40
0.0
 40
0.0
 40
0.4999999999999996
 40
0.4999999999999996
 40
1.0
 40
1.0
 40
1.0
 40
1.0
 10
25.51234136719641
 20
1.896862039457726
 30
0.0
 10
25.47725878007405
 20
1.915746148305272
 30
0.0
 10
25.43556134018547
 20
1.937645576705135
 30
0.0
 10
25.34320519567994
 20
1.983863329629223
 30
0.0
 10
25.2929834742974
 20
2.007826470014839
 30
0.0
 10
25.24868506245519
 20
2.029732993974778
 30
0.0
  0
SPLINE
  5
149
330
1F
100
AcDbEntity
  8
0
  6
Continuous
 62
     1
370
    15
100
AcDbSpline
210
0.0
220
0.0
230
1.0
 70
     8
 71
     3
 72
    10
 73
     6
 74
     0
 42
0.000000001
 43
0.00000001
 40
0.0
 40
0.0
 40
0.0
 40
0.0
 40
0.5
 40
0.5
 40
1.0
 40
1.0
 40
1.0
 40
1.0
 10
24.21530886105314
 20
2.530116109348036
 30
0.0
 10
24.17999499225292
 20
2.543390484874982
 30
0.0
 10
24.13813364928141
 20
2.561023296700103
 30
0.0
 10
24.04564381327424
 20
2.602992064993879
 30
0.0
 10
23.99547186326448
 20
2.627171117135054
 30
0.0
 10
23.95144942755134
 20
2.652243784312915
 30
0.0
  0
SPLINE
  5
14A
330
1F
100
AcDbEntity
  8
0
  6
Continuous
 62
     1
370
    15
100
AcDbSpline
210
0.0
220
0.0
230
1.0
 70
     8
 71
     3
 72
     8
 73
     4
 74
     0
 42
0.000000001
 43
0.00000001
 40
0.0
 40
0.0
 40
0.0
 40
0.0
 40
1.0
 40
1.0
 40
1.0
 40
1.0
 10
23.95144942755134
 20
2.652243784312915
 30
0.0
 10
23.81970207579179
 20
2.727279557520834
 30
0.0
 10
23.67597667368211
 20
2.810595893609805
 30
0.0
 10
23.53429915044074
 20
2.881068416054579
 30
0.0
  0
SPLINE
  5
14B
330
1F
100
AcDbEntity
  8
0
  6
Continuous
 62
     1
370
    15
100
AcDbSpline
210
0.0
220
0.0
230
1.0
 70
     8
 71
     3
 72
     8
 73
     4
 74
     0
 42
0.000000001
 43
0.00000001
 40
0.0
 40
0.0
 40
0.0
 40
0.0
 40
1.0
 40
1.0
 40
1.0
 40
1.0
 10
23.53429915044077
 20
2.881068416054491
 30
0.0
 10
23.38411269292718
 20
2.944146707067951
 30
0.0
 10
23.24445146799704
 20
2.987505355210801
 30
0.0
 10
23.12803342411505
 20
3.013607254991615
 30
0.0
  0
SPLINE
  5
14C
330
1F
100
AcDbEntity
  8
0
  6
Continuous
 62
     1
370
    15
100
AcDbSpline
210
0.0
220
0.0
230
1.0
 70
     8
 71
     3
 72
    10
 73
     6
 74
     0
 42
0.000000001
 43
0.00000001
 40
0.0
 40
0.0
 40
0.0
 40
0.0
 40
0.5
 40
0.5
 40
1.0
 40
1.0
 40
1.0
 40
1.0
 10
23.12803342411505
 20
3.01360725499162
 30
0.0
 10
23.09289869170885
 20
3.021484756051695
 30
0.0
 10
23.05116853997929
 20
3.03485179738153
 30
0.0
 10
22.95879956074972
 20
3.07186904950332
 30
0.0
 10
22.90822436633782
 20
3.095726266105332
 30
0.0
 10
22.8639198638927
 20
3.122940470348375
 30
0.0
  0
SPLINE
  5
14D
330
1F
100
AcDbEntity
  8
0
  6
Continuous
 62
     1
370
    15
100
AcDbSpline
210
0.0
220
0.0
230
1.0
 70
     8
 71
     3
 72
    10
 73
     6
 74
     0
 42
0.000000001
 43
0.00000001
 40
0.0
 40
0.0
 40
0.0
 40
0.0
 40
0.5
 40
0.5
 40
1.0
 40
1.0
 40
1.0
 40
1.0
 10
22.86391986389271
 20
3.122940470348375
 30
0.0
 10
22.68985108212024
 20
3.229862862386564
 30
0.0
 10
22.49997867617353
 20
3.335252361705256
 30
0.0
 10
22.13727044082036
 20
3.477953807050777
 30
0.0
 10
21.96803096439633
 20
3.514949916077478
 30
0.0
 10
21.8289566575698
 20
3.522011669573519
 30
0.0
  0
SPLINE
  5
14E
330
1F
100
AcDbEntity
  8
0
  6
Continuous
 62
     1
370
    15
100
AcDbSpline
210
0.0
220
0.0
230
1.0
 70
     8
 71
     3
 72
    10
 73
     6
 74
     0
 42
0.000000001
 43
0.00000001
 40
0.0
 40
0.0
 40
0.0
 40
0.0
 40
0.5
 40
0.5
 40
1.0
 40
1.0
 40
1.0
 40
1.0
 10
21.82895665756976
 20
3.522011669573524
 30
0.0
 10
21.79360103544464
 20
3.523806916257428
 30
0.0
 10
21.75170358227762
 20
3.532231686415484
 30
0.0
 10
21.65915744668262
 20
3.563353839764216
 30
0.0
 10
21.60897102005413
 20
3.586277832876212
 30
0.0
 10
21.56494919494038
 20
3.615558955393109
 30
0.0
  0
SPLINE
  5
14F
330
1F
100
AcDbEntity
  8
0
  6
Continuous
 62
     1
370
    15
100
AcDbSpline
210
0.0
220
0.0
230
1.0
 70
     8
 71
     3
 72
     8
 73
     4
 74
     0
 42
0.000000001
 43
0.00000001
 40
0.0
 40
0.0
 40
0.0
 40
0.0
 40
1.0
 40
1.0
 40
1.0
 40
1.0
 10
21.56494919494038
 20
3.615558955393096
 30
0.0
 10
21.43318985680501
 20
3.70319869574274
 30
0.0
 10
21.28945089713442
 20
3.784211488227637
 30
0.0
 10
21.14782217173106
 20
3.842876431453887
 30
0.0
  0
SPLINE
  5
150
330
1F
100
AcDbEntity
  8
0
  6
Continuous
 62
     1
370
    15
100
AcDbSpline
210
0.0
220
0.0
230
1.0
 70
     8
 71
     3
 72
     8
 73
     4
 74
     0
 42
0.000000001
 43
0.00000001
 40
0.0
 40
0.0
 40
0.0
 40
0.0
 40
1.0
 40
1.0
 40
1.0
 40
1.0
 10
21.1478221717312
 20
3.84287643145379
 30
0.0
 10
20.99773850222844
 20
3.882879632884693
 30
0.0
 10
20.85824508850339
 20
3.893927451419307
 30
0.0
 10
20.74208553584827
 20
3.881328821690019
 30
0.0
  0
SPLINE
  5
151
330
1F
100
AcDbEntity
  8
0
  6
Continuous
 62
     1
370
    15
100
AcDbSpline
210
0.0
220
0.0
230
1.0
 70
     8
 71
     3
 72
    10
 73
     6
 74
     0
 42
0.000000001
 43
0.00000001
 40
0.0
 40
0.0
 40
0.0
 40
0.0
 40
0.5
 40
0.5
 40
1.0
 40
1.0
 40
1.0
 40
1.0
 10
20.74208553584826
 20
3.881328821690012
 30
0.0
 10
20.7070394858128
 20
3.877527737768987
 30
0.0
 10
20.66540520711406
 20
3.881248917110289
 30
0.0
 10
20.57321392129676
 20
3.906018512433709
 30
0.0
 10
20.52271943115813
 20
3.92763100934024
 30
0.0
 10
20.47846959924982
 20
3.957870051909929
 30
0.0
  0
SPLINE
  5
152
330
1F
100
AcDbEntity
  8
0
  6
Continuous
 62
     1
370
    15
100
AcDbSpline
210
0.0
220
0.0
230
1.0
 70
     8
 71
     3
 72
    10
 73
     6
 74
     0
 42
0.000000001
 43
0.00000001
 40
0.0
 40
0.0
 40
0.0
 40
0.0
 40
0.5
 40
0.5
 40
1.0
 40
1.0
 40
1.0
 40
1.0
 10
20.47846959924982
 20
3.957870051909945
 30
0.0
 10
20.30483741865739
 20
4.07652521225681
 30
0.0
 10
20.1152041778363
 20
4.16840852047053
 30
0.0
 10
19.75281649239439
 20
4.259442223819824
 30
0.0
 10
19.58388638519606
 20
4.258678664839639
 30
0.0
 10
19.44514194992208
 20
4.22027044911934
 30
0.0
  0
SPLINE
  5
153
330
1F
100
AcDbEntity
  8
0
  6
Continuous
 62
     1
370
    15
100
AcDbSpline
210
0.0
220
0.0
230
1.0
 70
     8
 71
     3
 72
    10
 73
     6
 74
     0
 42
0.000000001
 43
0.00000001
 40
0.0
 40
0.0
 40
0.0
 40
0.0
 40
0.5
 40
0.5
 40
1.0
 40
1.0
 40
1.0
 40
1.0
 10
19.44514194992206
 20
4.220270449119331
 30
0.0
 10
19.40981865077551
 20
4.210492003656675
 30
0.0
 10
19.36794731155281
 20
4.209086115455547
 30
0.0
 10
19.27545698622264
 20
4.226932668477097
 30
0.0
 10
19.22531079364946
 20
4.246772348195258
 30
0.0
 10
19.18132083105916
 20
4.277878429887239
 30
0.0
  0
SPLINE
  5
154
330
1F
100
AcDbEntity
  8
0
  6
Continuous
 62
     1
370
    15
100
AcDbSpline
210
0.0
220
0.0
230
1.0
 70
     8
 71
     3
 72
     8
 73
     4
 74
     0
 42
0.000000001
 43
0.00000001
 40
0.0
 40
0.0
 40
0.0
 40
0.0
 40
1.0
 40
1.0
 40
1.0
 40
1.0
 10
19.18132083105917
 20
4.277878429887235
 30
0.0
 10
19.04954307186213
 20
4.371060817445647
 30
0.0
 10
18.90583407668775
 20
4.443187121947136
 30
0.0
 10
18.76432460371704
 20
4.485258799792938
 30
0.0
  0
SPLINE
  5
155
330
1F
100
AcDbEntity
  8
0
  6
Continuous
 62
     1
370
    15
100
AcDbSpline
210
0.0
220
0.0
230
1.0
 70
     8
 71
     3
 72
     8
 73
     4
 74
     0
 42
0.000000001
 43
0.00000001
 40
0.0
 40
0.0
 40
0.0
 40
0.0
 40
1.0
 40
1.0
 40
1.0
 40
1.0
 10
18.76432460371709
 20
4.485258799792906
 30
0.0
 10
18.61431570051847
 20
4.499007578526649
 30
0.0
 10
18.47475496728244
 20
4.476783331318975
 30
0.0
 10
18.35838308248888
 20
4.426438695123725
 30
0.0
  0
SPLINE
  5
156
330
1F
100
AcDbEntity
  8
0
  6
Continuous
 62
     1
370
    15
100
AcDbSpline
210
0.0
220
0.0
230
1.0
 70
     8
 71
     3
 72
    10
 73
     6
 74
     0
 42
0.000000001
 43
0.00000001
 40
0.0
 40
0.0
 40
0.0
 40
0.0
 40
0.5
 40
0.5
 40
1.0
 40
1.0
 40
1.0
 40
1.0
 10
18.35838308248889
 20
4.426438695123723
 30
0.0
 10
18.32328924009643
 20
4.411256447873228
 30
0.0
 10
18.28159862928042
 20
4.404980104015351
 30
0.0
 10
18.18927655305171
 20
4.415290340080816
 30
0.0
 10
18.1387143941189
 20
4.432769270531222
 30
0.0
 10
18.09442609071818
 20
4.463473908961078
 30
0.0
  0
SPLINE
  5
157
330
1F
100
AcDbEntity
  8
0
  6
Continuous
 62
     1
370
    15
100
AcDbSpline
210
0.0
220
0.0
230
1.0
 70
     8
 71
     3
 72
    10
 73
     6
 74
     0
 42
0.000000001
 43
0.00000001
 40
0.0
 40
0.0
 40
0.0
 40
0.0
 40
0.4999999999999999
 40
0.4999999999999999
 40
1.0
 40
1.0
 40
1.0
 40
1.0
 10
18.09442609071819
 20
4.463473908961088
 30
0.0
 10
17.92039283424562
 20
4.584129427561827
 30
0.0
 10
17.73028355265578
 20
4.655200219373085
 30
0.0
 10
17.36732085839312
 20
4.687689006886799
 30
0.0
 10
17.19817529577273
 20
4.649580931017562
 30
0.0
 10
17.05920549654505
 20
4.569030687750841
 30
0.0
  0
SPLINE
  5
158
330
1F
100
AcDbEntity
  8
0
  6
Continuous
 62
     1
370
    15
100
AcDbSpline
210
0.0
220
0.0
230
1.0
 70
     8
 71
     3
 72
    10
 73
     6
 74
     0
 42
0.000000001
 43
0.00000001
 40
0.0
 40
0.0
 40
0.0
 40
0.0
 40
0.4999999999999999
 40
0.4999999999999999
 40
1.0
 40
1.0
 40
1.0
 40
1.0
 10
17.05920549654501
 20
4.569030687750814
 30
0.0
 10
17.02382276467898
 20
4.548522004028958
 30
0.0
 10
16.98190647253827
 20
4.537409032951096
 30
0.0
 10
16.88936734172503
 20
4.540478787526137
 30
0.0
 10
16.8391845724222
 20
4.555555859449511
 30
0.0
 10
16.79512500230167
 20
4.58594624232159
 30
0.0
  0
SPLINE
  5
159
330
1F
100
AcDbEntity
  8
0
  6
Continuous
 62
     1
370
    15
100
AcDbSpline
210
0.0
220
0.0
230
1.0
 70
     8
 71
     3
 72
     8
 73
     4
 74
     0
 42
0.000000001
 43
0.00000001
 40
0.0
 40
0.0
 40
0.0
 40
0.0
 40
1.0
 40
1.0
 40
1.0
 40
1.0
 10
16.79512500230167
 20
4.585946242321588
 30
0.0
 10
16.66334802373418
 20
4.676840293748693
 30
0.0
 10
16.51962135321237
 20
4.733921850843512
 30
0.0
 10
16.37792091714971
 20
4.755687134071965
 30
0.0
  0
SPLINE
  5
15A
330
1F
100
AcDbEntity
  8
0
  6
Continuous
 62
     1
370
    15
100
AcDbSpline
210
0.0
220
0.0
230
1.0
 70
     8
 71
     3
 72
     8
 73
     4
 74
     0
 42
0.000000001
 43
0.00000001
 40
0.0
 40
0.0
 40
0.0
 40
0.0
 40
1.0
 40
1.0
 40
1.0
 40
1.0
 10
16.37792091714941
 20
4.755687134071928
 30
0.0
 10
16.22786028105791
 20
4.741756493212469
 30
0.0
 10
16.08826325441069
 20
4.688008006251884
 30
0.0
 10
15.97197821052525
 20
4.604101339435573
 30
0.0
  0
SPLINE
  5
15B
330
1F
100
AcDbEntity
  8
0
  6
Continuous
 62
     1
370
    15
100
AcDbSpline
210
0.0
220
0.0
230
1.0
 70
     8
 71
     3
 72
     8
 73
     4
 74
     0
 42
0.000000001
 43
0.00000001
 40
0.0
 40
0.0
 40
0.0
 40
0.0
 40
1.0
 40
1.0
 40
1.0
 40
1.0
 10
15.72709613603405
 20
4.587722610608587
 30
0.0
 10
15.72068582146212
 20
4.591102941419766
 30
0.0
 10
15.71439987250411
 20
4.594783581066263
 30
0.0
 10
15.70824276717809
 20
4.598770245292558
 30
0.0
  0
LINE
  5
15C
330
1F
100
AcDbEntity
  8
0
  6
Continuous
 62
     1
370
    15
100
AcDbLine
 10
15.70824288297445
 20
4.59877029061317
 30
0.0
 11
15.62347995582968
 21
4.636802244931455
 31
0.0
  0
SPLINE
  5
15D
330
1F
100
AcDbEntity
  8
0
  6
Continuous
 62
     1
370
    15
100
AcDbSpline
210
0.0
220
0.0
230
1.0
 70
     8
 71
     3
 72
    10
 73
     6
 74
     0
 42
0.000000001
 43
0.00000001
 40
0.0
 40
0.0
 40
0.0
 40
0.0
 40
0.5
 40
0.5
 40
1.0
 40
1.0
 40
1.0
 40
1.0
 10
12.84748058396131
 20
2.977575656416242
 30
0.0
 10
12.6735019482162
 20
3.082000976839097
 30
0.0
 10
12.4834730769099
 20
3.188242212282794
 30
0.0
 10
12.12049118425985
 20
3.336889956057122
 30
0.0
 10
11.95126880031925
 20
3.379121325714836
 30
0.0
 10
11.81223355152931
 20
3.392973154265254
 30
0.0
  0
SPLINE
  5
15E
330
1F
100
AcDbEntity
  8
0
  6
Continuous
 62
     1
370
    15
100
AcDbSpline
210
0.0
220
0.0
230
1.0
 70
     8
 71
     3
 72
    10
 73
     6
 74
     0
 42
0.000000001
 43
0.00000001
 40
0.0
 40
0.0
 40
0.0
 40
0.0
 40
0.5
 40
0.5
 40
1.0
 40
1.0
 40
1.0
 40
1.0
 10
11.56501670382268
 20
0.9487430006097888
 30
0.0
 10
11.73897811758841
 20
0.9331803470826828
 30
0.0
 10
11.92897579445813
 20
0.8471450802039471
 30
0.0
 10
12.29194924516481
 20
0.6358654600189331
 30
0.0
 10
12.46119098446378
 20
0.5115146395708883
 30
0.0
 10
12.6002518420088
 20
0.3781991987840698
 30
0.0
  0
SPLINE
  5
15F
330
1F
100
AcDbEntity
  8
0
  6
Continuous
 62
     1
370
    15
100
AcDbSpline
210
0.0
220
0.0
230
1.0
 70
     8
 71
     3
 72
     8
 73
     4
 74
     0
 42
0.000000001
 43
0.00000001
 40
0.0
 40
0.0
 40
0.0
 40
0.0
 40
1.0
 40
1.0
 40
1.0
 40
1.0
 10
18.05135591609343
 20
-2.544879879418312
 30
0.0
 10
18.20155029656912
 20
-2.613906300965036
 30
0.0
 10
18.34118494518334
 20
-2.666420901229685
 30
0.0
 10
18.45748562999711
 20
-2.70383220424424
 30
0.0
  0
SPLINE
  5
160
330
1F
100
AcDbEntity
  8
0
  6
Continuous
 62
     1
370
    15
100
AcDbSpline
210
0.0
220
0.0
230
1.0
 70
     8
 71
     3
 72
     8
 73
     4
 74
     0
 42
0.000000001
 43
0.00000001
 40
0.0
 40
0.0
 40
0.0
 40
0.0
 40
1.0
 40
1.0
 40
1.0
 40
1.0
 10
18.70451699178971
 20
-0.0311612617075295
 30
0.0
 10
18.57276708366423
 20
-0.0021615823893327
 30
0.0
 10
18.42906939871528
 20
0.063375373279439
 30
0.0
 10
18.28739295005114
 20
0.1389812275732241
 30
0.0
  0
LWPOLYLINE
  5
161
330
1F
100
AcDbEntity
  8
0
  6
Continuous
 62
     1
370
    15
100
AcDbPolyline
 90
        3
 70
   128
 43
0.0
 10
10.17684511840343
 20
4.748536273837085
 10
10.17857004422694
 20
4.748612642288204
 10
10.17992523498833
 20
4.748671781271692
  0
SPLINE
  5
162
330
1F
100
AcDbEntity
  8
0
  6
Continuous
 62
     1
370
    15
100
AcDbSpline
210
0.0
220
0.0
230
1.0
 70
     8
 71
     3
 72
    10
 73
     6
 74
     0
 42
0.000000001
 43
0.00000001
 40
0.0
 40
0.0
 40
0.0
 40
0.0
 40
0.5
 40
0.5
 40
1.0
 40
1.0
 40
1.0
 40
1.0
 10
10.17992527966458
 20
4.748671963698542
 30
0.0
 10
10.2749713180825
 20
4.752843477207353
 30
0.0
 10
10.36532516258838
 20
4.741763126702382
 30
0.0
 10
10.53784630521272
 20
4.691997790743245
 30
0.0
 10
10.61882743186181
 20
4.653166564378553
 30
0.0
 10
10.69103471733692
 20
4.602903768950288
 30
0.0
  0
SPLINE
  5
163
330
1F
100
AcDbEntity
  8
0
  6
Continuous
 62
     1
370
    15
100
AcDbSpline
210
0.0
220
0.0
230
1.0
 70
     8
 71
     3
 72
    10
 73
     6
 74
     0
 42
0.000000001
 43
0.00000001
 40
0.0
 40
0.0
 40
0.0
 40
0.0
 40
0.5
 40
0.5
 40
1.0
 40
1.0
 40
1.0
 40
1.0
 10
10.69103471733693
 20
4.60290376895029
 30
0.0
 10
10.72637567088554
 20
4.57830327182918
 30
0.0
 10
10.76826449418871
 20
4.563316050763154
 30
0.0
 10
10.86078046172693
 20
4.560002353013055
 30
0.0
 10
10.91094018148697
 20
4.572688164648588
 30
0.0
 10
10.95494660497796
 20
4.601949179090267
 30
0.0
  0
SPLINE
  5
164
330
1F
100
AcDbEntity
  8
0
  6
Continuous
 62
     1
370
    15
100
AcDbSpline
210
0.0
220
0.0
230
1.0
 70
     8
 71
     3
 72
     8
 73
     4
 74
     0
 42
0.000000001
 43
0.00000001
 40
0.0
 40
0.0
 40
0.0
 40
0.0
 40
1.0
 40
1.0
 40
1.0
 40
1.0
 10
10.95494660497796
 20
4.601949179090274
 30
0.0
 10
11.08677530041431
 20
4.689605504121563
 30
0.0
 10
11.23050112821061
 20
4.738833333998456
 30
0.0
 10
11.37206763352051
 20
4.751408659464803
 30
0.0
  0
SPLINE
  5
165
330
1F
100
AcDbEntity
  8
0
  6
Continuous
 62
     1
370
    15
100
AcDbSpline
210
0.0
220
0.0
230
1.0
 70
     8
 71
     3
 72
     8
 73
     4
 74
     0
 42
0.000000001
 43
0.00000001
 40
0.0
 40
0.0
 40
0.0
 40
0.0
 40
1.0
 40
1.0
 40
1.0
 40
1.0
 10
11.37206762000134
 20
4.751408661747448
 30
0.0
 10
11.52216207475395
 20
4.726065919041387
 30
0.0
 10
11.66184761179793
 20
4.66021444291208
 30
0.0
 10
11.77833843282058
 20
4.56412812826989
 30
0.0
  0
SPLINE
  5
166
330
1F
100
AcDbEntity
  8
0
  6
Continuous
 62
     1
370
    15
100
AcDbSpline
210
0.0
220
0.0
230
1.0
 70
     8
 71
     3
 72
    10
 73
     6
 74
     0
 42
0.000000001
 43
0.00000001
 40
0.0
 40
0.0
 40
0.0
 40
0.0
 40
0.5
 40
0.5
 40
1.0
 40
1.0
 40
1.0
 40
1.0
 10
11.77833843282058
 20
4.564128128269888
 30
0.0
 10
11.81347094293745
 20
4.535149420835042
 30
0.0
 10
11.85519934810338
 20
4.515777753161095
 30
0.0
 10
11.94758119611971
 20
4.504474526514976
 30
0.0
 10
11.99817634066824
 20
4.51375388697838
 30
0.0
 10
12.04249523886217
 20
4.54083265577589
 30
0.0
  0
SPLINE
  5
167
330
1F
100
AcDbEntity
  8
0
  6
Continuous
 62
     1
370
    15
100
AcDbSpline
210
0.0
220
0.0
230
1.0
 70
     8
 71
     3
 72
    10
 73
     6
 74
     0
 42
0.000000001
 43
0.00000001
 40
0.0
 40
0.0
 40
0.0
 40
0.0
 40
0.5
 40
0.5
 40
1.0
 40
1.0
 40
1.0
 40
1.0
 10
12.04249523886226
 20
4.540832655775987
 30
0.0
 10
12.21651688122391
 20
4.647159572989764
 30
0.0
 10
12.40657831338017
 20
4.679050943435426
 30
0.0
 10
12.76948584502885
 20
4.624889825972462
 30
0.0
 10
12.93857591100853
 20
4.539531257391543
 30
0.0
 10
13.07744809490015
 20
4.410995654644546
 30
0.0
  0
SPLINE
  5
168
330
1F
100
AcDbEntity
  8
0
  6
Continuous
 62
     1
370
    15
100
AcDbSpline
210
0.0
220
0.0
230
1.0
 70
     8
 71
     3
 72
    10
 73
     6
 74
     0
 42
0.000000001
 43
0.00000001
 40
0.0
 40
0.0
 40
0.0
 40
0.0
 40
0.5
 40
0.5
 40
1.0
 40
1.0
 40
1.0
 40
1.0
 10
13.07744809490016
 20
4.410995654644537
 30
0.0
 10
13.11279356290497
 20
4.378281032413796
 30
0.0
 10
13.15466972880002
 20
4.355073899717332
 30
0.0
 10
13.24715224839892
 20
4.336885318579005
 30
0.0
 10
13.29732853962354
 20
4.343126638226548
 30
0.0
 10
13.341365482614
 20
4.368106243523741
 30
0.0
  0
SPLINE
  5
169
330
1F
100
AcDbEntity
  8
0
  6
Continuous
 62
     1
370
    15
100
AcDbSpline
210
0.0
220
0.0
230
1.0
 70
     8
 71
     3
 72
     8
 73
     4
 74
     0
 42
0.000000001
 43
0.00000001
 40
0.0
 40
0.0
 40
0.0
 40
0.0
 40
1.0
 40
1.0
 40
1.0
 40
1.0
 10
13.341365482614
 20
4.368106243523751
 30
0.0
 10
13.47309012815451
 20
4.442825999938893
 30
0.0
 10
13.61677082564596
 20
4.470813904299117
 30
0.0
 10
13.75842552272417
 20
4.461196753066869
 30
0.0
  0
SPLINE
  5
16A
330
1F
100
AcDbEntity
  8
0
  6
Continuous
 62
     1
370
    15
100
AcDbSpline
210
0.0
220
0.0
230
1.0
 70
     8
 71
     3
 72
     8
 73
     4
 74
     0
 42
0.000000001
 43
0.00000001
 40
0.0
 40
0.0
 40
0.0
 40
0.0
 40
1.0
 40
1.0
 40
1.0
 40
1.0
 10
13.75842550921074
 20
4.461196757618747
 30
0.0
 10
13.90843147860044
 20
4.410668442050191
 30
0.0
 10
14.0479583594542
 20
4.320488263932603
 30
0.0
 10
14.16417303479647
 20
4.201549145199925
 30
0.0
  0
SPLINE
  5
16B
330
1F
100
AcDbEntity
  8
0
  6
Continuous
 62
     1
370
    15
100
AcDbSpline
210
0.0
220
0.0
230
1.0
 70
     8
 71
     3
 72
    10
 73
     6
 74
     0
 42
0.000000001
 43
0.00000001
 40
0.0
 40
0.0
 40
0.0
 40
0.0
 40
0.5
 40
0.5
 40
1.0
 40
1.0
 40
1.0
 40
1.0
 10
14.16417303479647
 20
4.201549145199921
 30
0.0
 10
14.19922411401974
 20
4.16567635666296
 30
0.0
 10
14.24087024192744
 20
4.138943703463244
 30
0.0
 10
14.33311240717301
 20
4.113433261861072
 30
0.0
 10
14.38361462730441
 20
4.115985397370551
 30
0.0
 10
14.4278438393874
 20
4.137717718584856
 30
0.0
  0
SPLINE
  5
16C
330
1F
100
AcDbEntity
  8
0
  6
Continuous
 62
     1
370
    15
100
AcDbSpline
210
0.0
220
0.0
230
1.0
 70
     8
 71
     3
 72
    10
 73
     6
 74
     0
 42
0.000000001
 43
0.00000001
 40
0.0
 40
0.0
 40
0.0
 40
0.0
 40
0.5
 40
0.5
 40
1.0
 40
1.0
 40
1.0
 40
1.0
 10
14.42784383938749
 20
4.137717718584959
 30
0.0
 10
14.60163982403056
 20
4.223113546051422
 30
0.0
 10
14.79142075084114
 20
4.223863987080527
 30
0.0
 10
15.15352033419894
 20
4.113046630925219
 30
0.0
 10
15.32231520295074
 20
4.00261287096424
 30
0.0
 10
15.46108324522575
 20
3.852980223273128
 30
0.0
  0
SPLINE
  5
16D
330
1F
100
AcDbEntity
  8
0
  6
Continuous
 62
     1
370
    15
100
AcDbSpline
210
0.0
220
0.0
230
1.0
 70
     8
 71
     3
 72
    10
 73
     6
 74
     0
 42
0.000000001
 43
0.00000001
 40
0.0
 40
0.0
 40
0.0
 40
0.0
 40
0.5
 40
0.5
 40
1.0
 40
1.0
 40
1.0
 40
1.0
 10
15.46108324522576
 20
3.852980223273151
 30
0.0
 10
15.49639846619292
 20
3.814900057764729
 30
0.0
 10
15.53826255011156
 20
3.785463556403791
 30
0.0
 10
15.63075653267062
 20
3.754109228568726
 30
0.0
 10
15.68091766951179
 20
3.753515411216041
 30
0.0
 10
15.72491802706201
 20
3.772164066054318
 30
0.0
  0
SPLINE
  5
16E
330
1F
100
AcDbEntity
  8
0
  6
Continuous
 62
     1
370
    15
100
AcDbSpline
210
0.0
220
0.0
230
1.0
 70
     8
 71
     3
 72
     8
 73
     4
 74
     0
 42
0.000000001
 43
0.00000001
 40
0.0
 40
0.0
 40
0.0
 40
0.0
 40
1.0
 40
1.0
 40
1.0
 40
1.0
 10
15.72491802706201
 20
3.772164066054318
 30
0.0
 10
15.85664958163983
 20
3.827995800826653
 30
0.0
 10
16.00036912615069
 20
3.83253079297881
 30
0.0
 10
16.14200460161636
 20
3.801550522284553
 30
0.0
  0
SPLINE
  5
16F
330
1F
100
AcDbEntity
  8
0
  6
Continuous
 62
     1
370
    15
100
AcDbSpline
210
0.0
220
0.0
230
1.0
 70
     8
 71
     3
 72
     8
 73
     4
 74
     0
 42
0.000000001
 43
0.00000001
 40
0.0
 40
0.0
 40
0.0
 40
0.0
 40
1.0
 40
1.0
 40
1.0
 40
1.0
 10
16.14200458809921
 20
3.801550528725202
 30
0.0
 10
16.29216281330941
 20
3.730002530736295
 30
0.0
 10
16.43174305822276
 20
3.622818837183132
 30
0.0
 10
16.54805596121616
 20
3.490813170253257
 30
0.0
  0
SPLINE
  5
170
330
1F
100
AcDbEntity
  8
0
  6
Continuous
 62
     1
370
    15
100
AcDbSpline
210
0.0
220
0.0
230
1.0
 70
     8
 71
     3
 72
    10
 73
     6
 74
     0
 42
0.000000001
 43
0.00000001
 40
0.0
 40
0.0
 40
0.0
 40
0.0
 40
0.5
 40
0.5
 40
1.0
 40
1.0
 40
1.0
 40
1.0
 10
16.54805596121616
 20
3.490813170253248
 30
0.0
 10
16.58316613712152
 20
3.450965981616942
 30
0.0
 10
16.62487006997394
 20
3.419029859181141
 30
0.0
 10
16.71718225250025
 20
3.381247128951272
 30
0.0
 10
16.767727499556
 20
3.376705600017734
 30
0.0
 10
16.8120164083935
 20
3.391247809225407
 30
0.0
  0
SPLINE
  5
171
330
1F
100
AcDbEntity
  8
0
  6
Continuous
 62
     1
370
    15
100
AcDbSpline
210
0.0
220
0.0
230
1.0
 70
     8
 71
     3
 72
    10
 73
     6
 74
     0
 42
0.000000001
 43
0.00000001
 40
0.0
 40
0.0
 40
0.0
 40
0.0
 40
0.5
 40
0.5
 40
1.0
 40
1.0
 40
1.0
 40
1.0
 10
16.81201640839359
 20
3.391247809225478
 30
0.0
 10
16.98599758728412
 20
3.448374317148831
 30
0.0
 10
17.17585682631876
 20
3.417489428834862
 30
0.0
 10
17.53879135706832
 20
3.259569046306368
 30
0.0
 10
17.70807799089662
 20
3.133378979579982
 30
0.0
 10
17.8471870607794
 20
2.974946514616128
 30
0.0
  0
SPLINE
  5
172
330
1F
100
AcDbEntity
  8
0
  6
Continuous
 62
     1
370
    15
100
AcDbSpline
210
0.0
220
0.0
230
1.0
 70
     8
 71
     3
 72
    10
 73
     6
 74
     0
 42
0.000000001
 43
0.00000001
 40
0.0
 40
0.0
 40
0.0
 40
0.0
 40
0.5
 40
0.5
 40
1.0
 40
1.0
 40
1.0
 40
1.0
 10
17.84718706077941
 20
2.974946514616128
 30
0.0
 10
17.88256761547568
 20
2.934651309587158
 30
0.0
 10
17.92448785934728
 20
2.90140076211444
 30
0.0
 10
18.01706331115379
 20
2.859376056082833
 30
0.0
 10
18.06725995787715
 20
2.851908732241413
 30
0.0
 10
18.11129446717937
 20
2.862661196907424
 30
0.0
  0
SPLINE
  5
173
330
1F
100
AcDbEntity
  8
0
  6
Continuous
 62
     1
370
    15
100
AcDbSpline
210
0.0
220
0.0
230
1.0
 70
     8
 71
     3
 72
     8
 73
     4
 74
     0
 42
0.000000001
 43
0.00000001
 40
0.0
 40
0.0
 40
0.0
 40
0.0
 40
1.0
 40
1.0
 40
1.0
 40
1.0
 10
18.11129446717936
 20
2.862661196907434
 30
0.0
 10
18.24311176369036
 20
2.894848698155061
 30
0.0
 10
18.38688213286256
 20
2.875297132584618
 30
0.0
 10
18.5284837086191
 20
2.825258201954315
 30
0.0
  0
SPLINE
  5
174
330
1F
100
AcDbEntity
  8
0
  6
Continuous
 62
     1
370
    15
100
AcDbSpline
210
0.0
220
0.0
230
1.0
 70
     8
 71
     3
 72
     8
 73
     4
 74
     0
 42
0.000000001
 43
0.00000001
 40
0.0
 40
0.0
 40
0.0
 40
0.0
 40
1.0
 40
1.0
 40
1.0
 40
1.0
 10
18.52848369510144
 20
2.825258209775094
 30
0.0
 10
18.67857664269792
 20
2.738419947346381
 30
0.0
 10
18.81802224560337
 20
2.622935090662317
 30
0.0
 10
18.93429475120109
 20
2.488687699200368
 30
0.0
  0
SPLINE
  5
175
330
1F
100
AcDbEntity
  8
0
  6
Continuous
 62
     1
370
    15
100
AcDbSpline
210
0.0
220
0.0
230
1.0
 70
     8
 71
     3
 72
    10
 73
     6
 74
     0
 42
0.000000001
 43
0.00000001
 40
0.0
 40
0.0
 40
0.0
 40
0.0
 40
0.5
 40
0.5
 40
1.0
 40
1.0
 40
1.0
 40
1.0
 10
18.93429475120109
 20
2.488687699200361
 30
0.0
 10
18.96937819045672
 20
2.448180614749299
 30
0.0
 10
19.01107280566445
 20
2.413697977582488
 30
0.0
 10
19.10342739519781
 20
2.366937742640448
 30
0.0
 10
19.15366255617792
 20
2.355910156462909
 30
0.0
 10
19.19798318902234
 20
2.362172415888207
 30
0.0
  0
SPLINE
  5
176
330
1F
100
AcDbEntity
  8
0
  6
Continuous
 62
     1
370
    15
100
AcDbSpline
210
0.0
220
0.0
230
1.0
 70
     8
 71
     3
 72
    10
 73
     6
 74
     0
 42
0.000000001
 43
0.00000001
 40
0.0
 40
0.0
 40
0.0
 40
0.0
 40
0.5
 40
0.5
 40
1.0
 40
1.0
 40
1.0
 40
1.0
 10
19.19798318902244
 20
2.362172415888254
 30
0.0
 10
19.37166828658775
 20
2.386713156158771
 30
0.0
 10
19.56139892082836
 20
2.327755413439068
 30
0.0
 10
19.92380927933452
 20
2.136231989058359
 30
0.0
 10
20.09268064482362
 20
2.004707765179535
 30
0.0
 10
20.23134749291751
 20
1.850811062070926
 30
0.0
  0
SPLINE
  5
177
330
1F
100
AcDbEntity
  8
0
  6
Continuous
 62
     1
370
    15
100
AcDbSpline
210
0.0
220
0.0
230
1.0
 70
     8
 71
     3
 72
    10
 73
     6
 74
     0
 42
0.000000001
 43
0.00000001
 40
0.0
 40
0.0
 40
0.0
 40
0.0
 40
0.5
 40
0.5
 40
1.0
 40
1.0
 40
1.0
 40
1.0
 10
20.23134749291752
 20
1.850811062070911
 30
0.0
 10
20.26666272765238
 20
1.811617135981799
 30
0.0
 10
20.30852349037637
 20
1.777289925723214
 30
0.0
 10
20.40098252609873
 20
1.728014624904568
 30
0.0
 10
20.45111248970504
 20
1.714255424932542
 30
0.0
 10
20.49510096922575
 20
1.716134005568645
 30
0.0
  0
SPLINE
  5
178
330
1F
100
AcDbEntity
  8
0
  6
Continuous
 62
     1
370
    15
100
AcDbSpline
210
0.0
220
0.0
230
1.0
 70
     8
 71
     3
 72
     8
 73
     4
 74
     0
 42
0.000000001
 43
0.00000001
 40
0.0
 40
0.0
 40
0.0
 40
0.0
 40
1.0
 40
1.0
 40
1.0
 40
1.0
 10
20.49510096922576
 20
1.716134005568649
 30
0.0
 10
20.6268212829214
 20
1.721759279126323
 30
0.0
 10
20.77041235327179
 20
1.679606412102576
 30
0.0
 10
20.91201993333831
 20
1.614922634938794
 30
0.0
  0
SPLINE
  5
179
330
1F
100
AcDbEntity
  8
0
  6
Continuous
 62
     1
370
    15
100
AcDbSpline
210
0.0
220
0.0
230
1.0
 70
     8
 71
     3
 72
     8
 73
     4
 74
     0
 42
0.000000001
 43
0.00000001
 40
0.0
 40
0.0
 40
0.0
 40
0.0
 40
1.0
 40
1.0
 40
1.0
 40
1.0
 10
20.91201991982737
 20
1.614922643461523
 30
0.0
 10
21.0620221680823
 20
1.520300507247046
 30
0.0
 10
21.20157049834123
 20
1.406709390669591
 30
0.0
 10
21.31786731678314
 20
1.281754139979595
 30
0.0
  0
SPLINE
  5
17A
330
1F
100
AcDbEntity
  8
0
  6
Continuous
 62
     1
370
    15
100
AcDbSpline
210
0.0
220
0.0
230
1.0
 70
     8
 71
     3
 72
    10
 73
     6
 74
     0
 42
0.000000001
 43
0.00000001
 40
0.0
 40
0.0
 40
0.0
 40
0.0
 40
0.5
 40
0.5
 40
1.0
 40
1.0
 40
1.0
 40
1.0
 10
21.31786731678315
 20
1.281754139979584
 30
0.0
 10
21.35295095258235
 20
1.244058487036195
 30
0.0
 10
21.39463230026081
 20
1.21000646774104
 30
0.0
 10
21.48693578318583
 20
1.158208921614182
 30
0.0
 10
21.53747670863135
 20
1.141463918816431
 30
0.0
 10
21.58174181830396
 20
1.138889228795797
 30
0.0
  0
SPLINE
  5
17B
330
1F
100
AcDbEntity
  8
0
  6
Continuous
 62
     1
370
    15
100
AcDbSpline
210
0.0
220
0.0
230
1.0
 70
     8
 71
     3
 72
    10
 73
     6
 74
     0
 42
0.000000001
 43
0.00000001
 40
0.0
 40
0.0
 40
0.0
 40
0.0
 40
0.5000000000000001
 40
0.5000000000000001
 40
1.0
 40
1.0
 40
1.0
 40
1.0
 10
21.58174181830404
 20
1.138889228795839
 30
0.0
 10
21.75580772022118
 20
1.128764646615544
 30
0.0
 10
21.94594189200073
 20
1.04566344984465
 30
0.0
 10
22.30873745746806
 20
0.835098925204319
 30
0.0
 10
22.47764450428662
 20
0.7084962228122351
 30
0.0
 10
22.61667459601527
 20
0.5714923840808297
 30
0.0
  0
SPLINE
  5
17C
330
1F
100
AcDbEntity
  8
0
  6
Continuous
 62
     1
370
    15
100
AcDbSpline
210
0.0
220
0.0
230
1.0
 70
     8
 71
     3
 72
    10
 73
     6
 74
     0
 42
0.000000001
 43
0.00000001
 40
0.0
 40
0.0
 40
0.0
 40
0.0
 40
0.5
 40
0.5
 40
1.0
 40
1.0
 40
1.0
 40
1.0
 10
22.61667459601527
 20
0.5714923840808285
 30
0.0
 10
22.65206817186256
 20
0.5366146414481545
 30
0.0
 10
22.69399789581529
 20
0.5040166019326726
 30
0.0
 10
22.78659895614307
 20
0.4515716390320553
 30
0.0
 10
22.83683070416055
 20
0.4326911188781448
 30
0.0
 10
22.88090765501856
 20
0.4256613734844433
 30
0.0
  0
SPLINE
  5
17D
330
1F
100
AcDbEntity
  8
0
  6
Continuous
 62
     1
370
    15
100
AcDbSpline
210
0.0
220
0.0
230
1.0
 70
     8
 71
     3
 72
     8
 73
     4
 74
     0
 42
0.000000001
 43
0.00000001
 40
0.0
 40
0.0
 40
0.0
 40
0.0
 40
1.0
 40
1.0
 40
1.0
 40
1.0
 10
22.88090765501856
 20
0.4256613734844495
 30
0.0
 10
23.01273193507214
 20
0.404636980747532
 30
0.0
 10
23.15653532834823
 20
0.3439729034926864
 30
0.0
 10
23.29827544249719
 20
0.2700770604260317
 30
0.0
  0
SPLINE
  5
17E
330
1F
100
AcDbEntity
  8
0
  6
Continuous
 62
     1
370
    15
100
AcDbSpline
210
0.0
220
0.0
230
1.0
 70
     8
 71
     3
 72
     8
 73
     4
 74
     0
 42
0.000000001
 43
0.00000001
 40
0.0
 40
0.0
 40
0.0
 40
0.0
 40
1.0
 40
1.0
 40
1.0
 40
1.0
 10
23.29827542897049
 20
0.2700770689413459
 30
0.0
 10
23.44843142695141
 20
0.1755508357564178
 30
0.0
 10
23.58807416366898
 20
0.0729453686290823
 30
0.0
 10
23.70439023902424
 20
-0.0326245040127303
 30
0.0
  0
SPLINE
  5
17F
330
1F
100
AcDbEntity
  8
0
  6
Continuous
 62
     1
370
    15
100
AcDbSpline
210
0.0
220
0.0
230
1.0
 70
     8
 71
     3
 72
    10
 73
     6
 74
     0
 42
0.000000001
 43
0.00000001
 40
0.0
 40
0.0
 40
0.0
 40
0.0
 40
0.5
 40
0.5
 40
1.0
 40
1.0
 40
1.0
 40
1.0
 10
23.70439023902425
 20
-0.0326245040127363
 30
0.0
 10
23.73946750049445
 20
-0.0644610495179242
 30
0.0
 10
23.78113525918436
 20
-0.0953511926293467
 30
0.0
 10
23.87340220753494
 20
-0.1480391191534802
 30
0.0
 10
23.92391969465682
 20
-0.1691331356107685
 30
0.0
 10
23.96816969911328
 20
-0.1804121401860336
 30
0.0
  0
SPLINE
  5
180
330
1F
100
AcDbEntity
  8
0
  6
Continuous
 62
     1
370
    15
100
AcDbSpline
210
0.0
220
0.0
230
1.0
 70
     8
 71
     3
 72
    10
 73
     6
 74
     0
 42
0.000000001
 43
0.00000001
 40
0.0
 40
0.0
 40
0.0
 40
0.0
 40
0.5
 40
0.5
 40
1.0
 40
1.0
 40
1.0
 40
1.0
 10
25.00152600304833
 20
-0.7543050281916464
 30
0.0
 10
25.03683579809543
 20
-0.7818091884333975
 30
0.0
 10
25.07869365914312
 20
-0.8097957459223357
 30
0.0
 10
25.17117434314516
 20
-0.8607621268326358
 30
0.0
 10
25.22132126968987
 20
-0.8830559773894411
 30
0.0
 10
25.26530383335661
 20
-0.898379614633275
 30
0.0
  0
SPLINE
  5
181
330
1F
100
AcDbEntity
  8
0
  6
Continuous
 62
     1
370
    15
100
AcDbSpline
210
0.0
220
0.0
230
1.0
 70
     8
 71
     3
 72
    10
 73
     6
 74
     0
 42
0.000000001
 43
0.00000001
 40
0.0
 40
0.0
 40
0.0
 40
0.0
 40
0.5
 40
0.5
 40
1.0
 40
1.0
 40
1.0
 40
1.0
 10
26.08792441512544
 20
-1.343448353764666
 30
0.0
 10
26.12297603185003
 20
-1.366858197438372
 30
0.0
 10
26.16460835726479
 20
-1.392115290476513
 30
0.0
 10
26.25683671003764
 20
-1.441435670651199
 30
0.0
 10
26.3073655135108
 20
-1.465155342112352
 30
0.0
 10
26.35163598315292
 20
-1.484180140728065
 30
0.0
  0
SPLINE
  5
182
330
1F
100
AcDbEntity
  8
0
  6
Continuous
 62
     1
370
    15
100
AcDbSpline
210
0.0
220
0.0
230
1.0
 70
     8
 71
     3
 72
    10
 73
     6
 74
     0
 42
0.000000001
 43
0.00000001
 40
0.0
 40
0.0
 40
0.0
 40
0.0
 40
0.5
 40
0.5
 40
1.0
 40
1.0
 40
1.0
 40
1.0
 10
27.38610046093765
 20
-2.016901918173934
 30
0.0
 10
27.42151379115712
 20
-2.034921853346783
 30
0.0
 10
27.46347316499859
 20
-2.056161938368879
 30
0.0
 10
27.55610040762546
 20
-2.101785796854399
 30
0.0
 10
27.60632035612458
 20
-2.12585268910923
 30
0.0
 10
27.65039128331818
 20
-2.148366955078879
 30
0.0
  0
SPLINE
  5
183
330
1F
100
AcDbEntity
  8
0
  6
Continuous
 62
     1
370
    15
100
AcDbSpline
210
0.0
220
0.0
230
1.0
 70
     8
 71
     3
 72
    10
 73
     6
 74
     0
 42
0.000000001
 43
0.00000001
 40
0.0
 40
0.0
 40
0.0
 40
0.0
 40
0.5
 40
0.5
 40
1.0
 40
1.0
 40
1.0
 40
1.0
 10
28.47420845876435
 20
-2.544377119003808
 30
0.0
 10
28.50933848169517
 20
-2.557292013974196
 30
0.0
 10
28.55107688942549
 20
-2.574643387385461
 30
0.0
 10
28.64350083790219
 20
-2.616212069905811
 30
0.0
 10
28.69376464859717
 20
-2.640286404684491
 30
0.0
 10
28.73810711185131
 20
-2.665415397930918
 30
0.0
  0
SPLINE
  5
184
330
1F
100
AcDbEntity
  8
0
  6
Continuous
 62
     1
370
    15
100
AcDbSpline
210
0.0
220
0.0
230
1.0
 70
     8
 71
     3
 72
    10
 73
     6
 74
     0
 42
0.000000001
 43
0.00000001
 40
0.0
 40
0.0
 40
0.0
 40
0.0
 40
0.5
 40
0.5
 40
1.0
 40
1.0
 40
1.0
 40
1.0
 10
29.77178302529671
 20
-3.113265711744206
 30
0.0
 10
29.80708506587907
 20
-3.120253098877261
 30
0.0
 10
29.84891700965277
 20
-3.132950051790917
 30
0.0
 10
29.94135234663034
 20
-3.169365482282108
 30
0.0
 10
29.99150184357497
 20
-3.193140649502258
 30
0.0
 10
30.03550835047956
 20
-3.220880029324739
 30
0.0
  0
SPLINE
  5
185
330
1F
100
AcDbEntity
  8
0
  6
Continuous
 62
     1
370
    15
100
AcDbSpline
210
0.0
220
0.0
230
1.0
 70
     8
 71
     3
 72
     8
 73
     4
 74
     0
 42
0.000000001
 43
0.00000001
 40
0.0
 40
0.0
 40
0.0
 40
0.0
 40
1.0
 40
1.0
 40
1.0
 40
1.0
 10
30.03550835047956
 20
-3.220880029324742
 30
0.0
 10
30.16718042347263
 20
-3.303879156083131
 30
0.0
 10
30.31081290571452
 20
-3.386821123387402
 30
0.0
 10
30.45242114524655
 20
-3.451387658657583
 30
0.0
  0
SPLINE
  5
186
330
1F
100
AcDbEntity
  8
0
  6
Continuous
 62
     1
370
    15
100
AcDbSpline
210
0.0
220
0.0
230
1.0
 70
     8
 71
     3
 72
     8
 73
     4
 74
     0
 42
0.000000001
 43
0.00000001
 40
0.0
 40
0.0
 40
0.0
 40
0.0
 40
1.0
 40
1.0
 40
1.0
 40
1.0
 10
30.45242113173884
 20
-3.451387654089431
 30
0.0
 10
30.60239800616466
 20
-3.5021081095482
 30
0.0
 10
30.74188006264167
 20
-3.527660483132851
 30
0.0
 10
30.85806837828581
 20
-3.532168076434041
 30
0.0
  0
SPLINE
  5
187
330
1F
100
AcDbEntity
  8
0
  6
Continuous
 62
     1
370
    15
100
AcDbSpline
210
0.0
220
0.0
230
1.0
 70
     8
 71
     3
 72
    10
 73
     6
 74
     0
 42
0.000000001
 43
0.00000001
 40
0.0
 40
0.0
 40
0.0
 40
0.0
 40
0.5
 40
0.5
 40
1.0
 40
1.0
 40
1.0
 40
1.0
 10
30.85806837828581
 20
-3.532168076434044
 30
0.0
 10
30.89312382980639
 20
-3.533528073070264
 30
0.0
 10
30.93477651761678
 20
-3.541570494549008
 30
0.0
 10
31.02702775198456
 20
-3.571996427192042
 30
0.0
 10
31.07753427712621
 20
-3.594787933652809
 30
0.0
 10
31.12176906087679
 20
-3.623922029503015
 30
0.0
  0
SPLINE
  5
188
330
1F
100
AcDbEntity
  8
0
  6
Continuous
 62
     1
370
    15
100
AcDbSpline
210
0.0
220
0.0
230
1.0
 70
     8
 71
     3
 72
    10
 73
     6
 74
     0
 42
0.000000001
 43
0.00000001
 40
0.0
 40
0.0
 40
0.0
 40
0.0
 40
0.4999999999999999
 40
0.4999999999999999
 40
1.0
 40
1.0
 40
1.0
 40
1.0
 10
31.12176906087689
 20
-3.623922029503078
 30
0.0
 10
31.29566446774601
 20
-3.738453740117983
 30
0.0
 10
31.48554835938335
 20
-3.837284351514185
 30
0.0
 10
31.84779347580151
 20
-3.952678235636152
 30
0.0
 10
32.0167226289342
 20
-3.968966284499522
 30
0.0
 10
32.15565629873707
 20
-3.950651435337155
 30
0.0
  0
SPLINE
  5
189
330
1F
100
AcDbEntity
  8
0
  6
Continuous
 62
     1
370
    15
100
AcDbSpline
210
0.0
220
0.0
230
1.0
 70
     8
 71
     3
 72
    10
 73
     6
 74
     0
 42
0.000000001
 43
0.00000001
 40
0.0
 40
0.0
 40
0.0
 40
0.0
 40
0.5
 40
0.5
 40
1.0
 40
1.0
 40
1.0
 40
1.0
 10
32.15565629873709
 20
-3.950651435337157
 30
0.0
 10
32.19102856797334
 20
-3.94598850678635
 30
0.0
 10
32.23294909289023
 20
-3.949000448462446
 30
0.0
 10
32.32553277106992
 20
-3.97301108631141
 30
0.0
 10
32.37574130951296
 20
-3.994441664751108
 30
0.0
 10
32.41979087772748
 20
-4.025069276844732
 30
0.0
  0
SPLINE
  5
18A
330
1F
100
AcDbEntity
  8
0
  6
Continuous
 62
     1
370
    15
100
AcDbSpline
210
0.0
220
0.0
230
1.0
 70
     8
 71
     3
 72
     8
 73
     4
 74
     0
 42
0.000000001
 43
0.00000001
 40
0.0
 40
0.0
 40
0.0
 40
0.0
 40
1.0
 40
1.0
 40
1.0
 40
1.0
 10
32.41979087772748
 20
-4.025069276844733
 30
0.0
 10
32.55165850585786
 20
-4.116756680962194
 30
0.0
 10
32.69551956493721
 20
-4.193585099074663
 30
0.0
 10
32.83727638397208
 20
-4.243487203999415
 30
0.0
  0
SPLINE
  5
18B
330
1F
100
AcDbEntity
  8
0
  6
Continuous
 62
     1
370
    15
100
AcDbSpline
210
0.0
220
0.0
230
1.0
 70
     8
 71
     3
 72
     8
 73
     4
 74
     0
 42
0.000000001
 43
0.00000001
 40
0.0
 40
0.0
 40
0.0
 40
0.0
 40
1.0
 40
1.0
 40
1.0
 40
1.0
 10
32.83727637043287
 20
-4.243487201689846
 30
0.0
 10
32.98763564878119
 20
-4.269135300593162
 30
0.0
 10
33.1274512447614
 20
-4.261648637414792
 30
0.0
 10
33.24394422988797
 20
-4.227757541914053
 30
0.0
  0
SPLINE
  5
18C
330
1F
100
AcDbEntity
  8
0
  6
Continuous
 62
     1
370
    15
100
AcDbSpline
210
0.0
220
0.0
230
1.0
 70
     8
 71
     3
 72
    10
 73
     6
 74
     0
 42
0.000000001
 43
0.00000001
 40
0.0
 40
0.0
 40
0.0
 40
0.0
 40
0.5
 40
0.5
 40
1.0
 40
1.0
 40
1.0
 40
1.0
 10
33.24394422988797
 20
-4.227757541914055
 30
0.0
 10
33.27906855492153
 20
-4.217538884946702
 30
0.0
 10
33.32077655730762
 20
-4.215691685986617
 30
0.0
 10
33.41309458829181
 20
-4.23260968300877
 30
0.0
 10
33.46364710226971
 20
-4.252132033262602
 30
0.0
 10
33.50794147631432
 20
-4.282985803943036
 30
0.0
  0
SPLINE
  5
18D
330
1F
100
AcDbEntity
  8
0
  6
Continuous
 62
     1
370
    15
100
AcDbSpline
210
0.0
220
0.0
230
1.0
 70
     8
 71
     3
 72
    10
 73
     6
 74
     0
 42
0.000000001
 43
0.00000001
 40
0.0
 40
0.0
 40
0.0
 40
0.0
 40
0.5
 40
0.5
 40
1.0
 40
1.0
 40
1.0
 40
1.0
 10
33.50794147631441
 20
-4.282985803943112
 30
0.0
 10
33.65821095456545
 20
-4.38765778819005
 30
0.0
 10
33.82033365101756
 20
-4.46285301246896
 30
0.0
 10
34.136832929625
 20
-4.537362283131507
 30
0.0
 10
34.28935620626668
 20
-4.536493130527051
 30
0.0
 10
34.42287237245488
 20
-4.501917941309411
 30
0.0
  0
LINE
  5
18E
330
1F
100
AcDbEntity
  8
0
  6
Continuous
 62
     1
370
    15
100
AcDbLine
 10
35.3999998094514
 20
-4.097852855920796
 30
0.0
 11
35.3999998094514
 21
-3.826075699180369
 31
0.0
  0
SPLINE
  5
18F
330
1F
100
AcDbEntity
  8
0
  6
Continuous
 62
     1
370
    15
100
AcDbSpline
210
0.0
220
0.0
230
1.0
 70
     8
 71
     3
 72
     8
 73
     4
 74
     0
 42
0.000000001
 43
0.00000001
 40
0.0
 40
0.0
 40
0.0
 40
0.0
 40
1.0
 40
1.0
 40
1.0
 40
1.0
 10
35.29923679705594
 20
-4.19143822656714
 30
0.0
 10
35.33273087234951
 20
-4.159610695806498
 30
0.0
 10
35.36631390952417
 20
-4.128391493010588
 30
0.0
 10
35.39999995250255
 20
-4.097852788406117
 30
0.0
  0
SPLINE
  5
190
330
1F
100
AcDbEntity
  8
0
  6
Continuous
 62
     1
370
    15
100
AcDbSpline
210
0.0
220
0.0
230
1.0
 70
     8
 71
     3
 72
     8
 73
     4
 74
     0
 42
0.000000001
 43
0.00000001
 40
0.0
 40
0.0
 40
0.0
 40
0.0
 40
1.0
 40
1.0
 40
1.0
 40
1.0
 10
35.2992367970559
 20
-4.191438226567226
 30
0.0
 10
35.19565715903371
 20
-4.254743264442771
 30
0.0
 10
35.08848510244751
 20
-4.305594010169274
 30
0.0
 10
34.9817671570904
 20
-4.341081233375405
 30
0.0
  0
SPLINE
  5
191
330
1F
100
AcDbEntity
  8
0
  6
Continuous
 62
     1
370
    15
100
AcDbSpline
210
0.0
220
0.0
230
1.0
 70
     8
 71
     3
 72
    10
 73
     6
 74
     0
 42
0.000000001
 43
0.00000001
 40
0.0
 40
0.0
 40
0.0
 40
0.0
 40
0.4373689610855294
 40
0.815585092503381
 40
1.0
 40
1.0
 40
1.0
 40
1.0
 10
34.98176705557853
 20
-4.34108125045896
 30
0.0
 10
34.9281485778791
 20
-4.346061340105465
 30
0.0
 10
34.8281633594817
 20
-4.355347977330339
 30
0.0
 10
34.7134767191943
 20
-4.345846307200405
 30
0.0
 10
34.65660478705084
 20
-4.330040610227855
 30
0.0
 10
34.63796373922378
 20
-4.324859939515596
 30
0.0
  0
SPLINE
  5
192
330
1F
100
AcDbEntity
  8
0
  6
Continuous
 62
     1
370
    15
100
AcDbSpline
210
0.0
220
0.0
230
1.0
 70
     8
 71
     3
 72
    10
 73
     6
 74
     0
 42
0.000000001
 43
0.00000001
 40
0.0
 40
0.0
 40
0.0
 40
0.0
 40
0.2908652074339938
 40
0.716731841202693
 40
1.0
 40
1.0
 40
1.0
 40
1.0
 10
34.0250100614503
 20
-4.509299062192444
 30
0.0
 10
33.94615862561411
 20
-4.536024324877016
 30
0.0
 10
33.7518578521152
 20
-4.601879044661215
 30
0.0
 10
33.4901561677577
 20
-4.593999926503943
 30
0.0
 10
33.33842134683677
 20
-4.533192293554685
 30
0.0
 10
33.2778099598363
 20
-4.508902318775658
 30
0.0
  0
SPLINE
  5
193
330
1F
100
AcDbEntity
  8
0
  6
Continuous
 62
     1
370
    15
100
AcDbSpline
210
0.0
220
0.0
230
1.0
 70
     8
 71
     3
 72
    10
 73
     6
 74
     0
 42
0.000000001
 43
0.00000001
 40
0.0
 40
0.0
 40
0.0
 40
0.0
 40
0.5
 40
0.5
 40
1.0
 40
1.0
 40
1.0
 40
1.0
 10
33.27780972725694
 20
-4.508902409678377
 30
0.0
 10
33.24240715846385
 20
-4.491278120891726
 30
0.0
 10
33.20045805831288
 20
-4.48283481906183
 30
0.0
 10
33.10782776459099
 20
-4.490123928492651
 30
0.0
 10
33.05758743306571
 20
-4.506674267786853
 30
0.0
 10
33.01350090352
 20
-4.537534829909577
 30
0.0
  0
SPLINE
  5
194
330
1F
100
AcDbEntity
  8
0
  6
Continuous
 62
     1
370
    15
100
AcDbSpline
210
0.0
220
0.0
230
1.0
 70
     8
 71
     3
 72
     8
 73
     4
 74
     0
 42
0.000000001
 43
0.00000001
 40
0.0
 40
0.0
 40
0.0
 40
0.0
 40
1.0
 40
1.0
 40
1.0
 40
1.0
 10
33.01350090352
 20
-4.537534829909577
 30
0.0
 10
32.88161890932124
 20
-4.629852200244181
 30
0.0
 10
32.73775325340459
 20
-4.691658319408228
 30
0.0
 10
32.59596748205829
 20
-4.719347739350668
 30
0.0
  0
SPLINE
  5
195
330
1F
100
AcDbEntity
  8
0
  6
Continuous
 62
     1
370
    15
100
AcDbSpline
210
0.0
220
0.0
230
1.0
 70
     8
 71
     3
 72
     8
 73
     4
 74
     0
 42
0.000000001
 43
0.00000001
 40
0.0
 40
0.0
 40
0.0
 40
0.0
 40
1.0
 40
1.0
 40
1.0
 40
1.0
 10
32.59596748205835
 20
-4.719347739350746
 30
0.0
 10
32.44572858709346
 20
-4.713128766666466
 30
0.0
 10
32.30601296257497
 20
-4.667873276013053
 30
0.0
 10
32.18962505210907
 20
-4.592794006399109
 30
0.0
  0
SPLINE
  5
196
330
1F
100
AcDbEntity
  8
0
  6
Continuous
 62
     1
370
    15
100
AcDbSpline
210
0.0
220
0.0
230
1.0
 70
     8
 71
     3
 72
    11
 73
     7
 74
     0
 42
0.000000001
 43
0.00000001
 40
0.0
 40
0.0
 40
0.0
 40
0.0
 40
0.3024649571125155
 40
0.6306870117530782
 40
0.9176626753309489
 40
1.0
 40
1.0
 40
1.0
 40
1.0
 10
32.15535577852279
 20
-4.580562468618159
 30
0.0
 10
32.13537024337536
 20
-4.571377844114981
 30
0.0
 10
32.09369725897164
 20
-4.552226457331925
 30
0.0
 10
32.01762522242372
 20
-4.557780453734782
 30
0.0
 10
31.95998088595779
 20
-4.577926133141736
 30
0.0
 10
31.93200055148632
 20
-4.595532729613909
 30
0.0
 10
31.92576241213828
 20
-4.599458072334532
 30
0.0
  0
SPLINE
  5
197
330
1F
100
AcDbEntity
  8
0
  6
Continuous
 62
     1
370
    15
100
AcDbSpline
210
0.0
220
0.0
230
1.0
 70
     8
 71
     3
 72
    10
 73
     6
 74
     0
 42
0.000000001
 43
0.00000001
 40
0.0
 40
0.0
 40
0.0
 40
0.0
 40
0.5
 40
0.5
 40
1.0
 40
1.0
 40
1.0
 40
1.0
 10
31.92576285372221
 20
-4.59945787459263
 30
0.0
 10
31.75198853309793
 20
-4.71520880166493
 30
0.0
 10
31.56245964766451
 20
-4.767587031027196
 30
0.0
 10
31.2000505069798
 20
-4.756117696506617
 30
0.0
 10
31.03102551583132
 20
-4.692769496549683
 30
0.0
 10
30.89219810846267
 20
-4.585613550288992
 30
0.0
  0
SPLINE
  5
198
330
1F
100
AcDbEntity
  8
0
  6
Continuous
 62
     1
370
    15
100
AcDbSpline
210
0.0
220
0.0
230
1.0
 70
     8
 71
     3
 72
    10
 73
     6
 74
     0
 42
0.000000001
 43
0.00000001
 40
0.0
 40
0.0
 40
0.0
 40
0.0
 40
0.5000000000000001
 40
0.5000000000000001
 40
1.0
 40
1.0
 40
1.0
 40
1.0
 10
30.8921981084626
 20
-4.585613550288938
 30
0.0
 10
30.85688460539319
 20
-4.558356311182436
 30
0.0
 10
30.81502399731433
 20
-4.540764245169225
 30
0.0
 10
30.72254075703983
 20
-4.532968294215217
 30
0.0
 10
30.67239399908975
 20
-4.543854880752825
 30
0.0
 10
30.62841144456941
 20
-4.57207796828401
 30
0.0
  0
SPLINE
  5
199
330
1F
100
AcDbEntity
  8
0
  6
Continuous
 62
     1
370
    15
100
AcDbSpline
210
0.0
220
0.0
230
1.0
 70
     8
 71
     3
 72
     8
 73
     4
 74
     0
 42
0.000000001
 43
0.00000001
 40
0.0
 40
0.0
 40
0.0
 40
0.0
 40
1.0
 40
1.0
 40
1.0
 40
1.0
 10
30.62841144456941
 20
-4.572077968284008
 30
0.0
 10
30.49670101782495
 20
-4.656594998804787
 30
0.0
 10
30.35302213536666
 20
-4.69992306984304
 30
0.0
 10
30.21147711661438
 20
-4.705943400938989
 30
0.0
  0
SPLINE
  5
19A
330
1F
100
AcDbEntity
  8
0
  6
Continuous
 62
     1
370
    15
100
AcDbSpline
210
0.0
220
0.0
230
1.0
 70
     8
 71
     3
 72
     8
 73
     4
 74
     0
 42
0.000000001
 43
0.00000001
 40
0.0
 40
0.0
 40
0.0
 40
0.0
 40
1.0
 40
1.0
 40
1.0
 40
1.0
 10
30.21147711661409
 20
-4.705943400939055
 30
0.0
 10
30.06142880622524
 20
-4.672782758973455
 30
0.0
 10
29.92203646586515
 20
-4.598972901993263
 30
0.0
 10
29.80590071588999
 20
-4.495143774537393
 30
0.0
  0
SPLINE
  5
19B
330
1F
100
AcDbEntity
  8
0
  6
Continuous
 62
     1
370
    15
100
AcDbSpline
210
0.0
220
0.0
230
1.0
 70
     8
 71
     3
 72
    10
 73
     6
 74
     0
 42
0.000000001
 43
0.00000001
 40
0.0
 40
0.0
 40
0.0
 40
0.0
 40
0.5
 40
0.5
 40
1.0
 40
1.0
 40
1.0
 40
1.0
 10
29.80590071589
 20
-4.495143774537392
 30
0.0
 10
29.77086762616433
 20
-4.463823055989678
 30
0.0
 10
29.7292391678001
 20
-4.442044313037356
 30
0.0
 10
29.63701663658622
 20
-4.426326197739969
 30
0.0
 10
29.58649640054431
 20
-4.433649227474996
 30
0.0
 10
29.54223885770245
 20
-4.459338212308462
 30
0.0
  0
SPLINE
  5
19C
330
1F
100
AcDbEntity
  8
0
  6
Continuous
 62
     1
370
    15
100
AcDbSpline
210
0.0
220
0.0
230
1.0
 70
     8
 71
     3
 72
    10
 73
     6
 74
     0
 42
0.000000001
 43
0.00000001
 40
0.0
 40
0.0
 40
0.0
 40
0.0
 40
0.5
 40
0.5
 40
1.0
 40
1.0
 40
1.0
 40
1.0
 10
29.54223885770246
 20
-4.459338212308483
 30
0.0
 10
29.3684677048987
 20
-4.560202476843497
 30
0.0
 10
29.17864657180965
 20
-4.583071943736718
 30
0.0
 10
28.81603774751792
 20
-4.511511366295966
 30
0.0
 10
28.6470478623974
 20
-4.417891169361923
 30
0.0
 10
28.50816646233589
 20
-4.282020666153708
 30
0.0
  0
SPLINE
  5
19D
330
1F
100
AcDbEntity
  8
0
  6
Continuous
 62
     1
370
    15
100
AcDbSpline
210
0.0
220
0.0
230
1.0
 70
     8
 71
     3
 72
    10
 73
     6
 74
     0
 42
0.000000001
 43
0.00000001
 40
0.0
 40
0.0
 40
0.0
 40
0.0
 40
0.5
 40
0.5
 40
1.0
 40
1.0
 40
1.0
 40
1.0
 10
28.50816646233584
 20
-4.282020666153643
 30
0.0
 10
28.47278075745383
 20
-4.247402110129828
 30
0.0
 10
28.430848802855
 20
-4.222129496380404
 30
0.0
 10
28.33826935721161
 20
-4.199847793110452
 30
0.0
 10
28.28807531762355
 20
-4.204083992531661
 30
0.0
 10
28.24402721253444
 20
-4.22736949145501
 30
0.0
  0
SPLINE
  5
19E
330
1F
100
AcDbEntity
  8
0
  6
Continuous
 62
     1
370
    15
100
AcDbSpline
210
0.0
220
0.0
230
1.0
 70
     8
 71
     3
 72
     8
 73
     4
 74
     0
 42
0.000000001
 43
0.00000001
 40
0.0
 40
0.0
 40
0.0
 40
0.0
 40
1.0
 40
1.0
 40
1.0
 40
1.0
 10
28.24402721253444
 20
-4.227369491455011
 30
0.0
 10
28.11210044060845
 20
-4.297110986564256
 30
0.0
 10
27.96833399988186
 20
-4.317982289229951
 30
0.0
 10
27.82660532889371
 20
-4.30168285909537
 30
0.0
  0
SPLINE
  5
19F
330
1F
100
AcDbEntity
  8
0
  6
Continuous
 62
     1
370
    15
100
AcDbSpline
210
0.0
220
0.0
230
1.0
 70
     8
 71
     3
 72
     8
 73
     4
 74
     0
 42
0.000000001
 43
0.00000001
 40
0.0
 40
0.0
 40
0.0
 40
0.0
 40
1.0
 40
1.0
 40
1.0
 40
1.0
 10
27.82660532889358
 20
-4.301682859095484
 30
0.0
 10
27.67637669109543
 20
-4.244215201896855
 30
0.0
 10
27.53653837820913
 20
-4.148048956177658
 30
0.0
 10
27.41998327087683
 20
-4.023968212301619
 30
0.0
  0
SPLINE
  5
1A0
330
1F
100
AcDbEntity
  8
0
  6
Continuous
 62
     1
370
    15
100
AcDbSpline
210
0.0
220
0.0
230
1.0
 70
     8
 71
     3
 72
    10
 73
     6
 74
     0
 42
0.000000001
 43
0.00000001
 40
0.0
 40
0.0
 40
0.0
 40
0.0
 40
0.5
 40
0.5
 40
1.0
 40
1.0
 40
1.0
 40
1.0
 10
27.41998327087683
 20
-4.023968212301616
 30
0.0
 10
27.38486776353618
 20
-3.986585395090616
 30
0.0
 10
27.34316450665217
 20
-3.958038631703642
 30
0.0
 10
27.25082270515904
 20
-3.928590036541847
 30
0.0
 10
27.20025250139324
 20
-3.929023782920965
 30
0.0
 10
27.15596211759442
 20
-3.948816766863666
 30
0.0
  0
SPLINE
  5
1A1
330
1F
100
AcDbEntity
  8
0
  6
Continuous
 62
     1
370
    15
100
AcDbSpline
210
0.0
220
0.0
230
1.0
 70
     8
 71
     3
 72
    10
 73
     6
 74
     0
 42
0.000000001
 43
0.00000001
 40
0.0
 40
0.0
 40
0.0
 40
0.0
 40
0.5
 40
0.5
 40
1.0
 40
1.0
 40
1.0
 40
1.0
 10
27.15596211759443
 20
-3.948816766863694
 30
0.0
 10
26.98207471112219
 20
-4.026525523233402
 30
0.0
 10
26.79214855639201
 20
-4.017932842299063
 30
0.0
 10
26.42956759485004
 20
-3.89214917848946
 30
0.0
 10
26.26069987954273
 20
-3.775897060649045
 30
0.0
 10
26.12201384134134
 20
-3.622194833015837
 30
0.0
  0
SPLINE
  5
1A2
330
1F
100
AcDbEntity
  8
0
  6
Continuous
 62
     1
370
    15
100
AcDbSpline
210
0.0
220
0.0
230
1.0
 70
     8
 71
     3
 72
    10
 73
     6
 74
     0
 42
0.000000001
 43
0.00000001
 40
0.0
 40
0.0
 40
0.0
 40
0.0
 40
0.5
 40
0.5
 40
1.0
 40
1.0
 40
1.0
 40
1.0
 10
26.12201384134128
 20
-3.622194833015763
 30
0.0
 10
26.08671511436743
 20
-3.583074146904452
 30
0.0
 10
26.04487269296774
 20
-3.552176109155371
 30
0.0
 10
25.9524128626104
 20
-3.517217753729631
 30
0.0
 10
25.90225331661916
 20
-3.514489381684117
 30
0.0
 10
25.85824289282702
 20
-3.53089024428837
 30
0.0
  0
SPLINE
  5
1A3
330
1F
100
AcDbEntity
  8
0
  6
Continuous
 62
     1
370
    15
100
AcDbSpline
210
0.0
220
0.0
230
1.0
 70
     8
 71
     3
 72
     8
 73
     4
 74
     0
 42
0.000000001
 43
0.00000001
 40
0.0
 40
0.0
 40
0.0
 40
0.0
 40
1.0
 40
1.0
 40
1.0
 40
1.0
 10
25.85824289282702
 20
-3.530890244288382
 30
0.0
 10
25.72656241497598
 20
-3.57996210587956
 30
0.0
 10
25.58291324224609
 20
-3.577269699138887
 30
0.0
 10
25.44129785438464
 20
-3.540334673559696
 30
0.0
  0
SPLINE
  5
1A4
330
1F
100
AcDbEntity
  8
0
  6
Continuous
 62
     1
370
    15
100
AcDbSpline
210
0.0
220
0.0
230
1.0
 70
     8
 71
     3
 72
     8
 73
     4
 74
     0
 42
0.000000001
 43
0.00000001
 40
0.0
 40
0.0
 40
0.0
 40
0.0
 40
1.0
 40
1.0
 40
1.0
 40
1.0
 10
25.44129785438988
 20
-3.540334673562088
 30
0.0
 10
25.29131411114196
 20
-3.463670858521186
 30
0.0
 10
25.15183783776375
 20
-3.353267406963163
 30
0.0
 10
25.03566793821943
 20
-3.219581168626759
 30
0.0
  0
SPLINE
  5
1A5
330
1F
100
AcDbEntity
  8
0
  6
Continuous
 62
     1
370
    15
100
AcDbSpline
210
0.0
220
0.0
230
1.0
 70
     8
 71
     3
 72
    10
 73
     6
 74
     0
 42
0.000000001
 43
0.00000001
 40
0.0
 40
0.0
 40
0.0
 40
0.0
 40
0.5
 40
0.5
 40
1.0
 40
1.0
 40
1.0
 40
1.0
 10
25.03566793821941
 20
-3.219581168626733
 30
0.0
 10
25.00061825368405
 20
-3.179246619842666
 30
0.0
 10
24.95897212612545
 20
-3.146327214291186
 30
0.0
 10
24.86673436685766
 20
-3.105635332344934
 30
0.0
 10
24.81623595278293
 20
-3.099168642255168
 30
0.0
 10
24.77200705372275
 20
-3.111384153606851
 30
0.0
  0
SPLINE
  5
1A6
330
1F
100
AcDbEntity
  8
0
  6
Continuous
 62
     1
370
    15
100
AcDbSpline
210
0.0
220
0.0
230
1.0
 70
     8
 71
     3
 72
    10
 73
     6
 74
     0
 42
0.000000001
 43
0.00000001
 40
0.0
 40
0.0
 40
0.0
 40
0.0
 40
0.5
 40
0.5
 40
1.0
 40
1.0
 40
1.0
 40
1.0
 10
24.77200705372275
 20
-3.111384153606876
 30
0.0
 10
24.59817433092969
 20
-3.159394744955391
 30
0.0
 10
24.40845924125033
 20
-3.119750645522077
 30
0.0
 10
24.04626232016236
 20
-2.94984570903085
 30
0.0
 10
23.87730235330041
 20
-2.820858047077115
 30
0.0
 10
23.73842075235319
 20
-2.66245404083472
 30
0.0
  0
SPLINE
  5
1A7
330
1F
100
AcDbEntity
  8
0
  6
Continuous
 62
     1
370
    15
100
AcDbSpline
210
0.0
220
0.0
230
1.0
 70
     8
 71
     3
 72
    10
 73
     6
 74
     0
 42
0.000000001
 43
0.00000001
 40
0.0
 40
0.0
 40
0.0
 40
0.0
 40
0.5
 40
0.5
 40
1.0
 40
1.0
 40
1.0
 40
1.0
 10
23.73842075235313
 20
-2.662454040834643
 30
0.0
 10
23.70306823530735
 20
-2.622132066630636
 30
0.0
 10
23.66116680302306
 20
-2.588269613073068
 30
0.0
 10
23.56861463699898
 20
-2.543721559987539
 30
0.0
 10
23.51842596271311
 20
-2.534321168727642
 30
0.0
 10
23.47439840056619
 20
-2.542531374602492
 30
0.0
  0
SPLINE
  5
1A8
330
1F
100
AcDbEntity
  8
0
  6
Continuous
 62
     1
370
    15
100
AcDbSpline
210
0.0
220
0.0
230
1.0
 70
     8
 71
     3
 72
     8
 73
     4
 74
     0
 42
0.000000001
 43
0.00000001
 40
0.0
 40
0.0
 40
0.0
 40
0.0
 40
1.0
 40
1.0
 40
1.0
 40
1.0
 10
23.47439840056619
 20
-2.542531374602488
 30
0.0
 10
23.34257669094928
 20
-2.567113325588504
 30
0.0
 10
23.19876549466095
 20
-2.540766755372466
 30
0.0
 10
23.05706593961184
 20
-2.486018158842991
 30
0.0
  0
SPLINE
  5
1A9
330
1F
100
AcDbEntity
  8
0
  6
Continuous
 62
     1
370
    15
100
AcDbSpline
210
0.0
220
0.0
230
1.0
 70
     8
 71
     3
 72
     8
 73
     4
 74
     0
 42
0.000000001
 43
0.00000001
 40
0.0
 40
0.0
 40
0.0
 40
0.0
 40
1.0
 40
1.0
 40
1.0
 40
1.0
 10
23.05706593961192
 20
-2.486018158843152
 30
0.0
 10
22.90672558780584
 20
-2.396123770840219
 30
0.0
 10
22.76697873584857
 20
-2.280207754671222
 30
0.0
 10
22.65047493241703
 20
-2.14748238599864
 30
0.0
  0
SPLINE
  5
1AA
330
1F
100
AcDbEntity
  8
0
  6
Continuous
 62
     1
370
    15
100
AcDbSpline
210
0.0
220
0.0
230
1.0
 70
     8
 71
     3
 72
    10
 73
     6
 74
     0
 42
0.000000001
 43
0.00000001
 40
0.0
 40
0.0
 40
0.0
 40
0.0
 40
0.5
 40
0.5
 40
1.0
 40
1.0
 40
1.0
 40
1.0
 10
22.65047493241703
 20
-2.147482385998632
 30
0.0
 10
22.61532419653066
 20
-2.107437389679077
 30
0.0
 10
22.57359344951715
 20
-2.072731184386816
 30
0.0
 10
22.48124472860546
 20
-2.023831670066512
 30
0.0
 10
22.43067171778151
 20
-2.010756255600321
 30
0.0
 10
22.3863449412313
 20
-2.014300485446496
 30
0.0
  0
SPLINE
  5
1AB
330
1F
100
AcDbEntity
  8
0
  6
Continuous
 62
     1
370
    15
100
AcDbSpline
210
0.0
220
0.0
230
1.0
 70
     8
 71
     3
 72
    10
 73
     6
 74
     0
 42
0.000000001
 43
0.00000001
 40
0.0
 40
0.0
 40
0.0
 40
0.0
 40
0.5
 40
0.5
 40
1.0
 40
1.0
 40
1.0
 40
1.0
 10
22.38634494123131
 20
-2.014300485446517
 30
0.0
 10
22.21251640910689
 20
-2.028199268972418
 30
0.0
 10
22.0227216244353
 20
-1.961214433112274
 30
0.0
 10
21.65997996317616
 20
-1.762253977959415
 30
0.0
 10
21.49083876979608
 20
-1.631239334094264
 30
0.0
 10
21.35191629026779
 20
-1.481124634233357
 30
0.0
  0
SPLINE
  5
1AC
330
1F
100
AcDbEntity
  8
0
  6
Continuous
 62
     1
370
    15
100
AcDbSpline
210
0.0
220
0.0
230
1.0
 70
     8
 71
     3
 72
    10
 73
     6
 74
     0
 42
0.000000001
 43
0.00000001
 40
0.0
 40
0.0
 40
0.0
 40
0.0
 40
0.5
 40
0.5
 40
1.0
 40
1.0
 40
1.0
 40
1.0
 10
21.35191629026772
 20
-1.481124634233274
 30
0.0
 10
21.31657825394667
 20
-1.442939606626349
 30
0.0
 10
21.27469687505256
 20
-1.408889113774261
 30
0.0
 10
21.18218794087655
 20
-1.358352599647731
 30
0.0
 10
21.13202970491216
 20
-1.343006633271735
 30
0.0
 10
21.08803081574312
 20
-1.342281302616247
 30
0.0
  0
SPLINE
  5
1AD
330
1F
100
AcDbEntity
  8
0
  6
Continuous
 62
     1
370
    15
100
AcDbSpline
210
0.0
220
0.0
230
1.0
 70
     8
 71
     3
 72
     8
 73
     4
 74
     0
 42
0.000000001
 43
0.00000001
 40
0.0
 40
0.0
 40
0.0
 40
0.0
 40
1.0
 40
1.0
 40
1.0
 40
1.0
 10
21.08803081574312
 20
-1.342281302616233
 30
0.0
 10
20.95627000922788
 20
-1.340109198866289
 30
0.0
 10
20.81257353063281
 20
-1.292142152928083
 30
0.0
 10
20.67106314848976
 20
-1.223915360307904
 30
0.0
  0
SPLINE
  5
1AE
330
1F
100
AcDbEntity
  8
0
  6
Continuous
 62
     1
370
    15
100
AcDbSpline
210
0.0
220
0.0
230
1.0
 70
     8
 71
     3
 72
     8
 73
     4
 74
     0
 42
0.000000001
 43
0.00000001
 40
0.0
 40
0.0
 40
0.0
 40
0.0
 40
1.0
 40
1.0
 40
1.0
 40
1.0
 10
20.67106314848984
 20
-1.223915360308071
 30
0.0
 10
20.52111930372152
 20
-1.128263585152964
 30
0.0
 10
20.38170339136525
 20
-1.016697276888113
 30
0.0
 10
20.26548388008746
 20
-0.8963690500593562
 30
0.0
  0
SPLINE
  5
1AF
330
1F
100
AcDbEntity
  8
0
  6
Continuous
 62
     1
370
    15
100
AcDbSpline
210
0.0
220
0.0
230
1.0
 70
     8
 71
     3
 72
    10
 73
     6
 74
     0
 42
0.000000001
 43
0.00000001
 40
0.0
 40
0.0
 40
0.0
 40
0.0
 40
0.5
 40
0.5
 40
1.0
 40
1.0
 40
1.0
 40
1.0
 10
20.26548388008746
 20
-0.8963690500593562
 30
0.0
 10
20.2304095154154
 20
-0.8600546992095544
 30
0.0
 10
20.18872085614862
 20
-0.8266021684383331
 30
0.0
 10
20.09637606950263
 20
-0.7740324003315511
 30
0.0
 10
20.04615173838258
 20
-0.7559380460918079
 30
0.0
 10
20.00184585082103
 20
-0.7507142555608897
 30
0.0
  0
SPLINE
  5
1B0
330
1F
100
AcDbEntity
  8
0
  6
Continuous
 62
     1
370
    15
100
AcDbSpline
210
0.0
220
0.0
230
1.0
 70
     8
 71
     3
 72
    10
 73
     6
 74
     0
 42
0.000000001
 43
0.00000001
 40
0.0
 40
0.0
 40
0.0
 40
0.0
 40
0.5
 40
0.5
 40
1.0
 40
1.0
 40
1.0
 40
1.0
 10
18.96837519123928
 20
-0.1780539755771796
 30
0.0
 10
18.9330394390809
 20
-0.145081753235722
 30
0.0
 10
18.89115892993227
 20
-0.1135697713264826
 30
0.0
 10
18.79867551929924
 20
-0.0610179082912161
 30
0.0
 10
18.7485343749183
 20
-0.0408499970798585
 30
0.0
 10
18.70451699178972
 20
-0.0311612617075403
 30
0.0
  0
SPLINE
  5
1B1
330
1F
100
AcDbEntity
  8
0
  6
Continuous
 62
     1
370
    15
100
AcDbSpline
210
0.0
220
0.0
230
1.0
 70
     8
 71
     3
 72
    10
 73
     6
 74
     0
 42
0.000000001
 43
0.00000001
 40
0.0
 40
0.0
 40
0.0
 40
0.0
 40
0.5000000000000001
 40
0.5000000000000001
 40
1.0
 40
1.0
 40
1.0
 40
1.0
 10
17.88109257865668
 20
0.4278344185078264
 30
0.0
 10
17.8459547332064
 20
0.457408330018361
 30
0.0
 10
17.80422064161909
 20
0.4868520961980743
 30
0.0
 10
17.71183616884915
 20
0.5389279260679531
 30
0.0
 10
17.66124990001534
 20
0.5609654760214732
 30
0.0
 10
17.61694055012773
 20
0.574634890964169
 30
0.0
  0
SPLINE
  5
1B2
330
1F
100
AcDbEntity
  8
0
  6
Continuous
 62
     1
370
    15
100
AcDbSpline
210
0.0
220
0.0
230
1.0
 70
     8
 71
     3
 72
    10
 73
     6
 74
     0
 42
0.000000001
 43
0.00000001
 40
0.0
 40
0.0
 40
0.0
 40
0.0
 40
0.5
 40
0.5
 40
1.0
 40
1.0
 40
1.0
 40
1.0
 10
16.58203439759005
 20
1.142182550278208
 30
0.0
 10
16.54669071716116
 20
1.167109985279763
 30
0.0
 10
16.5048055368424
 20
1.193349718080177
 30
0.0
 10
16.4122763271223
 20
1.243226394713998
 30
0.0
 10
16.36208993994622
 20
1.266285762986025
 30
0.0
 10
16.3180632199753
 20
1.283927584735505
 30
0.0
  0
SPLINE
  5
1B3
330
1F
100
AcDbEntity
  8
0
  6
Continuous
 62
     1
370
    15
100
AcDbSpline
210
0.0
220
0.0
230
1.0
 70
     8
 71
     3
 72
    10
 73
     6
 74
     0
 42
0.000000001
 43
0.00000001
 40
0.0
 40
0.0
 40
0.0
 40
0.0
 40
0.5
 40
0.5
 40
1.0
 40
1.0
 40
1.0
 40
1.0
 10
15.49520077535852
 20
1.717190861048158
 30
0.0
 10
15.4601491904315
 20
1.737583511875142
 30
0.0
 10
15.41850480704277
 20
1.760604491689969
 30
0.0
 10
15.326281089784
 20
1.807916508397225
 30
0.0
 10
15.27578858379531
 20
1.831967093070885
 30
0.0
 10
15.23155669879442
 20
1.852992164295301
 30
0.0
  0
SPLINE
  5
1B4
330
1F
100
AcDbEntity
  8
0
  6
Continuous
 62
     1
370
    15
100
AcDbSpline
210
0.0
220
0.0
230
1.0
 70
     8
 71
     3
 72
    10
 73
     6
 74
     0
 42
0.000000001
 43
0.00000001
 40
0.0
 40
0.0
 40
0.0
 40
0.0
 40
0.5
 40
0.5
 40
1.0
 40
1.0
 40
1.0
 40
1.0
 10
14.19829568493308
 20
2.365234825504408
 30
0.0
 10
14.16297282225471
 20
2.380026035945041
 30
0.0
 10
14.12110092679687
 20
2.398805378379311
 30
0.0
 10
14.02860081187969
 20
2.441913422417741
 30
0.0
 10
13.97844622193987
 20
2.466025394521335
 30
0.0
 10
13.93445422703794
 20
2.490225334256142
 30
0.0
  0
SPLINE
  5
1B5
330
1F
100
AcDbEntity
  8
0
  6
Continuous
 62
     1
370
    15
100
AcDbSpline
210
0.0
220
0.0
230
1.0
 70
     8
 71
     3
 72
     8
 73
     4
 74
     0
 42
0.000000001
 43
0.00000001
 40
0.0
 40
0.0
 40
0.0
 40
0.0
 40
1.0
 40
1.0
 40
1.0
 40
1.0
 10
13.93445422703795
 20
2.490225334256127
 30
0.0
 10
13.80269925108611
 20
2.562703576829666
 30
0.0
 10
13.65897554714332
 20
2.645758941080824
 30
0.0
 10
13.5173968651714
 20
2.717605477473142
 30
0.0
  0
SPLINE
  5
1B6
330
1F
100
AcDbEntity
  8
0
  6
Continuous
 62
     1
370
    15
100
AcDbSpline
210
0.0
220
0.0
230
1.0
 70
     8
 71
     3
 72
     8
 73
     4
 74
     0
 42
0.000000001
 43
0.00000001
 40
0.0
 40
0.0
 40
0.0
 40
0.0
 40
1.0
 40
1.0
 40
1.0
 40
1.0
 10
13.51739686517149
 20
2.717605477473083
 30
0.0
 10
13.36722954637255
 20
2.783830997179259
 30
0.0
 10
13.22774020519336
 20
2.832031565809088
 30
0.0
 10
13.11142888089605
 20
2.863888223622225
 30
0.0
  0
SPLINE
  5
1B7
330
1F
100
AcDbEntity
  8
0
  6
Continuous
 62
     1
370
    15
100
AcDbSpline
210
0.0
220
0.0
230
1.0
 70
     8
 71
     3
 72
    10
 73
     6
 74
     0
 42
0.000000001
 43
0.00000001
 40
0.0
 40
0.0
 40
0.0
 40
0.0
 40
0.5
 40
0.5
 40
1.0
 40
1.0
 40
1.0
 40
1.0
 10
13.11142888089604
 20
2.863888223622212
 30
0.0
 10
13.07634182427934
 20
2.873498262567785
 30
0.0
 10
13.03465968150037
 20
2.88825520559158
 30
0.0
 10
12.94235159826256
 20
2.926922167290163
 30
0.0
 10
12.89178324314956
 20
2.950984349032408
 30
0.0
 10
12.84748058396131
 20
2.977575656416238
 30
0.0
  0
SPLINE
  5
1B8
330
1F
100
AcDbEntity
  8
0
  6
Continuous
 62
     1
370
    15
100
AcDbSpline
210
0.0
220
0.0
230
1.0
 70
     8
 71
     3
 72
    10
 73
     6
 74
     0
 42
0.000000001
 43
0.00000001
 40
0.0
 40
0.0
 40
0.0
 40
0.0
 40
0.5
 40
0.5
 40
1.0
 40
1.0
 40
1.0
 40
1.0
 10
11.81223355152926
 20
3.392973154265254
 30
0.0
 10
11.77685021034087
 20
3.396498332088489
 30
0.0
 10
11.73492942133093
 20
3.40635794113315
 30
0.0
 10
11.64236804690547
 20
3.439317426991427
 30
0.0
 10
11.59218063859524
 20
3.462588906166955
 30
0.0
 10
11.54814134809687
 20
3.491462726302356
 30
0.0
  0
SPLINE
  5
1B9
330
1F
100
AcDbEntity
  8
0
  6
Continuous
 62
     1
370
    15
100
AcDbSpline
210
0.0
220
0.0
230
1.0
 70
     8
 71
     3
 72
     8
 73
     4
 74
     0
 42
0.000000001
 43
0.00000001
 40
0.0
 40
0.0
 40
0.0
 40
0.0
 40
1.0
 40
1.0
 40
1.0
 40
1.0
 10
11.54814134809685
 20
3.491462726302387
 30
0.0
 10
11.41631112650393
 20
3.577895592581744
 30
0.0
 10
11.27265194488147
 20
3.660014147967684
 30
0.0
 10
11.13099818857136
 20
3.720889204440425
 30
0.0
  0
SPLINE
  5
1BA
330
1F
100
AcDbEntity
  8
0
  6
Continuous
 62
     1
370
    15
100
AcDbSpline
210
0.0
220
0.0
230
1.0
 70
     8
 71
     3
 72
     8
 73
     4
 74
     0
 42
0.000000001
 43
0.00000001
 40
0.0
 40
0.0
 40
0.0
 40
0.0
 40
1.0
 40
1.0
 40
1.0
 40
1.0
 10
11.1309981885772
 20
3.720889204438617
 30
0.0
 10
10.9809964722652
 20
3.764644647147263
 30
0.0
 10
10.8414099272189
 20
3.78052336973585
 30
0.0
 10
10.72511616630948
 20
3.773466502439099
 30
0.0
  0
SPLINE
  5
1BB
330
1F
100
AcDbEntity
  8
0
  6
Continuous
 62
     1
370
    15
100
AcDbSpline
210
0.0
220
0.0
230
1.0
 70
     8
 71
     3
 72
    10
 73
     6
 74
     0
 42
0.000000001
 43
0.00000001
 40
0.0
 40
0.0
 40
0.0
 40
0.0
 40
0.5
 40
0.5
 40
1.0
 40
1.0
 40
1.0
 40
1.0
 10
10.72511616630946
 20
3.7734665024391
 30
0.0
 10
10.69001960554296
 20
3.771336794276214
 30
0.0
 10
10.64831068839221
 20
3.776468034222523
 30
0.0
 10
10.55593566707049
 20
3.803124024462542
 30
0.0
 10
10.50570257306077
 20
3.824989800004668
 30
0.0
 10
10.46139288578892
 20
3.854914490412401
 30
0.0
  0
SPLINE
  5
1BC
330
1F
100
AcDbEntity
  8
0
  6
Continuous
 62
     1
370
    15
100
AcDbSpline
210
0.0
220
0.0
230
1.0
 70
     8
 71
     3
 72
     8
 73
     4
 74
     0
 42
0.000000001
 43
0.00000001
 40
0.0
 40
0.0
 40
0.0
 40
0.0
 40
1.0
 40
1.0
 40
1.0
 40
1.0
 10
10.46139288578892
 20
3.854914490412416
 30
0.0
 10
10.31407321010271
 20
3.954407309191098
 30
0.0
 10
10.15514648644548
 20
4.037810576310564
 30
0.0
 10
9.99999995250222
 20
4.090517044437226
 30
0.0
  0
SPLINE
  5
1BD
330
1F
100
AcDbEntity
  8
외형선
  6
Continuous
370
    15
100
AcDbSpline
210
0.0
220
0.0
230
1.0
 70
     8
 71
     3
 72
     8
 73
     4
 74
     0
 42
0.000000001
 43
0.00000001
 40
0.0
 40
0.0
 40
0.0
 40
0.0
 40
1.0
 40
1.0
 40
1.0
 40
1.0
 10
9.999999952502549
 20
4.022718078813931
 30
0.0
 10
9.867998806990423
 20
4.069105765931045
 30
0.0
 10
9.73631260836274
 20
4.114583670072156
 30
0.0
 10
9.604937083090217
 20
4.159091886972547
 30
0.0
  0
SPLINE
  5
1BE
330
1F
100
AcDbEntity
  8
외형선
  6
Continuous
370
    15
100
AcDbSpline
210
0.0
220
0.0
230
1.0
 70
     8
 71
     3
 72
     8
 73
     4
 74
     0
 42
0.000000001
 43
0.00000001
 40
0.0
 40
0.0
 40
0.0
 40
0.0
 40
1.0
 40
1.0
 40
1.0
 40
1.0
 10
9.60493708309022
 20
4.159091886972545
 30
0.0
 10
9.54161565955022
 20
4.158425616049296
 30
0.0
 10
9.482612250523468
 20
4.151454666496969
 30
0.0
 10
9.428097729826321
 20
4.138983322755431
 30
0.0
  0
SPLINE
  5
1BF
330
1F
100
AcDbEntity
  8
외형선
  6
Continuous
370
    15
100
AcDbSpline
210
0.0
220
0.0
230
1.0
 70
     8
 71
     3
 72
    10
 73
     6
 74
     0
 42
0.000000001
 43
0.00000001
 40
0.0
 40
0.0
 40
0.0
 40
0.0
 40
0.5
 40
0.5
 40
1.0
 40
1.0
 40
1.0
 40
1.0
 10
9.428097729826266
 20
4.138983322755417
 30
0.0
 10
9.392805134216179
 20
4.13090939885852
 30
0.0
 10
9.350965709676343
 20
4.130984589496348
 30
0.0
 10
9.258510839637768
 20
4.150940847888497
 30
0.0
 10
9.208356564794071
 20
4.171361595212707
 30
0.0
 10
9.164352096346526
 20
4.202384325742539
 30
0.0
  0
SPLINE
  5
1C0
330
1F
100
AcDbEntity
  8
외형선
  6
Continuous
370
    15
100
AcDbSpline
210
0.0
220
0.0
230
1.0
 70
     8
 71
     3
 72
     8
 73
     4
 74
     0
 42
0.000000001
 43
0.00000001
 40
0.0
 40
0.0
 40
0.0
 40
0.0
 40
1.0
 40
1.0
 40
1.0
 40
1.0
 10
9.16435209634652
 20
4.202384325742541
 30
0.0
 10
9.032661451140294
 20
4.295224974514432
 30
0.0
 10
8.888997124498845
 20
4.369002536601847
 30
0.0
 10
8.747371870556767
 20
4.413642385416934
 30
0.0
  0
SPLINE
  5
1C1
330
1F
100
AcDbEntity
  8
외형선
  6
Continuous
370
    15
100
AcDbSpline
210
0.0
220
0.0
230
1.0
 70
     8
 71
     3
 72
     8
 73
     4
 74
     0
 42
0.000000001
 43
0.00000001
 40
0.0
 40
0.0
 40
0.0
 40
0.0
 40
1.0
 40
1.0
 40
1.0
 40
1.0
 10
8.747371870556854
 20
4.413642385416907
 30
0.0
 10
8.653050838939134
 20
4.424682903661519
 30
0.0
 10
8.563022753054401
 20
4.422099846339184
 30
0.0
 10
8.479960968176131
 20
4.407185781756304
 30
0.0
  0
SPLINE
  5
1C2
330
1F
100
AcDbEntity
  8
외형선
  6
Continuous
370
    15
100
AcDbSpline
210
0.0
220
0.0
230
1.0
 70
     8
 71
     3
 72
     8
 73
     4
 74
     0
 42
0.000000001
 43
0.00000001
 40
0.0
 40
0.0
 40
0.0
 40
0.0
 40
1.0
 40
1.0
 40
1.0
 40
1.0
 10
8.479960968176112
 20
4.409072459294781
 30
0.0
 10
8.511476513594852
 20
4.418532793345479
 30
0.0
 10
8.542680154519052
 20
4.433332607537419
 30
0.0
 10
8.571348054947697
 20
4.4535916314864
 30
0.0
  0
SPLINE
  5
1C3
330
1F
100
AcDbEntity
  8
외형선
  6
Continuous
370
    15
100
AcDbSpline
210
0.0
220
0.0
230
1.0
 70
     8
 71
     3
 72
     8
 73
     4
 74
     0
 42
0.000000001
 43
0.00000001
 40
0.0
 40
0.0
 40
0.0
 40
0.0
 40
1.0
 40
1.0
 40
1.0
 40
1.0
 10
8.571348054947665
 20
4.453591631486452
 30
0.0
 10
8.703072924093032
 20
4.546678925595611
 30
0.0
 10
8.846774460775633
 20
4.613086097550633
 30
0.0
 10
8.988360808034505
 20
4.646863370600383
 30
0.0
  0
SPLINE
  5
1C4
330
1F
100
AcDbEntity
  8
외형선
  6
Continuous
370
    15
100
AcDbSpline
210
0.0
220
0.0
230
1.0
 70
     8
 71
     3
 72
     8
 73
     4
 74
     0
 42
0.000000001
 43
0.00000001
 40
0.0
 40
0.0
 40
0.0
 40
0.0
 40
1.0
 40
1.0
 40
1.0
 40
1.0
 10
8.988360794523858
 20
4.646863370420647
 30
0.0
 10
9.138408125829404
 20
4.648858742704032
 30
0.0
 10
9.277850731980072
 20
4.612915863027009
 30
0.0
 10
9.393965040943653
 20
4.547778732649542
 30
0.0
  0
SPLINE
  5
1C5
330
1F
100
AcDbEntity
  8
외형선
  6
Continuous
370
    15
100
AcDbSpline
210
0.0
220
0.0
230
1.0
 70
     8
 71
     3
 72
    10
 73
     6
 74
     0
 42
0.000000001
 43
0.00000001
 40
0.0
 40
0.0
 40
0.0
 40
0.0
 40
0.5
 40
0.5
 40
1.0
 40
1.0
 40
1.0
 40
1.0
 10
9.393965040943657
 20
4.547778732649542
 30
0.0
 10
9.42900042781603
 20
4.52812478488978
 30
0.0
 10
9.470616994276934
 20
4.517760506248223
 30
0.0
 10
9.562802131557264
 20
4.521699296866291
 30
0.0
 10
9.61330732984789
 20
4.537011573955836
 30
0.0
 10
9.657556882546372
 20
4.567164204626163
 30
0.0
  0
SPLINE
  5
1C6
330
1F
100
AcDbEntity
  8
외형선
  6
Continuous
370
    15
100
AcDbSpline
210
0.0
220
0.0
230
1.0
 70
     8
 71
     3
 72
     8
 73
     4
 74
     0
 42
0.000000001
 43
0.00000001
 40
0.0
 40
0.0
 40
0.0
 40
0.0
 40
1.0
 40
1.0
 40
1.0
 40
1.0
 10
9.657556882546462
 20
4.567164204626249
 30
0.0
 10
9.702321325575793
 20
4.597667693034899
 30
0.0
 10
9.747756694307759
 20
4.62411572822764
 30
0.0
 10
9.794024924259665
 20
4.646902400311824
 30
0.0
  0
SPLINE
  5
1C7
330
1F
100
AcDbEntity
  8
외형선
  6
Continuous
370
    15
100
AcDbSpline
210
0.0
220
0.0
230
1.0
 70
     8
 71
     3
 72
     8
 73
     4
 74
     0
 42
0.000000001
 43
0.00000001
 40
0.0
 40
0.0
 40
0.0
 40
0.0
 40
1.0
 40
1.0
 40
1.0
 40
1.0
 10
9.794024924259665
 20
4.64690240031182
 30
0.0
 10
9.862644226317677
 20
4.644530997201657
 30
0.0
 10
9.931302222578365
 20
4.641574235452289
 30
0.0
 10
9.999999952502549
 20
4.638034535399157
 30
0.0
  0
SPLINE
  5
1C8
330
1F
100
AcDbEntity
  8
외형선
  6
Continuous
370
    15
100
AcDbSpline
210
0.0
220
0.0
230
1.0
 70
    24
 71
     3
 72
     9
 73
     5
 74
     0
 42
0.000000001
 43
0.00000001
 40
0.0
 40
0.0
 40
0.0
 40
0.0
 40
0.5
 40
1.0
 40
1.0
 40
1.0
 40
1.0
 10
9.999999952502549
 20
4.722530974637206
 30
0.0
 10
9.999999952502549
 20
4.707926699477351
 30
0.0
 10
9.999999952502549
 20
4.679247077046241
 30
0.0
 10
9.999999952502549
 20
4.651603326593001
 30
0.0
 10
9.999999952502549
 20
4.638034535399154
 30
0.0
  0
SPLINE
  5
1C9
330
1F
100
AcDbEntity
  8
0
  6
Continuous
 62
     1
370
    15
100
AcDbSpline
210
0.0
220
0.0
230
1.0
 70
     8
 71
     3
 72
     8
 73
     4
 74
     0
 42
0.000000001
 43
0.00000001
 40
0.0
 40
0.0
 40
0.0
 40
0.0
 40
1.0
 40
1.0
 40
1.0
 40
1.0
 10
9.999999952502653
 20
4.722530974637095
 30
0.0
 10
10.05922938755119
 20
4.737144298934032
 30
0.0
 10
10.11809128814507
 20
4.74574729071492
 30
0.0
 10
10.1768443391415
 20
4.748531355374839
 30
0.0
  0
SPLINE
  5
1CA
330
1F
100
AcDbEntity
  8
외형선
  6
Continuous
370
    15
100
AcDbSpline
210
0.0
220
0.0
230
1.0
 70
     8
 71
     3
 72
     8
 73
     4
 74
     0
 42
0.000000001
 43
0.00000001
 40
0.0
 40
0.0
 40
0.0
 40
0.0
 40
0.0000359313929776
 40
0.0000359313929776
 40
0.0000359313929776
 40
0.0000359313929776
 10
8.479960968176135
 20
2.67139561936155
 30
0.0
 10
8.490501769777765
 20
2.667854463392983
 30
0.0
 10
8.501036833287207
 20
2.664139144422647
 30
0.0
 10
8.511558208451993
 20
2.660257754970714
 30
0.0
  0
SPLINE
  5
1CB
330
1F
100
AcDbEntity
  8
외형선
  6
Continuous
370
    15
100
AcDbSpline
210
0.0
220
0.0
230
1.0
 70
     8
 71
     3
 72
     8
 73
     4
 74
     0
 42
0.000000001
 43
0.00000001
 40
0.0
 40
0.0
 40
0.0
 40
0.0
 40
1.0
 40
1.0
 40
1.0
 40
1.0
 10
8.511558194937386
 20
2.660257762913146
 30
0.0
 10
8.661606434927636
 20
2.572075501355004
 30
0.0
 10
8.801128524384833
 20
2.456622399026101
 30
0.0
 10
8.91732537722642
 20
2.323250270654587
 30
0.0
  0
SPLINE
  5
1CC
330
1F
100
AcDbEntity
  8
외형선
  6
Continuous
370
    15
100
AcDbSpline
210
0.0
220
0.0
230
1.0
 70
     8
 71
     3
 72
    10
 73
     6
 74
     0
 42
0.000000001
 43
0.00000001
 40
0.0
 40
0.0
 40
0.0
 40
0.0
 40
0.5
 40
0.5
 40
1.0
 40
1.0
 40
1.0
 40
1.0
 10
8.917325377226424
 20
2.323250270654579
 30
0.0
 10
8.952378146233821
 20
2.283016285882158
 30
0.0
 10
8.994024373982308
 20
2.248482090488401
 30
0.0
 10
9.086255947738474
 20
2.200776183877235
 30
0.0
 10
9.13675194084427
 20
2.188793260210176
 30
0.0
 10
9.180982926561395
 20
2.193743665696743
 30
0.0
  0
SPLINE
  5
1CD
330
1F
100
AcDbEntity
  8
외형선
  6
Continuous
370
    15
100
AcDbSpline
210
0.0
220
0.0
230
1.0
 70
     8
 71
     3
 72
     8
 73
     4
 74
     0
 42
0.000000001
 43
0.00000001
 40
0.0
 40
0.0
 40
0.0
 40
0.0
 40
1.0
 40
1.0
 40
1.0
 40
1.0
 10
9.180982926561388
 20
2.193743665696753
 30
0.0
 10
9.258497875579764
 20
2.202419267713991
 30
0.0
 10
9.337992829136788
 20
2.194142973220209
 30
0.0
 10
9.420311246504516
 20
2.173930639983558
 30
0.0
  0
SPLINE
  5
1CE
330
1F
100
AcDbEntity
  8
외형선
  6
Continuous
370
    15
100
AcDbSpline
210
0.0
220
0.0
230
1.0
 70
     8
 71
     3
 72
     8
 73
     4
 74
     0
 42
0.000000001
 43
0.00000001
 40
0.0
 40
0.0
 40
0.0
 40
0.0
 40
1.0
 40
1.0
 40
1.0
 40
1.0
 10
9.420311246504621
 20
2.173930639983797
 30
0.0
 10
9.613323001876271
 20
2.058786855400477
 30
0.0
 10
9.80646760831586
 20
1.942485094536585
 30
0.0
 10
9.999999952502549
 20
1.825410458762735
 30
0.0
  0
SPLINE
  5
1CF
330
1F
100
AcDbEntity
  8
외형선
  6
Continuous
370
    15
100
AcDbSpline
210
0.0
220
0.0
230
1.0
 70
    24
 71
     3
 72
     9
 73
     5
 74
     0
 42
0.000000001
 43
0.00000001
 40
0.0
 40
0.0
 40
0.0
 40
0.0
 40
0.5
 40
1.0
 40
1.0
 40
1.0
 40
1.0
 10
9.999999952502549
 20
1.869730956159463
 30
0.0
 10
9.999999952502549
 20
1.862346967474781
 30
0.0
 10
9.999999952502549
 20
1.847572572033546
 30
0.0
 10
9.999999952502549
 20
1.832796392225762
 30
0.0
 10
9.999999952502549
 20
1.825410458762736
 30
0.0
  0
SPLINE
  5
1D0
330
1F
100
AcDbEntity
  8
0
  6
Continuous
 62
     1
370
    15
100
AcDbSpline
210
0.0
220
0.0
230
1.0
 70
     8
 71
     3
 72
     8
 73
     4
 74
     0
 42
0.000000001
 43
0.00000001
 40
0.0
 40
0.0
 40
0.0
 40
0.0
 40
1.0
 40
1.0
 40
1.0
 40
1.0
 10
9.999999952502577
 20
1.869730956159472
 30
0.0
 10
10.07703549085856
 20
1.808515740027602
 30
0.0
 10
10.14908505015017
 20
1.741838343255511
 30
0.0
 10
10.21422359576583
 20
1.670445358009459
 30
0.0
  0
SPLINE
  5
1D1
330
1F
100
AcDbEntity
  8
0
  6
Continuous
 62
     1
370
    15
100
AcDbSpline
210
0.0
220
0.0
230
1.0
 70
     8
 71
     3
 72
    10
 73
     6
 74
     0
 42
0.000000001
 43
0.00000001
 40
0.0
 40
0.0
 40
0.0
 40
0.0
 40
0.5
 40
0.5
 40
1.0
 40
1.0
 40
1.0
 40
1.0
 10
10.21422359576582
 20
1.670445358009478
 30
0.0
 10
10.24954401509732
 20
1.631733560679886
 30
0.0
 10
10.29141356565119
 20
1.597540384650443
 30
0.0
 10
10.38391228565115
 20
1.547687688275392
 30
0.0
 10
10.43406812333178
 20
1.533201329277564
 30
0.0
 10
10.4780605970782
 20
1.533870311523747
 30
0.0
  0
SPLINE
  5
1D2
330
1F
100
AcDbEntity
  8
0
  6
Continuous
 62
     1
370
    15
100
AcDbSpline
210
0.0
220
0.0
230
1.0
 70
     8
 71
     3
 72
     8
 73
     4
 74
     0
 42
0.000000001
 43
0.00000001
 40
0.0
 40
0.0
 40
0.0
 40
0.0
 40
1.0
 40
1.0
 40
1.0
 40
1.0
 10
10.4780605970782
 20
1.53387031152376
 30
0.0
 10
10.60980518355791
 20
1.535873717603941
 30
0.0
 10
10.75352702141054
 20
1.491129599484369
 30
0.0
 10
10.89512193906391
 20
1.424803818913531
 30
0.0
  0
SPLINE
  5
1D3
330
1F
100
AcDbEntity
  8
0
  6
Continuous
 62
     1
370
    15
100
AcDbSpline
210
0.0
220
0.0
230
1.0
 70
     8
 71
     3
 72
     8
 73
     4
 74
     0
 42
0.000000001
 43
0.00000001
 40
0.0
 40
0.0
 40
0.0
 40
0.0
 40
1.0
 40
1.0
 40
1.0
 40
1.0
 10
10.89512192554779
 20
1.424803827477243
 30
0.0
 10
11.04528685196624
 20
1.32965943817324
 30
0.0
 10
11.18482653239127
 20
1.216831821166018
 30
0.0
 10
11.30109310022506
 20
1.093803219722354
 30
0.0
  0
SPLINE
  5
1D4
330
1F
100
AcDbEntity
  8
0
  6
Continuous
 62
     1
370
    15
100
AcDbSpline
210
0.0
220
0.0
230
1.0
 70
     8
 71
     3
 72
    10
 73
     6
 74
     0
 42
0.000000001
 43
0.00000001
 40
0.0
 40
0.0
 40
0.0
 40
0.0
 40
0.5
 40
0.5
 40
1.0
 40
1.0
 40
1.0
 40
1.0
 10
11.30109310022507
 20
1.093803219722353
 30
0.0
 10
11.33618078403852
 20
1.056674845264466
 30
0.0
 10
11.37785149320826
 20
1.022779399584804
 30
0.0
 10
11.47014525938535
 20
0.9703229098076211
 30
0.0
 10
11.52071146426579
 20
0.9527065640100544
 30
0.0
 10
11.56501670382268
 20
0.9487430006097909
 30
0.0
  0
SPLINE
  5
1D5
330
1F
100
AcDbEntity
  8
0
  6
Continuous
 62
     1
370
    15
100
AcDbSpline
210
0.0
220
0.0
230
1.0
 70
     8
 71
     3
 72
    10
 73
     6
 74
     0
 42
0.000000001
 43
0.00000001
 40
0.0
 40
0.0
 40
0.0
 40
0.0
 40
0.5
 40
0.5
 40
1.0
 40
1.0
 40
1.0
 40
1.0
 10
12.6002518420088
 20
0.3781991987840683
 30
0.0
 10
12.63563775137705
 20
0.344275288142693
 30
0.0
 10
12.67756164627346
 20
0.3122354076044629
 30
0.0
 10
12.77013266760597
 20
0.2597964394376613
 30
0.0
 10
12.82032518047672
 20
0.2403263441425225
 30
0.0
 10
12.86436465277819
 20
0.2320091486634055
 30
0.0
  0
SPLINE
  5
1D6
330
1F
100
AcDbEntity
  8
0
  6
Continuous
 62
     1
370
    15
100
AcDbSpline
210
0.0
220
0.0
230
1.0
 70
     8
 71
     3
 72
     8
 73
     4
 74
     0
 42
0.000000001
 43
0.00000001
 40
0.0
 40
0.0
 40
0.0
 40
0.0
 40
1.0
 40
1.0
 40
1.0
 40
1.0
 10
12.86436465277819
 20
0.2320091486634073
 30
0.0
 10
12.99621253842252
 20
0.2071086541500891
 30
0.0
 10
13.13991317168201
 20
0.1436501904330696
 30
0.0
 10
13.28152420574052
 20
0.0685487052534993
 30
0.0
  0
SPLINE
  5
1D7
330
1F
100
AcDbEntity
  8
0
  6
Continuous
 62
     1
370
    15
100
AcDbSpline
210
0.0
220
0.0
230
1.0
 70
     8
 71
     3
 72
     8
 73
     4
 74
     0
 42
0.000000001
 43
0.00000001
 40
0.0
 40
0.0
 40
0.0
 40
0.0
 40
1.0
 40
1.0
 40
1.0
 40
1.0
 10
13.28152419222324
 20
0.06854871374317
 30
0.0
 10
13.43150927902308
 20
-0.0256512506081287
 30
0.0
 10
13.57109794540172
 20
-0.1260319544703772
 30
0.0
 10
13.68740207812483
 20
-0.2280008630183639
 30
0.0
  0
SPLINE
  5
1D8
330
1F
100
AcDbEntity
  8
0
  6
Continuous
 62
     1
370
    15
100
AcDbSpline
210
0.0
220
0.0
230
1.0
 70
     8
 71
     3
 72
    10
 73
     6
 74
     0
 42
0.000000001
 43
0.00000001
 40
0.0
 40
0.0
 40
0.0
 40
0.0
 40
0.5
 40
0.5
 40
1.0
 40
1.0
 40
1.0
 40
1.0
 10
13.68740207812483
 20
-0.228000863018379
 30
0.0
 10
13.72249702092976
 20
-0.2587701308817338
 30
0.0
 10
13.76420403031979
 20
-0.2889949172507169
 30
0.0
 10
13.85657732910856
 20
-0.3414214714258097
 30
0.0
 10
13.9068124156393
 20
-0.3628319524675772
 30
0.0
 10
13.95112524037513
 20
-0.375274819169352
 30
0.0
  0
SPLINE
  5
1D9
330
1F
100
AcDbEntity
  8
0
  6
Continuous
 62
     1
370
    15
100
AcDbSpline
210
0.0
220
0.0
230
1.0
 70
     8
 71
     3
 72
    10
 73
     6
 74
     0
 42
0.000000001
 43
0.00000001
 40
0.0
 40
0.0
 40
0.0
 40
0.0
 40
0.5
 40
0.5
 40
1.0
 40
1.0
 40
1.0
 40
1.0
 10
14.98445561841351
 20
-0.9452206130036027
 30
0.0
 10
15.01975397867777
 20
-0.9715501762248298
 30
0.0
 10
15.0615842742174
 20
-0.9988049888292403
 30
0.0
 10
15.1540255025719
 20
-1.049475230690758
 30
0.0
 10
15.20417714290671
 20
-1.072264465889092
 30
0.0
 10
15.24818487063238
 20
-1.088820402132122
 30
0.0
  0
SPLINE
  5
1DA
330
1F
100
AcDbEntity
  8
0
  6
Continuous
 62
     1
370
    15
100
AcDbSpline
210
0.0
220
0.0
230
1.0
 70
     8
 71
     3
 72
    10
 73
     6
 74
     0
 42
0.000000001
 43
0.00000001
 40
0.0
 40
0.0
 40
0.0
 40
0.0
 40
0.5
 40
0.5
 40
1.0
 40
1.0
 40
1.0
 40
1.0
 10
16.07098906313531
 20
-1.528478121684515
 30
0.0
 10
16.10607280748633
 20
-1.550377618035145
 30
0.0
 10
16.14775375985597
 20
-1.574489737707159
 30
0.0
 10
16.24004908465923
 20
-1.622728614527243
 30
0.0
 10
16.2905812075895
 20
-1.646558649448969
 30
0.0
 10
16.33484119971575
 20
-1.66652198813459
 30
0.0
  0
SPLINE
  5
1DB
330
1F
100
AcDbEntity
  8
0
  6
Continuous
 62
     1
370
    15
100
AcDbSpline
210
0.0
220
0.0
230
1.0
 70
     8
 71
     3
 72
    10
 73
     6
 74
     0
 42
0.000000001
 43
0.00000001
 40
0.0
 40
0.0
 40
0.0
 40
0.0
 40
0.5
 40
0.5
 40
1.0
 40
1.0
 40
1.0
 40
1.0
 10
17.36966536914002
 20
-2.190946901103283
 30
0.0
 10
17.40507410263446
 20
-2.207425665927069
 30
0.0
 10
17.44701964212967
 20
-2.227495500365778
 30
0.0
 10
17.53964476849477
 20
-2.271945947899307
 30
0.0
 10
17.58987889735612
 20
-2.296063110664808
 30
0.0
 10
17.63395041602173
 20
-2.319428243415659
 30
0.0
  0
SPLINE
  5
1DC
330
1F
100
AcDbEntity
  8
0
  6
Continuous
 62
     1
370
    15
100
AcDbSpline
210
0.0
220
0.0
230
1.0
 70
     8
 71
     3
 72
    10
 73
     6
 74
     0
 42
0.000000001
 43
0.00000001
 40
0.0
 40
0.0
 40
0.0
 40
0.0
 40
0.5
 40
0.5
 40
1.0
 40
1.0
 40
1.0
 40
1.0
 10
18.45748562999712
 20
-2.703832204244246
 30
0.0
 10
18.49256325431631
 20
-2.715115883566833
 30
0.0
 10
18.53422871966693
 20
-2.731198889888919
 30
0.0
 10
18.62647752029032
 20
-2.771407978519981
 30
0.0
 10
18.67698876346599
 20
-2.795625988518248
 30
0.0
 10
18.72124573099462
 20
-2.821555355368565
 30
0.0
  0
SPLINE
  5
1DD
330
1F
100
AcDbEntity
  8
0
  6
Continuous
 62
     1
370
    15
100
AcDbSpline
210
0.0
220
0.0
230
1.0
 70
     8
 71
     3
 72
    10
 73
     6
 74
     0
 42
0.000000001
 43
0.00000001
 40
0.0
 40
0.0
 40
0.0
 40
0.0
 40
0.5
 40
0.5
 40
1.0
 40
1.0
 40
1.0
 40
1.0
 10
19.75468962590346
 20
-3.253823853783915
 30
0.0
 10
19.79000315868884
 20
-3.259052214296161
 30
0.0
 10
19.83186406288551
 20
-3.270291653543772
 30
0.0
 10
19.92434228306487
 20
-3.304906138108874
 30
0.0
 10
19.97448331402221
 20
-3.328390195778421
 30
0.0
 10
20.01846354250089
 20
-3.356635930929316
 30
0.0
  0
SPLINE
  5
1DE
330
1F
100
AcDbEntity
  8
0
  6
Continuous
 62
     1
370
    15
100
AcDbSpline
210
0.0
220
0.0
230
1.0
 70
     8
 71
     3
 72
     8
 73
     4
 74
     0
 42
0.000000001
 43
0.00000001
 40
0.0
 40
0.0
 40
0.0
 40
0.0
 40
1.0
 40
1.0
 40
1.0
 40
1.0
 10
20.01846354250088
 20
-3.356635930929312
 30
0.0
 10
20.15019333917752
 20
-3.441237695793116
 30
0.0
 10
20.29387054017399
 20
-3.523733123378431
 30
0.0
 10
20.43537762722121
 20
-3.58661763924542
 30
0.0
  0
SPLINE
  5
1DF
330
1F
100
AcDbEntity
  8
0
  6
Continuous
 62
     1
370
    15
100
AcDbSpline
210
0.0
220
0.0
230
1.0
 70
     8
 71
     3
 72
     8
 73
     4
 74
     0
 42
0.000000001
 43
0.00000001
 40
0.0
 40
0.0
 40
0.0
 40
0.0
 40
1.0
 40
1.0
 40
1.0
 40
1.0
 10
20.43537761371431
 20
-3.58661763497015
 30
0.0
 10
20.58538097551985
 20
-3.63409723181253
 30
0.0
 10
20.72475911853916
 20
-3.65520601624171
 30
0.0
 10
20.84099795225241
 20
-3.654148614232499
 30
0.0
  0
SPLINE
  5
1E0
330
1F
100
AcDbEntity
  8
0
  6
Continuous
 62
     1
370
    15
100
AcDbSpline
210
0.0
220
0.0
230
1.0
 70
     8
 71
     3
 72
    10
 73
     6
 74
     0
 42
0.000000001
 43
0.00000001
 40
0.0
 40
0.0
 40
0.0
 40
0.0
 40
0.5
 40
0.5
 40
1.0
 40
1.0
 40
1.0
 40
1.0
 10
20.84099795225242
 20
-3.654148614232504
 30
0.0
 10
20.87604818681346
 20
-3.653829769081841
 30
0.0
 10
20.91769518471509
 20
-3.660474663362188
 30
0.0
 10
21.00994825150006
 20
-3.689095345749408
 30
0.0
 10
21.06047556666295
 20
-3.711536094662249
 30
0.0
 10
21.10473327034604
 20
-3.741086842982274
 30
0.0
  0
SPLINE
  5
1E1
330
1F
100
AcDbEntity
  8
0
  6
Continuous
 62
     1
370
    15
100
AcDbSpline
210
0.0
220
0.0
230
1.0
 70
     8
 71
     3
 72
    10
 73
     6
 74
     0
 42
0.000000001
 43
0.00000001
 40
0.0
 40
0.0
 40
0.0
 40
0.0
 40
0.5
 40
0.5
 40
1.0
 40
1.0
 40
1.0
 40
1.0
 10
21.10473327034602
 20
-3.741086842982282
 30
0.0
 10
21.27859325241894
 20
-3.857172679923815
 30
0.0
 10
21.46852791175129
 20
-3.953779125380765
 30
0.0
 10
21.83123189297356
 20
-4.060950957735688
 30
0.0
 10
22.00022280436205
 20
-4.071566526213209
 30
0.0
 10
22.13912891479058
 20
-4.046724038005929
 30
0.0
  0
SPLINE
  5
1E2
330
1F
100
AcDbEntity
  8
0
  6
Continuous
 62
     1
370
    15
100
AcDbSpline
210
0.0
220
0.0
230
1.0
 70
     8
 71
     3
 72
    10
 73
     6
 74
     0
 42
0.000000001
 43
0.00000001
 40
0.0
 40
0.0
 40
0.0
 40
0.0
 40
0.5
 40
0.5
 40
1.0
 40
1.0
 40
1.0
 40
1.0
 10
22.13912891479059
 20
-4.046724038005932
 30
0.0
 10
22.17453478062487
 20
-4.040391920565288
 30
0.0
 10
22.2164846872457
 20
-4.041990006138096
 30
0.0
 10
22.30908306075735
 20
-4.064092731368114
 30
0.0
 10
22.35928857044051
 20
-4.08507743263211
 30
0.0
 10
22.40336021972804
 20
-4.116000854418208
 30
0.0
  0
SPLINE
  5
1E3
330
1F
100
AcDbEntity
  8
0
  6
Continuous
 62
     1
370
    15
100
AcDbSpline
210
0.0
220
0.0
230
1.0
 70
     8
 71
     3
 72
     8
 73
     4
 74
     0
 42
0.000000001
 43
0.00000001
 40
0.0
 40
0.0
 40
0.0
 40
0.0
 40
1.0
 40
1.0
 40
1.0
 40
1.0
 10
22.40336021972804
 20
-4.116000854418207
 30
0.0
 10
22.53526134298374
 20
-4.20855092083133
 30
0.0
 10
22.67907218838759
 20
-4.284088097025438
 30
0.0
 10
22.82086699021563
 20
-4.331524132895305
 30
0.0
  0
SPLINE
  5
1E4
330
1F
100
AcDbEntity
  8
0
  6
Continuous
 62
     1
370
    15
100
AcDbSpline
210
0.0
220
0.0
230
1.0
 70
     8
 71
     3
 72
     8
 73
     4
 74
     0
 42
0.000000001
 43
0.00000001
 40
0.0
 40
0.0
 40
0.0
 40
0.0
 40
1.0
 40
1.0
 40
1.0
 40
1.0
 10
22.82086697667738
 20
-4.331524130934678
 30
0.0
 10
22.97106254719614
 20
-4.353274110497667
 30
0.0
 10
23.11082707244905
 20
-4.340846781956426
 30
0.0
 10
23.2272903331482
 20
-4.301354038271478
 30
0.0
  0
SPLINE
  5
1E5
330
1F
100
AcDbEntity
  8
0
  6
Continuous
 62
     1
370
    15
100
AcDbSpline
210
0.0
220
0.0
230
1.0
 70
     8
 71
     3
 72
    10
 73
     6
 74
     0
 42
0.000000001
 43
0.00000001
 40
0.0
 40
0.0
 40
0.0
 40
0.0
 40
0.5
 40
0.5
 40
1.0
 40
1.0
 40
1.0
 40
1.0
 10
23.2272903331482
 20
-4.301354038271479
 30
0.0
 10
23.26239030544144
 20
-4.289451622000426
 30
0.0
 10
23.30407986081067
 20
-4.286105301576968
 30
0.0
 10
23.39639628265356
 20
-4.300809008457739
 30
0.0
 10
23.44694623841645
 20
-4.319664043142337
 30
0.0
 10
23.49121750178703
 20
-4.350474976811228
 30
0.0
  0
SPLINE
  5
1E6
330
1F
100
AcDbEntity
  8
0
  6
Continuous
 62
     1
370
    15
100
AcDbSpline
210
0.0
220
0.0
230
1.0
 70
     8
 71
     3
 72
    10
 73
     6
 74
     0
 42
0.000000001
 43
0.00000001
 40
0.0
 40
0.0
 40
0.0
 40
0.0
 40
0.5
 40
0.5
 40
1.0
 40
1.0
 40
1.0
 40
1.0
 10
23.49121750178701
 20
-4.350474976811245
 30
0.0
 10
23.66509173772543
 20
-4.471484117783475
 30
0.0
 10
23.85498330427461
 20
-4.549476389022708
 30
0.0
 10
24.21738855629984
 20
-4.600035639334164
 30
0.0
 10
24.38612022939432
 20
-4.572978902164674
 30
0.0
 10
24.52486927676708
 20
-4.50435685334261
 30
0.0
  0
SPLINE
  5
1E7
330
1F
100
AcDbEntity
  8
0
  6
Continuous
 62
     1
370
    15
100
AcDbSpline
210
0.0
220
0.0
230
1.0
 70
     8
 71
     3
 72
    10
 73
     6
 74
     0
 42
0.000000001
 43
0.00000001
 40
0.0
 40
0.0
 40
0.0
 40
0.0
 40
0.5000000000000071
 40
0.5000000000000071
 40
1.0
 40
1.0
 40
1.0
 40
1.0
 10
24.52486927676708
 20
-4.504356853342616
 30
0.0
 10
24.56017011584625
 20
-4.486897880119959
 30
0.0
 10
24.60201678682961
 20
-4.478603148375963
 30
0.0
 10
24.694484084634
 20
-4.486142889227763
 30
0.0
 10
24.7446383934832
 20
-4.5027982740069
 30
0.0
 10
24.78863539483439
 20
-4.533643114858269
 30
0.0
  0
SPLINE
  5
1E8
330
1F
100
AcDbEntity
  8
0
  6
Continuous
 62
     1
370
    15
100
AcDbSpline
210
0.0
220
0.0
230
1.0
 70
     8
 71
     3
 72
     8
 73
     4
 74
     0
 42
0.000000001
 43
0.00000001
 40
0.0
 40
0.0
 40
0.0
 40
0.0
 40
1.0
 40
1.0
 40
1.0
 40
1.0
 10
24.78863539483439
 20
-4.53364311485827
 30
0.0
 10
24.92031539114849
 20
-4.625959600184093
 30
0.0
 10
25.06397655569744
 20
-4.688069070784842
 30
0.0
 10
25.20558255839111
 20
-4.716107348710909
 30
0.0
  0
SPLINE
  5
1E9
330
1F
100
AcDbEntity
  8
0
  6
Continuous
 62
     1
370
    15
100
AcDbSpline
210
0.0
220
0.0
230
1.0
 70
     8
 71
     3
 72
     8
 73
     4
 74
     0
 42
0.000000001
 43
0.00000001
 40
0.0
 40
0.0
 40
0.0
 40
0.0
 40
1.0
 40
1.0
 40
1.0
 40
1.0
 10
25.20558254488285
 20
-4.71610734923043
 30
0.0
 10
25.35559208832218
 20
-4.710337871355018
 30
0.0
 10
25.49505958975094
 20
-4.665571692519572
 30
0.0
 10
25.61121987450679
 20
-4.591083707988862
 30
0.0
  0
SPLINE
  5
1EA
330
1F
100
AcDbEntity
  8
0
  6
Continuous
 62
     1
370
    15
100
AcDbSpline
210
0.0
220
0.0
230
1.0
 70
     8
 71
     3
 72
    10
 73
     6
 74
     0
 42
0.000000001
 43
0.00000001
 40
0.0
 40
0.0
 40
0.0
 40
0.0
 40
0.5
 40
0.5
 40
1.0
 40
1.0
 40
1.0
 40
1.0
 10
25.6112198745068
 20
-4.591083707988858
 30
0.0
 10
25.64627404726235
 20
-4.568605158771794
 30
0.0
 10
25.68792390707565
 20
-4.555587862858871
 30
0.0
 10
25.78015944466608
 20
-4.555236254188731
 30
0.0
 10
25.83065723988391
 20
-4.568974205621879
 30
0.0
 10
25.87489205949224
 20
-4.598489831573144
 30
0.0
  0
LINE
  5
1EB
330
1F
100
AcDbEntity
  8
0
  6
Continuous
 62
     1
370
    15
100
AcDbLine
 10
25.87489258963615
 20
-4.59848996251822
 30
0.0
 11
26.04847621638328
 21
-4.681729245930915
 31
0.0
  0
SPLINE
  5
1EC
330
1F
100
AcDbEntity
  8
0
  6
Continuous
 62
     1
370
    15
100
AcDbSpline
210
0.0
220
0.0
230
1.0
 70
     8
 71
     3
 72
    10
 73
     6
 74
     0
 42
0.000000001
 43
0.00000001
 40
0.0
 40
0.0
 40
0.0
 40
0.0
 40
0.048041310182189
 40
0.6194594280154082
 40
1.0
 40
1.0
 40
1.0
 40
1.0
 10
23.80174059886485
 20
-4.509317688643937
 30
0.0
 10
23.79208902942919
 20
-4.512392490838613
 30
0.0
 10
23.66763872490188
 20
-4.552039935955157
 30
0.0
 10
23.47370668105221
 20
-4.539770402320462
 30
0.0
 10
23.32191517078045
 20
-4.486753615601866
 30
0.0
 10
23.26123729813844
 20
-4.465560428798203
 30
0.0
  0
SPLINE
  5
1ED
330
1F
100
AcDbEntity
  8
0
  6
Continuous
 62
     1
370
    15
100
AcDbSpline
210
0.0
220
0.0
230
1.0
 70
     8
 71
     3
 72
    10
 73
     6
 74
     0
 42
0.000000001
 43
0.00000001
 40
0.0
 40
0.0
 40
0.0
 40
0.0
 40
0.5
 40
0.5
 40
1.0
 40
1.0
 40
1.0
 40
1.0
 10
23.26123742686147
 20
-4.465560618681779
 30
0.0
 10
23.22584715175968
 20
-4.449471312334887
 30
0.0
 10
23.18390922587823
 20
-4.442437345253132
 30
0.0
 10
23.09130904004846
 20
-4.451917960007329
 30
0.0
 10
23.0411027230261
 20
-4.469205378769829
 30
0.0
 10
22.99705286912094
 20
-4.500213192848008
 30
0.0
  0
SPLINE
  5
1EE
330
1F
100
AcDbEntity
  8
0
  6
Continuous
 62
     1
370
    15
100
AcDbSpline
210
0.0
220
0.0
230
1.0
 70
     8
 71
     3
 72
     8
 73
     4
 74
     0
 42
0.000000001
 43
0.00000001
 40
0.0
 40
0.0
 40
0.0
 40
0.0
 40
1.0
 40
1.0
 40
1.0
 40
1.0
 10
22.99705286912093
 20
-4.500213192848009
 30
0.0
 10
22.86512428239593
 20
-4.593081085158662
 30
0.0
 10
22.72124160024726
 20
-4.657226621060417
 30
0.0
 10
22.5795558445154
 20
-4.687983079447176
 30
0.0
  0
SPLINE
  5
1EF
330
1F
100
AcDbEntity
  8
0
  6
Continuous
 62
     1
370
    15
100
AcDbSpline
210
0.0
220
0.0
230
1.0
 70
     8
 71
     3
 72
     8
 73
     4
 74
     0
 42
0.000000001
 43
0.00000001
 40
0.0
 40
0.0
 40
0.0
 40
0.0
 40
1.0
 40
1.0
 40
1.0
 40
1.0
 10
22.5795558445155
 20
-4.687983079447165
 30
0.0
 10
22.42927280003851
 20
-4.685887358666763
 30
0.0
 10
22.28956237439431
 20
-4.645293709415325
 30
0.0
 10
22.17302306500932
 20
-4.574968739403285
 30
0.0
  0
SPLINE
  5
1F0
330
1F
100
AcDbEntity
  8
0
  6
Continuous
 62
     1
370
    15
100
AcDbSpline
210
0.0
220
0.0
230
1.0
 70
     8
 71
     3
 72
    10
 73
     6
 74
     0
 42
0.000000001
 43
0.00000001
 40
0.0
 40
0.0
 40
0.0
 40
0.0
 40
0.5
 40
0.5
 40
1.0
 40
1.0
 40
1.0
 40
1.0
 10
22.17302306500932
 20
-4.574968739403278
 30
0.0
 10
22.13792072366254
 20
-4.553786435204018
 30
0.0
 10
22.0962311866182
 20
-4.541967679744816
 30
0.0
 10
22.00390936887926
 20
-4.543558159228708
 30
0.0
 10
21.95333973017257
 20
-4.558014677799722
 30
0.0
 10
21.90904491528937
 20
-4.587862026118979
 30
0.0
  0
SPLINE
  5
1F1
330
1F
100
AcDbEntity
  8
0
  6
Continuous
 62
     1
370
    15
100
AcDbSpline
210
0.0
220
0.0
230
1.0
 70
     8
 71
     3
 72
    10
 73
     6
 74
     0
 42
0.000000001
 43
0.00000001
 40
0.0
 40
0.0
 40
0.0
 40
0.0
 40
0.5
 40
0.5
 40
1.0
 40
1.0
 40
1.0
 40
1.0
 10
21.90904491528938
 20
-4.587862026118998
 30
0.0
 10
21.73523803891749
 20
-4.704978993263655
 30
0.0
 10
21.54539354845372
 20
-4.761393024470904
 30
0.0
 10
21.182794238826
 20
-4.758852428844576
 30
0.0
 10
21.01383216893291
 20
-4.700427202222613
 30
0.0
 10
20.87509742126392
 20
-4.598386445572931
 30
0.0
  0
SPLINE
  5
1F2
330
1F
100
AcDbEntity
  8
0
  6
Continuous
 62
     1
370
    15
100
AcDbSpline
210
0.0
220
0.0
230
1.0
 70
     8
 71
     3
 72
    10
 73
     6
 74
     0
 42
0.000000001
 43
0.00000001
 40
0.0
 40
0.0
 40
0.0
 40
0.0
 40
0.5
 40
0.5
 40
1.0
 40
1.0
 40
1.0
 40
1.0
 10
20.87509742126394
 20
-4.598386445572937
 30
0.0
 10
20.83977763214103
 20
-4.572408397049667
 30
0.0
 10
20.79791569718717
 20
-4.556077960075583
 30
0.0
 10
20.70545829481323
 20
-4.550463798551678
 30
0.0
 10
20.65532758595243
 20
-4.562226787814561
 30
0.0
 10
20.61133473000855
 20
-4.590984163647748
 30
0.0
  0
SPLINE
  5
1F3
330
1F
100
AcDbEntity
  8
0
  6
Continuous
 62
     1
370
    15
100
AcDbSpline
210
0.0
220
0.0
230
1.0
 70
     8
 71
     3
 72
     8
 73
     4
 74
     0
 42
0.000000001
 43
0.00000001
 40
0.0
 40
0.0
 40
0.0
 40
0.0
 40
1.0
 40
1.0
 40
1.0
 40
1.0
 10
20.61133473000854
 20
-4.590984163647748
 30
0.0
 10
20.47965112838315
 20
-4.677063476794381
 30
0.0
 10
20.33604857272433
 20
-4.723316967303376
 30
0.0
 10
20.19444597571361
 20
-4.732576329396395
 30
0.0
  0
SPLINE
  5
1F4
330
1F
100
AcDbEntity
  8
0
  6
Continuous
 62
     1
370
    15
100
AcDbSpline
210
0.0
220
0.0
230
1.0
 70
     8
 71
     3
 72
     8
 73
     4
 74
     0
 42
0.000000001
 43
0.00000001
 40
0.0
 40
0.0
 40
0.0
 40
0.0
 40
1.0
 40
1.0
 40
1.0
 40
1.0
 10
20.19444597576132
 20
-4.732576329402478
 30
0.0
 10
20.04450459177416
 20
-4.703245400336589
 30
0.0
 10
19.90502288461031
 20
-4.633337577982902
 30
0.0
 10
19.78883060362887
 20
-4.533254435965943
 30
0.0
  0
SPLINE
  5
1F5
330
1F
100
AcDbEntity
  8
0
  6
Continuous
 62
     1
370
    15
100
AcDbSpline
210
0.0
220
0.0
230
1.0
 70
     8
 71
     3
 72
    10
 73
     6
 74
     0
 42
0.000000001
 43
0.00000001
 40
0.0
 40
0.0
 40
0.0
 40
0.0
 40
0.5
 40
0.5
 40
1.0
 40
1.0
 40
1.0
 40
1.0
 10
19.78883060362886
 20
-4.533254435965929
 30
0.0
 10
19.75374288096595
 20
-4.503031347989162
 30
0.0
 10
19.71203924184864
 20
-4.48242059749029
 30
0.0
 10
19.61967646412668
 20
-4.468965411030855
 30
0.0
 10
19.56945504579584
 20
-4.477257070920103
 30
0.0
 10
19.52515609214025
 20
-4.503682433858339
 30
0.0
  0
SPLINE
  5
1F6
330
1F
100
AcDbEntity
  8
0
  6
Continuous
 62
     1
370
    15
100
AcDbSpline
210
0.0
220
0.0
230
1.0
 70
     8
 71
     3
 72
    10
 73
     6
 74
     0
 42
0.000000001
 43
0.00000001
 40
0.0
 40
0.0
 40
0.0
 40
0.0
 40
0.5
 40
0.5
 40
1.0
 40
1.0
 40
1.0
 40
1.0
 10
19.52515609214025
 20
-4.503682433858337
 30
0.0
 10
19.35129365303353
 20
-4.607395449078578
 30
0.0
 10
19.16139021513482
 20
-4.634745425849107
 30
0.0
 10
18.79901970960971
 20
-4.571508392097843
 30
0.0
 10
18.63031616722076
 20
-4.481778954955413
 30
0.0
 10
18.49150256808061
 20
-4.349394264762546
 30
0.0
  0
SPLINE
  5
1F7
330
1F
100
AcDbEntity
  8
0
  6
Continuous
 62
     1
370
    15
100
AcDbSpline
210
0.0
220
0.0
230
1.0
 70
     8
 71
     3
 72
    10
 73
     6
 74
     0
 42
0.000000001
 43
0.00000001
 40
0.0
 40
0.0
 40
0.0
 40
0.0
 40
0.5
 40
0.5
 40
1.0
 40
1.0
 40
1.0
 40
1.0
 10
18.49150256808061
 20
-4.349394264762542
 30
0.0
 10
18.45615535172254
 20
-4.315684092879319
 30
0.0
 10
18.41426012296142
 20
-4.291406739390477
 30
0.0
 10
18.32171582304371
 20
-4.271144595962979
 30
0.0
 10
18.27152151090922
 20
-4.276397441544351
 30
0.0
 10
18.22748191917889
 20
-4.30055532450431
 30
0.0
  0
SPLINE
  5
1F8
330
1F
100
AcDbEntity
  8
0
  6
Continuous
 62
     1
370
    15
100
AcDbSpline
210
0.0
220
0.0
230
1.0
 70
     8
 71
     3
 72
     8
 73
     4
 74
     0
 42
0.000000001
 43
0.00000001
 40
0.0
 40
0.0
 40
0.0
 40
0.0
 40
1.0
 40
1.0
 40
1.0
 40
1.0
 10
18.22748191917889
 20
-4.30055532450432
 30
0.0
 10
18.09566566390045
 20
-4.372863026327153
 30
0.0
 10
17.95186005091996
 20
-4.397419504739117
 30
0.0
 10
17.8101280850676
 20
-4.384484790912498
 30
0.0
  0
SPLINE
  5
1F9
330
1F
100
AcDbEntity
  8
0
  6
Continuous
 62
     1
370
    15
100
AcDbSpline
210
0.0
220
0.0
230
1.0
 70
     8
 71
     3
 72
     8
 73
     4
 74
     0
 42
0.000000001
 43
0.00000001
 40
0.0
 40
0.0
 40
0.0
 40
0.0
 40
1.0
 40
1.0
 40
1.0
 40
1.0
 10
17.81012808506729
 20
-4.384484790912502
 30
0.0
 10
17.65979820765973
 20
-4.330422099226388
 30
0.0
 10
17.52000270926171
 20
-4.237074088671654
 30
0.0
 10
17.40346613819886
 20
-4.115434548208798
 30
0.0
  0
SPLINE
  5
1FA
330
1F
100
AcDbEntity
  8
0
  6
Continuous
 62
     1
370
    15
100
AcDbSpline
210
0.0
220
0.0
230
1.0
 70
     8
 71
     3
 72
    10
 73
     6
 74
     0
 42
0.000000001
 43
0.00000001
 40
0.0
 40
0.0
 40
0.0
 40
0.0
 40
0.5
 40
0.5
 40
1.0
 40
1.0
 40
1.0
 40
1.0
 10
17.40346613819887
 20
-4.115434548208794
 30
0.0
 10
17.36831692645978
 20
-4.078746202871544
 30
0.0
 10
17.32658434643725
 20
-4.051045068710899
 30
0.0
 10
17.23421691871742
 20
-4.02344006180726
 30
0.0
 10
17.18363812370806
 20
-4.024855530514941
 30
0.0
 10
17.13932827757778
 20
-4.045601567349811
 30
0.0
  0
SPLINE
  5
1FB
330
1F
100
AcDbEntity
  8
0
  6
Continuous
 62
     1
370
    15
100
AcDbSpline
210
0.0
220
0.0
230
1.0
 70
     8
 71
     3
 72
    10
 73
     6
 74
     0
 42
0.000000001
 43
0.00000001
 40
0.0
 40
0.0
 40
0.0
 40
0.0
 40
0.5
 40
0.5
 40
1.0
 40
1.0
 40
1.0
 40
1.0
 10
17.13932827757779
 20
-4.045601567349845
 30
0.0
 10
16.96542266187581
 20
-4.127024831572808
 30
0.0
 10
16.77577412633581
 20
-4.122645501473308
 30
0.0
 10
16.41314626847158
 20
-4.00418082109251
 30
0.0
 10
16.24399727137857
 20
-3.890828443175989
 30
0.0
 10
16.10504710718727
 20
-3.73898291609395
 30
0.0
  0
SPLINE
  5
1FC
330
1F
100
AcDbEntity
  8
0
  6
Continuous
 62
     1
370
    15
100
AcDbSpline
210
0.0
220
0.0
230
1.0
 70
     8
 71
     3
 72
    10
 73
     6
 74
     0
 42
0.000000001
 43
0.00000001
 40
0.0
 40
0.0
 40
0.0
 40
0.0
 40
0.5
 40
0.5
 40
1.0
 40
1.0
 40
1.0
 40
1.0
 10
16.10504710718727
 20
-3.738982916093951
 30
0.0
 10
16.06971444921765
 20
-3.700371187177826
 30
0.0
 10
16.02783738249033
 20
-3.670203301337365
 30
0.0
 10
15.9353271086229
 20
-3.637068518317066
 30
0.0
 10
15.88516448186204
 20
-3.635431658140259
 30
0.0
 10
15.84116647491255
 20
-3.652973663290171
 30
0.0
  0
SPLINE
  5
1FD
330
1F
100
AcDbEntity
  8
0
  6
Continuous
 62
     1
370
    15
100
AcDbSpline
210
0.0
220
0.0
230
1.0
 70
     8
 71
     3
 72
     8
 73
     4
 74
     0
 42
0.000000001
 43
0.00000001
 40
0.0
 40
0.0
 40
0.0
 40
0.0
 40
1.0
 40
1.0
 40
1.0
 40
1.0
 10
15.84116647491255
 20
-3.652973663290174
 30
0.0
 10
15.70943548402279
 20
-3.705494808696694
 30
0.0
 10
15.56573515920773
 20
-3.706354286803442
 30
0.0
 10
15.42416714212137
 20
-3.67223906781379
 30
0.0
  0
SPLINE
  5
1FE
330
1F
100
AcDbEntity
  8
0
  6
Continuous
 62
     1
370
    15
100
AcDbSpline
210
0.0
220
0.0
230
1.0
 70
     8
 71
     3
 72
     8
 73
     4
 74
     0
 42
0.000000001
 43
0.00000001
 40
0.0
 40
0.0
 40
0.0
 40
0.0
 40
1.0
 40
1.0
 40
1.0
 40
1.0
 10
15.42416714212146
 20
-3.672239067813863
 30
0.0
 10
15.2741171565952
 20
-3.597924707231263
 30
0.0
 10
15.13470274149063
 20
-3.488820263683527
 30
0.0
 10
15.01858817102394
 20
-3.355664653917652
 30
0.0
  0
SPLINE
  5
1FF
330
1F
100
AcDbEntity
  8
0
  6
Continuous
 62
     1
370
    15
100
AcDbSpline
210
0.0
220
0.0
230
1.0
 70
     8
 71
     3
 72
    10
 73
     6
 74
     0
 42
0.000000001
 43
0.00000001
 40
0.0
 40
0.0
 40
0.0
 40
0.0
 40
0.5
 40
0.5
 40
1.0
 40
1.0
 40
1.0
 40
1.0
 10
15.01858817102394
 20
-3.355664653917655
 30
0.0
 10
14.98352540831136
 20
-3.315456060540405
 30
0.0
 10
14.94184990236087
 20
-3.282911975641783
 30
0.0
 10
14.84952714377063
 20
-3.243554967202636
 30
0.0
 10
14.79930260078146
 20
-3.2380487490299
 30
0.0
 10
14.75498481167905
 20
-3.251446810710444
 30
0.0
  0
SPLINE
  5
200
330
1F
100
AcDbEntity
  8
0
  6
Continuous
 62
     1
370
    15
100
AcDbSpline
210
0.0
220
0.0
230
1.0
 70
     8
 71
     3
 72
    10
 73
     6
 74
     0
 42
0.000000001
 43
0.00000001
 40
0.0
 40
0.0
 40
0.0
 40
0.0
 40
0.5
 40
0.5
 40
1.0
 40
1.0
 40
1.0
 40
1.0
 10
14.75498481167905
 20
-3.251446810710463
 30
0.0
 10
14.58130839928319
 20
-3.303952301910804
 30
0.0
 10
14.39159504422679
 20
-3.269056100175434
 30
0.0
 10
14.02915179734255
 20
-3.105498233964773
 30
0.0
 10
13.86023465884429
 20
-2.977866617653734
 30
0.0
 10
13.72147929495247
 20
-2.819433295201773
 30
0.0
  0
SPLINE
  5
201
330
1F
100
AcDbEntity
  8
0
  6
Continuous
 62
     1
370
    15
100
AcDbSpline
210
0.0
220
0.0
230
1.0
 70
     8
 71
     3
 72
    10
 73
     6
 74
     0
 42
0.000000001
 43
0.00000001
 40
0.0
 40
0.0
 40
0.0
 40
0.0
 40
0.5
 40
0.5
 40
1.0
 40
1.0
 40
1.0
 40
1.0
 10
13.72147929495249
 20
-2.819433295201811
 30
0.0
 10
13.6861373879536
 20
-2.779079282278834
 30
0.0
 10
13.64424825947461
 20
-2.745483076160706
 30
0.0
 10
13.55173622788561
 20
-2.702107677681706
 30
0.0
 10
13.50157870102007
 20
-2.693621806070767
 30
0.0
 10
13.45756994206695
 20
-2.703043263272506
 30
0.0
  0
SPLINE
  5
202
330
1F
100
AcDbEntity
  8
0
  6
Continuous
 62
     1
370
    15
100
AcDbSpline
210
0.0
220
0.0
230
1.0
 70
     8
 71
     3
 72
     8
 73
     4
 74
     0
 42
0.000000001
 43
0.00000001
 40
0.0
 40
0.0
 40
0.0
 40
0.0
 40
1.0
 40
1.0
 40
1.0
 40
1.0
 10
13.45756994206693
 20
-2.703043263272501
 30
0.0
 10
13.32574283332008
 20
-2.731264996687206
 30
0.0
 10
13.1820763918012
 20
-2.707843817940836
 30
0.0
 10
13.04045222450632
 20
-2.655219283461226
 30
0.0
  0
SPLINE
  5
203
330
1F
100
AcDbEntity
  8
0
  6
Continuous
 62
     1
370
    15
100
AcDbSpline
210
0.0
220
0.0
230
1.0
 70
     8
 71
     3
 72
     8
 73
     4
 74
     0
 42
0.000000001
 43
0.00000001
 40
0.0
 40
0.0
 40
0.0
 40
0.0
 40
1.0
 40
1.0
 40
1.0
 40
1.0
 10
13.04045222454676
 20
-2.655219283482194
 30
0.0
 10
12.89032959886503
 20
-2.566634604214626
 30
0.0
 10
12.7506344503828
 20
-2.450960718646816
 30
0.0
 10
12.63414138611593
 20
-2.317476782130768
 30
0.0
  0
SPLINE
  5
204
330
1F
100
AcDbEntity
  8
0
  6
Continuous
 62
     1
370
    15
100
AcDbSpline
210
0.0
220
0.0
230
1.0
 70
     8
 71
     3
 72
    10
 73
     6
 74
     0
 42
0.000000001
 43
0.00000001
 40
0.0
 40
0.0
 40
0.0
 40
0.0
 40
0.5
 40
0.5
 40
1.0
 40
1.0
 40
1.0
 40
1.0
 10
12.63414138611594
 20
-2.317476782130759
 30
0.0
 10
12.59900370453841
 20
-2.277214161462883
 30
0.0
 10
12.55726995419595
 20
-2.242645778421421
 30
0.0
 10
12.46488062764575
 20
-2.194870466381626
 30
0.0
 10
12.41428473863692
 20
-2.182837516449024
 30
0.0
 10
12.36996641580151
 20
-2.187785663564955
 30
0.0
  0
SPLINE
  5
205
330
1F
100
AcDbEntity
  8
0
  6
Continuous
 62
     1
370
    15
100
AcDbSpline
210
0.0
220
0.0
230
1.0
 70
     8
 71
     3
 72
    10
 73
     6
 74
     0
 42
0.000000001
 43
0.00000001
 40
0.0
 40
0.0
 40
0.0
 40
0.0
 40
0.4999999999999999
 40
0.4999999999999999
 40
1.0
 40
1.0
 40
1.0
 40
1.0
 10
12.36996641580151
 20
-2.187785663564981
 30
0.0
 10
12.19592234704911
 20
-2.207217708862377
 30
0.0
 10
12.00584268983823
 20
-2.144035062809194
 30
0.0
 10
11.64296345834333
 20
-1.94815649125348
 30
0.0
 10
11.47391414510598
 20
-1.816426688912458
 30
0.0
 10
11.33507763345946
 20
-1.663965066116816
 30
0.0
  0
SPLINE
  5
206
330
1F
100
AcDbEntity
  8
0
  6
Continuous
 62
     1
370
    15
100
AcDbSpline
210
0.0
220
0.0
230
1.0
 70
     8
 71
     3
 72
    10
 73
     6
 74
     0
 42
0.000000001
 43
0.00000001
 40
0.0
 40
0.0
 40
0.0
 40
0.0
 40
0.5
 40
0.5
 40
1.0
 40
1.0
 40
1.0
 40
1.0
 10
11.33507763345945
 20
-1.663965066116821
 30
0.0
 10
11.29974935869165
 20
-1.625169751845441
 30
0.0
 10
11.25788088203585
 20
-1.59085917151219
 30
0.0
 10
11.16537919204991
 20
-1.540735418883712
 30
0.0
 10
11.1151949674695
 20
-1.526086140815147
 30
0.0
 10
11.07115879606454
 20
-1.526630870576445
 30
0.0
  0
SPLINE
  5
207
330
1F
100
AcDbEntity
  8
0
  6
Continuous
 62
     1
370
    15
100
AcDbSpline
210
0.0
220
0.0
230
1.0
 70
     8
 71
     3
 72
     8
 73
     4
 74
     0
 42
0.000000001
 43
0.00000001
 40
0.0
 40
0.0
 40
0.0
 40
0.0
 40
1.0
 40
1.0
 40
1.0
 40
1.0
 10
11.07115879606453
 20
-1.526630870576447
 30
0.0
 10
10.93943498991386
 20
-1.528260301001304
 30
0.0
 10
10.79574450065762
 20
-1.483326194650587
 30
0.0
 10
10.65408989000996
 20
-1.417006055668561
 30
0.0
  0
SPLINE
  5
208
330
1F
100
AcDbEntity
  8
0
  6
Continuous
 62
     1
370
    15
100
AcDbSpline
210
0.0
220
0.0
230
1.0
 70
     8
 71
     3
 72
     8
 73
     4
 74
     0
 42
0.000000001
 43
0.00000001
 40
0.0
 40
0.0
 40
0.0
 40
0.0
 40
1.0
 40
1.0
 40
1.0
 40
1.0
 10
10.65408989001944
 20
-1.417006055674074
 30
0.0
 10
10.50407224840039
 20
-1.322043115459375
 30
0.0
 10
10.36455148560739
 20
-1.2096165567432
 30
0.0
 10
10.24834779909632
 20
-1.087014671879677
 30
0.0
  0
SPLINE
  5
209
330
1F
100
AcDbEntity
  8
0
  6
Continuous
 62
     1
370
    15
100
AcDbSpline
210
0.0
220
0.0
230
1.0
 70
     8
 71
     3
 72
    10
 73
     6
 74
     0
 42
0.000000001
 43
0.00000001
 40
0.0
 40
0.0
 40
0.0
 40
0.0
 40
0.4999999999999998
 40
0.4999999999999998
 40
1.0
 40
1.0
 40
1.0
 40
1.0
 10
10.2483477990963
 20
-1.087014671879657
 30
0.0
 10
10.21329657624557
 20
-1.05003352164858
 30
0.0
 10
10.17165059964057
 20
-1.016298647364525
 30
0.0
 10
10.07941213600082
 20
-0.9641041627500049
 30
0.0
 10
10.02891269487338
 20
-0.9466110828448995
 30
0.0
 10
9.984683920876572
 20
-0.9426766700998763
 30
0.0
  0
SPLINE
  5
20A
330
1F
100
AcDbEntity
  8
외형선
  6
Continuous
370
    15
100
AcDbSpline
210
0.0
220
0.0
230
1.0
 70
     8
 71
     3
 72
     8
 73
     4
 74
     0
 42
0.000000001
 43
0.00000001
 40
0.0
 40
0.0
 40
0.0
 40
0.0
 40
1.0
 40
1.0
 40
1.0
 40
1.0
 10
9.984683920876586
 20
-0.9426766700999065
 30
0.0
 10
9.945109454772743
 20
-0.9391562857494911
 30
0.0
 10
9.905013975036102
 20
-0.9317623465264289
 30
0.0
 10
9.864286823197137
 20
-0.9213802403799387
 30
0.0
  0
SPLINE
  5
20B
330
1F
100
AcDbEntity
  8
외형선
  6
Continuous
370
    15
100
AcDbSpline
210
0.0
220
0.0
230
1.0
 70
     8
 71
     3
 72
     8
 73
     4
 74
     0
 42
0.000000001
 43
0.00000001
 40
0.0
 40
0.0
 40
0.0
 40
0.0
 40
1.0
 40
1.0
 40
1.0
 40
1.0
 10
9.246533331568532
 20
-0.610887977702179
 30
0.0
 10
9.139764322876738
 20
-0.5363473002073964
 30
0.0
 10
9.039035988968989
 20
-0.4556554933628898
 30
0.0
 10
8.951441945841255
 20
-0.3716672157122378
 30
0.0
  0
SPLINE
  5
20C
330
1F
100
AcDbEntity
  8
외형선
  6
Continuous
370
    15
100
AcDbSpline
210
0.0
220
0.0
230
1.0
 70
     8
 71
     3
 72
    10
 73
     6
 74
     0
 42
0.000000001
 43
0.00000001
 40
0.0
 40
0.0
 40
0.0
 40
0.0
 40
0.5
 40
0.5
 40
1.0
 40
1.0
 40
1.0
 40
1.0
 10
8.951441945841248
 20
-0.371667215712213
 30
0.0
 10
8.916122913319006
 20
-0.3378020737013026
 30
0.0
 10
8.87425478448421
 20
-0.3058154073304673
 30
0.0
 10
8.78175539695367
 20
-0.253473924624229
 30
0.0
 10
8.731594619631336
 20
-0.2340605657616992
 30
0.0
 10
8.687596236490483
 20
-0.2257761026212203
 30
0.0
  0
SPLINE
  5
20D
330
1F
100
AcDbEntity
  8
0
  6
Continuous
 62
     1
370
    15
100
AcDbSpline
210
0.0
220
0.0
230
1.0
 70
     8
 71
     3
 72
    12
 73
     8
 74
     0
 42
0.000000001
 43
0.00000001
 40
0.0
 40
0.0
 40
0.0
 40
0.0
 40
0.5000000000000001
 40
0.5000000000000001
 40
0.75
 40
0.75
 40
1.0
 40
1.0
 40
1.0
 40
1.0
 10
13.51739686517141
 20
2.717605477473138
 30
0.0
 10
13.47780014844788
 20
2.330208369197565
 30
0.0
 10
13.4368296101509
 20
1.897587895000043
 30
0.0
 10
13.37731940512552
 20
1.223039210133839
 30
0.0
 10
13.35780880607603
 20
0.9940738688201763
 30
0.0
 10
13.32003542891201
 20
0.5356508876304984
 30
0.0
 10
13.30114183048389
 20
0.3036776413989605
 30
0.0
 10
13.28152420574044
 20
0.0685487052525184
 30
0.0
  0
LINE
  5
20E
330
1F
100
AcDbEntity
  8
외형선
  6
Continuous
370
    15
100
AcDbLine
 10
-27.1000001905486
 20
4.762500058859582
 30
0.0
 11
-27.1000001905486
 21
-4.762500058859591
 31
0.0
  0
LINE
  5
20F
330
1F
100
AcDbEntity
  8
외형선
  6
Continuous
370
    15
100
AcDbLine
 10
7.181112878024577
 20
1.8148454837501
 30
0.0
 11
8.43027617316693
 21
1.8148454837501
 31
0.0
  0
LINE
  5
210
330
1F
100
AcDbEntity
  8
외형선
  6
Continuous
370
    15
100
AcDbLine
 10
5.930345379747449
 20
1.8148454837501
 30
0.0
 11
7.180159087292849
 21
1.8148454837501
 31
0.0
  0
SPLINE
  5
211
330
1F
100
AcDbEntity
  8
0
  6
Continuous
 62
     1
370
    15
100
AcDbSpline
210
0.0
220
0.0
230
1.0
 70
     8
 71
     3
 72
    12
 73
     8
 74
     0
 42
0.000000001
 43
0.00000001
 40
0.0
 40
0.0
 40
0.0
 40
0.0
 40
0.4999999999999997
 40
0.4999999999999997
 40
0.7499999999999998
 40
0.7499999999999998
 40
1.0
 40
1.0
 40
1.0
 40
1.0
 10
23.53429915044075
 20
2.881068416054581
 30
0.0
 10
23.49514745617557
 20
2.506868323024349
 30
0.0
 10
23.45425099899926
 20
2.084209458572879
 30
0.0
 10
23.39427264430643
 20
1.417754798138736
 30
0.0
 10
23.37451223120761
 20
1.190373333500682
 30
0.0
 10
23.33607811750638
 20
0.7329139331902987
 30
0.0
 10
23.31762822515673
 20
0.5037836402152653
 30
0.0
 10
23.29827544249709
 20
0.2700770604249311
 30
0.0
  0
LINE
  5
212
330
1F
100
AcDbEntity
  8
외형선
  6
Continuous
370
    15
100
AcDbLine
 10
-28.09999849181622
 20
3.762499894946809
 30
0.0
 11
-28.09999849181622
 21
-3.762499894946818
 31
0.0
  0
SPLINE
  5
213
330
1F
100
AcDbEntity
  8
0
  6
Continuous
 62
     1
370
    15
100
AcDbSpline
210
0.0
220
0.0
230
1.0
 70
     8
 71
     3
 72
    12
 73
     8
 74
     0
 42
0.000000001
 43
0.00000001
 40
0.0
 40
0.0
 40
0.0
 40
0.0
 40
0.4999999999999997
 40
0.4999999999999997
 40
0.7499999999999998
 40
0.7499999999999998
 40
1.0
 40
1.0
 40
1.0
 40
1.0
 10
33.55100169732802
 20
3.038803627437322
 30
0.0
 10
33.51241304359975
 20
2.678817875330098
 30
0.0
 10
33.47172614538752
 20
2.267505805866914
 30
0.0
 10
33.41146785529814
 20
1.611366903828791
 30
0.0
 10
33.39151776927216
 20
1.386330794965918
 30
0.0
 10
33.35253202737694
 20
0.931318477085914
 30
0.0
 10
33.33392354770256
 20
0.7030937958117928
 30
0.0
 10
33.31489481653836
 20
0.4715394767158576
 30
0.0
  0
SPLINE
  5
214
330
1F
100
AcDbEntity
  8
0
  6
Continuous
 62
     1
370
    15
100
AcDbSpline
210
0.0
220
0.0
230
1.0
 70
     8
 71
     3
 72
     8
 73
     4
 74
     0
 42
0.000000001
 43
0.00000001
 40
0.0
 40
0.0
 40
0.0
 40
0.0
 40
1.0
 40
1.0
 40
1.0
 40
1.0
 10
33.96821549130516
 20
2.808447732061833
 30
0.0
 10
33.83636083531646
 20
2.885779253366327
 30
0.0
 10
33.69257498701272
 20
2.969382588134464
 30
0.0
 10
33.55100169732822
 20
3.038803627439328
 30
0.0
  0
SPLINE
  5
215
330
1F
100
AcDbEntity
  8
0
  6
Continuous
 62
     1
370
    15
100
AcDbSpline
210
0.0
220
0.0
230
1.0
 70
     8
 71
     3
 72
    10
 73
     6
 74
     0
 42
0.000000001
 43
0.00000001
 40
0.0
 40
0.0
 40
0.0
 40
0.0
 40
0.5
 40
0.5
 40
1.0
 40
1.0
 40
1.0
 40
1.0
 10
32.88033086165339
 20
3.263833252673354
 30
0.0
 10
32.70637475094851
 20
3.372913488558799
 30
0.0
 10
32.51638299106695
 20
3.476474697925242
 30
0.0
 10
32.15357901108985
 20
3.611776605182007
 30
0.0
 10
31.98453619193999
 20
3.643368182868296
 30
0.0
 10
31.84571651584852
 20
3.643876671887856
 30
0.0
  0
SPLINE
  5
216
330
1F
100
AcDbEntity
  8
0
  6
Continuous
 62
     1
370
    15
100
AcDbSpline
210
0.0
220
0.0
230
1.0
 70
     8
 71
     3
 72
     8
 73
     4
 74
     0
 42
0.000000001
 43
0.00000001
 40
0.0
 40
0.0
 40
0.0
 40
0.0
 40
1.0
 40
1.0
 40
1.0
 40
1.0
 10
33.55100169732805
 20
3.038803627439233
 30
0.0
 10
33.40085384998942
 20
3.099183960485243
 30
0.0
 10
33.26111307637653
 20
3.138193651126537
 30
0.0
 10
33.14454890597111
 20
3.158783848636105
 30
0.0
  0
SPLINE
  5
217
330
1F
100
AcDbEntity
  8
외형선
  6
Continuous
370
    15
100
AcDbSpline
210
0.0
220
0.0
230
1.0
 70
     8
 71
     3
 72
     8
 73
     4
 74
     0
 42
0.000000001
 43
0.00000001
 40
0.0
 40
0.0
 40
0.0
 40
0.0
 40
1.0
 40
1.0
 40
1.0
 40
1.0
 10
8.704275446793652
 20
-2.97271058167116
 30
0.0
 10
8.828604243063022
 20
-3.047157593315065
 30
0.0
 10
8.961508275627983
 20
-3.123774719067876
 30
0.0
 10
9.092861774686188
 20
-3.187441810378667
 30
0.0
  0
SPLINE
  5
218
330
1F
100
AcDbEntity
  8
0
  6
Continuous
 62
     1
370
    15
100
AcDbSpline
210
0.0
220
0.0
230
1.0
 70
     8
 71
     3
 72
    12
 73
     8
 74
     0
 42
0.000000001
 43
0.00000001
 40
0.0
 40
0.0
 40
0.0
 40
0.0
 40
0.2499999999999998
 40
0.2499999999999998
 40
0.4999999999999997
 40
0.4999999999999997
 40
1.0
 40
1.0
 40
1.0
 40
1.0
 10
30.68813631690213
 20
-1.028202299713595
 30
0.0
 10
30.66799948708278
 20
-1.259907925439437
 30
0.0
 10
30.64796206694851
 20
-1.487370276076785
 30
0.0
 10
30.60873758060267
 20
-1.926573177395185
 30
0.0
 10
30.58988642477536
 20
-2.137123799003251
 30
0.0
 10
30.53311091201312
 20
-2.744600127620863
 30
0.0
 10
30.49274908669937
 20
-3.124208392962199
 30
0.0
 10
30.4524211452466
 20
-3.451387658657123
 30
0.0
  0
SPLINE
  5
219
330
1F
100
AcDbEntity
  8
0
  6
Continuous
 62
     1
370
    15
100
AcDbSpline
210
0.0
220
0.0
230
1.0
 70
     8
 71
     3
 72
    12
 73
     8
 74
     0
 42
0.000000001
 43
0.00000001
 40
0.0
 40
0.0
 40
0.0
 40
0.0
 40
0.2499999999999999
 40
0.2499999999999999
 40
0.4999999999999998
 40
0.4999999999999998
 40
1.0
 40
1.0
 40
1.0
 40
1.0
 10
20.67106314848977
 20
-1.223915360307894
 30
0.0
 10
20.65101426368689
 20
-1.452867866862334
 30
0.0
 10
20.6311602375191
 20
-1.676497898583222
 30
0.0
 10
20.59247375954493
 20
-2.106213823035124
 30
0.0
 10
20.57402358089617
 20
-2.311049956320347
 30
0.0
 10
20.51629018802029
 20
-2.906945455345389
 30
0.0
 10
20.47562013402106
 20
-3.274512739633108
 30
0.0
 10
20.43537762722121
 20
-3.586617639245437
 30
0.0
  0
SPLINE
  5
21A
330
1F
100
AcDbEntity
  8
0
  6
Continuous
 62
     1
370
    15
100
AcDbSpline
210
0.0
220
0.0
230
1.0
 70
     8
 71
     3
 72
    12
 73
     8
 74
     0
 42
0.000000001
 43
0.00000001
 40
0.0
 40
0.0
 40
0.0
 40
0.0
 40
0.25
 40
0.25
 40
0.4999999999999998
 40
0.4999999999999998
 40
1.0
 40
1.0
 40
1.0
 40
1.0
 10
10.65408989000977
 20
-1.41700605567066
 30
0.0
 10
10.63417367377511
 20
-1.64270523880081
 30
0.0
 10
10.61454609514537
 20
-1.862035807157413
 30
0.0
 10
10.57647595209724
 20
-2.281443030028917
 30
0.0
 10
10.5578256313845
 20
-2.48243312794606
 30
0.0
 10
10.49924653706843
 20
-3.06520257197515
 30
0.0
 10
10.45836073973395
 20
-3.419737869591216
 30
0.0
 10
10.41829488266896
 20
-3.71603039437402
 30
0.0
  0
SPLINE
  5
21B
330
1F
100
AcDbEntity
  8
0
  6
Continuous
 62
     1
370
    15
100
AcDbSpline
210
0.0
220
0.0
230
1.0
 70
     8
 71
     3
 72
     8
 73
     4
 74
     0
 42
0.000000001
 43
0.00000001
 40
0.0
 40
0.0
 40
0.0
 40
0.0
 40
1.0
 40
1.0
 40
1.0
 40
1.0
 10
10.00131055122585
 20
-3.487312204936452
 30
0.0
 10
10.13300272327246
 20
-3.573496756634797
 30
0.0
 10
10.27667849958788
 20
-3.655284643883599
 30
0.0
 10
10.41829488266897
 20
-3.716030394374044
 30
0.0
  0
SPLINE
  5
21C
330
1F
100
AcDbEntity
  8
0
  6
Continuous
 62
     1
370
    15
100
AcDbSpline
210
0.0
220
0.0
230
1.0
 70
     8
 71
     3
 72
    12
 73
     8
 74
     0
 42
0.000000001
 43
0.00000001
 40
0.0
 40
0.0
 40
0.0
 40
0.0
 40
0.2499999999999999
 40
0.2499999999999999
 40
0.4999999999999998
 40
0.4999999999999998
 40
1.0
 40
1.0
 40
1.0
 40
1.0
 10
11.13099818857137
 20
3.72088920444044
 30
0.0
 10
11.11135945852972
 20
3.574054620075003
 30
0.0
 10
11.0924002229831
 20
3.41537014843024
 30
0.0
 10
11.05468377898473
 20
3.075614679734122
 30
0.0
 10
11.03519507578795
 20
2.892238257683856
 30
0.0
 10
10.97572737554106
 20
2.308842449056355
 30
0.0
 10
10.93475333219897
 20
1.875088832821316
 30
0.0
 10
10.89512193906389
 20
1.424803818913565
 30
0.0
  0
SPLINE
  5
21D
330
1F
100
AcDbEntity
  8
외형선
  6
Continuous
370
    15
100
AcDbSpline
210
0.0
220
0.0
230
1.0
 70
     8
 71
     3
 72
     8
 73
     4
 74
     0
 42
0.000000001
 43
0.00000001
 40
0.0
 40
0.0
 40
0.0
 40
0.0
 40
1.0
 40
1.0
 40
1.0
 40
1.0
 10
9.544109715236932
 20
-3.355143028013935
 30
0.0
 10
9.613594942881424
 20
-3.371971487531026
 30
0.0
 10
9.678284448198488
 20
-3.382835784505904
 30
0.0
 10
9.737548674273942
 20
-3.388830409426338
 30
0.0
  0
SPLINE
  5
21E
330
1F
100
AcDbEntity
  8
0
  6
Continuous
 62
     1
370
    15
100
AcDbSpline
210
0.0
220
0.0
230
1.0
 70
     8
 71
     3
 72
    10
 73
     6
 74
     0
 42
0.000000001
 43
0.00000001
 40
0.0
 40
0.0
 40
0.0
 40
0.0
 40
0.5
 40
0.5
 40
1.0
 40
1.0
 40
1.0
 40
1.0
 10
34.23219342462067
 20
2.690132065376207
 30
0.0
 10
34.19684053142185
 20
2.701722805250142
 30
0.0
 10
34.15493970954054
 20
2.718036080484279
 30
0.0
 10
34.06240323653547
 20
2.758541724205735
 30
0.0
 10
34.0122323225879
 20
2.782632272603282
 30
0.0
 10
33.96821549130516
 20
2.808447732061834
 30
0.0
  0
SPLINE
  5
21F
330
1F
100
AcDbEntity
  8
외형선
  6
Continuous
370
    15
100
AcDbSpline
210
0.0
220
0.0
230
1.0
 70
     8
 71
     3
 72
    10
 73
     6
 74
     0
 42
0.000000001
 43
0.00000001
 40
0.0
 40
0.0
 40
0.0
 40
0.0
 40
0.5
 40
0.5
 40
1.0
 40
1.0
 40
1.0
 40
1.0
 10
8.479960968179997
 20
-2.87145258987201
 30
0.0
 10
8.512763527769186
 20
-2.882384126269745
 30
0.0
 10
8.549676238775122
 20
-2.896612643213961
 30
0.0
 10
8.627320366816527
 20
-2.930877787431709
 30
0.0
 10
8.667889982921892
 20
-2.950923279502959
 30
0.0
 10
8.704275446793652
 20
-2.972710581671162
 30
0.0
  0
SPLINE
  5
220
330
1F
100
AcDbEntity
  8
외형선
  6
Continuous
370
    15
100
AcDbSpline
210
0.0
220
0.0
230
1.0
 70
    24
 71
     3
 72
    10
 73
     6
 74
     0
 42
0.000000001
 43
0.00000001
 40
0.0
 40
0.0
 40
0.0
 40
0.0
 40
0.5000000000000001
 40
0.5000000000000001
 40
1.0
 40
1.0
 40
1.0
 40
1.0
 10
8.479960968176135
 20
-2.871438594050272
 30
0.0
 10
8.479960968176131
 20
-3.212035191083075
 30
0.0
 10
8.479960968176131
 20
-3.514782983891162
 30
0.0
 10
8.479960968176131
 20
-4.02786072926426
 30
0.0
 10
8.479960968176123
 20
-4.232468263927945
 30
0.0
 10
8.479960968176123
 20
-4.391245111763147
 30
0.0
  0
SPLINE
  5
221
330
1F
100
AcDbEntity
  8
0
  6
Continuous
 62
     1
370
    15
100
AcDbSpline
210
0.0
220
0.0
230
1.0
 70
     8
 71
     3
 72
    12
 73
     8
 74
     0
 42
0.000000001
 43
0.00000001
 40
0.0
 40
0.0
 40
0.0
 40
0.0
 40
0.2499999999999999
 40
0.2499999999999999
 40
0.4999999999999998
 40
0.4999999999999998
 40
1.0
 40
1.0
 40
1.0
 40
1.0
 10
21.14782217173106
 20
3.842876431453889
 30
0.0
 10
21.12797205852537
 20
3.703402088314514
 30
0.0
 10
21.10844467331295
 20
3.550449718128321
 30
0.0
 10
21.07063258239793
 20
3.223768208934892
 30
0.0
 10
21.05176074181983
 20
3.048499888827817
 30
0.0
 10
20.99291590041869
 20
2.484368155747384
 30
0.0
 10
20.95198657572351
 20
2.060179645988346
 30
0.0
 10
20.91201993333834
 20
1.614922634939179
 30
0.0
  0
SPLINE
  5
222
330
1F
100
AcDbEntity
  8
0
  6
Continuous
 62
     1
370
    15
100
AcDbSpline
210
0.0
220
0.0
230
1.0
 70
     8
 71
     3
 72
    10
 73
     6
 74
     0
 42
0.000000001
 43
0.00000001
 40
0.0
 40
0.0
 40
0.0
 40
0.0
 40
0.5
 40
0.5
 40
1.0
 40
1.0
 40
1.0
 40
1.0
 10
33.14454890597109
 20
3.158783848636114
 30
0.0
 10
33.10940201558559
 20
3.164992286549477
 30
0.0
 10
33.06766320263941
 20
3.177009653493337
 30
0.0
 10
32.97526705421868
 20
3.212397479832597
 30
0.0
 10
32.92465924929077
 20
3.236036867939796
 30
0.0
 10
32.88033086165339
 20
3.263833252673352
 30
0.0
  0
SPLINE
  5
223
330
1F
100
AcDbEntity
  8
0
  6
Continuous
 62
     1
370
    15
100
AcDbSpline
210
0.0
220
0.0
230
1.0
 70
     8
 71
     3
 72
     8
 73
     4
 74
     0
 42
0.000000001
 43
0.00000001
 40
0.0
 40
0.0
 40
0.0
 40
0.0
 40
1.0
 40
1.0
 40
1.0
 40
1.0
 10
10.41829486915792
 20
-3.716030390439376
 30
0.0
 10
10.5683605921237
 20
-3.75973225532175
 30
0.0
 10
10.70787658956644
 20
-3.775705249315765
 30
0.0
 10
10.8241078853933
 20
-3.768918245585435
 30
0.0
  0
SPLINE
  5
224
330
1F
100
AcDbEntity
  8
0
  6
Continuous
 62
     1
370
    15
100
AcDbSpline
210
0.0
220
0.0
230
1.0
 70
     8
 71
     3
 72
     8
 73
     4
 74
     0
 42
0.000000001
 43
0.00000001
 40
0.0
 40
0.0
 40
0.0
 40
0.0
 40
1.0
 40
1.0
 40
1.0
 40
1.0
 10
35.39999397579025
 20
2.136142218176865
 30
0.0
 10
35.3997825180781
 20
1.827258863153579
 30
0.0
 10
35.39438481650278
 20
1.502398995636154
 30
0.0
 10
35.38677340470581
 20
1.16730969153715
 30
0.0
  0
SPLINE
  5
225
330
1F
100
AcDbEntity
  8
0
  6
Continuous
 62
     1
370
    15
100
AcDbSpline
210
0.0
220
0.0
230
1.0
 70
     8
 71
     3
 72
     8
 73
     4
 74
     0
 42
0.000000001
 43
0.00000001
 40
0.0
 40
0.0
 40
0.0
 40
0.0
 40
1.0
 40
1.0
 40
1.0
 40
1.0
 10
35.39999397579025
 20
2.136142218176876
 30
0.0
 10
35.35525394687887
 20
2.15810241862717
 30
0.0
 10
35.30793298764571
 20
2.180931267586711
 30
0.0
 10
35.26579969606914
 20
2.202716988110249
 30
0.0
  0
SPLINE
  5
226
330
1F
100
AcDbEntity
  8
0
  6
Continuous
 62
     1
370
    15
100
AcDbSpline
210
0.0
220
0.0
230
1.0
 70
     8
 71
     3
 72
    12
 73
     8
 74
     0
 42
0.000000001
 43
0.00000001
 40
0.0
 40
0.0
 40
0.0
 40
0.0
 40
0.2499999999999999
 40
0.2499999999999999
 40
0.4999999999999998
 40
0.4999999999999998
 40
1.0
 40
1.0
 40
1.0
 40
1.0
 10
31.16486386813035
 20
3.958790787193358
 30
0.0
 10
31.14485441561352
 20
3.827160452030986
 30
0.0
 10
31.12507430915048
 20
3.681285144029933
 30
0.0
 10
31.0865966994248
 20
3.366859593287239
 30
0.0
 10
31.06813981582186
 20
3.199243114392242
 30
0.0
 10
31.01007272013499
 20
2.655760161435432
 30
0.0
 10
30.96930474975428
 20
2.242362776742153
 30
0.0
 10
30.92910885987613
 20
1.803417459155375
 30
0.0
  0
SPLINE
  5
227
330
1F
100
AcDbEntity
  8
0
  6
Continuous
 62
     1
370
    15
100
AcDbSpline
210
0.0
220
0.0
230
1.0
 70
     8
 71
     3
 72
     8
 73
     4
 74
     0
 42
0.000000001
 43
0.00000001
 40
0.0
 40
0.0
 40
0.0
 40
0.0
 40
1.0
 40
1.0
 40
1.0
 40
1.0
 10
31.58186161917899
 20
3.732988430579629
 30
0.0
 10
31.45015661686595
 20
3.822087220295291
 30
0.0
 10
31.30649979719201
 20
3.9022913682628
 30
0.0
 10
31.16486386813037
 20
3.958790787193474
 30
0.0
  0
SPLINE
  5
228
330
1F
100
AcDbEntity
  8
외형선
  6
Continuous
370
    15
100
AcDbSpline
210
0.0
220
0.0
230
1.0
 70
     8
 71
     3
 72
    10
 73
     6
 74
     0
 42
0.000000001
 43
0.00000001
 40
0.0
 40
0.0
 40
0.0
 40
0.0
 40
0.5
 40
0.5
 40
1.0
 40
1.0
 40
1.0
 40
1.0
 10
9.73754867427399
 20
-3.388830409426341
 30
0.0
 10
9.77284783607017
 20
-3.392400948501708
 30
0.0
 10
9.814694706424415
 20
-3.402293563558989
 30
0.0
 10
9.907162047489933
 20
-3.435269485802161
 30
0.0
 10
9.957314952724877
 20
-3.458519749966819
 30
0.0
 10
10.00131055122583
 20
-3.487312204936455
 30
0.0
  0
SPLINE
  5
229
330
1F
100
AcDbEntity
  8
외형선
  6
Continuous
370
    15
100
AcDbSpline
210
0.0
220
0.0
230
1.0
 70
     8
 71
     3
 72
     8
 73
     4
 74
     0
 42
0.000000001
 43
0.00000001
 40
0.0
 40
0.0
 40
0.0
 40
0.0
 40
1.0
 40
1.0
 40
1.0
 40
1.0
 10
9.0012438854441
 20
-4.655284757640121
 30
0.0
 10
8.808307427007279
 20
-4.635284980515808
 30
0.0
 10
8.62743909793682
 20
-4.548889668847125
 30
0.0
 10
8.479960968176135
 20
-4.414273517559509
 30
0.0
  0
SPLINE
  5
22A
330
1F
100
AcDbEntity
  8
외형선
  6
Continuous
370
    15
100
AcDbSpline
210
0.0
220
0.0
230
1.0
 70
     8
 71
     3
 72
    24
 73
    20
 74
     0
 42
0.000000001
 43
0.00000001
 40
0.0
 40
0.0
 40
0.0
 40
0.0
 40
0.2500000000000017
 40
0.2500000000000017
 40
0.3750000000000021
 40
0.3750000000000021
 40
0.437500000000002
 40
0.437500000000002
 40
0.4531250000000018
 40
0.4531250000000018
 40
0.4687500000000017
 40
0.4687500000000017
 40
0.5000000000000016
 40
0.5000000000000016
 40
0.625000000000001
 40
0.625000000000001
 40
0.7500000000000006
 40
0.7500000000000006
 40
1.0
 40
1.0
 40
1.0
 40
1.0
 10
9.162722181085535
 20
-4.655971310815729
 30
0.0
 10
9.14923011139756
 20
-4.670725767064368
 30
0.0
 10
9.13495902454846
 20
-4.684055964305543
 30
0.0
 10
9.10887166285231
 20
-4.702178296597312
 30
0.0
 10
9.099670645392168
 20
-4.707893880922698
 30
0.0
 10
9.080985281333815
 20
-4.716246440061191
 30
0.0
 10
9.075118343811116
 20
-4.719029551433902
 30
0.0
 10
9.059454461573445
 20
-4.722520288338094
 30
0.0
 10
9.055213712212609
 20
-4.723286678881893
 30
0.0
 10
9.04663660095066
 20
-4.723989743394669
 30
0.0
 10
9.043474340726066
 20
-4.7238802673642
 30
0.0
 10
9.036380481049909
 20
-4.723298383288188
 30
0.0
 10
9.03371233148201
 20
-4.722550637643819
 30
0.0
 10
9.021799541979574
 20
-4.718569960807979
 30
0.0
 10
9.018377772265177
 20
-4.714232695902905
 30
0.0
 10
9.01168606676334
 20
-4.704815265378695
 30
0.0
 10
9.00944054154514
 20
-4.699613184311247
 30
0.0
 10
9.004047337398147
 20
-4.682741089399119
 30
0.0
 10
9.002305910328378
 20
-4.669798761031685
 30
0.0
 10
9.001243885444364
 20
-4.655284757640118
 30
0.0
  0
SPLINE
  5
22B
330
1F
100
AcDbEntity
  8
외형선
  6
Continuous
370
    15
100
AcDbSpline
210
0.0
220
0.0
230
1.0
 70
     8
 71
     3
 72
     8
 73
     4
 74
     0
 42
0.000000001
 43
0.00000001
 40
0.0
 40
0.0
 40
0.0
 40
0.0
 40
1.0
 40
1.0
 40
1.0
 40
1.0
 10
9.508082165196273
 20
-4.539819868008071
 30
0.0
 10
9.397373998393814
 20
-4.607443686147961
 30
0.0
 10
9.280081925457312
 20
-4.644683369961889
 30
0.0
 10
9.162722181104835
 20
-4.65597131081878
 30
0.0
  0
SPLINE
  5
22C
330
1F
100
AcDbEntity
  8
0
  6
Continuous
 62
     1
370
    15
100
AcDbSpline
210
0.0
220
0.0
230
1.0
 70
     8
 71
     3
 72
    10
 73
     6
 74
     0
 42
0.000000001
 43
0.00000001
 40
0.0
 40
0.0
 40
0.0
 40
0.0
 40
0.5
 40
0.5
 40
1.0
 40
1.0
 40
1.0
 40
1.0
 10
11.08792173685038
 20
-3.850761816303415
 30
0.0
 10
11.26188383898747
 20
-3.968370173314429
 30
0.0
 10
11.45163675422624
 20
-4.063073892743112
 30
0.0
 10
11.81436884751789
 20
-4.162699621917437
 30
0.0
 10
11.98353460869663
 20
-4.167763967119492
 30
0.0
 10
12.12267646845719
 20
-4.136218597549746
 30
0.0
  0
SPLINE
  5
22D
330
1F
100
AcDbEntity
  8
외형선
  6
Continuous
370
    15
100
AcDbSpline
210
0.0
220
0.0
230
1.0
 70
    24
 71
     3
 72
    10
 73
     6
 74
     0
 42
0.000000001
 43
0.00000001
 40
0.0
 40
0.0
 40
0.0
 40
0.0
 40
0.5
 40
0.5
 40
1.0
 40
1.0
 40
1.0
 40
1.0
 10
9.999999952502549
 20
1.869730956159439
 30
0.0
 10
9.999999952502549
 20
2.332618951393322
 30
0.0
 10
9.999999952502549
 20
2.75459711284702
 30
0.0
 10
9.999999952502549
 20
3.514398706571576
 30
0.0
 10
9.999999952502549
 20
3.83297052083334
 30
0.0
 10
9.999999952502549
 20
4.090517044437126
 30
0.0
  0
LINE
  5
22E
330
1F
100
AcDbEntity
  8
0
  6
Continuous
 62
     1
370
    15
100
AcDbLine
 10
35.3999998094514
 20
1.181498169898982
 30
0.0
 11
35.3999998094514
 21
2.136139431968327
 31
0.0
  0
SPLINE
  5
22F
330
1F
100
AcDbEntity
  8
외형선
  6
Continuous
370
    15
100
AcDbSpline
210
0.0
220
0.0
230
1.0
 70
     8
 71
     3
 72
    12
 73
     8
 74
     0
 42
0.000000001
 43
0.00000001
 40
0.0
 40
0.0
 40
0.0
 40
0.0
 40
0.4999999999999998
 40
0.4999999999999998
 40
0.7499999999999999
 40
0.7499999999999999
 40
1.0
 40
1.0
 40
1.0
 40
1.0
 10
8.747371870556753
 20
4.413642385416934
 30
0.0
 10
8.707374261262954
 20
4.235776104468652
 30
0.0
 10
8.66645288193645
 20
3.989754446275263
 30
0.0
 10
8.607675747347905
 20
3.544340315682573
 30
0.0
 10
8.588871989989766
 20
3.384486132654466
 30
0.0
 10
8.550985321137063
 20
3.041209745919661
 30
0.0
 10
8.5314284562284
 20
2.856188340319104
 30
0.0
 10
8.511558208452016
 20
2.660257754970681
 30
0.0
  0
SPLINE
  5
230
330
1F
100
AcDbEntity
  8
외형선
  6
Continuous
370
    15
100
AcDbSpline
210
0.0
220
0.0
230
1.0
 70
    24
 71
     3
 72
     9
 73
     5
 74
     0
 42
0.000000001
 43
0.00000001
 40
0.0
 40
0.0
 40
0.0
 40
0.0
 40
0.1279547763412305
 40
1.0
 40
1.0
 40
1.0
 40
1.0
 10
8.479960951954126
 20
4.589471500366922
 30
0.0
 10
8.479960951954126
 20
4.586822022273219
 30
0.0
 10
8.479960951954126
 20
4.566115658904357
 30
0.0
 10
8.479960951954126
 20
4.481219917909759
 30
0.0
 10
8.479960951954126
 20
4.407186992466445
 30
0.0
  0
SPLINE
  5
231
330
1F
100
AcDbEntity
  8
외형선
  6
Continuous
370
    15
100
AcDbSpline
210
0.0
220
0.0
230
1.0
 70
    24
 71
     3
 72
     8
 73
     4
 74
     0
 42
0.000000001
 43
0.00000001
 40
0.0
 40
0.0
 40
0.0
 40
0.0
 40
1.0
 40
1.0
 40
1.0
 40
1.0
 10
8.479960968176128
 20
2.671402386517631
 30
0.0
 10
8.479960968176128
 20
2.564636234730696
 30
0.0
 10
8.479960968176131
 20
2.454902034838007
 30
0.0
 10
8.479960968176131
 20
2.342197690546731
 30
0.0
  0
SPLINE
  5
232
330
1F
100
AcDbEntity
  8
0
  6
Continuous
 62
     1
370
    15
100
AcDbSpline
210
0.0
220
0.0
230
1.0
 70
     8
 71
     3
 72
     8
 73
     4
 74
     0
 42
0.000000001
 43
0.00000001
 40
0.0
 40
0.0
 40
0.0
 40
0.0
 40
1.0
 40
1.0
 40
1.0
 40
1.0
 10
31.16486386813875
 20
3.958790787191171
 30
0.0
 10
31.01488314158529
 20
3.995053948941471
 30
0.0
 10
30.87537818433444
 20
4.001097693071593
 30
0.0
 10
30.75918071843314
 20
3.982684734351613
 30
0.0
  0
SPLINE
  5
233
330
1F
100
AcDbEntity
  8
0
  6
Continuous
 62
     1
370
    15
100
AcDbSpline
210
0.0
220
0.0
230
1.0
 70
     8
 71
     3
 72
    10
 73
     6
 74
     0
 42
0.000000001
 43
0.00000001
 40
0.0
 40
0.0
 40
0.0
 40
0.0
 40
0.5
 40
0.5
 40
1.0
 40
1.0
 40
1.0
 40
1.0
 10
31.84571651584852
 20
3.643876671887853
 30
0.0
 10
31.81038031044411
 20
3.644006106510862
 30
0.0
 10
31.7685073088787
 20
3.65107578567563
 30
0.0
 10
31.6760392796461
 20
3.680540215128498
 30
0.0
 10
31.62588615703395
 20
3.703205711838653
 30
0.0
 10
31.58186161917898
 20
3.732988430579631
 30
0.0
  0
SPLINE
  5
234
330
1F
100
AcDbEntity
  8
0
  6
Continuous
 62
     1
370
    15
100
AcDbSpline
210
0.0
220
0.0
230
1.0
 70
     8
 71
     3
 72
    10
 73
     6
 74
     0
 42
0.000000001
 43
0.00000001
 40
0.0
 40
0.0
 40
0.0
 40
0.0
 40
0.5
 40
0.5
 40
1.0
 40
1.0
 40
1.0
 40
1.0
 10
10.82410788539331
 20
-3.768918245585431
 30
0.0
 10
10.85918843932823
 20
-3.766869814061677
 30
0.0
 10
10.90086468676905
 20
-3.772069749650465
 30
0.0
 10
10.99314106411768
 20
-3.798797001443875
 30
0.0
 10
11.04366283234179
 20
-3.820840258800831
 30
0.0
 10
11.08792173685039
 20
-3.850761816303402
 30
0.0
  0
SPLINE
  5
235
330
1F
100
AcDbEntity
  8
0
  6
Continuous
 62
     1
370
    15
100
AcDbSpline
210
0.0
220
0.0
230
1.0
 70
     8
 71
     3
 72
    10
 73
     6
 74
     0
 42
0.000000001
 43
0.00000001
 40
0.0
 40
0.0
 40
0.0
 40
0.0
 40
0.5
 40
0.5
 40
1.0
 40
1.0
 40
1.0
 40
1.0
 10
30.49552231805445
 20
4.053425788129989
 30
0.0
 10
30.32171399179698
 20
4.172894536410233
 30
0.0
 10
30.13190588144327
 20
4.262212002228777
 30
0.0
 10
29.76974924285588
 20
4.345341594619035
 30
0.0
 10
29.60099476612536
 20
4.339240176747166
 30
0.0
 10
29.46221808320738
 20
4.294404075759694
 30
0.0
  0
SPLINE
  5
236
330
1F
100
AcDbEntity
  8
0
  6
Continuous
 62
     1
370
    15
100
AcDbSpline
210
0.0
220
0.0
230
1.0
 70
     8
 71
     3
 72
    10
 73
     6
 74
     0
 42
0.000000001
 43
0.00000001
 40
0.0
 40
0.0
 40
0.0
 40
0.0
 40
0.5
 40
0.5
 40
1.0
 40
1.0
 40
1.0
 40
1.0
 10
33.07361260416724
 20
-2.311163715583547
 30
0.0
 10
33.03593651714485
 20
-2.716666303986044
 30
0.0
 10
32.99570447651382
 20
-3.097593630197357
 30
0.0
 10
32.9151692363971
 20
-3.756058534521791
 30
0.0
 10
32.87494265659181
 20
-4.032970033517023
 30
0.0
 10
32.83727638397207
 20
-4.243487203999413
 30
0.0
  0
SPLINE
  5
237
330
1F
100
AcDbEntity
  8
외형선
  6
Continuous
370
    15
100
AcDbSpline
210
0.0
220
0.0
230
1.0
 70
     8
 71
     3
 72
    12
 73
     8
 74
     0
 42
0.000000001
 43
0.00000001
 40
0.0
 40
0.0
 40
0.0
 40
0.0
 40
0.2500000000000003
 40
0.2500000000000003
 40
0.5000000000000003
 40
0.5000000000000003
 40
1.0
 40
1.0
 40
1.0
 40
1.0
 10
9.4203112465054
 20
2.173930639983646
 30
0.0
 10
9.435547675832519
 20
2.385124579239498
 30
0.0
 10
9.450774227683619
 20
2.58648578388051
 30
0.0
 10
9.481175060352555
 20
2.969658800780698
 30
0.0
 10
9.496358385526213
 20
3.152960063919508
 30
0.0
 10
9.541430517646944
 20
3.6588363832156
 30
0.0
 10
9.572610535850004
 20
3.938275639936802
 30
0.0
 10
9.604937083090213
 20
4.159091886972542
 30
0.0
  0
LINE
  5
238
330
1F
100
AcDbEntity
  8
0
  6
Continuous
 62
     1
370
    15
100
AcDbLine
 10
28.91111966688186
 20
4.500873852521177
 30
0.0
 11
29.02228419203311
 21
4.542198497802015
 31
0.0
  0
SPLINE
  5
239
330
1F
100
AcDbEntity
  8
0
  6
Continuous
 62
     1
370
    15
100
AcDbSpline
210
0.0
220
0.0
230
1.0
 70
     8
 71
     3
 72
     8
 73
     4
 74
     0
 42
0.000000001
 43
0.00000001
 40
0.0
 40
0.0
 40
0.0
 40
0.0
 40
1.0
 40
1.0
 40
1.0
 40
1.0
 10
29.02228483040624
 20
4.542198373486502
 30
0.0
 10
29.17237188727501
 20
4.55223208932126
 30
0.0
 10
29.31191228723718
 20
4.525691887110018
 30
0.0
 10
29.42812183569161
 20
4.47069744853528
 30
0.0
  0
SPLINE
  5
23A
330
1F
100
AcDbEntity
  8
0
  6
Continuous
 62
     1
370
    15
100
AcDbSpline
210
0.0
220
0.0
230
1.0
 70
     8
 71
     3
 72
    10
 73
     6
 74
     0
 42
0.000000001
 43
0.00000001
 40
0.0
 40
0.0
 40
0.0
 40
0.0
 40
0.5
 40
0.5
 40
1.0
 40
1.0
 40
1.0
 40
1.0
 10
29.42812183569161
 20
4.47069744853528
 30
0.0
 10
29.46317862162925
 20
4.454107346546959
 30
0.0
 10
29.5048270448921
 20
4.446559157990971
 30
0.0
 10
29.59705546663072
 20
4.454939152771713
 30
0.0
 10
29.647551524805
 20
4.471793738260065
 30
0.0
 10
29.69178816897587
 20
4.502377578773086
 30
0.0
  0
SPLINE
  5
23B
330
1F
100
AcDbEntity
  8
0
  6
Continuous
 62
     1
370
    15
100
AcDbSpline
210
0.0
220
0.0
230
1.0
 70
     8
 71
     3
 72
    10
 73
     6
 74
     0
 42
0.000000001
 43
0.00000001
 40
0.0
 40
0.0
 40
0.0
 40
0.0
 40
0.5
 40
0.5
 40
1.0
 40
1.0
 40
1.0
 40
1.0
 10
29.69178816897585
 20
4.5023775787731
 30
0.0
 10
29.86548328622383
 20
4.622464982855635
 30
0.0
 10
30.05497443985207
 20
4.690494735770904
 30
0.0
 10
30.41730432006526
 20
4.715247371810463
 30
0.0
 10
30.58626404042159
 20
4.672375848197232
 30
0.0
 10
30.72504467978734
 20
4.586656725294505
 30
0.0
  0
SPLINE
  5
23C
330
1F
100
AcDbEntity
  8
0
  6
Continuous
 62
     1
370
    15
100
AcDbSpline
210
0.0
220
0.0
230
1.0
 70
     8
 71
     3
 72
    10
 73
     6
 74
     0
 42
0.000000001
 43
0.00000001
 40
0.0
 40
0.0
 40
0.0
 40
0.0
 40
0.5
 40
0.5
 40
1.0
 40
1.0
 40
1.0
 40
1.0
 10
30.72504467978735
 20
4.586656725294505
 30
0.0
 10
30.76036214560603
 20
4.564842571627539
 30
0.0
 10
30.80222836292473
 20
4.552510883748194
 30
0.0
 10
30.89471857682658
 20
4.553620013352654
 30
0.0
 10
30.94486733517382
 20
4.568002540430239
 30
0.0
 10
30.98885356907901
 20
4.598054142684867
 30
0.0
  0
SPLINE
  5
23D
330
1F
100
AcDbEntity
  8
0
  6
Continuous
 62
     1
370
    15
100
AcDbSpline
210
0.0
220
0.0
230
1.0
 70
     8
 71
     3
 72
     8
 73
     4
 74
     0
 42
0.000000001
 43
0.00000001
 40
0.0
 40
0.0
 40
0.0
 40
0.0
 40
1.0
 40
1.0
 40
1.0
 40
1.0
 10
30.98885356907903
 20
4.598054142684883
 30
0.0
 10
31.12059470875939
 20
4.688060310041233
 30
0.0
 10
31.26430013005602
 20
4.742854671170401
 30
0.0
 10
31.40585623567875
 20
4.761855505490275
 30
0.0
  0
SPLINE
  5
23E
330
1F
100
AcDbEntity
  8
0
  6
Continuous
 62
     1
370
    15
100
AcDbSpline
210
0.0
220
0.0
230
1.0
 70
     8
 71
     3
 72
     8
 73
     4
 74
     0
 42
0.000000001
 43
0.00000001
 40
0.0
 40
0.0
 40
0.0
 40
0.0
 40
1.0
 40
1.0
 40
1.0
 40
1.0
 10
31.40585622216754
 20
4.761855507059828
 30
0.0
 10
31.55597712235684
 20
4.744416922494672
 30
0.0
 10
31.69541306453129
 20
4.686877166738373
 30
0.0
 10
31.8116933024219
 20
4.599138878656063
 30
0.0
  0
SPLINE
  5
23F
330
1F
100
AcDbEntity
  8
0
  6
Continuous
 62
     1
370
    15
100
AcDbSpline
210
0.0
220
0.0
230
1.0
 70
     8
 71
     3
 72
    10
 73
     6
 74
     0
 42
0.000000001
 43
0.00000001
 40
0.0
 40
0.0
 40
0.0
 40
0.0
 40
0.5
 40
0.5
 40
1.0
 40
1.0
 40
1.0
 40
1.0
 10
31.8116933024219
 20
4.599138878656062
 30
0.0
 10
31.84676655547346
 20
4.572674646762104
 30
0.0
 10
31.88843549573162
 20
4.555799210570685
 30
0.0
 10
31.98072285452869
 20
4.548906310531941
 30
0.0
 10
32.03127697362372
 20
4.56005289985999
 30
0.0
 10
32.07556461926173
 20
4.588273405960743
 30
0.0
  0
SPLINE
  5
240
330
1F
100
AcDbEntity
  8
0
  6
Continuous
 62
     1
370
    15
100
AcDbSpline
210
0.0
220
0.0
230
1.0
 70
     8
 71
     3
 72
    10
 73
     6
 74
     0
 42
0.000000001
 43
0.00000001
 40
0.0
 40
0.0
 40
0.0
 40
0.0
 40
0.5
 40
0.5
 40
1.0
 40
1.0
 40
1.0
 40
1.0
 10
32.07556461926173
 20
4.588273405960768
 30
0.0
 10
32.24952809253061
 20
4.699124574226052
 30
0.0
 10
32.4395579211359
 20
4.739759237777983
 30
0.0
 10
32.80249561271225
 20
4.703113776186298
 30
0.0
 10
32.97167301886888
 20
4.626577783845115
 30
0.0
 10
33.11071405832085
 20
4.506465360128407
 30
0.0
  0
SPLINE
  5
241
330
1F
100
AcDbEntity
  8
0
  6
Continuous
 62
     1
370
    15
100
AcDbSpline
210
0.0
220
0.0
230
1.0
 70
     8
 71
     3
 72
    10
 73
     6
 74
     0
 42
0.000000001
 43
0.00000001
 40
0.0
 40
0.0
 40
0.0
 40
0.0
 40
0.5
 40
0.5
 40
1.0
 40
1.0
 40
1.0
 40
1.0
 10
33.11071405832085
 20
4.506465360128409
 30
0.0
 10
33.14611564104391
 20
4.475883239043634
 30
0.0
 10
33.18805282977673
 20
4.454918880092178
 30
0.0
 10
33.28063890039038
 20
4.441003491972356
 30
0.0
 10
33.33084024203706
 20
4.449210618796755
 30
0.0
 10
33.37489559655226
 20
4.475686672869235
 30
0.0
  0
SPLINE
  5
242
330
1F
100
AcDbEntity
  8
0
  6
Continuous
 62
     1
370
    15
100
AcDbSpline
210
0.0
220
0.0
230
1.0
 70
     8
 71
     3
 72
     8
 73
     4
 74
     0
 42
0.000000001
 43
0.00000001
 40
0.0
 40
0.0
 40
0.0
 40
0.0
 40
1.0
 40
1.0
 40
1.0
 40
1.0
 10
33.37489559655227
 20
4.475686672869251
 30
0.0
 10
33.5067500394054
 20
4.554927559637537
 30
0.0
 10
33.65043899771064
 20
4.589311286929641
 30
0.0
 10
33.79213077803715
 20
4.586130224830356
 30
0.0
  0
SPLINE
  5
243
330
1F
100
AcDbEntity
  8
0
  6
Continuous
 62
     1
370
    15
100
AcDbSpline
210
0.0
220
0.0
230
1.0
 70
     8
 71
     3
 72
     8
 73
     4
 74
     0
 42
0.000000001
 43
0.00000001
 40
0.0
 40
0.0
 40
0.0
 40
0.0
 40
1.0
 40
1.0
 40
1.0
 40
1.0
 10
33.79213076451554
 20
4.586130228755557
 30
0.0
 10
33.94217888879137
 20
4.54257311876184
 30
0.0
 10
34.08180897785046
 20
4.458798646747633
 30
0.0
 10
34.19814337310206
 20
4.345528002683054
 30
0.0
  0
SPLINE
  5
244
330
1F
100
AcDbEntity
  8
0
  6
Continuous
 62
     1
370
    15
100
AcDbSpline
210
0.0
220
0.0
230
1.0
 70
     8
 71
     3
 72
    10
 73
     6
 74
     0
 42
0.000000001
 43
0.00000001
 40
0.0
 40
0.0
 40
0.0
 40
0.0
 40
0.5
 40
0.5
 40
1.0
 40
1.0
 40
1.0
 40
1.0
 10
34.19814337310206
 20
4.345528002683053
 30
0.0
 10
34.22767932799282
 20
4.316769898716435
 30
0.0
 10
34.26129390870939
 20
4.294955194501436
 30
0.0
 10
34.337486628554
 20
4.269075677698792
 30
0.0
 10
34.3789681988067
 20
4.266263482565054
 30
0.0
 10
34.41832938888998
 20
4.276285153496721
 30
0.0
  0
SPLINE
  5
245
330
1F
100
AcDbEntity
  8
0
  6
Continuous
 62
     1
370
    15
100
AcDbSpline
210
0.0
220
0.0
230
1.0
 70
     8
 71
     3
 72
    10
 73
     6
 74
     0
 42
0.000000001
 43
0.00000001
 40
0.0
 40
0.0
 40
0.0
 40
0.0
 40
0.5
 40
0.5
 40
1.0
 40
1.0
 40
1.0
 40
1.0
 10
34.41832938889861
 20
4.276285153495808
 30
0.0
 10
34.41241986244462
 20
4.176706858701841
 30
0.0
 10
34.40227597690238
 20
4.078461191631615
 30
0.0
 10
34.37239622525962
 20
3.884988623484096
 30
0.0
 10
34.35235618029121
 20
3.788808307536932
 30
0.0
 10
34.32744364878327
 20
3.698017849776953
 30
0.0
  0
SPLINE
  5
246
330
1F
100
AcDbEntity
  8
0
  6
Continuous
 62
     1
370
    15
100
AcDbSpline
210
0.0
220
0.0
230
1.0
 70
     8
 71
     3
 72
     8
 73
     4
 74
     0
 42
0.000000001
 43
0.00000001
 40
0.0
 40
0.0
 40
0.0
 40
0.0
 40
1.0
 40
1.0
 40
1.0
 40
1.0
 10
35.39999995250255
 20
2.580286522571188
 30
0.0
 10
35.04116928970789
 20
2.926162651483282
 30
0.0
 10
34.68353243731872
 20
3.296336388560503
 30
0.0
 10
34.32744364878324
 20
3.698017849776899
 30
0.0
  0
SPLINE
  5
247
330
1F
100
AcDbEntity
  8
0
  6
Continuous
 62
     1
370
    15
100
AcDbSpline
210
0.0
220
0.0
230
1.0
 70
     8
 71
     3
 72
    10
 73
     6
 74
     0
 42
0.000000001
 43
0.00000001
 40
0.0
 40
0.0
 40
0.0
 40
0.0
 40
0.5
 40
0.5
 40
1.0
 40
1.0
 40
1.0
 40
1.0
 10
30.75918071843314
 20
3.982684734351608
 30
0.0
 10
30.72413297140975
 20
3.977130975376191
 30
0.0
 10
30.68248934784122
 20
3.979334806240538
 30
0.0
 10
30.59025018123562
 20
4.00197244388057
 30
0.0
 10
30.53974960248353
 20
4.023025758255968
 30
0.0
 10
30.49552231805444
 20
4.053425788129974
 30
0.0
  0
SPLINE
  5
248
330
1F
100
AcDbEntity
  8
0
  6
Continuous
 62
     1
370
    15
100
AcDbSpline
210
0.0
220
0.0
230
1.0
 70
     8
 71
     3
 72
    10
 73
     6
 74
     0
 42
0.000000001
 43
0.00000001
 40
0.0
 40
0.0
 40
0.0
 40
0.0
 40
0.5
 40
0.5
 40
1.0
 40
1.0
 40
1.0
 40
1.0
 10
29.46221808320738
 20
4.294404075759696
 30
0.0
 10
29.42689562917516
 20
4.282992064153614
 30
0.0
 10
29.38502434155482
 20
4.280142033686772
 30
0.0
 10
29.29251866336753
 20
4.295887394042331
 30
0.0
 10
29.24235003709021
 20
4.315122509979623
 30
0.0
 10
29.1983409888873
 20
4.346279683487134
 30
0.0
  0
SPLINE
  5
249
330
1F
100
AcDbEntity
  8
0
  6
Continuous
 62
     1
370
    15
100
AcDbSpline
210
0.0
220
0.0
230
1.0
 70
     8
 71
     3
 72
     8
 73
     4
 74
     0
 42
0.000000001
 43
0.00000001
 40
0.0
 40
0.0
 40
0.0
 40
0.0
 40
1.0
 40
1.0
 40
1.0
 40
1.0
 10
29.19834098888729
 20
4.346279683487135
 30
0.0
 10
29.06658947708846
 20
4.439556063700245
 30
0.0
 10
28.92284898368523
 20
4.509760156282045
 30
0.0
 10
28.78119030228775
 20
4.548936750810855
 30
0.0
  0
SPLINE
  5
24A
330
1F
100
AcDbEntity
  8
0
  6
Continuous
 62
     1
370
    15
100
AcDbSpline
210
0.0
220
0.0
230
1.0
 70
     8
 71
     3
 72
     8
 73
     4
 74
     0
 42
0.000000001
 43
0.00000001
 40
0.0
 40
0.0
 40
0.0
 40
0.0
 40
1.0
 40
1.0
 40
1.0
 40
1.0
 10
28.78119030229541
 20
4.548936750809981
 30
0.0
 10
28.63098769634616
 20
4.558532414615541
 30
0.0
 10
28.49135775393375
 20
4.531443463326866
 30
0.0
 10
28.37498312634122
 20
4.475928059710537
 30
0.0
  0
SPLINE
  5
24B
330
1F
100
AcDbEntity
  8
0
  6
Continuous
 62
     1
370
    15
100
AcDbSpline
210
0.0
220
0.0
230
1.0
 70
     8
 71
     3
 72
    10
 73
     6
 74
     0
 42
0.000000001
 43
0.00000001
 40
0.0
 40
0.0
 40
0.0
 40
0.0
 40
0.5000000000000002
 40
0.5000000000000002
 40
1.0
 40
1.0
 40
1.0
 40
1.0
 10
28.37498312634121
 20
4.475928059710526
 30
0.0
 10
28.33985472721196
 20
4.459170392713869
 30
0.0
 10
28.29813275284109
 20
4.451475038212049
 30
0.0
 10
28.2057899661811
 20
4.459614026217793
 30
0.0
 10
28.15522739274647
 20
4.476375431406107
 30
0.0
 10
28.11092363930062
 20
4.506970571136408
 30
0.0
  0
SPLINE
  5
24C
330
1F
100
AcDbEntity
  8
0
  6
Continuous
 62
     1
370
    15
100
AcDbSpline
210
0.0
220
0.0
230
1.0
 70
     8
 71
     3
 72
    10
 73
     6
 74
     0
 42
0.000000001
 43
0.00000001
 40
0.0
 40
0.0
 40
0.0
 40
0.0
 40
0.5
 40
0.5
 40
1.0
 40
1.0
 40
1.0
 40
1.0
 10
28.11092363930064
 20
4.506970571136423
 30
0.0
 10
27.93693456548228
 20
4.627123371091066
 30
0.0
 10
27.74712458052046
 20
4.694655107054958
 30
0.0
 10
27.38421302428026
 20
4.718395554202708
 30
0.0
 10
27.21494038754206
 20
4.674969307142281
 30
0.0
 10
27.0758642291546
 20
4.588550343090348
 30
0.0
  0
SPLINE
  5
24D
330
1F
100
AcDbEntity
  8
0
  6
Continuous
 62
     1
370
    15
100
AcDbSpline
210
0.0
220
0.0
230
1.0
 70
     8
 71
     3
 72
    10
 73
     6
 74
     0
 42
0.000000001
 43
0.00000001
 40
0.0
 40
0.0
 40
0.0
 40
0.0
 40
0.5
 40
0.5
 40
1.0
 40
1.0
 40
1.0
 40
1.0
 10
27.07586422915459
 20
4.588550343090342
 30
0.0
 10
27.04050005565541
 20
4.566575798540173
 30
0.0
 10
26.99859466505185
 20
4.5540815688077
 30
0.0
 10
26.9060420670988
 20
4.554916397745469
 30
0.0
 10
26.85585773670277
 20
4.569190716907011
 30
0.0
 10
26.81183635639123
 20
4.599217377069186
 30
0.0
  0
SPLINE
  5
24E
330
1F
100
AcDbEntity
  8
0
  6
Continuous
 62
     1
370
    15
100
AcDbSpline
210
0.0
220
0.0
230
1.0
 70
     8
 71
     3
 72
     8
 73
     4
 74
     0
 42
0.000000001
 43
0.00000001
 40
0.0
 40
0.0
 40
0.0
 40
0.0
 40
1.0
 40
1.0
 40
1.0
 40
1.0
 10
26.81183635639124
 20
4.599217377069182
 30
0.0
 10
26.68004866038907
 20
4.689108796497839
 30
0.0
 10
26.53630396665756
 20
4.743573781064378
 30
0.0
 10
26.39471875688407
 20
4.762193611776759
 30
0.0
  0
SPLINE
  5
24F
330
1F
100
AcDbEntity
  8
0
  6
Continuous
 62
     1
370
    15
100
AcDbSpline
210
0.0
220
0.0
230
1.0
 70
     8
 71
     3
 72
     9
 73
     5
 74
     0
 42
0.000000001
 43
0.00000001
 40
0.0
 40
0.0
 40
0.0
 40
0.0
 40
0.7766911380007847
 40
1.0
 40
1.0
 40
1.0
 40
1.0
 10
26.39471959788352
 20
4.762193653732534
 30
0.0
 10
26.34032402462567
 20
4.754088785152007
 30
0.0
 10
26.27028901251279
 20
4.74365366083555
 30
0.0
 10
26.20733160857649
 20
4.715638180784869
 30
0.0
 10
26.19327266234905
 20
4.709382075816388
 30
0.0
  0
LINE
  5
250
330
1F
100
AcDbEntity
  8
0
  6
Continuous
 62
     1
370
    15
100
AcDbLine
 10
35.3999998094514
 20
2.136139431968327
 30
0.0
 11
35.3999998094514
 21
2.580286469310518
 31
0.0
  0
SPLINE
  5
251
330
1F
100
AcDbEntity
  8
0
  6
Continuous
 62
     1
370
    15
100
AcDbSpline
210
0.0
220
0.0
230
1.0
 70
     8
 71
     3
 72
    12
 73
     8
 74
     0
 42
0.000000001
 43
0.00000001
 40
0.0
 40
0.0
 40
0.0
 40
0.0
 40
0.4999999999999997
 40
0.4999999999999997
 40
0.7499999999999997
 40
0.7499999999999997
 40
1.0
 40
1.0
 40
1.0
 40
1.0
 10
23.05706593961184
 20
-2.486018158843019
 30
0.0
 10
23.01869904761728
 20
-2.884042909433965
 30
0.0
 10
22.97810795606933
 20
-3.253032801297584
 30
0.0
 10
22.91777494144396
 20
-3.724130631740077
 30
0.0
 10
22.89776449681793
 20
-3.867570778592687
 30
0.0
 10
22.85859363845515
 20
-4.123281560790296
 30
0.0
 10
22.8397706891687
 20
-4.235001757793046
 30
0.0
 10
22.82086699021565
 20
-4.331524132895305
 30
0.0
  0
SPLINE
  5
252
330
1F
100
AcDbEntity
  8
0
  6
Continuous
 62
     1
370
    15
100
AcDbSpline
210
0.0
220
0.0
230
1.0
 70
     8
 71
     3
 72
    12
 73
     8
 74
     0
 42
0.000000001
 43
0.00000001
 40
0.0
 40
0.0
 40
0.0
 40
0.0
 40
0.5
 40
0.5
 40
0.75
 40
0.75
 40
1.0
 40
1.0
 40
1.0
 40
1.0
 10
13.04045222450632
 20
-2.655219283461209
 30
0.0
 10
13.00149799632096
 20
-3.044627723023321
 30
0.0
 10
12.96066750138553
 20
-3.400663103003159
 30
0.0
 10
12.90057073599597
 20
-3.84802618463678
 30
0.0
 10
12.88073562507731
 20
-3.982866938400567
 30
0.0
 10
12.84208969584964
 20
-4.220611828901162
 30
0.0
 10
12.82365413339998
 20
-4.323092536812858
 30
0.0
 10
12.80441608626567
 20
-4.41114673311664
 30
0.0
  0
SPLINE
  5
253
330
1F
100
AcDbEntity
  8
0
  6
Continuous
 62
     1
370
    15
100
AcDbSpline
210
0.0
220
0.0
230
1.0
 70
     8
 71
     3
 72
     8
 73
     4
 74
     0
 42
0.000000001
 43
0.00000001
 40
0.0
 40
0.0
 40
0.0
 40
0.0
 40
1.0
 40
1.0
 40
1.0
 40
1.0
 10
12.3869979559396
 20
-4.199692028055541
 30
0.0
 10
12.51887283806492
 20
-4.292520486262211
 30
0.0
 10
12.66271816293366
 20
-4.366351706261725
 30
0.0
 10
12.80441608626568
 20
-4.41114673311664
 30
0.0
  0
LINE
  5
254
330
1F
100
AcDbEntity
  8
0
  6
Continuous
 62
     1
370
    15
100
AcDbLine
 10
35.3999998094514
 20
-0.2264703362016052
 30
0.0
 11
35.3999998094514
 21
-1.883116201497619
 31
0.0
  0
SPLINE
  5
255
330
1F
100
AcDbEntity
  8
0
  6
Continuous
 62
     1
370
    15
100
AcDbSpline
210
0.0
220
0.0
230
1.0
 70
     8
 71
     3
 72
    10
 73
     6
 74
     0
 42
0.000000001
 43
0.00000001
 40
0.0
 40
0.0
 40
0.0
 40
0.0
 40
0.5
 40
0.5
 40
1.0
 40
1.0
 40
1.0
 40
1.0
 10
12.12267646845724
 20
-4.136218597549739
 30
0.0
 10
12.15809681612675
 20
-4.128188318527693
 30
0.0
 10
12.20005404454758
 20
-4.12828958473764
 30
0.0
 10
12.29269287104838
 20
-4.148261209362182
 30
0.0
 10
12.34292729534091
 20
-4.168670112360943
 30
0.0
 10
12.38699795593958
 20
-4.199692028055529
 30
0.0
  0
SPLINE
  5
256
330
1F
100
AcDbEntity
  8
0
  6
Continuous
 62
     1
370
    15
100
AcDbSpline
210
0.0
220
0.0
230
1.0
 70
     8
 71
     3
 72
     8
 73
     4
 74
     0
 42
0.000000001
 43
0.00000001
 40
0.0
 40
0.0
 40
0.0
 40
0.0
 40
1.0
 40
1.0
 40
1.0
 40
1.0
 10
34.56730630548306
 20
-4.379230892809057
 30
0.0
 10
34.51902922097778
 20
-4.425038616258678
 30
0.0
 10
34.47089183987082
 20
-4.465664914779062
 30
0.0
 10
34.4228723724589
 20
-4.501917941308388
 30
0.0
  0
SPLINE
  5
257
330
1F
100
AcDbEntity
  8
0
  6
Continuous
 62
     1
370
    15
100
AcDbSpline
210
0.0
220
0.0
230
1.0
 70
     8
 71
     3
 72
    10
 73
     6
 74
     0
 42
0.000000001
 43
0.00000001
 40
0.0
 40
0.0
 40
0.0
 40
0.0
 40
0.5000000000000002
 40
0.5000000000000002
 40
1.0
 40
1.0
 40
1.0
 40
1.0
 10
18.76432460371705
 20
4.485258799792945
 30
0.0
 10
18.72465990429061
 20
4.326566356704159
 30
0.0
 10
18.68368991519844
 20
4.098641930939894
 30
0.0
 10
18.60448093946204
 20
3.5342287977682
 30
0.0
 10
18.56780235462458
 20
3.20413236879579
 30
0.0
 10
18.52848370861911
 20
2.825258201954329
 30
0.0
  0
SPLINE
  5
258
330
1F
100
AcDbEntity
  8
0
  6
Continuous
 62
     1
370
    15
100
AcDbSpline
210
0.0
220
0.0
230
1.0
 70
     8
 71
     3
 72
     8
 73
     4
 74
     0
 42
0.000000001
 43
0.00000001
 40
0.0
 40
0.0
 40
0.0
 40
0.0
 40
1.0
 40
1.0
 40
1.0
 40
1.0
 10
12.80441607273812
 20
-4.411146731514253
 30
0.0
 10
12.9546383143172
 20
-4.42894104446508
 30
0.0
 10
13.09423910252027
 20
-4.411747041410248
 30
0.0
 10
13.21053642407005
 20
-4.366968192666544
 30
0.0
  0
SPLINE
  5
259
330
1F
100
AcDbEntity
  8
0
  6
Continuous
 62
     1
370
    15
100
AcDbSpline
210
0.0
220
0.0
230
1.0
 70
     8
 71
     3
 72
    12
 73
     8
 74
     0
 42
0.000000001
 43
0.00000001
 40
0.0
 40
0.0
 40
0.0
 40
0.0
 40
0.4999999999999996
 40
0.4999999999999996
 40
0.7499999999999998
 40
0.7499999999999998
 40
1.0
 40
1.0
 40
1.0
 40
1.0
 10
28.78119030228776
 20
4.548936750810856
 30
0.0
 10
28.74194813992813
 20
4.409677333370801
 30
0.0
 10
28.70102861934021
 20
4.200447779294484
 30
0.0
 10
28.64112388533123
 20
3.800465564720889
 30
0.0
 10
28.62140553969801
 20
3.653071593023922
 30
0.0
 10
28.58308613444739
 20
3.336041476834283
 30
0.0
 10
28.56459966783376
 20
3.166981507403661
 30
0.0
 10
28.54519390351584
 20
2.984390223556272
 30
0.0
  0
SPLINE
  5
25A
330
1F
100
AcDbEntity
  8
0
  6
Continuous
 62
     1
370
    15
100
AcDbSpline
210
0.0
220
0.0
230
1.0
 70
     8
 71
     3
 72
    10
 73
     6
 74
     0
 42
0.000000001
 43
0.00000001
 40
0.0
 40
0.0
 40
0.0
 40
0.0
 40
0.5
 40
0.5
 40
1.0
 40
1.0
 40
1.0
 40
1.0
 10
13.47431249888339
 20
-4.410314328303945
 30
0.0
 10
13.64800321625345
 20
-4.531187044590079
 30
0.0
 10
13.83771385329378
 20
-4.605856113166477
 30
0.0
 10
14.20018134511308
 20
-4.647530133305168
 30
0.0
 10
14.369123573301
 20
-4.61486605371299
 30
0.0
 10
14.50784715083139
 20
-4.540260479054135
 30
0.0
  0
SPLINE
  5
25B
330
1F
100
AcDbEntity
  8
0
  6
Continuous
 62
     1
370
    15
100
AcDbSpline
210
0.0
220
0.0
230
1.0
 70
     8
 71
     3
 72
    10
 73
     6
 74
     0
 42
0.000000001
 43
0.00000001
 40
0.0
 40
0.0
 40
0.0
 40
0.0
 40
0.5
 40
0.5
 40
1.0
 40
1.0
 40
1.0
 40
1.0
 10
13.21053642407006
 20
-4.366968192666538
 30
0.0
 10
13.24559477786412
 20
-4.353469406100968
 30
0.0
 10
13.2872420696804
 20
-4.34869805568641
 30
0.0
 10
13.37949512149724
 20
-4.361288555410627
 30
0.0
 10
13.43003622787791
 20
-4.379502128178967
 30
0.0
 10
13.4743124988834
 20
-4.410314328303924
 30
0.0
  0
SPLINE
  5
25C
330
1F
100
AcDbEntity
  8
0
  6
Continuous
 62
     1
370
    15
100
AcDbSpline
210
0.0
220
0.0
230
1.0
 70
     8
 71
     3
 72
    10
 73
     6
 74
     0
 42
0.000000001
 43
0.00000001
 40
0.0
 40
0.0
 40
0.0
 40
0.0
 40
0.5
 40
0.5
 40
1.0
 40
1.0
 40
1.0
 40
1.0
 10
14.50784715083143
 20
-4.540260479054115
 30
0.0
 10
14.54316104345493
 20
-4.521268658777275
 30
0.0
 10
14.5850206767181
 20
-4.511576074917253
 30
0.0
 10
14.67748586252065
 20
-4.516931916745457
 30
0.0
 10
14.72761872188615
 20
-4.532839438480652
 30
0.0
 10
14.77160092981882
 20
-4.563467522082925
 30
0.0
  0
SPLINE
  5
25D
330
1F
100
AcDbEntity
  8
0
  6
Continuous
 62
     1
370
    15
100
AcDbSpline
210
0.0
220
0.0
230
1.0
 70
     8
 71
     3
 72
     8
 73
     4
 74
     0
 42
0.000000001
 43
0.00000001
 40
0.0
 40
0.0
 40
0.0
 40
0.0
 40
1.0
 40
1.0
 40
1.0
 40
1.0
 10
14.77160092981883
 20
-4.563467522082938
 30
0.0
 10
14.90334234196455
 20
-4.655208868748788
 30
0.0
 10
15.04691775286364
 20
-4.7149415035378
 30
0.0
 10
15.18846351107392
 20
-4.739946023732656
 30
0.0
  0
SPLINE
  5
25E
330
1F
100
AcDbEntity
  8
0
  6
Continuous
 62
     1
370
    15
100
AcDbSpline
210
0.0
220
0.0
230
1.0
 70
     8
 71
     3
 72
    10
 73
     6
 74
     0
 42
0.000000001
 43
0.00000001
 40
0.0
 40
0.0
 40
0.0
 40
0.0
 40
0.4536154136616676
 40
0.8455315988219468
 40
1.0
 40
1.0
 40
1.0
 40
1.0
 10
15.18846337217838
 20
-4.739946220070128
 30
0.0
 10
15.24206716153891
 20
-4.733169592335472
 30
0.0
 10
15.34198373482081
 20
-4.720538070763372
 30
0.0
 10
15.45286773336294
 20
-4.683050627137129
 30
0.0
 10
15.50625008343832
 20
-4.651601167319094
 30
0.0
 10
15.5213418090716
 20
-4.642710089683537
 30
0.0
  0
SPLINE
  5
25F
330
1F
100
AcDbEntity
  8
0
  6
Continuous
 62
     1
370
    15
100
AcDbSpline
210
0.0
220
0.0
230
1.0
 70
     8
 71
     3
 72
    11
 73
     7
 74
     0
 42
0.000000001
 43
0.00000001
 40
0.0
 40
0.0
 40
0.0
 40
0.0
 40
0.1053030201870948
 40
0.5259315347620469
 40
0.8940529744622909
 40
1.0
 40
1.0
 40
1.0
 40
1.0
 10
15.6738929124549
 20
-4.570954013615851
 30
0.0
 10
15.67943534312444
 20
-4.568564643229361
 30
0.0
 10
15.7071167815406
 20
-4.556631032661978
 30
0.0
 10
15.76645888248275
 20
-4.563246682068003
 30
0.0
 10
15.82361096167122
 20
-4.58161282705776
 30
0.0
 10
15.8516042499781
 20
-4.59901144978067
 30
0.0
 10
15.85786032024771
 20
-4.602899774909024
 30
0.0
  0
SPLINE
  5
260
330
1F
100
AcDbEntity
  8
0
  6
Continuous
 62
     1
370
    15
100
AcDbSpline
210
0.0
220
0.0
230
1.0
 70
     8
 71
     3
 72
     9
 73
     5
 74
     0
 42
0.000000001
 43
0.00000001
 40
0.0
 40
0.0
 40
0.0
 40
0.0
 40
0.3759638218103379
 40
0.9999999999999999
 40
0.9999999999999999
 40
0.9999999999999999
 40
0.9999999999999999
 10
13.56223538983613
 20
-4.458433482795958
 30
0.0
 10
13.51771305894784
 20
-4.46247613225039
 30
0.0
 10
13.39929121007443
 20
-4.473228894138394
 30
0.0
 10
13.30400250637453
 20
-4.43696520984281
 30
0.0
 10
13.244538907893
 20
-4.414335358887915
 30
0.0
  0
SPLINE
  5
261
330
1F
100
AcDbEntity
  8
0
  6
Continuous
 62
     1
370
    15
100
AcDbSpline
210
0.0
220
0.0
230
1.0
 70
     8
 71
     3
 72
    10
 73
     6
 74
     0
 42
0.000000001
 43
0.00000001
 40
0.0
 40
0.0
 40
0.0
 40
0.0
 40
0.5
 40
0.5
 40
1.0
 40
1.0
 40
1.0
 40
1.0
 10
13.24453903638913
 20
-4.414335588910472
 30
0.0
 10
13.20918886671844
 20
-4.39985453534424
 30
0.0
 10
13.16730687066118
 20
-4.394282745753681
 30
0.0
 10
13.07478416652063
 20
-4.405979646742588
 30
0.0
 10
13.0245887220784
 20
-4.423982367877025
 30
0.0
 10
12.98053432314353
 20
-4.455130616219135
 30
0.0
  0
SPLINE
  5
262
330
1F
100
AcDbEntity
  8
0
  6
Continuous
 62
     1
370
    15
100
AcDbSpline
210
0.0
220
0.0
230
1.0
 70
     8
 71
     3
 72
     8
 73
     4
 74
     0
 42
0.000000001
 43
0.00000001
 40
0.0
 40
0.0
 40
0.0
 40
0.0
 40
1.0
 40
1.0
 40
1.0
 40
1.0
 10
12.98053432314352
 20
-4.455130616219139
 30
0.0
 10
12.84871655681316
 20
-4.548331127878144
 30
0.0
 10
12.70492887693436
 20
-4.61468021637633
 30
0.0
 10
12.56318441567138
 20
-4.648360268301793
 30
0.0
  0
SPLINE
  5
263
330
1F
100
AcDbEntity
  8
0
  6
Continuous
 62
     1
370
    15
100
AcDbSpline
210
0.0
220
0.0
230
1.0
 70
     8
 71
     3
 72
     8
 73
     4
 74
     0
 42
0.000000001
 43
0.00000001
 40
0.0
 40
0.0
 40
0.0
 40
0.0
 40
1.0
 40
1.0
 40
1.0
 40
1.0
 10
12.56318441567148
 20
-4.648360268301781
 30
0.0
 10
12.41287901070482
 20
-4.650237122450779
 30
0.0
 10
12.27305097518268
 20
-4.614145303092972
 30
0.0
 10
12.15648964782631
 20
-4.54880386146204
 30
0.0
  0
SPLINE
  5
264
330
1F
100
AcDbEntity
  8
0
  6
Continuous
 62
     1
370
    15
100
AcDbSpline
210
0.0
220
0.0
230
1.0
 70
     8
 71
     3
 72
    10
 73
     6
 74
     0
 42
0.000000001
 43
0.00000001
 40
0.0
 40
0.0
 40
0.0
 40
0.0
 40
0.5
 40
0.5
 40
1.0
 40
1.0
 40
1.0
 40
1.0
 10
12.1564896478263
 20
-4.548803861462033
 30
0.0
 10
12.12134582966738
 20
-4.529103092819459
 30
0.0
 10
12.0796166203004
 20
-4.518675034981941
 30
0.0
 10
11.98724317978565
 20
-4.522508405447569
 30
0.0
 10
11.93666167324338
 20
-4.537777447349355
 30
0.0
 10
11.89235798168462
 20
-4.567926784820665
 30
0.0
  0
SPLINE
  5
265
330
1F
100
AcDbEntity
  8
0
  6
Continuous
 62
     1
370
    15
100
AcDbSpline
210
0.0
220
0.0
230
1.0
 70
     8
 71
     3
 72
    10
 73
     6
 74
     0
 42
0.000000001
 43
0.00000001
 40
0.0
 40
0.0
 40
0.0
 40
0.0
 40
0.5
 40
0.5
 40
1.0
 40
1.0
 40
1.0
 40
1.0
 10
11.89235798168454
 20
-4.567926784820727
 30
0.0
 10
11.71839526756341
 20
-4.686311063668143
 30
0.0
 10
11.52848884772632
 20
-4.746613684354822
 30
0.0
 10
11.16614412251989
 20
-4.753147894101732
 30
0.0
 10
10.9970895183124
 20
-4.699815179889463
 30
0.0
 10
10.85817238057646
 20
-4.602893311956572
 30
0.0
  0
SPLINE
  5
266
330
1F
100
AcDbEntity
  8
0
  6
Continuous
 62
     1
370
    15
100
AcDbSpline
210
0.0
220
0.0
230
1.0
 70
     8
 71
     3
 72
    10
 73
     6
 74
     0
 42
0.000000001
 43
0.00000001
 40
0.0
 40
0.0
 40
0.0
 40
0.0
 40
0.5
 40
0.5
 40
1.0
 40
1.0
 40
1.0
 40
1.0
 10
10.85817238057646
 20
-4.602893311956568
 30
0.0
 10
10.82284849122896
 20
-4.578247991774966
 30
0.0
 10
10.78098006448693
 20
-4.563202099120802
 30
0.0
 10
10.68847895514539
 20
-4.559790600224796
 30
0.0
 10
10.63831412846006
 20
-4.572446775432346
 30
0.0
 10
10.59431263130324
 20
-4.601690275812265
 30
0.0
  0
SPLINE
  5
267
330
1F
100
AcDbEntity
  8
0
  6
Continuous
 62
     1
370
    15
100
AcDbSpline
210
0.0
220
0.0
230
1.0
 70
     8
 71
     3
 72
     8
 73
     4
 74
     0
 42
0.000000001
 43
0.00000001
 40
0.0
 40
0.0
 40
0.0
 40
0.0
 40
1.0
 40
1.0
 40
1.0
 40
1.0
 10
10.59431263130322
 20
-4.60169027581227
 30
0.0
 10
10.46260419688061
 20
-4.689224016729052
 30
0.0
 10
10.31891238711181
 20
-4.738416908210628
 30
0.0
 10
10.17730765331718
 20
-4.750924109160102
 30
0.0
  0
SPLINE
  5
268
330
1F
100
AcDbEntity
  8
0
  6
Continuous
 62
     1
370
    15
100
AcDbSpline
210
0.0
220
0.0
230
1.0
 70
     8
 71
     3
 72
     8
 73
     4
 74
     0
 42
0.000000001
 43
0.00000001
 40
0.0
 40
0.0
 40
0.0
 40
0.0
 40
1.0
 40
1.0
 40
1.0
 40
1.0
 10
10.177307653338
 20
-4.750924109162244
 30
0.0
 10
10.11612691846796
 20
-4.740546074402777
 30
0.0
 10
10.05688691847102
 20
-4.723542686156775
 30
0.0
 10
9.999999952522856
 20
-4.700377570921605
 30
0.0
  0
SPLINE
  5
269
330
1F
100
AcDbEntity
  8
외형선
  6
Continuous
370
    15
100
AcDbSpline
210
0.0
220
0.0
230
1.0
 70
    24
 71
     3
 72
     9
 73
     5
 74
     0
 42
0.000000001
 43
0.00000001
 40
0.0
 40
0.0
 40
0.0
 40
0.0
 40
0.5
 40
1.0
 40
1.0
 40
1.0
 40
1.0
 10
9.999999952502549
 20
-4.632818808878791
 30
0.0
 10
9.999999952502549
 20
-4.644017122641563
 30
0.0
 10
9.999999952502549
 20
-4.666479197916003
 30
0.0
 10
9.999999952502549
 20
-4.689060277011636
 30
0.0
 10
9.999999952502549
 20
-4.70037757092429
 30
0.0
  0
SPLINE
  5
26A
330
1F
100
AcDbEntity
  8
외형선
  6
Continuous
370
    15
100
AcDbSpline
210
0.0
220
0.0
230
1.0
 70
     8
 71
     3
 72
     8
 73
     4
 74
     0
 42
0.000000001
 43
0.00000001
 40
0.0
 40
0.0
 40
0.0
 40
0.0
 40
1.0
 40
1.0
 40
1.0
 40
1.0
 10
9.999999952502549
 20
-4.632818808878792
 30
0.0
 10
9.959268759178897
 20
-4.63501343572513
 30
0.0
 10
9.918567548400846
 20
-4.637055771952043
 30
0.0
 10
9.877896201235215
 20
-4.638943848401741
 30
0.0
  0
SPLINE
  5
26B
330
1F
100
AcDbEntity
  8
외형선
  6
Continuous
370
    15
100
AcDbSpline
210
0.0
220
0.0
230
1.0
 70
     8
 71
     3
 72
     8
 73
     4
 74
     0
 42
0.000000001
 43
0.00000001
 40
0.0
 40
0.0
 40
0.0
 40
0.0
 40
1.0
 40
1.0
 40
1.0
 40
1.0
 10
9.877896201235215
 20
-4.63894384840174
 30
0.0
 10
9.840680242892413
 20
-4.616386670710169
 30
0.0
 10
9.805256555920025
 20
-4.591138769528828
 30
0.0
 10
9.771686515054183
 20
-4.563337892368797
 30
0.0
  0
SPLINE
  5
26C
330
1F
100
AcDbEntity
  8
외형선
  6
Continuous
370
    15
100
AcDbSpline
210
0.0
220
0.0
230
1.0
 70
     8
 71
     3
 72
    10
 73
     6
 74
     0
 42
0.000000001
 43
0.00000001
 40
0.0
 40
0.0
 40
0.0
 40
0.0
 40
0.5
 40
0.5
 40
1.0
 40
1.0
 40
1.0
 40
1.0
 10
9.771686515054203
 20
-4.563337892368819
 30
0.0
 10
9.736641274380503
 20
-4.534315335175434
 30
0.0
 10
9.69500319786871
 20
-4.514906537791118
 30
0.0
 10
9.602798265463443
 20
-4.503543863820484
 30
0.0
 10
9.552314265034124
 20
-4.51280159499557
 30
0.0
 10
9.508082165196342
 20
-4.539819868008022
 30
0.0
  0
SPLINE
  5
26D
330
1F
100
AcDbEntity
  8
외형선
  6
Continuous
370
    15
100
AcDbSpline
210
0.0
220
0.0
230
1.0
 70
     8
 71
     3
 72
     8
 73
     4
 74
     0
 42
0.000000001
 43
0.00000001
 40
0.0
 40
0.0
 40
0.0
 40
0.0
 40
1.0
 40
1.0
 40
1.0
 40
1.0
 10
9.1627221811055
 20
-4.655971310823146
 30
0.0
 10
9.108872229860493
 20
-4.656024139241811
 30
0.0
 10
9.055046208794057
 20
-4.65579637305042
 30
0.0
 10
9.00124388544409
 20
-4.655284757640149
 30
0.0
  0
SPLINE
  5
26E
330
1F
100
AcDbEntity
  8
0
  6
Continuous
 62
     1
370
    15
100
AcDbSpline
210
0.0
220
0.0
230
1.0
 70
     8
 71
     3
 72
     8
 73
     4
 74
     0
 42
0.000000001
 43
0.00000001
 40
0.0
 40
0.0
 40
0.0
 40
0.0
 40
1.0
 40
1.0
 40
1.0
 40
1.0
 10
35.25166968389064
 20
-3.267430371707664
 30
0.0
 10
35.24168174054706
 20
-3.591768458866752
 30
0.0
 10
35.23278536451163
 20
-3.871335716955028
 30
0.0
 10
35.22522888062327
 20
-4.098843880549121
 30
0.0
  0
SPLINE
  5
26F
330
1F
100
AcDbEntity
  8
0
  6
Continuous
 62
     1
370
    15
100
AcDbSpline
210
0.0
220
0.0
230
1.0
 70
     8
 71
     3
 72
     8
 73
     4
 74
     0
 42
0.000000001
 43
0.00000001
 40
0.0
 40
0.0
 40
0.0
 40
0.0
 40
1.0
 40
1.0
 40
1.0
 40
1.0
 10
35.22522888062326
 20
-4.098843880549119
 30
0.0
 10
35.10674464310014
 20
-4.162042437734382
 30
0.0
 10
34.99206538160763
 20
-4.201020125417437
 30
0.0
 10
34.88411642192863
 20
-4.2135632419762
 30
0.0
  0
SPLINE
  5
270
330
1F
100
AcDbEntity
  8
0
  6
Continuous
 62
     1
370
    15
100
AcDbSpline
210
0.0
220
0.0
230
1.0
 70
     8
 71
     3
 72
    10
 73
     6
 74
     0
 42
0.000000001
 43
0.00000001
 40
0.0
 40
0.0
 40
0.0
 40
0.0
 40
0.5
 40
0.5
 40
1.0
 40
1.0
 40
1.0
 40
1.0
 10
34.88411642192864
 20
-4.213563241976192
 30
0.0
 10
34.83528964092123
 20
-4.219236664000697
 30
0.0
 10
34.78326586537276
 20
-4.237574756707856
 30
0.0
 10
34.67677503394057
 20
-4.291867334760748
 30
0.0
 10
34.62214090814523
 20
-4.327201066651285
 30
0.0
 10
34.56730630548317
 20
-4.37923089280903
 30
0.0
  0
SPLINE
  5
271
330
1F
100
AcDbEntity
  8
0
  6
Continuous
 62
     1
370
    15
100
AcDbSpline
210
0.0
220
0.0
230
1.0
 70
     8
 71
     3
 72
    12
 73
     8
 74
     0
 42
0.000000001
 43
0.00000001
 40
0.0
 40
0.0
 40
0.0
 40
0.0
 40
0.2500000000000002
 40
0.2500000000000002
 40
0.5000000000000004
 40
0.5000000000000004
 40
1.0
 40
1.0
 40
1.0
 40
1.0
 10
25.44129785438449
 20
-3.54033467356092
 30
0.0
 10
25.42115145541894
 20
-3.699086191500576
 30
0.0
 10
25.40108668313708
 20
-3.844354565788557
 30
0.0
 10
25.36177488731225
 20
-4.103809038646707
 30
0.0
 10
25.3427854947355
 20
-4.217560286869745
 30
0.0
 10
25.28620408149953
 20
-4.512148623864608
 30
0.0
 10
25.24591293707811
 20
-4.649992118452061
 30
0.0
 10
25.2055825583911
 20
-4.71610734871091
 30
0.0
  0
ELLIPSE
  5
272
330
1F
100
AcDbEntity
  8
0
  6
Continuous
 62
     1
370
    15
100
AcDbEllipse
 10
31.33844269488387
 20
-3.549417600293396
 30
0.0
 11
5.392035381643439
 21
6.768872931977866
 31
0.0
210
0.0
220
0.0
230
1.0
 40
0.4016385608855189
 41
4.94465332182845
 42
4.983101590658312
  0
LINE
  5
273
330
1F
100
AcDbEntity
  8
0
  6
Continuous
 62
     1
370
    15
100
AcDbLine
 10
35.3999998094514
 20
-3.826075699180369
 30
0.0
 11
35.3999998094514
 21
-3.174119163304572
 31
0.0
  0
SPLINE
  5
274
330
1F
100
AcDbEntity
  8
0
  6
Continuous
 62
     1
370
    15
100
AcDbSpline
210
0.0
220
0.0
230
1.0
 70
     8
 71
     3
 72
    12
 73
     8
 74
     0
 42
0.000000001
 43
0.00000001
 40
0.0
 40
0.0
 40
0.0
 40
0.0
 40
0.2500000000000002
 40
0.2500000000000002
 40
0.5000000000000003
 40
0.5000000000000003
 40
1.0
 40
1.0
 40
1.0
 40
1.0
 10
15.42416714212139
 20
-3.67223906781379
 30
0.0
 10
15.40409695924087
 20
-3.823155368611768
 30
0.0
 10
15.38420438916759
 20
-3.959902462143377
 30
0.0
 10
15.34541043476757
 20
-4.201546367834418
 30
0.0
 10
15.32693022551235
 20
-4.305900093266364
 30
0.0
 10
15.26935705138561
 20
-4.575485164064012
 30
0.0
 10
15.22873205831101
 20
-4.693818981710833
 30
0.0
 10
15.18846351107392
 20
-4.739946023732659
 30
0.0
  0
SPLINE
  5
275
330
1F
100
AcDbEntity
  8
0
  6
Continuous
 62
     1
370
    15
100
AcDbSpline
210
0.0
220
0.0
230
1.0
 70
     8
 71
     3
 72
    12
 73
     8
 74
     0
 42
0.000000001
 43
0.00000001
 40
0.0
 40
0.0
 40
0.0
 40
0.0
 40
0.2500000000000001
 40
0.2500000000000001
 40
0.5000000000000001
 40
0.5000000000000001
 40
1.0
 40
1.0
 40
1.0
 40
1.0
 10
16.37792091714972
 20
4.755687134071967
 30
0.0
 10
16.35832474718575
 20
4.743117139327826
 30
0.0
 10
16.33949982101874
 20
4.713472121497191
 30
0.0
 10
16.30165194138871
 20
4.620965068971098
 30
0.0
 10
16.28211170307922
 20
4.55745500022531
 30
0.0
 10
16.22254003329483
 20
4.315849205036663
 30
0.0
 10
16.18156625171753
 20
4.085645516395806
 30
0.0
 10
16.14200460161636
 20
3.801550522284566
 30
0.0
  0
SPLINE
  5
276
330
1F
100
AcDbEntity
  8
0
  6
Continuous
 62
     1
370
    15
100
AcDbSpline
210
0.0
220
0.0
230
1.0
 70
     8
 71
     3
 72
     9
 73
     5
 74
     0
 42
0.000000001
 43
0.00000001
 40
0.0
 40
0.0
 40
0.0
 40
0.0
 40
0.0143545273754961
 40
0.9999999999999999
 40
0.9999999999999999
 40
0.9999999999999999
 40
0.9999999999999999
 10
26.97113749105483
 20
-4.59007360041142
 30
0.0
 10
26.97109650832821
 20
-4.590144432556849
 30
0.0
 10
26.96824146994556
 20
-4.595078913754104
 30
0.0
 10
26.96545243423763
 20
-4.59248194801568
 30
0.0
 10
26.96270343381912
 20
-4.589922260493045
 30
0.0
  0
SPLINE
  5
277
330
1F
100
AcDbEntity
  8
0
  6
Continuous
 62
     1
370
    15
100
AcDbSpline
210
0.0
220
0.0
230
1.0
 70
     8
 71
     3
 72
    10
 73
     6
 74
     0
 42
0.000000001
 43
0.00000001
 40
0.0
 40
0.0
 40
0.0
 40
0.0
 40
0.5
 40
0.5
 40
1.0
 40
1.0
 40
1.0
 40
1.0
 10
26.39471875688629
 20
4.762193611777059
 30
0.0
 10
26.35509331337613
 20
4.756840872534898
 30
0.0
 10
26.31840121960533
 20
4.683160197000874
 30
0.0
 10
26.23978398708585
 20
4.399705849751422
 30
0.0
 10
26.198843084843
 20
4.188049672206214
 30
0.0
 10
26.1589345364922
 20
3.91932582456496
 30
0.0
  0
LINE
  5
278
330
1F
100
AcDbEntity
  8
0
  6
Continuous
 62
     1
370
    15
100
AcDbLine
 10
15.93680480960757
 20
4.570441320538516
 30
0.0
 11
15.92915539164096
 21
4.563121125102039
 31
0.0
  0
LINE
  5
279
330
1F
100
AcDbEntity
  8
0
  6
Continuous
 62
     1
370
    15
100
AcDbLine
 10
25.9423352451995
 20
4.594286438077684
 30
0.0
 11
25.9373787464574
 21
4.587415605783458
 31
0.0
  0
LINE
  5
27A
330
1F
100
AcDbEntity
  8
0
  6
Continuous
 62
     1
370
    15
100
AcDbLine
 10
14.58982971031219
 20
4.586468916386361
 30
0.0
 11
14.58626647014171
 21
4.58274874836206
 31
0.0
  0
LINE
  5
27B
330
1F
100
AcDbEntity
  8
0
  6
Continuous
 62
     1
370
    15
100
AcDbLine
 10
24.58942808676511
 20
4.579731263220306
 30
0.0
 11
24.58662573713809
 21
4.577153827995057
 31
0.0
  0
LINE
  5
27C
330
1F
100
AcDbEntity
  8
0
  6
Continuous
 62
     1
370
    15
100
AcDbLine
 10
27.21482176799327
 20
-4.592126235365872
 30
0.0
 11
27.2076002927497
 21
-4.589135758578782
 31
0.0
  0
SPLINE
  5
27D
330
1F
100
AcDbEntity
  8
0
  6
Continuous
 62
     1
370
    15
100
AcDbSpline
210
0.0
220
0.0
230
1.0
 70
     8
 71
     3
 72
    11
 73
     7
 74
     0
 42
0.000000001
 43
0.00000001
 40
0.0
 40
0.0
 40
0.0
 40
0.0
 40
0.3306270947334302
 40
0.6651602664388198
 40
0.9998863379261927
 40
1.0
 40
1.0
 40
1.0
 40
1.0
 10
27.82660570461303
 20
-4.301683045923714
 30
0.0
 10
27.80734347719522
 20
-4.393673644376704
 30
0.0
 10
27.76859145558076
 20
-4.578741631699975
 30
0.0
 10
27.7093636696135
 20
-4.719181630017079
 30
0.0
 10
27.66681849551696
 20
-4.780318946931826
 30
0.0
 10
27.6485281358876
 20
-4.762480037284073
 30
0.0
 10
27.64852192718536
 20
-4.762473981827502
 30
0.0
  0
LINE
  5
27E
330
1F
100
AcDbEntity
  8
0
  6
Continuous
 62
     1
370
    15
100
AcDbLine
 10
17.20581051427871
 20
-4.59381984546781
 30
0.0
 11
17.1999077918008
 21
-4.588413517922167
 31
0.0
  0
SPLINE
  5
27F
330
1F
100
AcDbEntity
  8
0
  6
Continuous
 62
     1
370
    15
100
AcDbSpline
210
0.0
220
0.0
230
1.0
 70
     8
 71
     3
 72
    10
 73
     6
 74
     0
 42
0.000000001
 43
0.00000001
 40
0.0
 40
0.0
 40
0.0
 40
0.0
 40
0.3727954143101771
 40
0.7488109830651166
 40
1.0
 40
1.0
 40
1.0
 40
1.0
 10
17.81012803781778
 20
-4.38448460772634
 30
0.0
 10
17.79122594451314
 20
-4.464037571080088
 30
0.0
 10
17.75325848427596
 20
-4.623830665115036
 30
0.0
 10
17.70104392108788
 20
-4.741801352741611
 30
0.0
 10
17.66872115801401
 20
-4.748293437697227
 30
0.0
 10
17.65577622223645
 20
-4.750893451273446
 30
0.0
  0
LINE
  5
280
330
1F
100
AcDbEntity
  8
0
  6
Continuous
 62
     1
370
    15
100
AcDbLine
 10
14.35482442844659
 20
4.580569919198747
 30
0.0
 11
14.35030425433069
 21
4.585991147905584
 31
0.0
  0
SPLINE
  5
281
330
1F
100
AcDbEntity
  8
0
  6
Continuous
 62
     1
370
    15
100
AcDbSpline
210
0.0
220
0.0
230
1.0
 70
     8
 71
     3
 72
    10
 73
     6
 74
     0
 42
0.000000001
 43
0.00000001
 40
0.0
 40
0.0
 40
0.0
 40
0.0
 40
0.0717898120200784
 40
0.4665362398416836
 40
1.0
 40
1.0
 40
1.0
 40
1.0
 10
13.89351847115904
 20
4.755409900099035
 30
0.0
 10
13.89021453240128
 20
4.756896840084541
 30
0.0
 10
13.86874341942105
 20
4.76655992973735
 30
0.0
 10
13.82463745254764
 20
4.695102909819705
 30
0.0
 10
13.78259070736678
 20
4.546564919114206
 30
0.0
 10
13.75842547509819
 20
4.461196716874833
 30
0.0
  0
LINE
  5
282
330
1F
100
AcDbEntity
  8
0
  6
Continuous
 62
     1
370
    15
100
AcDbLine
 10
28.33903242368251
 20
-4.582020454108719
 30
0.0
 11
28.33343144971877
 21
-4.576573614031081
 31
0.0
  0
LINE
  5
286
330
1F
100
AcDbEntity
  8
0
  6
Continuous
 62
     1
370
    15
100
AcDbLine
 10
35.3999998094514
 20
2.580286469310518
 30
0.0
 11
35.3999998094514
 21
3.747039206266262
 31
0.0
  0
SPLINE
  5
287
330
1F
100
AcDbEntity
  8
0
  6
Continuous
 62
     1
370
    15
100
AcDbSpline
210
0.0
220
0.0
230
1.0
 70
     8
 71
     3
 72
    10
 73
     6
 74
     0
 42
0.000000001
 43
0.00000001
 40
0.0
 40
0.0
 40
0.0
 40
0.0
 40
0.0615794326428965
 40
0.545075786681757
 40
1.0
 40
1.0
 40
1.0
 40
1.0
 10
23.89690127689391
 20
4.756423179060217
 30
0.0
 10
23.89434332958745
 20
4.758168810004347
 30
0.0
 10
23.87170143308853
 20
4.773620416478951
 30
0.0
 10
23.83186595295769
 20
4.707780496307874
 30
0.0
 10
23.79383539226356
 20
4.58665250100907
 30
0.0
 10
23.77539907116443
 20
4.527932498604055
 30
0.0
  0
LINE
  5
289
330
1F
100
AcDbEntity
  8
0
  6
Continuous
 62
     1
370
    15
100
AcDbLine
 10
18.33620980847627
 20
-4.583273548632865
 30
0.0
 11
18.33390851039439
 21
-4.580842796713118
 31
0.0
  0
LINE
  5
28C
330
1F
100
AcDbEntity
  8
0
  6
Continuous
 62
     1
370
    15
100
AcDbLine
 10
30.21147694904357
 20
-4.705943632870917
 30
0.0
 11
30.14872815925628
 21
-4.758885595947508
 31
0.0
  0
LINE
  5
28D
330
1F
100
AcDbEntity
  8
0
  6
Continuous
 62
     1
370
    15
100
AcDbLine
 10
20.194446076639
 20
-4.732576198875909
 30
0.0
 11
20.14777098316699
 21
-4.754685331135993
 31
0.0
  0
LINE
  5
28E
330
1F
100
AcDbEntity
  8
0
  6
Continuous
 62
     1
370
    15
100
AcDbLine
 10
11.40642060432583
 20
4.748930688947435
 30
0.0
 11
11.37206760700792
 21
4.751408472657199
 31
0.0
  0
LINE
  5
28F
330
1F
100
AcDbEntity
  8
외형선
  6
Continuous
370
    15
100
AcDbLine
 10
9.840268748812377
 20
-4.672761075198655
 30
0.0
 11
9.877896218094975
 21
-4.638943821191792
 31
0.0
  0
LINE
  5
290
330
1F
100
AcDbEntity
  8
0
  6
Continuous
 62
     1
370
    15
100
AcDbLine
 10
21.85597490984946
 20
4.594236612319942
 30
0.0
 11
21.85163029003888
 21
4.593635443598028
 31
0.0
  0
LINE
  5
292
330
1F
100
AcDbEntity
  8
0
  6
Continuous
 62
     1
370
    15
100
AcDbLine
 10
10.17730763647705
 20
-4.750924184918408
 30
0.0
 11
10.14336733147502
 21
-4.754273220896725
 31
0.0
  0
LINE
  5
293
330
1F
100
AcDbEntity
  8
외형선
  6
Continuous
370
    15
100
AcDbLine
 10
10.0
 20
-4.728436004370455
 30
0.0
 11
10.0
 21
-4.700377583503728
 31
0.0
  0
LINE
  5
294
330
1F
100
AcDbEntity
  8
0
  6
Continuous
 62
     1
370
    15
100
AcDbLine
 10
21.39521889854223
 20
4.757255315780635
 30
0.0
 11
21.38887938577682
 21
4.76089539006352
 31
0.0
  0
LINE
  5
295
330
1F
100
AcDbEntity
  8
중심선
 62
     1
100
AcDbLine
 10
-31.10000004749743
 20
-0.0000000000000059
 30
0.0
 11
38.39999995250258
 21
0.0000000000000026
 31
0.0
  0
LINE
  5
296
330
1F
100
AcDbEntity
  8
참조1
100
AcDbLine
 10
3.650000000000015
 20
0.0010749287238892
 30
0.0
 11
3.650000000000021
 21
-39.99892507127611
 31
0.0
  0
LINE
  5
297
330
1F
100
AcDbEntity
  8
참조1
100
AcDbLine
 10
3.650000000000021
 20
-39.99892507127611
 30
0.0
 11
13.92939446285957
 21
-39.9989250712761
 31
0.0
  0
CIRCLE
  5
298
330
1F
100
AcDbEntity
  8
해칭선
100
AcDbCircle
 10
0.0
 20
0.0
 30
0.0
 40
3.000000000000001
  0
INSERT
  5
299
330
1F
100
AcDbEntity
  8
0
  6
Continuous
 62
     7
100
AcDbBlockReference
 66
     1
  2
블럭10
 10
-10.29027297962263
 20
-31.49974709015602
 30
0.0
  0
ATTRIB
  5
29A
330
299
100
AcDbEntity
  8
FORMAT
 62
     2
100
AcDbText
 10
-19.47156826836391
 20
-29.42438017732383
 30
0.0
 40
4.233333333333333
  1
E5057024 [ 5 FLUTE ]
 41
0.75
  7
SLDTEXTSTYLE0
 11
-19.47156826836391
 21
-31.5410468439905
 31
0.0
100
AcDbAttribute
  2
AUTOATTR0
 70
     0
 74
     1
  0
SEQEND
  5
29B
330
299
100
AcDbEntity
  8
0
  6
Continuous
 62
     7
  0
HATCH
  5
29C
330
1F
100
AcDbEntity
  8
중심선
100
AcDbHatch
 10
0.0
 20
0.0
 30
0.0
210
0.0
220
0.0
230
1.0
  2
SOLID
 70
     1
 71
     0
 91
        1
 92
        0
 93
        4
 72
     1
 10
-4.575363675241801
 20
-15.25257278851209
 11
-8.021638919079084
 21
-15.25257278851209
 72
     1
 10
-8.021638919079084
 20
-15.25257278851209
 11
-10.14986877828311
 21
-17.78889836908469
 72
     1
 10
-10.14986877828311
 20
-17.78889836908469
 11
-6.703560449332675
 21
-17.7888589397822
 72
     1
 10
-6.703560449332675
 20
-17.7888589397822
 11
-4.575363675241801
 21
-15.25257278851209
 97
        0
 75
     0
 76
     1
 98
        1
 10
-0.000000047497446
 20
20.54635228276402
  0
HATCH
  5
29D
330
1F
100
AcDbEntity
  8
중심선
100
AcDbHatch
 10
0.0
 20
0.0
 30
0.0
210
0.0
220
0.0
230
1.0
  2
SOLID
 70
     1
 71
     0
 91
        1
 92
        0
 93
        4
 72
     1
 10
0.4374003157941497
 20
-15.25257278851209
 11
-3.008874928043077
 21
-15.25257278851209
 72
     1
 10
-3.008874928043077
 20
-15.25257278851209
 11
-7.540012936400521
 21
-20.65257278851211
 72
     1
 10
-7.540012936400521
 20
-20.65257278851211
 11
-4.093737692563239
 21
-20.65257278851211
 72
     1
 10
-4.093737692563239
 20
-20.65257278851211
 11
0.4374003157941493
 21
-15.25257278851209
 97
        0
 75
     0
 76
     1
 98
        1
 10
-0.000000047497446
 20
20.54635228276402
  0
HATCH
  5
29E
330
1F
100
AcDbEntity
  8
중심선
100
AcDbHatch
 10
0.0
 20
0.0
 30
0.0
210
0.0
220
0.0
230
1.0
  2
SOLID
 70
     1
 71
     0
 91
        1
 92
        0
 93
        4
 72
     1
 10
5.450164306830073
 20
-15.25257278851207
 11
2.00388906299293
 21
-15.25257278851211
 72
     1
 10
2.00388906299293
 20
-15.25257278851211
 11
-5.044547838896319
 21
-23.65257278851211
 72
     1
 10
-5.044547838896319
 20
-23.65257278851211
 11
-1.598272595059037
 21
-23.65257278851211
 72
     1
 10
-1.598272595059037
 20
-23.65257278851211
 11
5.450164306830073
 21
-15.25257278851207
 97
        0
 75
     0
 76
     1
 98
        1
 10
-0.000000047497446
 20
20.54635228276402
  0
HATCH
  5
29F
330
1F
100
AcDbEntity
  8
중심선
100
AcDbHatch
 10
0.0
 20
0.0
 30
0.0
210
0.0
220
0.0
230
1.0
  2
SOLID
 70
     1
 71
     0
 91
        1
 92
        0
 93
        6
 72
     3
 10
10.25005473784224
 20
-19.45257278856336
 11
3.960054785062283
 21
1.540882976769353E-10
 40
0.3939339440162628
 50
17.09539180608439
 51
320.0019657685086
 73
     0
 72
     1
 10
11.93305439354284
 20
-18.04046679315042
 11
14.23835626724388
 21
-16.1061400831025
 72
     3
 10
10.2500547377894
 20
-19.45257278851224
 11
6.600054785286829
 21
-1.278976924368180E-13
 40
0.636358354079598
 50
39.99873849337382
 51
368.4976242363724
 73
     1
 72
     1
 10
16.67538722969001
 20
-18.49257278844211
 11
8.930122044625323
 21
-18.49257278844209
 72
     1
 10
8.930122044625321
 20
-18.49257278844209
 11
8.930097000179387
 21
-20.412572788442
 72
     1
 10
8.930097000179387
 20
-20.412572788442
 11
13.37147676965142
 21
-20.41257278844197
 97
        0
 75
     0
 76
     1
 98
        1
 10
-0.000000047497446
 20
20.54635228276402
  0
DIMENSION
  5
2A0
330
1F
100
AcDbEntity
  8
치수문자_일반주서
100
AcDbDimension
  2
_D
 10
-40.88275326418184
 20
-4.76250000000006
 30
0.0
 11
-40.88275326418194
 21
24.71024999999995
 31
0.0
 70
   160
  1
%%c<>
 71
     2
 42
9.525000000000006
 52
-270.0
  3
SLDDIMSTYLE0
100
AcDbAlignedDimension
 13
-27.10000004749745
 23
4.762499999999998
 33
0.0
 14
-27.10000004749745
 24
-4.762500000000007
 34
0.0
 50
90.0000000000002
100
AcDbRotatedDimension
1001
ACAD
1000
DSTYLE
1002
{
1070
   171
1070
     6
1070
   273
1070
     5
1002
}
  0
DIMENSION
  5
2B5
330
1F
100
AcDbEntity
  8
치수문자_일반주서
100
AcDbDimension
  2
_D_1
 10
9.999999952502549
 20
15.29883733825191
 30
0.0
 11
23.41541440278764
 21
15.29883733825191
 31
0.0
 70
   160
  1
<>
 71
     2
 42
25.40000000000001
  3
SLDDIMSTYLE0
100
AcDbAlignedDimension
 13
35.39999995250255
 23
4.762500058859582
 33
0.0
 14
9.999999952502549
 24
4.022718078813931
 34
0.0
100
AcDbRotatedDimension
1001
ACAD
1000
DSTYLE
1002
{
1070
   171
1070
     6
1070
   273
1070
     5
1002
}
  0
DIMENSION
  5
2CB
330
1F
100
AcDbEntity
  8
치수문자_일반주서
100
AcDbDimension
  2
_D_2
 10
35.39999995250255
 20
35.8254902862047
 30
0.0
 11
3.649999952502556
 21
35.8254902862047
 31
0.0
 70
   160
  1
<>
 71
     2
 42
63.5
  3
SLDDIMSTYLE0
100
AcDbAlignedDimension
 13
-28.10000004749745
 23
3.762499999999992
 33
0.0
 14
35.39999995250255
 24
4.762500058859582
 34
0.0
 50
-0.0000000000000128
100
AcDbRotatedDimension
1001
ACAD
1000
DSTYLE
1002
{
1070
   171
1070
     6
1070
   273
1070
     5
1002
}
  0
DIMENSION
  5
2DF
330
1F
100
AcDbEntity
  8
치수문자_일반주서
100
AcDbDimension
  2
_D_3
 10
63.88100338263027
 20
-4.762500058859484
 30
0.0
 11
63.88100338263016
 21
24.71025005885968
 31
0.0
 70
   160
  1
%%c<>
 71
     2
 42
9.525000117719173
 52
-270.0
  3
SLDDIMSTYLE0
100
AcDbAlignedDimension
 13
35.39999995250255
 23
4.762500058859582
 33
0.0
 14
35.39999995250255
 24
-4.762500058859591
 34
0.0
 50
90.0000000000002
100
AcDbRotatedDimension
1001
ACAD
1000
DSTYLE
1002
{
1070
   171
1070
     6
1070
   273
1070
     5
1002
}
  0
LINE
  5
2F3
330
1F
100
AcDbEntity
  8
참조1
100
AcDbLine
 10
111.9017350925138
 20
7.441074928723896
 30
0.0
 11
111.9017350925138
 21
-7.438925071276109
 31
0.0
  0
LINE
  5
2F4
330
1F
100
AcDbEntity
  8
참조1
100
AcDbLine
 10
124.6017350925138
 20
5.441074928723896
 30
0.0
 11
111.9017350925138
 21
5.441074928723896
 31
0.0
  0
SOLID
  5
2F5
330
1F
100
AcDbEntity
  8
참조1
100
AcDbTrace
 10
111.9017350925138
 20
5.441074928723896
 30
0.0
 11
118.2517350925138
 21
4.425074928723896
 31
0.0
 12
118.2517350925138
 22
6.457074928723896
 32
0.0
 13
118.2517350925138
 23
6.457074928723896
 33
0.0
  0
LINE
  5
2F6
330
1F
100
AcDbEntity
  8
참조1
100
AcDbLine
 10
124.6017350925138
 20
-5.438925071276109
 30
0.0
 11
111.9017350925138
 21
-5.438925071276109
 31
0.0
  0
SOLID
  5
2F7
330
1F
100
AcDbEntity
  8
참조1
100
AcDbTrace
 10
111.9017350925138
 20
-5.438925071276109
 30
0.0
 11
118.2517350925138
 21
-6.454925071276109
 31
0.0
 12
118.2517350925138
 22
-4.422925071276109
 32
0.0
 13
118.2517350925138
 23
-4.422925071276109
 33
0.0
  0
MTEXT
  5
2F8
330
1F
100
AcDbEntity
  8
참조1
100
AcDbMText
 10
121.5018499030764
 20
11.06679249473997
 30
0.0
 40
3.5
 41
0.0
 71
     1
 72
     1
  1
A
  7
SLDTEXTSTYLE0
 73
     1
 44
1.0
  0
MTEXT
  5
2F9
330
1F
100
AcDbEntity
  8
참조1
100
AcDbMText
 10
121.5018499030764
 20
0.1867924947399667
 30
0.0
 40
3.5
 41
0.0
 71
     1
 72
     1
  1
A
  7
SLDTEXTSTYLE0
 73
     1
 44
1.0
  0
INSERT
  5
300
330
1F
100
AcDbEntity
  8
해칭선
100
AcDbBlockReference
  2
SW_DOWELSYMBOL_0
 10
0.0
 20
0.0
 30
0.0
  0
ARC
  5
49B
330
1F
100
AcDbEntity
  8
0
  6
Continuous
 62
     1
370
    15
100
AcDbCircle
 10
34.38399995250256
 20
3.746500058859582
 30
0.0
 40
1.016
100
AcDbArc
 50
359.9695955980666
 51
90.0
  0
DIMENSION
  5
49E
330
1F
100
AcDbEntity
  8
치수문자_일반주서
100
AcDbDimension
  2
*D17
 10
34.38399995250256
 20
3.746500058859582
 30
0.0
 11
48.62325839115189
 21
19.72326508435375
 31
0.0
 70
   164
  1
<>
 71
     5
 42
1.015999999999998
  3
SLDDIMSTYLE0
100
AcDbRadialDimension
 15
35.05999254983531
 25
4.50497880500301
 35
0.0
 40
0.0
1001
ACAD_DSTYLE_DIMRADIAL_EXTENSION
1070
   387
1070
     1
1070
   388
1040
6.282654650258748
1070
   390
1040
1.570796326794897
  0
LINE
  5
4E7
330
1F
100
AcDbEntity
  8
외형선
  6
Continuous
370
    15
100
AcDbLine
 10
-11.82494849181634
 20
3.492500000000003
 30
0.0
 11
-4.687548491816216
 21
3.492500000000003
 31
0.0
  0
LINE
  5
4E8
330
1F
100
AcDbEntity
  8
외형선
  6
Continuous
370
    15
100
AcDbLine
 10
-11.82494849181634
 20
3.492500000000003
 30
0.0
 11
-13.09494855067592
 21
4.762500058859583
 31
0.0
  0
LINE
  5
4E9
330
1F
100
AcDbEntity
  8
외형선
  6
Continuous
370
    15
100
AcDbLine
 10
-4.687548491816217
 20
3.492500000000002
 30
0.0
 11
-3.417548432956523
 21
4.762500058859582
 31
0.0
  0
LINE
  5
4EA
330
1F
100
AcDbEntity
  8
외형선
  6
Continuous
370
    15
100
AcDbLine
 10
-13.09494855067593
 20
4.762500058859582
 30
0.0
 11
-27.1000001905486
 21
4.762500058859582
 31
0.0
  0
ENDSEC
  0
SECTION
  2
OBJECTS
  0
DICTIONARY
  5
C
330
0
100
AcDbDictionary
281
     1
  3
ACAD_GROUP
350
D
  3
ACAD_IMAGE_VARS
350
324
  3
ACAD_LAYOUT
350
1A
  3
ACAD_MLINESTYLE
350
17
  3
ACAD_PLOTSETTINGS
350
19
  3
ACAD_PLOTSTYLENAME
350
E
  3
ACAD_SCALELIST
350
47
  3
APPDATA
350
322
  3
DWGPROPS
350
50F
  0
DICTIONARY
  5
3DE
330
2
100
AcDbDictionary
280
     1
281
     1
  3
ACAD_LAYERSTATES
360
3DF
  0
DICTIONARY
  5
50D
330
1F
100
AcDbDictionary
280
     1
281
     1
  3
DIM_BOUNDING_BOXES_V1
360
50E
  0
DICTIONARY
  5
D
102
{ACAD_REACTORS
330
C
102
}
330
C
100
AcDbDictionary
281
     1
  0
RASTERVARIABLES
  5
324
102
{ACAD_REACTORS
330
C
102
}
330
C
100
AcDbRasterVariables
 90
        0
 70
     1
 71
     1
 72
     1
  0
DICTIONARY
  5
1A
102
{ACAD_REACTORS
330
C
102
}
330
C
100
AcDbDictionary
281
     1
  3
Layout1
350
1E
  3
Layout2
350
26
  3
Model
350
22
  0
DICTIONARY
  5
17
102
{ACAD_REACTORS
330
C
102
}
330
C
100
AcDbDictionary
281
     1
  3
Standard
350
18
  0
DICTIONARY
  5
19
102
{ACAD_REACTORS
330
C
102
}
330
C
100
AcDbDictionary
281
     1
  0
ACDBDICTIONARYWDFLT
  5
E
102
{ACAD_REACTORS
330
C
102
}
330
C
100
AcDbDictionary
281
     1
  3
Normal
350
F
100
AcDbDictionaryWithDefault
340
F
  0
DICTIONARY
  5
47
102
{ACAD_REACTORS
330
C
102
}
330
C
100
AcDbDictionary
281
     1
  3
A0
350
48
  3
A1
350
49
  3
A2
350
4A
  3
A3
350
4B
  3
A4
350
4C
  3
A5
350
4D
  3
A6
350
4E
  3
A7
350
4F
  3
A8
350
50
  3
A9
350
51
  3
B0
350
52
  3
B1
350
53
  3
B2
350
54
  3
B3
350
55
  3
B4
350
56
  3
B5
350
57
  3
B6
350
58
  3
B7
350
59
  3
B8
350
5A
  3
B9
350
5B
  3
C0
350
5C
  3
C1
350
5D
  3
C2
350
5E
  3
C3
350
5F
  3
C4
350
60
  3
C5
350
61
  3
C6
350
62
  3
C7
350
63
  3
C8
350
64
  3
C9
350
65
  3
D0
350
66
  3
D1
350
67
  3
D2
350
68
  0
DICTIONARY
  5
322
102
{ACAD_REACTORS
330
C
102
}
330
C
100
AcDbDictionary
281
     1
  0
XRECORD
  5
50F
102
{ACAD_REACTORS
330
C
102
}
330
C
100
AcDbXrecord
280
     1
  1
DWGPROPS COOKIE
  2

  3

  4

  6

  7

  8
12011056
  9

300
=
301
=
302
=
303
=
304
=
305
=
306
=
307
=
308
=
309
=
 40
0.0
 41
2458319.183287778
 42
2459720.017607141
  1

 90
        0
  0
DICTIONARY
  5
3DF
102
{ACAD_REACTORS
330
3DE
102
}
330
3DE
100
AcDbDictionary
281
     1
  0
DICTIONARY
  5
50E
102
{ACAD_REACTORS
330
50D
102
}
330
50D
100
AcDbDictionary
281
     1
  0
LAYOUT
  5
1E
102
{ACAD_REACTORS
330
1A
102
}
330
1A
100
AcDbPlotSettings
  1

  2
none_device
  4

  6

 40
0.0
 41
0.0
 42
0.0
 43
0.0
 44
0.0
 45
0.0
 46
0.0
 47
0.0
 48
0.0
 49
0.0
140
0.0
141
0.0
142
1.0
143
1.0
 70
   688
 72
     1
 73
     0
 74
     5
  7

 75
    16
147
1.0
148
0.0
149
0.0
100
AcDbLayout
  1
Layout1
 70
     1
 71
     1
 10
0.0
 20
0.0
 11
420.0
 21
297.0
 12
0.0
 22
0.0
 32
0.0
 14
1.000000000000000E+20
 24
1.000000000000000E+20
 34
1.000000000000000E+20
 15
-1.000000000000000E+20
 25
-1.000000000000000E+20
 35
-1.000000000000000E+20
146
0.0
 13
0.0
 23
0.0
 33
0.0
 16
1.0
 26
0.0
 36
0.0
 17
0.0
 27
1.0
 37
0.0
 76
     0
330
1B
  0
LAYOUT
  5
26
102
{ACAD_REACTORS
330
1A
102
}
330
1A
100
AcDbPlotSettings
  1

  2
none_device
  4

  6

 40
0.0
 41
0.0
 42
0.0
 43
0.0
 44
0.0
 45
0.0
 46
0.0
 47
0.0
 48
0.0
 49
0.0
140
0.0
141
0.0
142
1.0
143
1.0
 70
   688
 72
     1
 73
     0
 74
     5
  7

 75
    16
147
1.0
148
0.0
149
0.0
100
AcDbLayout
  1
Layout2
 70
     1
 71
     2
 10
0.0
 20
0.0
 11
0.0
 21
0.0
 12
0.0
 22
0.0
 32
0.0
 14
0.0
 24
0.0
 34
0.0
 15
0.0
 25
0.0
 35
0.0
146
0.0
 13
0.0
 23
0.0
 33
0.0
 16
1.0
 26
0.0
 36
0.0
 17
0.0
 27
1.0
 37
0.0
 76
     0
330
23
  0
LAYOUT
  5
22
102
{ACAD_REACTORS
330
1A
102
}
330
1A
100
AcDbPlotSettings
  1

  2
none_device
  4
ANSI_A_(11.00_x_8.50_Inches)
  6

 40
6.35
 41
19.05
 42
6.35000508
 43
19.05000254
 44
279.4
 45
215.9
 46
76.37459089882624
 47
92.71242360170405
 48
0.0
 49
0.0
140
0.0
141
0.0
142
0.0617015985921676
143
1.0
 70
  1696
 72
     0
 73
     0
 74
     0
  7

 75
     0
147
0.0235690232323232
148
0.0
149
0.0
100
AcDbLayout
  1
Model
 70
     1
 71
     0
 10
0.0
 20
0.0
 11
420.0
 21
297.0
 12
0.0
 22
0.0
 32
0.0
 14
-45.25775326418199
 24
-39.99892507127611
 34
0.0
 15
124.6017350925138
 25
40.2004902862047
 35
0.0
146
0.0
 13
0.0
 23
0.0
 33
0.0
 16
1.0
 26
0.0
 36
0.0
 17
0.0
 27
1.0
 37
0.0
 76
     0
330
1F
331
29
  0
MLINESTYLE
  5
18
102
{ACAD_REACTORS
330
17
102
}
330
17
100
AcDbMlineStyle
  2
Standard
 70
     0
  3

 62
   256
 51
90.0
 52
90.0
 71
     2
 49
0.5
 62
   256
  6
BYLAYER
 49
-0.5
 62
   256
  6
BYLAYER
  0
ACDBPLACEHOLDER
  5
F
102
{ACAD_REACTORS
330
E
102
}
330
E
  0
SCALE
  5
48
102
{ACAD_REACTORS
330
47
102
}
330
47
100
AcDbScale
 70
     0
300
1:1
140
1.0
141
1.0
290
     1
  0
SCALE
  5
49
102
{ACAD_REACTORS
330
47
102
}
330
47
100
AcDbScale
 70
     0
300
1:2
140
1.0
141
2.0
290
     0
  0
SCALE
  5
4A
102
{ACAD_REACTORS
330
47
102
}
330
47
100
AcDbScale
 70
     0
300
1:4
140
1.0
141
4.0
290
     0
  0
SCALE
  5
4B
102
{ACAD_REACTORS
330
47
102
}
330
47
100
AcDbScale
 70
     0
300
1:5
140
1.0
141
5.0
290
     0
  0
SCALE
  5
4C
102
{ACAD_REACTORS
330
47
102
}
330
47
100
AcDbScale
 70
     0
300
1:8
140
1.0
141
8.0
290
     0
  0
SCALE
  5
4D
102
{ACAD_REACTORS
330
47
102
}
330
47
100
AcDbScale
 70
     0
300
1:10
140
1.0
141
10.0
290
     0
  0
SCALE
  5
4E
102
{ACAD_REACTORS
330
47
102
}
330
47
100
AcDbScale
 70
     0
300
1:16
140
1.0
141
16.0
290
     0
  0
SCALE
  5
4F
102
{ACAD_REACTORS
330
47
102
}
330
47
100
AcDbScale
 70
     0
300
1:20
140
1.0
141
20.0
290
     0
  0
SCALE
  5
50
102
{ACAD_REACTORS
330
47
102
}
330
47
100
AcDbScale
 70
     0
300
1:30
140
1.0
141
30.0
290
     0
  0
SCALE
  5
51
102
{ACAD_REACTORS
330
47
102
}
330
47
100
AcDbScale
 70
     0
300
1:40
140
1.0
141
40.0
290
     0
  0
SCALE
  5
52
102
{ACAD_REACTORS
330
47
102
}
330
47
100
AcDbScale
 70
     0
300
1:50
140
1.0
141
50.0
290
     0
  0
SCALE
  5
53
102
{ACAD_REACTORS
330
47
102
}
330
47
100
AcDbScale
 70
     0
300
1:100
140
1.0
141
100.0
290
     0
  0
SCALE
  5
54
102
{ACAD_REACTORS
330
47
102
}
330
47
100
AcDbScale
 70
     0
300
2:1
140
2.0
141
1.0
290
     0
  0
SCALE
  5
55
102
{ACAD_REACTORS
330
47
102
}
330
47
100
AcDbScale
 70
     0
300
4:1
140
4.0
141
1.0
290
     0
  0
SCALE
  5
56
102
{ACAD_REACTORS
330
47
102
}
330
47
100
AcDbScale
 70
     0
300
8:1
140
8.0
141
1.0
290
     0
  0
SCALE
  5
57
102
{ACAD_REACTORS
330
47
102
}
330
47
100
AcDbScale
 70
     0
300
10:1
140
10.0
141
1.0
290
     0
  0
SCALE
  5
58
102
{ACAD_REACTORS
330
47
102
}
330
47
100
AcDbScale
 70
     0
300
100:1
140
100.0
141
1.0
290
     0
  0
SCALE
  5
59
102
{ACAD_REACTORS
330
47
102
}
330
47
100
AcDbScale
 70
     0
300
1/128" = 1'-0"
140
0.0078125
141
12.0
290
     0
  0
SCALE
  5
5A
102
{ACAD_REACTORS
330
47
102
}
330
47
100
AcDbScale
 70
     0
300
1/64" = 1'-0"
140
0.015625
141
12.0
290
     0
  0
SCALE
  5
5B
102
{ACAD_REACTORS
330
47
102
}
330
47
100
AcDbScale
 70
     0
300
1/32" = 1'-0"
140
0.03125
141
12.0
290
     0
  0
SCALE
  5
5C
102
{ACAD_REACTORS
330
47
102
}
330
47
100
AcDbScale
 70
     0
300
1/16" = 1'-0"
140
0.0625
141
12.0
290
     0
  0
SCALE
  5
5D
102
{ACAD_REACTORS
330
47
102
}
330
47
100
AcDbScale
 70
     0
300
3/32" = 1'-0"
140
0.09375
141
12.0
290
     0
  0
SCALE
  5
5E
102
{ACAD_REACTORS
330
47
102
}
330
47
100
AcDbScale
 70
     0
300
1/8" = 1'-0"
140
0.125
141
12.0
290
     0
  0
SCALE
  5
5F
102
{ACAD_REACTORS
330
47
102
}
330
47
100
AcDbScale
 70
     0
300
3/16" = 1'-0"
140
0.1875
141
12.0
290
     0
  0
SCALE
  5
60
102
{ACAD_REACTORS
330
47
102
}
330
47
100
AcDbScale
 70
     0
300
1/4" = 1'-0"
140
0.25
141
12.0
290
     0
  0
SCALE
  5
61
102
{ACAD_REACTORS
330
47
102
}
330
47
100
AcDbScale
 70
     0
300
3/8" = 1'-0"
140
0.375
141
12.0
290
     0
  0
SCALE
  5
62
102
{ACAD_REACTORS
330
47
102
}
330
47
100
AcDbScale
 70
     0
300
1/2" = 1'-0"
140
0.5
141
12.0
290
     0
  0
SCALE
  5
63
102
{ACAD_REACTORS
330
47
102
}
330
47
100
AcDbScale
 70
     0
300
3/4" = 1'-0"
140
0.75
141
12.0
290
     0
  0
SCALE
  5
64
102
{ACAD_REACTORS
330
47
102
}
330
47
100
AcDbScale
 70
     0
300
1" = 1'-0"
140
1.0
141
12.0
290
     0
  0
SCALE
  5
65
102
{ACAD_REACTORS
330
47
102
}
330
47
100
AcDbScale
 70
     0
300
1-1/2" = 1'-0"
140
1.5
141
12.0
290
     0
  0
SCALE
  5
66
102
{ACAD_REACTORS
330
47
102
}
330
47
100
AcDbScale
 70
     0
300
3" = 1'-0"
140
3.0
141
12.0
290
     0
  0
SCALE
  5
67
102
{ACAD_REACTORS
330
47
102
}
330
47
100
AcDbScale
 70
     0
300
6" = 1'-0"
140
6.0
141
12.0
290
     0
  0
SCALE
  5
68
102
{ACAD_REACTORS
330
47
102
}
330
47
100
AcDbScale
 70
     0
300
1'-0" = 1'-0"
140
12.0
141
12.0
290
     0
  0
ENDSEC
  0
EOF
