  0
SECTION
  2
HEADER
  9
$ACADVER
  1
AC1015
  9
$ACADMAINTVER
 70
     6
  9
$DWGCODEPAGE
  3
ANSI_949
  9
$INSBASE
 10
0.0
 20
0.0
 30
0.0
  9
$EXTMIN
 10
1.000000000000000E+20
 20
1.000000000000000E+20
 30
1.000000000000000E+20
  9
$EXTMAX
 10
-1.000000000000000E+20
 20
-1.000000000000000E+20
 30
-1.000000000000000E+20
  9
$LIMMIN
 10
0.0
 20
0.0
  9
$LIMMAX
 10
420.0
 20
297.0
  9
$ORTHOMODE
 70
     0
  9
$REGENMODE
 70
     1
  9
$FILLMODE
 70
     1
  9
$QTEXTMODE
 70
     0
  9
$MIRRTEXT
 70
     1
  9
$LTSCALE
 40
1.0
  9
$ATTMODE
 70
     1
  9
$TEXTSIZE
 40
3.5
  9
$TRACEWID
 40
1.0
  9
$TEXTSTYLE
  7
Standard
  9
$CLAYER
  8
0
  9
$CELTYPE
  6
ByLayer
  9
$CECOLOR
 62
   256
  9
$CELTSCALE
 40
1.0
  9
$DISPSILH
 70
     0
  9
$DIMSCALE
 40
1.0
  9
$DIMASZ
 40
3.302
  9
$DIMEXO
 40
1.0
  9
$DIMDLI
 40
3.75
  9
$DIMRND
 40
0.0
  9
$DIMDLE
 40
0.0
  9
$DIMEXE
 40
1.0
  9
$DIMTP
 40
0.0
  9
$DIMTM
 40
0.0
  9
$DIMTXT
 40
3.5
  9
$DIMCEN
 40
2.5
  9
$DIMTSZ
 40
0.0
  9
$DIMTOL
 70
     0
  9
$DIMLIM
 70
     0
  9
$DIMTIH
 70
     1
  9
$DIMTOH
 70
     1
  9
$DIMSE1
 70
     0
  9
$DIMSE2
 70
     0
  9
$DIMTAD
 70
     1
  9
$DIMZIN
 70
     0
  9
$DIMBLK
  1

  9
$DIMASO
 70
     1
  9
$DIMSHO
 70
     1
  9
$DIMPOST
  1

  9
$DIMAPOST
  1

  9
$DIMALT
 70
     0
  9
$DIMALTD
 70
     3
  9
$DIMALTF
 40
0.0393700787401575
  9
$DIMLFAC
 40
1.0
  9
$DIMTOFL
 70
     1
  9
$DIMTVP
 40
0.0
  9
$DIMTIX
 70
     0
  9
$DIMSOXD
 70
     0
  9
$DIMSAH
 70
     0
  9
$DIMBLK1
  1

  9
$DIMBLK2
  1

  9
$DIMSTYLE
  2
ISO-25
  9
$DIMCLRD
 70
     0
  9
$DIMCLRE
 70
     0
  9
$DIMCLRT
 70
     0
  9
$DIMTFAC
 40
1.0
  9
$DIMGAP
 40
1.524
  9
$DIMJUST
 70
     0
  9
$DIMSD1
 70
     0
  9
$DIMSD2
 70
     0
  9
$DIMTOLJ
 70
     0
  9
$DIMTZIN
 70
     0
  9
$DIMALTZ
 70
     0
  9
$DIMALTTZ
 70
     0
  9
$DIMUPT
 70
     0
  9
$DIMDEC
 70
     2
  9
$DIMTDEC
 70
     2
  9
$DIMALTU
 70
     2
  9
$DIMALTTD
 70
     3
  9
$DIMTXSTY
  7
Standard
  9
$DIMAUNIT
 70
     0
  9
$DIMADEC
 70
     2
  9
$DIMALTRND
 40
0.0
  9
$DIMAZIN
 70
     0
  9
$DIMDSEP
 70
    44
  9
$DIMATFIT
 70
     3
  9
$DIMFRAC
 70
     0
  9
$DIMLDRBLK
  1

  9
$DIMLUNIT
 70
     2
  9
$DIMLWD
 70
    -2
  9
$DIMLWE
 70
    -2
  9
$DIMTMOVE
 70
     0
  9
$LUNITS
 70
     2
  9
$LUPREC
 70
     2
  9
$SKETCHINC
 40
1.0
  9
$FILLETRAD
 40
10.0
  9
$AUNITS
 70
     0
  9
$AUPREC
 70
     2
  9
$MENU
  1
.
  9
$ELEVATION
 40
0.0
  9
$PELEVATION
 40
0.0
  9
$THICKNESS
 40
0.0
  9
$LIMCHECK
 70
     0
  9
$CHAMFERA
 40
0.0
  9
$CHAMFERB
 40
0.0
  9
$CHAMFERC
 40
0.0
  9
$CHAMFERD
 40
0.0
  9
$SKPOLY
 70
     0
  9
$TDCREATE
 40
2458319.556127975
  9
$TDUCREATE
 40
2458319.181127975
  9
$TDUPDATE
 40
2458320.715869954
  9
$TDUUPDATE
 40
2458320.340869954
  9
$TDINDWG
 40
0.0033895023
  9
$TDUSRTIMER
 40
2458320.340485602
  9
$USRTIMER
 70
     1
  9
$ANGBASE
 50
0.0
  9
$ANGDIR
 70
     0
  9
$PDMODE
 70
     0
  9
$PDSIZE
 40
-1.0
  9
$PLINEWID
 40
0.0
  9
$SPLFRAME
 70
     0
  9
$SPLINETYPE
 70
     6
  9
$SPLINESEGS
 70
     8
  9
$HANDSEED
  5
478
  9
$SURFTAB1
 70
     6
  9
$SURFTAB2
 70
     6
  9
$SURFTYPE
 70
     6
  9
$SURFU
 70
     6
  9
$SURFV
 70
     6
  9
$UCSBASE
  2

  9
$UCSNAME
  2

  9
$UCSORG
 10
0.0
 20
0.0
 30
0.0
  9
$UCSXDIR
 10
1.0
 20
0.0
 30
0.0
  9
$UCSYDIR
 10
0.0
 20
1.0
 30
0.0
  9
$UCSORTHOREF
  2

  9
$UCSORTHOVIEW
 70
     0
  9
$UCSORGTOP
 10
0.0
 20
0.0
 30
0.0
  9
$UCSORGBOTTOM
 10
0.0
 20
0.0
 30
0.0
  9
$UCSORGLEFT
 10
0.0
 20
0.0
 30
0.0
  9
$UCSORGRIGHT
 10
0.0
 20
0.0
 30
0.0
  9
$UCSORGFRONT
 10
0.0
 20
0.0
 30
0.0
  9
$UCSORGBACK
 10
0.0
 20
0.0
 30
0.0
  9
$PUCSBASE
  2

  9
$PUCSNAME
  2

  9
$PUCSORG
 10
0.0
 20
0.0
 30
0.0
  9
$PUCSXDIR
 10
1.0
 20
0.0
 30
0.0
  9
$PUCSYDIR
 10
0.0
 20
1.0
 30
0.0
  9
$PUCSORTHOREF
  2

  9
$PUCSORTHOVIEW
 70
     0
  9
$PUCSORGTOP
 10
0.0
 20
0.0
 30
0.0
  9
$PUCSORGBOTTOM
 10
0.0
 20
0.0
 30
0.0
  9
$PUCSORGLEFT
 10
0.0
 20
0.0
 30
0.0
  9
$PUCSORGRIGHT
 10
0.0
 20
0.0
 30
0.0
  9
$PUCSORGFRONT
 10
0.0
 20
0.0
 30
0.0
  9
$PUCSORGBACK
 10
0.0
 20
0.0
 30
0.0
  9
$USERI1
 70
     0
  9
$USERI2
 70
     0
  9
$USERI3
 70
     0
  9
$USERI4
 70
     0
  9
$USERI5
 70
     0
  9
$USERR1
 40
0.0
  9
$USERR2
 40
0.0
  9
$USERR3
 40
0.0
  9
$USERR4
 40
0.0
  9
$USERR5
 40
0.0
  9
$WORLDVIEW
 70
     1
  9
$SHADEDGE
 70
     3
  9
$SHADEDIF
 70
    70
  9
$TILEMODE
 70
     1
  9
$MAXACTVP
 70
    64
  9
$PINSBASE
 10
0.0
 20
0.0
 30
0.0
  9
$PLIMCHECK
 70
     0
  9
$PEXTMIN
 10
1.000000000000000E+20
 20
1.000000000000000E+20
 30
1.000000000000000E+20
  9
$PEXTMAX
 10
-1.000000000000000E+20
 20
-1.000000000000000E+20
 30
-1.000000000000000E+20
  9
$PLIMMIN
 10
0.0
 20
0.0
  9
$PLIMMAX
 10
0.0
 20
0.0
  9
$UNITMODE
 70
     0
  9
$VISRETAIN
 70
     1
  9
$PLINEGEN
 70
     0
  9
$PSLTSCALE
 70
     1
  9
$TREEDEPTH
 70
  3020
  9
$CMLSTYLE
  2
Standard
  9
$CMLJUST
 70
     0
  9
$CMLSCALE
 40
20.0
  9
$PROXYGRAPHICS
 70
     1
  9
$MEASUREMENT
 70
     1
  9
$CELWEIGHT
370
    -1
  9
$ENDCAPS
280
     0
  9
$JOINSTYLE
280
     0
  9
$LWDISPLAY
290
     1
  9
$INSUNITS
 70
     4
  9
$HYPERLINKBASE
  1

  9
$STYLESHEET
  1

  9
$XEDIT
290
     1
  9
$CEPSNTYPE
380
     0
  9
$PSTYLEMODE
290
     1
  9
$FINGERPRINTGUID
  2
{B51D5AC6-09D5-49ED-B9CA-A65BBB070EB1}
  9
$VERSIONGUID
  2
{FAEB1C32-E019-11D5-929B-00C0DF256EC4}
  9
$EXTNAMES
290
     1
  9
$PSVPSCALE
 40
0.0
  9
$OLESTARTUP
290
     0
  0
ENDSEC
  0
SECTION
  2
CLASSES
  0
CLASS
  1
ACDBDICTIONARYWDFLT
  2
AcDbDictionaryWithDefault
  3
ObjectDBX Classes
 90
        0
280
     0
281
     0
  0
CLASS
  1
VISUALSTYLE
  2
AcDbVisualStyle
  3
ObjectDBX Classes
 90
     4095
280
     0
281
     0
  0
CLASS
  1
MATERIAL
  2
AcDbMaterial
  3
ObjectDBX Classes
 90
     1153
280
     0
281
     0
  0
CLASS
  1
SCALE
  2
AcDbScale
  3
ObjectDBX Classes
 90
     1153
280
     0
281
     0
  0
CLASS
  1
SUN
  2
AcDbSun
  3
SCENEOE
 90
     1153
280
     0
281
     0
  0
CLASS
  1
ACDBPLACEHOLDER
  2
AcDbPlaceHolder
  3
ObjectDBX Classes
 90
        0
280
     0
281
     0
  0
CLASS
  1
LAYOUT
  2
AcDbLayout
  3
ObjectDBX Classes
 90
        0
280
     0
281
     0
  0
CLASS
  1
TABLESTYLE
  2
AcDbTableStyle
  3
ObjectDBX Classes
 90
     4095
280
     0
281
     0
  0
CLASS
  1
MLEADERSTYLE
  2
AcDbMLeaderStyle
  3
ACDB_MLEADERSTYLE_CLASS
 90
     4095
280
     0
281
     0
  0
CLASS
  1
RASTERVARIABLES
  2
AcDbRasterVariables
  3
ISM
 90
        0
280
     0
281
     0
  0
CLASS
  1
DIMASSOC
  2
AcDbDimAssoc
  3
"AcDbDimAssoc|Product Desc:     AcDim ARX App For Dimension|Company:          Autodesk, Inc.|WEB Address:      www.autodesk.com"
 90
        0
280
     0
281
     0
  0
ENDSEC
  0
SECTION
  2
TABLES
  0
TABLE
  2
VPORT
  5
8
330
0
100
AcDbSymbolTable
 70
     1
  0
VPORT
  5
29
330
8
100
AcDbSymbolTableRecord
100
AcDbViewportTableRecord
  2
*Active
 70
     0
 10
0.0
 20
0.0
 11
1.0
 21
1.0
 12
20.8080843423712
 22
2.423494122561387
 13
0.0
 23
0.0
 14
10.0
 24
10.0
 15
10.0
 25
10.0
 16
0.0
 26
0.0
 36
1.0
 17
0.0
 27
0.0
 37
0.0
 40
101.5148800257153
 41
1.970186335403727
 42
50.0
 43
0.0
 44
0.0
 50
0.0
 51
0.0
 71
    16
 72
  2000
 73
     1
 74
     3
 75
     0
 76
     0
 77
     0
 78
     0
281
     0
 65
     1
110
0.0
120
0.0
130
0.0
111
1.0
121
0.0
131
0.0
112
0.0
122
1.0
132
0.0
 79
     0
146
0.0
  0
ENDTAB
  0
TABLE
  2
LTYPE
  5
5
330
0
100
AcDbSymbolTable
 70
     6
  0
LTYPE
  5
14
330
5
100
AcDbSymbolTableRecord
100
AcDbLinetypeTableRecord
  2
ByBlock
 70
     0
  3

 72
    65
 73
     0
 40
0.0
  0
LTYPE
  5
15
330
5
100
AcDbSymbolTableRecord
100
AcDbLinetypeTableRecord
  2
ByLayer
 70
     0
  3

 72
    65
 73
     0
 40
0.0
  0
LTYPE
  5
16
330
5
100
AcDbSymbolTableRecord
100
AcDbLinetypeTableRecord
  2
Continuous
 70
     0
  3
Solid line
 72
    65
 73
     0
 40
0.0
  0
LTYPE
  5
6A
330
5
100
AcDbSymbolTableRecord
100
AcDbLinetypeTableRecord
  2
HIDDEN
 70
     0
  3
Hidden __ __ __ __ __ __ __ __ __ __ __ __ __ __
 72
    65
 73
     2
 40
1.905
 49
1.27
 74
     0
 49
-0.635
 74
     0
  0
LTYPE
  5
6B
330
5
100
AcDbSymbolTableRecord
100
AcDbLinetypeTableRecord
  2
PHANTOM
 70
     0
  3
Phantom ______  __  __  ______  __  __  ______
 72
    65
 73
     6
 40
12.7
 49
6.35
 74
     0
 49
-1.27
 74
     0
 49
1.27
 74
     0
 49
-1.27
 74
     0
 49
1.27
 74
     0
 49
-1.27
 74
     0
  0
LTYPE
  5
6C
330
5
100
AcDbSymbolTableRecord
100
AcDbLinetypeTableRecord
  2
CENTER
 70
     0
  3
Center ____ _ ____ _ ____ _ ____ _ ____ _ ____
 72
    65
 73
     4
 40
10.16
 49
6.35
 74
     0
 49
-1.27
 74
     0
 49
1.27
 74
     0
 49
-1.27
 74
     0
  0
LTYPE
  5
6D
330
5
100
AcDbSymbolTableRecord
100
AcDbLinetypeTableRecord
  2
CENTERX2
 70
     0
  3
Center (2x) ________  __  ________  __  _____
 72
    65
 73
     4
 40
20.32
 49
12.7
 74
     0
 49
-2.54
 74
     0
 49
2.54
 74
     0
 49
-2.54
 74
     0
  0
LTYPE
  5
6E
330
5
100
AcDbSymbolTableRecord
100
AcDbLinetypeTableRecord
  2
DOT2
 70
     0
  3
Dot (.5x) ........................................
 72
    65
 73
     2
 40
0.635
 49
0.0
 74
     0
 49
-0.635
 74
     0
  0
ENDTAB
  0
TABLE
  2
LAYER
  5
2
102
{ACAD_XDICTIONARY
360
344
102
}
330
0
100
AcDbSymbolTable
 70
    18
  0
LAYER
  5
10
330
2
100
AcDbSymbolTableRecord
100
AcDbLayerTableRecord
  2
0
 70
     0
 62
     7
  6
Continuous
370
    -3
390
F
  0
LAYER
  5
6F
330
2
100
AcDbSymbolTableRecord
100
AcDbLayerTableRecord
  2
FORMAT
 70
     0
 62
     2
  6
Continuous
370
    -3
390
F
  0
LAYER
  5
70
330
2
100
AcDbSymbolTableRecord
100
AcDbLayerTableRecord
  2
외형선
 70
     0
 62
     4
  6
Continuous
370
    30
390
F
  0
LAYER
  5
71
330
2
100
AcDbSymbolTableRecord
100
AcDbLayerTableRecord
  2
숨은선
 70
     0
 62
     2
  6
HIDDEN
370
    15
390
F
  0
LAYER
  5
72
330
2
100
AcDbSymbolTableRecord
100
AcDbLayerTableRecord
  2
중심선
 70
     0
 62
     1
  6
CENTERX2
370
    -3
390
F
  0
LAYER
  5
73
330
2
100
AcDbSymbolTableRecord
100
AcDbLayerTableRecord
  2
파단선
 70
     0
 62
     4
  6
Continuous
370
    -3
390
F
  0
LAYER
  5
74
330
2
100
AcDbSymbolTableRecord
100
AcDbLayerTableRecord
  2
해칭선
 70
     0
 62
   100
  6
Continuous
370
    -3
390
F
  0
LAYER
  5
75
330
2
100
AcDbSymbolTableRecord
100
AcDbLayerTableRecord
  2
가는실선
 70
     0
 62
     4
  6
Continuous
370
    -3
390
F
  0
LAYER
  5
76
330
2
100
AcDbSymbolTableRecord
100
AcDbLayerTableRecord
  2
치수_보조선
 70
     0
 62
     4
  6
Continuous
370
    -3
390
F
  0
LAYER
  5
77
330
2
100
AcDbSymbolTableRecord
100
AcDbLayerTableRecord
  2
치수문자_일반주서
 70
     0
 62
     7
  6
Continuous
370
    15
390
F
  0
LAYER
  5
78
330
2
100
AcDbSymbolTableRecord
100
AcDbLayerTableRecord
  2
개별주서
 70
     0
 62
   100
  6
Continuous
370
    30
390
F
  0
LAYER
  5
79
330
2
100
AcDbSymbolTableRecord
100
AcDbLayerTableRecord
  2
중간선
 70
     0
 62
     2
  6
Continuous
370
    15
390
F
  0
LAYER
  5
7A
330
2
100
AcDbSymbolTableRecord
100
AcDbLayerTableRecord
  2
윤곽선
 70
     0
 62
     3
  6
Continuous
370
    40
390
F
  0
LAYER
  5
7B
330
2
100
AcDbSymbolTableRecord
100
AcDbLayerTableRecord
  2
중심마크
 70
     0
 62
   100
  6
Continuous
370
    30
390
F
  0
LAYER
  5
7C
330
2
100
AcDbSymbolTableRecord
100
AcDbLayerTableRecord
  2
가상선
 70
     0
 62
     4
  6
PHANTOM
370
    -3
390
F
  0
LAYER
  5
7D
330
2
100
AcDbSymbolTableRecord
100
AcDbLayerTableRecord
  2
특수지정선
 70
     0
 62
     5
  6
CENTERX2
370
    60
390
F
  0
LAYER
  5
7E
330
2
100
AcDbSymbolTableRecord
100
AcDbLayerTableRecord
  2
참조1
 70
     0
 62
    -4
  6
Continuous
370
    -3
390
F
  0
LAYER
  5
28C
330
2
100
AcDbSymbolTableRecord
100
AcDbLayerTableRecord
  2
Defpoints
 70
     0
 62
     7
  6
Continuous
290
     0
370
    -3
390
F
  0
ENDTAB
  0
TABLE
  2
STYLE
  5
3
330
0
100
AcDbSymbolTable
 70
     2
  0
STYLE
  5
11
330
3
100
AcDbSymbolTableRecord
100
AcDbTextStyleTableRecord
  2
Standard
 70
     0
 40
0.0
 41
1.0
 50
0.0
 71
     0
 42
3.5
  3
txt
  4

  0
STYLE
  5
94
330
3
100
AcDbSymbolTableRecord
100
AcDbTextStyleTableRecord
  2
SLDTEXTSTYLE0
 70
     0
 40
0.0
 41
0.75
 50
0.0
 71
     0
 42
3.5
  3
TXT
  4

  0
ENDTAB
  0
TABLE
  2
VIEW
  5
6
330
0
100
AcDbSymbolTable
 70
     0
  0
ENDTAB
  0
TABLE
  2
UCS
  5
7
330
0
100
AcDbSymbolTable
 70
     0
  0
ENDTAB
  0
TABLE
  2
APPID
  5
9
330
0
100
AcDbSymbolTable
 70
     3
  0
APPID
  5
12
330
9
100
AcDbSymbolTableRecord
100
AcDbRegAppTableRecord
  2
ACAD
 70
     0
  0
APPID
  5
298
330
9
100
AcDbSymbolTableRecord
100
AcDbRegAppTableRecord
  2
PE_URL
 70
     0
  0
APPID
  5
299
330
9
100
AcDbSymbolTableRecord
100
AcDbRegAppTableRecord
  2
ACAD_DSTYLE_DIMRADIAL_EXTENSION
 70
     0
  0
ENDTAB
  0
TABLE
  2
DIMSTYLE
  5
A
330
0
100
AcDbSymbolTable
 70
     4
100
AcDbDimStyleTable
  0
DIMSTYLE
105
27
330
A
100
AcDbSymbolTableRecord
100
AcDbDimStyleTableRecord
  2
ISO-25
 70
     0
 41
2.5
 42
0.625
 43
3.75
 44
1.25
 73
     0
 74
     0
 77
     1
 78
     8
140
2.5
141
2.5
143
0.03937007874016
147
0.625
171
     3
172
     1
178
     0
271
     2
272
     2
274
     3
278
    44
283
     0
284
     8
340
11
  0
DIMSTYLE
105
207
102
{ACAD_REACTORS
330
206
330
245
330
21B
330
231
330
40A
102
}
330
A
100
AcDbSymbolTableRecord
100
AcDbDimStyleTableRecord
  2
SLDDIMSTYLE0
 70
     0
 41
3.302
 44
0.0
 45
0.000000001
 73
     0
 74
     0
 77
     1
 78
     4
 79
     1
140
3.5
143
0.0393700787401575
147
0.875
148
0.000000001
170
     1
172
     1
173
     1
178
     0
271
     2
272
     2
276
     2
284
    12
289
     0
340
94
  0
DIMSTYLE
105
21C
102
{ACAD_REACTORS
102
}
330
A
100
AcDbSymbolTableRecord
100
AcDbDimStyleTableRecord
  2
SLDDIMSTYLE1
 70
     0
 41
3.302
 44
0.0
 45
0.000000001
 73
     0
 74
     0
 77
     1
 78
    12
 79
     3
140
3.5
143
0.0393700787401575
147
0.875
148
0.000000001
170
     1
172
     1
173
     1
178
     0
271
     2
272
     2
276
     2
284
    12
289
     0
340
94
  0
DIMSTYLE
105
232
102
{ACAD_REACTORS
102
}
330
A
100
AcDbSymbolTableRecord
100
AcDbDimStyleTableRecord
  2
SLDDIMSTYLE2
 70
     0
 41
3.302
 44
0.0
 45
0.000000001
 73
     0
 74
     0
 77
     1
 78
     4
 79
     1
140
3.5
143
0.0393700787401575
147
0.875
148
0.000000001
170
     1
173
     1
178
     0
271
     2
272
     2
276
     2
284
    12
340
94
  0
ENDTAB
  0
TABLE
  2
BLOCK_RECORD
  5
1
330
0
100
AcDbSymbolTable
 70
    19
  0
BLOCK_RECORD
  5
1F
330
1
100
AcDbSymbolTableRecord
100
AcDbBlockTableRecord
  2
*Model_Space
340
22
  0
BLOCK_RECORD
  5
1B
330
1
100
AcDbSymbolTableRecord
100
AcDbBlockTableRecord
  2
*Paper_Space
340
1E
  0
BLOCK_RECORD
  5
23
330
1
100
AcDbSymbolTableRecord
100
AcDbBlockTableRecord
  2
*Paper_Space0
340
26
  0
BLOCK_RECORD
  5
7F
330
1
100
AcDbSymbolTableRecord
100
AcDbBlockTableRecord
  2
블럭10
340
0
102
{BLKREFS
331
1FF
102
}
  0
BLOCK_RECORD
  5
208
330
1
100
AcDbSymbolTableRecord
100
AcDbBlockTableRecord
  2
_D
340
0
  0
BLOCK_RECORD
  5
21D
330
1
100
AcDbSymbolTableRecord
100
AcDbBlockTableRecord
  2
_D_1
340
0
  0
BLOCK_RECORD
  5
233
330
1
100
AcDbSymbolTableRecord
100
AcDbBlockTableRecord
  2
_D_2
340
0
  0
BLOCK_RECORD
  5
246
330
1
100
AcDbSymbolTableRecord
100
AcDbBlockTableRecord
  2
_D_3
340
0
  0
BLOCK_RECORD
  5
260
330
1
100
AcDbSymbolTableRecord
100
AcDbBlockTableRecord
  2
SW_DOWELSYMBOL_0
340
0
102
{BLKREFS
331
266
102
}
  0
BLOCK_RECORD
  5
322
330
1
100
AcDbSymbolTableRecord
100
AcDbBlockTableRecord
  2
_D_4
340
0
  0
BLOCK_RECORD
  5
33C
330
1
100
AcDbSymbolTableRecord
100
AcDbBlockTableRecord
  2
*D8
340
0
  0
BLOCK_RECORD
  5
348
330
1
100
AcDbSymbolTableRecord
100
AcDbBlockTableRecord
  2
*D9
340
0
  0
BLOCK_RECORD
  5
354
330
1
100
AcDbSymbolTableRecord
100
AcDbBlockTableRecord
  2
*D10
340
0
  0
BLOCK_RECORD
  5
360
330
1
100
AcDbSymbolTableRecord
100
AcDbBlockTableRecord
  2
*D11
340
0
  0
BLOCK_RECORD
  5
3BA
330
1
100
AcDbSymbolTableRecord
100
AcDbBlockTableRecord
  2
*D12
340
0
  0
BLOCK_RECORD
  5
3C6
330
1
100
AcDbSymbolTableRecord
100
AcDbBlockTableRecord
  2
*D13
340
0
  0
BLOCK_RECORD
  5
3D2
330
1
100
AcDbSymbolTableRecord
100
AcDbBlockTableRecord
  2
*D14
340
0
  0
BLOCK_RECORD
  5
3E0
330
1
100
AcDbSymbolTableRecord
100
AcDbBlockTableRecord
  2
*D15
340
0
  0
BLOCK_RECORD
  5
3EE
330
1
100
AcDbSymbolTableRecord
100
AcDbBlockTableRecord
  2
*D16
340
0
  0
BLOCK_RECORD
  5
40D
330
1
100
AcDbSymbolTableRecord
100
AcDbBlockTableRecord
  2
*D17
340
0
  0
ENDTAB
  0
ENDSEC
  0
SECTION
  2
BLOCKS
  0
BLOCK
  5
20
330
1F
100
AcDbEntity
  8
0
100
AcDbBlockBegin
  2
*Model_Space
 70
     0
 10
0.0
 20
0.0
 30
0.0
  3
*Model_Space
  1
*Model_Space
  0
ENDBLK
  5
21
330
1F
100
AcDbEntity
  8
0
100
AcDbBlockEnd
  0
BLOCK
  5
1C
330
1B
100
AcDbEntity
 67
     1
  8
0
100
AcDbBlockBegin
  2
*Paper_Space
 70
     0
 10
0.0
 20
0.0
 30
0.0
  3
*Paper_Space
  1
*Paper_Space
  0
ENDBLK
  5
1D
330
1B
100
AcDbEntity
 67
     1
  8
0
100
AcDbBlockEnd
  0
BLOCK
  5
24
330
23
100
AcDbEntity
  8
0
100
AcDbBlockBegin
  2
*Paper_Space0
 70
     0
 10
0.0
 20
0.0
 30
0.0
  3
*Paper_Space0
  1
*Paper_Space0
  0
ENDBLK
  5
25
330
23
100
AcDbEntity
  8
0
100
AcDbBlockEnd
  0
BLOCK
  5
80
330
7F
100
AcDbEntity
  8
0
100
AcDbBlockBegin
  2
블럭10
 70
     2
 10
0.0
 20
0.0
 30
0.0
  3
블럭10
  1
블럭10
  0
ELLIPSE
  5
82
330
7F
100
AcDbEntity
  8
중심선
100
AcDbEllipse
 10
20.54032771741204
 20
12.0471743016438
 30
0.0
 11
6.600054785286829
 21
-1.261213355974178E-13
 31
0.0
210
0.0
220
0.0
230
1.0
 40
0.636358354079598
 41
0.9219305317359503
 42
6.513795318482858
  0
ELLIPSE
  5
83
330
7F
100
AcDbEntity
  8
중심선
100
AcDbEllipse
 10
20.54032771746488
 20
12.04717430159265
 30
0.0
 11
3.960054785062283
 21
1.540847449632565E-10
 31
0.0
210
0.0
220
0.0
230
1.0
 40
0.3939339440162632
 41
1.131841032648279
 42
5.62031148352944
  0
LINE
  5
84
330
7F
100
AcDbEntity
  8
중심선
100
AcDbLine
 10
2.268634060543552
 20
16.24717430164393
 30
0.0
 11
5.714909304380834
 21
16.24717430164393
 31
0.0
  0
LINE
  5
85
330
7F
100
AcDbEntity
  8
중심선
100
AcDbLine
 10
5.245725140726316
 20
7.84717430164391
 30
0.0
 11
8.692000384563599
 21
7.84717430164391
 31
0.0
  0
LINE
  5
86
330
7F
100
AcDbEntity
  8
중심선
100
AcDbLine
 10
15.74043728645272
 20
16.24717430164393
 30
0.0
 11
8.692000384563599
 21
7.84717430164391
 31
0.0
  0
LINE
  5
87
330
7F
100
AcDbEntity
  8
중심선
100
AcDbLine
 10
0.1404042013395286
 20
13.71084872107135
 30
0.0
 11
3.58671253028996
 21
13.71088815037384
 31
0.0
  0
LINE
  5
88
330
7F
100
AcDbEntity
  8
중심선
100
AcDbLine
 10
2.750260043222114
 20
10.84717430164391
 30
0.0
 11
6.196535287059397
 21
10.84717430164391
 31
0.0
  0
LINE
  5
89
330
7F
100
AcDbEntity
  8
중심선
100
AcDbLine
 10
12.29416204261559
 20
16.24717430164393
 30
0.0
 11
5.245725140726316
 21
7.84717430164391
 31
0.0
  0
LINE
  5
8A
330
7F
100
AcDbEntity
  8
중심선
100
AcDbLine
 10
10.72767329541681
 20
16.24717430164393
 30
0.0
 11
6.196535287059397
 21
10.84717430164391
 31
0.0
  0
LINE
  5
8B
330
7F
100
AcDbEntity
  8
중심선
100
AcDbLine
 10
7.28139805157953
 20
16.24717430164393
 30
0.0
 11
2.750260043222114
 21
10.84717430164391
 31
0.0
  0
LINE
  5
8C
330
7F
100
AcDbEntity
  8
중심선
100
AcDbLine
 10
5.714909304380834
 20
16.24717430164393
 30
0.0
 11
3.58671253028996
 21
13.71088815037384
 31
0.0
  0
LINE
  5
8D
330
7F
100
AcDbEntity
  8
중심선
100
AcDbLine
 10
2.268634060543552
 20
16.24717430164393
 30
0.0
 11
0.1404042013395286
 21
13.71084872107135
 31
0.0
  0
LINE
  5
8E
330
7F
100
AcDbEntity
  8
중심선
100
AcDbLine
 10
7.28139805157953
 20
16.24717430164393
 30
0.0
 11
10.72767329541681
 21
16.24717430164393
 31
0.0
  0
LINE
  5
8F
330
7F
100
AcDbEntity
  8
중심선
100
AcDbLine
 10
12.29416204261559
 20
16.24717430164393
 30
0.0
 11
15.74043728645272
 21
16.24717430164393
 31
0.0
  0
LINE
  5
90
330
7F
100
AcDbEntity
  8
중심선
100
AcDbLine
 10
19.22036997980202
 20
11.08717430171403
 30
0.0
 11
23.66174974927406
 21
11.08717430171406
 31
0.0
  0
LINE
  5
91
330
7F
100
AcDbEntity
  8
중심선
100
AcDbLine
 10
19.22039502424796
 20
13.00717430171391
 30
0.0
 11
19.22036997980202
 21
11.08717430171403
 31
0.0
  0
LINE
  5
92
330
7F
100
AcDbEntity
  8
중심선
100
AcDbLine
 10
19.22039502424796
 20
13.00717430171391
 30
0.0
 11
26.96566020931264
 21
13.00717430171391
 31
0.0
  0
LINE
  5
93
330
7F
100
AcDbEntity
  8
중심선
100
AcDbLine
 10
22.22332737316547
 20
13.45928029700563
 30
0.0
 11
24.52862924686651
 21
15.39360700705356
 31
0.0
  0
ATTDEF
  5
95
330
7F
100
AcDbEntity
  8
FORMAT
 62
     2
100
AcDbText
 10
-9.18129528874128
 20
2.075366912832191
 30
0.0
 40
4.233333333333333
  1
E5056032 [ 5 FLUTE ]
 41
0.75
  7
SLDTEXTSTYLE0
 11
-9.18129528874128
 21
-0.0412997538344756
 31
0.0
100
AcDbAttributeDefinition
  3

  2
AUTOATTR0
 70
     0
 74
     1
  0
ENDBLK
  5
81
330
7F
100
AcDbEntity
  8
0
100
AcDbBlockEnd
  0
BLOCK
  5
209
330
208
100
AcDbEntity
  8
0
100
AcDbBlockBegin
  2
_D
 70
     0
 10
0.0
 20
0.0
 30
0.0
  3
_D
  1
_D
  0
LINE
  5
20B
330
208
100
AcDbEntity
  8
치수문자_일반주서
 62
     0
370
    -2
100
AcDbLine
 10
-36.68749999999997
 20
6.349999999999989
 30
0.0
 11
-52.15651202145906
 21
6.349999999999927
 31
0.0
  0
LINE
  5
20C
330
208
100
AcDbEntity
  8
치수문자_일반주서
 62
     0
370
    -2
100
AcDbLine
 10
-36.68749999999997
 20
-6.35
 30
0.0
 11
-52.15651202145902
 21
-6.350000000000058
 31
0.0
  0
LINE
  5
20D
330
208
100
AcDbEntity
  8
치수문자_일반주서
 62
     0
370
    -2
100
AcDbLine
 10
-52.15651202145906
 20
6.349999999999927
 30
0.0
 11
-52.15651202145917
 21
40.07899999999994
 31
0.0
  0
LINE
  5
20E
330
208
100
AcDbEntity
  8
치수문자_일반주서
 62
     0
370
    -2
100
AcDbLine
 10
-52.15651202145906
 20
6.349999999999927
 30
0.0
 11
-52.15651202145902
 21
-6.350000000000058
 31
0.0
  0
LINE
  5
20F
330
208
100
AcDbEntity
  8
치수문자_일반주서
 62
     0
370
    -2
100
AcDbLine
 10
-52.15651202145907
 20
9.651999999999926
 30
0.0
 11
-52.15651202145909
 21
12.95399999999993
 31
0.0
  0
LINE
  5
210
330
208
100
AcDbEntity
  8
치수문자_일반주서
 62
     0
370
    -2
100
AcDbLine
 10
-52.156512021459
 20
-9.652000000000058
 30
0.0
 11
-52.15651202145899
 21
-12.95400000000006
 31
0.0
  0
SOLID
  5
211
330
208
100
AcDbEntity
  8
치수문자_일반주서
 62
     0
100
AcDbTrace
 10
-52.70684535479241
 20
9.651999999999925
 30
0.0
 11
-51.60617868812574
 21
9.651999999999928
 31
0.0
 12
-52.15651202145906
 22
6.349999999999927
 32
0.0
 13
-52.15651202145906
 23
6.349999999999927
 33
0.0
  0
SOLID
  5
212
330
208
100
AcDbEntity
  8
치수문자_일반주서
 62
     0
100
AcDbTrace
 10
-51.60617868812567
 20
-9.652000000000056
 30
0.0
 11
-52.70684535479234
 21
-9.65200000000006
 31
0.0
 12
-52.15651202145902
 22
-6.350000000000058
 32
0.0
 13
-52.15651202145902
 23
-6.350000000000058
 33
0.0
  0
MTEXT
  5
213
330
208
100
AcDbEntity
  8
치수문자_일반주서
 62
     0
100
AcDbMText
 10
-56.53151202145913
 20
26.73524999999992
 30
0.0
 40
3.5
 41
0.0
 71
     2
 72
     1
  1
\A1;%%c12.70 [1/2]
  7
SLDTEXTSTYLE0
 11
-3.356894814614650E-15
 21
1.0
 31
0.0
 73
     1
 44
1.0
  0
POINT
  5
3FA
330
208
100
AcDbEntity
  8
Defpoints
 62
     0
100
AcDbPoint
 10
-36.62499999999997
 20
6.349999999999989
 30
0.0
  0
POINT
  5
3FB
330
208
100
AcDbEntity
  8
Defpoints
 62
     0
100
AcDbPoint
 10
-36.62499999999997
 20
-6.35
 30
0.0
  0
POINT
  5
3FC
330
208
100
AcDbEntity
  8
Defpoints
 62
     0
100
AcDbPoint
 10
-52.15651202145902
 20
-6.350000000000057
 30
0.0
  0
ENDBLK
  5
20A
330
208
100
AcDbEntity
  8
0
100
AcDbBlockEnd
  0
BLOCK
  5
21E
330
21D
100
AcDbEntity
  8
0
100
AcDbBlockBegin
  2
_D_1
 70
     0
 10
0.0
 20
0.0
 30
0.0
  3
_D_1
  1
_D_1
  0
LINE
  5
220
330
21D
100
AcDbEntity
  8
치수문자_일반주서
 62
     0
370
    -2
100
AcDbLine
 10
25.875
 20
6.412499923259015
 30
0.0
 11
25.875
 21
21.89140635193266
 31
0.0
  0
LINE
  5
221
330
21D
100
AcDbEntity
  8
치수문자_일반주서
 62
     0
370
    -2
100
AcDbLine
 10
10.0
 20
-3.463474975945167
 30
0.0
 11
10.0
 21
21.89140635193266
 31
0.0
  0
LINE
  5
222
330
21D
100
AcDbEntity
  8
치수문자_일반주서
 62
     0
370
    -2
100
AcDbLine
 10
22.573
 20
21.89140635193266
 30
0.0
 11
13.302
 21
21.89140635193266
 31
0.0
  0
SOLID
  5
223
330
21D
100
AcDbEntity
  8
치수문자_일반주서
 62
     0
100
AcDbTrace
 10
22.573
 20
21.34107301859932
 30
0.0
 11
22.573
 21
22.44173968526599
 31
0.0
 12
25.875
 22
21.89140635193266
 32
0.0
 13
25.875
 23
21.89140635193266
 33
0.0
  0
SOLID
  5
224
330
21D
100
AcDbEntity
  8
치수문자_일반주서
 62
     0
100
AcDbTrace
 10
13.302
 20
22.44173968526599
 30
0.0
 11
13.302
 21
21.34107301859932
 31
0.0
 12
10.0
 22
21.89140635193266
 32
0.0
 13
10.0
 23
21.89140635193266
 33
0.0
  0
MTEXT
  5
225
330
21D
100
AcDbEntity
  8
치수문자_일반주서
 62
     0
100
AcDbMText
 10
17.5463001079994
 20
26.26640635193266
 30
0.0
 40
3.5
 41
0.0
 71
     2
 72
     1
  1
\A1;15.88 [5/8]
  7
SLDTEXTSTYLE0
 73
     1
 44
1.0
  0
POINT
  5
226
330
21D
100
AcDbEntity
  8
Defpoints
 62
     0
100
AcDbPoint
 10
25.875
 20
6.349999923259015
 30
0.0
  0
POINT
  5
227
330
21D
100
AcDbEntity
  8
Defpoints
 62
     0
100
AcDbPoint
 10
10.0
 20
-3.525974975945167
 30
0.0
  0
POINT
  5
228
330
21D
100
AcDbEntity
  8
Defpoints
 62
     0
100
AcDbPoint
 10
10.0
 20
21.89140635193266
 30
0.0
  0
ENDBLK
  5
21F
330
21D
100
AcDbEntity
  8
0
100
AcDbBlockEnd
  0
BLOCK
  5
234
330
233
100
AcDbEntity
  8
0
100
AcDbBlockBegin
  2
_D_2
 70
     0
 10
0.0
 20
0.0
 30
0.0
  3
_D_2
  1
_D_2
  0
LINE
  5
236
330
233
100
AcDbEntity
  8
치수문자_일반주서
 62
     0
370
    -2
100
AcDbLine
 10
-37.625
 20
5.412499999999989
 30
0.0
 11
-37.625
 21
37.41299028620471
 31
0.0
  0
LINE
  5
237
330
233
100
AcDbEntity
  8
치수문자_일반주서
 62
     0
370
    -2
100
AcDbLine
 10
25.875
 20
6.412499923259015
 30
0.0
 11
25.875
 21
37.41299028620471
 31
0.0
  0
LINE
  5
238
330
233
100
AcDbEntity
  8
치수문자_일반주서
 62
     0
370
    -2
100
AcDbLine
 10
-34.323
 20
37.41299028620471
 30
0.0
 11
22.573
 21
37.41299028620471
 31
0.0
  0
SOLID
  5
239
330
233
100
AcDbEntity
  8
치수문자_일반주서
 62
     0
100
AcDbTrace
 10
-34.323
 20
37.96332361953804
 30
0.0
 11
-34.323
 21
36.86265695287138
 31
0.0
 12
-37.625
 22
37.41299028620471
 32
0.0
 13
-37.625
 23
37.41299028620471
 33
0.0
  0
SOLID
  5
23A
330
233
100
AcDbEntity
  8
치수문자_일반주서
 62
     0
100
AcDbTrace
 10
22.573
 20
36.86265695287138
 30
0.0
 11
22.573
 21
37.96332361953804
 31
0.0
 12
25.875
 22
37.41299028620471
 32
0.0
 13
25.875
 23
37.41299028620471
 33
0.0
  0
MTEXT
  5
23B
330
233
100
AcDbEntity
  8
치수문자_일반주서
 62
     0
100
AcDbMText
 10
-5.874999999999996
 20
41.78799028620471
 30
0.0
 40
3.5
 41
0.0
 71
     2
 72
     1
  1
\A1;63.50 [2 1/2]
  7
SLDTEXTSTYLE0
 73
     1
 44
1.0
  0
POINT
  5
23C
330
233
100
AcDbEntity
  8
Defpoints
 62
     0
100
AcDbPoint
 10
-37.625
 20
5.349999999999989
 30
0.0
  0
POINT
  5
23D
330
233
100
AcDbEntity
  8
Defpoints
 62
     0
100
AcDbPoint
 10
25.875
 20
6.349999923259015
 30
0.0
  0
POINT
  5
23E
330
233
100
AcDbEntity
  8
Defpoints
 62
     0
100
AcDbPoint
 10
25.875
 20
37.41299028620471
 30
0.0
  0
ENDBLK
  5
235
330
233
100
AcDbEntity
  8
0
100
AcDbBlockEnd
  0
BLOCK
  5
247
330
246
100
AcDbEntity
  8
0
100
AcDbBlockBegin
  2
_D_3
 70
     0
 10
0.0
 20
0.0
 30
0.0
  3
_D_3
  1
_D_3
  0
LINE
  5
249
330
246
100
AcDbEntity
  8
치수문자_일반주서
 62
     0
370
    -2
100
AcDbLine
 10
25.9375
 20
6.349999923259015
 30
0.0
 11
56.13708621808431
 21
6.34999992325913
 31
0.0
  0
LINE
  5
24A
330
246
100
AcDbEntity
  8
치수문자_일반주서
 62
     0
370
    -2
100
AcDbLine
 10
25.9375
 20
-6.349999999999943
 30
0.0
 11
56.13708621808436
 21
-6.349999999999827
 31
0.0
  0
LINE
  5
24B
330
246
100
AcDbEntity
  8
치수문자_일반주서
 62
     0
370
    -2
100
AcDbLine
 10
56.13708621808431
 20
6.34999992325913
 30
0.0
 11
56.1370862180842
 21
40.90004921051055
 31
0.0
  0
LINE
  5
24C
330
246
100
AcDbEntity
  8
치수문자_일반주서
 62
     0
370
    -2
100
AcDbLine
 10
56.13708621808431
 20
6.34999992325913
 30
0.0
 11
56.13708621808436
 21
-6.349999999999827
 31
0.0
  0
LINE
  5
24D
330
246
100
AcDbEntity
  8
치수문자_일반주서
 62
     0
370
    -2
100
AcDbLine
 10
56.1370862180843
 20
9.65199992325913
 30
0.0
 11
56.13708621808428
 21
12.95399992325913
 31
0.0
  0
LINE
  5
24E
330
246
100
AcDbEntity
  8
치수문자_일반주서
 62
     0
370
    -2
100
AcDbLine
 10
56.13708621808437
 20
-9.651999999999827
 30
0.0
 11
56.13708621808438
 21
-12.95399999999983
 31
0.0
  0
SOLID
  5
24F
330
246
100
AcDbEntity
  8
치수문자_일반주서
 62
     0
100
AcDbTrace
 10
55.58675288475096
 20
9.651999923259128
 30
0.0
 11
56.68741955141763
 21
9.651999923259131
 31
0.0
 12
56.13708621808431
 22
6.34999992325913
 32
0.0
 13
56.13708621808431
 23
6.34999992325913
 33
0.0
  0
SOLID
  5
250
330
246
100
AcDbEntity
  8
치수문자_일반주서
 62
     0
100
AcDbTrace
 10
56.6874195514177
 20
-9.651999999999825
 30
0.0
 11
55.58675288475104
 21
-9.651999999999829
 31
0.0
 12
56.13708621808436
 22
-6.349999999999827
 32
0.0
 13
56.13708621808436
 23
-6.349999999999827
 33
0.0
  0
MTEXT
  5
251
330
246
100
AcDbEntity
  8
치수문자_일반주서
 62
     0
100
AcDbMText
 10
51.76208621808424
 20
27.55629921051053
 30
0.0
 40
3.5
 41
0.0
 71
     2
 72
     1
  1
\A1;%%c12.70 [1/2]
  7
SLDTEXTSTYLE0
 11
-3.356894834899025E-15
 21
1.0
 31
0.0
 73
     1
 44
1.0
  0
POINT
  5
3F7
330
246
100
AcDbEntity
  8
Defpoints
 62
     0
100
AcDbPoint
 10
25.875
 20
6.349999923259015
 30
0.0
  0
POINT
  5
3F8
330
246
100
AcDbEntity
  8
Defpoints
 62
     0
100
AcDbPoint
 10
25.875
 20
-6.349999999999943
 30
0.0
  0
POINT
  5
3F9
330
246
100
AcDbEntity
  8
Defpoints
 62
     0
100
AcDbPoint
 10
56.13708621808435
 20
-6.34999999999983
 30
0.0
  0
ENDBLK
  5
248
330
246
100
AcDbEntity
  8
0
100
AcDbBlockEnd
  0
BLOCK
  5
261
330
260
100
AcDbEntity
  8
0
100
AcDbBlockBegin
  2
SW_DOWELSYMBOL_0
 70
     0
 10
0.0
 20
0.0
 30
0.0
  3
SW_DOWELSYMBOL_0
  1
SW_DOWELSYMBOL_0
  0
CIRCLE
  5
263
330
260
100
AcDbEntity
  8
해칭선
 62
     0
100
AcDbCircle
 10
0.0
 20
0.0
 30
0.0
 40
3.000000000000001
  0
HATCH
  5
264
330
260
100
AcDbEntity
  8
0
  6
Continuous
 62
     0
370
     0
100
AcDbHatch
 10
0.0
 20
0.0
 30
0.0
210
0.0
220
0.0
230
1.0
  2
SOLID
 70
     1
 71
     0
 91
        1
 92
        0
 93
        3
 72
     2
 10
0.0000000000000069
 20
0.0
 40
3.000000000000001
 50
0.0
 51
90.0
 73
     1
 72
     1
 10
0.0000000000000069
 20
3.000000000000001
 11
0.0000000000000069
 21
0.0
 72
     1
 10
0.0000000000000069
 20
0.0
 11
3.000000000000008
 21
0.0
 97
        0
 75
     0
 76
     1
 98
        1
 10
0.0
 20
0.0
  0
HATCH
  5
265
330
260
100
AcDbEntity
  8
0
  6
Continuous
 62
     0
370
     0
100
AcDbHatch
 10
0.0
 20
0.0
 30
0.0
210
0.0
220
0.0
230
1.0
  2
SOLID
 70
     1
 71
     0
 91
        1
 92
        0
 93
        3
 72
     2
 10
0.0000000000000069
 20
0.0
 40
3.000000000000001
 50
180.0
 51
270.0000000000007
 73
     1
 72
     1
 10
0.0000000000000069
 20
-3.000000000000001
 11
0.0000000000000069
 21
0.0
 72
     1
 10
0.0000000000000069
 20
0.0
 11
-2.999999999999994
 21
0.0
 97
        0
 75
     0
 76
     1
 98
        1
 10
0.0
 20
0.0
  0
ENDBLK
  5
262
330
260
100
AcDbEntity
  8
0
100
AcDbBlockEnd
  0
BLOCK
  5
323
330
322
100
AcDbEntity
  8
0
100
AcDbBlockBegin
  2
_D_4
 70
     0
 10
0.0
 20
0.0
 30
0.0
  3
_D_4
  1
_D_4
  0
LINE
  5
324
330
322
100
AcDbEntity
  8
치수문자_일반주서
 62
     0
370
    -2
100
AcDbLine
 10
102.4375000000001
 20
36.22143424691529
 30
0.0
 11
117.3750000000001
 21
36.22143424691535
 31
0.0
  0
LINE
  5
325
330
322
100
AcDbEntity
  8
치수문자_일반주서
 62
     0
370
    -2
100
AcDbLine
 10
102.4375000000001
 20
22.22143424691529
 30
0.0
 11
117.3750000000001
 21
22.22143424691535
 31
0.0
  0
LINE
  5
326
330
322
100
AcDbEntity
  8
치수문자_일반주서
 62
     0
370
    -2
100
AcDbLine
 10
117.3750000000001
 20
36.22143424691535
 30
0.0
 11
117.3750000000001
 21
22.22143424691535
 31
0.0
  0
LINE
  5
327
330
322
100
AcDbEntity
  8
치수문자_일반주서
 62
     0
370
    -2
100
AcDbLine
 10
117.3750000000001
 20
39.52343424691535
 30
0.0
 11
117.375
 21
42.82543424691535
 31
0.0
  0
LINE
  5
328
330
322
100
AcDbEntity
  8
치수문자_일반주서
 62
     0
370
    -2
100
AcDbLine
 10
117.3750000000001
 20
18.91943424691535
 30
0.0
 11
117.3750000000001
 21
15.61743424691535
 31
0.0
  0
SOLID
  5
329
330
322
100
AcDbEntity
  8
치수문자_일반주서
 62
     0
100
AcDbTrace
 10
116.8246666666667
 20
39.52343424691535
 30
0.0
 11
117.9253333333334
 21
39.52343424691535
 31
0.0
 12
117.3750000000001
 22
36.22143424691535
 32
0.0
 13
117.3750000000001
 23
36.22143424691535
 33
0.0
  0
SOLID
  5
32A
330
322
100
AcDbEntity
  8
치수문자_일반주서
 62
     0
100
AcDbTrace
 10
117.9253333333335
 20
18.91943424691535
 30
0.0
 11
116.8246666666668
 21
18.91943424691535
 31
0.0
 12
117.3750000000001
 22
22.22143424691535
 32
0.0
 13
117.3750000000001
 23
22.22143424691535
 33
0.0
  0
MTEXT
  5
32B
330
322
100
AcDbEntity
  8
치수문자_일반주서
 62
     0
100
AcDbMText
 10
113.0000000000001
 20
29.28713862862833
 30
0.0
 40
3.5
 41
0.0
 71
     2
 72
     1
  1
\A1;%%c14.00 [0.55]
  7
SLDTEXTSTYLE0
 11
-3.045183153257572E-15
 21
1.0
 31
0.0
 73
     1
 44
1.0
  0
POINT
  5
32C
330
322
100
AcDbEntity
  8
Defpoints
 62
     0
100
AcDbPoint
 10
102.3750000000001
 20
36.22143424691529
 30
0.0
  0
POINT
  5
32D
330
322
100
AcDbEntity
  8
Defpoints
 62
     0
100
AcDbPoint
 10
102.3750000000001
 20
22.22143424691529
 30
0.0
  0
POINT
  5
32E
330
322
100
AcDbEntity
  8
Defpoints
 62
     0
100
AcDbPoint
 10
117.3750000000001
 20
22.22143424691535
 30
0.0
  0
ENDBLK
  5
32F
330
322
100
AcDbEntity
  8
0
100
AcDbBlockEnd
  0
BLOCK
  5
33D
330
33C
100
AcDbEntity
  8
0
100
AcDbBlockBegin
  2
*D8
 70
     1
 10
0.0
 20
0.0
 30
0.0
  3
*D8
  1
*D8
  0
LINE
  5
33E
330
33C
100
AcDbEntity
  8
치수문자_일반주서
 62
     0
370
    -2
100
AcDbLine
 10
103.8657751816695
 20
19.48229575403651
 30
0.0
 11
119.6194267469468
 21
-6.150060756304035
 31
0.0
  0
MTEXT
  5
33F
330
33C
100
AcDbEntity
  8
치수문자_일반주서
 62
     0
100
AcDbMText
 10
115.6706384014277
 20
5.288158154535728
 30
0.0
 40
3.5
 41
0.0
 71
     5
 72
     1
  1
\A1;R.5 [R0.02]
  7
SLDTEXTSTYLE0
 11
0.5236126201129557
 21
-0.8519564684057781
 31
0.0
 73
     1
 44
1.0
  0
LINE
  5
340
330
33C
100
AcDbEntity
  8
치수문자_일반주서
 62
     0
370
    -2
100
AcDbLine
 10
101.875
 20
22.72143424691529
 30
0.0
 11
102.1368063100565
 21
22.29545601271239
 31
0.0
  0
SOLID
  5
341
330
33C
100
AcDbEntity
  8
치수문자_일반주서
 62
     0
100
AcDbTrace
 10
104.3346352247821
 20
19.77045723263868
 30
0.0
 11
103.3969151385569
 21
19.19413427543435
 31
0.0
 12
102.1368063100565
 22
22.29545601271239
 32
0.0
 13
102.1368063100565
 23
22.29545601271239
 33
0.0
  0
POINT
  5
342
330
33C
100
AcDbEntity
  8
Defpoints
 62
     0
100
AcDbPoint
 10
102.1368063100565
 20
22.29545601271239
 30
0.0
  0
POINT
  5
36E
330
33C
100
AcDbEntity
  8
Defpoints
 62
     0
100
AcDbPoint
 10
101.875
 20
22.72143424691529
 30
0.0
  0
ENDBLK
  5
343
330
33C
100
AcDbEntity
  8
0
100
AcDbBlockEnd
  0
BLOCK
  5
349
330
348
100
AcDbEntity
  8
0
100
AcDbBlockBegin
  2
*D9
 70
     1
 10
0.0
 20
0.0
 30
0.0
  3
*D9
  1
*D10
  0
LINE
  5
34B
330
348
100
AcDbEntity
  8
치수문자_일반주서
 62
     0
370
    -2
100
AcDbLine
 10
19.37500000000004
 20
35.78393424691529
 30
0.0
 11
19.37500000000004
 21
70.88391841499404
 31
0.0
  0
LINE
  5
34C
330
348
100
AcDbEntity
  8
치수문자_일반주서
 62
     0
370
    -2
100
AcDbLine
 10
102.3750000000001
 20
36.34643424691529
 30
0.0
 11
102.3750000000001
 21
70.88391841499404
 31
0.0
  0
LINE
  5
34D
330
348
100
AcDbEntity
  8
치수문자_일반주서
 62
     0
370
    -2
100
AcDbLine
 10
22.67700000000004
 20
70.88391841499404
 30
0.0
 11
99.07300000000006
 21
70.88391841499404
 31
0.0
  0
SOLID
  5
34E
330
348
100
AcDbEntity
  8
치수문자_일반주서
 62
     0
100
AcDbTrace
 10
22.67700000000004
 20
71.43425174832737
 30
0.0
 11
22.67700000000004
 21
70.33358508166071
 31
0.0
 12
19.37500000000004
 22
70.88391841499404
 32
0.0
 13
19.37500000000004
 23
70.88391841499404
 33
0.0
  0
SOLID
  5
34F
330
348
100
AcDbEntity
  8
치수문자_일반주서
 62
     0
100
AcDbTrace
 10
99.07300000000006
 20
70.33358508166071
 30
0.0
 11
99.07300000000006
 21
71.43425174832737
 31
0.0
 12
102.3750000000001
 22
70.88391841499404
 32
0.0
 13
102.3750000000001
 23
70.88391841499404
 33
0.0
  0
MTEXT
  5
350
330
348
100
AcDbEntity
  8
치수문자_일반주서
 62
     0
100
AcDbMText
 10
60.87500000000005
 20
75.25891841499404
 30
0.0
 40
3.5
 41
0.0
 71
     2
 72
     1
  1
\A1;83.00 [3.27]
  7
SLDTEXTSTYLE0
 73
     1
 44
1.0
  0
POINT
  5
351
330
348
100
AcDbEntity
  8
Defpoints
 62
     0
100
AcDbPoint
 10
19.37500000000004
 20
35.72143424691529
 30
0.0
  0
POINT
  5
352
330
348
100
AcDbEntity
  8
Defpoints
 62
     0
100
AcDbPoint
 10
102.3750000000001
 20
36.28393424691529
 30
0.0
  0
POINT
  5
353
330
348
100
AcDbEntity
  8
Defpoints
 62
     0
100
AcDbPoint
 10
102.3750000000001
 20
70.88391841499404
 30
0.0
  0
ENDBLK
  5
34A
330
348
100
AcDbEntity
  8
0
100
AcDbBlockEnd
  0
BLOCK
  5
355
330
354
100
AcDbEntity
  8
0
100
AcDbBlockBegin
  2
*D10
 70
     1
 10
0.0
 20
0.0
 30
0.0
  3
*D10
  1
*D11
  0
LINE
  5
357
330
354
100
AcDbEntity
  8
치수문자_일반주서
 62
     0
370
    -2
100
AcDbLine
 10
76.37504186422882
 20
28.62038676313042
 30
0.0
 11
76.37504186422882
 21
61.90091383617725
 31
0.0
  0
LINE
  5
358
330
354
100
AcDbEntity
  8
치수문자_일반주서
 62
     0
370
    -2
100
AcDbLine
 10
102.3750000000001
 20
36.28393424691529
 30
0.0
 11
102.3750000000001
 21
61.90091383617725
 31
0.0
  0
LINE
  5
359
330
354
100
AcDbEntity
  8
치수문자_일반주서
 62
     0
370
    -2
100
AcDbLine
 10
79.67704186422881
 20
61.90091383617725
 30
0.0
 11
99.07300000000006
 21
61.90091383617725
 31
0.0
  0
SOLID
  5
35A
330
354
100
AcDbEntity
  8
치수문자_일반주서
 62
     0
100
AcDbTrace
 10
79.67704186422881
 20
62.45124716951059
 30
0.0
 11
79.67704186422881
 21
61.35058050284392
 31
0.0
 12
76.37504186422882
 22
61.90091383617725
 32
0.0
 13
76.37504186422882
 23
61.90091383617725
 33
0.0
  0
SOLID
  5
35B
330
354
100
AcDbEntity
  8
치수문자_일반주서
 62
     0
100
AcDbTrace
 10
99.07300000000006
 20
61.35058050284392
 30
0.0
 11
99.07300000000006
 21
62.45124716951059
 31
0.0
 12
102.3750000000001
 22
61.90091383617725
 32
0.0
 13
102.3750000000001
 23
61.90091383617725
 33
0.0
  0
MTEXT
  5
35C
330
354
100
AcDbEntity
  8
치수문자_일반주서
 62
     0
100
AcDbMText
 10
89.42159572693208
 20
66.27591383617725
 30
0.0
 40
3.5
 41
0.0
 71
     2
 72
     1
  1
\A1;26.00 [1.02]
  7
SLDTEXTSTYLE0
 73
     1
 44
1.0
  0
POINT
  5
35D
330
354
100
AcDbEntity
  8
Defpoints
 62
     0
100
AcDbPoint
 10
76.37504186422882
 20
28.55788676313042
 30
0.0
  0
POINT
  5
35E
330
354
100
AcDbEntity
  8
Defpoints
 62
     0
100
AcDbPoint
 10
102.3750000000001
 20
36.22143424691529
 30
0.0
  0
POINT
  5
35F
330
354
100
AcDbEntity
  8
Defpoints
 62
     0
100
AcDbPoint
 10
102.3750000000001
 20
61.90091383617725
 30
0.0
  0
ENDBLK
  5
356
330
354
100
AcDbEntity
  8
0
100
AcDbBlockEnd
  0
BLOCK
  5
361
330
360
100
AcDbEntity
  8
0
100
AcDbBlockBegin
  2
*D11
 70
     1
 10
0.0
 20
0.0
 30
0.0
  3
*D11
  1
*D12
  0
LINE
  5
363
330
360
100
AcDbEntity
  8
치수문자_일반주서
 62
     0
370
    -2
100
AcDbLine
 10
19.81250000000005
 20
36.22143424691529
 30
0.0
 11
4.374999999999983
 21
36.22143424691524
 31
0.0
  0
LINE
  5
364
330
360
100
AcDbEntity
  8
치수문자_일반주서
 62
     0
370
    -2
100
AcDbLine
 10
19.81250000000005
 20
22.22143424691529
 30
0.0
 11
4.375000000000032
 21
22.22143424691524
 31
0.0
  0
LINE
  5
365
330
360
100
AcDbEntity
  8
치수문자_일반주서
 62
     0
370
    -2
100
AcDbLine
 10
4.374999999999983
 20
36.22143424691524
 30
0.0
 11
4.375000000000032
 21
22.22143424691524
 31
0.0
  0
LINE
  5
366
330
360
100
AcDbEntity
  8
치수문자_일반주서
 62
     0
370
    -2
100
AcDbLine
 10
4.374999999999972
 20
39.52343424691524
 30
0.0
 11
4.37499999999996
 21
42.82543424691524
 31
0.0
  0
LINE
  5
367
330
360
100
AcDbEntity
  8
치수문자_일반주서
 62
     0
370
    -2
100
AcDbLine
 10
4.375000000000044
 20
18.91943424691524
 30
0.0
 11
4.375000000000055
 21
15.61743424691524
 31
0.0
  0
SOLID
  5
368
330
360
100
AcDbEntity
  8
치수문자_일반주서
 62
     0
100
AcDbTrace
 10
3.824666666666638
 20
39.52343424691524
 30
0.0
 11
4.925333333333305
 21
39.52343424691524
 31
0.0
 12
4.374999999999983
 22
36.22143424691524
 32
0.0
 13
4.374999999999983
 23
36.22143424691524
 33
0.0
  0
SOLID
  5
369
330
360
100
AcDbEntity
  8
치수문자_일반주서
 62
     0
100
AcDbTrace
 10
4.925333333333377
 20
18.91943424691524
 30
0.0
 11
3.82466666666671
 21
18.91943424691523
 31
0.0
 12
4.375000000000032
 22
22.22143424691524
 32
0.0
 13
4.375000000000032
 23
22.22143424691524
 33
0.0
  0
MTEXT
  5
36A
330
360
100
AcDbEntity
  8
치수문자_일반주서
 62
     0
100
AcDbMText
 10
0.0000000000000071
 20
29.22143424691528
 30
0.0
 40
3.5
 41
0.0
 71
     2
 72
     1
  1
\A1;%%c14.00 [0.55]
  7
SLDTEXTSTYLE0
 11
-3.489272363107635E-15
 21
1.0
 31
0.0
 73
     1
 44
1.0
  0
POINT
  5
36B
330
360
100
AcDbEntity
  8
Defpoints
 62
     0
100
AcDbPoint
 10
19.87500000000005
 20
36.22143424691529
 30
0.0
  0
POINT
  5
36C
330
360
100
AcDbEntity
  8
Defpoints
 62
     0
100
AcDbPoint
 10
19.87500000000005
 20
22.22143424691529
 30
0.0
  0
POINT
  5
36D
330
360
100
AcDbEntity
  8
Defpoints
 62
     0
100
AcDbPoint
 10
4.375000000000043
 20
22.22143424691524
 30
0.0
  0
ENDBLK
  5
362
330
360
100
AcDbEntity
  8
0
100
AcDbBlockEnd
  0
BLOCK
  5
3BB
330
3BA
100
AcDbEntity
  8
0
100
AcDbBlockBegin
  2
*D12
 70
     1
 10
0.0
 20
0.0
 30
0.0
  3
*D12
  1
*D13
  0
LINE
  5
3BD
330
3BA
100
AcDbEntity
  8
치수문자_일반주서
 62
     0
370
    -2
100
AcDbLine
 10
-58.39667972981128
 20
86.21612470282345
 30
0.0
 11
-58.39667972981128
 21
121.3161088709022
 31
0.0
  0
LINE
  5
3BE
330
3BA
100
AcDbEntity
  8
치수문자_일반주서
 62
     0
370
    -2
100
AcDbLine
 10
24.60332027018873
 20
86.77862470282346
 30
0.0
 11
24.60332027018873
 21
121.3161088709022
 31
0.0
  0
LINE
  5
3BF
330
3BA
100
AcDbEntity
  8
치수문자_일반주서
 62
     0
370
    -2
100
AcDbLine
 10
-55.09467972981128
 20
121.3161088709022
 30
0.0
 11
21.30132027018873
 21
121.3161088709022
 31
0.0
  0
SOLID
  5
3C0
330
3BA
100
AcDbEntity
  8
치수문자_일반주서
 62
     0
100
AcDbTrace
 10
-55.09467972981128
 20
121.8664422042355
 30
0.0
 11
-55.09467972981128
 21
120.7657755375689
 31
0.0
 12
-58.39667972981128
 22
121.3161088709022
 32
0.0
 13
-58.39667972981128
 23
121.3161088709022
 33
0.0
  0
SOLID
  5
3C1
330
3BA
100
AcDbEntity
  8
치수문자_일반주서
 62
     0
100
AcDbTrace
 10
21.30132027018873
 20
120.7657755375689
 30
0.0
 11
21.30132027018873
 21
121.8664422042355
 31
0.0
 12
24.60332027018873
 22
121.3161088709022
 32
0.0
 13
24.60332027018873
 23
121.3161088709022
 33
0.0
  0
MTEXT
  5
3C2
330
3BA
100
AcDbEntity
  8
치수문자_일반주서
 62
     0
100
AcDbMText
 10
-16.89667972981128
 20
125.6911088709022
 30
0.0
 40
3.5
 41
0.0
 71
     2
 72
     1
  1
\A1;83.00 [3.27]
  7
SLDTEXTSTYLE0
 73
     1
 44
1.0
  0
POINT
  5
3C3
330
3BA
100
AcDbEntity
  8
Defpoints
 62
     0
100
AcDbPoint
 10
-58.39667972981128
 20
86.15362470282345
 30
0.0
  0
POINT
  5
3C4
330
3BA
100
AcDbEntity
  8
Defpoints
 62
     0
100
AcDbPoint
 10
24.60332027018873
 20
86.71612470282346
 30
0.0
  0
POINT
  5
3C5
330
3BA
100
AcDbEntity
  8
Defpoints
 62
     0
100
AcDbPoint
 10
24.60332027018873
 20
121.3161088709022
 30
0.0
  0
ENDBLK
  5
3BC
330
3BA
100
AcDbEntity
  8
0
100
AcDbBlockEnd
  0
BLOCK
  5
3C7
330
3C6
100
AcDbEntity
  8
0
100
AcDbBlockBegin
  2
*D13
 70
     1
 10
0.0
 20
0.0
 30
0.0
  3
*D13
  1
*D14
  0
LINE
  5
3C9
330
3C6
100
AcDbEntity
  8
치수문자_일반주서
 62
     0
370
    -2
100
AcDbLine
 10
-1.396637865582505
 20
79.05257721903858
 30
0.0
 11
-1.396637865582505
 21
112.3331042920854
 31
0.0
  0
LINE
  5
3CA
330
3C6
100
AcDbEntity
  8
치수문자_일반주서
 62
     0
370
    -2
100
AcDbLine
 10
24.60332027018873
 20
86.71612470282346
 30
0.0
 11
24.60332027018873
 21
112.3331042920854
 31
0.0
  0
LINE
  5
3CB
330
3C6
100
AcDbEntity
  8
치수문자_일반주서
 62
     0
370
    -2
100
AcDbLine
 10
1.905362134417494
 20
112.3331042920854
 30
0.0
 11
21.30132027018873
 21
112.3331042920854
 31
0.0
  0
SOLID
  5
3CC
330
3C6
100
AcDbEntity
  8
치수문자_일반주서
 62
     0
100
AcDbTrace
 10
1.905362134417494
 20
112.8834376254187
 30
0.0
 11
1.905362134417494
 21
111.7827709587521
 31
0.0
 12
-1.396637865582505
 22
112.3331042920854
 32
0.0
 13
-1.396637865582505
 23
112.3331042920854
 33
0.0
  0
SOLID
  5
3CD
330
3C6
100
AcDbEntity
  8
치수문자_일반주서
 62
     0
100
AcDbTrace
 10
21.30132027018873
 20
111.7827709587521
 30
0.0
 11
21.30132027018873
 21
112.8834376254187
 31
0.0
 12
24.60332027018873
 22
112.3331042920854
 32
0.0
 13
24.60332027018873
 23
112.3331042920854
 33
0.0
  0
MTEXT
  5
3CE
330
3C6
100
AcDbEntity
  8
치수문자_일반주서
 62
     0
100
AcDbMText
 10
11.64991599712076
 20
116.7081042920854
 30
0.0
 40
3.5
 41
0.0
 71
     2
 72
     1
  1
\A1;26.00 [1.02]
  7
SLDTEXTSTYLE0
 73
     1
 44
1.0
  0
POINT
  5
3CF
330
3C6
100
AcDbEntity
  8
Defpoints
 62
     0
100
AcDbPoint
 10
-1.396637865582505
 20
78.99007721903858
 30
0.0
  0
POINT
  5
3D0
330
3C6
100
AcDbEntity
  8
Defpoints
 62
     0
100
AcDbPoint
 10
24.60332027018873
 20
86.65362470282346
 30
0.0
  0
POINT
  5
3D1
330
3C6
100
AcDbEntity
  8
Defpoints
 62
     0
100
AcDbPoint
 10
24.60332027018873
 20
112.3331042920854
 30
0.0
  0
ENDBLK
  5
3C8
330
3C6
100
AcDbEntity
  8
0
100
AcDbBlockEnd
  0
BLOCK
  5
3D3
330
3D2
100
AcDbEntity
  8
0
100
AcDbBlockBegin
  2
*D14
 70
     1
 10
0.0
 20
0.0
 30
0.0
  3
*D14
  1
*D15
  0
LINE
  5
3D5
330
3D2
100
AcDbEntity
  8
치수문자_일반주서
 62
     0
370
    -2
100
AcDbLine
 10
-57.95917972981128
 20
86.65362470282346
 30
0.0
 11
-73.39667972981134
 21
86.65362470282341
 31
0.0
  0
LINE
  5
3D6
330
3D2
100
AcDbEntity
  8
치수문자_일반주서
 62
     0
370
    -2
100
AcDbLine
 10
-57.95917972981128
 20
72.65362470282346
 30
0.0
 11
-73.3966797298113
 21
72.65362470282341
 31
0.0
  0
LINE
  5
3D7
330
3D2
100
AcDbEntity
  8
치수문자_일반주서
 62
     0
370
    -2
100
AcDbLine
 10
-73.39667972981134
 20
86.65362470282341
 30
0.0
 11
-73.3966797298113
 21
72.65362470282341
 31
0.0
  0
LINE
  5
3D8
330
3D2
100
AcDbEntity
  8
치수문자_일반주서
 62
     0
370
    -2
100
AcDbLine
 10
-73.39667972981135
 20
89.9556247028234
 30
0.0
 11
-73.39667972981137
 21
93.25762470282339
 31
0.0
  0
LINE
  5
3D9
330
3D2
100
AcDbEntity
  8
치수문자_일반주서
 62
     0
370
    -2
100
AcDbLine
 10
-73.39667972981128
 20
69.35162470282341
 30
0.0
 11
-73.39667972981127
 21
66.04962470282342
 31
0.0
  0
SOLID
  5
3DA
330
3D2
100
AcDbEntity
  8
치수문자_일반주서
 62
     0
100
AcDbTrace
 10
-73.94701306314468
 20
89.9556247028234
 30
0.0
 11
-72.84634639647803
 21
89.9556247028234
 31
0.0
 12
-73.39667972981134
 22
86.65362470282341
 32
0.0
 13
-73.39667972981134
 23
86.65362470282341
 33
0.0
  0
SOLID
  5
3DB
330
3D2
100
AcDbEntity
  8
치수문자_일반주서
 62
     0
100
AcDbTrace
 10
-72.84634639647795
 20
69.35162470282341
 30
0.0
 11
-73.94701306314461
 21
69.35162470282341
 31
0.0
 12
-73.3966797298113
 22
72.65362470282341
 32
0.0
 13
-73.3966797298113
 23
72.65362470282341
 33
0.0
  0
MTEXT
  5
3DC
330
3D2
100
AcDbEntity
  8
치수문자_일반주서
 62
     0
100
AcDbMText
 10
-77.77167972981132
 20
79.65362470282345
 30
0.0
 40
3.5
 41
0.0
 71
     2
 72
     1
  1
\A1;%%c14.00 [0.55]
  7
SLDTEXTSTYLE0
 11
-3.045183153257572E-15
 21
1.0
 31
0.0
 73
     1
 44
1.0
  0
POINT
  5
3DD
330
3D2
100
AcDbEntity
  8
Defpoints
 62
     0
100
AcDbPoint
 10
-57.89667972981128
 20
86.65362470282346
 30
0.0
  0
POINT
  5
3DE
330
3D2
100
AcDbEntity
  8
Defpoints
 62
     0
100
AcDbPoint
 10
-57.89667972981128
 20
72.65362470282346
 30
0.0
  0
POINT
  5
3DF
330
3D2
100
AcDbEntity
  8
Defpoints
 62
     0
100
AcDbPoint
 10
-73.3966797298113
 20
72.65362470282341
 30
0.0
  0
ENDBLK
  5
3D4
330
3D2
100
AcDbEntity
  8
0
100
AcDbBlockEnd
  0
BLOCK
  5
3E1
330
3E0
100
AcDbEntity
  8
0
100
AcDbBlockBegin
  2
*D15
 70
     1
 10
0.0
 20
0.0
 30
0.0
  3
*D15
  1
*D16
  0
LINE
  5
3E3
330
3E0
100
AcDbEntity
  8
치수문자_일반주서
 62
     0
370
    -2
100
AcDbLine
 10
24.66582027018875
 20
86.65362470282346
 30
0.0
 11
39.60332027018874
 21
86.65362470282352
 31
0.0
  0
LINE
  5
3E4
330
3E0
100
AcDbEntity
  8
치수문자_일반주서
 62
     0
370
    -2
100
AcDbLine
 10
24.66582027018873
 20
72.65362470282346
 30
0.0
 11
39.60332027018879
 21
72.65362470282352
 31
0.0
  0
LINE
  5
3E5
330
3E0
100
AcDbEntity
  8
치수문자_일반주서
 62
     0
370
    -2
100
AcDbLine
 10
39.60332027018874
 20
86.65362470282352
 30
0.0
 11
39.60332027018879
 21
72.65362470282352
 31
0.0
  0
LINE
  5
3E6
330
3E0
100
AcDbEntity
  8
치수문자_일반주서
 62
     0
370
    -2
100
AcDbLine
 10
39.60332027018872
 20
89.95562470282351
 30
0.0
 11
39.60332027018871
 21
93.2576247028235
 31
0.0
  0
LINE
  5
3E7
330
3E0
100
AcDbEntity
  8
치수문자_일반주서
 62
     0
370
    -2
100
AcDbLine
 10
39.6033202701888
 20
69.35162470282353
 30
0.0
 11
39.60332027018882
 21
66.04962470282354
 31
0.0
  0
SOLID
  5
3E8
330
3E0
100
AcDbEntity
  8
치수문자_일반주서
 62
     0
100
AcDbTrace
 10
39.05298693685539
 20
89.95562470282351
 30
0.0
 11
40.15365360352206
 21
89.95562470282351
 31
0.0
 12
39.60332027018874
 22
86.65362470282352
 32
0.0
 13
39.60332027018874
 23
86.65362470282352
 33
0.0
  0
SOLID
  5
3E9
330
3E0
100
AcDbEntity
  8
치수문자_일반주서
 62
     0
100
AcDbTrace
 10
40.15365360352214
 20
69.35162470282353
 30
0.0
 11
39.05298693685547
 21
69.35162470282353
 31
0.0
 12
39.60332027018879
 22
72.65362470282352
 32
0.0
 13
39.60332027018879
 23
72.65362470282352
 33
0.0
  0
MTEXT
  5
3EA
330
3E0
100
AcDbEntity
  8
치수문자_일반주서
 62
     0
100
AcDbMText
 10
35.22832027018876
 20
79.7193290845365
 30
0.0
 40
3.5
 41
0.0
 71
     2
 72
     1
  1
\A1;%%c14.00 [0.55]
  7
SLDTEXTSTYLE0
 11
-3.552713678800501E-15
 21
1.0
 31
0.0
 73
     1
 44
1.0
  0
POINT
  5
3EB
330
3E0
100
AcDbEntity
  8
Defpoints
 62
     0
100
AcDbPoint
 10
24.60332027018875
 20
86.65362470282346
 30
0.0
  0
POINT
  5
3EC
330
3E0
100
AcDbEntity
  8
Defpoints
 62
     0
100
AcDbPoint
 10
24.60332027018873
 20
72.65362470282346
 30
0.0
  0
POINT
  5
3ED
330
3E0
100
AcDbEntity
  8
Defpoints
 62
     0
100
AcDbPoint
 10
39.60332027018879
 20
72.65362470282352
 30
0.0
  0
ENDBLK
  5
3E2
330
3E0
100
AcDbEntity
  8
0
100
AcDbBlockEnd
  0
BLOCK
  5
3EF
330
3EE
100
AcDbEntity
  8
0
100
AcDbBlockBegin
  2
*D16
 70
     1
 10
0.0
 20
0.0
 30
0.0
  3
*D16
  1
*D17
  0
LINE
  5
3F1
330
3EE
100
AcDbEntity
  8
치수문자_일반주서
 62
     0
370
    -2
100
AcDbLine
 10
26.09409545185814
 20
69.91448620994464
 30
0.0
 11
41.84774701713504
 21
44.28212969960387
 31
0.0
  0
MTEXT
  5
3F2
330
3EE
100
AcDbEntity
  8
치수문자_일반주서
 62
     0
100
AcDbMText
 10
37.89895867161609
 20
55.72034861044369
 30
0.0
 40
3.5
 41
0.0
 71
     5
 72
     1
  1
\A1;R.5 [R0.02]
  7
SLDTEXTSTYLE0
 11
0.5236126201129431
 21
-0.8519564684057859
 31
0.0
 73
     1
 44
1.0
  0
LINE
  5
3F3
330
3EE
100
AcDbEntity
  8
치수문자_일반주서
 62
     0
370
    -2
100
AcDbLine
 10
24.10332027018872
 20
73.15362470282346
 30
0.0
 11
24.3651265802452
 21
72.72764646862055
 31
0.0
  0
SOLID
  5
3F4
330
3EE
100
AcDbEntity
  8
치수문자_일반주서
 62
     0
100
AcDbTrace
 10
26.56295549497079
 20
70.2026476885468
 30
0.0
 11
25.62523540874549
 21
69.62632473134248
 31
0.0
 12
24.3651265802452
 22
72.72764646862055
 32
0.0
 13
24.3651265802452
 23
72.72764646862055
 33
0.0
  0
POINT
  5
3F5
330
3EE
100
AcDbEntity
  8
Defpoints
 62
     0
100
AcDbPoint
 10
24.3651265802452
 20
72.72764646862055
 30
0.0
  0
POINT
  5
3F6
330
3EE
100
AcDbEntity
  8
Defpoints
 62
     0
100
AcDbPoint
 10
24.10332027018872
 20
73.15362470282346
 30
0.0
  0
ENDBLK
  5
3F0
330
3EE
100
AcDbEntity
  8
0
100
AcDbBlockEnd
  0
BLOCK
  5
40E
330
40D
100
AcDbEntity
  8
0
100
AcDbBlockBegin
  2
*D17
 70
     1
 10
0.0
 20
0.0
 30
0.0
  3
*D17
  1
*D18
  0
LINE
  5
410
330
40D
100
AcDbEntity
  8
치수문자_일반주서
 62
     0
370
    -2
100
AcDbLine
 10
27.91218918888533
 20
8.387384893562267
 30
0.0
 11
49.73598671559933
 21
30.21258184027942
 31
0.0
  0
MTEXT
  5
411
330
40D
100
AcDbEntity
  8
치수문자_일반주서
 62
     0
100
AcDbMText
 10
38.13526900916768
 20
22.32354988076861
 30
0.0
 40
3.5
 41
0.0
 71
     5
 72
     1
  1
\A1;R1.02 [R0.04]
  7
SLDTEXTSTYLE0
 11
0.7070841104412513
 21
0.7071294512050142
 31
0.0
 73
     1
 44
1.0
  0
LINE
  5
412
330
40D
100
AcDbEntity
  8
치수문자_일반주서
 62
     0
370
    -2
100
AcDbLine
 10
24.85900000000001
 20
5.333999923259015
 30
0.0
 11
25.57739745620832
 21
6.052443445683309
 31
0.0
  0
SOLID
  5
413
330
40D
100
AcDbEntity
  8
치수문자_일반주서
 62
     0
100
AcDbTrace
 10
27.52303228090551
 20
8.776516849008436
 30
0.0
 11
28.30134609686516
 21
7.998252938116098
 31
0.0
 12
25.57739745620832
 22
6.052443445683309
 32
0.0
 13
25.57739745620832
 23
6.052443445683309
 33
0.0
  0
POINT
  5
414
330
40D
100
AcDbEntity
  8
Defpoints
 62
     0
100
AcDbPoint
 10
25.57739745620832
 20
6.052443445683309
 30
0.0
  0
POINT
  5
415
330
40D
100
AcDbEntity
  8
Defpoints
 62
     0
100
AcDbPoint
 10
24.85900000000001
 20
5.333999923259015
 30
0.0
  0
ENDBLK
  5
40F
330
40D
100
AcDbEntity
  8
0
100
AcDbBlockEnd
  0
ENDSEC
  0
SECTION
  2
ENTITIES
  0
SPLINE
  5
96
330
1F
100
AcDbEntity
  8
외형선
  6
Continuous
370
    15
100
AcDbSpline
210
0.0
220
0.0
230
1.0
 70
     8
 71
     3
 72
    11
 73
     7
 74
     0
 42
0.000000001
 43
0.00000001
 40
0.0
 40
0.0
 40
0.0
 40
0.0
 40
0.2454095481706544
 40
0.5001728620753264
 40
0.7548486410900043
 40
1.0
 40
1.0
 40
1.0
 40
1.0
 10
8.682213092455642
 20
6.185495294630522
 30
0.0
 10
8.596761773280518
 20
6.231231428840626
 30
0.0
 10
8.422602164583415
 20
6.324446926439037
 30
0.0
 10
8.123519660706176
 20
6.363119656558732
 30
0.0
 10
7.824471681730238
 20
6.323974843991193
 30
0.0
 10
7.650306151671893
 20
6.23040703105846
 30
0.0
 10
7.564882786013187
 20
6.184514611959452
 30
0.0
  0
SPLINE
  5
97
330
1F
100
AcDbEntity
  8
외형선
  6
Continuous
370
    15
100
AcDbSpline
210
0.0
220
0.0
230
1.0
 70
     8
 71
     3
 72
     9
 73
     5
 74
     0
 42
0.000000001
 43
0.00000001
 40
0.0
 40
0.0
 40
0.0
 40
0.0
 40
0.499024919159595
 40
1.0
 40
1.0
 40
1.0
 40
1.0
 10
7.322924366220833
 20
6.186137907207007
 30
0.0
 10
7.253174447717076
 20
6.226453318499452
 30
0.0
 10
7.1134020319002
 20
6.307241691473575
 30
0.0
 10
6.956106355113088
 20
6.335606427025613
 30
0.0
 10
6.877305140718819
 20
6.349816452711815
 30
0.0
  0
SPLINE
  5
98
330
1F
100
AcDbEntity
  8
외형선
  6
Continuous
370
    15
100
AcDbSpline
210
0.0
220
0.0
230
1.0
 70
     8
 71
     3
 72
     9
 73
     5
 74
     0
 42
0.000000001
 43
0.00000001
 40
0.0
 40
0.0
 40
0.0
 40
0.0
 40
0.4994149280801365
 40
1.0
 40
1.0
 40
1.0
 40
1.0
 10
7.56563680805266
 20
6.18501519784331
 30
0.0
 10
7.525016346558726
 20
6.1674292653497
 30
0.0
 10
7.443680248636928
 20
6.132216196006313
 30
0.0
 10
7.363207327272859
 20
6.168150297891648
 30
0.0
 10
7.322923784144224
 20
6.186138372868294
 30
0.0
  0
LINE
  5
99
330
1F
100
AcDbEntity
  8
외형선
  6
Continuous
370
    15
100
AcDbLine
 10
6.874266933649779
 20
6.349999923259015
 30
0.0
 11
-7.891124570101483
 21
6.349999923259015
 31
0.0
  0
LINE
  5
9A
330
1F
100
AcDbEntity
  8
외형선
  6
Continuous
370
    15
100
AcDbLine
 10
-36.6250011920929
 20
-6.349999923259025
 30
0.0
 11
7.969810316339136
 21
-6.349999923259025
 31
0.0
  0
LINE
  5
9B
330
1F
100
AcDbEntity
  8
외형선
  6
Continuous
370
    15
100
AcDbLine
 10
-36.6250011920929
 20
6.349999923259015
 30
0.0
 11
-37.62499949336052
 21
5.350000225007529
 31
0.0
  0
LINE
  5
9C
330
1F
100
AcDbEntity
  8
외형선
  6
Continuous
370
    15
100
AcDbLine
 10
-37.62499949336052
 20
-5.350000225007539
 30
0.0
 11
-36.6250011920929
 21
-6.349999923259025
 31
0.0
  0
LINE
  5
9D
330
1F
100
AcDbEntity
  8
0
  6
Continuous
 62
     1
370
    15
100
AcDbLine
 10
13.43074852228165
 20
-6.258910521864896
 30
0.0
 11
13.57289582118392
 21
-6.18615653365851
 31
0.0
  0
LINE
  5
9E
330
1F
100
AcDbEntity
  8
0
  6
Continuous
 62
     1
370
    15
100
AcDbLine
 10
14.09556801989675
 20
6.2718940898776
 30
0.0
 11
13.92592761293054
 21
6.186291109770531
 31
0.0
  0
SPLINE
  5
9F
330
1F
100
AcDbEntity
  8
0
  6
Continuous
 62
     1
370
    15
100
AcDbSpline
210
0.0
220
0.0
230
1.0
 70
     8
 71
     3
 72
    11
 73
     7
 74
     0
 42
0.000000001
 43
0.00000001
 40
0.0
 40
0.0
 40
0.0
 40
0.0
 40
0.244898002211136
 40
0.4999731578208756
 40
0.7550619741975766
 40
1.0
 40
1.0
 40
1.0
 40
1.0
 10
13.83600236475468
 20
-6.19013980031014
 30
0.0
 10
13.92015759280953
 20
-6.234150496981325
 30
0.0
 10
14.09196526268772
 20
-6.324000829748098
 30
0.0
 10
14.38663558297426
 20
-6.359767303107109
 30
0.0
 10
14.68131219454523
 20
-6.319856888253161
 30
0.0
 10
14.85312352005016
 20
-6.22725929687912
 30
0.0
 10
14.93728525564075
 20
-6.181900389492515
 30
0.0
  0
SPLINE
  5
A0
330
1F
100
AcDbEntity
  8
0
  6
Continuous
 62
     1
370
    15
100
AcDbSpline
210
0.0
220
0.0
230
1.0
 70
     8
 71
     3
 72
     9
 73
     5
 74
     0
 42
0.000000001
 43
0.00000001
 40
0.0
 40
0.0
 40
0.0
 40
0.0
 40
0.6657993874706459
 40
1.0
 40
1.0
 40
1.0
 40
1.0
 10
13.57289628684521
 20
-6.18615653365851
 30
0.0
 10
13.59741667900143
 20
-6.17151291360242
 30
0.0
 10
13.63424517812242
 20
-6.149518871054974
 30
0.0
 10
13.68745530052196
 20
-6.153646641776048
 30
0.0
 10
13.70523815602064
 20
-6.155026145279413
 30
0.0
  0
SPLINE
  5
A1
330
1F
100
AcDbEntity
  8
0
  6
Continuous
 62
     1
370
    15
100
AcDbSpline
210
0.0
220
0.0
230
1.0
 70
     8
 71
     3
 72
    11
 73
     7
 74
     0
 42
0.000000001
 43
0.00000001
 40
0.0
 40
0.0
 40
0.0
 40
0.0
 40
0.2449521230995997
 40
0.5000425576359564
 40
0.7551112404475102
 40
1.0
 40
1.0
 40
1.0
 40
1.0
 10
13.66355541720987
 20
6.190267391502854
 30
0.0
 10
13.5793954131988
 20
6.234334717264415
 30
0.0
 10
13.40759211088883
 20
6.324293269177145
 30
0.0
 10
13.11292000160251
 20
6.360225728846865
 30
0.0
 10
12.81825822881576
 20
6.320466584955541
 30
0.0
 10
12.64646068205077
 20
6.227953264292879
 30
0.0
 10
12.56231094338
 20
6.182638462632891
 30
0.0
  0
SPLINE
  5
A2
330
1F
100
AcDbEntity
  8
0
  6
Continuous
 62
     1
370
    15
100
AcDbSpline
210
0.0
220
0.0
230
1.0
 70
     8
 71
     3
 72
     9
 73
     5
 74
     0
 42
0.000000001
 43
0.00000001
 40
0.0
 40
0.0
 40
0.0
 40
0.0
 40
0.5408806649615255
 40
0.9999999999999999
 40
0.9999999999999999
 40
0.9999999999999999
 40
0.9999999999999999
 10
13.9080140888691
 20
6.168106570839877
 30
0.0
 10
13.88184342164532
 20
6.159132387503858
 30
0.0
 10
13.83345813276531
 20
6.142540588392951
 30
0.0
 10
13.77616276572535
 20
6.153558378841501
 30
0.0
 10
13.74985735490918
 20
6.158616859465832
 30
0.0
  0
SPLINE
  5
A3
330
1F
100
AcDbEntity
  8
0
  6
Continuous
 62
     1
370
    15
100
AcDbSpline
210
0.0
220
0.0
230
1.0
 70
     8
 71
     3
 72
    11
 73
     7
 74
     0
 42
0.000000001
 43
0.00000001
 40
0.0
 40
0.0
 40
0.0
 40
0.0
 40
0.2482253039841008
 40
0.5001474928492328
 40
0.7519995808918375
 40
1.0
 40
1.0
 40
1.0
 40
1.0
 10
14.9313946403563
 20
-6.185983773320919
 30
0.0
 10
14.95066847123532
 20
-6.175602534844923
 30
0.0
 10
14.98950318323696
 20
-6.154685447371957
 30
0.0
 10
15.0598409996616
 20
-6.146215616918195
 30
0.0
 10
15.13007848245645
 20
-6.157400607880261
 30
0.0
 10
15.16872104918691
 20
-6.180107417279675
 30
0.0
 10
15.18789345026016
 20
-6.191373337060218
 30
0.0
  0
SPLINE
  5
A4
330
1F
100
AcDbEntity
  8
0
  6
Continuous
 62
     1
370
    15
100
AcDbSpline
210
0.0
220
0.0
230
1.0
 70
     8
 71
     3
 72
    11
 73
     7
 74
     0
 42
0.000000001
 43
0.00000001
 40
0.0
 40
0.0
 40
0.0
 40
0.0
 40
0.2479440505692501
 40
0.4997251921113711
 40
0.7516401214379727
 40
0.9999999999999999
 40
0.9999999999999999
 40
0.9999999999999999
 40
0.9999999999999999
 10
12.56780947186053
 20
6.186332553625101
 30
0.0
 10
12.5485351514712
 20
6.175919075555838
 30
0.0
 10
12.50968822839619
 20
6.154930964259105
 30
0.0
 10
12.43938229156451
 20
6.146349418094601
 30
0.0
 10
12.36919299247038
 20
6.15741583261528
 30
0.0
 10
12.33065286885105
 20
6.179984693914898
 30
0.0
 10
12.31151974387467
 20
6.191188935190436
 30
0.0
  0
SPLINE
  5
A5
330
1F
100
AcDbEntity
  8
0
  6
Continuous
 62
     1
370
    15
100
AcDbSpline
210
0.0
220
0.0
230
1.0
 70
     8
 71
     3
 72
     9
 73
     5
 74
     0
 42
0.000000001
 43
0.00000001
 40
0.0
 40
0.0
 40
0.0
 40
0.0
 40
0.4994336783284291
 40
1.0
 40
1.0
 40
1.0
 40
1.0
 10
15.18272693827748
 20
-6.189865060150629
 30
0.0
 10
15.2514445176978
 20
-6.229265254551246
 30
0.0
 10
15.38903551806907
 20
-6.308154997294437
 30
0.0
 10
15.54455290353961
 20
-6.335995468689807
 30
0.0
 10
15.62239966914058
 20
-6.349931471049791
 30
0.0
  0
SPLINE
  5
A6
330
1F
100
AcDbEntity
  8
0
  6
Continuous
 62
     1
370
    15
100
AcDbSpline
210
0.0
220
0.0
230
1.0
 70
     8
 71
     3
 72
     9
 73
     5
 74
     0
 42
0.000000001
 43
0.00000001
 40
0.0
 40
0.0
 40
0.0
 40
0.0
 40
0.4994583598959345
 40
1.0
 40
1.0
 40
1.0
 40
1.0
 10
12.31658800132573
 20
6.189557258039709
 30
0.0
 10
12.24782578836363
 20
6.229008959508077
 30
0.0
 10
12.11015222339132
 20
6.307997929632808
 30
0.0
 10
11.95454947050294
 20
6.33591312071535
 30
0.0
 10
11.87666381336749
 20
6.349885836243624
 30
0.0
  0
SPLINE
  5
A7
330
1F
100
AcDbEntity
  8
0
  6
Continuous
 62
     1
370
    15
100
AcDbSpline
210
0.0
220
0.0
230
1.0
 70
     8
 71
     3
 72
     9
 73
     5
 74
     0
 42
0.000000001
 43
0.00000001
 40
0.0
 40
0.0
 40
0.0
 40
0.0
 40
0.5570033140385412
 40
1.0
 40
1.0
 40
1.0
 40
1.0
 10
15.62334263324738
 20
-6.34998315945268
 30
0.0
 10
15.71300007107452
 20
-6.333341026240058
 30
0.0
 10
15.87396399277381
 20
-6.303463047432432
 30
0.0
 10
16.01173639003205
 20
-6.22222712946815
 30
0.0
 10
16.07276910543442
 20
-6.186239887028938
 30
0.0
  0
SPLINE
  5
A8
330
1F
100
AcDbEntity
  8
0
  6
Continuous
 62
     1
370
    15
100
AcDbSpline
210
0.0
220
0.0
230
1.0
 70
     8
 71
     3
 72
     9
 73
     5
 74
     0
 42
0.000000001
 43
0.00000001
 40
0.0
 40
0.0
 40
0.0
 40
0.0
 40
0.5627116410440156
 40
1.0
 40
1.0
 40
1.0
 40
1.0
 10
11.87507497705519
 20
6.349986884742972
 30
0.0
 10
11.78574934036055
 20
6.33359258672918
 30
0.0
 10
11.62700793503097
 20
6.304458129899084
 30
0.0
 10
11.48710071526067
 20
6.222239641169889
 30
0.0
 10
11.42592091672123
 20
6.186286453157658
 30
0.0
  0
SPLINE
  5
A9
330
1F
100
AcDbEntity
  8
0
  6
Continuous
 62
     1
370
    15
100
AcDbSpline
210
0.0
220
0.0
230
1.0
 70
     8
 71
     3
 72
     9
 73
     5
 74
     0
 42
0.000000001
 43
0.00000001
 40
0.0
 40
0.0
 40
0.0
 40
0.0
 40
0.4385712752875092
 40
0.9999999999999999
 40
0.9999999999999999
 40
0.9999999999999999
 40
0.9999999999999999
 10
16.07279844209552
 20
-6.186220794916158
 30
0.0
 10
16.10819012924381
 20
-6.169894110619374
 30
0.0
 10
16.18888781544107
 20
-6.132667130156317
 30
0.0
 10
16.26808157378892
 20
-6.164786139241412
 30
0.0
 10
16.31254322454333
 20
-6.182818673551088
 30
0.0
  0
SPLINE
  5
AA
330
1F
100
AcDbEntity
  8
0
  6
Continuous
 62
     1
370
    15
100
AcDbSpline
210
0.0
220
0.0
230
1.0
 70
     8
 71
     3
 72
     9
 73
     5
 74
     0
 42
0.000000001
 43
0.00000001
 40
0.0
 40
0.0
 40
0.0
 40
0.0
 40
0.4490239935286295
 40
1.0
 40
1.0
 40
1.0
 40
1.0
 10
11.4259879719466
 20
6.186330690979952
 30
0.0
 10
11.38848526719106
 20
6.169648601555032
 30
0.0
 10
11.30496477542218
 20
6.132496712869029
 30
0.0
 10
11.22859779565587
 20
6.164739403345518
 30
0.0
 10
11.18652142211795
 20
6.182504352182145
 30
0.0
  0
SPLINE
  5
AB
330
1F
100
AcDbEntity
  8
0
  6
Continuous
 62
     1
370
    15
100
AcDbSpline
210
0.0
220
0.0
230
1.0
 70
     8
 71
     3
 72
    11
 73
     7
 74
     0
 42
0.000000001
 43
0.00000001
 40
0.0
 40
0.0
 40
0.0
 40
0.0
 40
0.2451179801581938
 40
0.4998571313849093
 40
0.7546685133232355
 40
1.0
 40
1.0
 40
1.0
 40
1.0
 10
16.31785036623478
 20
-6.18635537102819
 30
0.0
 10
16.4031096781281
 20
-6.231866931962895
 30
0.0
 10
16.57697483089798
 20
-6.324676436508375
 30
0.0
 10
16.87543759596523
 20
-6.363049243377445
 30
0.0
 10
17.17392928598117
 20
-6.32395241644396
 30
0.0
 10
17.34779137128991
 20
-6.230697116783126
 30
0.0
 10
17.43307469040155
 20
-6.184953264892107
 30
0.0
  0
SPLINE
  5
AC
330
1F
100
AcDbEntity
  8
0
  6
Continuous
 62
     1
370
    15
100
AcDbSpline
210
0.0
220
0.0
230
1.0
 70
     8
 71
     3
 72
    11
 73
     7
 74
     0
 42
0.000000001
 43
0.00000001
 40
0.0
 40
0.0
 40
0.0
 40
0.0
 40
0.2453251814858099
 40
0.5001454723957379
 40
0.7548919836519009
 40
1.0
 40
1.0
 40
1.0
 40
1.0
 10
11.18059564940632
 20
6.186435930430884
 30
0.0
 10
11.09533951561118
 20
6.231925784193447
 30
0.0
 10
10.92152747946654
 20
6.324666139103178
 30
0.0
 10
10.62313040599423
 20
6.363039272326061
 30
0.0
 10
10.32476298062258
 20
6.323995809194839
 30
0.0
 10
10.15094812386843
 20
6.230777362556399
 30
0.0
 10
10.06571649666876
 20
6.185066886246199
 30
0.0
  0
SPLINE
  5
AF
330
1F
100
AcDbEntity
  8
0
  6
Continuous
 62
     1
370
    15
100
AcDbSpline
210
0.0
220
0.0
230
1.0
 70
     8
 71
     3
 72
     9
 73
     5
 74
     0
 42
0.000000001
 43
0.00000001
 40
0.0
 40
0.0
 40
0.0
 40
0.0
 40
0.5011088188019428
 40
1.0
 40
1.0
 40
1.0
 40
1.0
 10
24.37121366709471
 20
6.349816452711815
 30
0.0
 10
24.29245188521586
 20
6.33561725125996
 30
0.0
 10
24.13527687866309
 20
6.307281686370473
 30
0.0
 10
23.9955572890463
 20
6.226528701621005
 30
0.0
 10
23.92585241794586
 20
6.186241749674076
 30
0.0
  0
SPLINE
  5
B0
330
1F
100
AcDbEntity
  8
0
  6
Continuous
 62
     1
370
    15
100
AcDbSpline
210
0.0
220
0.0
230
1.0
 70
     8
 71
     3
 72
     9
 73
     5
 74
     0
 42
0.000000001
 43
0.00000001
 40
0.0
 40
0.0
 40
0.0
 40
0.0
 40
0.5004940585921747
 40
1.0
 40
1.0
 40
1.0
 40
1.0
 10
17.43298062682152
 20
-6.185013800859457
 30
0.0
 10
17.4735166244994
 20
-6.167391762232088
 30
0.0
 10
17.55450859030195
 20
-6.132182475878244
 30
0.0
 10
17.63546118962448
 20
-6.168253740835986
 30
0.0
 10
17.67589749395847
 20
-6.186271551996475
 30
0.0
  0
SPLINE
  5
B1
330
1F
100
AcDbEntity
  8
0
  6
Continuous
 62
     1
370
    15
100
AcDbSpline
210
0.0
220
0.0
230
1.0
 70
     8
 71
     3
 72
     9
 73
     5
 74
     0
 42
0.000000001
 43
0.00000001
 40
0.0
 40
0.0
 40
0.0
 40
0.0
 40
0.4995028086696912
 40
1.0
 40
1.0
 40
1.0
 40
1.0
 10
23.92584776133299
 20
6.186238024383778
 30
0.0
 10
23.88543447023697
 20
6.168239128792155
 30
0.0
 10
23.80452743549244
 20
6.132205506399607
 30
0.0
 10
23.72358427813979
 20
6.167360268062888
 30
0.0
 10
23.68307245522738
 20
6.184955127537245
 30
0.0
  0
SPLINE
  5
B2
330
1F
100
AcDbEntity
  8
0
  6
Continuous
 62
     1
370
    15
100
AcDbSpline
210
0.0
220
0.0
230
1.0
 70
     8
 71
     3
 72
     8
 73
     4
 74
     0
 42
0.000000001
 43
0.00000001
 40
0.0
 40
0.0
 40
0.0
 40
0.0
 40
0.2692489200975533
 40
0.2692489200975533
 40
0.2692489200975533
 40
0.2692489200975533
 10
10.06567924376577
 20
6.185042671859259
 30
0.0
 10
10.0437749315958
 20
6.175555096191852
 30
0.0
 10
10.02187061942583
 20
6.166067520524443
 30
0.0
 10
10.0
 20
6.159362027602043
 30
0.0
  0
SPLINE
  5
B3
330
1F
100
AcDbEntity
  8
0
  6
Continuous
 62
     1
370
    15
100
AcDbSpline
210
0.0
220
0.0
230
1.0
 70
     8
 71
     3
 72
    11
 73
     7
 74
     0
 42
0.000000001
 43
0.00000001
 40
0.0
 40
0.0
 40
0.0
 40
0.0
 40
0.2542152462127597
 40
0.5119053487392377
 40
0.7632433656895522
 40
1.0
 40
1.0
 40
1.0
 40
1.0
 10
23.68579564243555
 20
6.183057557791466
 30
0.0
 10
23.595871274975
 20
6.231167063185554
 30
0.0
 10
23.41479336807983
 20
6.328043680553423
 30
0.0
 10
23.10879969757679
 20
6.36323003657948
 30
0.0
 10
22.8127555807593
 20
6.319431794503528
 30
0.0
 10
22.64358103211897
 20
6.226895040163894
 30
0.0
 10
22.56152072548866
 20
6.182008888572449
 30
0.0
  0
SPLINE
  5
B4
330
1F
100
AcDbEntity
  8
0
  6
Continuous
 62
     1
370
    15
100
AcDbSpline
210
0.0
220
0.0
230
1.0
 70
     8
 71
     3
 72
     9
 73
     5
 74
     0
 42
0.000000001
 43
0.00000001
 40
0.0
 40
0.0
 40
0.0
 40
0.0
 40
0.4988986264628069
 40
1.0
 40
1.0
 40
1.0
 40
1.0
 10
17.67596082389355
 20
-6.186312995851045
 30
0.0
 10
17.74565072861843
 20
-6.226582990513061
 30
0.0
 10
17.88533823431269
 20
-6.307300780713303
 30
0.0
 10
18.04248890550257
 20
-6.335625627199891
 30
0.0
 10
18.1212373226881
 20
-6.34981924667955
 30
0.0
  0
SPLINE
  5
B5
330
1F
100
AcDbEntity
  8
외형선
  6
Continuous
370
    15
100
AcDbSpline
210
0.0
220
0.0
230
1.0
 70
     8
 71
     3
 72
     9
 73
     5
 74
     0
 42
0.000000001
 43
0.00000001
 40
0.0
 40
0.0
 40
0.0
 40
0.0
 40
0.580801699949607
 40
1.0
 40
1.0
 40
1.0
 40
1.0
 10
9.822885136585684
 20
6.186163984239096
 30
0.0
 10
9.780085398601267
 20
6.212547604439282
 30
0.0
 10
9.706394605361282
 20
6.257973814800707
 30
0.0
 10
9.625308106673389
 20
6.286243794694169
 30
0.0
 10
9.591316784266384
 20
6.298094522207972
 30
0.0
  0
LINE
  5
B7
330
1F
100
AcDbEntity
  8
외형선
  6
Continuous
370
    15
100
AcDbLine
 10
9.576100312173368
 20
6.304353009909386
 30
0.0
 11
9.260164524661379
 21
6.329386029392476
 31
0.0
  0
SPLINE
  5
B8
330
1F
100
AcDbEntity
  8
0
  6
Continuous
 62
     1
370
    15
100
AcDbSpline
210
0.0
220
0.0
230
1.0
 70
     8
 71
     3
 72
     9
 73
     5
 74
     0
 42
0.000000001
 43
0.00000001
 40
0.0
 40
0.0
 40
0.0
 40
0.0
 40
0.5008353485006832
 40
1.0
 40
1.0
 40
1.0
 40
1.0
 10
18.1313011944294
 20
-6.349021103233104
 30
0.0
 10
18.20979635767094
 20
-6.334565014638137
 30
0.0
 10
18.36652483835133
 20
-6.305701060370044
 30
0.0
 10
18.50559630505546
 20
-6.224971307217656
 30
0.0
 10
18.57501586526632
 20
-6.184673868119722
 30
0.0
  0
SPLINE
  5
B9
330
1F
100
AcDbEntity
  8
외형선
  6
Continuous
370
    15
100
AcDbSpline
210
0.0
220
0.0
230
1.0
 70
     8
 71
     3
 72
     9
 73
     5
 74
     0
 42
0.000000001
 43
0.00000001
 40
0.0
 40
0.0
 40
0.0
 40
0.0
 40
0.5016882112167398
 40
1.0
 40
1.0
 40
1.0
 40
1.0
 10
9.273895653663205
 20
6.33308663964271
 30
0.0
 10
9.212278427447998
 20
6.316557922219223
 30
0.0
 10
9.089458666414012
 20
6.283611727642716
 30
0.0
 10
8.97950388146964
 20
6.218104072505623
 30
0.0
 10
8.92471211589873
 20
6.185460835695261
 30
0.0
  0
SPLINE
  5
BA
330
1F
100
AcDbEntity
  8
0
  6
Continuous
 62
     1
370
    15
100
AcDbSpline
210
0.0
220
0.0
230
1.0
 70
     8
 71
     3
 72
     9
 73
     5
 74
     0
 42
0.000000001
 43
0.00000001
 40
0.0
 40
0.0
 40
0.0
 40
0.0
 40
0.5005049931257225
 40
1.0
 40
1.0
 40
1.0
 40
1.0
 10
18.57165006548166
 20
-6.186948157846933
 30
0.0
 10
18.612468043154
 20
-6.168526334640127
 30
0.0
 10
18.69402163049668
 20
-6.131719862257585
 30
0.0
 10
18.77637487668397
 20
-6.168026614481169
 30
0.0
 10
18.8175099119544
 20
-6.18616165593267
 30
0.0
  0
SPLINE
  5
BB
330
1F
100
AcDbEntity
  8
외형선
  6
Continuous
370
    15
100
AcDbSpline
210
0.0
220
0.0
230
1.0
 70
     8
 71
     3
 72
     9
 73
     5
 74
     0
 42
0.000000001
 43
0.00000001
 40
0.0
 40
0.0
 40
0.0
 40
0.0
 40
0.4996042420598666
 40
1.0
 40
1.0
 40
1.0
 40
1.0
 10
8.927543081867045
 20
6.187304388731713
 30
0.0
 10
8.8864397110022
 20
6.168731222304949
 30
0.0
 10
8.804167849787863
 20
6.131555464248557
 30
0.0
 10
8.7217792088156
 20
6.168148619499378
 30
0.0
 10
8.680552282370629
 20
6.186459679156536
 30
0.0
  0
SPLINE
  5
BC
330
1F
100
AcDbEntity
  8
0
  6
Continuous
 62
     1
370
    15
100
AcDbSpline
210
0.0
220
0.0
230
1.0
 70
     8
 71
     3
 72
    11
 73
     7
 74
     0
 42
0.000000001
 43
0.00000001
 40
0.0
 40
0.0
 40
0.0
 40
0.0
 40
0.2449574646259619
 40
0.4999353020142391
 40
0.7549462051155409
 40
1.0
 40
1.0
 40
1.0
 40
1.0
 10
18.81925055384636
 20
-6.187104154378181
 30
0.0
 10
18.9037706452995
 20
-6.232201451146633
 30
0.0
 10
19.07626825630889
 20
-6.324240820979222
 30
0.0
 10
19.37216475168494
 20
-6.362778119665791
 30
0.0
 10
19.66807592558231
 20
-6.325126352861941
 30
0.0
 10
19.84057781425861
 20
-6.23369087159818
 30
0.0
 10
19.92511136084795
 20
-6.188883446156984
 30
0.0
  0
SPLINE
  5
BD
330
1F
100
AcDbEntity
  8
0
  6
Continuous
 62
     1
370
    15
100
AcDbSpline
210
0.0
220
0.0
230
1.0
 70
     8
 71
     3
 72
     9
 73
     5
 74
     0
 42
0.000000001
 43
0.00000001
 40
0.0
 40
0.0
 40
0.0
 40
0.0
 40
0.4996129054201358
 40
0.9999999999999999
 40
0.9999999999999999
 40
0.9999999999999999
 40
0.9999999999999999
 10
22.56973312795162
 20
6.187344435602421
 30
0.0
 10
22.52780170781763
 20
6.16859239316185
 30
0.0
 10
22.44387389154408
 20
6.131059250528546
 30
0.0
 10
22.36065706187201
 20
6.169294925465632
 30
0.0
 10
22.31901643425226
 20
6.188427563756699
 30
0.0
  0
SPLINE
  5
BE
330
1F
100
AcDbEntity
  8
0
  6
Continuous
 62
     1
370
    15
100
AcDbSpline
210
0.0
220
0.0
230
1.0
 70
     8
 71
     3
 72
     9
 73
     5
 74
     0
 42
0.000000001
 43
0.00000001
 40
0.0
 40
0.0
 40
0.0
 40
0.0
 40
0.4993096275534982
 40
1.0
 40
1.0
 40
1.0
 40
1.0
 10
22.31960503011942
 20
6.188119761645789
 30
0.0
 10
22.25050960666403
 20
6.227874296281099
 30
0.0
 10
22.11212768962803
 20
6.307493299083223
 30
0.0
 10
21.95595288309459
 20
6.335656967447921
 30
0.0
 10
21.8777576610446
 20
6.349758245050902
 30
0.0
  0
SPLINE
  5
BF
330
1F
100
AcDbEntity
  8
0
  6
Continuous
 62
     1
370
    15
100
AcDbSpline
210
0.0
220
0.0
230
1.0
 70
     8
 71
     3
 72
     9
 73
     5
 74
     0
 42
0.000000001
 43
0.00000001
 40
0.0
 40
0.0
 40
0.0
 40
0.0
 40
0.7121972604646792
 40
1.0
 40
1.0
 40
1.0
 40
1.0
 10
21.8825968131423
 20
6.348628550767893
 30
0.0
 10
21.80435796575212
 20
6.336975021610428
 30
0.0
 10
21.69450237976021
 20
6.320612238706905
 30
0.0
 10
21.5973232630798
 20
6.268540067843684
 30
0.0
 10
21.56935484707355
 20
6.253553554415697
 30
0.0
  0
SPLINE
  5
C1
330
1F
100
AcDbEntity
  8
0
  6
Continuous
 62
     1
370
    15
100
AcDbSpline
210
0.0
220
0.0
230
1.0
 70
     8
 71
     3
 72
    11
 73
     7
 74
     0
 42
0.000000001
 43
0.00000001
 40
0.0
 40
0.0
 40
0.0
 40
0.0
 40
0.2475651578224901
 40
0.5001275448689193
 40
0.7526306825316822
 40
1.0
 40
1.0
 40
1.0
 40
1.0
 10
19.90884115546942
 20
-6.189351435750728
 30
0.0
 10
19.92847917736625
 20
-6.177625731208266
 30
0.0
 10
19.96815162466754
 20
-6.153937632784965
 30
0.0
 10
20.03927919602133
 20
-6.142079545966967
 30
0.0
 10
20.11030618602154
 20
-6.149940244602639
 30
0.0
 10
20.14978074385629
 20
-6.170763536925923
 30
0.0
 10
20.16931531578302
 20
-6.181068252772098
 30
0.0
  0
SPLINE
  5
C2
330
1F
100
AcDbEntity
  8
0
  6
Continuous
 62
     1
370
    15
100
AcDbSpline
210
0.0
220
0.0
230
1.0
 70
     8
 71
     3
 72
    11
 73
     7
 74
     0
 42
0.000000001
 43
0.00000001
 40
0.0
 40
0.0
 40
0.0
 40
0.0
 40
0.2474299027511258
 40
0.4999451696390716
 40
0.752486411632131
 40
1.0
 40
1.0
 40
1.0
 40
1.0
 10
21.45052646845579
 20
6.190710235387082
 30
0.0
 10
21.43101033793161
 20
6.178752141708339
 30
0.0
 10
21.39157696679449
 20
6.154590182679511
 30
0.0
 10
21.32059453649123
 20
6.141914318428313
 30
0.0
 10
21.24950827458724
 20
6.148954633415959
 30
0.0
 10
21.20985666356041
 20
6.169296604883295
 30
0.0
 10
21.19023019075394
 20
6.179365329444405
 30
0.0
  0
SPLINE
  5
C3
330
1F
100
AcDbEntity
  8
0
  6
Continuous
 62
     1
370
    15
100
AcDbSpline
210
0.0
220
0.0
230
1.0
 70
     8
 71
     3
 72
     9
 73
     5
 74
     0
 42
0.000000001
 43
0.00000001
 40
0.0
 40
0.0
 40
0.0
 40
0.0
 40
0.8406307319474969
 40
0.9999999999999999
 40
0.9999999999999999
 40
0.9999999999999999
 40
0.9999999999999999
 10
20.16466429084539
 20
-6.176354363560682
 30
0.0
 10
20.232066823272
 20
-6.219242274550378
 30
0.0
 10
20.31224772775839
 20
-6.270261002940595
 30
0.0
 10
20.40315288477486
 20
-6.291198654746106
 30
0.0
 10
20.41764037311077
 20
-6.294535472989088
 30
0.0
  0
LINE
  5
C4
330
1F
100
AcDbEntity
  8
0
  6
Continuous
 62
     1
370
    15
100
AcDbLine
 10
21.19823583960533
 20
6.170819047838444
 30
0.0
 11
21.00958155095577
 21
6.259598769247527
 31
0.0
  0
LINE
  5
C5
330
1F
100
AcDbEntity
  8
0
  6
Continuous
 62
     1
370
    15
100
AcDbLine
 10
20.16330176591873
 20
6.213200744241471
 30
0.0
 11
20.14134024828672
 21
6.203451193869109
 31
0.0
  0
SPLINE
  5
C6
330
1F
100
AcDbEntity
  8
외형선
  6
Continuous
370
    15
100
AcDbSpline
210
0.0
220
0.0
230
1.0
 70
     8
 71
     3
 72
     8
 73
     4
 74
     0
 42
0.000000001
 43
0.00000001
 40
0.0
 40
0.0
 40
0.0
 40
0.0
 40
1.0
 40
1.0
 40
1.0
 40
1.0
 10
7.969810339711374
 20
6.31344939275454
 30
0.0
 10
8.202534494848896
 20
6.329404341779076
 30
0.0
 10
8.424314493860445
 20
6.251022700343496
 30
0.0
 10
8.601342385912748
 20
6.106732971512626
 30
0.0
  0
SPLINE
  5
C7
330
1F
100
AcDbEntity
  8
외형선
  6
Continuous
370
    15
100
AcDbSpline
210
0.0
220
0.0
230
1.0
 70
    24
 71
     3
 72
    10
 73
     6
 74
     0
 42
0.000000001
 43
0.00000001
 40
0.0
 40
0.0
 40
0.0
 40
0.0
 40
0.5
 40
0.5
 40
1.0
 40
1.0
 40
1.0
 40
1.0
 10
7.969810339711174
 20
6.313450064592956
 30
0.0
 10
7.96981033971117
 20
6.25279009197269
 30
0.0
 10
7.969810339711174
 20
6.085928076248601
 30
0.0
 10
7.969810339711174
 20
5.540322464061108
 30
0.0
 10
7.969810339711174
 20
5.175805068720837
 30
0.0
 10
7.969810339711177
 20
4.720023737907066
 30
0.0
  0
SPLINE
  5
C8
330
1F
100
AcDbEntity
  8
외형선
  6
Continuous
370
    15
100
AcDbSpline
210
0.0
220
0.0
230
1.0
 70
     8
 71
     3
 72
     8
 73
     4
 74
     0
 42
0.000000001
 43
0.00000001
 40
0.0
 40
0.0
 40
0.0
 40
0.0
 40
1.0
 40
1.0
 40
1.0
 40
1.0
 10
8.365297066200275
 20
4.499984218174837
 30
0.0
 10
8.239353389462048
 20
4.582146767129904
 30
0.0
 10
8.104868444913922
 20
4.658607746846209
 30
0.0
 10
7.969810339711174
 20
4.720021283515736
 30
0.0
  0
SPLINE
  5
C9
330
1F
100
AcDbEntity
  8
외형선
  6
Continuous
370
    15
100
AcDbSpline
210
0.0
220
0.0
230
1.0
 70
     8
 71
     3
 72
     8
 73
     4
 74
     0
 42
0.000000001
 43
0.00000001
 40
0.0
 40
0.0
 40
0.0
 40
0.0
 40
1.0
 40
1.0
 40
1.0
 40
1.0
 10
7.969810339711142
 20
1.324295467000403
 30
0.0
 10
8.022299634900886
 20
1.280815403773844
 30
0.0
 10
8.071843549547705
 20
1.236057727627985
 30
0.0
 10
8.118374884647439
 20
1.189794614055427
 30
0.0
  0
ARC
  5
CA
330
1F
100
AcDbEntity
  8
외형선
  6
Continuous
370
    15
100
AcDbCircle
 10
7.189048049145612
 20
-3.271262132267098
 30
0.0
 40
1.296570425024328
100
AcDbArc
 50
269.62472610573
 51
294.2956599932735
  0
ARC
  5
CB
330
1F
100
AcDbEntity
  8
외형선
  6
Continuous
370
    15
100
AcDbCircle
 10
7.172063645858458
 20
-3.271261881212348
 30
0.0
 40
1.296570676475914
100
AcDbArc
 50
245.7043423559547
 51
270.3752765352776
  0
SPLINE
  5
CC
330
1F
100
AcDbEntity
  8
외형선
  6
Continuous
370
    15
100
AcDbSpline
210
0.0
220
0.0
230
1.0
 70
    24
 71
     3
 72
    10
 73
     6
 74
     0
 42
0.000000001
 43
0.00000001
 40
0.0
 40
0.0
 40
0.0
 40
0.0
 40
0.5
 40
0.5
 40
1.0
 40
1.0
 40
1.0
 40
1.0
 10
7.969810339711177
 20
1.324291248499265
 30
0.0
 10
7.969810339711177
 20
0.918882857078519
 30
0.0
 10
7.969810339711045
 20
0.512554767088544
 30
0.0
 10
7.969810339711045
 20
-0.3019264129635191
 30
0.0
 10
7.969810339711142
 20
-0.7130311474934832
 30
0.0
 10
7.969810339711142
 20
-1.115699330588384
 30
0.0
  0
SPLINE
  5
CD
330
1F
100
AcDbEntity
  8
0
  6
Continuous
 62
     1
370
    15
100
AcDbSpline
210
0.0
220
0.0
230
1.0
 70
     8
 71
     3
 72
    10
 73
     6
 74
     0
 42
0.000000001
 43
0.00000001
 40
0.0
 40
0.0
 40
0.0
 40
0.0
 40
0.5
 40
0.5
 40
1.0
 40
1.0
 40
1.0
 40
1.0
 10
15.6037396948358
 20
0.9603438583668462
 30
0.0
 10
15.42868901256071
 20
1.022452834561661
 30
0.0
 10
15.23653369290185
 20
1.126379962032362
 30
0.0
 10
14.87001621111756
 20
1.335326663025213
 30
0.0
 10
14.69935738684588
 20
1.439244036345203
 30
0.0
 10
14.55707329261331
 20
1.536698912299285
 30
0.0
  0
SPLINE
  5
CE
330
1F
100
AcDbEntity
  8
0
  6
Continuous
 62
     1
370
    15
100
AcDbSpline
210
0.0
220
0.0
230
1.0
 70
     8
 71
     3
 72
    10
 73
     6
 74
     0
 42
0.000000001
 43
0.00000001
 40
0.0
 40
0.0
 40
0.0
 40
0.0
 40
0.5
 40
0.5
 40
1.0
 40
1.0
 40
1.0
 40
1.0
 10
14.31023320247754
 20
-2.235589393162138
 30
0.0
 10
14.48518243684649
 20
-2.319248878673034
 30
0.0
 10
14.67714241326877
 20
-2.428086514807919
 30
0.0
 10
15.04358883497338
 20
-2.621689051757464
 30
0.0
 10
15.21432524109418
 20
-2.705625137529438
 30
0.0
 10
15.35678788134227
 20
-2.774156406838735
 30
0.0
  0
SPLINE
  5
CF
330
1F
100
AcDbEntity
  8
외형선
  6
Continuous
370
    15
100
AcDbSpline
210
0.0
220
0.0
230
1.0
 70
     8
 71
     3
 72
     8
 73
     4
 74
     0
 42
0.000000001
 43
0.00000001
 40
0.0
 40
0.0
 40
0.0
 40
0.0
 40
1.0
 40
1.0
 40
1.0
 40
1.0
 10
10.0
 20
3.842171500765078
 30
0.0
 10
9.965494840711738
 20
3.858514625887396
 30
0.0
 10
9.931002608406791
 20
3.874832084643402
 30
0.0
 10
9.896523309173865
 20
3.891123595276824
 30
0.0
  0
SPLINE
  5
D0
330
1F
100
AcDbEntity
  8
외형선
  6
Continuous
370
    15
100
AcDbSpline
210
0.0
220
0.0
230
1.0
 70
     8
 71
     3
 72
     8
 73
     4
 74
     0
 42
0.000000001
 43
0.00000001
 40
0.0
 40
0.0
 40
0.0
 40
0.0
 40
1.0
 40
1.0
 40
1.0
 40
1.0
 10
9.696008337238295
 20
0.3606483046217444
 30
0.0
 10
9.797291099290106
 20
0.2988932996852285
 30
0.0
 10
9.898599134975237
 20
0.2372287230664493
 30
0.0
 10
10.00000000000013
 20
0.1757655720969816
 30
0.0
  0
SPLINE
  5
D1
330
1F
100
AcDbEntity
  8
외형선
  6
Continuous
370
    15
100
AcDbSpline
210
0.0
220
0.0
230
1.0
 70
     8
 71
     3
 72
    12
 73
     8
 74
     0
 42
0.000000001
 43
0.00000001
 40
0.0
 40
0.0
 40
0.0
 40
0.0
 40
0.25
 40
0.25
 40
0.5
 40
0.5
 40
1.0
 40
1.0
 40
1.0
 40
1.0
 10
9.696008337238288
 20
0.3606483046217288
 30
0.0
 10
9.712372600316991
 20
0.6815179699057106
 30
0.0
 10
9.728122598781194
 20
0.9978013054339434
 30
0.0
 10
9.760739928607983
 20
1.621254145075026
 30
0.0
 10
9.77752428817514
 20
1.929850837287774
 30
0.0
 10
9.828590405691271
 20
2.831992431167951
 30
0.0
 10
9.862604951503481
 20
3.385784868911415
 30
0.0
 10
9.896523309173862
 20
3.891123595276822
 30
0.0
  0
ARC
  5
D2
330
1F
100
AcDbEntity
  8
외형선
  6
Continuous
370
    15
100
AcDbCircle
 10
5.829019292585827
 20
-3.307885492656086
 30
0.0
 40
1.264004038629278
100
AcDbArc
 50
274.6074966076117
 51
294.9381079172976
  0
SPLINE
  5
D3
330
1F
100
AcDbEntity
  8
외형선
  6
Continuous
370
    15
100
AcDbSpline
210
0.0
220
0.0
230
1.0
 70
     8
 71
     3
 72
    48
 73
    44
 74
     0
 42
0.000000001
 43
0.00000001
 40
0.0
 40
0.0
 40
0.0
 40
0.0
 40
0.0045687972434935
 40
0.0399015426950404
 40
0.0752327359546766
 40
0.1105623949614239
 40
0.1360651328276164
 40
0.1562952198990005
 40
0.1855175541829341
 40
0.2172767431515794
 40
0.2385611359256174
 40
0.247838785119648
 40
0.2577132496180192
 40
0.2732769832516287
 40
0.288840366419743
 40
0.3284424566479506
 40
0.3680423705813882
 40
0.3757790364885914
 40
0.3801557508923913
 40
0.3865820322238877
 40
0.3950578371761673
 40
0.4055831353169791
 40
0.4189857636931556
 40
0.4346936356169223
 40
0.4527066163509201
 40
0.4730245763841115
 40
0.4956473815410756
 40
0.5071383842988133
 40
0.5315369863930411
 40
0.5618144066412998
 40
0.5944412843321228
 40
0.6276959723711077
 40
0.6477088764097687
 40
0.6733637482625425
 40
0.7046594455750913
 40
0.751305934526437
 40
0.7893290348495928
 40
0.8252904609103194
 40
0.8591900029595987
 40
0.888029848098432
 40
0.9186465434046255
 40
0.9559707176188191
 40
1.0
 40
1.0
 40
1.0
 40
1.0
 10
6.874266933649779
 20
6.349334027618164
 30
0.0
 10
6.872817032052524
 20
6.349490295746834
 30
0.0
 10
6.860154331695457
 20
6.350855061805754
 30
0.0
 10
6.836508347630298
 20
6.328131384812645
 30
0.0
 10
6.803499989493401
 20
6.256565877236406
 30
0.0
 10
6.773963213234122
 20
6.150501041975691
 30
0.0
 10
6.749153915841879
 20
6.032966099009434
 30
0.0
 10
6.725199073348752
 20
5.904878831018646
 30
0.0
 10
6.699305534114079
 20
5.743773649849706
 30
0.0
 10
6.672980773006223
 20
5.553490651648662
 30
0.0
 10
6.653071612183887
 20
5.392216408991452
 30
0.0
 10
6.640147264130887
 20
5.281369531088023
 30
0.0
 10
6.629110778535154
 20
5.182905863199892
 30
0.0
 10
6.616134496773073
 20
5.06151297243723
 30
0.0
 10
6.593872364612997
 20
4.84166419756844
 30
0.0
 10
6.56436052852406
 20
4.522806874590922
 30
0.0
 10
6.537548585413513
 20
4.201000858405409
 30
0.0
 10
6.521907806959319
 20
4.00030028415243
 30
0.0
 10
6.516106145496824
 20
3.927513760059568
 30
0.0
 10
6.510033143672482
 20
3.851058488797094
 30
0.0
 10
6.501987611175715
 20
3.748846781308181
 30
0.0
 10
6.491707330380136
 20
3.616422418202342
 30
0.0
 10
6.479109354546025
 20
3.451210435653168
 30
0.0
 10
6.464110005541212
 20
3.250331039392073
 30
0.0
 10
6.44689114516293
 20
3.014392714708539
 30
0.0
 10
6.427454787680354
 20
2.741631384364416
 30
0.0
 10
6.410080932882242
 20
2.491994972907504
 30
0.0
 10
6.391412952779559
 20
2.219122386861539
 30
0.0
 10
6.370579333607636
 20
1.905398628435048
 30
0.0
 10
6.343310457570965
 20
1.482763686397615
 30
0.0
 10
6.313410360026129
 20
1.008759067083827
 30
0.0
 10
6.286937372345834
 20
0.5799156641549408
 30
0.0
 10
6.262275717454378
 20
0.1839974048241564
 30
0.0
 10
6.237948807458683
 20
-0.2028373815729787
 30
0.0
 10
6.205042176028599
 20
-0.7225408639077042
 30
0.0
 10
6.167927647406875
 20
-1.299112518855968
 30
0.0
 10
6.129492354142674
 20
-1.885768863894132
 30
0.0
 10
6.095565509883088
 20
-2.396303132675115
 30
0.0
 10
6.064875476504278
 20
-2.847767651381259
 30
0.0
 10
6.036358733467848
 20
-3.259127720847526
 30
0.0
 10
6.00605199180062
 20
-3.667418027734137
 30
0.0
 10
5.970630576976769
 20
-4.11660726702719
 30
0.0
 10
5.944628489125168
 20
-4.409362672181086
 30
0.0
 10
5.930555906146766
 20
-4.56780474632979
 30
0.0
  0
SPLINE
  5
D4
330
1F
100
AcDbEntity
  8
외형선
  6
Continuous
370
    15
100
AcDbSpline
210
0.0
220
0.0
230
1.0
 70
     8
 71
     3
 72
     8
 73
     4
 74
     0
 42
0.000000001
 43
0.00000001
 40
0.0
 40
0.0
 40
0.0
 40
0.0
 40
1.0
 40
1.0
 40
1.0
 40
1.0
 10
8.499952793620043
 20
-6.130425061201102
 30
0.0
 10
8.367389639733373
 20
-6.223031724485804
 30
0.0
 10
8.22229628068058
 20
-6.28305352249221
 30
0.0
 10
8.079316702122204
 20
-6.309258304839517
 30
0.0
  0
SPLINE
  5
D5
330
1F
100
AcDbEntity
  8
0
  6
Continuous
 62
     1
370
    15
100
AcDbSpline
210
0.0
220
0.0
230
1.0
 70
     8
 71
     3
 72
    12
 73
     8
 74
     0
 42
0.000000001
 43
0.00000001
 40
0.0
 40
0.0
 40
0.0
 40
0.0
 40
0.5000000000000001
 40
0.5000000000000001
 40
0.75
 40
0.75
 40
1.0
 40
1.0
 40
1.0
 40
1.0
 10
16.28370882493905
 20
0.5284952109312063
 30
0.0
 10
16.24495459819515
 20
-0.098489214490283
 30
0.0
 10
16.20388841561055
 20
-0.7456998113754443
 30
0.0
 10
16.14284346587559
 20
-1.68227916571513
 30
0.0
 10
16.12259639915657
 20
-1.988698686651448
 30
0.0
 10
16.08297672921231
 20
-2.580043530194484
 30
0.0
 10
16.06396969348859
 20
-2.863248348097321
 30
0.0
 10
16.04482111108523
 20
-3.135733586231373
 30
0.0
  0
SPLINE
  5
D6
330
1F
100
AcDbEntity
  8
0
  6
Continuous
 62
     1
370
    15
100
AcDbSpline
210
0.0
220
0.0
230
1.0
 70
     8
 71
     3
 72
     8
 73
     4
 74
     0
 42
0.000000001
 43
0.00000001
 40
0.0
 40
0.0
 40
0.0
 40
0.0
 40
1.0
 40
1.0
 40
1.0
 40
1.0
 10
15.6240847127456
 20
-2.90766153712012
 30
0.0
 10
15.75668327502524
 20
-2.978660095721465
 30
0.0
 10
15.90181147554692
 20
-3.060986547250283
 30
0.0
 10
16.04482111108523
 20
-3.135733586231398
 30
0.0
  0
SPLINE
  5
D7
330
1F
100
AcDbEntity
  8
0
  6
Continuous
 62
     1
370
    15
100
AcDbSpline
210
0.0
220
0.0
230
1.0
 70
     8
 71
     3
 72
     8
 73
     4
 74
     0
 42
0.000000001
 43
0.00000001
 40
0.0
 40
0.0
 40
0.0
 40
0.0
 40
1.0
 40
1.0
 40
1.0
 40
1.0
 10
16.28370882493907
 20
0.5284952109311973
 30
0.0
 10
16.13183235837735
 20
0.6214113988578784
 30
0.0
 10
15.99044148505261
 20
0.7171700888355458
 30
0.0
 10
15.87096834744391
 20
0.8112487300871833
 30
0.0
  0
SPLINE
  5
D8
330
1F
100
AcDbEntity
  8
0
  6
Continuous
 62
     1
370
    15
100
AcDbSpline
210
0.0
220
0.0
230
1.0
 70
     8
 71
     3
 72
    10
 73
     6
 74
     0
 42
0.000000001
 43
0.00000001
 40
0.0
 40
0.0
 40
0.0
 40
0.0
 40
0.5
 40
0.5
 40
1.0
 40
1.0
 40
1.0
 40
1.0
 10
13.19073508470284
 20
2.268174598938696
 30
0.0
 10
13.01586909180631
 20
2.351841285046139
 30
0.0
 10
12.82388776178456
 20
2.460321773374231
 30
0.0
 10
12.45774313207982
 20
2.653165987135991
 30
0.0
 10
12.28729756333964
 20
2.736629909265138
 30
0.0
 10
12.14522427075763
 20
2.804506944491079
 30
0.0
  0
SPLINE
  5
D9
330
1F
100
AcDbEntity
  8
0
  6
Continuous
 62
     1
370
    15
100
AcDbSpline
210
0.0
220
0.0
230
1.0
 70
     8
 71
     3
 72
    10
 73
     6
 74
     0
 42
0.000000001
 43
0.00000001
 40
0.0
 40
0.0
 40
0.0
 40
0.0
 40
0.5
 40
0.5
 40
1.0
 40
1.0
 40
1.0
 40
1.0
 10
11.8984463095666
 20
-0.9261719451053603
 30
0.0
 10
12.07325667383941
 20
-0.9879669897414112
 30
0.0
 10
12.26498541198897
 20
-1.092105169521786
 30
0.0
 10
12.63108779041684
 20
-1.301389475753139
 30
0.0
 10
12.80167091022148
 20
-1.405554914776475
 30
0.0
 10
12.94390726384893
 20
-1.503417572077426
 30
0.0
  0
SPLINE
  5
DA
330
1F
100
AcDbEntity
  8
0
  6
Continuous
 62
     1
370
    15
100
AcDbSpline
210
0.0
220
0.0
230
1.0
 70
     8
 71
     3
 72
     8
 73
     4
 74
     0
 42
0.000000001
 43
0.00000001
 40
0.0
 40
0.0
 40
0.0
 40
0.0
 40
1.0
 40
1.0
 40
1.0
 40
1.0
 10
13.63112994109262
 20
-1.858502710978156
 30
0.0
 10
13.7829174755975
 20
-1.943433522651813
 30
0.0
 10
13.9241106485709
 20
-2.022892780379994
 30
0.0
 10
14.043326364308
 20
-2.094416444721737
 30
0.0
  0
SPLINE
  5
DB
330
1F
100
AcDbEntity
  8
0
  6
Continuous
 62
     1
370
    15
100
AcDbSpline
210
0.0
220
0.0
230
1.0
 70
     8
 71
     3
 72
    12
 73
     8
 74
     0
 42
0.000000001
 43
0.00000001
 40
0.0
 40
0.0
 40
0.0
 40
0.0
 40
0.2499999999999999
 40
0.2499999999999999
 40
0.4999999999999999
 40
0.4999999999999999
 40
1.0
 40
1.0
 40
1.0
 40
1.0
 10
13.86971654987359
 20
1.893595013102989
 30
0.0
 10
13.8496718413198
 20
1.589792574045295
 30
0.0
 10
13.82997468487766
 20
1.28059136151372
 30
0.0
 10
13.79188743480429
 20
0.6620661793327621
 30
0.0
 10
13.77261220577974
 20
0.3480095379475493
 30
0.0
 10
13.71290192784045
 20
-0.6045921304175761
 30
0.0
 10
13.67145535762636
 20
-1.24862162727505
 30
0.0
 10
13.6311299411036
 20
-1.858502710984109
 30
0.0
  0
SPLINE
  5
DC
330
1F
100
AcDbEntity
  8
0
  6
Continuous
 62
     1
370
    15
100
AcDbSpline
210
0.0
220
0.0
230
1.0
 70
     8
 71
     3
 72
     8
 73
     4
 74
     0
 42
0.000000001
 43
0.00000001
 40
0.0
 40
0.0
 40
0.0
 40
0.0
 40
1.0
 40
1.0
 40
1.0
 40
1.0
 10
14.2900765798684
 20
1.681971126883158
 30
0.0
 10
14.15761393845252
 20
1.738297894444174
 30
0.0
 10
14.01264896066815
 20
1.815865047877188
 30
0.0
 10
13.86971654987367
 20
1.893595013103707
 30
0.0
  0
SPLINE
  5
DD
330
1F
100
AcDbEntity
  8
0
  6
Continuous
 62
     1
370
    15
100
AcDbSpline
210
0.0
220
0.0
230
1.0
 70
     8
 71
     3
 72
     8
 73
     4
 74
     0
 42
0.000000001
 43
0.00000001
 40
0.0
 40
0.0
 40
0.0
 40
0.0
 40
1.0
 40
1.0
 40
1.0
 40
1.0
 10
16.04482111107826
 20
-3.135733586227834
 30
0.0
 10
16.19675406763517
 20
-3.20876082640286
 30
0.0
 10
16.33810197059576
 20
-3.267893764511264
 30
0.0
 10
16.45744953378828
 20
-3.312968064772129
 30
0.0
  0
SPLINE
  5
DE
330
1F
100
AcDbEntity
  8
0
  6
Continuous
 62
     1
370
    15
100
AcDbSpline
210
0.0
220
0.0
230
1.0
 70
     8
 71
     3
 72
     8
 73
     4
 74
     0
 42
0.000000001
 43
0.00000001
 40
0.0
 40
0.0
 40
0.0
 40
0.0
 40
1.0
 40
1.0
 40
1.0
 40
1.0
 10
16.70423091486125
 20
0.3438882520780809
 30
0.0
 10
16.57169727787527
 20
0.3822718540613157
 30
0.0
 10
16.42669028829579
 20
0.4513064005310999
 30
0.0
 10
16.28370882493908
 20
0.5284952109312084
 30
0.0
  0
SPLINE
  5
DF
330
1F
100
AcDbEntity
  8
0
  6
Continuous
 62
     1
370
    15
100
AcDbSpline
210
0.0
220
0.0
230
1.0
 70
     8
 71
     3
 72
     8
 73
     4
 74
     0
 42
0.000000001
 43
0.00000001
 40
0.0
 40
0.0
 40
0.0
 40
0.0
 40
1.0
 40
1.0
 40
1.0
 40
1.0
 10
13.21080865936174
 20
-1.648170820522328
 30
0.0
 10
13.34325725607299
 20
-1.703707682381846
 30
0.0
 10
13.48824170080104
 20
-1.780849872244273
 30
0.0
 10
13.63112994110359
 20
-1.858502710984249
 30
0.0
  0
SPLINE
  5
E0
330
1F
100
AcDbEntity
  8
0
  6
Continuous
 62
     1
370
    15
100
AcDbSpline
210
0.0
220
0.0
230
1.0
 70
     8
 71
     3
 72
     8
 73
     4
 74
     0
 42
0.000000001
 43
0.00000001
 40
0.0
 40
0.0
 40
0.0
 40
0.0
 40
1.0
 40
1.0
 40
1.0
 40
1.0
 10
13.86971654987366
 20
1.8935950131037
 30
0.0
 10
13.71801173025801
 20
1.978302799418029
 30
0.0
 10
13.57679446175616
 20
2.057181200678797
 30
0.0
 10
13.45755872102052
 20
2.127896599800915
 30
0.0
  0
SPLINE
  5
E1
330
1F
100
AcDbEntity
  8
0
  6
Continuous
 62
     1
370
    15
100
AcDbSpline
210
0.0
220
0.0
230
1.0
 70
     8
 71
     3
 72
    10
 73
     6
 74
     0
 42
0.000000001
 43
0.00000001
 40
0.0
 40
0.0
 40
0.0
 40
0.0
 40
0.5
 40
0.5
 40
1.0
 40
1.0
 40
1.0
 40
1.0
 10
18.01727245821934
 20
-0.3938203478530611
 30
0.0
 10
17.84237015711318
 20
-0.3564045874603501
 30
0.0
 10
17.65033545494395
 20
-0.2621942095166832
 30
0.0
 10
17.28404304033549
 20
-0.0474594460785054
 30
0.0
 10
17.11350218316975
 20
0.0717785656915059
 30
0.0
 10
16.97128711957225
 20
0.1939954940309759
 30
0.0
  0
SPLINE
  5
E2
330
1F
100
AcDbEntity
  8
0
  6
Continuous
 62
     1
370
    15
100
AcDbSpline
210
0.0
220
0.0
230
1.0
 70
     8
 71
     3
 72
    10
 73
     6
 74
     0
 42
0.000000001
 43
0.00000001
 40
0.0
 40
0.0
 40
0.0
 40
0.0
 40
0.5
 40
0.5
 40
1.0
 40
1.0
 40
1.0
 40
1.0
 10
16.72443282073384
 20
-3.439078881448113
 30
0.0
 10
16.89927668313616
 20
-3.540385374642292
 30
0.0
 10
17.09116639755244
 20
-3.648571017234484
 30
0.0
 10
17.4574713730714
 20
-3.816983855178863
 30
0.0
 10
17.62813928499274
 20
-3.876550084330978
 30
0.0
 10
17.77043254852547
 20
-3.912259597116373
 30
0.0
  0
ELLIPSE
  5
E3
330
1F
100
AcDbEntity
  8
0
  6
Continuous
 62
     1
370
    15
100
AcDbEllipse
 10
20.39546350983846
 20
-7.744537966824444
 30
0.0
 11
8.050311568857024
 21
11.32052705805415
 31
0.0
210
0.0
220
0.0
230
1.0
 40
0.1082739118711141
 41
0.6815688347718041
 42
0.6837355281118078
  0
LINE
  5
E4
330
1F
100
AcDbEntity
  8
0
  6
Continuous
 62
     1
370
    15
100
AcDbLine
 10
25.87500067055225
 20
-0.3019604482688061
 30
0.0
 11
25.87500067055225
 21
1.595959765836592
 31
0.0
  0
LINE
  5
E5
330
1F
100
AcDbEntity
  8
0
  6
Continuous
 62
     1
370
    15
100
AcDbLine
 10
24.44491667300463
 20
-0.7206943118944811
 30
0.0
 11
25.87500067055225
 21
-0.3019604482688061
 31
0.0
  0
SPLINE
  5
E6
330
1F
100
AcDbEntity
  8
0
  6
Continuous
 62
     1
370
    15
100
AcDbSpline
210
0.0
220
0.0
230
1.0
 70
     8
 71
     3
 72
    10
 73
     6
 74
     0
 42
0.000000001
 43
0.00000001
 40
0.0
 40
0.0
 40
0.0
 40
0.0
 40
0.5
 40
0.5
 40
1.0
 40
1.0
 40
1.0
 40
1.0
 10
24.57303790095427
 20
-0.2561561576756781
 30
0.0
 10
24.56923565311735
 20
-0.3115677706160662
 30
0.0
 10
24.55739994644184
 20
-0.3771094170320213
 30
0.0
 10
24.51564251345347
 20
-0.5309988246454371
 30
0.0
 10
24.48514107442266
 20
-0.6207542071404462
 30
0.0
 10
24.44491713544355
 20
-0.7206942829152931
 30
0.0
  0
SPLINE
  5
E7
330
1F
100
AcDbEntity
  8
0
  6
Continuous
 62
     1
370
    15
100
AcDbSpline
210
0.0
220
0.0
230
1.0
 70
     8
 71
     3
 72
    12
 73
     8
 74
     0
 42
0.000000001
 43
0.00000001
 40
0.0
 40
0.0
 40
0.0
 40
0.0
 40
0.2499999999999992
 40
0.2499999999999992
 40
0.4999999999999984
 40
0.4999999999999984
 40
1.0
 40
1.0
 40
1.0
 40
1.0
 10
25.62269621547116
 20
1.256786045088215
 30
0.0
 10
25.5340311263656
 20
1.148277919356794
 30
0.0
 10
25.44453368270501
 20
1.032675688947356
 30
0.0
 10
25.26422122023962
 20
0.7902416193780185
 30
0.0
 10
25.17268436519202
 20
0.6622418160945297
 30
0.0
 10
24.90508976692288
 20
0.2749501878220546
 30
0.0
 10
24.73155880677209
 20
0.0061516388143429
 30
0.0
 10
24.57303790095436
 20
-0.2561561576756382
 30
0.0
  0
SPLINE
  5
E8
330
1F
100
AcDbEntity
  8
0
  6
Continuous
 62
     1
370
    15
100
AcDbSpline
210
0.0
220
0.0
230
1.0
 70
     8
 71
     3
 72
    10
 73
     6
 74
     0
 42
0.000000001
 43
0.00000001
 40
0.0
 40
0.0
 40
0.0
 40
0.0
 40
0.5
 40
0.5
 40
1.0
 40
1.0
 40
1.0
 40
1.0
 10
25.86193570615344
 20
1.581951510347913
 30
0.0
 10
25.82264678282002
 20
1.523953730181316
 30
0.0
 10
25.78249138573594
 20
1.467060192918806
 30
0.0
 10
25.70211428738052
 20
1.357501699253107
 30
0.0
 10
25.66182698044498
 20
1.304674182443955
 30
0.0
 10
25.62269621547117
 20
1.256786045088224
 30
0.0
  0
SPLINE
  5
E9
330
1F
100
AcDbEntity
  8
0
  6
Continuous
 62
     1
370
    15
100
AcDbSpline
210
0.0
220
0.0
230
1.0
 70
     8
 71
     3
 72
     8
 73
     4
 74
     0
 42
0.000000001
 43
0.00000001
 40
0.0
 40
0.0
 40
0.0
 40
0.0
 40
1.0
 40
1.0
 40
1.0
 40
1.0
 10
24.44510135307868
 20
-0.21281178244177
 30
0.0
 10
24.48706318384196
 20
-0.2245038315762344
 30
0.0
 10
24.52968699567522
 20
-0.2391998947475802
 30
0.0
 10
24.57303790095463
 20
-0.2561561576758222
 30
0.0
  0
SPLINE
  5
EA
330
1F
100
AcDbEntity
  8
0
  6
Continuous
 62
     1
370
    15
100
AcDbSpline
210
0.0
220
0.0
230
1.0
 70
     8
 71
     3
 72
    10
 73
     6
 74
     0
 42
0.000000001
 43
0.00000001
 40
0.0
 40
0.0
 40
0.0
 40
0.0
 40
0.5
 40
0.5
 40
1.0
 40
1.0
 40
1.0
 40
1.0
 10
25.73758208002103
 20
2.919046813888828
 30
0.0
 10
25.56280832939837
 20
3.012912415746214
 30
0.0
 10
25.37096158415678
 20
3.121880450195034
 30
0.0
 10
25.00477810525724
 20
3.302422770774368
 30
0.0
 10
24.83419145501759
 20
3.373222124519328
 30
0.0
 10
24.69194887036292
 20
3.423846481793144
 30
0.0
  0
ARC
  5
EB
330
1F
100
AcDbEntity
  8
외형선
  6
Continuous
370
    15
100
AcDbCircle
 10
6.501432708797483
 20
-4.759735682540192
 30
0.0
 40
0.3360056830557369
100
AcDbArc
 50
65.90715583655579
 51
114.5226254781001
  0
SPLINE
  5
EC
330
1F
100
AcDbEntity
  8
0
  6
Continuous
 62
     1
370
    15
100
AcDbSpline
210
0.0
220
0.0
230
1.0
 70
     8
 71
     3
 72
    10
 73
     6
 74
     0
 42
0.000000001
 43
0.00000001
 40
0.0
 40
0.0
 40
0.0
 40
0.0
 40
0.5
 40
0.5
 40
1.0
 40
1.0
 40
1.0
 40
1.0
 10
15.35678788134228
 20
-2.77415640683874
 30
0.0
 10
15.39306195081484
 20
-2.79160595023931
 30
0.0
 10
15.43578338928597
 20
-2.812622685550075
 30
0.0
 10
15.52912058292775
 20
-2.858795039108696
 30
0.0
 10
15.57975216111132
 20
-2.883924120883914
 30
0.0
 10
15.6240847127456
 20
-2.907661537120116
 30
0.0
  0
SPLINE
  5
ED
330
1F
100
AcDbEntity
  8
0
  6
Continuous
 62
     1
370
    15
100
AcDbSpline
210
0.0
220
0.0
230
1.0
 70
     8
 71
     3
 72
    10
 73
     6
 74
     0
 42
0.000000001
 43
0.00000001
 40
0.0
 40
0.0
 40
0.0
 40
0.0
 40
0.5
 40
0.5
 40
1.0
 40
1.0
 40
1.0
 40
1.0
 10
15.87096834744392
 20
0.8112487300871892
 30
0.0
 10
15.8349126602029
 20
0.8396406358571621
 30
0.0
 10
15.79233706663931
 20
0.8684416369502693
 30
0.0
 10
15.69910088301685
 20
0.9210527437465164
 30
0.0
 10
15.6483846612928
 20
0.9445035707264414
 30
0.0
 10
15.60373969483597
 20
0.960343858366835
 30
0.0
  0
SPLINE
  5
EE
330
1F
100
AcDbEntity
  8
외형선
  6
Continuous
370
    15
100
AcDbSpline
210
0.0
220
0.0
230
1.0
 70
     8
 71
     3
 72
     8
 73
     4
 74
     0
 42
0.000000001
 43
0.00000001
 40
0.0
 40
0.0
 40
0.0
 40
0.0
 40
1.0
 40
1.0
 40
1.0
 40
1.0
 10
9.095171981990273
 20
4.264254772706019
 30
0.0
 10
9.072939175233271
 20
4.274429469357324
 30
0.0
 10
9.050708385776
 20
4.284588080980019
 30
0.0
 10
9.028479614418654
 20
4.294730560869918
 30
0.0
  0
SPLINE
  5
EF
330
1F
100
AcDbEntity
  8
외형선
  6
Continuous
370
    15
100
AcDbSpline
210
0.0
220
0.0
230
1.0
 70
     8
 71
     3
 72
     8
 73
     4
 74
     0
 42
0.000000001
 43
0.00000001
 40
0.0
 40
0.0
 40
0.0
 40
0.0
 40
1.0
 40
1.0
 40
1.0
 40
1.0
 10
9.028479614418657
 20
4.294730560869906
 30
0.0
 10
8.883060647633334
 20
4.348116255096002
 30
0.0
 10
8.747504262716532
 20
4.38123510682397
 30
0.0
 10
8.632453011488295
 20
4.396146044048206
 30
0.0
  0
SPLINE
  5
F0
330
1F
100
AcDbEntity
  8
외형선
  6
Continuous
370
    15
100
AcDbSpline
210
0.0
220
0.0
230
1.0
 70
     8
 71
     3
 72
    10
 73
     6
 74
     0
 42
0.000000001
 43
0.00000001
 40
0.0
 40
0.0
 40
0.0
 40
0.0
 40
0.5
 40
0.5
 40
1.0
 40
1.0
 40
1.0
 40
1.0
 10
8.632453011488298
 20
4.396146044048226
 30
0.0
 10
8.59640616885993
 20
4.400817807300045
 30
0.0
 10
8.55384253665565
 20
4.411864853137804
 30
0.0
 10
8.460627293101378
 20
4.446727615969001
 30
0.0
 10
8.40992687613866
 20
4.470868830734323
 30
0.0
 10
8.365297066200455
 20
4.499984218174744
 30
0.0
  0
SPLINE
  5
F1
330
1F
100
AcDbEntity
  8
외형선
  6
Continuous
370
    15
100
AcDbSpline
210
0.0
220
0.0
230
1.0
 70
     8
 71
     3
 72
    10
 73
     6
 74
     0
 42
0.000000001
 43
0.00000001
 40
0.0
 40
0.0
 40
0.0
 40
0.0
 40
0.5
 40
0.5
 40
1.0
 40
1.0
 40
1.0
 40
1.0
 10
8.601342385912861
 20
6.106732971512537
 30
0.0
 10
8.637622200819433
 20
6.077162463756855
 30
0.0
 10
8.680347478530626
 20
6.057508209619257
 30
0.0
 10
8.773687712291347
 20
6.045797063907502
 30
0.0
 10
8.82432120477772
 20
6.054773665757523
 30
0.0
 10
8.868654561270395
 20
6.081870036894715
 30
0.0
  0
SPLINE
  5
F2
330
1F
100
AcDbEntity
  8
외형선
  6
Continuous
370
    15
100
AcDbSpline
210
0.0
220
0.0
230
1.0
 70
     8
 71
     3
 72
     8
 73
     4
 74
     0
 42
0.000000001
 43
0.00000001
 40
0.0
 40
0.0
 40
0.0
 40
0.0
 40
1.0
 40
1.0
 40
1.0
 40
1.0
 10
8.868654561270391
 20
6.081870036894728
 30
0.0
 10
8.973198225659747
 20
6.145766708711223
 30
0.0
 10
9.086309110940174
 20
6.183037070608869
 30
0.0
 10
9.198740233556741
 20
6.196263632105952
 30
0.0
  0
SPLINE
  5
F3
330
1F
100
AcDbEntity
  8
외형선
  6
Continuous
370
    15
100
AcDbSpline
210
0.0
220
0.0
230
1.0
 70
     8
 71
     3
 72
     8
 73
     4
 74
     0
 42
0.000000001
 43
0.00000001
 40
0.0
 40
0.0
 40
0.0
 40
0.0
 40
1.0
 40
1.0
 40
1.0
 40
1.0
 10
9.198740233556741
 20
6.196263632105952
 30
0.0
 10
9.283751915895197
 20
6.17897975807465
 30
0.0
 10
9.368759631387446
 20
6.161100990169329
 30
0.0
 10
9.453764264047527
 20
6.142627919106898
 30
0.0
  0
SPLINE
  5
F4
330
1F
100
AcDbEntity
  8
외형선
  6
Continuous
370
    15
100
AcDbSpline
210
0.0
220
0.0
230
1.0
 70
     8
 71
     3
 72
     8
 73
     4
 74
     0
 42
0.000000001
 43
0.00000001
 40
0.0
 40
0.0
 40
0.0
 40
0.0
 40
1.0
 40
1.0
 40
1.0
 40
1.0
 10
9.453764264047523
 20
6.142627919106896
 30
0.0
 10
9.543438405098936
 20
6.100491212178321
 30
0.0
 10
9.626958787771347
 20
6.044285431744468
 30
0.0
 10
9.701886115954888
 20
5.976447916370992
 30
0.0
  0
SPLINE
  5
F5
330
1F
100
AcDbEntity
  8
외형선
  6
Continuous
370
    15
100
AcDbSpline
210
0.0
220
0.0
230
1.0
 70
     8
 71
     3
 72
    10
 73
     6
 74
     0
 42
0.000000001
 43
0.00000001
 40
0.0
 40
0.0
 40
0.0
 40
0.0
 40
0.5
 40
0.5
 40
1.0
 40
1.0
 40
1.0
 40
1.0
 10
9.701886115954895
 20
5.97644791637099
 30
0.0
 10
9.73789019769613
 20
5.943850631670726
 30
0.0
 10
9.780401197612122
 20
5.920997750036246
 30
0.0
 10
9.873535931805431
 20
5.903023763612751
 30
0.0
 10
9.924215277365589
 20
5.908943218454553
 30
0.0
 10
9.968840789723064
 20
5.93370140863423
 30
0.0
  0
SPLINE
  5
F6
330
1F
100
AcDbEntity
  8
0
  6
Continuous
 62
     1
370
    15
100
AcDbSpline
210
0.0
220
0.0
230
1.0
 70
     8
 71
     3
 72
    10
 73
     6
 74
     0
 42
0.000000001
 43
0.00000001
 40
0.0295380254920973
 40
0.0295380254920973
 40
0.0295380254920973
 40
0.0295380254920973
 40
0.5
 40
0.5
 40
1.0
 40
1.0
 40
1.0
 40
1.0
 10
10.0
 20
5.950076381587705
 30
0.0
 10
10.16631993392908
 20
6.032703864702864
 30
0.0
 10
10.34640039459078
 20
6.047062899847008
 30
0.0
 10
10.70187438134307
 20
5.971687314832456
 30
0.0
 10
10.87251747782518
 20
5.876356338232998
 30
0.0
 10
11.01478052842261
 20
5.739540738574014
 30
0.0
  0
SPLINE
  5
F7
330
1F
100
AcDbEntity
  8
0
  6
Continuous
 62
     1
370
    15
100
AcDbSpline
210
0.0
220
0.0
230
1.0
 70
     8
 71
     3
 72
    10
 73
     6
 74
     0
 42
0.000000001
 43
0.00000001
 40
0.0
 40
0.0
 40
0.0
 40
0.0
 40
0.5
 40
0.5
 40
1.0
 40
1.0
 40
1.0
 40
1.0
 10
11.01478052842273
 20
5.739540738573909
 30
0.0
 10
11.05098553797187
 20
5.70472206941615
 30
0.0
 10
11.09363776077588
 20
5.679437844961866
 30
0.0
 10
11.1868588480538
 20
5.656736541428184
 30
0.0
 10
11.2374212361854
 20
5.660410250536803
 30
0.0
 10
11.2816882699376
 20
5.683257500938764
 30
0.0
  0
SPLINE
  5
F8
330
1F
100
AcDbEntity
  8
0
  6
Continuous
 62
     1
370
    15
100
AcDbSpline
210
0.0
220
0.0
230
1.0
 70
     8
 71
     3
 72
     8
 73
     4
 74
     0
 42
0.000000001
 43
0.00000001
 40
0.0
 40
0.0
 40
0.0
 40
0.0
 40
1.0
 40
1.0
 40
1.0
 40
1.0
 10
11.28168826993759
 20
5.683257500938792
 30
0.0
 10
11.41414254430187
 20
5.751620246682082
 30
0.0
 10
11.55911182304346
 20
5.772511638076438
 30
0.0
 10
11.70195148932183
 20
5.75655231392024
 30
0.0
  0
SPLINE
  5
F9
330
1F
100
AcDbEntity
  8
0
  6
Continuous
 62
     1
370
    15
100
AcDbSpline
210
0.0
220
0.0
230
1.0
 70
     8
 71
     3
 72
     8
 73
     4
 74
     0
 42
0.000000001
 43
0.00000001
 40
0.0
 40
0.0
 40
0.0
 40
0.0
 40
1.0
 40
1.0
 40
1.0
 40
1.0
 10
11.70195148931055
 20
5.756552313924203
 30
0.0
 10
11.85368615474112
 20
5.69937297927361
 30
0.0
 10
11.99477507787942
 20
5.603937634186085
 30
0.0
 10
12.11391904738248
 20
5.481000865028479
 30
0.0
  0
SPLINE
  5
FA
330
1F
100
AcDbEntity
  8
0
  6
Continuous
 62
     1
370
    15
100
AcDbSpline
210
0.0
220
0.0
230
1.0
 70
     8
 71
     3
 72
    10
 73
     6
 74
     0
 42
0.000000001
 43
0.00000001
 40
0.0
 40
0.0
 40
0.0
 40
0.0
 40
0.5
 40
0.5
 40
1.0
 40
1.0
 40
1.0
 40
1.0
 10
12.1139190473825
 20
5.481000865028474
 30
0.0
 10
12.14987661609966
 20
5.443898631962981
 30
0.0
 10
12.19235585298935
 20
5.415936201927506
 30
0.0
 10
12.28543681380015
 20
5.387376342676196
 30
0.0
 10
12.33608031986649
 20
5.387848356651412
 30
0.0
 10
12.38066844718723
 20
5.407800398718646
 30
0.0
  0
SPLINE
  5
FB
330
1F
100
AcDbEntity
  8
0
  6
Continuous
 62
     1
370
    15
100
AcDbSpline
210
0.0
220
0.0
230
1.0
 70
     8
 71
     3
 72
    10
 73
     6
 74
     0
 42
0.000000001
 43
0.00000001
 40
0.0
 40
0.0
 40
0.0
 40
0.0
 40
0.5
 40
0.5
 40
1.0
 40
1.0
 40
1.0
 40
1.0
 10
12.38066844718722
 20
5.40780039871867
 30
0.0
 10
12.55544444561724
 20
5.486008170216561
 30
0.0
 10
12.74731554270273
 20
5.480920307384412
 30
0.0
 10
13.11349928943699
 20
5.361595144798278
 30
0.0
 10
13.28406424764805
 20
5.248575278481701
 30
0.0
 10
13.42627490059859
 20
5.097753427659756
 30
0.0
  0
SPLINE
  5
FC
330
1F
100
AcDbEntity
  8
0
  6
Continuous
 62
     1
370
    15
100
AcDbSpline
210
0.0
220
0.0
230
1.0
 70
     8
 71
     3
 72
    10
 73
     6
 74
     0
 42
0.000000001
 43
0.00000001
 40
0.0
 40
0.0
 40
0.0
 40
0.0
 40
0.5
 40
0.5
 40
1.0
 40
1.0
 40
1.0
 40
1.0
 10
13.42627490059871
 20
5.097753427659638
 30
0.0
 10
13.46248538331067
 20
5.059350312924801
 30
0.0
 10
13.50514466835725
 20
5.029645093919605
 30
0.0
 10
13.59837484649949
 20
4.997013889419938
 30
0.0
 10
13.64894162087035
 20
4.995176713431301
 30
0.0
 10
13.69321516687681
 20
5.012698157157503
 30
0.0
  0
SPLINE
  5
FD
330
1F
100
AcDbEntity
  8
0
  6
Continuous
 62
     1
370
    15
100
AcDbSpline
210
0.0
220
0.0
230
1.0
 70
     8
 71
     3
 72
     8
 73
     4
 74
     0
 42
0.000000001
 43
0.00000001
 40
0.0
 40
0.0
 40
0.0
 40
0.0
 40
1.0
 40
1.0
 40
1.0
 40
1.0
 10
13.69321516687681
 20
5.012698157157525
 30
0.0
 10
13.82570942802638
 20
5.065133323304783
 30
0.0
 10
13.97071300606988
 20
5.06787317439025
 30
0.0
 10
14.11357112785101
 20
5.035648913870393
 30
0.0
  0
SPLINE
  5
FE
330
1F
100
AcDbEntity
  8
0
  6
Continuous
 62
     1
370
    15
100
AcDbSpline
210
0.0
220
0.0
230
1.0
 70
     8
 71
     3
 72
     8
 73
     4
 74
     0
 42
0.000000001
 43
0.00000001
 40
0.0
 40
0.0
 40
0.0
 40
0.0
 40
1.0
 40
1.0
 40
1.0
 40
1.0
 10
14.11357112784358
 20
5.035648913873938
 30
0.0
 10
14.26539031757825
 20
4.962820553220972
 30
0.0
 10
14.4065549699668
 20
4.854997728285966
 30
0.0
 10
14.5258648989632
 20
4.722983531980388
 30
0.0
  0
SPLINE
  5
FF
330
1F
100
AcDbEntity
  8
0
  6
Continuous
 62
     1
370
    15
100
AcDbSpline
210
0.0
220
0.0
230
1.0
 70
     8
 71
     3
 72
    10
 73
     6
 74
     0
 42
0.000000001
 43
0.00000001
 40
0.0
 40
0.0
 40
0.0
 40
0.0
 40
0.5
 40
0.5
 40
1.0
 40
1.0
 40
1.0
 40
1.0
 10
14.52586489896321
 20
4.722983531980386
 30
0.0
 10
14.56186979930222
 20
4.683144785772929
 30
0.0
 10
14.60439658607707
 20
4.651401755243818
 30
0.0
 10
14.69755536793664
 20
4.613588115255233
 30
0.0
 10
14.74823989142234
 20
4.60855334295352
 30
0.0
 10
14.79286548812548
 20
4.622757163753548
 30
0.0
  0
SPLINE
  5
100
330
1F
100
AcDbEntity
  8
0
  6
Continuous
 62
     1
370
    15
100
AcDbSpline
210
0.0
220
0.0
230
1.0
 70
     8
 71
     3
 72
    10
 73
     6
 74
     0
 42
0.000000001
 43
0.00000001
 40
0.0
 40
0.0
 40
0.0
 40
0.0
 40
0.5
 40
0.5
 40
1.0
 40
1.0
 40
1.0
 40
1.0
 10
14.79286548812548
 20
4.622757163753571
 30
0.0
 10
14.96788050760721
 20
4.678462457524081
 30
0.0
 10
15.16001223094278
 20
4.649680043746566
 30
0.0
 10
15.52661805565075
 20
4.494173534343509
 30
0.0
 10
15.69739793696363
 20
4.368804028062304
 30
0.0
 10
15.83986051588127
 20
4.211047540285495
 30
0.0
  0
SPLINE
  5
101
330
1F
100
AcDbEntity
  8
0
  6
Continuous
 62
     1
370
    15
100
AcDbSpline
210
0.0
220
0.0
230
1.0
 70
     8
 71
     3
 72
    10
 73
     6
 74
     0
 42
0.000000001
 43
0.00000001
 40
0.0
 40
0.0
 40
0.0
 40
0.0
 40
0.5
 40
0.5
 40
1.0
 40
1.0
 40
1.0
 40
1.0
 10
15.83986051588138
 20
4.211047540285373
 30
0.0
 10
15.876130634894
 20
4.17088368371229
 30
0.0
 10
15.91884197588055
 20
4.138150988587444
 30
0.0
 10
16.01215542961658
 20
4.09708823995826
 30
0.0
 10
16.06277288327274
 20
4.089785425053392
 30
0.0
 10
16.10709494113335
 20
4.101130071650887
 30
0.0
  0
SPLINE
  5
102
330
1F
100
AcDbEntity
  8
0
  6
Continuous
 62
     1
370
    15
100
AcDbSpline
210
0.0
220
0.0
230
1.0
 70
     8
 71
     3
 72
     8
 73
     4
 74
     0
 42
0.000000001
 43
0.00000001
 40
0.0
 40
0.0
 40
0.0
 40
0.0
 40
1.0
 40
1.0
 40
1.0
 40
1.0
 10
16.10709494113335
 20
4.101130071650912
 30
0.0
 10
16.2396765936574
 20
4.135065589670575
 30
0.0
 10
16.38475458372085
 20
4.119450703056744
 30
0.0
 10
16.52766848062115
 20
4.072443838364997
 30
0.0
  0
SPLINE
  5
103
330
1F
100
AcDbEntity
  8
0
  6
Continuous
 62
     1
370
    15
100
AcDbSpline
210
0.0
220
0.0
230
1.0
 70
     8
 71
     3
 72
     8
 73
     4
 74
     0
 42
0.000000001
 43
0.00000001
 40
0.0
 40
0.0
 40
0.0
 40
0.0
 40
1.0
 40
1.0
 40
1.0
 40
1.0
 10
16.52766848061345
 20
4.072443838369278
 30
0.0
 10
16.67948635289151
 20
3.987445625615536
 30
0.0
 10
16.82072122064712
 20
3.872474695411153
 30
0.0
 10
16.94006988418659
 20
3.737715268411767
 30
0.0
  0
SPLINE
  5
104
330
1F
100
AcDbEntity
  8
0
  6
Continuous
 62
     1
370
    15
100
AcDbSpline
210
0.0
220
0.0
230
1.0
 70
     8
 71
     3
 72
    10
 73
     6
 74
     0
 42
0.000000001
 43
0.00000001
 40
0.0
 40
0.0
 40
0.0
 40
0.0
 40
0.5
 40
0.5
 40
1.0
 40
1.0
 40
1.0
 40
1.0
 10
16.9400698841866
 20
3.737715268411752
 30
0.0
 10
16.97606373101148
 20
3.697073756141936
 30
0.0
 10
17.01857656504641
 20
3.663088968707955
 30
0.0
 10
17.11171374692285
 20
3.617872853314487
 30
0.0
 10
17.16238372401284
 20
3.607606820365932
 30
0.0
 10
17.20699094117606
 20
3.615381957875111
 30
0.0
  0
SPLINE
  5
105
330
1F
100
AcDbEntity
  8
0
  6
Continuous
 62
     1
370
    15
100
AcDbSpline
210
0.0
220
0.0
230
1.0
 70
     8
 71
     3
 72
    10
 73
     6
 74
     0
 42
0.000000001
 43
0.00000001
 40
0.0
 40
0.0
 40
0.0
 40
0.0
 40
0.5
 40
0.5
 40
1.0
 40
1.0
 40
1.0
 40
1.0
 10
17.20699094117606
 20
3.615381957875132
 30
0.0
 10
17.38182344500987
 20
3.645855653497268
 30
0.0
 10
17.57375777369193
 20
3.595059881253019
 30
0.0
 10
17.94001855170525
 20
3.411263986854131
 30
0.0
 10
18.11060433244867
 20
3.279679481534053
 30
0.0
 10
18.25280417683189
 20
3.122687340545688
 30
0.0
  0
SPLINE
  5
106
330
1F
100
AcDbEntity
  8
0
  6
Continuous
 62
     1
370
    15
100
AcDbSpline
210
0.0
220
0.0
230
1.0
 70
     8
 71
     3
 72
    10
 73
     6
 74
     0
 42
0.000000001
 43
0.00000001
 40
0.0
 40
0.0
 40
0.0
 40
0.0
 40
0.5
 40
0.5
 40
1.0
 40
1.0
 40
1.0
 40
1.0
 10
18.252804176832
 20
3.122687340545561
 30
0.0
 10
18.28900530817112
 20
3.082720397263867
 30
0.0
 10
18.33165323875601
 20
3.048575635909665
 30
0.0
 10
18.42486037725984
 20
3.001149189335579
 30
0.0
 10
18.47541467582631
 20
2.988803691827991
 30
0.0
 10
18.51967972630071
 20
2.993428268719904
 30
0.0
  0
SPLINE
  5
107
330
1F
100
AcDbEntity
  8
0
  6
Continuous
 62
     1
370
    15
100
AcDbSpline
210
0.0
220
0.0
230
1.0
 70
     8
 71
     3
 72
     8
 73
     4
 74
     0
 42
0.000000001
 43
0.00000001
 40
0.0
 40
0.0
 40
0.0
 40
0.0
 40
1.0
 40
1.0
 40
1.0
 40
1.0
 10
18.51967972630071
 20
2.993428268719915
 30
0.0
 10
18.65214975098491
 20
3.007268031884317
 30
0.0
 10
18.79710581776852
 20
2.974165524714024
 30
0.0
 10
18.93989585465427
 20
2.914699986065494
 30
0.0
  0
SPLINE
  5
108
330
1F
100
AcDbEntity
  8
0
  6
Continuous
 62
     1
370
    15
100
AcDbSpline
210
0.0
220
0.0
230
1.0
 70
     8
 71
     3
 72
     8
 73
     4
 74
     0
 42
0.000000001
 43
0.00000001
 40
0.0
 40
0.0
 40
0.0
 40
0.0
 40
1.0
 40
1.0
 40
1.0
 40
1.0
 10
18.93989585464283
 20
2.914699986072254
 30
0.0
 10
19.09151558097667
 20
2.821679923159911
 30
0.0
 10
19.23265346943004
 20
2.705224092761723
 30
0.0
 10
19.35185884914124
 20
2.574335283107694
 30
0.0
  0
SPLINE
  5
109
330
1F
100
AcDbEntity
  8
0
  6
Continuous
 62
     1
370
    15
100
AcDbSpline
210
0.0
220
0.0
230
1.0
 70
     8
 71
     3
 72
    10
 73
     6
 74
     0
 42
0.000000001
 43
0.00000001
 40
0.0
 40
0.0
 40
0.0
 40
0.0
 40
0.5
 40
0.5
 40
1.0
 40
1.0
 40
1.0
 40
1.0
 10
19.35185884914125
 20
2.57433528310768
 30
0.0
 10
19.38782452492597
 20
2.534844578046635
 30
0.0
 10
19.43031340147883
 20
2.500261969149604
 30
0.0
 10
19.52341144174074
 20
2.449840987134169
 30
0.0
 10
19.57405475077528
 20
2.434851723320486
 30
0.0
 10
19.6186349661935
 20
2.435837202611596
 30
0.0
  0
SPLINE
  5
10A
330
1F
100
AcDbEntity
  8
0
  6
Continuous
 62
     1
370
    15
100
AcDbSpline
210
0.0
220
0.0
230
1.0
 70
     8
 71
     3
 72
    10
 73
     6
 74
     0
 42
0.000000001
 43
0.00000001
 40
0.0
 40
0.0
 40
0.0
 40
0.0
 40
0.5
 40
0.5
 40
1.0
 40
1.0
 40
1.0
 40
1.0
 10
19.6186349661935
 20
2.435837202611602
 30
0.0
 10
19.79345332374236
 20
2.439701694280259
 30
0.0
 10
19.98539378702241
 20
2.369201900594238
 30
0.0
 10
20.35161170070539
 20
2.165700449456159
 30
0.0
 10
20.52215330912999
 20
2.034129145097148
 30
0.0
 10
20.6643454555
 20
1.885375164615557
 30
0.0
  0
SPLINE
  5
10B
330
1F
100
AcDbEntity
  8
0
  6
Continuous
 62
     1
370
    15
100
AcDbSpline
210
0.0
220
0.0
230
1.0
 70
     8
 71
     3
 72
    10
 73
     6
 74
     0
 42
0.000000001
 43
0.00000001
 40
0.0
 40
0.0
 40
0.0
 40
0.0
 40
0.5
 40
0.5
 40
1.0
 40
1.0
 40
1.0
 40
1.0
 10
20.66434545550012
 20
1.88537516461544
 30
0.0
 10
20.70056312943044
 20
1.847486129964387
 30
0.0
 10
20.7432283531979
 20
1.81352669018733
 30
0.0
 10
20.83646050613889
 20
1.761928758557171
 30
0.0
 10
20.8870295339738
 20
1.74507455265865
 30
0.0
 10
20.93131215332086
 20
1.742747226362277
 30
0.0
  0
SPLINE
  5
10C
330
1F
100
AcDbEntity
  8
0
  6
Continuous
 62
     1
370
    15
100
AcDbSpline
210
0.0
220
0.0
230
1.0
 70
     8
 71
     3
 72
     8
 73
     4
 74
     0
 42
0.000000001
 43
0.00000001
 40
0.0
 40
0.0
 40
0.0
 40
0.0
 40
1.0
 40
1.0
 40
1.0
 40
1.0
 10
20.93131215332086
 20
1.742747226362283
 30
0.0
 10
21.06384389190818
 20
1.735781861511109
 30
0.0
 10
21.20881544579428
 20
1.686567660907123
 30
0.0
 10
21.3516897583831
 20
1.617494631746141
 30
0.0
  0
SPLINE
  5
10D
330
1F
100
AcDbEntity
  8
0
  6
Continuous
 62
     1
370
    15
100
AcDbSpline
210
0.0
220
0.0
230
1.0
 70
     8
 71
     3
 72
     8
 73
     4
 74
     0
 42
0.000000001
 43
0.00000001
 40
0.0
 40
0.0
 40
0.0
 40
0.0
 40
1.0
 40
1.0
 40
1.0
 40
1.0
 10
21.35168975836948
 20
1.617494631754503
 30
0.0
 10
21.5034448554356
 20
1.520853684161908
 30
0.0
 10
21.64474116193083
 20
1.408341073322478
 30
0.0
 10
21.76411810428243
 20
1.287435042510945
 30
0.0
  0
SPLINE
  5
10E
330
1F
100
AcDbEntity
  8
0
  6
Continuous
 62
     1
370
    15
100
AcDbSpline
210
0.0
220
0.0
230
1.0
 70
     8
 71
     3
 72
    10
 73
     6
 74
     0
 42
0.000000001
 43
0.00000001
 40
0.0
 40
0.0
 40
0.0
 40
0.0
 40
0.5
 40
0.5
 40
1.0
 40
1.0
 40
1.0
 40
1.0
 10
21.76411810428243
 20
1.287435042510941
 30
0.0
 10
21.8001421838718
 20
1.250949533743583
 30
0.0
 10
21.84268881965655
 20
1.21738503983934
 30
0.0
 10
21.93588051800165
 20
1.164093244470404
 30
0.0
 10
21.98657503497252
 20
1.145041187407044
 30
0.0
 10
22.03120375394064
 20
1.139169176992096
 30
0.0
  0
SPLINE
  5
10F
330
1F
100
AcDbEntity
  8
0
  6
Continuous
 62
     1
370
    15
100
AcDbSpline
210
0.0
220
0.0
230
1.0
 70
     8
 71
     3
 72
    10
 73
     6
 74
     0
 42
0.000000001
 43
0.00000001
 40
0.0
 40
0.0
 40
0.0
 40
0.0
 40
0.5000000000000001
 40
0.5000000000000001
 40
1.0
 40
1.0
 40
1.0
 40
1.0
 10
22.03120375394063
 20
1.13916917699211
 30
0.0
 10
22.20626827317311
 20
1.116135114980269
 30
0.0
 10
22.39845854587266
 20
1.029097076339381
 30
0.0
 10
22.7651004775728
 20
0.8153620771481909
 30
0.0
 10
22.93586865998503
 20
0.6899874537693711
 30
0.0
 10
23.07828010094439
 20
0.5564212727372569
 30
0.0
  0
SPLINE
  5
110
330
1F
100
AcDbEntity
  8
0
  6
Continuous
 62
     1
370
    15
100
AcDbSpline
210
0.0
220
0.0
230
1.0
 70
     8
 71
     3
 72
    10
 73
     6
 74
     0
 42
0.000000001
 43
0.00000001
 40
0.0
 40
0.0
 40
0.0
 40
0.0
 40
0.5
 40
0.5
 40
1.0
 40
1.0
 40
1.0
 40
1.0
 10
23.07828010094451
 20
0.5564212727371536
 30
0.0
 10
23.11453520977456
 20
0.52241799043966
 30
0.0
 10
23.15723128775359
 20
0.4902570798253431
 30
0.0
 10
23.25051139042646
 20
0.4369290319289216
 30
0.0
 10
23.30111117357488
 20
0.4163546019460796
 30
0.0
 10
23.34542457872596
 20
0.4071680774796377
 30
0.0
  0
SPLINE
  5
111
330
1F
100
AcDbEntity
  8
0
  6
Continuous
 62
     1
370
    15
100
AcDbSpline
210
0.0
220
0.0
230
1.0
 70
     8
 71
     3
 72
     8
 73
     4
 74
     0
 42
0.000000001
 43
0.00000001
 40
0.0
 40
0.0
 40
0.0
 40
0.0
 40
1.0
 40
1.0
 40
1.0
 40
1.0
 10
23.34542457872596
 20
0.4071680774796515
 30
0.0
 10
23.47798209491599
 20
0.3796878407084409
 30
0.0
 10
23.62295473757784
 20
0.3167929899654764
 30
0.0
 10
23.76589492480181
 20
0.2414627155024346
 30
0.0
  0
SPLINE
  5
112
330
1F
100
AcDbEntity
  8
0
  6
Continuous
 62
     1
370
    15
100
AcDbSpline
210
0.0
220
0.0
230
1.0
 70
     8
 71
     3
 72
     8
 73
     4
 74
     0
 42
0.000000001
 43
0.00000001
 40
0.0
 40
0.0
 40
0.0
 40
0.0
 40
1.0
 40
1.0
 40
1.0
 40
1.0
 10
23.76589492479297
 20
0.2414627155079418
 30
0.0
 10
23.91762753395967
 20
0.1459606542717899
 30
0.0
 10
24.05890409235576
 20
0.0428748787976883
 30
0.0
 10
24.1782128862956
 20
-0.0621458645518457
 30
0.0
  0
SPLINE
  5
113
330
1F
100
AcDbEntity
  8
0
  6
Continuous
 62
     1
370
    15
100
AcDbSpline
210
0.0
220
0.0
230
1.0
 70
     8
 71
     3
 72
    10
 73
     6
 74
     0
 42
0.000000001
 43
0.00000001
 40
0.0
 40
0.0
 40
0.0
 40
0.0
 40
0.5
 40
0.5
 40
1.0
 40
1.0
 40
1.0
 40
1.0
 10
24.1782128862956
 20
-0.0621458645518498
 30
0.0
 10
24.21420340717958
 20
-0.0938262724409664
 30
0.0
 10
24.25671460088278
 20
-0.1247172704005479
 30
0.0
 10
24.34984895467603
 20
-0.1782419093270926
 30
0.0
 10
24.40050897734806
 20
-0.2003867705063747
 30
0.0
 10
24.44510135307869
 20
-0.2128117824417785
 30
0.0
  0
SPLINE
  5
114
330
1F
100
AcDbEntity
  8
0
  6
Continuous
 62
     1
370
    15
100
AcDbSpline
210
0.0
220
0.0
230
1.0
 70
     8
 71
     3
 72
     8
 73
     4
 74
     0
 42
0.000000001
 43
0.00000001
 40
0.0
 40
0.0
 40
0.0
 40
0.0
 40
1.0
 40
1.0
 40
1.0
 40
1.0
 10
25.875
 20
-2.510821677748755
 30
0.0
 10
25.39655610677701
 20
-1.887883184165855
 30
0.0
 10
24.91970733954091
 20
-1.288858165911578
 30
0.0
 10
24.44491713544381
 20
-0.7206942829154332
 30
0.0
  0
LINE
  5
115
330
1F
100
AcDbEntity
  8
0
  6
Continuous
 62
     1
370
    15
100
AcDbLine
 10
25.87500067055225
 20
-4.30321646854282
 30
0.0
 11
25.87500067055225
 21
-2.510821679607038
 31
0.0
  0
SPLINE
  5
116
330
1F
100
AcDbEntity
  8
0
  6
Continuous
 62
     1
370
    15
100
AcDbSpline
210
0.0
220
0.0
230
1.0
 70
     8
 71
     3
 72
     8
 73
     4
 74
     0
 42
0.000000001
 43
0.00000001
 40
0.0
 40
0.0
 40
0.0
 40
0.0
 40
1.0
 40
1.0
 40
1.0
 40
1.0
 10
25.72607157028748
 20
-4.394333052353764
 30
0.0
 10
25.77554291575085
 20
-4.365916556005425
 30
0.0
 10
25.82517565583607
 20
-4.335612011148317
 30
0.0
 10
25.87500000000001
 20
-4.30321624705997
 30
0.0
  0
SPLINE
  5
117
330
1F
100
AcDbEntity
  8
0
  6
Continuous
 62
     1
370
    15
100
AcDbSpline
210
0.0
220
0.0
230
1.0
 70
     8
 71
     3
 72
     8
 73
     4
 74
     0
 42
0.000000001
 43
0.00000001
 40
0.0
 40
0.0
 40
0.0
 40
0.0
 40
1.0
 40
1.0
 40
1.0
 40
1.0
 10
25.72607157028679
 20
-4.394333052352728
 30
0.0
 10
25.65293146760658
 20
-4.337319922729829
 30
0.0
 10
25.58469151825543
 20
-4.273310576352502
 30
0.0
 10
25.522090336088
 20
-4.202815660828461
 30
0.0
  0
SPLINE
  5
118
330
1F
100
AcDbEntity
  8
0
  6
Continuous
 62
     1
370
    15
100
AcDbSpline
210
0.0
220
0.0
230
1.0
 70
     8
 71
     3
 72
    10
 73
     6
 74
     0
 42
0.000000001
 43
0.00000001
 40
0.0
 40
0.0
 40
0.0
 40
0.0
 40
0.5
 40
0.5
 40
1.0
 40
1.0
 40
1.0
 40
1.0
 10
25.52209033608801
 20
-4.202815660828467
 30
0.0
 10
25.48612250636912
 20
-4.162312446195317
 30
0.0
 10
25.44363141897497
 20
-4.129156776596016
 30
0.0
 10
25.35052987745691
 20
-4.087051431680667
 30
0.0
 10
25.29988370690858
 20
-4.079111648906338
 30
0.0
 10
25.25529994951796
 20
-4.089833626079615
 30
0.0
  0
SPLINE
  5
119
330
1F
100
AcDbEntity
  8
0
  6
Continuous
 62
     1
370
    15
100
AcDbSpline
210
0.0
220
0.0
230
1.0
 70
     8
 71
     3
 72
    10
 73
     6
 74
     0
 42
0.000000001
 43
0.00000001
 40
0.0
 40
0.0
 40
0.0
 40
0.0
 40
0.5
 40
0.5
 40
1.0
 40
1.0
 40
1.0
 40
1.0
 10
25.25529994951778
 20
-4.089833626079693
 30
0.0
 10
25.08046344508609
 20
-4.131880172160226
 30
0.0
 10
24.88850461306314
 20
-4.090756488289959
 30
0.0
 10
24.52224739131945
 20
-3.918649202419044
 30
0.0
 10
24.35168283218128
 20
-3.789072532729195
 30
0.0
 10
24.20945698660837
 20
-3.630837012602536
 30
0.0
  0
SPLINE
  5
11A
330
1F
100
AcDbEntity
  8
0
  6
Continuous
 62
     1
370
    15
100
AcDbSpline
210
0.0
220
0.0
230
1.0
 70
     8
 71
     3
 72
    10
 73
     6
 74
     0
 42
0.000000001
 43
0.00000001
 40
0.0
 40
0.0
 40
0.0
 40
0.0
 40
0.5
 40
0.5
 40
1.0
 40
1.0
 40
1.0
 40
1.0
 10
24.20945698660837
 20
-3.630837012602532
 30
0.0
 10
24.17322966446138
 20
-3.590531756271421
 30
0.0
 10
24.13055487460304
 20
-3.556810616990868
 30
0.0
 10
24.03730627527753
 20
-3.511943740857588
 30
0.0
 10
23.98672789980589
 20
-3.501777837354531
 30
0.0
 10
23.942437130711
 20
-3.509435434779299
 30
0.0
  0
SPLINE
  5
11B
330
1F
100
AcDbEntity
  8
0
  6
Continuous
 62
     1
370
    15
100
AcDbSpline
210
0.0
220
0.0
230
1.0
 70
     8
 71
     3
 72
     8
 73
     4
 74
     0
 42
0.000000001
 43
0.00000001
 40
0.0
 40
0.0
 40
0.0
 40
0.0
 40
1.0
 40
1.0
 40
1.0
 40
1.0
 10
23.94243713071099
 20
-3.50943543477931
 30
0.0
 10
23.80988230359177
 20
-3.532353336715353
 30
0.0
 10
23.66487120882432
 20
-3.506779690513544
 30
0.0
 10
23.52198903409205
 20
-3.45252513185119
 30
0.0
  0
SPLINE
  5
11C
330
1F
100
AcDbEntity
  8
0
  6
Continuous
 62
     1
370
    15
100
AcDbSpline
210
0.0
220
0.0
230
1.0
 70
     8
 71
     3
 72
     8
 73
     4
 74
     0
 42
0.000000001
 43
0.00000001
 40
0.0
 40
0.0
 40
0.0
 40
0.0
 40
1.0
 40
1.0
 40
1.0
 40
1.0
 10
23.52198903409205
 20
-3.452525131851203
 30
0.0
 10
23.37019423861482
 20
-3.36249582821684
 30
0.0
 10
23.22885455106723
 20
-3.246034156460162
 30
0.0
 10
23.10942446468328
 20
-3.112611891827259
 30
0.0
  0
SPLINE
  5
11D
330
1F
100
AcDbEntity
  8
0
  6
Continuous
 62
     1
370
    15
100
AcDbSpline
210
0.0
220
0.0
230
1.0
 70
     8
 71
     3
 72
    10
 73
     6
 74
     0
 42
0.000000001
 43
0.00000001
 40
0.0
 40
0.0
 40
0.0
 40
0.0
 40
0.5
 40
0.5
 40
1.0
 40
1.0
 40
1.0
 40
1.0
 10
23.10942446468328
 20
-3.112611891827254
 30
0.0
 10
23.07338567020603
 20
-3.072350867830883
 30
0.0
 10
23.03082494433383
 20
-3.037817880633487
 30
0.0
 10
22.93761029001624
 20
-2.989410770316513
 30
0.0
 10
22.88690166129348
 20
-2.9764308372193
 30
0.0
 10
22.8422586818604
 20
-2.980471681748952
 30
0.0
  0
SPLINE
  5
11E
330
1F
100
AcDbEntity
  8
0
  6
Continuous
 62
     1
370
    15
100
AcDbSpline
210
0.0
220
0.0
230
1.0
 70
     8
 71
     3
 72
    10
 73
     6
 74
     0
 42
0.000000001
 43
0.00000001
 40
0.0
 40
0.0
 40
0.0
 40
0.0
 40
0.5
 40
0.5
 40
1.0
 40
1.0
 40
1.0
 40
1.0
 10
22.84225868186023
 20
-2.980471681749004
 30
0.0
 10
22.66721019519045
 20
-2.996316137669332
 30
0.0
 10
22.47505321780019
 20
-2.93409579944984
 30
0.0
 10
22.10843352936052
 20
-2.738014368956189
 30
0.0
 10
21.93767983749659
 20
-2.605537567343952
 30
0.0
 10
21.79529892535658
 20
-2.452045663998958
 30
0.0
  0
SPLINE
  5
11F
330
1F
100
AcDbEntity
  8
0
  6
Continuous
 62
     1
370
    15
100
AcDbSpline
210
0.0
220
0.0
230
1.0
 70
     8
 71
     3
 72
    10
 73
     6
 74
     0
 42
0.000000001
 43
0.00000001
 40
0.0
 40
0.0
 40
0.0
 40
0.0
 40
0.5
 40
0.5
 40
1.0
 40
1.0
 40
1.0
 40
1.0
 10
21.79529892535658
 20
-2.452045663998955
 30
0.0
 10
21.75905726567019
 20
-2.41297581087022
 30
0.0
 10
21.71637340429204
 20
-2.378703324165164
 30
0.0
 10
21.62311230614599
 20
-2.328609444985073
 30
0.0
 10
21.57252420244652
 20
-2.31363789472942
 30
0.0
 10
21.52822281878921
 20
-2.314393781956934
 30
0.0
  0
SPLINE
  5
120
330
1F
100
AcDbEntity
  8
0
  6
Continuous
 62
     1
370
    15
100
AcDbSpline
210
0.0
220
0.0
230
1.0
 70
     8
 71
     3
 72
     8
 73
     4
 74
     0
 42
0.000000001
 43
0.00000001
 40
0.0
 40
0.0
 40
0.0
 40
0.0
 40
1.0
 40
1.0
 40
1.0
 40
1.0
 10
21.5282228187892
 20
-2.314393781956942
 30
0.0
 10
21.39568574787641
 20
-2.316655180378487
 30
0.0
 10
21.25073182909291
 20
-2.27423741012489
 30
0.0
 10
21.10782387748015
 20
-2.209096256843175
 30
0.0
  0
SPLINE
  5
121
330
1F
100
AcDbEntity
  8
0
  6
Continuous
 62
     1
370
    15
100
AcDbSpline
210
0.0
220
0.0
230
1.0
 70
     8
 71
     3
 72
     8
 73
     4
 74
     0
 42
0.000000001
 43
0.00000001
 40
0.0
 40
0.0
 40
0.0
 40
0.0
 40
1.0
 40
1.0
 40
1.0
 40
1.0
 10
21.10782387747988
 20
-2.209096256843156
 30
0.0
 10
20.95612749384947
 20
-2.113578929392907
 30
0.0
 10
20.81488613200495
 20
-1.998705507254834
 30
0.0
 10
20.69561149647148
 20
-1.872643862341997
 30
0.0
  0
SPLINE
  5
122
330
1F
100
AcDbEntity
  8
0
  6
Continuous
 62
     1
370
    15
100
AcDbSpline
210
0.0
220
0.0
230
1.0
 70
     8
 71
     3
 72
    10
 73
     6
 74
     0
 42
0.000000001
 43
0.00000001
 40
0.0
 40
0.0
 40
0.0
 40
0.0
 40
0.5
 40
0.5
 40
1.0
 40
1.0
 40
1.0
 40
1.0
 10
20.69561149647147
 20
-1.872643862341976
 30
0.0
 10
20.65962956563052
 20
-1.834614474378116
 30
0.0
 10
20.61712626798678
 20
-1.800415020765626
 30
0.0
 10
20.52400469874556
 20
-1.748137183230699
 30
0.0
 10
20.47335152839209
 20
-1.730821748758249
 30
0.0
 10
20.42876524103729
 20
-1.728009308515088
 30
0.0
  0
SPLINE
  5
123
330
1F
100
AcDbEntity
  8
0
  6
Continuous
 62
     1
370
    15
100
AcDbSpline
210
0.0
220
0.0
230
1.0
 70
     8
 71
     3
 72
    10
 73
     6
 74
     0
 42
0.000000001
 43
0.00000001
 40
0.0
 40
0.0
 40
0.0
 40
0.0
 40
0.5
 40
0.5
 40
1.0
 40
1.0
 40
1.0
 40
1.0
 10
20.42876524103712
 20
-1.728009308515127
 30
0.0
 10
20.25393829300464
 20
-1.71698147073339
 30
0.0
 10
20.06199345562976
 20
-1.636970554116786
 30
0.0
 10
19.69580502330014
 20
-1.4266889669689
 30
0.0
 10
19.52529463433511
 20
-1.297819735291023
 30
0.0
 10
19.38316624809412
 20
-1.156680115072849
 30
0.0
  0
SPLINE
  5
124
330
1F
100
AcDbEntity
  8
0
  6
Continuous
 62
     1
370
    15
100
AcDbSpline
210
0.0
220
0.0
230
1.0
 70
     8
 71
     3
 72
    10
 73
     6
 74
     0
 42
0.000000001
 43
0.00000001
 40
0.0
 40
0.0
 40
0.0
 40
0.0
 40
0.5
 40
0.5
 40
1.0
 40
1.0
 40
1.0
 40
1.0
 10
19.38316624809411
 20
-1.156680115072842
 30
0.0
 10
19.34697022758296
 20
-1.120735904887476
 30
0.0
 10
19.3043279281737
 20
-1.087580149937988
 30
0.0
 10
19.21113818937545
 20
-1.034711810678332
 30
0.0
 10
19.16059173800711
 20
-1.015687445292706
 30
0.0
 10
19.11632582729962
 20
-1.009516473031554
 30
0.0
  0
SPLINE
  5
125
330
1F
100
AcDbEntity
  8
0
  6
Continuous
 62
     1
370
    15
100
AcDbSpline
210
0.0
220
0.0
230
1.0
 70
     8
 71
     3
 72
     8
 73
     4
 74
     0
 42
0.000000001
 43
0.00000001
 40
0.0
 40
0.0
 40
0.0
 40
0.0
 40
1.0
 40
1.0
 40
1.0
 40
1.0
 10
19.11632582729962
 20
-1.009516473031581
 30
0.0
 10
18.98387455383705
 20
-0.9910518549670613
 30
0.0
 10
18.83899709739956
 20
-0.9339689646257052
 30
0.0
 10
18.69612793645398
 20
-0.8611060888504831
 30
0.0
  0
SPLINE
  5
126
330
1F
100
AcDbEntity
  8
0
  6
Continuous
 62
     1
370
    15
100
AcDbSpline
210
0.0
220
0.0
230
1.0
 70
     8
 71
     3
 72
     8
 73
     4
 74
     0
 42
0.000000001
 43
0.00000001
 40
0.0
 40
0.0
 40
0.0
 40
0.0
 40
1.0
 40
1.0
 40
1.0
 40
1.0
 10
18.69612793645397
 20
-0.8611060888505082
 30
0.0
 10
18.54448219598125
 20
-0.7646600713778011
 30
0.0
 10
18.40331162029009
 20
-0.6568405972169982
 30
0.0
 10
18.28409929886969
 20
-0.5441629996930932
 30
0.0
  0
SPLINE
  5
127
330
1F
100
AcDbEntity
  8
0
  6
Continuous
 62
     1
370
    15
100
AcDbSpline
210
0.0
220
0.0
230
1.0
 70
     8
 71
     3
 72
    10
 73
     6
 74
     0
 42
0.000000001
 43
0.00000001
 40
0.0
 40
0.0
 40
0.0
 40
0.0
 40
0.5
 40
0.5
 40
1.0
 40
1.0
 40
1.0
 40
1.0
 10
18.28409929886969
 20
-0.5441629996930781
 30
0.0
 10
18.24812169325111
 20
-0.5101575368561522
 30
0.0
 10
18.20562002807588
 20
-0.4779054886940142
 30
0.0
 10
18.11250191744751
 20
-0.4242143927278672
 30
0.0
 10
18.06185374479661
 20
-0.4033573449423722
 30
0.0
 10
18.01727245821951
 20
-0.3938203478530482
 30
0.0
  0
SPLINE
  5
128
330
1F
100
AcDbEntity
  8
0
  6
Continuous
 62
     1
370
    15
100
AcDbSpline
210
0.0
220
0.0
230
1.0
 70
     8
 71
     3
 72
    10
 73
     6
 74
     0
 42
0.000000001
 43
0.00000001
 40
0.0
 40
0.0
 40
0.0
 40
0.0
 40
0.5
 40
0.5
 40
1.0
 40
1.0
 40
1.0
 40
1.0
 10
16.97128711957226
 20
0.1939954940309706
 30
0.0
 10
16.93505092148741
 20
0.2251361953927092
 30
0.0
 10
16.89236922011947
 20
0.2556336743153238
 30
0.0
 10
16.79911909625016
 20
0.3088326036813728
 30
0.0
 10
16.74853621537763
 20
0.3310568150222363
 30
0.0
 10
16.70423091486126
 20
0.3438882520780839
 30
0.0
  0
SPLINE
  5
129
330
1F
100
AcDbEntity
  8
0
  6
Continuous
 62
     1
370
    15
100
AcDbSpline
210
0.0
220
0.0
230
1.0
 70
     8
 71
     3
 72
    10
 73
     6
 74
     0
 42
0.000000001
 43
0.00000001
 40
0.0
 40
0.0
 40
0.0
 40
0.0
 40
0.5
 40
0.5
 40
1.0
 40
1.0
 40
1.0
 40
1.0
 10
14.5570732926133
 20
1.536698912299306
 30
0.0
 10
14.5208457984896
 20
1.56151226873943
 30
0.0
 10
14.47817737066837
 20
1.587861381062061
 30
0.0
 10
14.38495232870878
 20
1.638794383173505
 30
0.0
 10
14.3343801074222
 20
1.66313204537321
 30
0.0
 10
14.2900765798684
 20
1.681971126883152
 30
0.0
  0
SPLINE
  5
12A
330
1F
100
AcDbEntity
  8
0
  6
Continuous
 62
     1
370
    15
100
AcDbSpline
210
0.0
220
0.0
230
1.0
 70
     8
 71
     3
 72
    10
 73
     6
 74
     0
 42
0.000000001
 43
0.00000001
 40
0.0
 40
0.0
 40
0.0
 40
0.0
 40
0.5
 40
0.5
 40
1.0
 40
1.0
 40
1.0
 40
1.0
 10
13.45755872102053
 20
2.127896599800904
 30
0.0
 10
13.42157840761585
 20
2.149235522235174
 30
0.0
 10
13.3790757675544
 20
2.173130085661942
 30
0.0
 10
13.28595743291775
 20
2.222008059518317
 30
0.0
 10
13.23531198743993
 20
2.24684625677703
 30
0.0
 10
13.19073508470301
 20
2.268174598938667
 30
0.0
  0
SPLINE
  5
12B
330
1F
100
AcDbEntity
  8
0
  6
Continuous
 62
     1
370
    15
100
AcDbSpline
210
0.0
220
0.0
230
1.0
 70
     8
 71
     3
 72
    10
 73
     6
 74
     0
 42
0.000000001
 43
0.00000001
 40
0.0
 40
0.0
 40
0.0
 40
0.0
 40
0.5
 40
0.5
 40
1.0
 40
1.0
 40
1.0
 40
1.0
 10
12.14522427075764
 20
2.804506944491068
 30
0.0
 10
12.10903619939515
 20
2.821796182672214
 30
0.0
 10
12.06641084076444
 20
2.842732227588723
 30
0.0
 10
11.97323980135191
 20
2.888913660412296
 30
0.0
 10
11.92267854596041
 20
2.91412900239641
 30
0.0
 10
11.87839610943753
 20
2.938043087791623
 30
0.0
  0
SPLINE
  5
12C
330
1F
100
AcDbEntity
  8
0
  6
Continuous
 62
     1
370
    15
100
AcDbSpline
210
0.0
220
0.0
230
1.0
 70
     8
 71
     3
 72
     8
 73
     4
 74
     0
 42
0.000000001
 43
0.00000001
 40
0.0
 40
0.0
 40
0.0
 40
0.0
 40
1.0
 40
1.0
 40
1.0
 40
1.0
 10
11.87839610943752
 20
2.938043087791627
 30
0.0
 10
11.74598013288751
 20
3.009552408857813
 30
0.0
 10
11.60105130427974
 20
3.09201485481994
 30
0.0
 10
11.45815564636066
 20
3.166588301967131
 30
0.0
  0
SPLINE
  5
12D
330
1F
100
AcDbEntity
  8
0
  6
Continuous
 62
     1
370
    15
100
AcDbSpline
210
0.0
220
0.0
230
1.0
 70
     8
 71
     3
 72
     8
 73
     4
 74
     0
 42
0.000000001
 43
0.00000001
 40
0.0
 40
0.0
 40
0.0
 40
0.0
 40
1.0
 40
1.0
 40
1.0
 40
1.0
 10
11.45815564636066
 20
3.166588301967104
 30
0.0
 10
11.30646512059074
 20
3.23914646912375
 30
0.0
 10
11.16528064759301
 20
3.297482626011682
 30
0.0
 10
11.04606368537859
 20
3.34159301663866
 30
0.0
  0
SPLINE
  5
12E
330
1F
100
AcDbEntity
  8
0
  6
Continuous
 62
     1
370
    15
100
AcDbSpline
210
0.0
220
0.0
230
1.0
 70
     8
 71
     3
 72
    10
 73
     6
 74
     0
 42
0.000000001
 43
0.00000001
 40
0.0
 40
0.0
 40
0.0
 40
0.0
 40
0.5
 40
0.5
 40
1.0
 40
1.0
 40
1.0
 40
1.0
 10
11.04606368537859
 20
3.341593016638682
 30
0.0
 10
11.01007651101681
 20
3.354908305748332
 30
0.0
 10
10.96756516255984
 20
3.372801814264243
 30
0.0
 10
10.87443421595403
 20
3.415690033806198
 30
0.0
 10
10.82378347314029
 20
3.440774729440779
 30
0.0
 10
10.77920043809609
 20
3.466601643210046
 30
0.0
  0
SPLINE
  5
12F
330
1F
100
AcDbEntity
  8
0
  6
Continuous
 62
     1
370
    15
100
AcDbSpline
210
0.0
220
0.0
230
1.0
 70
     8
 71
     3
 72
    10
 73
     6
 74
     0
 42
0.000000001
 43
0.00000001
 40
0.0
 40
0.0
 40
0.0
 40
0.0
 40
0.5
 40
0.5
 40
1.0
 40
1.0
 40
1.0
 40
1.0
 10
10.77920043809592
 20
3.466601643210122
 30
0.0
 10
10.65377314626585
 20
3.539261565245402
 30
0.0
 10
10.5193039953088
 20
3.616134820578789
 30
0.0
 10
10.25294162676128
 20
3.751516807219942
 30
0.0
 10
10.12125196888332
 20
3.810096961605018
 30
0.0
 10
9.99999999999902
 20
3.855048413205159
 30
0.0
  0
SPLINE
  5
130
330
1F
100
AcDbEntity
  8
외형선
  6
Continuous
370
    15
100
AcDbSpline
210
0.0
220
0.0
230
1.0
 70
     8
 71
     3
 72
     8
 73
     4
 74
     0
 42
0.000000001
 43
0.00000001
 40
0.0
 40
0.0
 40
0.0
 40
0.0
 40
1.0
 40
1.0
 40
1.0
 40
1.0
 10
9.896523309173862
 20
3.891123595276824
 30
0.0
 10
9.83855606456546
 20
3.910018585711815
 30
0.0
 10
9.784044543739542
 20
3.925520528697216
 30
0.0
 10
9.733072196697403
 20
3.93814050585395
 30
0.0
  0
SPLINE
  5
131
330
1F
100
AcDbEntity
  8
외형선
  6
Continuous
370
    15
100
AcDbSpline
210
0.0
220
0.0
230
1.0
 70
     8
 71
     3
 72
    10
 73
     6
 74
     0
 42
0.000000001
 43
0.00000001
 40
0.0
 40
0.0
 40
0.0
 40
0.0
 40
0.5
 40
0.5
 40
1.0
 40
1.0
 40
1.0
 40
1.0
 10
9.733072196697414
 20
3.938140505853937
 30
0.0
 10
9.696841230500647
 20
3.947110741526852
 30
0.0
 10
9.65416396585636
 20
3.961630226005332
 30
0.0
 10
9.560896417917249
 20
4.000857308569258
 30
0.0
 10
9.510282152825514
 20
4.025783536428195
 30
0.0
 10
9.465952745606206
 20
4.053669291123272
 30
0.0
  0
SPLINE
  5
132
330
1F
100
AcDbEntity
  8
외형선
  6
Continuous
370
    15
100
AcDbSpline
210
0.0
220
0.0
230
1.0
 70
     8
 71
     3
 72
     8
 73
     4
 74
     0
 42
0.000000001
 43
0.00000001
 40
0.0
 40
0.0
 40
0.0
 40
0.0
 40
1.0
 40
1.0
 40
1.0
 40
1.0
 10
9.465952745606199
 20
4.053669291123278
 30
0.0
 10
9.34882250863188
 20
4.127350967927189
 30
0.0
 10
9.221327673924574
 20
4.201594964475409
 30
0.0
 10
9.09517198199027
 20
4.264254772705991
 30
0.0
  0
SPLINE
  5
133
330
1F
100
AcDbEntity
  8
0
  6
Continuous
 62
     1
370
    15
100
AcDbSpline
210
0.0
220
0.0
230
1.0
 70
     8
 71
     3
 72
     8
 73
     4
 74
     0
 42
0.000000001
 43
0.00000001
 40
0.0
 40
0.0
 40
0.0
 40
0.0
 40
1.0
 40
1.0
 40
1.0
 40
1.0
 10
11.21963126708349
 20
-0.4934151001292861
 30
0.0
 10
11.37136881391084
 20
-0.5862188189879862
 30
0.0
 10
11.5125278462551
 20
-0.6822348991848721
 30
0.0
 10
11.63168398859033
 20
-0.7767842457103542
 30
0.0
  0
SPLINE
  5
134
330
1F
100
AcDbEntity
  8
0
  6
Continuous
 62
     1
370
    15
100
AcDbSpline
210
0.0
220
0.0
230
1.0
 70
     8
 71
     3
 72
    12
 73
     8
 74
     0
 42
0.000000001
 43
0.00000001
 40
0.0
 40
0.0
 40
0.0
 40
0.0
 40
0.5
 40
0.5
 40
0.75
 40
0.75
 40
1.0
 40
1.0
 40
1.0
 40
1.0
 10
11.45815564636064
 20
3.166588301967151
 30
0.0
 10
11.4175087203985
 20
2.612217471832997
 30
0.0
 10
11.3762501929423
 20
2.006108543444961
 30
0.0
 10
11.31752661542902
 20
1.081599699847442
 30
0.0
 10
11.29886327852458
 20
0.7731157952968947
 30
0.0
 10
11.25990939000636
 20
0.1441508513645943
 30
0.0
 10
11.23988312020222
 20
-0.1749721701049073
 30
0.0
 10
11.21963126709146
 20
-0.4934151001341682
 30
0.0
  0
SPLINE
  5
135
330
1F
100
AcDbEntity
  8
외형선
  6
Continuous
370
    15
100
AcDbSpline
210
0.0
220
0.0
230
1.0
 70
     8
 71
     3
 72
     8
 73
     4
 74
     0
 42
0.000000001
 43
0.00000001
 40
0.0
 40
0.0
 40
0.0
 40
0.0
 40
1.0
 40
1.0
 40
1.0
 40
1.0
 10
9.999999999999991
 20
0.2094857077229066
 30
0.0
 10
10.00439679292831
 20
0.2069704775280601
 30
0.0
 10
10.00879258122945
 20
0.2044431773604011
 30
0.0
 10
10.01318741668845
 20
0.20190390063849
 30
0.0
  0
SPLINE
  5
136
330
1F
100
AcDbEntity
  8
0
  6
Continuous
 62
     1
370
    15
100
AcDbSpline
210
0.0
220
0.0
230
1.0
 70
     8
 71
     3
 72
    10
 73
     6
 74
     0
 42
0.000000001
 43
0.00000001
 40
0.0
 40
0.0
 40
0.0
 40
0.0
 40
0.5
 40
0.5
 40
1.0
 40
1.0
 40
1.0
 40
1.0
 10
10.01342012556963
 20
0.2017694328738873
 30
0.0
 10
10.10952446723708
 20
0.1462319684701064
 30
0.0
 10
10.20096434497182
 20
0.0877057355004275
 30
0.0
 10
10.37573203019175
 20
-0.0343304916409908
 30
0.0
 10
10.45824311155992
 20
-0.0974764105410029
 30
0.0
 10
10.53235065880343
 20
-0.1613513730588499
 30
0.0
  0
LWPOLYLINE
  5
137
330
1F
100
AcDbEntity
  8
외형선
  6
Continuous
370
    15
100
AcDbPolyline
 90
        3
 70
   128
 43
0.0
 10
10.01318745873869
 20
0.2019039093283888
 10
10.01331772748381
 20
0.201828603167082
 10
10.01342017296702
 20
0.2017694350797634
  0
SPLINE
  5
138
330
1F
100
AcDbEntity
  8
외형선
  6
Continuous
370
    15
100
AcDbSpline
210
0.0
220
0.0
230
1.0
 70
    24
 71
     3
 72
    10
 73
     6
 74
     0
 42
0.000000001
 43
0.00000001
 40
0.0
 40
0.0
 40
0.0
 40
0.0
 40
0.5
 40
0.5
 40
1.0
 40
1.0
 40
1.0
 40
1.0
 10
10.0
 20
0.2094857077229051
 30
0.0
 10
10.0
 20
0.8730074583323407
 30
0.0
 10
10.0
 20
1.517049630672436
 30
0.0
 10
10.0
 20
2.764595014725874
 30
0.0
 10
10.0
 20
3.33597531286983
 30
0.0
 10
10.0
 20
3.855048413205152
 30
0.0
  0
SPLINE
  5
139
330
1F
100
AcDbEntity
  8
0
  6
Continuous
 62
     1
370
    15
100
AcDbSpline
210
0.0
220
0.0
230
1.0
 70
     8
 71
     3
 72
     8
 73
     4
 74
     0
 42
0.000000001
 43
0.00000001
 40
0.0
 40
0.0
 40
0.0
 40
0.0
 40
1.0
 40
1.0
 40
1.0
 40
1.0
 10
10.79930568268469
 20
-0.3106562320244182
 30
0.0
 10
10.9317521817915
 20
-0.3481674425796613
 30
0.0
 10
11.07673497845806
 20
-0.4165103126755021
 30
0.0
 10
11.21963126709146
 20
-0.4934151001341402
 30
0.0
  0
SPLINE
  5
13A
330
1F
100
AcDbEntity
  8
0
  6
Continuous
 62
     1
370
    15
100
AcDbSpline
210
0.0
220
0.0
230
1.0
 70
     8
 71
     3
 72
    10
 73
     6
 74
     0
 42
0.000000001
 43
0.00000001
 40
0.0
 40
0.0
 40
0.0
 40
0.0
 40
0.5
 40
0.5
 40
1.0
 40
1.0
 40
1.0
 40
1.0
 10
23.32518233795354
 20
4.036986514661056
 30
0.0
 10
23.15016644056917
 20
4.146029054548133
 30
0.0
 10
22.95805828902375
 20
4.251717763895516
 30
0.0
 10
22.59143590979494
 20
4.402727241557091
 30
0.0
 10
22.42061559596225
 20
4.447595940141196
 30
0.0
 10
22.27813471834494
 20
4.46445064289969
 30
0.0
  0
SPLINE
  5
13B
330
1F
100
AcDbEntity
  8
0
  6
Continuous
 62
     1
370
    15
100
AcDbSpline
210
0.0
220
0.0
230
1.0
 70
     8
 71
     3
 72
    10
 73
     6
 74
     0
 42
0.000000001
 43
0.00000001
 40
0.0
 40
0.0
 40
0.0
 40
0.0
 40
0.5
 40
0.5
 40
1.0
 40
1.0
 40
1.0
 40
1.0
 10
10.53235065880343
 20
-0.1613513730588471
 30
0.0
 10
10.56856088445941
 20
-0.1925617813447756
 30
0.0
 10
10.61121772497034
 20
-0.2230632637143913
 30
0.0
 10
10.70445253104618
 20
-0.2760894676036862
 30
0.0
 10
10.75502804740362
 20
-0.2981160160796921
 30
0.0
 10
10.79930568268468
 20
-0.3106562320243722
 30
0.0
  0
SPLINE
  5
13C
330
1F
100
AcDbEntity
  8
0
  6
Continuous
 62
     1
370
    15
100
AcDbSpline
210
0.0
220
0.0
230
1.0
 70
     8
 71
     3
 72
    10
 73
     6
 74
     0
 42
0.000000001
 43
0.00000001
 40
0.0
 40
0.0
 40
0.0
 40
0.0
 40
0.5
 40
0.5
 40
1.0
 40
1.0
 40
1.0
 40
1.0
 10
11.63168398859035
 20
-0.7767842457103562
 30
0.0
 10
11.66765992203139
 20
-0.8053308311471732
 30
0.0
 10
11.71015652047697
 20
-0.8342447291586641
 30
0.0
 10
11.80324473246452
 20
-0.8869727410924322
 30
0.0
 10
11.85387144210046
 20
-0.9104148363310931
 30
0.0
 10
11.8984463095666
 20
-0.9261719451053663
 30
0.0
  0
SPLINE
  5
13D
330
1F
100
AcDbEntity
  8
0
  6
Continuous
 62
     1
370
    15
100
AcDbSpline
210
0.0
220
0.0
230
1.0
 70
     8
 71
     3
 72
    10
 73
     6
 74
     0
 42
0.000000001
 43
0.00000001
 40
0.0
 40
0.0
 40
0.0
 40
0.0
 40
0.5
 40
0.5
 40
1.0
 40
1.0
 40
1.0
 40
1.0
 10
12.94390726384895
 20
-1.503417572077444
 30
0.0
 10
12.98010670791917
 20
-1.528323819314405
 30
0.0
 10
13.02275558943813
 20
-1.554694143392216
 30
0.0
 10
13.11597609027569
 20
-1.605474280392006
 30
0.0
 10
13.16654075510374
 20
-1.629608898806033
 30
0.0
 10
13.21080865936174
 20
-1.648170820522324
 30
0.0
  0
SPLINE
  5
13E
330
1F
100
AcDbEntity
  8
0
  6
Continuous
 62
     1
370
    15
100
AcDbSpline
210
0.0
220
0.0
230
1.0
 70
     8
 71
     3
 72
    10
 73
     6
 74
     0
 42
0.000000001
 43
0.00000001
 40
0.0
 40
0.0
 40
0.0
 40
0.0
 40
0.5
 40
0.5
 40
1.0
 40
1.0
 40
1.0
 40
1.0
 10
14.04332636430801
 20
-2.094416444721732
 30
0.0
 10
14.07932899648948
 20
-2.11601628299511
 30
0.0
 10
14.12185237115051
 20
-2.140132212416411
 30
0.0
 10
14.21498027863267
 20
-2.1893246190232
 30
0.0
 10
14.26563070983174
 20
-2.214260796894117
 30
0.0
 10
14.31023320247754
 20
-2.235589393162118
 30
0.0
  0
SPLINE
  5
13F
330
1F
100
AcDbEntity
  8
0
  6
Continuous
 62
     1
370
    15
100
AcDbSpline
210
0.0
220
0.0
230
1.0
 70
     8
 71
     3
 72
    10
 73
     6
 74
     0
 42
0.000000001
 43
0.00000001
 40
0.0
 40
0.0
 40
0.0
 40
0.0
 40
0.5
 40
0.5
 40
1.0
 40
1.0
 40
1.0
 40
1.0
 10
16.45744953378829
 20
-3.312968064772134
 30
0.0
 10
16.49346961467357
 20
-3.326571861094517
 30
0.0
 10
16.53600432510869
 20
-3.344718713341139
 30
0.0
 10
16.62914714578904
 20
-3.387993595182204
 30
0.0
 10
16.67980974898544
 20
-3.413223773626364
 30
0.0
 10
16.72443282073385
 20
-3.43907888144811
 30
0.0
  0
SPLINE
  5
140
330
1F
100
AcDbEntity
  8
0
  6
Continuous
 62
     1
370
    15
100
AcDbSpline
210
0.0
220
0.0
230
1.0
 70
     8
 71
     3
 72
    10
 73
     6
 74
     0
 42
0.000000001
 43
0.00000001
 40
0.0
 40
0.0
 40
0.0
 40
0.0
 40
0.5
 40
0.5
 40
1.0
 40
1.0
 40
1.0
 40
1.0
 10
17.77043254852547
 20
-3.912259597116374
 30
0.0
 10
17.80663929910218
 20
-3.921345940282152
 30
0.0
 10
17.84929322746713
 20
-3.935934386492352
 30
0.0
 10
17.94251960333632
 20
-3.975178964385748
 30
0.0
 10
17.99308604489156
 20
-4.000038676319726
 30
0.0
 10
18.03735548295132
 20
-4.027750965937209
 30
0.0
  0
SPLINE
  5
141
330
1F
100
AcDbEntity
  8
0
  6
Continuous
 62
     1
370
    15
100
AcDbSpline
210
0.0
220
0.0
230
1.0
 70
     8
 71
     3
 72
     8
 73
     4
 74
     0
 42
0.000000001
 43
0.00000001
 40
0.0
 40
0.0
 40
0.0
 40
0.0
 40
1.0
 40
1.0
 40
1.0
 40
1.0
 10
18.03735548295132
 20
-4.027750965937217
 30
0.0
 10
18.16980527692502
 20
-4.110663404207168
 30
0.0
 10
18.31477966494775
 20
-4.194083909020472
 30
0.0
 10
18.45763962242145
 20
-4.262211266483213
 30
0.0
  0
SPLINE
  5
142
330
1F
100
AcDbEntity
  8
0
  6
Continuous
 62
     1
370
    15
100
AcDbSpline
210
0.0
220
0.0
230
1.0
 70
     8
 71
     3
 72
     8
 73
     4
 74
     0
 42
0.000000001
 43
0.00000001
 40
0.0
 40
0.0
 40
0.0
 40
0.0
 40
1.0
 40
1.0
 40
1.0
 40
1.0
 10
18.45763962241035
 20
-4.262211266478946
 30
0.0
 10
18.60937724615955
 20
-4.319671083574281
 30
0.0
 10
18.75050601241054
 20
-4.355466372823701
 30
0.0
 10
18.86963290768667
 20
-4.371788439317099
 30
0.0
  0
SPLINE
  5
143
330
1F
100
AcDbEntity
  8
0
  6
Continuous
 62
     1
370
    15
100
AcDbSpline
210
0.0
220
0.0
230
1.0
 70
     8
 71
     3
 72
    10
 73
     6
 74
     0
 42
0.000000001
 43
0.00000001
 40
0.0
 40
0.0
 40
0.0
 40
0.0
 40
0.5
 40
0.5
 40
1.0
 40
1.0
 40
1.0
 40
1.0
 10
18.86963290768669
 20
-4.371788439317104
 30
0.0
 10
18.90559949313664
 20
-4.376716369302128
 30
0.0
 10
18.94807819236954
 20
-4.388005260277565
 30
0.0
 10
19.04114369418674
 20
-4.423225310957122
 30
0.0
 10
19.09178280711667
 20
-4.447469570498757
 30
0.0
 10
19.13637268309356
 20
-4.476567160623253
 30
0.0
  0
SPLINE
  5
144
330
1F
100
AcDbEntity
  8
0
  6
Continuous
 62
     1
370
    15
100
AcDbSpline
210
0.0
220
0.0
230
1.0
 70
     8
 71
     3
 72
    10
 73
     6
 74
     0
 42
0.000000001
 43
0.00000001
 40
0.0
 40
0.0
 40
0.0
 40
0.0
 40
0.5
 40
0.5
 40
1.0
 40
1.0
 40
1.0
 40
1.0
 10
19.13637268309355
 20
-4.47656716062326
 30
0.0
 10
19.31113509701898
 20
-4.590610202416105
 30
0.0
 10
19.50297321595523
 20
-4.693100482588372
 30
0.0
 10
19.86913660624487
 20
-4.828325483748236
 30
0.0
 10
20.03971022156889
 20
-4.86069505339421
 30
0.0
 10
20.18192985768251
 20
-4.861989273395412
 30
0.0
  0
SPLINE
  5
145
330
1F
100
AcDbEntity
  8
0
  6
Continuous
 62
     1
370
    15
100
AcDbSpline
210
0.0
220
0.0
230
1.0
 70
     8
 71
     3
 72
    10
 73
     6
 74
     0
 42
0.000000001
 43
0.00000001
 40
0.0
 40
0.0
 40
0.0
 40
0.0
 40
0.5
 40
0.5
 40
1.0
 40
1.0
 40
1.0
 40
1.0
 10
20.18192985768251
 20
-4.861989273395414
 30
0.0
 10
20.2181368575452
 20
-4.862318762520026
 30
0.0
 10
20.26079302004
 20
-4.869822329085309
 30
0.0
 10
20.35402097032771
 20
-4.900324089005368
 30
0.0
 10
20.40458690699016
 20
-4.923755253910928
 30
0.0
 10
20.4488576403254
 20
-4.954145482233729
 30
0.0
  0
SPLINE
  5
146
330
1F
100
AcDbEntity
  8
0
  6
Continuous
 62
     1
370
    15
100
AcDbSpline
210
0.0
220
0.0
230
1.0
 70
     8
 71
     3
 72
     8
 73
     4
 74
     0
 42
0.000000001
 43
0.00000001
 40
0.0
 40
0.0
 40
0.0
 40
0.0
 40
1.0
 40
1.0
 40
1.0
 40
1.0
 10
20.4488576403254
 20
-4.954145482233734
 30
0.0
 10
20.58133520810874
 20
-5.045086454503114
 30
0.0
 10
20.72633338414509
 20
-5.125681648596093
 30
0.0
 10
20.86920328670077
 20
-5.183996474192069
 30
0.0
  0
SPLINE
  5
147
330
1F
100
AcDbEntity
  8
0
  6
Continuous
 62
     1
370
    15
100
AcDbSpline
210
0.0
220
0.0
230
1.0
 70
     8
 71
     3
 72
     8
 73
     4
 74
     0
 42
0.000000001
 43
0.00000001
 40
0.0
 40
0.0
 40
0.0
 40
0.0
 40
1.0
 40
1.0
 40
1.0
 40
1.0
 10
20.86920328669337
 20
-5.183996474190154
 30
0.0
 10
21.02102752407735
 20
-5.223260189531137
 30
0.0
 10
21.16222155659036
 20
-5.234132416280932
 30
0.0
 10
21.28145848047794
 20
-5.221042388277098
 30
0.0
  0
SPLINE
  5
148
330
1F
100
AcDbEntity
  8
0
  6
Continuous
 62
     1
370
    15
100
AcDbSpline
210
0.0
220
0.0
230
1.0
 70
     8
 71
     3
 72
    10
 73
     6
 74
     0
 42
0.000000001
 43
0.00000001
 40
0.0
 40
0.0
 40
0.0
 40
0.0
 40
0.5
 40
0.5
 40
1.0
 40
1.0
 40
1.0
 40
1.0
 10
21.28145848047796
 20
-5.2210423882771
 30
0.0
 10
21.31745420389126
 20
-5.217090717836971
 30
0.0
 10
21.35997125038515
 20
-5.220982496437454
 30
0.0
 10
21.45311309755203
 20
-5.246469448124893
 30
0.0
 10
21.50379307517644
 20
-5.268597912299228
 30
0.0
 10
21.54841867904991
 20
-5.299587097123773
 30
0.0
  0
SPLINE
  5
149
330
1F
100
AcDbEntity
  8
0
  6
Continuous
 62
     1
370
    15
100
AcDbSpline
210
0.0
220
0.0
230
1.0
 70
     8
 71
     3
 72
    10
 73
     6
 74
     0
 42
0.000000001
 43
0.00000001
 40
0.0
 40
0.0
 40
0.0
 40
0.0
 40
0.5
 40
0.5
 40
1.0
 40
1.0
 40
1.0
 40
1.0
 10
21.5484186790499
 20
-5.299587097123778
 30
0.0
 10
21.72340492070373
 20
-5.421102113474875
 30
0.0
 10
21.91549338956205
 20
-5.513075661143926
 30
0.0
 10
22.28205795515201
 20
-5.608788562206612
 30
0.0
 10
22.45282210568914
 20
-5.612503813583448
 30
0.0
 10
22.59530050407403
 20
-5.579416870603398
 30
0.0
  0
SPLINE
  5
14A
330
1F
100
AcDbEntity
  8
0
  6
Continuous
 62
     1
370
    15
100
AcDbSpline
210
0.0
220
0.0
230
1.0
 70
     8
 71
     3
 72
    10
 73
     6
 74
     0
 42
0.000000001
 43
0.00000001
 40
0.0
 40
0.0
 40
0.0
 40
0.0
 40
0.5
 40
0.5
 40
1.0
 40
1.0
 40
1.0
 40
1.0
 10
22.59530050407403
 20
-5.579416870603399
 30
0.0
 10
22.6315776204432
 20
-5.570992443501511
 30
0.0
 10
22.67429584343644
 20
-5.571058661389609
 30
0.0
 10
22.76762373692762
 20
-5.591359660440226
 30
0.0
 10
22.81824975496336
 20
-5.612239160548013
 30
0.0
 10
22.8625773678617
 20
-5.643881263737345
 30
0.0
  0
SPLINE
  5
14B
330
1F
100
AcDbEntity
  8
0
  6
Continuous
 62
     1
370
    15
100
AcDbSpline
210
0.0
220
0.0
230
1.0
 70
     8
 71
     3
 72
     8
 73
     4
 74
     0
 42
0.000000001
 43
0.00000001
 40
0.0
 40
0.0
 40
0.0
 40
0.0
 40
1.0
 40
1.0
 40
1.0
 40
1.0
 10
22.86257736786169
 20
-5.643881263737358
 30
0.0
 10
22.99516245003135
 20
-5.738523645247964
 30
0.0
 10
23.14025735965967
 20
-5.812414850841515
 30
0.0
 10
23.28320416967013
 20
-5.858108320176887
 30
0.0
  0
SPLINE
  5
14C
330
1F
100
AcDbEntity
  8
0
  6
Continuous
 62
     1
370
    15
100
AcDbSpline
210
0.0
220
0.0
230
1.0
 70
     8
 71
     3
 72
     8
 73
     4
 74
     0
 42
0.000000001
 43
0.00000001
 40
0.0
 40
0.0
 40
0.0
 40
0.0
 40
1.0
 40
1.0
 40
1.0
 40
1.0
 10
23.28320416966216
 20
-5.858108320175853
 30
0.0
 10
23.43508844296338
 20
-5.877242467670492
 30
0.0
 10
23.5763295750199
 20
-5.862656082286373
 30
0.0
 10
23.69566530299881
 20
-5.820619600957473
 30
0.0
  0
SPLINE
  5
14D
330
1F
100
AcDbEntity
  8
0
  6
Continuous
 62
     1
370
    15
100
AcDbSpline
210
0.0
220
0.0
230
1.0
 70
     8
 71
     3
 72
    10
 73
     6
 74
     0
 42
0.000000001
 43
0.00000001
 40
0.0
 40
0.0
 40
0.0
 40
0.0
 40
0.5
 40
0.5
 40
1.0
 40
1.0
 40
1.0
 40
1.0
 10
23.69566530299882
 20
-5.820619600957469
 30
0.0
 10
23.73166065997744
 20
-5.807940094348798
 30
0.0
 10
23.77417395954511
 20
-5.804226229150217
 30
0.0
 10
23.86731119549525
 20
-5.818739566578095
 30
0.0
 10
23.91798610190023
 20
-5.837688615474443
 30
0.0
 10
23.96260185766509
 20
-5.869070342768133
 30
0.0
  0
SPLINE
  5
14E
330
1F
100
AcDbEntity
  8
0
  6
Continuous
 62
     1
370
    15
100
AcDbSpline
210
0.0
220
0.0
230
1.0
 70
     8
 71
     3
 72
    10
 73
     6
 74
     0
 42
0.000000001
 43
0.00000001
 40
0.0
 40
0.0
 40
0.0
 40
0.0
 40
0.5
 40
0.5
 40
1.0
 40
1.0
 40
1.0
 40
1.0
 10
23.96260185766508
 20
-5.869070342768147
 30
0.0
 10
24.05996021407412
 20
-5.937550038745799
 30
0.0
 10
24.16192846200675
 20
-5.991658279357168
 30
0.0
 10
24.37008582642976
 20
-6.070222891318895
 30
0.0
 10
24.4744772551666
 20
-6.093668425030744
 30
0.0
 10
24.5743186469623
 20
-6.10163708409333
 30
0.0
  0
LINE
  5
14F
330
1F
100
AcDbEntity
  8
0
  6
Continuous
 62
     1
370
    15
100
AcDbLine
 10
25.87500067055225
 20
-5.508448928594595
 30
0.0
 11
25.87500067055225
 21
-5.155441351234918
 31
0.0
  0
SPLINE
  5
150
330
1F
100
AcDbEntity
  8
0
  6
Continuous
 62
     1
370
    15
100
AcDbSpline
210
0.0
220
0.0
230
1.0
 70
     8
 71
     3
 72
     8
 73
     4
 74
     0
 42
0.000000001
 43
0.00000001
 40
0.0
 40
0.0
 40
0.0
 40
0.0
 40
1.0
 40
1.0
 40
1.0
 40
1.0
 10
25.77648865298165
 20
-5.601279002156607
 30
0.0
 10
25.80924794946094
 20
-5.569902300944619
 30
0.0
 10
25.84208215150042
 20
-5.538947285831282
 30
0.0
 10
25.87500000000001
 20
-5.508448885272104
 30
0.0
  0
SPLINE
  5
151
330
1F
100
AcDbEntity
  8
0
  6
Continuous
 62
     1
370
    15
100
AcDbSpline
210
0.0
220
0.0
230
1.0
 70
     8
 71
     3
 72
     8
 73
     4
 74
     0
 42
0.000000001
 43
0.00000001
 40
0.0
 40
0.0
 40
0.0
 40
0.0
 40
1.0
 40
1.0
 40
1.0
 40
1.0
 10
25.77648865298166
 20
-5.601279002156605
 30
0.0
 10
25.67089061119071
 20
-5.666661631889045
 30
0.0
 10
25.56106262436468
 20
-5.718894277486671
 30
0.0
 10
25.45182314987808
 20
-5.755700417464924
 30
0.0
  0
SPLINE
  5
152
330
1F
100
AcDbEntity
  8
0
  6
Continuous
 62
     1
370
    15
100
AcDbSpline
210
0.0
220
0.0
230
1.0
 70
     8
 71
     3
 72
     8
 73
     4
 74
     0
 42
0.000000001
 43
0.00000001
 40
0.0
 40
0.0
 40
0.0
 40
0.0
 40
1.0
 40
1.0
 40
1.0
 40
1.0
 10
25.45182314987797
 20
-5.755700417464965
 30
0.0
 10
25.30015610345636
 20
-5.778520119503487
 30
0.0
 10
25.15897896193167
 20
-5.768368939438082
 30
0.0
 10
25.03976498195926
 20
-5.731384006387728
 30
0.0
  0
SPLINE
  5
153
330
1F
100
AcDbEntity
  8
0
  6
Continuous
 62
     1
370
    15
100
AcDbSpline
210
0.0
220
0.0
230
1.0
 70
     8
 71
     3
 72
     9
 73
     5
 74
     0
 42
0.000000001
 43
0.00000001
 40
0.0
 40
0.0
 40
0.0
 40
0.0
 40
0.604192648501009
 40
1.0
 40
1.0
 40
1.0
 40
1.0
 10
24.22675808519125
 20
-6.014704704284673
 30
0.0
 10
24.11655655130723
 20
-6.025126285987191
 30
0.0
 10
23.93416185624197
 20
-6.042375058755901
 30
0.0
 10
23.78564998838235
 20
-5.989285803514713
 30
0.0
 10
23.72686789929867
 20
-5.968272686004644
 30
0.0
  0
SPLINE
  5
154
330
1F
100
AcDbEntity
  8
0
  6
Continuous
 62
     1
370
    15
100
AcDbSpline
210
0.0
220
0.0
230
1.0
 70
     8
 71
     3
 72
    10
 73
     6
 74
     0
 42
0.000000001
 43
0.00000001
 40
0.0
 40
0.0
 40
0.0
 40
0.0
 40
0.5
 40
0.5
 40
1.0
 40
1.0
 40
1.0
 40
1.0
 10
23.72686809820329
 20
-5.968272648633242
 30
0.0
 10
23.69062984606577
 20
-5.952958176819591
 30
0.0
 10
23.64794842246331
 20
-5.946934290620073
 30
0.0
 10
23.55470412188606
 20
-5.958177987201022
 30
0.0
 10
23.50411179772522
 20
-5.976230232519482
 30
0.0
 10
23.4597904725845
 20
-6.00776368948892
 30
0.0
  0
SPLINE
  5
155
330
1F
100
AcDbEntity
  8
0
  6
Continuous
 62
     1
370
    15
100
AcDbSpline
210
0.0
220
0.0
230
1.0
 70
     8
 71
     3
 72
     8
 73
     4
 74
     0
 42
0.000000001
 43
0.00000001
 40
0.0
 40
0.0
 40
0.0
 40
0.0
 40
1.0
 40
1.0
 40
1.0
 40
1.0
 10
23.45979047258449
 20
-6.007763689488947
 30
0.0
 10
23.32725818222037
 20
-6.102056927833905
 30
0.0
 10
23.18221469482374
 20
-6.167794014026665
 30
0.0
 10
23.03921409396095
 20
-6.201442331753363
 30
0.0
  0
SPLINE
  5
156
330
1F
100
AcDbEntity
  8
0
  6
Continuous
 62
     1
370
    15
100
AcDbSpline
210
0.0
220
0.0
230
1.0
 70
     8
 71
     3
 72
     8
 73
     4
 74
     0
 42
0.000000001
 43
0.00000001
 40
0.0
 40
0.0
 40
0.0
 40
0.0
 40
1.0
 40
1.0
 40
1.0
 40
1.0
 10
23.03921409396084
 20
-6.201442331753393
 30
0.0
 10
22.88730056082403
 20
-6.20331552064917
 30
0.0
 10
22.74587974540677
 20
-6.168193998672576
 30
0.0
 10
22.62639351915054
 20
-6.103970012081676
 30
0.0
  0
SPLINE
  5
157
330
1F
100
AcDbEntity
  8
0
  6
Continuous
 62
     1
370
    15
100
AcDbSpline
210
0.0
220
0.0
230
1.0
 70
     8
 71
     3
 72
    10
 73
     6
 74
     0
 42
0.000000001
 43
0.00000001
 40
0.0
 40
0.0
 40
0.0
 40
0.0
 40
0.5
 40
0.5
 40
1.0
 40
1.0
 40
1.0
 40
1.0
 10
22.62639351915054
 20
-6.103970012081669
 30
0.0
 10
22.5903398959828
 20
-6.084591147392173
 30
0.0
 10
22.54776998638475
 20
-6.074782728159457
 30
0.0
 10
22.45454227606184
 20
-6.079793230325224
 30
0.0
 10
22.40383279752198
 20
-6.095460771018185
 30
0.0
 10
22.35919497074637
 20
-6.126050362255784
 30
0.0
  0
SPLINE
  5
158
330
1F
100
AcDbEntity
  8
0
  6
Continuous
 62
     1
370
    15
100
AcDbSpline
210
0.0
220
0.0
230
1.0
 70
     8
 71
     3
 72
    10
 73
     6
 74
     0
 42
0.000000001
 43
0.00000001
 40
0.0
 40
0.0
 40
0.0
 40
0.0
 40
0.5
 40
0.5
 40
1.0
 40
1.0
 40
1.0
 40
1.0
 10
22.35919497074638
 20
-6.126050362255794
 30
0.0
 10
22.18414054758094
 20
-6.24601236837861
 30
0.0
 10
21.9919863130228
 20
-6.30799535844718
 30
0.0
 10
21.62552505776368
 20
-6.321510918403961
 30
0.0
 10
21.45491530745059
 20
-6.273556791572826
 30
0.0
 10
21.31267820732846
 20
-6.182922173081668
 30
0.0
  0
SPLINE
  5
159
330
1F
100
AcDbEntity
  8
0
  6
Continuous
 62
     1
370
    15
100
AcDbSpline
210
0.0
220
0.0
230
1.0
 70
     8
 71
     3
 72
    10
 73
     6
 74
     0
 42
0.000000001
 43
0.00000001
 40
0.0
 40
0.0
 40
0.0
 40
0.0
 40
0.5
 40
0.5
 40
1.0
 40
1.0
 40
1.0
 40
1.0
 10
21.31267820732846
 20
-6.182922173081671
 30
0.0
 10
21.2764661818252
 20
-6.159847580633835
 30
0.0
 10
21.23382038848825
 20
-6.146600238862625
 30
0.0
 10
21.14060077280525
 20
-6.146179897266126
 30
0.0
 10
21.09001119488608
 20
-6.159946839791642
 30
0.0
 10
21.04570487339184
 20
-6.189921193352058
 30
0.0
  0
SPLINE
  5
15A
330
1F
100
AcDbEntity
  8
0
  6
Continuous
 62
     1
370
    15
100
AcDbSpline
210
0.0
220
0.0
230
1.0
 70
     8
 71
     3
 72
     8
 73
     4
 74
     0
 42
0.000000001
 43
0.00000001
 40
0.0
 40
0.0
 40
0.0
 40
0.0
 40
1.0
 40
1.0
 40
1.0
 40
1.0
 10
21.04570487339182
 20
-6.189921193352081
 30
0.0
 10
20.91325161864442
 20
-6.279529189550573
 30
0.0
 10
20.76828372678904
 20
-6.332437930803701
 30
0.0
 10
20.62535371096551
 20
-6.349976289893954
 30
0.0
  0
SPLINE
  5
15B
330
1F
100
AcDbEntity
  8
0
  6
Continuous
 62
     1
370
    15
100
AcDbSpline
210
0.0
220
0.0
230
1.0
 70
     8
 71
     3
 72
     8
 73
     4
 74
     0
 42
0.000000001
 43
0.00000001
 40
0.0
 40
0.0
 40
0.0
 40
0.0
 40
1.0
 40
1.0
 40
1.0
 40
1.0
 10
20.6253537109654
 20
-6.349976289893979
 30
0.0
 10
20.47364519800315
 20
-6.330775290790893
 30
0.0
 10
20.33243925336559
 20
-6.272330529059779
 30
0.0
 10
20.21322036128187
 20
-6.183885581673803
 30
0.0
  0
SPLINE
  5
15C
330
1F
100
AcDbEntity
  8
0
  6
Continuous
 62
     1
370
    15
100
AcDbSpline
210
0.0
220
0.0
230
1.0
 70
     8
 71
     3
 72
    10
 73
     6
 74
     0
 42
0.000000001
 43
0.00000001
 40
0.0
 40
0.0
 40
0.0
 40
0.0
 40
0.5
 40
0.5
 40
1.0
 40
1.0
 40
1.0
 40
1.0
 10
20.21322036128187
 20
-6.183885581673801
 30
0.0
 10
20.17724087530614
 20
-6.157193471988169
 30
0.0
 10
20.13473884765392
 20
-6.14040330662154
 30
0.0
 10
20.04162332648879
 20
-6.133669135567162
 30
0.0
 10
19.99098133295775
 20
-6.144697221626584
 30
0.0
 10
19.94640739950285
 20
-6.172984069602936
 30
0.0
  0
SPLINE
  5
15D
330
1F
100
AcDbEntity
  8
0
  6
Continuous
 62
     1
370
    15
100
AcDbSpline
210
0.0
220
0.0
230
1.0
 70
     8
 71
     3
 72
    10
 73
     6
 74
     0
 42
0.000000001
 43
0.00000001
 40
0.0
 40
0.0
 40
0.0
 40
0.0
 40
0.5
 40
0.5
 40
1.0
 40
1.0
 40
1.0
 40
1.0
 10
19.94640739950286
 20
-6.172984069602947
 30
0.0
 10
19.77151775105257
 20
-6.283969942172556
 30
0.0
 10
19.57952106832905
 20
-6.325011423037498
 30
0.0
 10
19.21340413246972
 20
-6.291494359107512
 30
0.0
 10
19.04302318649593
 20
-6.217767378638721
 30
0.0
 10
18.90093703831301
 20
-6.101020388625154
 30
0.0
  0
SPLINE
  5
15E
330
1F
100
AcDbEntity
  8
0
  6
Continuous
 62
     1
370
    15
100
AcDbSpline
210
0.0
220
0.0
230
1.0
 70
     8
 71
     3
 72
    10
 73
     6
 74
     0
 42
0.000000001
 43
0.00000001
 40
0.0
 40
0.0
 40
0.0
 40
0.0
 40
0.5
 40
0.5
 40
1.0
 40
1.0
 40
1.0
 40
1.0
 10
18.90093703831301
 20
-6.101020388625154
 30
0.0
 10
18.86475670586601
 20
-6.071292333041306
 30
0.0
 10
18.82212894007454
 20
-6.05146926936467
 30
0.0
 10
18.72894148501129
 20
-6.039453610767657
 30
0.0
 10
18.67837554314359
 20
-6.048300187249776
 30
0.0
 10
18.63409438568899
 20
-6.075284805201267
 30
0.0
  0
SPLINE
  5
15F
330
1F
100
AcDbEntity
  8
0
  6
Continuous
 62
     1
370
    15
100
AcDbSpline
210
0.0
220
0.0
230
1.0
 70
     8
 71
     3
 72
     8
 73
     4
 74
     0
 42
0.000000001
 43
0.00000001
 40
0.0
 40
0.0
 40
0.0
 40
0.0
 40
1.0
 40
1.0
 40
1.0
 40
1.0
 10
18.63409438568897
 20
-6.07528480520129
 30
0.0
 10
18.50167559843421
 20
-6.15597985901357
 30
0.0
 10
18.35673337171667
 20
-6.193563784607877
 30
0.0
 10
18.21383144678371
 20
-6.194190144685173
 30
0.0
  0
SPLINE
  5
160
330
1F
100
AcDbEntity
  8
0
  6
Continuous
 62
     1
370
    15
100
AcDbSpline
210
0.0
220
0.0
230
1.0
 70
     8
 71
     3
 72
     8
 73
     4
 74
     0
 42
0.000000001
 43
0.00000001
 40
0.0
 40
0.0
 40
0.0
 40
0.0
 40
1.0
 40
1.0
 40
1.0
 40
1.0
 10
18.2138314467836
 20
-6.194190144685189
 30
0.0
 10
18.06212003386429
 20
-6.154887697276346
 30
0.0
 10
17.92092896457533
 20
-6.075948554279883
 30
0.0
 10
17.80170831985199
 20
-5.967596558025329
 30
0.0
  0
SPLINE
  5
161
330
1F
100
AcDbEntity
  8
0
  6
Continuous
 62
     1
370
    15
100
AcDbSpline
210
0.0
220
0.0
230
1.0
 70
     8
 71
     3
 72
    10
 73
     6
 74
     0
 42
0.000000001
 43
0.00000001
 40
0.0
 40
0.0
 40
0.0
 40
0.0
 40
0.5
 40
0.5
 40
1.0
 40
1.0
 40
1.0
 40
1.0
 10
17.80170831985199
 20
-5.967596558025335
 30
0.0
 10
17.76571668087625
 20
-5.934886066142449
 30
0.0
 10
17.7232010513446
 20
-5.911928558489469
 30
0.0
 10
17.6300653181901
 20
-5.893772018008718
 30
0.0
 10
17.57941316430712
 20
-5.899617335163182
 30
0.0
 10
17.53482783810366
 20
-5.924274687058611
 30
0.0
  0
SPLINE
  5
162
330
1F
100
AcDbEntity
  8
0
  6
Continuous
 62
     1
370
    15
100
AcDbSpline
210
0.0
220
0.0
230
1.0
 70
     8
 71
     3
 72
    10
 73
     6
 74
     0
 42
0.000000001
 43
0.00000001
 40
0.0
 40
0.0
 40
0.0
 40
0.0
 40
0.5
 40
0.5
 40
1.0
 40
1.0
 40
1.0
 40
1.0
 10
17.53482783810366
 20
-5.924274687058634
 30
0.0
 10
17.35980476318791
 20
-6.02106898947833
 30
0.0
 10
17.16767239688203
 20
-6.039090239070291
 30
0.0
 10
16.80136979353052
 20
-5.960025017858868
 30
0.0
 10
16.63092249402039
 20
-5.864011090710054
 30
0.0
 10
16.48862204669098
 20
-5.726742759979254
 30
0.0
  0
SPLINE
  5
163
330
1F
100
AcDbEntity
  8
0
  6
Continuous
 62
     1
370
    15
100
AcDbSpline
210
0.0
220
0.0
230
1.0
 70
     8
 71
     3
 72
    10
 73
     6
 74
     0
 42
0.000000001
 43
0.00000001
 40
0.0
 40
0.0
 40
0.0
 40
0.0
 40
0.5
 40
0.5
 40
1.0
 40
1.0
 40
1.0
 40
1.0
 10
16.48862204669096
 20
-5.726742759979237
 30
0.0
 10
16.45238097062173
 20
-5.691783263299682
 30
0.0
 10
16.40969314523506
 20
-5.666334317232272
 30
0.0
 10
16.31640746669174
 20
-5.643278852181989
 30
0.0
 10
16.26578804113477
 20
-5.646754634954107
 30
0.0
 10
16.22145798160313
 20
-5.669480659903064
 30
0.0
  0
SPLINE
  5
164
330
1F
100
AcDbEntity
  8
0
  6
Continuous
 62
     1
370
    15
100
AcDbSpline
210
0.0
220
0.0
230
1.0
 70
     8
 71
     3
 72
     8
 73
     4
 74
     0
 42
0.000000001
 43
0.00000001
 40
0.0
 40
0.0
 40
0.0
 40
0.0
 40
1.0
 40
1.0
 40
1.0
 40
1.0
 10
16.22145798160311
 20
-5.66948065990309
 30
0.0
 10
16.08889676685497
 20
-5.737438824305734
 30
0.0
 10
15.94380241609623
 20
-5.757824775076914
 30
0.0
 10
15.80076867872726
 20
-5.741468954753778
 30
0.0
  0
SPLINE
  5
165
330
1F
100
AcDbEntity
  8
0
  6
Continuous
 62
     1
370
    15
100
AcDbSpline
210
0.0
220
0.0
230
1.0
 70
     8
 71
     3
 72
     8
 73
     4
 74
     0
 42
0.000000001
 43
0.00000001
 40
0.0
 40
0.0
 40
0.0
 40
0.0
 40
1.0
 40
1.0
 40
1.0
 40
1.0
 10
15.80076867872713
 20
-5.741468954753776
 30
0.0
 10
15.64881883905892
 20
-5.68389438177925
 30
0.0
 10
15.50737613177568
 20
-5.588210665629481
 30
0.0
 10
15.38791676949556
 20
-5.465012725172189
 30
0.0
  0
SPLINE
  5
166
330
1F
100
AcDbEntity
  8
0
  6
Continuous
 62
     1
370
    15
100
AcDbSpline
210
0.0
220
0.0
230
1.0
 70
     8
 71
     3
 72
    10
 73
     6
 74
     0
 42
0.000000001
 43
0.00000001
 40
0.0
 40
0.0
 40
0.0
 40
0.0
 40
0.5
 40
0.5
 40
1.0
 40
1.0
 40
1.0
 40
1.0
 10
15.38791676949555
 20
-5.465012725172171
 30
0.0
 10
15.35187605625321
 20
-5.427844088413039
 30
0.0
 10
15.30931826480249
 20
-5.399798825057154
 30
0.0
 10
15.21611508402965
 20
-5.37104488970758
 30
0.0
 10
15.1654226720267
 20
-5.371399420358971
 30
0.0
 10
15.12079906317043
 20
-5.391242134619294
 30
0.0
  0
SPLINE
  5
167
330
1F
100
AcDbEntity
  8
0
  6
Continuous
 62
     1
370
    15
100
AcDbSpline
210
0.0
220
0.0
230
1.0
 70
     8
 71
     3
 72
    10
 73
     6
 74
     0
 42
0.000000001
 43
0.00000001
 40
0.0
 40
0.0
 40
0.0
 40
0.0
 40
0.5
 40
0.5
 40
1.0
 40
1.0
 40
1.0
 40
1.0
 10
15.12079906317044
 20
-5.391242134619295
 30
0.0
 10
14.94575276407398
 20
-5.469079713970759
 30
0.0
 10
14.75363992297389
 20
-5.463215233276046
 30
0.0
 10
14.38735844056313
 20
-5.342438591670566
 30
0.0
 10
14.2168655343951
 20
-5.228776808045195
 30
0.0
 10
14.07457262921528
 20
-5.077484860971344
 30
0.0
  0
SPLINE
  5
168
330
1F
100
AcDbEntity
  8
0
  6
Continuous
 62
     1
370
    15
100
AcDbSpline
210
0.0
220
0.0
230
1.0
 70
     8
 71
     3
 72
    10
 73
     6
 74
     0
 42
0.000000001
 43
0.00000001
 40
0.0
 40
0.0
 40
0.0
 40
0.0
 40
0.5
 40
0.5
 40
1.0
 40
1.0
 40
1.0
 40
1.0
 10
14.07457262921529
 20
-5.077484860971357
 30
0.0
 10
14.03836814339561
 20
-5.038990691880175
 30
0.0
 10
13.99571826630042
 20
-5.009153168804739
 30
0.0
 10
13.90249342639865
 20
-4.976213934419972
 30
0.0
 10
13.85191205786232
 20
-4.974201387089828
 30
0.0
 10
13.80762247177737
 20
-4.99156924064776
 30
0.0
  0
SPLINE
  5
169
330
1F
100
AcDbEntity
  8
0
  6
Continuous
 62
     1
370
    15
100
AcDbSpline
210
0.0
220
0.0
230
1.0
 70
     8
 71
     3
 72
     8
 73
     4
 74
     0
 42
0.000000001
 43
0.00000001
 40
0.0
 40
0.0
 40
0.0
 40
0.0
 40
1.0
 40
1.0
 40
1.0
 40
1.0
 10
13.80762247177734
 20
-4.991569240647779
 30
0.0
 10
13.67518297154886
 20
-5.043504470768054
 30
0.0
 10
13.53021139408021
 20
-5.045858058522366
 30
0.0
 10
13.38729258817055
 20
-5.013381255853288
 30
0.0
  0
SPLINE
  5
16A
330
1F
100
AcDbEntity
  8
0
  6
Continuous
 62
     1
370
    15
100
AcDbSpline
210
0.0
220
0.0
230
1.0
 70
     8
 71
     3
 72
     8
 73
     4
 74
     0
 42
0.000000001
 43
0.00000001
 40
0.0
 40
0.0
 40
0.0
 40
0.0
 40
1.0
 40
1.0
 40
1.0
 40
1.0
 10
13.38729258817044
 20
-5.013381255853281
 30
0.0
 10
13.23557677973692
 20
-4.940410751255989
 30
0.0
 10
13.09439467945761
 20
-4.832650150990329
 30
0.0
 10
12.97520824268378
 20
-4.700696660152701
 30
0.0
  0
SPLINE
  5
16B
330
1F
100
AcDbEntity
  8
0
  6
Continuous
 62
     1
370
    15
100
AcDbSpline
210
0.0
220
0.0
230
1.0
 70
     8
 71
     3
 72
    10
 73
     6
 74
     0
 42
0.000000001
 43
0.00000001
 40
0.0
 40
0.0
 40
0.0
 40
0.0
 40
0.5
 40
0.5
 40
1.0
 40
1.0
 40
1.0
 40
1.0
 10
12.97520824268379
 20
-4.700696660152738
 30
0.0
 10
12.93923062960645
 20
-4.660865184642081
 30
0.0
 10
12.89673052340597
 20
-4.62910603015464
 30
0.0
 10
12.80362366876887
 20
-4.59120337614349
 30
0.0
 10
12.75298856617012
 20
-4.586104198351522
 30
0.0
 10
12.70841782563848
 20
-4.600168364600592
 30
0.0
  0
SPLINE
  5
16C
330
1F
100
AcDbEntity
  8
0
  6
Continuous
 62
     1
370
    15
100
AcDbSpline
210
0.0
220
0.0
230
1.0
 70
     8
 71
     3
 72
    10
 73
     6
 74
     0
 42
0.000000001
 43
0.00000001
 40
0.0
 40
0.0
 40
0.0
 40
0.0
 40
0.5
 40
0.5
 40
1.0
 40
1.0
 40
1.0
 40
1.0
 10
12.70841782563849
 20
-4.600168364600615
 30
0.0
 10
12.53351710083799
 20
-4.655357774543905
 30
0.0
 10
12.34155701631604
 20
-4.625977534126291
 30
0.0
 10
11.97559793570745
 20
-4.469294286250761
 30
0.0
 10
11.8051804684061
 20
-4.343502404159489
 30
0.0
 10
11.66298552548995
 20
-4.185618844654892
 30
0.0
  0
SPLINE
  5
16D
330
1F
100
AcDbEntity
  8
0
  6
Continuous
 62
     1
370
    15
100
AcDbSpline
210
0.0
220
0.0
230
1.0
 70
     8
 71
     3
 72
    10
 73
     6
 74
     0
 42
0.000000001
 43
0.00000001
 40
0.0
 40
0.0
 40
0.0
 40
0.0
 40
0.5
 40
0.5
 40
1.0
 40
1.0
 40
1.0
 40
1.0
 10
11.66298552548996
 20
-4.185618844654883
 30
0.0
 10
11.62679498429989
 20
-4.1454353377994
 30
0.0
 10
11.58415570100443
 20
-4.112648728790209
 30
0.0
 10
11.49094838401033
 20
-4.071417715009398
 30
0.0
 10
11.4403812496183
 20
-4.064011797191963
 30
0.0
 10
11.39610642926616
 20
-4.075203001985344
 30
0.0
  0
SPLINE
  5
16E
330
1F
100
AcDbEntity
  8
0
  6
Continuous
 62
     1
370
    15
100
AcDbSpline
210
0.0
220
0.0
230
1.0
 70
     8
 71
     3
 72
     8
 73
     4
 74
     0
 42
0.000000001
 43
0.00000001
 40
0.0
 40
0.0
 40
0.0
 40
0.0
 40
1.0
 40
1.0
 40
1.0
 40
1.0
 10
11.39610642926614
 20
-4.075203001985342
 30
0.0
 10
11.26367574181975
 20
-4.108677083468962
 30
0.0
 10
11.11870772451426
 20
-4.092841976192263
 30
0.0
 10
10.97579882142138
 20
-4.045778089974039
 30
0.0
  0
SPLINE
  5
16F
330
1F
100
AcDbEntity
  8
0
  6
Continuous
 62
     1
370
    15
100
AcDbSpline
210
0.0
220
0.0
230
1.0
 70
     8
 71
     3
 72
     8
 73
     4
 74
     0
 42
0.000000001
 43
0.00000001
 40
0.0
 40
0.0
 40
0.0
 40
0.0
 40
1.0
 40
1.0
 40
1.0
 40
1.0
 10
10.97579882142128
 20
-4.045778089974034
 30
0.0
 10
10.82404373097507
 20
-3.960838754426201
 30
0.0
 10
10.68283868656578
 20
-3.846092309009588
 30
0.0
 10
10.56360717713363
 20
-3.711603348687198
 30
0.0
  0
SPLINE
  5
170
330
1F
100
AcDbEntity
  8
0
  6
Continuous
 62
     1
370
    15
100
AcDbSpline
210
0.0
220
0.0
230
1.0
 70
     8
 71
     3
 72
    10
 73
     6
 74
     0
 42
0.000000001
 43
0.00000001
 40
0.0
 40
0.0
 40
0.0
 40
0.0
 40
0.5
 40
0.5
 40
1.0
 40
1.0
 40
1.0
 40
1.0
 10
10.56360717713364
 20
-3.711603348687218
 30
0.0
 10
10.5276062087252
 20
-3.670995519138553
 30
0.0
 10
10.48508214099115
 20
-3.637016877962278
 30
0.0
 10
10.39193898829207
 20
-3.591717613986619
 30
0.0
 10
10.34128344976385
 20
-3.581358134821156
 30
0.0
 10
10.2966901831444
 20
-3.588970001368468
 30
0.0
  0
SPLINE
  5
171
330
1F
100
AcDbEntity
  8
0
  6
Continuous
 62
     1
370
    15
100
AcDbSpline
210
0.0
220
0.0
230
1.0
 70
     8
 71
     3
 72
     8
 73
     4
 74
     0
 42
0.000000001
 43
0.00000001
 40
0.0
 40
0.0
 40
0.0
 40
0.0
 40
1.0
 40
1.0
 40
1.0
 40
1.0
 10
10.29669018314442
 20
-3.5889700013685
 30
0.0
 10
10.20140053774818
 20
-3.605235507779745
 30
0.0
 10
10.10185419631003
 20
-3.596839700424691
 30
0.0
 10
9.999999999999998
 20
-3.571258067129984
 30
0.0
  0
SPLINE
  5
172
330
1F
100
AcDbEntity
  8
외형선
  6
Continuous
370
    15
100
AcDbSpline
210
0.0
220
0.0
230
1.0
 70
    24
 71
     3
 72
     9
 73
     5
 74
     0
 42
0.000000001
 43
0.00000001
 40
0.0
 40
0.0
 40
0.0
 40
0.0
 40
0.5
 40
1.0
 40
1.0
 40
1.0
 40
1.0
 10
10.0
 20
-3.525974975945164
 30
0.0
 10
10.0
 20
-3.533579232642187
 30
0.0
 10
10.0
 20
-3.548731491055036
 30
0.0
 10
10.0
 20
-3.563768774429055
 30
0.0
 10
10.0
 20
-3.571258067129982
 30
0.0
  0
SPLINE
  5
173
330
1F
100
AcDbEntity
  8
외형선
  6
Continuous
370
    15
100
AcDbSpline
210
0.0
220
0.0
230
1.0
 70
     8
 71
     3
 72
     8
 73
     4
 74
     0
 42
0.000000001
 43
0.00000001
 40
0.0
 40
0.0
 40
0.0
 40
0.0
 40
1.0
 40
1.0
 40
1.0
 40
1.0
 10
10.0
 20
-3.525974975945167
 30
0.0
 10
9.8334482616122
 20
-3.459312980344168
 30
0.0
 10
9.667245315596862
 20
-3.390858939610094
 30
0.0
 10
9.501105901970934
 20
-3.321038808073996
 30
0.0
  0
SPLINE
  5
174
330
1F
100
AcDbEntity
  8
외형선
  6
Continuous
370
    15
100
AcDbSpline
210
0.0
220
0.0
230
1.0
 70
     8
 71
     3
 72
     8
 73
     4
 74
     0
 42
0.000000001
 43
0.00000001
 40
0.0
 40
0.0
 40
0.0
 40
0.0
 40
1.0
 40
1.0
 40
1.0
 40
1.0
 10
9.50110590197105
 20
-3.321038808068784
 30
0.0
 10
9.411248532522078
 20
-3.253641162223776
 30
0.0
 10
9.326337923104024
 20
-3.176657779858307
 30
0.0
 10
9.250267794375006
 20
-3.092794079653846
 30
0.0
  0
SPLINE
  5
175
330
1F
100
AcDbEntity
  8
외형선
  6
Continuous
370
    15
100
AcDbSpline
210
0.0
220
0.0
230
1.0
 70
     8
 71
     3
 72
    10
 73
     6
 74
     0
 42
0.000000001
 43
0.00000001
 40
0.0
 40
0.0
 40
0.0
 40
0.0
 40
0.5
 40
0.5
 40
1.0
 40
1.0
 40
1.0
 40
1.0
 10
9.250267794375013
 20
-3.092794079653836
 30
0.0
 10
9.214005653735528
 20
-3.052816793665601
 30
0.0
 10
9.17129631530939
 20
-3.018617200173346
 30
0.0
 10
9.077975232152063
 20
-2.970995052091862
 30
0.0
 10
9.027344423286461
 20
-2.958494305036834
 30
0.0
 10
8.98300982368712
 20
-2.962961792152897
 30
0.0
  0
SPLINE
  5
176
330
1F
100
AcDbEntity
  8
외형선
  6
Continuous
370
    15
100
AcDbSpline
210
0.0
220
0.0
230
1.0
 70
     8
 71
     3
 72
     8
 73
     4
 74
     0
 42
0.000000001
 43
0.00000001
 40
0.0
 40
0.0
 40
0.0
 40
0.0
 40
1.0
 40
1.0
 40
1.0
 40
1.0
 10
8.983009823687098
 20
-2.962961792152897
 30
0.0
 10
8.850422895571368
 20
-2.976322246481301
 30
0.0
 10
8.705294627302925
 20
-2.942924760855465
 30
0.0
 10
8.562247894850449
 20
-2.883436843264254
 30
0.0
  0
SPLINE
  5
177
330
1F
100
AcDbEntity
  8
외형선
  6
Continuous
370
    15
100
AcDbSpline
210
0.0
220
0.0
230
1.0
 70
     8
 71
     3
 72
     8
 73
     4
 74
     0
 42
0.000000001
 43
0.00000001
 40
0.0
 40
0.0
 40
0.0
 40
0.0
 40
1.0
 40
1.0
 40
1.0
 40
1.0
 10
8.56224789485035
 20
-2.88343684326424
 30
0.0
 10
8.410319846571698
 20
-2.790519424853254
 30
0.0
 10
8.268931714430872
 20
-2.674221141825735
 30
0.0
 10
8.149538822134238
 20
-2.543520927314519
 30
0.0
  0
SPLINE
  5
178
330
1F
100
AcDbEntity
  8
외형선
  6
Continuous
370
    15
100
AcDbSpline
210
0.0
220
0.0
230
1.0
 70
     8
 71
     3
 72
     8
 73
     4
 74
     0
 42
0.000000001
 43
0.00000001
 40
0.0
 40
0.0
 40
0.0
 40
0.0
 40
1.0
 40
1.0
 40
1.0
 40
1.0
 10
8.14953882213423
 20
-2.543520927314526
 30
0.0
 10
8.099747624743074
 20
-2.489014163514673
 30
0.0
 10
8.037093961683377
 20
-2.443308228749956
 30
0.0
 10
7.969810339711177
 20
-2.41993750097592
 30
0.0
  0
SPLINE
  5
179
330
1F
100
AcDbEntity
  8
외형선
  6
Continuous
370
    15
100
AcDbSpline
210
0.0
220
0.0
230
1.0
 70
     8
 71
     3
 72
    10
 73
     6
 74
     0
 42
0.000000001
 43
0.00000001
 40
0.0
 40
0.0
 40
0.0
 40
0.0
 40
0.5
 40
0.5
 40
1.0
 40
1.0
 40
1.0
 40
1.0
 10
8.118374884647443
 20
1.189794614055425
 30
0.0
 10
8.154630222286494
 20
1.153748263801096
 30
0.0
 10
8.197333395034208
 20
1.120552677590933
 30
0.0
 10
8.290643768456878
 20
1.067778802073348
 30
0.0
 10
8.341264553818014
 20
1.048888793739112
 30
0.0
 10
8.385587626796184
 20
1.042963268107263
 30
0.0
  0
SPLINE
  5
17A
330
1F
100
AcDbEntity
  8
외형선
  6
Continuous
370
    15
100
AcDbSpline
210
0.0
220
0.0
230
1.0
 70
     8
 71
     3
 72
     8
 73
     4
 74
     0
 42
0.000000001
 43
0.00000001
 40
0.0
 40
0.0
 40
0.0
 40
0.0
 40
1.0
 40
1.0
 40
1.0
 40
1.0
 10
8.385587626796177
 20
1.04296326810729
 30
0.0
 10
8.51816867345662
 20
1.025238585735412
 30
0.0
 10
8.66329323669866
 20
0.9688636494175371
 30
0.0
 10
8.806324362803913
 20
0.896309581857307
 30
0.0
  0
SPLINE
  5
17B
330
1F
100
AcDbEntity
  8
외형선
  6
Continuous
370
    15
100
AcDbSpline
210
0.0
220
0.0
230
1.0
 70
     8
 71
     3
 72
     8
 73
     4
 74
     0
 42
0.000000001
 43
0.00000001
 40
0.0
 40
0.0
 40
0.0
 40
0.0
 40
1.0
 40
1.0
 40
1.0
 40
1.0
 10
8.806324362794296
 20
0.8963095818633098
 30
0.0
 10
8.958292687003361
 20
0.7999100591466046
 30
0.0
 10
9.099708091326566
 20
0.6917661108776623
 30
0.0
 10
9.219127551689564
 20
0.5785207305458192
 30
0.0
  0
SPLINE
  5
17C
330
1F
100
AcDbEntity
  8
외형선
  6
Continuous
370
    15
100
AcDbSpline
210
0.0
220
0.0
230
1.0
 70
     8
 71
     3
 72
    10
 73
     6
 74
     0
 42
0.000000001
 43
0.00000001
 40
0.0
 40
0.0
 40
0.0
 40
0.0
 40
0.5
 40
0.5
 40
1.0
 40
1.0
 40
1.0
 40
1.0
 10
9.219127551689573
 20
0.5785207305457981
 30
0.0
 10
9.2551634658114
 20
0.5443479015284225
 30
0.0
 10
9.29771515442911
 20
0.5119740984948797
 30
0.0
 10
9.390896712117582
 20
0.4581542340451198
 30
0.0
 10
9.441577592326794
 20
0.4372791800356822
 30
0.0
 10
9.486200468385094
 20
0.427816636377013
 30
0.0
  0
SPLINE
  5
17D
330
1F
100
AcDbEntity
  8
외형선
  6
Continuous
370
    15
100
AcDbSpline
210
0.0
220
0.0
230
1.0
 70
     8
 71
     3
 72
     8
 73
     4
 74
     0
 42
0.000000001
 43
0.00000001
 40
0.0
 40
0.0
 40
0.0
 40
0.0
 40
1.0
 40
1.0
 40
1.0
 40
1.0
 10
9.486200468385078
 20
0.4278166363770493
 30
0.0
 10
9.554324419745324
 20
0.4133705512994045
 30
0.0
 10
9.624157074609608
 20
0.3900440091647978
 30
0.0
 10
9.696008337238291
 20
0.3606483046217373
 30
0.0
  0
SPLINE
  5
17E
330
1F
100
AcDbEntity
  8
외형선
  6
Continuous
370
    15
100
AcDbSpline
210
0.0
220
0.0
230
1.0
 70
    24
 71
     3
 72
     9
 73
     5
 74
     0
 42
0.000000001
 43
0.00000001
 40
0.0
 40
0.0
 40
0.0
 40
0.0
 40
0.5
 40
1.0
 40
1.0
 40
1.0
 40
1.0
 10
10.0
 20
0.209485707723272
 30
0.0
 10
10.0
 20
0.2040016389109557
 30
0.0
 10
10.0
 20
0.1928905113339142
 30
0.0
 10
10.0
 20
0.1815146199892128
 30
0.0
 10
10.0
 20
0.1757655720969054
 30
0.0
  0
LINE
  5
17F
330
1F
100
AcDbEntity
  8
외형선
  6
Continuous
370
    15
100
AcDbLine
 10
-36.6250011920929
 20
6.349999923259015
 30
0.0
 11
-36.6250011920929
 21
-6.349999923259025
 31
0.0
  0
LINE
  5
180
330
1F
100
AcDbEntity
  8
외형선
  6
Continuous
370
    15
100
AcDbLine
 10
5.930555906146766
 20
-4.56780474632979
 30
0.0
 11
7.180555878207088
 21
-4.56780474632979
 31
0.0
  0
LINE
  5
181
330
1F
100
AcDbEntity
  8
외형선
  6
Continuous
370
    15
100
AcDbLine
 10
7.180555878207088
 20
-4.56780474632979
 30
0.0
 11
8.430555850267412
 21
-4.56780474632979
 31
0.0
  0
SPLINE
  5
182
330
1F
100
AcDbEntity
  8
외형선
  6
Continuous
370
    15
100
AcDbSpline
210
0.0
220
0.0
230
1.0
 70
     8
 71
     3
 72
     8
 73
     4
 74
     0
 42
0.000000001
 43
0.00000001
 40
0.0
 40
0.0
 40
0.0
 40
0.0
 40
1.0
 40
1.0
 40
1.0
 40
1.0
 10
8.430555824983196
 20
-4.567804745206276
 30
0.0
 10
8.394153383569483
 20
-4.964766042020589
 30
0.0
 10
8.357774258063111
 20
-5.305026926007102
 30
0.0
 10
8.32330282972638
 20
-5.573889992693905
 30
0.0
  0
SPLINE
  5
183
330
1F
100
AcDbEntity
  8
외형선
  6
Continuous
370
    15
100
AcDbSpline
210
0.0
220
0.0
230
1.0
 70
     8
 71
     3
 72
     8
 73
     4
 74
     0
 42
0.000000001
 43
0.00000001
 40
0.0
 40
0.0
 40
0.0
 40
0.0
 40
1.0
 40
1.0
 40
1.0
 40
1.0
 10
8.323688894629214
 20
-5.573900840062004
 30
0.0
 10
8.205627881021922
 20
-5.541296076035703
 30
0.0
 10
8.087637956056014
 20
-5.507737158029974
 30
0.0
 10
7.969810339711177
 20
-5.473251956143322
 30
0.0
  0
LINE
  5
184
330
1F
100
AcDbEntity
  8
외형선
  6
Continuous
370
    15
100
AcDbLine
 10
7.969810316339136
 20
-5.473247263580566
 30
0.0
 11
7.969810316339136
 21
-6.349999923259025
 31
0.0
  0
SPLINE
  5
185
330
1F
100
AcDbEntity
  8
외형선
  6
Continuous
370
    15
100
AcDbSpline
210
0.0
220
0.0
230
1.0
 70
     8
 71
     3
 72
     8
 73
     4
 74
     0
 42
0.000000001
 43
0.00000001
 40
0.0
 40
0.0
 40
0.0
 40
0.0
 40
1.0
 40
1.0
 40
1.0
 40
1.0
 10
8.079787811891983
 20
-6.309227559354774
 30
0.0
 10
8.043114785253234
 20
-6.311621355602645
 30
0.0
 10
8.00645471547546
 20
-6.313909800031379
 30
0.0
 10
7.969810339711177
 20
-6.31609280341384
 30
0.0
  0
SPLINE
  5
186
330
1F
100
AcDbEntity
  8
0
  6
Continuous
 62
     1
370
    15
100
AcDbSpline
210
0.0
220
0.0
230
1.0
 70
     8
 71
     3
 72
    12
 73
     8
 74
     0
 42
0.000000001
 43
0.00000001
 40
0.0
 40
0.0
 40
0.0
 40
0.0
 40
0.5000000000000001
 40
0.5000000000000001
 40
0.75
 40
0.75
 40
1.0
 40
1.0
 40
1.0
 40
1.0
 10
24.00458174088218
 20
3.781107048364767
 30
0.0
 10
23.96483912175982
 20
3.271275077667313
 30
0.0
 10
23.92341588112489
 20
2.696495044765815
 30
0.0
 10
23.86289440104003
 20
1.793344146275789
 30
0.0
 10
23.84299342778138
 20
1.48570512536798
 30
0.0
 10
23.80437117981242
 20
0.8679630053021676
 30
0.0
 10
23.78559664882886
 20
0.5576341524524218
 30
0.0
 10
23.76589492480172
 20
0.241462715500993
 30
0.0
  0
SPLINE
  5
187
330
1F
100
AcDbEntity
  8
0
  6
Continuous
 62
     1
370
    15
100
AcDbSpline
210
0.0
220
0.0
230
1.0
 70
     8
 71
     3
 72
     8
 73
     4
 74
     0
 42
0.000000001
 43
0.00000001
 40
0.0
 40
0.0
 40
0.0
 40
0.0
 40
1.0
 40
1.0
 40
1.0
 40
1.0
 10
24.42498227845257
 20
3.548077636248246
 30
0.0
 10
24.2924887599151
 20
3.626131412835145
 30
0.0
 10
24.1474718895234
 20
3.709571639747655
 30
0.0
 10
24.00458174088218
 20
3.781107048364762
 30
0.0
  0
LINE
  5
188
330
1F
100
AcDbEntity
  8
외형선
  6
Continuous
370
    15
100
AcDbLine
 10
-37.62499949336052
 20
5.350000225007529
 30
0.0
 11
-37.62499949336052
 21
-5.350000225007539
 31
0.0
  0
SPLINE
  5
189
330
1F
100
AcDbEntity
  8
0
  6
Continuous
 62
     1
370
    15
100
AcDbSpline
210
0.0
220
0.0
230
1.0
 70
     8
 71
     3
 72
     8
 73
     4
 74
     0
 42
0.000000001
 43
0.00000001
 40
0.0
 40
0.0
 40
0.0
 40
0.0
 40
1.0
 40
1.0
 40
1.0
 40
1.0
 10
24.0045817408822
 20
3.781107048364741
 30
0.0
 10
23.85272237235265
 20
3.845969228617451
 30
0.0
 10
23.71148346942796
 20
3.892529743998127
 30
0.0
 10
23.59220871464307
 20
3.921955961285126
 30
0.0
  0
SPLINE
  5
18A
330
1F
100
AcDbEntity
  8
0
  6
Continuous
 62
     1
370
    15
100
AcDbSpline
210
0.0
220
0.0
230
1.0
 70
     8
 71
     3
 72
    12
 73
     8
 74
     0
 42
0.000000001
 43
0.00000001
 40
0.0
 40
0.0
 40
0.0
 40
0.0
 40
0.5
 40
0.5
 40
0.75
 40
0.75
 40
1.0
 40
1.0
 40
1.0
 40
1.0
 10
18.69612793645394
 20
-0.8611060888505533
 30
0.0
 10
18.65538409945106
 20
-1.495267311243476
 30
0.0
 10
18.61431249981944
 20
-2.117345158388361
 30
0.0
 10
18.55623623617452
 20
-2.97264437687351
 30
0.0
 10
18.53749438253573
 20
-3.245024102905442
 30
0.0
 10
18.49813438730225
 20
-3.772425846385774
 30
0.0
 10
18.47796561526183
 20
-4.025157976907348
 30
0.0
 10
18.45763962242137
 20
-4.262211266484085
 30
0.0
  0
SPLINE
  5
18B
330
1F
100
AcDbEntity
  8
외형선
  6
Continuous
370
    15
100
AcDbSpline
210
0.0
220
0.0
230
1.0
 70
     8
 71
     3
 72
    10
 73
     6
 74
     0
 42
0.000000001
 43
0.00000001
 40
0.0
 40
0.0
 40
0.0
 40
0.0
 40
0.5
 40
0.5
 40
1.0
 40
1.0
 40
1.0
 40
1.0
 10
8.999999999999998
 20
3.722143374085586
 30
0.0
 10
8.967850025000164
 20
3.307083412820426
 30
0.0
 10
8.93467460042549
 20
2.850786919291673
 30
0.0
 10
8.869164772713836
 20
1.894493399151953
 30
0.0
 10
8.836857859966553
 20
1.394924660728425
 30
0.0
 10
8.80632436280391
 20
0.8963095818573455
 30
0.0
  0
SPLINE
  5
18C
330
1F
100
AcDbEntity
  8
외형선
  6
Continuous
370
    15
100
AcDbSpline
210
0.0
220
0.0
230
1.0
 70
     8
 71
     3
 72
    10
 73
     6
 74
     0
 42
0.000000001
 43
0.00000001
 40
0.0
 40
0.0
 40
0.0
 40
0.0
 40
0.5
 40
0.5
 40
1.0
 40
1.0
 40
1.0
 40
1.0
 10
9.095171981989555
 20
4.26425477270614
 30
0.0
 10
9.081873545835828
 20
4.177715195134095
 30
0.0
 10
9.067945853342911
 20
4.089155483954784
 30
0.0
 10
9.037407918271901
 20
3.908254127619281
 30
0.0
 10
9.021534296717208
 20
3.815791789321472
 30
0.0
 10
9.000000000000068
 20
3.722143374086036
 30
0.0
  0
SPLINE
  5
18D
330
1F
100
AcDbEntity
  8
외형선
  6
Continuous
370
    15
100
AcDbSpline
210
0.0
220
0.0
230
1.0
 70
     8
 71
     3
 72
     8
 73
     4
 74
     0
 42
0.000000001
 43
0.00000001
 40
0.0
 40
0.0
 40
0.0
 40
0.0
 40
1.0
 40
1.0
 40
1.0
 40
1.0
 10
9.000000000000002
 20
3.722143374085587
 30
0.0
 10
9.009358905869485
 20
3.922223150142831
 30
0.0
 10
9.018879964661672
 20
4.113079318887926
 30
0.0
 10
9.028479614418737
 20
4.294730560869914
 30
0.0
  0
SPLINE
  5
18E
330
1F
100
AcDbEntity
  8
0
  6
Continuous
 62
     1
370
    15
100
AcDbSpline
210
0.0
220
0.0
230
1.0
 70
     8
 71
     3
 72
    12
 73
     8
 74
     0
 42
0.000000001
 43
0.00000001
 40
0.0
 40
0.0
 40
0.0
 40
0.0
 40
0.2500000000000001
 40
0.2500000000000001
 40
0.5
 40
0.5
 40
1.0
 40
1.0
 40
1.0
 40
1.0
 10
21.59039734185349
 20
4.801233396943594
 30
0.0
 10
21.57077710446357
 20
4.594459603515739
 30
0.0
 10
21.55209281246072
 20
4.373431585507792
 30
0.0
 10
21.51328687526241
 20
3.895590279576474
 30
0.0
 10
21.49331825671295
 20
3.6390403923424
 30
0.0
 10
21.43267748782439
 20
2.827580008337416
 30
0.0
 10
21.3912895756708
 20
2.230391269802387
 30
0.0
 10
21.3516897583831
 20
1.617494631746139
 30
0.0
  0
SPLINE
  5
18F
330
1F
100
AcDbEntity
  8
0
  6
Continuous
 62
     1
370
    15
100
AcDbSpline
210
0.0
220
0.0
230
1.0
 70
     8
 71
     3
 72
     8
 73
     4
 74
     0
 42
0.000000001
 43
0.00000001
 40
0.0
 40
0.0
 40
0.0
 40
0.0
 40
1.0
 40
1.0
 40
1.0
 40
1.0
 10
22.01094019497511
 20
4.567761378845374
 30
0.0
 10
21.87838695000283
 20
4.655701903103713
 30
0.0
 10
21.73332132830291
 20
4.738101104515788
 30
0.0
 10
21.59039734185328
 20
4.801233396941349
 30
0.0
  0
SPLINE
  5
190
330
1F
100
AcDbEntity
  8
0
  6
Continuous
 62
     1
370
    15
100
AcDbSpline
210
0.0
220
0.0
230
1.0
 70
     8
 71
     3
 72
    10
 73
     6
 74
     0
 42
0.000000001
 43
0.00000001
 40
0.0
 40
0.0
 40
0.0
 40
0.0
 40
0.5
 40
0.5
 40
1.0
 40
1.0
 40
1.0
 40
1.0
 10
24.69194887036292
 20
3.423846481793141
 30
0.0
 10
24.6557349882042
 20
3.436735058818975
 30
0.0
 10
24.61307197466518
 20
3.454291181373217
 30
0.0
 10
24.51983235823208
 20
3.496871435030254
 30
0.0
 10
24.46925944972108
 20
3.521993338146413
 30
0.0
 10
24.42498227845257
 20
3.548077636248246
 30
0.0
  0
SPLINE
  5
191
330
1F
100
AcDbEntity
  8
0
  6
Continuous
 62
     1
370
    15
100
AcDbSpline
210
0.0
220
0.0
230
1.0
 70
     8
 71
     3
 72
    10
 73
     6
 74
     0
 42
0.000000001
 43
0.00000001
 40
0.0
 40
0.0
 40
0.0
 40
0.0
 40
0.5
 40
0.5
 40
1.0
 40
1.0
 40
1.0
 40
1.0
 10
23.59220871464306
 20
3.921955961285126
 30
0.0
 10
23.55619784807377
 20
3.930840184826579
 30
0.0
 10
23.51367172637761
 20
3.945299970535979
 30
0.0
 10
23.42051192768248
 20
3.984354557629358
 30
0.0
 10
23.36982038273335
 20
4.009175065237727
 30
0.0
 10
23.32518233795352
 20
4.036986514661059
 30
0.0
  0
SPLINE
  5
192
330
1F
100
AcDbEntity
  8
0
  6
Continuous
 62
     1
370
    15
100
AcDbSpline
210
0.0
220
0.0
230
1.0
 70
     8
 71
     3
 72
     8
 73
     4
 74
     0
 42
0.000000001
 43
0.00000001
 40
0.0
 40
0.0
 40
0.0
 40
0.0
 40
1.0
 40
1.0
 40
1.0
 40
1.0
 10
21.59039734185535
 20
4.801233396939731
 30
0.0
 10
21.43854832997093
 20
4.848973523342202
 30
0.0
 10
21.29734226514823
 20
4.871226646558366
 30
0.0
 10
21.17806277629267
 20
4.871251959701777
 30
0.0
  0
SPLINE
  5
193
330
1F
100
AcDbEntity
  8
0
  6
Continuous
 62
     1
370
    15
100
AcDbSpline
210
0.0
220
0.0
230
1.0
 70
     8
 71
     3
 72
    10
 73
     6
 74
     0
 42
0.000000001
 43
0.00000001
 40
0.0
 40
0.0
 40
0.0
 40
0.0
 40
0.5
 40
0.5
 40
1.0
 40
1.0
 40
1.0
 40
1.0
 10
20.91118295639753
 20
4.961960895705406
 30
0.0
 10
20.73637893883922
 20
5.080737357320732
 30
0.0
 10
20.54448780322715
 20
5.177929781430757
 30
0.0
 10
20.17825686515836
 20
5.291906858638178
 30
0.0
 10
20.00766424074837
 20
5.308493127340601
 30
0.0
 10
19.86545423498747
 20
5.290590917353969
 30
0.0
  0
ARC
  5
194
330
1F
100
AcDbEntity
  8
외형선
  6
Continuous
370
    15
100
AcDbCircle
 10
7.859678874729719
 20
-4.759735090805462
 30
0.0
 40
0.3360051198172745
100
AcDbArc
 50
65.47734194149105
 51
114.0928765629836
  0
SPLINE
  5
195
330
1F
100
AcDbEntity
  8
외형선
  6
Continuous
370
    15
100
AcDbSpline
210
0.0
220
0.0
230
1.0
 70
    24
 71
     3
 72
     8
 73
     4
 74
     0
 42
0.000000001
 43
0.00000001
 40
0.0
 40
0.0
 40
0.0
 40
0.0
 40
1.0
 40
1.0
 40
1.0
 40
1.0
 10
7.969810339711174
 20
-1.11569933058846
 30
0.0
 10
7.969810339711174
 20
-1.563268282636046
 30
0.0
 10
7.969810339711177
 20
-2.000289886689976
 30
0.0
 10
7.969810339711177
 20
-2.419954654875821
 30
0.0
  0
SPLINE
  5
196
330
1F
100
AcDbEntity
  8
0
  6
Continuous
 62
     1
370
    15
100
AcDbSpline
210
0.0
220
0.0
230
1.0
 70
     8
 71
     3
 72
    10
 73
     6
 74
     0
 42
0.000000001
 43
0.00000001
 40
0.0
 40
0.0
 40
0.0
 40
0.0
 40
0.5
 40
0.5
 40
1.0
 40
1.0
 40
1.0
 40
1.0
 10
22.27813471834493
 20
4.46445064289969
 30
0.0
 10
22.24187374083431
 20
4.468740116742739
 30
0.0
 10
22.19917037841444
 20
4.479490330142173
 30
0.0
 10
22.10586615599715
 20
4.514132368699356
 30
0.0
 10
22.0552541428373
 20
4.538361934057932
 30
0.0
 10
22.0109401949751
 20
4.567761378845371
 30
0.0
  0
SPLINE
  5
197
330
1F
100
AcDbEntity
  8
0
  6
Continuous
 62
     1
370
    15
100
AcDbSpline
210
0.0
220
0.0
230
1.0
 70
     8
 71
     3
 72
     8
 73
     4
 74
     0
 42
0.000000001
 43
0.00000001
 40
0.0
 40
0.0
 40
0.0
 40
0.0
 40
1.0
 40
1.0
 40
1.0
 40
1.0
 10
25.87496873154908
 20
2.848931389119303
 30
0.0
 10
25.87450426924347
 20
2.444584900134145
 30
0.0
 10
25.86928153953334
 20
2.020042083393272
 30
0.0
 10
25.86193570614314
 20
1.581951510346947
 30
0.0
  0
SPLINE
  5
198
330
1F
100
AcDbEntity
  8
0
  6
Continuous
 62
     1
370
    15
100
AcDbSpline
210
0.0
220
0.0
230
1.0
 70
     8
 71
     3
 72
     8
 73
     4
 74
     0
 42
0.000000001
 43
0.00000001
 40
0.0
 40
0.0
 40
0.0
 40
0.0
 40
1.0
 40
1.0
 40
1.0
 40
1.0
 10
25.87496873154916
 20
2.848931389119511
 30
0.0
 10
25.82915189455985
 20
2.871699073518841
 30
0.0
 10
25.78077237688032
 20
2.89585063485935
 30
0.0
 10
25.73758208002104
 20
2.919046813888824
 30
0.0
  0
SPLINE
  5
199
330
1F
100
AcDbEntity
  8
0
  6
Continuous
 62
     1
370
    15
100
AcDbSpline
210
0.0
220
0.0
230
1.0
 70
     8
 71
     3
 72
    12
 73
     8
 74
     0
 42
0.000000001
 43
0.00000001
 40
0.0
 40
0.0
 40
0.0
 40
0.0
 40
0.2500000000000001
 40
0.2500000000000001
 40
0.5000000000000001
 40
0.5000000000000001
 40
1.0
 40
1.0
 40
1.0
 40
1.0
 10
21.10782387748012
 20
-2.209096256843184
 30
0.0
 10
21.0879319496899
 20
-2.50670585461598
 30
0.0
 10
21.06868918908525
 20
-2.792803899966017
 30
0.0
 10
21.03058421729661
 20
-3.340874970073536
 30
0.0
 10
21.01088108891074
 20
-3.606759130800238
 30
0.0
 10
20.95073875207209
 20
-4.364944120150776
 30
0.0
 10
20.90927365337669
 20
-4.816469525182644
 30
0.0
 10
20.86920328670077
 20
-5.183996474192067
 30
0.0
  0
LINE
  5
19A
330
1F
100
AcDbEntity
  8
0
  6
Continuous
 62
     1
370
    15
100
AcDbLine
 10
25.87500067055225
 20
1.595959765836592
 30
0.0
 11
25.87500067055225
 21
2.848915057256813
 31
0.0
  0
LINE
  5
19B
330
1F
100
AcDbEntity
  8
0
  6
Continuous
 62
     1
370
    15
100
AcDbLine
 10
25.87496900558472
 20
2.848931355401869
 30
0.0
 11
25.87500067055225
 21
2.848915057256813
 31
0.0
  0
SPLINE
  5
19C
330
1F
100
AcDbEntity
  8
0
  6
Continuous
 62
     1
370
    15
100
AcDbSpline
210
0.0
220
0.0
230
1.0
 70
     8
 71
     3
 72
    10
 73
     6
 74
     0
 42
0.000000001
 43
0.00000001
 40
0.0
 40
0.0
 40
0.0
 40
0.0
 40
0.5
 40
0.5
 40
1.0
 40
1.0
 40
1.0
 40
1.0
 10
21.17806277629266
 20
4.87125195970178
 30
0.0
 10
21.14207880297223
 20
4.871259596115097
 30
0.0
 10
21.09957614857526
 20
4.878479182390135
 30
0.0
 10
21.00645654079087
 20
4.908454339228763
 30
0.0
 10
20.95579088153127
 20
4.931650542537353
 30
0.0
 10
20.91118295639753
 20
4.961960895705403
 30
0.0
  0
SPLINE
  5
19D
330
1F
100
AcDbEntity
  8
외형선
  6
Continuous
370
    15
100
AcDbSpline
210
0.0
220
0.0
230
1.0
 70
     8
 71
     3
 72
    10
 73
     6
 74
     0
 42
0.000000001
 43
0.00000001
 40
0.0
 40
0.0
 40
0.0
 40
0.0
 40
0.5000000000000001
 40
0.5000000000000001
 40
1.0
 40
1.0
 40
1.0
 40
1.0
 10
8.562247894850318
 20
-2.883436843264319
 30
0.0
 10
8.541152405305109
 20
-3.191976506125407
 30
0.0
 10
8.519830834674153
 20
-3.48881727160209
 30
0.0
 10
8.47566000834919
 20
-4.054507830384326
 30
0.0
 10
8.453109004692358
 20
-4.321866859807725
 30
0.0
 10
8.4305558249832
 20
-4.567804745206296
 30
0.0
  0
ARC
  5
19E
330
1F
100
AcDbEntity
  8
외형선
  6
Continuous
370
    15
100
AcDbCircle
 10
8.53209279789254
 20
-3.307883135110967
 30
0.0
 40
1.264006415390864
100
AcDbArc
 50
245.0619138401795
 51
265.39249688298
  0
SPLINE
  5
19F
330
1F
100
AcDbEntity
  8
0
  6
Continuous
 62
     1
370
    15
100
AcDbSpline
210
0.0
220
0.0
230
1.0
 70
     8
 71
     3
 72
    10
 73
     6
 74
     0
 42
0.000000001
 43
0.00000001
 40
0.0
 40
0.0
 40
0.0
 40
0.0
 40
0.5
 40
0.5
 40
1.0
 40
1.0
 40
1.0
 40
1.0
 10
19.1783505951025
 20
5.59038384621271
 30
0.0
 10
19.13756402316859
 20
5.286713594307408
 30
0.0
 10
19.09687043955596
 20
4.896408609569658
 30
0.0
 10
19.02087555243455
 20
4.00409371510826
 30
0.0
 10
18.98066702594918
 20
3.48347348876429
 30
0.0
 10
18.93989585465346
 20
2.914699986054262
 30
0.0
  0
SPLINE
  5
1A0
330
1F
100
AcDbEntity
  8
0
  6
Continuous
 62
     1
370
    15
100
AcDbSpline
210
0.0
220
0.0
230
1.0
 70
     8
 71
     3
 72
     8
 73
     4
 74
     0
 42
0.000000001
 43
0.00000001
 40
0.0
 40
0.0
 40
0.0
 40
0.0
 40
1.0
 40
1.0
 40
1.0
 40
1.0
 10
19.59858061361461
 20
5.367841560705967
 30
0.0
 10
19.46612566650588
 20
5.461372267209201
 30
0.0
 10
19.32116618232594
 20
5.538733603295467
 30
0.0
 10
19.17835059510251
 20
5.590383846212699
 30
0.0
  0
SPLINE
  5
1A1
330
1F
100
AcDbEntity
  8
0
  6
Continuous
 62
     1
370
    15
100
AcDbSpline
210
0.0
220
0.0
230
1.0
 70
     8
 71
     3
 72
    10
 73
     6
 74
     0
 42
0.000000001
 43
0.00000001
 40
0.0
 40
0.0
 40
0.0
 40
0.0
 40
0.2999323779830426
 40
0.6468909307946781
 40
1.0
 40
1.0
 40
1.0
 40
1.0
 10
17.05809162557125
 20
5.990809295326466
 30
0.0
 10
17.09794312565369
 20
5.99220706897729
 30
0.0
 10
17.1838944129247
 20
5.995221772171737
 30
0.0
 10
17.30675951039024
 20
5.974503246407428
 30
0.0
 10
17.38375426225303
 20
5.947058682254031
 30
0.0
 10
17.42258986085653
 20
5.933215841650959
 30
0.0
  0
SPLINE
  5
1A2
330
1F
100
AcDbEntity
  8
0
  6
Continuous
 62
     1
370
    15
100
AcDbSpline
210
0.0
220
0.0
230
1.0
 70
     8
 71
     3
 72
    10
 73
     6
 74
     0
 42
0.000000001
 43
0.00000001
 40
0.0
 40
0.0
 40
0.0
 40
0.0
 40
0.5
 40
0.5
 40
1.0
 40
1.0
 40
1.0
 40
1.0
 10
17.42258969624053
 20
5.933216018617383
 30
0.0
 10
17.45857858067926
 20
5.91829031490343
 30
0.0
 10
17.50108869233709
 20
5.912563628257738
 30
0.0
 10
17.59422042786981
 20
5.924013351965641
 30
0.0
 10
17.64487595528803
 20
5.941955231297054
 30
0.0
 10
17.6894628051897
 20
5.973158434951504
 30
0.0
  0
SPLINE
  5
1A3
330
1F
100
AcDbEntity
  8
0
  6
Continuous
 62
     1
370
    15
100
AcDbSpline
210
0.0
220
0.0
230
1.0
 70
     8
 71
     3
 72
    10
 73
     6
 74
     0
 42
0.000000001
 43
0.00000001
 40
0.0
 40
0.0
 40
0.0
 40
0.0
 40
0.5
 40
0.5
 40
1.0
 40
1.0
 40
1.0
 40
1.0
 10
17.6894628051897
 20
5.973158434951515
 30
0.0
 10
17.86432465565599
 20
6.095531958614346
 30
0.0
 10
18.05630297768706
 20
6.167926477878176
 30
0.0
 10
18.42249363962202
 20
6.207298933695439
 30
0.0
 10
18.59298222047954
 20
6.174637470493076
 30
0.0
 10
18.73508983355843
 20
6.100416090427322
 30
0.0
  0
SPLINE
  5
1A4
330
1F
100
AcDbEntity
  8
0
  6
Continuous
 62
     1
370
    15
100
AcDbSpline
210
0.0
220
0.0
230
1.0
 70
     8
 71
     3
 72
    10
 73
     6
 74
     0
 42
0.000000001
 43
0.00000001
 40
0.0
 40
0.0
 40
0.0
 40
0.0
 40
0.4999999999999998
 40
0.4999999999999998
 40
1.0
 40
1.0
 40
1.0
 40
1.0
 10
18.73508983355844
 20
6.100416090427323
 30
0.0
 10
18.77128453048891
 20
6.081511963484107
 30
0.0
 10
18.81392407556234
 20
6.072200302579283
 30
0.0
 10
18.90710297171293
 20
6.078273465301475
 30
0.0
 10
18.95764488881088
 20
6.094515752195074
 30
0.0
 10
19.00191809511388
 20
6.125521802793189
 30
0.0
  0
SPLINE
  5
1A5
330
1F
100
AcDbEntity
  8
0
  6
Continuous
 62
     1
370
    15
100
AcDbSpline
210
0.0
220
0.0
230
1.0
 70
     8
 71
     3
 72
     8
 73
     4
 74
     0
 42
0.000000001
 43
0.00000001
 40
0.0
 40
0.0
 40
0.0
 40
0.0
 40
1.0
 40
1.0
 40
1.0
 40
1.0
 10
19.00191809511388
 20
6.125521802793203
 30
0.0
 10
19.13433012825347
 20
6.218254508241005
 30
0.0
 10
19.27924300471266
 20
6.278634964807134
 30
0.0
 10
19.42212857159167
 20
6.305248380112049
 30
0.0
  0
SPLINE
  5
1A6
330
1F
100
AcDbEntity
  8
0
  6
Continuous
 62
     1
370
    15
100
AcDbSpline
210
0.0
220
0.0
230
1.0
 70
     8
 71
     3
 72
     8
 73
     4
 74
     0
 42
0.000000001
 43
0.00000001
 40
0.0
 40
0.0
 40
0.0
 40
0.0
 40
1.0
 40
1.0
 40
1.0
 40
1.0
 10
19.42212857155767
 20
6.30524838011223
 30
0.0
 10
19.57378780906841
 20
6.29765577582652
 30
0.0
 10
19.71495470445966
 20
6.251834182181705
 30
0.0
 10
19.83415273838976
 20
6.176335198014097
 30
0.0
  0
SPLINE
  5
1A7
330
1F
100
AcDbEntity
  8
0
  6
Continuous
 62
     1
370
    15
100
AcDbSpline
210
0.0
220
0.0
230
1.0
 70
     8
 71
     3
 72
    10
 73
     6
 74
     0
 42
0.000000001
 43
0.00000001
 40
0.0
 40
0.0
 40
0.0
 40
0.0
 40
0.5
 40
0.5
 40
1.0
 40
1.0
 40
1.0
 40
1.0
 10
19.83415273838976
 20
6.176335198014099
 30
0.0
 10
19.87012994959136
 20
6.153547549515661
 30
0.0
 10
19.91263134868491
 20
6.140543216116697
 30
0.0
 10
20.00574767650213
 20
6.140313112111834
 30
0.0
 10
20.05639174668021
 20
6.153997123648232
 30
0.0
 10
20.10096806669747
 20
6.183721054757193
 30
0.0
  0
SPLINE
  5
1A8
330
1F
100
AcDbEntity
  8
0
  6
Continuous
 62
     1
370
    15
100
AcDbSpline
210
0.0
220
0.0
230
1.0
 70
     8
 71
     3
 72
    11
 73
     7
 74
     0
 42
0.000000001
 43
0.00000001
 40
0.0
 40
0.0
 40
0.0
 40
0.0
 40
0.2175758189069641
 40
0.4588653290654128
 40
0.7932387792875432
 40
1.0
 40
1.0
 40
1.0
 40
1.0
 10
20.1415795981884
 20
6.202927324920889
 30
0.0
 10
20.2170835929272
 20
6.243872526685529
 30
0.0
 10
20.37632079844767
 20
6.330225567091253
 30
0.0
 10
20.66333464805717
 20
6.364254476707067
 30
0.0
 10
20.93352082093734
 20
6.316312450118458
 30
0.0
 10
21.08786088888529
 20
6.219927495424429
 30
0.0
 10
21.146832421422
 20
6.183099932968611
 30
0.0
  0
SPLINE
  5
1A9
330
1F
100
AcDbEntity
  8
0
  6
Continuous
 62
     1
370
    15
100
AcDbSpline
210
0.0
220
0.0
230
1.0
 70
     8
 71
     3
 72
    10
 73
     6
 74
     0
 42
0.000000001
 43
0.00000001
 40
0.0
 40
0.0
 40
0.0
 40
0.0
 40
0.5
 40
0.5
 40
1.0
 40
1.0
 40
1.0
 40
1.0
 10
21.14683198492412
 20
6.183100054597675
 30
0.0
 10
21.18305618984566
 20
6.156894513463223
 30
0.0
 10
21.22572210151127
 20
6.14062066858085
 30
0.0
 10
21.31894237187589
 20
6.134991456424544
 30
0.0
 10
21.36953246453753
 20
6.146620448314346
 30
0.0
 10
21.41384496588955
 20
6.175434244636516
 30
0.0
  0
SPLINE
  5
1AA
330
1F
100
AcDbEntity
  8
0
  6
Continuous
 62
     1
370
    15
100
AcDbSpline
210
0.0
220
0.0
230
1.0
 70
     8
 71
     3
 72
     8
 73
     4
 74
     0
 42
0.000000001
 43
0.00000001
 40
0.0
 40
0.0
 40
0.0
 40
0.0
 40
1.0
 40
1.0
 40
1.0
 40
1.0
 10
21.41384496588955
 20
6.175434244636531
 30
0.0
 10
21.54634892324225
 20
6.261593723847891
 30
0.0
 10
21.69136620681179
 20
6.30790570170579
 30
0.0
 10
21.83434216095474
 20
6.317940807678431
 30
0.0
  0
SPLINE
  5
1AB
330
1F
100
AcDbEntity
  8
0
  6
Continuous
 62
     1
370
    15
100
AcDbSpline
210
0.0
220
0.0
230
1.0
 70
     8
 71
     3
 72
     8
 73
     4
 74
     0
 42
0.000000001
 43
0.00000001
 40
0.0
 40
0.0
 40
0.0
 40
0.0
 40
1.0
 40
1.0
 40
1.0
 40
1.0
 10
21.83434216094736
 20
6.31794080767982
 30
0.0
 10
21.98620822525006
 20
6.28958176379712
 30
0.0
 10
22.1275708783721
 20
6.221557427523566
 30
0.0
 10
22.2470033760103
 20
6.123639483143512
 30
0.0
  0
SPLINE
  5
1AC
330
1F
100
AcDbEntity
  8
0
  6
Continuous
 62
     1
370
    15
100
AcDbSpline
210
0.0
220
0.0
230
1.0
 70
     8
 71
     3
 72
    10
 73
     6
 74
     0
 42
0.000000001
 43
0.00000001
 40
0.0
 40
0.0
 40
0.0
 40
0.0
 40
0.5
 40
0.5
 40
1.0
 40
1.0
 40
1.0
 40
1.0
 10
22.2470033760103
 20
6.123639483143515
 30
0.0
 10
22.28305525730379
 20
6.094081982654941
 30
0.0
 10
22.32562941914402
 20
6.074418182452161
 30
0.0
 10
22.41886270074016
 20
6.062493562895336
 30
0.0
 10
22.46957292465486
 20
6.071235692690593
 30
0.0
 10
22.51421395034286
 20
6.098077785288213
 30
0.0
  0
SPLINE
  5
1AD
330
1F
100
AcDbEntity
  8
0
  6
Continuous
 62
     1
370
    15
100
AcDbSpline
210
0.0
220
0.0
230
1.0
 70
     8
 71
     3
 72
    10
 73
     6
 74
     0
 42
0.000000001
 43
0.00000001
 40
0.0
 40
0.0
 40
0.0
 40
0.0
 40
0.5
 40
0.5
 40
1.0
 40
1.0
 40
1.0
 40
1.0
 10
22.51421395034285
 20
6.098077785288229
 30
0.0
 10
22.68932562967163
 20
6.203370256485437
 30
0.0
 10
22.88153399910228
 20
6.234267006123504
 30
0.0
 10
23.24808308566265
 20
6.180115167374741
 30
0.0
 10
23.41873455799044
 20
6.095955886577793
 30
0.0
 10
23.56101922338418
 20
5.96923352972172
 30
0.0
  0
SPLINE
  5
1AE
330
1F
100
AcDbEntity
  8
0
  6
Continuous
 62
     1
370
    15
100
AcDbSpline
210
0.0
220
0.0
230
1.0
 70
     8
 71
     3
 72
    10
 73
     6
 74
     0
 42
0.000000001
 43
0.00000001
 40
0.0
 40
0.0
 40
0.0
 40
0.0
 40
0.5
 40
0.5
 40
1.0
 40
1.0
 40
1.0
 40
1.0
 10
23.56101922338419
 20
5.969233529721722
 30
0.0
 10
23.59723830043126
 20
5.936975894692283
 30
0.0
 10
23.63989679039144
 20
5.914496300621877
 30
0.0
 10
23.73313651860409
 20
5.897422532294874
 30
0.0
 10
23.7837369754001
 20
5.903893175413595
 30
0.0
 10
23.8280522354787
 20
5.929125645674524
 30
0.0
  0
SPLINE
  5
1AF
330
1F
100
AcDbEntity
  8
0
  6
Continuous
 62
     1
370
    15
100
AcDbSpline
210
0.0
220
0.0
230
1.0
 70
     8
 71
     3
 72
     8
 73
     4
 74
     0
 42
0.000000001
 43
0.00000001
 40
0.0
 40
0.0
 40
0.0
 40
0.0
 40
1.0
 40
1.0
 40
1.0
 40
1.0
 10
23.8280522354787
 20
5.929125645674539
 30
0.0
 10
23.96052501550335
 20
6.00455373695565
 30
0.0
 10
24.10551470831545
 20
6.03462183461702
 30
0.0
 10
24.24846325856973
 20
6.027612135436337
 30
0.0
  0
SPLINE
  5
1B0
330
1F
100
AcDbEntity
  8
0
  6
Continuous
 62
     1
370
    15
100
AcDbSpline
210
0.0
220
0.0
230
1.0
 70
     8
 71
     3
 72
     8
 73
     4
 74
     0
 42
0.000000001
 43
0.00000001
 40
0.0
 40
0.0
 40
0.0
 40
0.0
 40
1.0
 40
1.0
 40
1.0
 40
1.0
 10
24.2484632585595
 20
6.027612135439346
 30
0.0
 10
24.3643282515467
 20
5.991157092088223
 30
0.0
 10
24.47409599734862
 20
5.931846947092639
 30
0.0
 10
24.57262308614292
 20
5.85432239517813
 30
0.0
  0
SPLINE
  5
1B1
330
1F
100
AcDbEntity
  8
0
  6
Continuous
 62
     1
370
    15
100
AcDbSpline
210
0.0
220
0.0
230
1.0
 70
     8
 71
     3
 72
    10
 73
     6
 74
     0
 42
0.000000001
 43
0.00000001
 40
0.0
 40
0.0
 40
0.0
 40
0.0
 40
0.5
 40
0.5
 40
1.0
 40
1.0
 40
1.0
 40
1.0
 10
24.57262308614293
 20
5.854322395178125
 30
0.0
 10
24.56834307940768
 20
5.694646392191819
 30
0.0
 10
24.55628146360301
 20
5.537419803053831
 30
0.0
 10
24.514621390824
 20
5.228486688974547
 30
0.0
 10
24.48445913317893
 20
5.074844789275845
 30
0.0
 10
24.44491713544362
 20
4.930717335258654
 30
0.0
  0
SPLINE
  5
1B2
330
1F
100
AcDbEntity
  8
0
  6
Continuous
 62
     1
370
    15
100
AcDbSpline
210
0.0
220
0.0
230
1.0
 70
     8
 71
     3
 72
     8
 73
     4
 74
     0
 42
0.000000001
 43
0.00000001
 40
0.0
 40
0.0
 40
0.0
 40
0.0
 40
1.0
 40
1.0
 40
1.0
 40
1.0
 10
25.875
 20
3.440382030094918
 30
0.0
 10
25.39655610677693
 20
3.901541747105626
 30
0.0
 10
24.91970733954076
 20
4.395175274805726
 30
0.0
 10
24.44491713544359
 20
4.930717335258581
 30
0.0
  0
SPLINE
  5
1B3
330
1F
100
AcDbEntity
  8
0
  6
Continuous
 62
     1
370
    15
100
AcDbSpline
210
0.0
220
0.0
230
1.0
 70
     8
 71
     3
 72
    10
 73
     6
 74
     0
 42
0.000000001
 43
0.00000001
 40
0.0
 40
0.0
 40
0.0
 40
0.0
 40
0.5
 40
0.5
 40
1.0
 40
1.0
 40
1.0
 40
1.0
 10
19.86545423498747
 20
5.290590917353965
 30
0.0
 10
19.82925498660289
 20
5.286033948647919
 30
0.0
 10
19.78660804945318
 20
5.28943295675051
 30
0.0
 10
19.69339828886914
 20
5.314433306974337
 30
0.0
 10
19.6428430007079
 20
5.336586462827604
 30
0.0
 10
19.5985806136146
 20
5.367841560705966
 30
0.0
  0
SPLINE
  5
1B4
330
1F
100
AcDbEntity
  8
0
  6
Continuous
 62
     1
370
    15
100
AcDbSpline
210
0.0
220
0.0
230
1.0
 70
     8
 71
     3
 72
     8
 73
     4
 74
     0
 42
0.000000001
 43
0.00000001
 40
0.0
 40
0.0
 40
0.0
 40
0.0
 40
1.0
 40
1.0
 40
1.0
 40
1.0
 10
19.17835059510318
 20
5.590383846212321
 30
0.0
 10
19.02664427715193
 20
5.618674218274846
 30
0.0
 10
18.88558056056639
 20
5.615447811715068
 30
0.0
 10
18.76639352344575
 20
5.586097941830849
 30
0.0
  0
SPLINE
  5
1B5
330
1F
100
AcDbEntity
  8
0
  6
Continuous
 62
     1
370
    15
100
AcDbSpline
210
0.0
220
0.0
230
1.0
 70
     8
 71
     3
 72
    10
 73
     6
 74
     0
 42
0.000000001
 43
0.00000001
 40
0.0
 40
0.0
 40
0.0
 40
0.0
 40
0.5
 40
0.5
 40
1.0
 40
1.0
 40
1.0
 40
1.0
 10
18.76639352344575
 20
5.58609794183085
 30
0.0
 10
18.73043039982687
 20
5.577242003934046
 30
0.0
 10
18.68794464100311
 20
5.576904773582068
 30
0.0
 10
18.59485225844012
 20
5.596408102874673
 30
0.0
 10
18.54420683621749
 20
5.616888702510066
 30
0.0
 10
18.49962042707163
 20
5.648254747571659
 30
0.0
  0
SPLINE
  5
1B6
330
1F
100
AcDbEntity
  8
0
  6
Continuous
 62
     1
370
    15
100
AcDbSpline
210
0.0
220
0.0
230
1.0
 70
     8
 71
     3
 72
    10
 73
     6
 74
     0
 42
0.000000001
 43
0.00000001
 40
0.0
 40
0.0
 40
0.0
 40
0.0
 40
0.5
 40
0.5
 40
1.0
 40
1.0
 40
1.0
 40
1.0
 10
18.49962042707163
 20
5.648254747571666
 30
0.0
 10
18.32480846392535
 20
5.771233027688684
 30
0.0
 10
18.13288552821775
 20
5.855393155437218
 30
0.0
 10
17.7666491394718
 20
5.927036477617905
 30
0.0
 10
17.59607585506929
 20
5.914652391672412
 30
0.0
 10
17.45384477974249
 20
5.863013425094653
 30
0.0
  0
SPLINE
  5
1B7
330
1F
100
AcDbEntity
  8
0
  6
Continuous
 62
     1
370
    15
100
AcDbSpline
210
0.0
220
0.0
230
1.0
 70
     8
 71
     3
 72
    10
 73
     6
 74
     0
 42
0.000000001
 43
0.00000001
 40
0.0
 40
0.0
 40
0.0
 40
0.0
 40
0.5
 40
0.5
 40
1.0
 40
1.0
 40
1.0
 40
1.0
 10
17.45384477974249
 20
5.863013425094653
 30
0.0
 10
17.41762172104416
 20
5.84986214072751
 30
0.0
 10
17.37495050234647
 20
5.845775667438415
 30
0.0
 10
17.28170391316937
 20
5.859971654286213
 30
0.0
 10
17.23112744896182
 20
5.878997931308406
 30
0.0
 10
17.18684205467713
 20
5.910646428483059
 30
0.0
  0
SPLINE
  5
1B8
330
1F
100
AcDbEntity
  8
0
  6
Continuous
 62
     1
370
    15
100
AcDbSpline
210
0.0
220
0.0
230
1.0
 70
     8
 71
     3
 72
     8
 73
     4
 74
     0
 42
0.000000001
 43
0.00000001
 40
0.0
 40
0.0
 40
0.0
 40
0.0
 40
1.0
 40
1.0
 40
1.0
 40
1.0
 10
17.18684205467713
 20
5.910646428483064
 30
0.0
 10
17.05430799937481
 20
6.005361711987501
 30
0.0
 10
16.90927631357094
 20
6.073989366624454
 30
0.0
 10
16.76640900831348
 20
6.111703148315518
 30
0.0
  0
SPLINE
  5
1B9
330
1F
100
AcDbEntity
  8
0
  6
Continuous
 62
     1
370
    15
100
AcDbSpline
210
0.0
220
0.0
230
1.0
 70
     8
 71
     3
 72
     8
 73
     4
 74
     0
 42
0.000000001
 43
0.00000001
 40
0.0
 40
0.0
 40
0.0
 40
0.0
 40
1.0
 40
1.0
 40
1.0
 40
1.0
 10
16.76640900831313
 20
6.111703148315479
 30
0.0
 10
16.61458080481515
 20
6.119238470280523
 30
0.0
 10
16.47332777206331
 20
6.090706999495991
 30
0.0
 10
16.35392300569186
 20
6.033470207697347
 30
0.0
  0
SPLINE
  5
1BA
330
1F
100
AcDbEntity
  8
0
  6
Continuous
 62
     1
370
    15
100
AcDbSpline
210
0.0
220
0.0
230
1.0
 70
     8
 71
     3
 72
    10
 73
     6
 74
     0
 42
0.000000001
 43
0.00000001
 40
0.0
 40
0.0
 40
0.0
 40
0.0
 40
0.5
 40
0.5
 40
1.0
 40
1.0
 40
1.0
 40
1.0
 10
16.35392300569187
 20
6.033470207697349
 30
0.0
 10
16.31789412318456
 20
6.016199727552578
 30
0.0
 10
16.27534352304447
 20
6.008342987034824
 30
0.0
 10
16.18214546636067
 20
6.016465354798564
 30
0.0
 10
16.13144237501362
 20
6.03325335072857
 30
0.0
 10
16.08680193165062
 20
6.064213061132282
 30
0.0
  0
SPLINE
  5
1BB
330
1F
100
AcDbEntity
  8
0
  6
Continuous
 62
     1
370
    15
100
AcDbSpline
210
0.0
220
0.0
230
1.0
 70
     8
 71
     3
 72
    10
 73
     6
 74
     0
 42
0.000000001
 43
0.00000001
 40
0.0
 40
0.0
 40
0.0
 40
0.0
 40
0.5
 40
0.5
 40
1.0
 40
1.0
 40
1.0
 40
1.0
 10
16.08680193165062
 20
6.064213061132291
 30
0.0
 10
15.91176021823895
 20
6.185610617866407
 30
0.0
 10
15.71961039906291
 20
6.252664441665521
 30
0.0
 10
15.35296901910022
 20
6.278586820564879
 30
0.0
 10
15.18218270360919
 20
6.237869477642821
 30
0.0
 10
15.03976323444319
 20
6.154869339836301
 30
0.0
  0
SPLINE
  5
1BC
330
1F
100
AcDbEntity
  8
0
  6
Continuous
 62
     1
370
    15
100
AcDbSpline
210
0.0
220
0.0
230
1.0
 70
     8
 71
     3
 72
    10
 73
     6
 74
     0
 42
0.000000001
 43
0.00000001
 40
0.0
 40
0.0
 40
0.0
 40
0.0
 40
0.5
 40
0.5
 40
1.0
 40
1.0
 40
1.0
 40
1.0
 10
15.0397632344432
 20
6.154869339836299
 30
0.0
 10
15.00351530186012
 20
6.13374453564194
 30
0.0
 10
14.96082494937625
 20
6.12234921300254
 30
0.0
 10
14.86754909298143
 20
6.125026047992696
 30
0.0
 10
14.81695344946894
 20
6.139998132585514
 30
0.0
 10
14.77264902231269
 20
6.170516189760097
 30
0.0
  0
SPLINE
  5
1BD
330
1F
100
AcDbEntity
  8
0
  6
Continuous
 62
     1
370
    15
100
AcDbSpline
210
0.0
220
0.0
230
1.0
 70
     8
 71
     3
 72
     8
 73
     4
 74
     0
 42
0.000000001
 43
0.00000001
 40
0.0
 40
0.0
 40
0.0
 40
0.0
 40
1.0
 40
1.0
 40
1.0
 40
1.0
 10
14.77264902231269
 20
6.170516189760106
 30
0.0
 10
14.64009802627817
 20
6.26182080952784
 30
0.0
 10
14.49506805265183
 20
6.318381411361813
 30
0.0
 10
14.35220867062969
 20
6.340296657635038
 30
0.0
  0
SPLINE
  5
1BE
330
1F
100
AcDbEntity
  8
0
  6
Continuous
 62
     1
370
    15
100
AcDbSpline
210
0.0
220
0.0
230
1.0
 70
     8
 71
     3
 72
     9
 73
     5
 74
     0
 42
0.000000001
 43
0.00000001
 40
0.0
 40
0.0
 40
0.0
 40
0.0
 40
0.6284335365806106
 40
1.0
 40
1.0
 40
1.0
 40
1.0
 10
14.35220885649324
 20
6.340296473354096
 30
0.0
 10
14.29570449528064
 20
6.332748919277646
 30
0.0
 10
14.20579146880526
 20
6.320738812182602
 30
0.0
 10
14.12471531203293
 20
6.286700420444259
 30
0.0
 10
14.0945901311934
 20
6.274052895605559
 30
0.0
  0
SPLINE
  5
1BF
330
1F
100
AcDbEntity
  8
0
  6
Continuous
 62
     1
370
    15
100
AcDbSpline
210
0.0
220
0.0
230
1.0
 70
     8
 71
     3
 72
     9
 73
     5
 74
     0
 42
0.000000001
 43
0.00000001
 40
0.0
 40
0.0
 40
0.0
 40
0.0
 40
0.7698064281625767
 40
1.0
 40
1.0
 40
1.0
 40
1.0
 10
13.74963616579771
 20
6.158045027405018
 30
0.0
 10
13.72930578944705
 20
6.163616226155213
 30
0.0
 10
13.70289606408377
 20
6.170853368567094
 30
0.0
 10
13.67868533744991
 20
6.186002503640299
 30
0.0
 10
13.67311218380928
 20
6.189489737153048
 30
0.0
  0
SPLINE
  5
1C0
330
1F
100
AcDbEntity
  8
0
  6
Continuous
 62
     1
370
    15
100
AcDbSpline
210
0.0
220
0.0
230
1.0
 70
     8
 71
     3
 72
     9
 73
     5
 74
     0
 42
0.000000001
 43
0.00000001
 40
0.0
 40
0.0
 40
0.0
 40
0.0
 40
0.6322050546773504
 40
1.0
 40
1.0
 40
1.0
 40
1.0
 10
13.67311218380928
 20
6.189489737153048
 30
0.0
 10
13.5841207266425
 20
6.239094773573376
 30
0.0
 10
13.44335713022961
 20
6.317558297478046
 30
0.0
 10
13.29795548007059
 20
6.325975114093936
 30
0.0
 10
13.24447748810053
 20
6.329070776700968
 30
0.0
  0
LINE
  5
1C1
330
1F
100
AcDbEntity
  8
0
  6
Continuous
 62
     1
370
    15
100
AcDbLine
 10
25.87500067055225
 20
2.855484141036863
 30
0.0
 11
25.87500067055225
 21
3.440381959080691
 31
0.0
  0
SPLINE
  5
1C2
330
1F
100
AcDbEntity
  8
외형선
  6
Continuous
370
    15
100
AcDbSpline
210
0.0
220
0.0
230
1.0
 70
     8
 71
     3
 72
     8
 73
     4
 74
     0
 42
0.000000001
 43
0.00000001
 40
0.0
 40
0.0
 40
0.0
 40
0.0
 40
1.0
 40
1.0
 40
1.0
 40
1.0
 10
8.323314688960876
 20
-5.573797492888561
 30
0.0
 10
8.475250778472072
 20
-5.602517789486011
 30
0.0
 10
8.616658605433088
 20
-5.599765893199265
 30
0.0
 10
8.736128551516071
 20
-5.571133946844046
 30
0.0
  0
SPLINE
  5
1C3
330
1F
100
AcDbEntity
  8
0
  6
Continuous
 62
     1
370
    15
100
AcDbSpline
210
0.0
220
0.0
230
1.0
 70
     8
 71
     3
 72
    12
 73
     8
 74
     0
 42
0.000000001
 43
0.00000001
 40
0.0
 40
0.0
 40
0.0
 40
0.0
 40
0.5
 40
0.5
 40
0.75
 40
0.75
 40
1.0
 40
1.0
 40
1.0
 40
1.0
 10
23.52198903409199
 20
-3.452525131851596
 30
0.0
 10
23.48279982023983
 20
-3.982561491056097
 30
0.0
 10
23.4415480196519
 20
-4.46932535104742
 30
0.0
 10
23.38065692695655
 20
-5.082876982323842
 30
0.0
 10
23.36053125128799
 20
-5.268182461344219
 30
0.0
 10
23.32128117575209
 20
-5.595462224247319
 30
0.0
 10
23.30259341239049
 20
-5.736672800773245
 30
0.0
 10
23.28320416967013
 20
-5.858108320176887
 30
0.0
  0
SPLINE
  5
1C4
330
1F
100
AcDbEntity
  8
외형선
  6
Continuous
370
    15
100
AcDbSpline
210
0.0
220
0.0
230
1.0
 70
     8
 71
     3
 72
    14
 73
    10
 74
     0
 42
0.000000001
 43
0.00000001
 40
0.0
 40
0.0
 40
0.0
 40
0.0
 40
0.25
 40
0.25
 40
0.5
 40
0.5
 40
0.75
 40
0.75
 40
1.0
 40
1.0
 40
1.0
 40
1.0
 10
9.31559308291893
 20
-5.80576872779814
 30
0.0
 10
9.330267476947453
 20
-5.677451561059762
 30
0.0
 10
9.344753410051046
 20
-5.527481783875258
 30
0.0
 10
9.37515010214137
 20
-5.183808421316582
 30
0.0
 10
9.390747501848717
 20
-4.990747178951823
 30
0.0
 10
9.421970895997056
 20
-4.57239362798966
 30
0.0
 10
9.437701810273692
 20
-4.34594632103097
 30
0.0
 10
9.4693779107933
 20
-3.858132818702359
 30
0.0
 10
9.485380341693723
 20
-3.59560163539607
 30
0.0
 10
9.501105901988518
 20
-3.321038808081472
 30
0.0
  0
SPLINE
  5
1C5
330
1F
100
AcDbEntity
  8
외형선
  6
Continuous
370
    15
100
AcDbSpline
210
0.0
220
0.0
230
1.0
 70
     8
 71
     3
 72
     8
 73
     4
 74
     0
 42
0.000000001
 43
0.00000001
 40
0.0
 40
0.0
 40
0.0
 40
0.0
 40
1.0
 40
1.0
 40
1.0
 40
1.0
 10
9.003334777118386
 20
-5.634003032427126
 30
0.0
 10
9.103479012001564
 20
-5.704372025674989
 30
0.0
 10
9.208680285687395
 20
-5.76218726181351
 30
0.0
 10
9.31559308291887
 20
-5.805768727798137
 30
0.0
  0
SPLINE
  5
1C6
330
1F
100
AcDbEntity
  8
외형선
  6
Continuous
370
    15
100
AcDbSpline
210
0.0
220
0.0
230
1.0
 70
     8
 71
     3
 72
    10
 73
     6
 74
     0
 42
0.000000001
 43
0.00000001
 40
0.0
 40
0.0
 40
0.0
 40
0.0
 40
0.5000000000000001
 40
0.5000000000000001
 40
1.0
 40
1.0
 40
1.0
 40
1.0
 10
8.736128551516082
 20
-5.571133946844039
 30
0.0
 10
8.772186498036845
 20
-5.562492366058983
 30
0.0
 10
8.814760213852216
 20
-5.562336240701089
 30
0.0
 10
8.907989099122778
 20
-5.58209063985506
 30
0.0
 10
8.958696569036404
 20
-5.602636815821814
 30
0.0
 10
9.003334777118388
 20
-5.634003032427113
 30
0.0
  0
LINE
  5
1C7
330
1F
100
AcDbEntity
  8
0
  6
Continuous
 62
     1
370
    15
100
AcDbLine
 10
25.87500067055225
 20
-0.3019604482688061
 30
0.0
 11
25.87500067055225
 21
-2.510821679607038
 31
0.0
  0
SPLINE
  5
1C8
330
1F
100
AcDbEntity
  8
외형선
  6
Continuous
370
    15
100
AcDbSpline
210
0.0
220
0.0
230
1.0
 70
     8
 71
     3
 72
     8
 73
     4
 74
     0
 42
0.000000001
 43
0.00000001
 40
0.0
 40
0.0
 40
0.0
 40
0.0
 40
1.0
 40
1.0
 40
1.0
 40
1.0
 10
9.31559308291886
 20
-5.80576872779814
 30
0.0
 10
9.505073344508396
 20
-5.837544987375093
 30
0.0
 10
9.694456126448523
 20
-5.866332287116
 30
0.0
 10
9.884033894753667
 20
-5.891936847566035
 30
0.0
  0
SPLINE
  5
1C9
330
1F
100
AcDbEntity
  8
외형선
  6
Continuous
370
    15
100
AcDbSpline
210
0.0
220
0.0
230
1.0
 70
     8
 71
     3
 72
     8
 73
     4
 74
     0
 42
0.000000001
 43
0.00000001
 40
0.0
 40
0.0
 40
0.0
 40
0.0
 40
1.0
 40
1.0
 40
1.0
 40
1.0
 10
10.0
 20
-5.202481686204511
 30
0.0
 10
9.960727613602849
 20
-5.485711259009388
 30
0.0
 10
9.923531159960971
 20
-5.715376544854546
 30
0.0
 10
9.884033894753435
 20
-5.891936847566047
 30
0.0
  0
SPLINE
  5
1CA
330
1F
100
AcDbEntity
  8
외형선
  6
Continuous
370
    15
100
AcDbSpline
210
0.0
220
0.0
230
1.0
 70
     8
 71
     3
 72
     8
 73
     4
 74
     0
 42
0.000000001
 43
0.00000001
 40
0.0
 40
0.0
 40
0.0
 40
0.0
 40
0.6854301373679982
 40
0.6854301373679982
 40
0.6854301373679982
 40
0.6854301373679982
 10
9.88403389475365
 20
-5.891936847565979
 30
0.0
 10
9.92435763320859
 20
-5.88665107200111
 30
0.0
 10
9.963025015692196
 20
-5.87872654445589
 30
0.0
 10
10.0
 20
-5.868325135196461
 30
0.0
  0
SPLINE
  5
1CB
330
1F
100
AcDbEntity
  8
외형선
  6
Continuous
370
    15
100
AcDbSpline
210
0.0
220
0.0
230
1.0
 70
    24
 71
     3
 72
    10
 73
     6
 74
     0
 42
0.000000001
 43
0.00000001
 40
0.0
 40
0.0
 40
0.0
 40
0.0
 40
0.5
 40
0.5
 40
1.0
 40
1.0
 40
1.0
 40
1.0
 10
10.0
 20
-5.202481686204511
 30
0.0
 10
10.0
 20
-4.990089821989795
 30
0.0
 10
9.999999999999998
 20
-4.741851190255279
 30
0.0
 10
9.999999999999998
 20
-4.196562333528316
 30
0.0
 10
10.0
 20
-3.89749718318726
 30
0.0
 10
10.0
 20
-3.571258067129982
 30
0.0
  0
SPLINE
  5
1CC
330
1F
100
AcDbEntity
  8
0
  6
Continuous
 62
     1
370
    15
100
AcDbSpline
210
0.0
220
0.0
230
1.0
 70
     8
 71
     3
 72
    10
 73
     6
 74
     0
 42
0.000000001
 43
0.00000001
 40
0.0
 40
0.0
 40
0.0
 40
0.0
 40
0.5
 40
0.5
 40
1.0
 40
1.0
 40
1.0
 40
1.0
 10
25.07260365206424
 20
-5.726373722645311
 30
0.0
 10
24.98902006356885
 20
-5.814152679912597
 30
0.0
 10
24.90566699256974
 20
-5.887216839580011
 30
0.0
 10
24.73930879218908
 20
-6.01113473861416
 30
0.0
 10
24.65579048059258
 20
-6.061988635726413
 30
0.0
 10
24.57431864696236
 20
-6.101637084093314
 30
0.0
  0
SPLINE
  5
1CD
330
1F
100
AcDbEntity
  8
0
  6
Continuous
 62
     1
370
    15
100
AcDbSpline
210
0.0
220
0.0
230
1.0
 70
     8
 71
     3
 72
    12
 73
     8
 74
     0
 42
0.000000001
 43
0.00000001
 40
0.0
 40
0.0
 40
0.0
 40
0.0
 40
0.4999999999999997
 40
0.4999999999999997
 40
0.7499999999999998
 40
0.7499999999999998
 40
1.0
 40
1.0
 40
1.0
 40
1.0
 10
10.97579882142125
 20
-4.045778089973998
 30
0.0
 10
10.93539610297746
 20
-4.537712467840278
 30
0.0
 10
10.89396905676299
 20
-4.970894297860339
 30
0.0
 10
10.83442701855687
 20
-5.491078886290566
 30
0.0
 10
10.81534480498381
 20
-5.642470899901896
 30
0.0
 10
10.77707739852869
 20
-5.903570339199609
 30
0.0
 10
10.75730951612824
 20
-6.014330968936846
 30
0.0
 10
10.73721721511689
 20
-6.102414444453631
 30
0.0
  0
SPLINE
  5
1CE
330
1F
100
AcDbEntity
  8
0
  6
Continuous
 62
     1
370
    15
100
AcDbSpline
210
0.0
220
0.0
230
1.0
 70
     8
 71
     3
 72
     8
 73
     4
 74
     0
 42
0.000000001
 43
0.00000001
 40
0.0
 40
0.0
 40
0.0
 40
0.0
 40
1.0
 40
1.0
 40
1.0
 40
1.0
 10
10.31683718624261
 20
-5.900886204521411
 30
0.0
 10
10.44929393174301
 20
-5.995571042832895
 30
0.0
 10
10.59428320797003
 20
-6.064414862767899
 30
0.0
 10
10.73721721511689
 20
-6.102414444453634
 30
0.0
  0
SPLINE
  5
1CF
330
1F
100
AcDbEntity
  8
0
  6
Continuous
 62
     1
370
    15
100
AcDbSpline
210
0.0
220
0.0
230
1.0
 70
     8
 71
     3
 72
    12
 73
     8
 74
     0
 42
0.000000001
 43
0.00000001
 40
0.0
 40
0.0
 40
0.0
 40
0.0
 40
0.4999999999999998
 40
0.4999999999999998
 40
0.7499999999999999
 40
0.7499999999999999
 40
1.0
 40
1.0
 40
1.0
 40
1.0
 10
16.76640900831347
 20
6.111703148315526
 30
0.0
 10
16.72703135130661
 20
5.940039285848787
 30
0.0
 10
16.6857122340897
 20
5.672551085361963
 30
0.0
 10
16.62492303464384
 20
5.150590945875766
 30
0.0
 10
16.60486419274302
 20
4.956894306474565
 30
0.0
 10
16.5658061897418
 20
4.537923851236656
 30
0.0
 10
16.54716315452632
 20
4.31432296356553
 30
0.0
 10
16.52766848062107
 20
4.072443838364014
 30
0.0
  0
SPLINE
  5
1D0
330
1F
100
AcDbEntity
  8
0
  6
Continuous
 62
     1
370
    15
100
AcDbSpline
210
0.0
220
0.0
230
1.0
 70
     8
 71
     3
 72
    10
 73
     6
 74
     0
 42
0.000000001
 43
0.00000001
 40
0.0
 40
0.0
 40
0.0
 40
0.0
 40
0.5
 40
0.5
 40
1.0
 40
1.0
 40
1.0
 40
1.0
 10
10.0498348011852
 20
-5.852454907463375
 30
0.0
 10
10.08604962508666
 20
-5.839528266902196
 30
0.0
 10
10.12870901563568
 20
-5.835630685717037
 30
0.0
 10
10.22194946458353
 20
-5.850105172462541
 30
0.0
 10
10.27253967041808
 20
-5.869220749450761
 30
0.0
 10
10.3168371862426
 20
-5.900886204521397
 30
0.0
  0
SPLINE
  5
1D1
330
1F
100
AcDbEntity
  8
0
  6
Continuous
 62
     1
370
    15
100
AcDbSpline
210
0.0
220
0.0
230
1.0
 70
     8
 71
     3
 72
     8
 73
     4
 74
     0
 42
0.000000001
 43
0.00000001
 40
0.0
 40
0.0
 40
0.0
 40
0.0
 40
1.0
 40
1.0
 40
1.0
 40
1.0
 10
10.73721721510949
 20
-6.102414444453245
 30
0.0
 10
10.8889539689734
 20
-6.110347785440535
 30
0.0
 10
11.03015735383456
 20
-6.082302342713637
 30
0.0
 10
11.14936377469261
 20
-6.025680198487734
 30
0.0
  0
SPLINE
  5
1D2
330
1F
100
AcDbEntity
  8
0
  6
Continuous
 62
     1
370
    15
100
AcDbSpline
210
0.0
220
0.0
230
1.0
 70
     8
 71
     3
 72
    10
 73
     6
 74
     0
 42
0.000000001
 43
0.00000001
 40
0.0
 40
0.0
 40
0.0
 40
0.0
 40
0.5
 40
0.5
 40
1.0
 40
1.0
 40
1.0
 40
1.0
 10
11.41617387879147
 20
-6.057158591980837
 30
0.0
 10
11.59107521631497
 20
-6.17863057856624
 30
0.0
 10
11.78302994542164
 20
-6.246218054565617
 30
0.0
 10
12.14897975909265
 20
-6.273408554868743
 30
0.0
 10
12.31941455852305
 20
-6.233433845374853
 30
0.0
 10
12.46161030272424
 20
-6.151158047799749
 30
0.0
  0
SPLINE
  5
1D3
330
1F
100
AcDbEntity
  8
0
  6
Continuous
 62
     1
370
    15
100
AcDbSpline
210
0.0
220
0.0
230
1.0
 70
     8
 71
     3
 72
    10
 73
     6
 74
     0
 42
0.000000001
 43
0.00000001
 40
0.0
 40
0.0
 40
0.0
 40
0.0
 40
0.5
 40
0.5
 40
1.0
 40
1.0
 40
1.0
 40
1.0
 10
11.14936377469262
 20
-6.025680198487736
 30
0.0
 10
11.18534551652249
 20
-6.008589144493115
 30
0.0
 10
11.22784915065334
 20
-6.000900515895905
 30
0.0
 10
11.32096144982984
 20
-6.009303618515832
 30
0.0
 10
11.37159983682114
 20
-6.026201153318866
 30
0.0
 10
11.41617387879148
 20
-6.057158591980823
 30
0.0
  0
SPLINE
  5
1D4
330
1F
100
AcDbEntity
  8
0
  6
Continuous
 62
     1
370
    15
100
AcDbSpline
210
0.0
220
0.0
230
1.0
 70
     8
 71
     3
 72
    10
 73
     6
 74
     0
 42
0.000000001
 43
0.00000001
 40
0.0
 40
0.0
 40
0.0
 40
0.0
 40
0.5
 40
0.5
 40
1.0
 40
1.0
 40
1.0
 40
1.0
 10
25.37708025488568
 20
-5.544303281643739
 30
0.0
 10
25.32996216447156
 20
-5.551641817247342
 30
0.0
 10
25.27961129104677
 20
-5.572458460709496
 30
0.0
 10
25.17685818318193
 20
-5.632851960093191
 30
0.0
 10
25.12454798982058
 20
-5.671822106876755
 30
0.0
 10
25.07260365206461
 20
-5.726373722645262
 30
0.0
  0
SPLINE
  5
1D5
330
1F
100
AcDbEntity
  8
0
  6
Continuous
 62
     1
370
    15
100
AcDbSpline
210
0.0
220
0.0
230
1.0
 70
     8
 71
     3
 72
     8
 73
     4
 74
     0
 42
0.000000001
 43
0.00000001
 40
0.0
 40
0.0
 40
0.0
 40
0.0
 40
1.0
 40
1.0
 40
1.0
 40
1.0
 10
25.72607157028785
 20
-4.394333052353709
 30
0.0
 10
25.71682378275635
 20
-4.79315733144135
 30
0.0
 10
25.70849922637171
 20
-5.140727429933159
 30
0.0
 10
25.70134242617322
 20
-5.427846254162997
 30
0.0
  0
SPLINE
  5
1D6
330
1F
100
AcDbEntity
  8
0
  6
Continuous
 62
     1
370
    15
100
AcDbSpline
210
0.0
220
0.0
230
1.0
 70
     8
 71
     3
 72
     8
 73
     4
 74
     0
 42
0.000000001
 43
0.00000001
 40
0.0
 40
0.0
 40
0.0
 40
0.0
 40
1.0
 40
1.0
 40
1.0
 40
1.0
 10
25.70134242617322
 20
-5.427846254162997
 30
0.0
 10
25.58925600860041
 20
-5.488329444777561
 30
0.0
 10
25.48026258693097
 20
-5.528232867696097
 30
0.0
 10
25.37708025488568
 20
-5.544303281643739
 30
0.0
  0
ELLIPSE
  5
1D7
330
1F
100
AcDbEntity
  8
0
  6
Continuous
 62
     1
370
    15
100
AcDbEllipse
 10
20.39546350983846
 20
-4.786387690661469
 30
0.0
 11
7.271156759964906
 21
9.127821442762512
 31
0.0
210
0.0
220
0.0
230
1.0
 40
0.4016385608855478
 41
4.955056759319162
 42
4.983521313204969
  0
LINE
  5
1D8
330
1F
100
AcDbEntity
  8
0
  6
Continuous
 62
     1
370
    15
100
AcDbLine
 10
25.87500067055225
 20
-5.155441351234918
 30
0.0
 11
25.87500067055225
 21
-4.30321646854282
 31
0.0
  0
SPLINE
  5
1D9
330
1F
100
AcDbEntity
  8
0
  6
Continuous
 62
     1
370
    15
100
AcDbSpline
210
0.0
220
0.0
230
1.0
 70
     8
 71
     3
 72
    10
 73
     6
 74
     0
 42
0.000000001
 43
0.00000001
 40
0.0
 40
0.0
 40
0.0
 40
0.0
 40
0.5
 40
0.5
 40
1.0
 40
1.0
 40
1.0
 40
1.0
 10
12.46161030272425
 20
-6.151158047799752
 30
0.0
 10
12.49779807754868
 20
-6.130219460271169
 30
0.0
 10
12.54043448781086
 20
-6.118999049920831
 30
0.0
 10
12.63363718222631
 20
-6.12196751553536
 30
0.0
 10
12.68420124014295
 20
-6.137057401879083
 30
0.0
 10
12.72847270385164
 20
-6.167605915348744
 30
0.0
  0
SPLINE
  5
1DA
330
1F
100
AcDbEntity
  8
0
  6
Continuous
 62
     1
370
    15
100
AcDbSpline
210
0.0
220
0.0
230
1.0
 70
     8
 71
     3
 72
    12
 73
     8
 74
     0
 42
0.000000001
 43
0.00000001
 40
0.0
 40
0.0
 40
0.0
 40
0.0
 40
0.25
 40
0.25
 40
0.5
 40
0.5
 40
1.0
 40
1.0
 40
1.0
 40
1.0
 10
13.38729258817042
 20
-5.013381255853266
 30
0.0
 10
13.3670729525663
 20
-5.209311496019163
 30
0.0
 10
13.34710261759106
 20
-5.38531510090403
 30
0.0
 10
13.30830193673659
 20
-5.693236193150744
 30
0.0
 10
13.28959647080771
 20
-5.825292028091027
 30
0.0
 10
13.23066271487309
 20
-6.161647906615524
 30
0.0
 10
13.18935192423701
 20
-6.299295370160376
 30
0.0
 10
13.14875159030556
 20
-6.338219898110953
 30
0.0
  0
SPLINE
  5
1DB
330
1F
100
AcDbEntity
  8
0
  6
Continuous
 62
     1
370
    15
100
AcDbSpline
210
0.0
220
0.0
230
1.0
 70
     8
 71
     3
 72
     8
 73
     4
 74
     0
 42
0.000000001
 43
0.00000001
 40
0.0
 40
0.0
 40
0.0
 40
0.0
 40
1.0
 40
1.0
 40
1.0
 40
1.0
 10
12.72847270385165
 20
-6.167605915348767
 30
0.0
 10
12.86089384652814
 20
-6.258980103637166
 30
0.0
 10
13.00585224100378
 20
-6.315897705812292
 30
0.0
 10
13.14875159030555
 20
-6.338219898110955
 30
0.0
  0
SPLINE
  5
1DC
330
1F
100
AcDbEntity
  8
0
  6
Continuous
 62
     1
370
    15
100
AcDbSpline
210
0.0
220
0.0
230
1.0
 70
     8
 71
     3
 72
    12
 73
     8
 74
     0
 42
0.000000001
 43
0.00000001
 40
0.0
 40
0.0
 40
0.0
 40
0.0
 40
0.25
 40
0.25
 40
0.5
 40
0.5
 40
1.0
 40
1.0
 40
1.0
 40
1.0
 10
14.35220867062966
 20
6.340296657635019
 30
0.0
 10
14.33239857747627
 20
6.32277972015987
 30
0.0
 10
14.31340649725924
 20
6.282028050322529
 30
0.0
 10
14.2750671933486
 20
6.155090575758893
 30
0.0
 10
14.25527358245526
 20
6.068069587911998
 30
0.0
 10
14.1949544600964
 20
5.737446994775601
 30
0.0
 10
14.15350162188092
 20
5.422861402810767
 30
0.0
 10
14.113571127851
 20
5.035648913870396
 30
0.0
  0
SPLINE
  5
1DD
330
1F
100
AcDbEntity
  8
0
  6
Continuous
 62
     1
370
    15
100
AcDbSpline
210
0.0
220
0.0
230
1.0
 70
     8
 71
     3
 72
     9
 73
     5
 74
     0
 42
0.000000001
 43
0.00000001
 40
0.0
 40
0.0
 40
0.0
 40
0.0
 40
0.5667174085695493
 40
1.0
 40
1.0
 40
1.0
 40
1.0
 10
13.14875149726868
 20
-6.338220089674001
 30
0.0
 10
13.20503790246334
 20
-6.33060245695358
 30
0.0
 10
13.30435795923863
 20
-6.317160779311017
 30
0.0
 10
13.39385148068668
 20
-6.279404662311912
 30
0.0
 10
13.43262746557594
 20
-6.263045594096187
 30
0.0
  0
SPLINE
  5
1DE
330
1F
100
AcDbEntity
  8
0
  6
Continuous
 62
     1
370
    15
100
AcDbSpline
210
0.0
220
0.0
230
1.0
 70
     8
 71
     3
 72
     9
 73
     5
 74
     0
 42
0.000000001
 43
0.00000001
 40
0.0
 40
0.0
 40
0.0
 40
0.0
 40
0.1946421213415718
 40
1.0
 40
1.0
 40
1.0
 40
1.0
 10
14.9367916546762
 20
-6.181035656481987
 30
0.0
 10
14.93643229505251
 20
-6.181812725278345
 30
0.0
 10
14.93458603679551
 20
-6.185805020424954
 30
0.0
 10
14.93277857894129
 20
-6.183218692904305
 30
0.0
 10
14.93132292851806
 20
-6.181135773658758
 30
0.0
  0
SPLINE
  5
1DF
330
1F
100
AcDbEntity
  8
0
  6
Continuous
 62
     1
370
    15
100
AcDbSpline
210
0.0
220
0.0
230
1.0
 70
     8
 71
     3
 72
     9
 73
     5
 74
     0
 42
0.000000001
 43
0.00000001
 40
0.0
 40
0.0
 40
0.0
 40
0.0
 40
0.5197217381086587
 40
1.0
 40
1.0
 40
1.0
 40
1.0
 10
13.82773594558239
 20
-6.190001964569097
 30
0.0
 10
13.91674396916924
 20
-6.238084385965811
 30
0.0
 10
14.08800489027436
 20
-6.330600087871401
 30
0.0
 10
14.26472935622029
 20
-6.338190459214278
 30
0.0
 10
14.34960627555847
 20
-6.341835949569946
 30
0.0
  0
SPLINE
  5
1E0
330
1F
100
AcDbEntity
  8
0
  6
Continuous
 62
     1
370
    15
100
AcDbSpline
210
0.0
220
0.0
230
1.0
 70
     8
 71
     3
 72
    10
 73
     6
 74
     0
 42
0.000000001
 43
0.00000001
 40
0.0
 40
0.0
 40
0.0
 40
0.0
 40
0.2837530771887596
 40
0.8565813389082543
 40
1.0
 40
1.0
 40
1.0
 40
1.0
 10
13.70526330173016
 20
-6.153671070933347
 30
0.0
 10
13.71680991907076
 20
-6.15332522118878
 30
0.0
 10
13.75166634085645
 20
-6.152281185155063
 30
0.0
 10
13.79453108281056
 20
-6.169620690754858
 30
0.0
 10
13.82219635315291
 20
-6.186601741207227
 30
0.0
 10
13.82773594558239
 20
-6.190001964569097
 30
0.0
  0
LINE
  5
1E1
330
1F
100
AcDbEntity
  8
0
  6
Continuous
 62
     1
370
    15
100
AcDbLine
 10
12.56788956560195
 20
6.184637080878014
 30
0.0
 11
12.56286042369902
 21
6.17646006867289
 31
0.0
  0
SPLINE
  5
1E2
330
1F
100
AcDbEntity
  8
0
  6
Continuous
 62
     1
370
    15
100
AcDbSpline
210
0.0
220
0.0
230
1.0
 70
     8
 71
     3
 72
     8
 73
     4
 74
     0
 42
0.000000001
 43
0.00000001
 40
0.0
 40
0.0
 40
0.0
 40
0.0
 40
1.0
 40
1.0
 40
1.0
 40
1.0
 10
10.49335331091585
 20
-6.001548279969153
 30
0.0
 10
10.34153461982194
 20
-6.014552080482096
 30
0.0
 10
10.20030895261787
 20
-5.992513219787059
 30
0.0
 10
10.08105394586675
 20
-5.942467377670699
 30
0.0
  0
SPLINE
  5
1E3
330
1F
100
AcDbEntity
  8
외형선
  6
Continuous
370
    15
100
AcDbSpline
210
0.0
220
0.0
230
1.0
 70
     8
 71
     3
 72
    10
 73
     6
 74
     0
 42
0.000000001
 43
0.00000001
 40
0.3374049299544298
 40
0.3374049299544298
 40
0.3374049299544298
 40
0.3374049299544298
 40
0.4999999999999996
 40
0.4999999999999996
 40
1.0
 40
1.0
 40
1.0
 40
1.0
 10
10.0
 20
-5.925177794744126
 30
0.0
 10
9.985794201148652
 20
-5.924649596255366
 30
0.0
 10
9.971075971676521
 20
-5.925258981733165
 30
0.0
 10
9.909356943556807
 20
-5.932694793186009
 30
0.0
 10
9.8586954734681
 20
-5.950561845218688
 30
0.0
 10
9.814082788875849
 20
-5.981792959118145
 30
0.0
  0
SPLINE
  5
1E4
330
1F
100
AcDbEntity
  8
외형선
  6
Continuous
370
    15
100
AcDbSpline
210
0.0
220
0.0
230
1.0
 70
     8
 71
     3
 72
     8
 73
     4
 74
     0
 42
0.000000001
 43
0.00000001
 40
0.0
 40
0.0
 40
0.0
 40
0.0
 40
1.0
 40
1.0
 40
1.0
 40
1.0
 10
9.814082788875846
 20
-5.981792959118154
 30
0.0
 10
9.737152288315235
 20
-6.035648163020593
 30
0.0
 10
9.658052541230145
 20
-6.079292877361025
 30
0.0
 10
9.576278688900528
 20
-6.113707415787484
 30
0.0
  0
SPLINE
  5
1E5
330
1F
100
AcDbEntity
  8
외형선
  6
Continuous
370
    15
100
AcDbSpline
210
0.0
220
0.0
230
1.0
 70
     8
 71
     3
 72
     8
 73
     4
 74
     0
 42
0.000000001
 43
0.00000001
 40
0.0
 40
0.0
 40
0.0
 40
0.0
 40
1.0
 40
1.0
 40
1.0
 40
1.0
 10
9.576278688900496
 20
-6.113707415787566
 30
0.0
 10
9.43155831623397
 20
-6.143999074046093
 30
0.0
 10
9.286922343065902
 20
-6.172948904950283
 30
0.0
 10
9.142371666716974
 20
-6.200538686349049
 30
0.0
  0
SPLINE
  5
1E6
330
1F
100
AcDbEntity
  8
외형선
  6
Continuous
370
    15
100
AcDbSpline
210
0.0
220
0.0
230
1.0
 70
     8
 71
     3
 72
     8
 73
     4
 74
     0
 42
0.000000001
 43
0.00000001
 40
0.0
 40
0.0
 40
0.0
 40
0.0
 40
1.0
 40
1.0
 40
1.0
 40
1.0
 10
9.142371666716974
 20
-6.200538686349052
 30
0.0
 10
9.006177203098948
 20
-6.197550120120516
 30
0.0
 10
8.877600043241348
 20
-6.164318690621537
 30
0.0
 10
8.767223169145023
 20
-6.106208733886286
 30
0.0
  0
SPLINE
  5
1E7
330
1F
100
AcDbEntity
  8
외형선
  6
Continuous
370
    15
100
AcDbSpline
210
0.0
220
0.0
230
1.0
 70
     8
 71
     3
 72
    10
 73
     6
 74
     0
 42
0.000000001
 43
0.00000001
 40
0.0
 40
0.0
 40
0.0
 40
0.0
 40
0.5
 40
0.5
 40
1.0
 40
1.0
 40
1.0
 40
1.0
 10
8.767223169145023
 20
-6.106208733886286
 30
0.0
 10
8.73095011340096
 20
-6.087112109550798
 30
0.0
 10
8.688235321729833
 20
-6.077604554888312
 30
0.0
 10
8.59490772901381
 20
-6.083345532912505
 30
0.0
 10
8.544279634408003
 20
-6.099458984286271
 30
0.0
 10
8.499952793620064
 20
-6.130425061201073
 30
0.0
  0
LINE
  5
1E8
330
1F
100
AcDbEntity
  8
0
  6
Continuous
 62
     1
370
    15
100
AcDbLine
 10
15.18844525888562
 20
-6.178398150950676
 30
0.0
 11
15.18333928287029
 21
-6.174144800752407
 31
0.0
  0
LINE
  5
1E9
330
1F
100
AcDbEntity
  8
0
  6
Continuous
 62
     1
370
    15
100
AcDbLine
 10
12.31624411046505
 20
6.17400743067264
 30
0.0
 11
12.31118446774781
 21
6.178519222885367
 31
0.0
  0
SPLINE
  5
1EA
330
1F
100
AcDbEntity
  8
0
  6
Continuous
 62
     1
370
    15
100
AcDbSpline
210
0.0
220
0.0
230
1.0
 70
     8
 71
     3
 72
    10
 73
     6
 74
     0
 42
0.000000001
 43
0.00000001
 40
0.0
 40
0.0
 40
0.0
 40
0.0
 40
0.3342022411243094
 40
0.6722748620954254
 40
1.0
 40
1.0
 40
1.0
 40
1.0
 10
15.80076889693737
 20
-5.741469096392398
 30
0.0
 10
15.78132280642483
 20
-5.86337710282884
 30
0.0
 10
15.74220542117441
 20
-6.108604926375669
 30
0.0
 10
15.68184798215185
 20
-6.313749760918181
 30
0.0
 10
15.64200876579096
 20
-6.336556053858841
 30
0.0
 10
15.622398737818
 20
-6.347781978547578
 30
0.0
  0
SPLINE
  5
1EB
330
1F
100
AcDbEntity
  8
0
  6
Continuous
 62
     1
370
    15
100
AcDbSpline
210
0.0
220
0.0
230
1.0
 70
     8
 71
     3
 72
    11
 73
     7
 74
     0
 42
0.000000001
 43
0.00000001
 40
0.0
 40
0.0
 40
0.0
 40
0.0
 40
0.147465710985516
 40
0.403002424941139
 40
0.6996904412273921
 40
1.0
 40
1.0
 40
1.0
 40
1.0
 10
11.87506636232138
 20
6.3400431536138
 30
0.0
 10
11.86642689444537
 20
6.3416490986768
 30
0.0
 10
11.84281648032969
 20
6.346037913882627
 30
0.0
 10
11.80327244863133
 20
6.258362819667528
 30
0.0
 10
11.75478570355337
 20
6.079513594742775
 30
0.0
 10
11.71963393022277
 20
5.864640577540952
 30
0.0
 10
11.70195142365992
 20
5.756552331149573
 30
0.0
  0
LINE
  5
1EC
330
1F
100
AcDbEntity
  8
0
  6
Continuous
 62
     1
370
    15
100
AcDbLine
 10
16.31814559549093
 20
-6.186205428093677
 30
0.0
 11
16.31288501992822
 21
-6.177540868520742
 31
0.0
  0
LINE
  5
1F1
330
1F
100
AcDbEntity
  8
0
  6
Continuous
 62
     1
370
    15
100
AcDbLine
 10
25.87500067055225
 20
2.848915057256813
 30
0.0
 11
25.87500067055225
 21
2.855484141036863
 31
0.0
  0
LINE
  5
1F3
330
1F
100
AcDbEntity
  8
0
  6
Continuous
 62
     1
370
    15
100
AcDbLine
 10
11.18613957986236
 20
6.169437896460289
 30
0.0
 11
11.18009436503053
 21
6.17222255095839
 31
0.0
  0
SPLINE
  5
1F4
330
1F
100
AcDbEntity
  8
0
  6
Continuous
 62
     1
370
    15
100
AcDbSpline
210
0.0
220
0.0
230
1.0
 70
     8
 71
     3
 72
    10
 73
     6
 74
     0
 42
0.000000001
 43
0.00000001
 40
0.0
 40
0.0
 40
0.0
 40
0.0
 40
0.0531421621199868
 40
0.5340460526233737
 40
1.0
 40
1.0
 40
1.0
 40
1.0
 10
24.37119317799807
 20
6.342680659145111
 30
0.0
 10
24.3689636381965
 20
6.344716413764569
 30
0.0
 10
24.34655813411661
 20
6.365174495921185
 30
0.0
 10
24.30633869879951
 20
6.276039865764579
 30
0.0
 10
24.26755108640814
 20
6.109544961527785
 30
0.0
 10
24.24846348911524
 20
6.02761190384626
 30
0.0
  0
SPLINE
  5
1F5
330
1F
100
AcDbEntity
  8
0
  6
Continuous
 62
     1
370
    15
100
AcDbSpline
210
0.0
220
0.0
230
1.0
 70
     8
 71
     3
 72
     9
 73
     5
 74
     0
 42
0.000000001
 43
0.00000001
 40
0.0
 40
0.0
 40
0.0
 40
0.0
 40
0.6514073707679785
 40
1.0
 40
1.0
 40
1.0
 40
1.0
 10
18.21383127570152
 20
-6.194190122187143
 30
0.0
 10
18.19587453565241
 20
-6.249860840664901
 30
0.0
 10
18.16830846739018
 20
-6.335323058281698
 30
0.0
 10
18.1410183039122
 20
-6.335180564852971
 30
0.0
 10
18.13150515407324
 20
-6.335130892694002
 30
0.0
  0
SPLINE
  5
1F6
330
1F
100
AcDbEntity
  8
외형선
  6
Continuous
370
    15
100
AcDbSpline
210
0.0
220
0.0
230
1.0
 70
     8
 71
     3
 72
    11
 73
     7
 74
     0
 42
0.000000001
 43
0.00000001
 40
0.0
 40
0.0
 40
0.0
 40
0.0
 40
0.0897279753531721
 40
0.5027576006654136
 40
0.9258780948099282
 40
0.9999999999999999
 40
0.9999999999999999
 40
0.9999999999999999
 40
0.9999999999999999
 10
9.57540653506294
 20
6.295596715062853
 30
0.0
 10
9.5717528731038
 20
6.298826603289504
 30
0.0
 10
9.551280926500874
 20
6.31692409015308
 30
0.0
 10
9.513540438546238
 20
6.269310565482613
 30
0.0
 10
9.477239851649871
 20
6.204413387792396
 30
0.0
 10
9.456809693331975
 20
6.150643214830101
 30
0.0
 10
9.453764252597468
 20
6.142627913504834
 30
0.0
  0
SPLINE
  5
1F8
330
1F
100
AcDbEntity
  8
외형선
  6
Continuous
370
    15
100
AcDbSpline
210
0.0
220
0.0
230
1.0
 70
     8
 71
     3
 72
     9
 73
     5
 74
     0
 42
0.000000001
 43
0.00000001
 40
0.0
 40
0.0
 40
0.0
 40
0.0
 40
0.374271208294905
 40
1.0
 40
1.0
 40
1.0
 40
1.0
 10
9.198740235646257
 20
6.196263711899515
 30
0.0
 10
9.205260076955296
 20
6.224081000854836
 30
0.0
 10
9.222680175441482
 20
6.298404882411342
 30
0.0
 10
9.24110490706137
 20
6.308854365365827
 30
0.0
 10
9.252633792115377
 20
6.315392907708878
 30
0.0
  0
LINE
  5
1F9
330
1F
100
AcDbEntity
  8
0
  6
Continuous
 62
     1
370
    15
100
AcDbLine
 10
21.87799794226885
 20
6.335659883916373
 30
0.0
 11
21.83434219658375
 21
6.317941006273028
 31
0.0
  0
LINE
  5
1FB
330
1F
100
AcDbEntity
  8
중심선
 62
     1
100
AcDbLine
 10
-40.62499999999999
 20
-0.000000000000005
 30
0.0
 11
28.87500000000002
 21
0.0000000000000036
 31
0.0
  0
LINE
  5
1FC
330
1F
100
AcDbEntity
  8
참조1
100
AcDbLine
 10
-5.874999999999991
 20
0.0010749287238892
 30
0.0
 11
-5.874999999999984
 21
-39.99892507127611
 31
0.0
  0
LINE
  5
1FD
330
1F
100
AcDbEntity
  8
참조1
100
AcDbLine
 10
-5.874999999999984
 20
-39.99892507127611
 30
0.0
 11
13.92939446285957
 21
-39.9989250712761
 31
0.0
  0
CIRCLE
  5
1FE
330
1F
100
AcDbEntity
  8
해칭선
100
AcDbCircle
 10
0.0
 20
0.0
 30
0.0
 40
3.000000000000001
  0
INSERT
  5
1FF
330
1F
100
AcDbEntity
  8
0
  6
Continuous
 62
     7
100
AcDbBlockReference
 66
     1
  2
블럭10
 10
-13.05602129314588
 20
-34.03860663777479
 30
0.0
  0
ATTRIB
  5
200
330
1FF
100
AcDbEntity
  8
FORMAT
 62
     2
100
AcDbText
 10
-22.23731658188716
 20
-31.9632397249426
 30
0.0
 40
4.233333333333333
  1
E5056032 [ 5 FLUTE ]
 41
0.75
  7
SLDTEXTSTYLE0
 11
-22.23731658188716
 21
-34.07990639160927
 31
0.0
100
AcDbAttribute
  2
AUTOATTR0
 70
     0
 74
     1
  0
SEQEND
  5
201
330
1FF
100
AcDbEntity
  8
0
  6
Continuous
 62
     7
  0
HATCH
  5
202
330
1F
100
AcDbEntity
  8
중심선
100
AcDbHatch
 10
0.0
 20
0.0
 30
0.0
210
0.0
220
0.0
230
1.0
  2
SOLID
 70
     1
 71
     0
 91
        1
 92
        0
 93
        4
 72
     1
 10
-7.341111988765046
 20
-17.79143233613085
 11
-10.78738723260233
 21
-17.79143233613085
 72
     1
 10
-10.78738723260233
 20
-17.79143233613085
 11
-12.91561709180635
 21
-20.32775791670345
 72
     1
 10
-12.91561709180635
 20
-20.32775791670345
 11
-9.46930876285592
 21
-20.32771848740096
 72
     1
 10
-9.46930876285592
 20
-20.32771848740096
 11
-7.341111988765046
 21
-17.79143233613085
 97
        0
 75
     0
 76
     1
 98
        1
 10
6.759251638979315
 20
18.00749273514525
  0
HATCH
  5
203
330
1F
100
AcDbEntity
  8
중심선
100
AcDbHatch
 10
0.0
 20
0.0
 30
0.0
210
0.0
220
0.0
230
1.0
  2
SOLID
 70
     1
 71
     0
 91
        1
 92
        0
 93
        4
 72
     1
 10
-2.328347997729123
 20
-17.79143233613088
 11
-5.774623241566349
 21
-17.79143233613085
 72
     1
 10
-5.774623241566349
 20
-17.79143233613085
 11
-10.30576124992377
 21
-23.19143233613087
 72
     1
 10
-10.30576124992377
 20
-23.19143233613087
 11
-6.859486006086483
 21
-23.19143233613087
 72
     1
 10
-6.859486006086483
 20
-23.19143233613087
 11
-2.328347997729123
 21
-17.79143233613088
 97
        0
 75
     0
 76
     1
 98
        1
 10
6.759251638979315
 20
18.00749273514525
  0
HATCH
  5
204
330
1F
100
AcDbEntity
  8
중심선
100
AcDbHatch
 10
0.0
 20
0.0
 30
0.0
210
0.0
220
0.0
230
1.0
  2
SOLID
 70
     1
 71
     0
 91
        1
 92
        0
 93
        4
 72
     1
 10
2.6844159933068
 20
-17.79143233613085
 11
-0.7618592505303159
 21
-17.79143233613088
 72
     1
 10
-0.7618592505303159
 20
-17.79143233613088
 11
-7.810296152419564
 21
-26.19143233613087
 72
     1
 10
-7.810296152419564
 20
-26.19143233613087
 11
-4.364020908582281
 21
-26.19143233613087
 72
     1
 10
-4.364020908582281
 20
-26.19143233613087
 11
2.6844159933068
 21
-17.79143233613085
 97
        0
 75
     0
 76
     1
 98
        1
 10
6.759251638979315
 20
18.00749273514525
  0
HATCH
  5
205
330
1F
100
AcDbEntity
  8
중심선
100
AcDbHatch
 10
0.0
 20
0.0
 30
0.0
210
0.0
220
0.0
230
1.0
  2
SOLID
 70
     1
 71
     0
 91
        1
 92
        0
 93
        6
 72
     3
 10
7.484306424319
 20
-21.99143233618213
 11
3.960054785062283
 21
1.540882976769353E-10
 40
0.3939339440162628
 50
17.0953918060844
 51
320.0019657685082
 73
     0
 72
     1
 10
9.167306080019596
 20
-20.57932634076915
 11
11.47260795372066
 21
-18.64499963072121
 72
     3
 10
7.484306424266153
 20
-21.991432336131
 11
6.600054785286829
 21
-1.278976924368180E-13
 40
0.636358354079598
 50
39.99873849337413
 51
368.4976242363724
 73
     1
 72
     1
 10
13.90963891616676
 20
-21.03143233606088
 11
6.164373731102076
 21
-21.03143233606088
 72
     1
 10
6.164373731102075
 20
-21.03143233606088
 11
6.164348686656141
 21
-22.95143233606077
 72
     1
 10
6.164348686656142
 20
-22.95143233606077
 11
10.60572845612818
 21
-22.95143233606074
 97
        0
 75
     0
 76
     1
 98
        1
 10
6.759251638979315
 20
18.00749273514525
  0
DIMENSION
  5
206
330
1F
100
AcDbEntity
  8
치수문자_일반주서
100
AcDbDimension
  2
_D
 10
-52.15651202145902
 20
-6.350000000000058
 30
0.0
 11
-52.15651202145913
 21
26.73524999999994
 31
0.0
 70
   160
  1
%%c<>
 71
     2
 42
12.69999999999999
 52
-270.0
  3
SLDDIMSTYLE0
100
AcDbAlignedDimension
 13
-36.62499999999997
 23
6.349999999999989
 33
0.0
 14
-36.62499999999997
 24
-6.35
 34
0.0
 50
90.0000000000002
100
AcDbRotatedDimension
1001
ACAD
1000
DSTYLE
1002
{
1070
   171
1070
     6
1070
   273
1070
     5
1002
}
  0
DIMENSION
  5
21B
330
1F
100
AcDbEntity
  8
치수문자_일반주서
100
AcDbDimension
  2
_D_1
 10
10.0
 20
21.89140635193266
 30
0.0
 11
17.5463001079994
 21
21.89140635193266
 31
0.0
 70
   160
  1
<>
 71
     2
 42
15.875
  3
SLDDIMSTYLE0
100
AcDbAlignedDimension
 13
25.875
 23
6.349999923259015
 33
0.0
 14
10.0
 24
-3.525974975945167
 34
0.0
100
AcDbRotatedDimension
1001
ACAD
1000
DSTYLE
1002
{
1070
   171
1070
     6
1070
   273
1070
     5
1002
}
  0
DIMENSION
  5
231
330
1F
100
AcDbEntity
  8
치수문자_일반주서
100
AcDbDimension
  2
_D_2
 10
25.875
 20
37.41299028620471
 30
0.0
 11
-5.874999999999996
 21
37.41299028620471
 31
0.0
 70
   160
  1
<>
 71
     2
 42
63.5
  3
SLDDIMSTYLE0
100
AcDbAlignedDimension
 13
-37.625
 23
5.349999999999989
 33
0.0
 14
25.875
 24
6.349999923259015
 34
0.0
100
AcDbRotatedDimension
1001
ACAD
1000
DSTYLE
1002
{
1070
   171
1070
     6
1070
   273
1070
     5
1002
}
  0
DIMENSION
  5
245
330
1F
100
AcDbEntity
  8
치수문자_일반주서
100
AcDbDimension
  2
_D_3
 10
56.13708621808436
 20
-6.349999999999827
 30
0.0
 11
56.13708621808424
 21
27.55629921051055
 31
0.0
 70
   160
  1
%%c<>
 71
     2
 42
12.69999992325896
 52
-270.0
  3
SLDDIMSTYLE0
100
AcDbAlignedDimension
 13
25.875
 23
6.349999923259015
 33
0.0
 14
25.875
 24
-6.349999999999943
 34
0.0
 50
90.0000000000002
100
AcDbRotatedDimension
1001
ACAD
1000
DSTYLE
1002
{
1070
   171
1070
     6
1070
   273
1070
     5
1002
}
  0
LINE
  5
259
330
1F
100
AcDbEntity
  8
참조1
100
AcDbLine
 10
111.9017350925138
 20
7.441074928723896
 30
0.0
 11
111.9017350925138
 21
-7.438925071276109
 31
0.0
  0
LINE
  5
25A
330
1F
100
AcDbEntity
  8
참조1
100
AcDbLine
 10
124.6017350925138
 20
5.441074928723896
 30
0.0
 11
111.9017350925138
 21
5.441074928723896
 31
0.0
  0
SOLID
  5
25B
330
1F
100
AcDbEntity
  8
참조1
100
AcDbTrace
 10
111.9017350925138
 20
5.441074928723896
 30
0.0
 11
118.2517350925138
 21
4.425074928723896
 31
0.0
 12
118.2517350925138
 22
6.457074928723896
 32
0.0
 13
118.2517350925138
 23
6.457074928723896
 33
0.0
  0
LINE
  5
25C
330
1F
100
AcDbEntity
  8
참조1
100
AcDbLine
 10
124.6017350925138
 20
-5.438925071276109
 30
0.0
 11
111.9017350925138
 21
-5.438925071276109
 31
0.0
  0
SOLID
  5
25D
330
1F
100
AcDbEntity
  8
참조1
100
AcDbTrace
 10
111.9017350925138
 20
-5.438925071276109
 30
0.0
 11
118.2517350925138
 21
-6.454925071276109
 31
0.0
 12
118.2517350925138
 22
-4.422925071276109
 32
0.0
 13
118.2517350925138
 23
-4.422925071276109
 33
0.0
  0
MTEXT
  5
25E
330
1F
100
AcDbEntity
  8
참조1
100
AcDbMText
 10
121.5018499030764
 20
11.06679249473997
 30
0.0
 40
3.5
 41
0.0
 71
     1
 72
     1
  1
A
  7
SLDTEXTSTYLE0
 73
     1
 44
1.0
  0
MTEXT
  5
25F
330
1F
100
AcDbEntity
  8
참조1
100
AcDbMText
 10
121.5018499030764
 20
0.1867924947399659
 30
0.0
 40
3.5
 41
0.0
 71
     1
 72
     1
  1
A
  7
SLDTEXTSTYLE0
 73
     1
 44
1.0
  0
INSERT
  5
266
330
1F
100
AcDbEntity
  8
해칭선
100
AcDbBlockReference
  2
SW_DOWELSYMBOL_0
 10
0.0
 20
0.0
 30
0.0
  0
ARC
  5
400
330
1F
100
AcDbEntity
  8
0
  6
Continuous
 62
     1
370
    15
100
AcDbCircle
 10
24.85900000000001
 20
5.333999923259015
 30
0.0
 40
1.016
100
AcDbArc
 50
0.0
 51
90.0
  0
LINE
  5
402
330
1F
100
AcDbEntity
  8
0
  6
Continuous
 62
     1
370
    15
100
AcDbLine
 10
24.35525395957612
 20
6.349999923259015
 30
0.0
 11
24.85900000000001
 21
6.349999923259015
 31
0.0
  0
LINE
  5
404
330
1F
100
AcDbEntity
  8
0
  6
Continuous
 62
     1
370
    15
100
AcDbLine
 10
25.875
 20
5.333999923259015
 30
0.0
 11
25.87500067055225
 21
3.440381959080691
 31
0.0
  0
LINE
  5
406
330
1F
100
AcDbEntity
  8
0
  6
Continuous
 62
     1
370
    15
100
AcDbLine
 10
10.0
 20
-5.868325135196461
 30
0.0
 11
10.0498348011852
 21
-5.852454907463375
 31
0.0
  0
LINE
  5
407
330
1F
100
AcDbEntity
  8
0
  6
Continuous
 62
     1
370
    15
100
AcDbLine
 10
10.0
 20
-5.925177794744126
 30
0.0
 11
10.08105394586675
 21
-5.942467377670699
 31
0.0
  0
LINE
  5
408
330
1F
100
AcDbEntity
  8
외형선
  6
Continuous
370
    15
100
AcDbLine
 10
9.822885136585684
 20
6.186163984239096
 30
0.0
 11
10.0
 21
6.159362027602043
 31
0.0
  0
LINE
  5
409
330
1F
100
AcDbEntity
  8
외형선
  6
Continuous
370
    15
100
AcDbLine
 10
9.968840789723064
 20
5.93370140863423
 30
0.0
 11
10.0
 21
5.950076381587705
 31
0.0
  0
DIMENSION
  5
40A
330
1F
100
AcDbEntity
  8
치수문자_일반주서
100
AcDbDimension
  2
*D17
 10
24.85900000000001
 20
5.333999923259015
 30
0.0
 11
39.99148381858084
 21
20.46745409086032
 31
0.0
 70
   164
  1
<>
 71
     5
 42
1.016
  3
SLDDIMSTYLE0
100
AcDbRadialDimension
 15
25.57739745620832
 25
6.052443445683309
 35
0.0
 40
0.0
1001
ACAD_DSTYLE_DIMRADIAL_EXTENSION
1070
   387
1070
     1
1070
   388
1040
0.0
1070
   390
1040
1.570796326794897
  0
LINE
  5
473
330
1F
100
AcDbEntity
  8
외형선
  6
Continuous
370
    15
100
AcDbLine
 10
-20.5911244933605
 20
4.82599999999999
 30
0.0
 11
-9.415124493360622
 21
4.82599999999999
 31
0.0
  0
LINE
  5
474
330
1F
100
AcDbEntity
  8
외형선
  6
Continuous
370
    15
100
AcDbLine
 10
-20.5911244933605
 20
4.82599999999999
 30
0.0
 11
-22.1151244933605
 21
6.349999999999991
 31
0.0
  0
LINE
  5
475
330
1F
100
AcDbEntity
  8
외형선
  6
Continuous
370
    15
100
AcDbLine
 10
-9.415124493360508
 20
4.82599999999999
 30
0.0
 11
-7.891124493360508
 21
6.349999999999991
 31
0.0
  0
LINE
  5
476
330
1F
100
AcDbEntity
  8
외형선
  6
Continuous
370
    15
100
AcDbLine
 10
-22.11512441661952
 20
6.349999923259015
 30
0.0
 11
-36.6250011920929
 21
6.349999923259015
 31
0.0
  0
ENDSEC
  0
SECTION
  2
OBJECTS
  0
DICTIONARY
  5
C
330
0
100
AcDbDictionary
281
     1
  3
ACAD_GROUP
350
D
  3
ACAD_IMAGE_VARS
350
28A
  3
ACAD_LAYOUT
350
1A
  3
ACAD_MLINESTYLE
350
17
  3
ACAD_PLOTSETTINGS
350
19
  3
ACAD_PLOTSTYLENAME
350
E
  3
ACAD_SCALELIST
350
47
  3
APPDATA
350
288
  3
DWGPROPS
350
477
  0
DICTIONARY
  5
344
330
2
100
AcDbDictionary
280
     1
281
     1
  3
ACAD_LAYERSTATES
360
345
  0
DICTIONARY
  5
D
102
{ACAD_REACTORS
330
C
102
}
330
C
100
AcDbDictionary
281
     1
  0
RASTERVARIABLES
  5
28A
102
{ACAD_REACTORS
330
C
102
}
330
C
100
AcDbRasterVariables
 90
        0
 70
     1
 71
     1
 72
     1
  0
DICTIONARY
  5
1A
102
{ACAD_REACTORS
330
C
102
}
330
C
100
AcDbDictionary
281
     1
  3
Layout1
350
1E
  3
Layout2
350
26
  3
Model
350
22
  0
DICTIONARY
  5
17
102
{ACAD_REACTORS
330
C
102
}
330
C
100
AcDbDictionary
281
     1
  3
Standard
350
18
  0
DICTIONARY
  5
19
102
{ACAD_REACTORS
330
C
102
}
330
C
100
AcDbDictionary
281
     1
  0
ACDBDICTIONARYWDFLT
  5
E
102
{ACAD_REACTORS
330
C
102
}
330
C
100
AcDbDictionary
281
     1
  3
Normal
350
F
100
AcDbDictionaryWithDefault
340
F
  0
DICTIONARY
  5
47
102
{ACAD_REACTORS
330
C
102
}
330
C
100
AcDbDictionary
281
     1
  3
A0
350
48
  3
A1
350
49
  3
A2
350
4A
  3
A3
350
4B
  3
A4
350
4C
  3
A5
350
4D
  3
A6
350
4E
  3
A7
350
4F
  3
A8
350
50
  3
A9
350
51
  3
B0
350
52
  3
B1
350
53
  3
B2
350
54
  3
B3
350
55
  3
B4
350
56
  3
B5
350
57
  3
B6
350
58
  3
B7
350
59
  3
B8
350
5A
  3
B9
350
5B
  3
C0
350
5C
  3
C1
350
5D
  3
C2
350
5E
  3
C3
350
5F
  3
C4
350
60
  3
C5
350
61
  3
C6
350
62
  3
C7
350
63
  3
C8
350
64
  3
C9
350
65
  3
D0
350
66
  3
D1
350
67
  3
D2
350
68
  0
DICTIONARY
  5
288
102
{ACAD_REACTORS
330
C
102
}
330
C
100
AcDbDictionary
281
     1
  0
XRECORD
  5
477
102
{ACAD_REACTORS
330
C
102
}
330
C
100
AcDbXrecord
280
     1
  1
DWGPROPS COOKIE
  2

  3

  4

  6

  7

  8
12014074
  9

300
=
301
=
302
=
303
=
304
=
305
=
306
=
307
=
308
=
309
=
 40
0.0
 41
2458319.181127975
 42
2458320.340869954
  1

 90
        0
  0
DICTIONARY
  5
345
102
{ACAD_REACTORS
330
344
102
}
330
344
100
AcDbDictionary
281
     1
  0
LAYOUT
  5
1E
102
{ACAD_REACTORS
330
1A
102
}
330
1A
100
AcDbPlotSettings
  1

  2
none_device
  4

  6

 40
0.0
 41
0.0
 42
0.0
 43
0.0
 44
0.0
 45
0.0
 46
0.0
 47
0.0
 48
0.0
 49
0.0
140
0.0
141
0.0
142
1.0
143
1.0
 70
   688
 72
     1
 73
     0
 74
     5
  7

 75
    16
147
1.0
148
0.0
149
0.0
100
AcDbLayout
  1
Layout1
 70
     1
 71
     1
 10
0.0
 20
0.0
 11
420.0
 21
297.0
 12
0.0
 22
0.0
 32
0.0
 14
1.000000000000000E+20
 24
1.000000000000000E+20
 34
1.000000000000000E+20
 15
-1.000000000000000E+20
 25
-1.000000000000000E+20
 35
-1.000000000000000E+20
146
0.0
 13
0.0
 23
0.0
 33
0.0
 16
1.0
 26
0.0
 36
0.0
 17
0.0
 27
1.0
 37
0.0
 76
     0
330
1B
  0
LAYOUT
  5
26
102
{ACAD_REACTORS
330
1A
102
}
330
1A
100
AcDbPlotSettings
  1

  2
none_device
  4

  6

 40
0.0
 41
0.0
 42
0.0
 43
0.0
 44
0.0
 45
0.0
 46
0.0
 47
0.0
 48
0.0
 49
0.0
140
0.0
141
0.0
142
1.0
143
1.0
 70
   688
 72
     1
 73
     0
 74
     5
  7

 75
    16
147
1.0
148
0.0
149
0.0
100
AcDbLayout
  1
Layout2
 70
     1
 71
     2
 10
0.0
 20
0.0
 11
0.0
 21
0.0
 12
0.0
 22
0.0
 32
0.0
 14
0.0
 24
0.0
 34
0.0
 15
0.0
 25
0.0
 35
0.0
146
0.0
 13
0.0
 23
0.0
 33
0.0
 16
1.0
 26
0.0
 36
0.0
 17
0.0
 27
1.0
 37
0.0
 76
     0
330
23
  0
LAYOUT
  5
22
102
{ACAD_REACTORS
330
1A
102
}
330
1A
100
AcDbPlotSettings
  1

  2
none_device
  4
ANSI_A_(11.00_x_8.50_Inches)
  6

 40
6.35
 41
19.05
 42
6.35000508
 43
19.05000254
 44
279.4
 45
215.9
 46
83.09690755167432
 47
91.24949072689886
 48
0.0
 49
0.0
140
0.0
141
0.0
142
0.0564417364538889
143
1.0
 70
  1696
 72
     0
 73
     0
 74
     0
  7

 75
     0
147
0.0235690232323232
148
0.0
149
0.0
100
AcDbLayout
  1
Model
 70
     1
 71
     0
 10
0.0
 20
0.0
 11
420.0
 21
297.0
 12
0.0
 22
0.0
 32
0.0
 14
1.000000000000000E+20
 24
1.000000000000000E+20
 34
1.000000000000000E+20
 15
-1.000000000000000E+20
 25
-1.000000000000000E+20
 35
-1.000000000000000E+20
146
0.0
 13
0.0
 23
0.0
 33
0.0
 16
1.0
 26
0.0
 36
0.0
 17
0.0
 27
1.0
 37
0.0
 76
     0
330
1F
331
29
  0
MLINESTYLE
  5
18
102
{ACAD_REACTORS
330
17
102
}
330
17
100
AcDbMlineStyle
  2
Standard
 70
     0
  3

 62
   256
 51
90.0
 52
90.0
 71
     2
 49
0.5
 62
   256
  6
BYLAYER
 49
-0.5
 62
   256
  6
BYLAYER
  0
ACDBPLACEHOLDER
  5
F
102
{ACAD_REACTORS
330
E
102
}
330
E
  0
SCALE
  5
48
102
{ACAD_REACTORS
330
47
102
}
330
47
100
AcDbScale
 70
     0
300
1:1
140
1.0
141
1.0
290
     1
  0
SCALE
  5
49
102
{ACAD_REACTORS
330
47
102
}
330
47
100
AcDbScale
 70
     0
300
1:2
140
1.0
141
2.0
290
     0
  0
SCALE
  5
4A
102
{ACAD_REACTORS
330
47
102
}
330
47
100
AcDbScale
 70
     0
300
1:4
140
1.0
141
4.0
290
     0
  0
SCALE
  5
4B
102
{ACAD_REACTORS
330
47
102
}
330
47
100
AcDbScale
 70
     0
300
1:5
140
1.0
141
5.0
290
     0
  0
SCALE
  5
4C
102
{ACAD_REACTORS
330
47
102
}
330
47
100
AcDbScale
 70
     0
300
1:8
140
1.0
141
8.0
290
     0
  0
SCALE
  5
4D
102
{ACAD_REACTORS
330
47
102
}
330
47
100
AcDbScale
 70
     0
300
1:10
140
1.0
141
10.0
290
     0
  0
SCALE
  5
4E
102
{ACAD_REACTORS
330
47
102
}
330
47
100
AcDbScale
 70
     0
300
1:16
140
1.0
141
16.0
290
     0
  0
SCALE
  5
4F
102
{ACAD_REACTORS
330
47
102
}
330
47
100
AcDbScale
 70
     0
300
1:20
140
1.0
141
20.0
290
     0
  0
SCALE
  5
50
102
{ACAD_REACTORS
330
47
102
}
330
47
100
AcDbScale
 70
     0
300
1:30
140
1.0
141
30.0
290
     0
  0
SCALE
  5
51
102
{ACAD_REACTORS
330
47
102
}
330
47
100
AcDbScale
 70
     0
300
1:40
140
1.0
141
40.0
290
     0
  0
SCALE
  5
52
102
{ACAD_REACTORS
330
47
102
}
330
47
100
AcDbScale
 70
     0
300
1:50
140
1.0
141
50.0
290
     0
  0
SCALE
  5
53
102
{ACAD_REACTORS
330
47
102
}
330
47
100
AcDbScale
 70
     0
300
1:100
140
1.0
141
100.0
290
     0
  0
SCALE
  5
54
102
{ACAD_REACTORS
330
47
102
}
330
47
100
AcDbScale
 70
     0
300
2:1
140
2.0
141
1.0
290
     0
  0
SCALE
  5
55
102
{ACAD_REACTORS
330
47
102
}
330
47
100
AcDbScale
 70
     0
300
4:1
140
4.0
141
1.0
290
     0
  0
SCALE
  5
56
102
{ACAD_REACTORS
330
47
102
}
330
47
100
AcDbScale
 70
     0
300
8:1
140
8.0
141
1.0
290
     0
  0
SCALE
  5
57
102
{ACAD_REACTORS
330
47
102
}
330
47
100
AcDbScale
 70
     0
300
10:1
140
10.0
141
1.0
290
     0
  0
SCALE
  5
58
102
{ACAD_REACTORS
330
47
102
}
330
47
100
AcDbScale
 70
     0
300
100:1
140
100.0
141
1.0
290
     0
  0
SCALE
  5
59
102
{ACAD_REACTORS
330
47
102
}
330
47
100
AcDbScale
 70
     0
300
1/128" = 1'-0"
140
0.0078125
141
12.0
290
     0
  0
SCALE
  5
5A
102
{ACAD_REACTORS
330
47
102
}
330
47
100
AcDbScale
 70
     0
300
1/64" = 1'-0"
140
0.015625
141
12.0
290
     0
  0
SCALE
  5
5B
102
{ACAD_REACTORS
330
47
102
}
330
47
100
AcDbScale
 70
     0
300
1/32" = 1'-0"
140
0.03125
141
12.0
290
     0
  0
SCALE
  5
5C
102
{ACAD_REACTORS
330
47
102
}
330
47
100
AcDbScale
 70
     0
300
1/16" = 1'-0"
140
0.0625
141
12.0
290
     0
  0
SCALE
  5
5D
102
{ACAD_REACTORS
330
47
102
}
330
47
100
AcDbScale
 70
     0
300
3/32" = 1'-0"
140
0.09375
141
12.0
290
     0
  0
SCALE
  5
5E
102
{ACAD_REACTORS
330
47
102
}
330
47
100
AcDbScale
 70
     0
300
1/8" = 1'-0"
140
0.125
141
12.0
290
     0
  0
SCALE
  5
5F
102
{ACAD_REACTORS
330
47
102
}
330
47
100
AcDbScale
 70
     0
300
3/16" = 1'-0"
140
0.1875
141
12.0
290
     0
  0
SCALE
  5
60
102
{ACAD_REACTORS
330
47
102
}
330
47
100
AcDbScale
 70
     0
300
1/4" = 1'-0"
140
0.25
141
12.0
290
     0
  0
SCALE
  5
61
102
{ACAD_REACTORS
330
47
102
}
330
47
100
AcDbScale
 70
     0
300
3/8" = 1'-0"
140
0.375
141
12.0
290
     0
  0
SCALE
  5
62
102
{ACAD_REACTORS
330
47
102
}
330
47
100
AcDbScale
 70
     0
300
1/2" = 1'-0"
140
0.5
141
12.0
290
     0
  0
SCALE
  5
63
102
{ACAD_REACTORS
330
47
102
}
330
47
100
AcDbScale
 70
     0
300
3/4" = 1'-0"
140
0.75
141
12.0
290
     0
  0
SCALE
  5
64
102
{ACAD_REACTORS
330
47
102
}
330
47
100
AcDbScale
 70
     0
300
1" = 1'-0"
140
1.0
141
12.0
290
     0
  0
SCALE
  5
65
102
{ACAD_REACTORS
330
47
102
}
330
47
100
AcDbScale
 70
     0
300
1-1/2" = 1'-0"
140
1.5
141
12.0
290
     0
  0
SCALE
  5
66
102
{ACAD_REACTORS
330
47
102
}
330
47
100
AcDbScale
 70
     0
300
3" = 1'-0"
140
3.0
141
12.0
290
     0
  0
SCALE
  5
67
102
{ACAD_REACTORS
330
47
102
}
330
47
100
AcDbScale
 70
     0
300
6" = 1'-0"
140
6.0
141
12.0
290
     0
  0
SCALE
  5
68
102
{ACAD_REACTORS
330
47
102
}
330
47
100
AcDbScale
 70
     0
300
1'-0" = 1'-0"
140
12.0
141
12.0
290
     0
  0
ENDSEC
  0
EOF
