  0
SECTION
  2
HEADER
  9
$ACADVER
  1
AC1015
  9
$ACADMAINTVER
 70
     6
  9
$DWGCODEPAGE
  3
ANSI_949
  9
$INSBASE
 10
0.0
 20
0.0
 30
0.0
  9
$EXTMIN
 10
-43.37919963030967
 20
-39.99892507127611
 30
0.0
  9
$EXTMAX
 10
124.6017350925138
 20
40.20049028620473
 30
0.0
  9
$LIMMIN
 10
0.0
 20
0.0
  9
$LIMMAX
 10
420.0
 20
297.0
  9
$ORTHOMODE
 70
     0
  9
$REGENMODE
 70
     1
  9
$FILLMODE
 70
     1
  9
$QTEXTMODE
 70
     0
  9
$MIRRTEXT
 70
     1
  9
$LTSCALE
 40
1.0
  9
$ATTMODE
 70
     1
  9
$TEXTSIZE
 40
3.5
  9
$TRACEWID
 40
1.0
  9
$TEXTSTYLE
  7
Standard
  9
$CLAYER
  8
0
  9
$CELTYPE
  6
ByLayer
  9
$CECOLOR
 62
   256
  9
$CELTSCALE
 40
1.0
  9
$DISPSILH
 70
     0
  9
$DIMSCALE
 40
1.0
  9
$DIMASZ
 40
3.302
  9
$DIMEXO
 40
1.0
  9
$DIMDLI
 40
3.75
  9
$DIMRND
 40
0.0
  9
$DIMDLE
 40
0.0
  9
$DIMEXE
 40
1.0
  9
$DIMTP
 40
0.0
  9
$DIMTM
 40
0.0
  9
$DIMTXT
 40
3.5
  9
$DIMCEN
 40
2.5
  9
$DIMTSZ
 40
0.0
  9
$DIMTOL
 70
     0
  9
$DIMLIM
 70
     0
  9
$DIMTIH
 70
     1
  9
$DIMTOH
 70
     1
  9
$DIMSE1
 70
     0
  9
$DIMSE2
 70
     0
  9
$DIMTAD
 70
     1
  9
$DIMZIN
 70
     0
  9
$DIMBLK
  1

  9
$DIMASO
 70
     1
  9
$DIMSHO
 70
     1
  9
$DIMPOST
  1

  9
$DIMAPOST
  1

  9
$DIMALT
 70
     0
  9
$DIMALTD
 70
     3
  9
$DIMALTF
 40
0.0393700787401575
  9
$DIMLFAC
 40
1.0
  9
$DIMTOFL
 70
     1
  9
$DIMTVP
 40
0.0
  9
$DIMTIX
 70
     0
  9
$DIMSOXD
 70
     0
  9
$DIMSAH
 70
     0
  9
$DIMBLK1
  1

  9
$DIMBLK2
  1

  9
$DIMSTYLE
  2
ISO-25
  9
$DIMCLRD
 70
     0
  9
$DIMCLRE
 70
     0
  9
$DIMCLRT
 70
     0
  9
$DIMTFAC
 40
1.0
  9
$DIMGAP
 40
1.524
  9
$DIMJUST
 70
     0
  9
$DIMSD1
 70
     0
  9
$DIMSD2
 70
     0
  9
$DIMTOLJ
 70
     0
  9
$DIMTZIN
 70
     0
  9
$DIMALTZ
 70
     0
  9
$DIMALTTZ
 70
     0
  9
$DIMUPT
 70
     0
  9
$DIMDEC
 70
     2
  9
$DIMTDEC
 70
     2
  9
$DIMALTU
 70
     2
  9
$DIMALTTD
 70
     3
  9
$DIMTXSTY
  7
Standard
  9
$DIMAUNIT
 70
     0
  9
$DIMADEC
 70
     2
  9
$DIMALTRND
 40
0.0
  9
$DIMAZIN
 70
     0
  9
$DIMDSEP
 70
    44
  9
$DIMATFIT
 70
     3
  9
$DIMFRAC
 70
     0
  9
$DIMLDRBLK
  1

  9
$DIMLUNIT
 70
     2
  9
$DIMLWD
 70
    -2
  9
$DIMLWE
 70
    -2
  9
$DIMTMOVE
 70
     0
  9
$LUNITS
 70
     2
  9
$LUPREC
 70
     2
  9
$SKETCHINC
 40
1.0
  9
$FILLETRAD
 40
10.0
  9
$AUNITS
 70
     0
  9
$AUPREC
 70
     2
  9
$MENU
  1
.
  9
$ELEVATION
 40
0.0
  9
$PELEVATION
 40
0.0
  9
$THICKNESS
 40
0.0
  9
$LIMCHECK
 70
     0
  9
$CHAMFERA
 40
0.0
  9
$CHAMFERB
 40
0.0
  9
$CHAMFERC
 40
0.0
  9
$CHAMFERD
 40
0.0
  9
$SKPOLY
 70
     0
  9
$TDCREATE
 40
2458319.55600772
  9
$TDUCREATE
 40
2458319.18100772
  9
$TDUPDATE
 40
2459720.390221007
  9
$TDUUPDATE
 40
2459720.015221007
  9
$TDINDWG
 40
0.0045540162
  9
$TDUSRTIMER
 40
0.0004193981
  9
$USRTIMER
 70
     1
  9
$ANGBASE
 50
0.0
  9
$ANGDIR
 70
     0
  9
$PDMODE
 70
     0
  9
$PDSIZE
 40
-1.0
  9
$PLINEWID
 40
0.0
  9
$SPLFRAME
 70
     0
  9
$SPLINETYPE
 70
     6
  9
$SPLINESEGS
 70
     8
  9
$HANDSEED
  5
462
  9
$SURFTAB1
 70
     6
  9
$SURFTAB2
 70
     6
  9
$SURFTYPE
 70
     6
  9
$SURFU
 70
     6
  9
$SURFV
 70
     6
  9
$UCSBASE
  2

  9
$UCSNAME
  2

  9
$UCSORG
 10
0.0
 20
0.0
 30
0.0
  9
$UCSXDIR
 10
1.0
 20
0.0
 30
0.0
  9
$UCSYDIR
 10
0.0
 20
1.0
 30
0.0
  9
$UCSORTHOREF
  2

  9
$UCSORTHOVIEW
 70
     0
  9
$UCSORGTOP
 10
0.0
 20
0.0
 30
0.0
  9
$UCSORGBOTTOM
 10
0.0
 20
0.0
 30
0.0
  9
$UCSORGLEFT
 10
0.0
 20
0.0
 30
0.0
  9
$UCSORGRIGHT
 10
0.0
 20
0.0
 30
0.0
  9
$UCSORGFRONT
 10
0.0
 20
0.0
 30
0.0
  9
$UCSORGBACK
 10
0.0
 20
0.0
 30
0.0
  9
$PUCSBASE
  2

  9
$PUCSNAME
  2

  9
$PUCSORG
 10
0.0
 20
0.0
 30
0.0
  9
$PUCSXDIR
 10
1.0
 20
0.0
 30
0.0
  9
$PUCSYDIR
 10
0.0
 20
1.0
 30
0.0
  9
$PUCSORTHOREF
  2

  9
$PUCSORTHOVIEW
 70
     0
  9
$PUCSORGTOP
 10
0.0
 20
0.0
 30
0.0
  9
$PUCSORGBOTTOM
 10
0.0
 20
0.0
 30
0.0
  9
$PUCSORGLEFT
 10
0.0
 20
0.0
 30
0.0
  9
$PUCSORGRIGHT
 10
0.0
 20
0.0
 30
0.0
  9
$PUCSORGFRONT
 10
0.0
 20
0.0
 30
0.0
  9
$PUCSORGBACK
 10
0.0
 20
0.0
 30
0.0
  9
$USERI1
 70
     0
  9
$USERI2
 70
     0
  9
$USERI3
 70
     0
  9
$USERI4
 70
     0
  9
$USERI5
 70
     0
  9
$USERR1
 40
0.0
  9
$USERR2
 40
0.0
  9
$USERR3
 40
0.0
  9
$USERR4
 40
0.0
  9
$USERR5
 40
0.0
  9
$WORLDVIEW
 70
     1
  9
$SHADEDGE
 70
     3
  9
$SHADEDIF
 70
    70
  9
$TILEMODE
 70
     1
  9
$MAXACTVP
 70
    64
  9
$PINSBASE
 10
0.0
 20
0.0
 30
0.0
  9
$PLIMCHECK
 70
     0
  9
$PEXTMIN
 10
1.000000000000000E+20
 20
1.000000000000000E+20
 30
1.000000000000000E+20
  9
$PEXTMAX
 10
-1.000000000000000E+20
 20
-1.000000000000000E+20
 30
-1.000000000000000E+20
  9
$PLIMMIN
 10
0.0
 20
0.0
  9
$PLIMMAX
 10
0.0
 20
0.0
  9
$UNITMODE
 70
     0
  9
$VISRETAIN
 70
     1
  9
$PLINEGEN
 70
     0
  9
$PSLTSCALE
 70
     1
  9
$TREEDEPTH
 70
  3020
  9
$CMLSTYLE
  2
Standard
  9
$CMLJUST
 70
     0
  9
$CMLSCALE
 40
20.0
  9
$PROXYGRAPHICS
 70
     1
  9
$MEASUREMENT
 70
     1
  9
$CELWEIGHT
370
    -1
  9
$ENDCAPS
280
     0
  9
$JOINSTYLE
280
     0
  9
$LWDISPLAY
290
     1
  9
$INSUNITS
 70
     4
  9
$HYPERLINKBASE
  1

  9
$STYLESHEET
  1

  9
$XEDIT
290
     1
  9
$CEPSNTYPE
380
     0
  9
$PSTYLEMODE
290
     1
  9
$FINGERPRINTGUID
  2
{2CF39F66-E0EA-41C0-AF27-2D22ABEECA5C}
  9
$VERSIONGUID
  2
{FAEB1C32-E019-11D5-929B-00C0DF256EC4}
  9
$EXTNAMES
290
     1
  9
$PSVPSCALE
 40
0.0
  9
$OLESTARTUP
290
     0
  0
ENDSEC
  0
SECTION
  2
CLASSES
  0
CLASS
  1
ACDBDICTIONARYWDFLT
  2
AcDbDictionaryWithDefault
  3
ObjectDBX Classes
 90
        0
280
     0
281
     0
  0
CLASS
  1
VISUALSTYLE
  2
AcDbVisualStyle
  3
ObjectDBX Classes
 90
     4095
280
     0
281
     0
  0
CLASS
  1
MATERIAL
  2
AcDbMaterial
  3
ObjectDBX Classes
 90
     1153
280
     0
281
     0
  0
CLASS
  1
SCALE
  2
AcDbScale
  3
ObjectDBX Classes
 90
     1153
280
     0
281
     0
  0
CLASS
  1
SUN
  2
AcDbSun
  3
SCENEOE
 90
     1153
280
     0
281
     0
  0
CLASS
  1
ACDBPLACEHOLDER
  2
AcDbPlaceHolder
  3
ObjectDBX Classes
 90
        0
280
     0
281
     0
  0
CLASS
  1
LAYOUT
  2
AcDbLayout
  3
ObjectDBX Classes
 90
        0
280
     0
281
     0
  0
CLASS
  1
TABLESTYLE
  2
AcDbTableStyle
  3
ObjectDBX Classes
 90
     4095
280
     0
281
     0
  0
CLASS
  1
MLEADERSTYLE
  2
AcDbMLeaderStyle
  3
ACDB_MLEADERSTYLE_CLASS
 90
     4095
280
     0
281
     0
  0
CLASS
  1
RASTERVARIABLES
  2
AcDbRasterVariables
  3
ISM
 90
        0
280
     0
281
     0
  0
CLASS
  1
DIMASSOC
  2
AcDbDimAssoc
  3
"AcDbDimAssoc|Product Desc:     AcDim ARX App For Dimension|Company:          Autodesk, Inc.|WEB Address:      www.autodesk.com"
 90
        0
280
     0
281
     0
  0
ENDSEC
  0
SECTION
  2
TABLES
  0
TABLE
  2
VPORT
  5
8
330
0
100
AcDbSymbolTable
 70
     1
  0
VPORT
  5
29
330
8
100
AcDbSymbolTableRecord
100
AcDbViewportTableRecord
  2
*Active
 70
     0
 10
0.0
 20
0.0
 11
1.0
 21
1.0
 12
10.45468082967301
 22
3.095798273999577
 13
0.0
 23
0.0
 14
10.0
 24
10.0
 15
10.0
 25
10.0
 16
0.0
 26
0.0
 36
1.0
 17
0.0
 27
0.0
 37
0.0
 40
103.5895419452046
 41
1.519944979367263
 42
50.0
 43
0.0
 44
0.0
 50
0.0
 51
0.0
 71
    16
 72
  2000
 73
     1
 74
     3
 75
     0
 76
     0
 77
     0
 78
     0
281
     0
 65
     1
110
0.0
120
0.0
130
0.0
111
1.0
121
0.0
131
0.0
112
0.0
122
1.0
132
0.0
 79
     0
146
0.0
  0
ENDTAB
  0
TABLE
  2
LTYPE
  5
5
330
0
100
AcDbSymbolTable
 70
     6
  0
LTYPE
  5
14
330
5
100
AcDbSymbolTableRecord
100
AcDbLinetypeTableRecord
  2
ByBlock
 70
     0
  3

 72
    65
 73
     0
 40
0.0
  0
LTYPE
  5
15
330
5
100
AcDbSymbolTableRecord
100
AcDbLinetypeTableRecord
  2
ByLayer
 70
     0
  3

 72
    65
 73
     0
 40
0.0
  0
LTYPE
  5
16
330
5
100
AcDbSymbolTableRecord
100
AcDbLinetypeTableRecord
  2
Continuous
 70
     0
  3
Solid line
 72
    65
 73
     0
 40
0.0
  0
LTYPE
  5
6A
330
5
100
AcDbSymbolTableRecord
100
AcDbLinetypeTableRecord
  2
HIDDEN
 70
     0
  3
Hidden __ __ __ __ __ __ __ __ __ __ __ __ __ __
 72
    65
 73
     2
 40
1.905
 49
1.27
 74
     0
 49
-0.635
 74
     0
  0
LTYPE
  5
6B
330
5
100
AcDbSymbolTableRecord
100
AcDbLinetypeTableRecord
  2
PHANTOM
 70
     0
  3
Phantom ______  __  __  ______  __  __  ______
 72
    65
 73
     6
 40
12.7
 49
6.35
 74
     0
 49
-1.27
 74
     0
 49
1.27
 74
     0
 49
-1.27
 74
     0
 49
1.27
 74
     0
 49
-1.27
 74
     0
  0
LTYPE
  5
6C
330
5
100
AcDbSymbolTableRecord
100
AcDbLinetypeTableRecord
  2
CENTER
 70
     0
  3
Center ____ _ ____ _ ____ _ ____ _ ____ _ ____
 72
    65
 73
     4
 40
10.16
 49
6.35
 74
     0
 49
-1.27
 74
     0
 49
1.27
 74
     0
 49
-1.27
 74
     0
  0
LTYPE
  5
6D
330
5
100
AcDbSymbolTableRecord
100
AcDbLinetypeTableRecord
  2
CENTERX2
 70
     0
  3
Center (2x) ________  __  ________  __  _____
 72
    65
 73
     4
 40
20.32
 49
12.7
 74
     0
 49
-2.54
 74
     0
 49
2.54
 74
     0
 49
-2.54
 74
     0
  0
LTYPE
  5
6E
330
5
100
AcDbSymbolTableRecord
100
AcDbLinetypeTableRecord
  2
DOT2
 70
     0
  3
Dot (.5x) ........................................
 72
    65
 73
     2
 40
0.635
 49
0.0
 74
     0
 49
-0.635
 74
     0
  0
ENDTAB
  0
TABLE
  2
LAYER
  5
2
102
{ACAD_XDICTIONARY
360
30C
102
}
330
0
100
AcDbSymbolTable
 70
    18
  0
LAYER
  5
10
330
2
100
AcDbSymbolTableRecord
100
AcDbLayerTableRecord
  2
0
 70
     0
 62
     7
  6
Continuous
370
    -3
390
F
  0
LAYER
  5
6F
330
2
100
AcDbSymbolTableRecord
100
AcDbLayerTableRecord
  2
FORMAT
 70
     0
 62
     2
  6
Continuous
370
    -3
390
F
  0
LAYER
  5
70
330
2
100
AcDbSymbolTableRecord
100
AcDbLayerTableRecord
  2
외형선
 70
     0
 62
     4
  6
Continuous
370
    30
390
F
  0
LAYER
  5
71
330
2
100
AcDbSymbolTableRecord
100
AcDbLayerTableRecord
  2
숨은선
 70
     0
 62
     2
  6
HIDDEN
370
    15
390
F
  0
LAYER
  5
72
330
2
100
AcDbSymbolTableRecord
100
AcDbLayerTableRecord
  2
중심선
 70
     0
 62
     1
  6
CENTERX2
370
    -3
390
F
  0
LAYER
  5
73
330
2
100
AcDbSymbolTableRecord
100
AcDbLayerTableRecord
  2
파단선
 70
     0
 62
     4
  6
Continuous
370
    -3
390
F
  0
LAYER
  5
74
330
2
100
AcDbSymbolTableRecord
100
AcDbLayerTableRecord
  2
해칭선
 70
     0
 62
   100
  6
Continuous
370
    -3
390
F
  0
LAYER
  5
75
330
2
100
AcDbSymbolTableRecord
100
AcDbLayerTableRecord
  2
가는실선
 70
     0
 62
     4
  6
Continuous
370
    -3
390
F
  0
LAYER
  5
76
330
2
100
AcDbSymbolTableRecord
100
AcDbLayerTableRecord
  2
치수_보조선
 70
     0
 62
     4
  6
Continuous
370
    -3
390
F
  0
LAYER
  5
77
330
2
100
AcDbSymbolTableRecord
100
AcDbLayerTableRecord
  2
치수문자_일반주서
 70
     0
 62
     7
  6
Continuous
370
    15
390
F
  0
LAYER
  5
78
330
2
100
AcDbSymbolTableRecord
100
AcDbLayerTableRecord
  2
개별주서
 70
     0
 62
   100
  6
Continuous
370
    30
390
F
  0
LAYER
  5
79
330
2
100
AcDbSymbolTableRecord
100
AcDbLayerTableRecord
  2
중간선
 70
     0
 62
     2
  6
Continuous
370
    15
390
F
  0
LAYER
  5
7A
330
2
100
AcDbSymbolTableRecord
100
AcDbLayerTableRecord
  2
윤곽선
 70
     0
 62
     3
  6
Continuous
370
    40
390
F
  0
LAYER
  5
7B
330
2
100
AcDbSymbolTableRecord
100
AcDbLayerTableRecord
  2
중심마크
 70
     0
 62
   100
  6
Continuous
370
    30
390
F
  0
LAYER
  5
7C
330
2
100
AcDbSymbolTableRecord
100
AcDbLayerTableRecord
  2
가상선
 70
     0
 62
     4
  6
PHANTOM
370
    -3
390
F
  0
LAYER
  5
7D
330
2
100
AcDbSymbolTableRecord
100
AcDbLayerTableRecord
  2
특수지정선
 70
     0
 62
     5
  6
CENTERX2
370
    60
390
F
  0
LAYER
  5
7E
330
2
100
AcDbSymbolTableRecord
100
AcDbLayerTableRecord
  2
참조1
 70
     0
 62
    -4
  6
Continuous
370
    -3
390
F
  0
LAYER
  5
253
330
2
100
AcDbSymbolTableRecord
100
AcDbLayerTableRecord
  2
Defpoints
 70
     0
 62
     7
  6
Continuous
290
     0
370
    -3
390
F
  0
ENDTAB
  0
TABLE
  2
STYLE
  5
3
330
0
100
AcDbSymbolTable
 70
     2
  0
STYLE
  5
11
330
3
100
AcDbSymbolTableRecord
100
AcDbTextStyleTableRecord
  2
Standard
 70
     0
 40
0.0
 41
1.0
 50
0.0
 71
     0
 42
3.5
  3
txt
  4

  0
STYLE
  5
94
330
3
100
AcDbSymbolTableRecord
100
AcDbTextStyleTableRecord
  2
SLDTEXTSTYLE0
 70
     0
 40
0.0
 41
0.75
 50
0.0
 71
     0
 42
3.5
  3
TXT
  4

  0
ENDTAB
  0
TABLE
  2
VIEW
  5
6
330
0
100
AcDbSymbolTable
 70
     0
  0
ENDTAB
  0
TABLE
  2
UCS
  5
7
330
0
100
AcDbSymbolTable
 70
     0
  0
ENDTAB
  0
TABLE
  2
APPID
  5
9
330
0
100
AcDbSymbolTable
 70
     3
  0
APPID
  5
12
330
9
100
AcDbSymbolTableRecord
100
AcDbRegAppTableRecord
  2
ACAD
 70
     0
  0
APPID
  5
260
330
9
100
AcDbSymbolTableRecord
100
AcDbRegAppTableRecord
  2
PE_URL
 70
     0
  0
APPID
  5
261
330
9
100
AcDbSymbolTableRecord
100
AcDbRegAppTableRecord
  2
ACAD_DSTYLE_DIMRADIAL_EXTENSION
 70
     0
  0
ENDTAB
  0
TABLE
  2
DIMSTYLE
  5
A
330
0
100
AcDbSymbolTable
 70
     4
100
AcDbDimStyleTable
  0
DIMSTYLE
105
27
330
A
100
AcDbSymbolTableRecord
100
AcDbDimStyleTableRecord
  2
ISO-25
 70
     0
 41
2.5
 42
0.625
 43
3.75
 44
1.25
 73
     0
 74
     0
 77
     1
 78
     8
140
2.5
141
2.5
143
0.03937007874016
147
0.625
171
     3
172
     1
178
     0
271
     2
272
     2
274
     3
278
    44
283
     0
284
     8
340
11
  0
DIMSTYLE
105
1CF
102
{ACAD_REACTORS
330
1CE
330
20D
330
1E3
330
1F9
330
3CC
102
}
330
A
100
AcDbSymbolTableRecord
100
AcDbDimStyleTableRecord
  2
SLDDIMSTYLE0
 70
     0
 41
3.302
 44
0.0
 45
0.000000001
 73
     0
 74
     0
 77
     1
 78
    12
 79
     3
140
3.5
143
0.0393700787401575
147
0.875
148
0.000000001
170
     1
172
     1
173
     1
178
     0
271
     2
272
     2
276
     2
284
    12
289
     0
340
94
  0
DIMSTYLE
105
1E4
330
A
100
AcDbSymbolTableRecord
100
AcDbDimStyleTableRecord
  2
SLDDIMSTYLE1
 70
     0
 41
3.302
 44
0.0
 45
0.000000001
 73
     0
 74
     0
 77
     1
 78
     4
 79
     1
140
3.5
143
0.0393700787401575
147
0.875
148
0.000000001
170
     1
172
     1
173
     1
178
     0
271
     2
272
     2
276
     2
284
    12
289
     0
340
94
  0
DIMSTYLE
105
1FA
330
A
100
AcDbSymbolTableRecord
100
AcDbDimStyleTableRecord
  2
SLDDIMSTYLE2
 70
     0
 41
3.302
 44
0.0
 45
0.000000001
 73
     0
 74
     0
 77
     1
 78
     4
 79
     1
140
3.5
143
0.0393700787401575
147
0.875
148
0.000000001
170
     1
173
     1
178
     0
271
     2
272
     2
276
     2
284
    12
340
94
  0
ENDTAB
  0
TABLE
  2
BLOCK_RECORD
  5
1
330
0
100
AcDbSymbolTable
 70
    18
  0
BLOCK_RECORD
  5
1F
102
{ACAD_XDICTIONARY
360
45F
102
}
330
1
100
AcDbSymbolTableRecord
100
AcDbBlockTableRecord
  2
*Model_Space
340
22
  0
BLOCK_RECORD
  5
1B
330
1
100
AcDbSymbolTableRecord
100
AcDbBlockTableRecord
  2
*Paper_Space
340
1E
  0
BLOCK_RECORD
  5
23
330
1
100
AcDbSymbolTableRecord
100
AcDbBlockTableRecord
  2
*Paper_Space0
340
26
  0
BLOCK_RECORD
  5
7F
330
1
100
AcDbSymbolTableRecord
100
AcDbBlockTableRecord
  2
블럭10
340
0
102
{BLKREFS
331
1C7
102
}
  0
BLOCK_RECORD
  5
1D0
330
1
100
AcDbSymbolTableRecord
100
AcDbBlockTableRecord
  2
_D
340
0
  0
BLOCK_RECORD
  5
1E5
330
1
100
AcDbSymbolTableRecord
100
AcDbBlockTableRecord
  2
_D_1
340
0
  0
BLOCK_RECORD
  5
1FB
330
1
100
AcDbSymbolTableRecord
100
AcDbBlockTableRecord
  2
_D_2
340
0
  0
BLOCK_RECORD
  5
20E
330
1
100
AcDbSymbolTableRecord
100
AcDbBlockTableRecord
  2
_D_3
340
0
  0
BLOCK_RECORD
  5
228
330
1
100
AcDbSymbolTableRecord
100
AcDbBlockTableRecord
  2
SW_DOWELSYMBOL_0
340
0
102
{BLKREFS
331
22E
102
}
  0
BLOCK_RECORD
  5
2EA
330
1
100
AcDbSymbolTableRecord
100
AcDbBlockTableRecord
  2
_D_4
340
0
  0
BLOCK_RECORD
  5
304
330
1
100
AcDbSymbolTableRecord
100
AcDbBlockTableRecord
  2
*D8
340
0
  0
BLOCK_RECORD
  5
310
330
1
100
AcDbSymbolTableRecord
100
AcDbBlockTableRecord
  2
*D9
340
0
  0
BLOCK_RECORD
  5
31C
330
1
100
AcDbSymbolTableRecord
100
AcDbBlockTableRecord
  2
*D10
340
0
  0
BLOCK_RECORD
  5
328
330
1
100
AcDbSymbolTableRecord
100
AcDbBlockTableRecord
  2
*D11
340
0
  0
BLOCK_RECORD
  5
382
330
1
100
AcDbSymbolTableRecord
100
AcDbBlockTableRecord
  2
*D12
340
0
  0
BLOCK_RECORD
  5
38E
330
1
100
AcDbSymbolTableRecord
100
AcDbBlockTableRecord
  2
*D13
340
0
  0
BLOCK_RECORD
  5
39A
330
1
100
AcDbSymbolTableRecord
100
AcDbBlockTableRecord
  2
*D14
340
0
  0
BLOCK_RECORD
  5
3A8
330
1
100
AcDbSymbolTableRecord
100
AcDbBlockTableRecord
  2
*D15
340
0
  0
BLOCK_RECORD
  5
3B6
330
1
100
AcDbSymbolTableRecord
100
AcDbBlockTableRecord
  2
*D16
340
0
  0
BLOCK_RECORD
  5
3CF
330
1
100
AcDbSymbolTableRecord
100
AcDbBlockTableRecord
  2
*D17
340
0
  0
ENDTAB
  0
ENDSEC
  0
SECTION
  2
BLOCKS
  0
BLOCK
  5
20
330
1F
100
AcDbEntity
  8
0
100
AcDbBlockBegin
  2
*Model_Space
 70
     0
 10
0.0
 20
0.0
 30
0.0
  3
*Model_Space
  1
*Model_Space
  0
ENDBLK
  5
21
330
1F
100
AcDbEntity
  8
0
100
AcDbBlockEnd
  0
BLOCK
  5
1C
330
1B
100
AcDbEntity
 67
     1
  8
0
100
AcDbBlockBegin
  2
*Paper_Space
 70
     0
 10
0.0
 20
0.0
 30
0.0
  3
*Paper_Space
  1
*Paper_Space
  0
ENDBLK
  5
1D
330
1B
100
AcDbEntity
 67
     1
  8
0
100
AcDbBlockEnd
  0
BLOCK
  5
24
330
23
100
AcDbEntity
  8
0
100
AcDbBlockBegin
  2
*Paper_Space0
 70
     0
 10
0.0
 20
0.0
 30
0.0
  3
*Paper_Space0
  1
*Paper_Space0
  0
ENDBLK
  5
25
330
23
100
AcDbEntity
  8
0
100
AcDbBlockEnd
  0
BLOCK
  5
80
330
7F
100
AcDbEntity
  8
0
100
AcDbBlockBegin
  2
블럭10
 70
     2
 10
0.0
 20
0.0
 30
0.0
  3
블럭10
  1
블럭10
  0
ELLIPSE
  5
82
330
7F
100
AcDbEntity
  8
중심선
100
AcDbEllipse
 10
20.54032771741204
 20
12.0471743016438
 30
0.0
 11
6.600054785286829
 21
-1.261213355974178E-13
 31
0.0
210
0.0
220
0.0
230
1.0
 40
0.636358354079598
 41
0.9219305317359503
 42
6.513795318482858
  0
ELLIPSE
  5
83
330
7F
100
AcDbEntity
  8
중심선
100
AcDbEllipse
 10
20.54032771746488
 20
12.04717430159265
 30
0.0
 11
3.960054785062283
 21
1.540847449632565E-10
 31
0.0
210
0.0
220
0.0
230
1.0
 40
0.3939339440162632
 41
1.131841032648279
 42
5.62031148352944
  0
LINE
  5
84
330
7F
100
AcDbEntity
  8
중심선
100
AcDbLine
 10
2.268634060543552
 20
16.24717430164393
 30
0.0
 11
5.714909304380834
 21
16.24717430164393
 31
0.0
  0
LINE
  5
85
330
7F
100
AcDbEntity
  8
중심선
100
AcDbLine
 10
5.245725140726316
 20
7.84717430164391
 30
0.0
 11
8.692000384563599
 21
7.84717430164391
 31
0.0
  0
LINE
  5
86
330
7F
100
AcDbEntity
  8
중심선
100
AcDbLine
 10
15.74043728645272
 20
16.24717430164393
 30
0.0
 11
8.692000384563599
 21
7.84717430164391
 31
0.0
  0
LINE
  5
87
330
7F
100
AcDbEntity
  8
중심선
100
AcDbLine
 10
0.1404042013395286
 20
13.71084872107135
 30
0.0
 11
3.58671253028996
 21
13.71088815037384
 31
0.0
  0
LINE
  5
88
330
7F
100
AcDbEntity
  8
중심선
100
AcDbLine
 10
2.750260043222114
 20
10.84717430164391
 30
0.0
 11
6.196535287059397
 21
10.84717430164391
 31
0.0
  0
LINE
  5
89
330
7F
100
AcDbEntity
  8
중심선
100
AcDbLine
 10
12.29416204261559
 20
16.24717430164393
 30
0.0
 11
5.245725140726316
 21
7.84717430164391
 31
0.0
  0
LINE
  5
8A
330
7F
100
AcDbEntity
  8
중심선
100
AcDbLine
 10
10.72767329541681
 20
16.24717430164393
 30
0.0
 11
6.196535287059397
 21
10.84717430164391
 31
0.0
  0
LINE
  5
8B
330
7F
100
AcDbEntity
  8
중심선
100
AcDbLine
 10
7.28139805157953
 20
16.24717430164393
 30
0.0
 11
2.750260043222114
 21
10.84717430164391
 31
0.0
  0
LINE
  5
8C
330
7F
100
AcDbEntity
  8
중심선
100
AcDbLine
 10
5.714909304380834
 20
16.24717430164393
 30
0.0
 11
3.58671253028996
 21
13.71088815037384
 31
0.0
  0
LINE
  5
8D
330
7F
100
AcDbEntity
  8
중심선
100
AcDbLine
 10
2.268634060543552
 20
16.24717430164393
 30
0.0
 11
0.1404042013395286
 21
13.71084872107135
 31
0.0
  0
LINE
  5
8E
330
7F
100
AcDbEntity
  8
중심선
100
AcDbLine
 10
7.28139805157953
 20
16.24717430164393
 30
0.0
 11
10.72767329541681
 21
16.24717430164393
 31
0.0
  0
LINE
  5
8F
330
7F
100
AcDbEntity
  8
중심선
100
AcDbLine
 10
12.29416204261559
 20
16.24717430164393
 30
0.0
 11
15.74043728645272
 21
16.24717430164393
 31
0.0
  0
LINE
  5
90
330
7F
100
AcDbEntity
  8
중심선
100
AcDbLine
 10
19.22036997980202
 20
11.08717430171403
 30
0.0
 11
23.66174974927406
 21
11.08717430171406
 31
0.0
  0
LINE
  5
91
330
7F
100
AcDbEntity
  8
중심선
100
AcDbLine
 10
19.22039502424796
 20
13.00717430171391
 30
0.0
 11
19.22036997980202
 21
11.08717430171403
 31
0.0
  0
LINE
  5
92
330
7F
100
AcDbEntity
  8
중심선
100
AcDbLine
 10
19.22039502424796
 20
13.00717430171391
 30
0.0
 11
26.96566020931264
 21
13.00717430171391
 31
0.0
  0
LINE
  5
93
330
7F
100
AcDbEntity
  8
중심선
100
AcDbLine
 10
22.22332737316547
 20
13.45928029700563
 30
0.0
 11
24.52862924686651
 21
15.39360700705356
 31
0.0
  0
ATTDEF
  5
95
330
7F
100
AcDbEntity
  8
FORMAT
 62
     2
100
AcDbText
 10
-9.18129528874128
 20
2.075366912832191
 30
0.0
 40
4.233333333333333
  1
E5056024 [ 5 FLUTE ]
 41
0.75
  7
SLDTEXTSTYLE0
 11
-9.18129528874128
 21
-0.0412997538344756
 31
0.0
100
AcDbAttributeDefinition
  3

  2
AUTOATTR0
 70
     0
 74
     1
  0
ENDBLK
  5
81
330
7F
100
AcDbEntity
  8
0
100
AcDbBlockEnd
  0
BLOCK
  5
1D1
330
1D0
100
AcDbEntity
  8
0
100
AcDbBlockBegin
  2
_D
 70
     0
 10
0.0
 20
0.0
 30
0.0
  3
_D
  1
_D
  0
LINE
  5
1D3
330
1D0
100
AcDbEntity
  8
치수문자_일반주서
 62
     0
370
    -2
100
AcDbLine
 10
-27.16250000000002
 20
4.762500000000006
 30
0.0
 11
-39.00419963030955
 21
4.76249999999996
 31
0.0
  0
LINE
  5
1D4
330
1D0
100
AcDbEntity
  8
치수문자_일반주서
 62
     0
370
    -2
100
AcDbLine
 10
-27.16250000000002
 20
-4.762499999999999
 30
0.0
 11
-39.00419963030951
 21
-4.762500000000045
 31
0.0
  0
LINE
  5
1D5
330
1D0
100
AcDbEntity
  8
치수문자_일반주서
 62
     0
370
    -2
100
AcDbLine
 10
-39.00419963030955
 20
4.76249999999996
 30
0.0
 11
-39.00419963030968
 21
38.05399999999996
 31
0.0
  0
LINE
  5
1D6
330
1D0
100
AcDbEntity
  8
치수문자_일반주서
 62
     0
370
    -2
100
AcDbLine
 10
-39.00419963030955
 20
4.76249999999996
 30
0.0
 11
-39.00419963030951
 21
-4.762500000000045
 31
0.0
  0
LINE
  5
1D7
330
1D0
100
AcDbEntity
  8
치수문자_일반주서
 62
     0
370
    -2
100
AcDbLine
 10
-39.00419963030956
 20
8.06449999999996
 30
0.0
 11
-39.00419963030958
 21
11.36649999999996
 31
0.0
  0
LINE
  5
1D8
330
1D0
100
AcDbEntity
  8
치수문자_일반주서
 62
     0
370
    -2
100
AcDbLine
 10
-39.0041996303095
 20
-8.064500000000045
 30
0.0
 11
-39.00419963030949
 21
-11.36650000000004
 31
0.0
  0
SOLID
  5
1D9
330
1D0
100
AcDbEntity
  8
치수문자_일반주서
 62
     0
100
AcDbTrace
 10
-39.5545329636429
 20
8.064499999999958
 30
0.0
 11
-38.45386629697623
 21
8.064499999999962
 31
0.0
 12
-39.00419963030955
 22
4.76249999999996
 32
0.0
 13
-39.00419963030955
 23
4.76249999999996
 33
0.0
  0
SOLID
  5
1DA
330
1D0
100
AcDbEntity
  8
치수문자_일반주서
 62
     0
100
AcDbTrace
 10
-38.45386629697617
 20
-8.064500000000043
 30
0.0
 11
-39.55453296364283
 21
-8.064500000000047
 31
0.0
 12
-39.00419963030951
 22
-4.762500000000045
 32
0.0
 13
-39.00419963030951
 23
-4.762500000000045
 33
0.0
  0
MTEXT
  5
1DB
330
1D0
100
AcDbEntity
  8
치수문자_일반주서
 62
     0
100
AcDbMText
 10
-43.37919963030963
 20
24.92899999999994
 30
0.0
 40
3.5
 41
0.0
 71
     2
 72
     1
  1
\A1;%%c9.53 [3/8]
  7
SLDTEXTSTYLE0
 11
-3.729883127349605E-15
 21
1.0
 31
0.0
 73
     1
 44
1.0
  0
POINT
  5
3C2
330
1D0
100
AcDbEntity
  8
Defpoints
 62
     0
100
AcDbPoint
 10
-27.10000000000002
 20
4.762500000000006
 30
0.0
  0
POINT
  5
3C3
330
1D0
100
AcDbEntity
  8
Defpoints
 62
     0
100
AcDbPoint
 10
-27.10000000000002
 20
-4.762499999999999
 30
0.0
  0
POINT
  5
3C4
330
1D0
100
AcDbEntity
  8
Defpoints
 62
     0
100
AcDbPoint
 10
-39.00419963030951
 20
-4.762500000000044
 30
0.0
  0
ENDBLK
  5
1D2
330
1D0
100
AcDbEntity
  8
0
100
AcDbBlockEnd
  0
BLOCK
  5
1E6
330
1E5
100
AcDbEntity
  8
0
100
AcDbBlockBegin
  2
_D_1
 70
     0
 10
0.0
 20
0.0
 30
0.0
  3
_D_1
  1
_D_1
  0
LINE
  5
1E8
330
1E5
100
AcDbEntity
  8
치수문자_일반주서
 62
     0
370
    -2
100
AcDbLine
 10
22.7
 20
4.825000000000001
 30
0.0
 11
22.7
 21
20.65204915178752
 31
0.0
  0
LINE
  5
1E9
330
1E5
100
AcDbEntity
  8
치수문자_일반주서
 62
     0
370
    -2
100
AcDbLine
 10
9.999999999999996
 20
-2.507705154628674
 30
0.0
 11
9.999999999999996
 21
20.65204915178752
 31
0.0
  0
LINE
  5
1EA
330
1E5
100
AcDbEntity
  8
치수문자_일반주서
 62
     0
370
    -2
100
AcDbLine
 10
19.398
 20
20.65204915178752
 30
0.0
 11
13.302
 21
20.65204915178752
 31
0.0
  0
SOLID
  5
1EB
330
1E5
100
AcDbEntity
  8
치수문자_일반주서
 62
     0
100
AcDbTrace
 10
19.398
 20
20.10171581845418
 30
0.0
 11
19.398
 21
21.20238248512085
 31
0.0
 12
22.7
 22
20.65204915178752
 32
0.0
 13
22.7
 23
20.65204915178752
 33
0.0
  0
SOLID
  5
1EC
330
1E5
100
AcDbEntity
  8
치수문자_일반주서
 62
     0
100
AcDbTrace
 10
13.302
 20
21.20238248512085
 30
0.0
 11
13.302
 21
20.10171581845418
 31
0.0
 12
9.999999999999996
 22
20.65204915178752
 32
0.0
 13
9.999999999999996
 23
20.65204915178752
 33
0.0
  0
MTEXT
  5
1ED
330
1E5
100
AcDbEntity
  8
치수문자_일반주서
 62
     0
100
AcDbMText
 10
16.39133980258433
 20
25.02704915178752
 30
0.0
 40
3.5
 41
0.0
 71
     2
 72
     1
  1
\A1;12.7 [1/2]
  7
SLDTEXTSTYLE0
 73
     1
 44
1.0
  0
POINT
  5
1EE
330
1E5
100
AcDbEntity
  8
Defpoints
 62
     0
100
AcDbPoint
 10
22.7
 20
4.762500000000001
 30
0.0
  0
POINT
  5
1EF
330
1E5
100
AcDbEntity
  8
Defpoints
 62
     0
100
AcDbPoint
 10
9.999999999999996
 20
-2.570205154628674
 30
0.0
  0
POINT
  5
1F0
330
1E5
100
AcDbEntity
  8
Defpoints
 62
     0
100
AcDbPoint
 10
9.999999999999996
 20
20.65204915178752
 30
0.0
  0
ENDBLK
  5
1E7
330
1E5
100
AcDbEntity
  8
0
100
AcDbBlockEnd
  0
BLOCK
  5
1FC
330
1FB
100
AcDbEntity
  8
0
100
AcDbBlockBegin
  2
_D_2
 70
     0
 10
0.0
 20
0.0
 30
0.0
  3
_D_2
  1
_D_2
  0
LINE
  5
1FE
330
1FB
100
AcDbEntity
  8
치수문자_일반주서
 62
     0
370
    -2
100
AcDbLine
 10
-28.10000000000001
 20
3.825
 30
0.0
 11
-28.10000000000002
 21
35.82549028620473
 31
0.0
  0
LINE
  5
1FF
330
1FB
100
AcDbEntity
  8
치수문자_일반주서
 62
     0
370
    -2
100
AcDbLine
 10
22.7
 20
4.825000000000001
 30
0.0
 11
22.69999999999999
 21
35.82549028620473
 31
0.0
  0
LINE
  5
200
330
1FB
100
AcDbEntity
  8
치수문자_일반주서
 62
     0
370
    -2
100
AcDbLine
 10
-24.79800000000002
 20
35.82549028620473
 30
0.0
 11
19.39799999999999
 21
35.82549028620473
 31
0.0
  0
SOLID
  5
201
330
1FB
100
AcDbEntity
  8
치수문자_일반주서
 62
     0
100
AcDbTrace
 10
-24.79800000000002
 20
36.37582361953806
 30
0.0
 11
-24.79800000000002
 21
35.27515695287139
 31
0.0
 12
-28.10000000000002
 22
35.82549028620473
 32
0.0
 13
-28.10000000000002
 23
35.82549028620473
 33
0.0
  0
SOLID
  5
202
330
1FB
100
AcDbEntity
  8
치수문자_일반주서
 62
     0
100
AcDbTrace
 10
19.39799999999999
 20
35.27515695287139
 30
0.0
 11
19.39799999999999
 21
36.37582361953806
 31
0.0
 12
22.69999999999999
 22
35.82549028620473
 32
0.0
 13
22.69999999999999
 23
35.82549028620473
 33
0.0
  0
MTEXT
  5
203
330
1FB
100
AcDbEntity
  8
치수문자_일반주서
 62
     0
100
AcDbMText
 10
-2.700000000000012
 20
40.20049028620473
 30
0.0
 40
3.5
 41
0.0
 71
     2
 72
     1
  1
\A1;50.8 [2]
  7
SLDTEXTSTYLE0
 73
     1
 44
1.0
  0
POINT
  5
204
330
1FB
100
AcDbEntity
  8
Defpoints
 62
     0
100
AcDbPoint
 10
-28.10000000000001
 20
3.7625
 30
0.0
  0
POINT
  5
205
330
1FB
100
AcDbEntity
  8
Defpoints
 62
     0
100
AcDbPoint
 10
22.7
 20
4.762500000000001
 30
0.0
  0
POINT
  5
206
330
1FB
100
AcDbEntity
  8
Defpoints
 62
     0
100
AcDbPoint
 10
22.7
 20
35.82549028620473
 30
0.0
  0
ENDBLK
  5
1FD
330
1FB
100
AcDbEntity
  8
0
100
AcDbBlockEnd
  0
BLOCK
  5
20F
330
20E
100
AcDbEntity
  8
0
100
AcDbBlockBegin
  2
_D_3
 70
     0
 10
0.0
 20
0.0
 30
0.0
  3
_D_3
  1
_D_3
  0
LINE
  5
211
330
20E
100
AcDbEntity
  8
치수문자_일반주서
 62
     0
370
    -2
100
AcDbLine
 10
22.7625
 20
4.762500000000001
 30
0.0
 11
57.21277070750177
 21
4.762500000000131
 31
0.0
  0
LINE
  5
212
330
20E
100
AcDbEntity
  8
치수문자_일반주서
 62
     0
370
    -2
100
AcDbLine
 10
22.76250000000001
 20
-4.762499999999996
 30
0.0
 11
57.2127707075018
 21
-4.762499999999868
 31
0.0
  0
LINE
  5
213
330
20E
100
AcDbEntity
  8
치수문자_일반주서
 62
     0
370
    -2
100
AcDbLine
 10
57.21277070750177
 20
4.762500000000131
 30
0.0
 11
57.21277070750164
 21
38.05400000000013
 31
0.0
  0
LINE
  5
214
330
20E
100
AcDbEntity
  8
치수문자_일반주서
 62
     0
370
    -2
100
AcDbLine
 10
57.21277070750177
 20
4.762500000000131
 30
0.0
 11
57.2127707075018
 21
-4.762499999999868
 31
0.0
  0
LINE
  5
215
330
20E
100
AcDbEntity
  8
치수문자_일반주서
 62
     0
370
    -2
100
AcDbLine
 10
57.21277070750175
 20
8.06450000000013
 30
0.0
 11
57.21277070750174
 21
11.36650000000013
 31
0.0
  0
LINE
  5
216
330
20E
100
AcDbEntity
  8
치수문자_일반주서
 62
     0
370
    -2
100
AcDbLine
 10
57.21277070750182
 20
-8.064499999999867
 30
0.0
 11
57.21277070750183
 21
-11.36649999999987
 31
0.0
  0
SOLID
  5
217
330
20E
100
AcDbEntity
  8
치수문자_일반주서
 62
     0
100
AcDbTrace
 10
56.66243737416842
 20
8.064500000000129
 30
0.0
 11
57.76310404083509
 21
8.064500000000132
 31
0.0
 12
57.21277070750177
 22
4.762500000000131
 32
0.0
 13
57.21277070750177
 23
4.762500000000131
 33
0.0
  0
SOLID
  5
218
330
20E
100
AcDbEntity
  8
치수문자_일반주서
 62
     0
100
AcDbTrace
 10
57.76310404083515
 20
-8.064499999999866
 30
0.0
 11
56.66243737416848
 21
-8.06449999999987
 31
0.0
 12
57.2127707075018
 22
-4.762499999999868
 32
0.0
 13
57.2127707075018
 23
-4.762499999999868
 33
0.0
  0
MTEXT
  5
219
330
20E
100
AcDbEntity
  8
치수문자_일반주서
 62
     0
100
AcDbMText
 10
52.83777070750169
 20
24.92900000000011
 30
0.0
 40
3.5
 41
0.0
 71
     2
 72
     1
  1
\A1;%%c9.53 [3/8]
  7
SLDTEXTSTYLE0
 11
-3.729883127349609E-15
 21
1.0
 31
0.0
 73
     1
 44
1.0
  0
POINT
  5
3BF
330
20E
100
AcDbEntity
  8
Defpoints
 62
     0
100
AcDbPoint
 10
22.7
 20
4.762500000000001
 30
0.0
  0
POINT
  5
3C0
330
20E
100
AcDbEntity
  8
Defpoints
 62
     0
100
AcDbPoint
 10
22.70000000000001
 20
-4.762499999999996
 30
0.0
  0
POINT
  5
3C1
330
20E
100
AcDbEntity
  8
Defpoints
 62
     0
100
AcDbPoint
 10
57.2127707075018
 20
-4.762499999999867
 30
0.0
  0
ENDBLK
  5
210
330
20E
100
AcDbEntity
  8
0
100
AcDbBlockEnd
  0
BLOCK
  5
229
330
228
100
AcDbEntity
  8
0
100
AcDbBlockBegin
  2
SW_DOWELSYMBOL_0
 70
     0
 10
0.0
 20
0.0
 30
0.0
  3
SW_DOWELSYMBOL_0
  1
SW_DOWELSYMBOL_0
  0
CIRCLE
  5
22B
330
228
100
AcDbEntity
  8
해칭선
 62
     0
100
AcDbCircle
 10
0.0
 20
0.0
 30
0.0
 40
3.000000000000001
  0
HATCH
  5
22C
330
228
100
AcDbEntity
  8
0
  6
Continuous
 62
     0
370
     0
100
AcDbHatch
 10
0.0
 20
0.0
 30
0.0
210
0.0
220
0.0
230
1.0
  2
SOLID
 70
     1
 71
     0
 91
        1
 92
        0
 93
        3
 72
     2
 10
0.0000000000000069
 20
0.0
 40
3.000000000000001
 50
0.0
 51
90.0
 73
     1
 72
     1
 10
0.0000000000000069
 20
3.000000000000001
 11
0.0000000000000069
 21
0.0
 72
     1
 10
0.0000000000000069
 20
0.0
 11
3.000000000000008
 21
0.0
 97
        0
 75
     0
 76
     1
 98
        1
 10
0.0
 20
0.0
  0
HATCH
  5
22D
330
228
100
AcDbEntity
  8
0
  6
Continuous
 62
     0
370
     0
100
AcDbHatch
 10
0.0
 20
0.0
 30
0.0
210
0.0
220
0.0
230
1.0
  2
SOLID
 70
     1
 71
     0
 91
        1
 92
        0
 93
        3
 72
     2
 10
0.0000000000000069
 20
0.0
 40
3.000000000000001
 50
180.0
 51
270.0000000000007
 73
     1
 72
     1
 10
0.0000000000000069
 20
-3.000000000000001
 11
0.0000000000000069
 21
0.0
 72
     1
 10
0.0000000000000069
 20
0.0
 11
-2.999999999999994
 21
0.0
 97
        0
 75
     0
 76
     1
 98
        1
 10
0.0
 20
0.0
  0
ENDBLK
  5
22A
330
228
100
AcDbEntity
  8
0
100
AcDbBlockEnd
  0
BLOCK
  5
2EB
330
2EA
100
AcDbEntity
  8
0
100
AcDbBlockBegin
  2
_D_4
 70
     0
 10
0.0
 20
0.0
 30
0.0
  3
_D_4
  1
_D_4
  0
LINE
  5
2EC
330
2EA
100
AcDbEntity
  8
치수문자_일반주서
 62
     0
370
    -2
100
AcDbLine
 10
102.4375000000001
 20
36.22143424691529
 30
0.0
 11
117.3750000000001
 21
36.22143424691535
 31
0.0
  0
LINE
  5
2ED
330
2EA
100
AcDbEntity
  8
치수문자_일반주서
 62
     0
370
    -2
100
AcDbLine
 10
102.4375000000001
 20
22.22143424691529
 30
0.0
 11
117.3750000000001
 21
22.22143424691535
 31
0.0
  0
LINE
  5
2EE
330
2EA
100
AcDbEntity
  8
치수문자_일반주서
 62
     0
370
    -2
100
AcDbLine
 10
117.3750000000001
 20
36.22143424691535
 30
0.0
 11
117.3750000000001
 21
22.22143424691535
 31
0.0
  0
LINE
  5
2EF
330
2EA
100
AcDbEntity
  8
치수문자_일반주서
 62
     0
370
    -2
100
AcDbLine
 10
117.3750000000001
 20
39.52343424691535
 30
0.0
 11
117.375
 21
42.82543424691535
 31
0.0
  0
LINE
  5
2F0
330
2EA
100
AcDbEntity
  8
치수문자_일반주서
 62
     0
370
    -2
100
AcDbLine
 10
117.3750000000001
 20
18.91943424691535
 30
0.0
 11
117.3750000000001
 21
15.61743424691535
 31
0.0
  0
SOLID
  5
2F1
330
2EA
100
AcDbEntity
  8
치수문자_일반주서
 62
     0
100
AcDbTrace
 10
116.8246666666667
 20
39.52343424691535
 30
0.0
 11
117.9253333333334
 21
39.52343424691535
 31
0.0
 12
117.3750000000001
 22
36.22143424691535
 32
0.0
 13
117.3750000000001
 23
36.22143424691535
 33
0.0
  0
SOLID
  5
2F2
330
2EA
100
AcDbEntity
  8
치수문자_일반주서
 62
     0
100
AcDbTrace
 10
117.9253333333335
 20
18.91943424691535
 30
0.0
 11
116.8246666666668
 21
18.91943424691535
 31
0.0
 12
117.3750000000001
 22
22.22143424691535
 32
0.0
 13
117.3750000000001
 23
22.22143424691535
 33
0.0
  0
MTEXT
  5
2F3
330
2EA
100
AcDbEntity
  8
치수문자_일반주서
 62
     0
100
AcDbMText
 10
113.0000000000001
 20
29.28713862862833
 30
0.0
 40
3.5
 41
0.0
 71
     2
 72
     1
  1
\A1;%%c14.00 [0.55]
  7
SLDTEXTSTYLE0
 11
-3.045183153257572E-15
 21
1.0
 31
0.0
 73
     1
 44
1.0
  0
POINT
  5
2F4
330
2EA
100
AcDbEntity
  8
Defpoints
 62
     0
100
AcDbPoint
 10
102.3750000000001
 20
36.22143424691529
 30
0.0
  0
POINT
  5
2F5
330
2EA
100
AcDbEntity
  8
Defpoints
 62
     0
100
AcDbPoint
 10
102.3750000000001
 20
22.22143424691529
 30
0.0
  0
POINT
  5
2F6
330
2EA
100
AcDbEntity
  8
Defpoints
 62
     0
100
AcDbPoint
 10
117.3750000000001
 20
22.22143424691535
 30
0.0
  0
ENDBLK
  5
2F7
330
2EA
100
AcDbEntity
  8
0
100
AcDbBlockEnd
  0
BLOCK
  5
305
330
304
100
AcDbEntity
  8
0
100
AcDbBlockBegin
  2
*D8
 70
     1
 10
0.0
 20
0.0
 30
0.0
  3
*D8
  1
*D8
  0
LINE
  5
306
330
304
100
AcDbEntity
  8
치수문자_일반주서
 62
     0
370
    -2
100
AcDbLine
 10
103.8657751816695
 20
19.48229575403651
 30
0.0
 11
120.1921280501954
 21
-7.081888143622854
 31
0.0
  0
MTEXT
  5
307
330
304
100
AcDbEntity
  8
치수문자_일반주서
 62
     0
100
AcDbMText
 10
115.6706384014277
 20
5.288158154535728
 30
0.0
 40
3.5
 41
0.0
 71
     5
 72
     1
  1
\A1;R.50 [R0.02]
  7
SLDTEXTSTYLE0
 11
0.5236126201129557
 21
-0.8519564684057781
 31
0.0
 73
     1
 44
1.0
  0
LINE
  5
308
330
304
100
AcDbEntity
  8
치수문자_일반주서
 62
     0
370
    -2
100
AcDbLine
 10
101.875
 20
22.72143424691529
 30
0.0
 11
102.1368063100565
 21
22.29545601271239
 31
0.0
  0
SOLID
  5
309
330
304
100
AcDbEntity
  8
치수문자_일반주서
 62
     0
100
AcDbTrace
 10
104.3346352247821
 20
19.77045723263868
 30
0.0
 11
103.3969151385569
 21
19.19413427543435
 31
0.0
 12
102.1368063100565
 22
22.29545601271239
 32
0.0
 13
102.1368063100565
 23
22.29545601271239
 33
0.0
  0
POINT
  5
30A
330
304
100
AcDbEntity
  8
Defpoints
 62
     0
100
AcDbPoint
 10
102.1368063100565
 20
22.29545601271239
 30
0.0
  0
POINT
  5
336
330
304
100
AcDbEntity
  8
Defpoints
 62
     0
100
AcDbPoint
 10
101.875
 20
22.72143424691529
 30
0.0
  0
ENDBLK
  5
30B
330
304
100
AcDbEntity
  8
0
100
AcDbBlockEnd
  0
BLOCK
  5
311
330
310
100
AcDbEntity
  8
0
100
AcDbBlockBegin
  2
*D9
 70
     1
 10
0.0
 20
0.0
 30
0.0
  3
*D9
  1
*D10
  0
LINE
  5
313
330
310
100
AcDbEntity
  8
치수문자_일반주서
 62
     0
370
    -2
100
AcDbLine
 10
19.37500000000004
 20
35.78393424691529
 30
0.0
 11
19.37500000000004
 21
70.88391841499404
 31
0.0
  0
LINE
  5
314
330
310
100
AcDbEntity
  8
치수문자_일반주서
 62
     0
370
    -2
100
AcDbLine
 10
102.3750000000001
 20
36.34643424691529
 30
0.0
 11
102.3750000000001
 21
70.88391841499404
 31
0.0
  0
LINE
  5
315
330
310
100
AcDbEntity
  8
치수문자_일반주서
 62
     0
370
    -2
100
AcDbLine
 10
22.67700000000004
 20
70.88391841499404
 30
0.0
 11
99.07300000000006
 21
70.88391841499404
 31
0.0
  0
SOLID
  5
316
330
310
100
AcDbEntity
  8
치수문자_일반주서
 62
     0
100
AcDbTrace
 10
22.67700000000004
 20
71.43425174832737
 30
0.0
 11
22.67700000000004
 21
70.33358508166071
 31
0.0
 12
19.37500000000004
 22
70.88391841499404
 32
0.0
 13
19.37500000000004
 23
70.88391841499404
 33
0.0
  0
SOLID
  5
317
330
310
100
AcDbEntity
  8
치수문자_일반주서
 62
     0
100
AcDbTrace
 10
99.07300000000006
 20
70.33358508166071
 30
0.0
 11
99.07300000000006
 21
71.43425174832737
 31
0.0
 12
102.3750000000001
 22
70.88391841499404
 32
0.0
 13
102.3750000000001
 23
70.88391841499404
 33
0.0
  0
MTEXT
  5
318
330
310
100
AcDbEntity
  8
치수문자_일반주서
 62
     0
100
AcDbMText
 10
60.87500000000005
 20
75.25891841499404
 30
0.0
 40
3.5
 41
0.0
 71
     2
 72
     1
  1
\A1;83 [3.27]
  7
SLDTEXTSTYLE0
 73
     1
 44
1.0
  0
POINT
  5
319
330
310
100
AcDbEntity
  8
Defpoints
 62
     0
100
AcDbPoint
 10
19.37500000000004
 20
35.72143424691529
 30
0.0
  0
POINT
  5
31A
330
310
100
AcDbEntity
  8
Defpoints
 62
     0
100
AcDbPoint
 10
102.3750000000001
 20
36.28393424691529
 30
0.0
  0
POINT
  5
31B
330
310
100
AcDbEntity
  8
Defpoints
 62
     0
100
AcDbPoint
 10
102.3750000000001
 20
70.88391841499404
 30
0.0
  0
ENDBLK
  5
312
330
310
100
AcDbEntity
  8
0
100
AcDbBlockEnd
  0
BLOCK
  5
31D
330
31C
100
AcDbEntity
  8
0
100
AcDbBlockBegin
  2
*D10
 70
     1
 10
0.0
 20
0.0
 30
0.0
  3
*D10
  1
*D11
  0
LINE
  5
31F
330
31C
100
AcDbEntity
  8
치수문자_일반주서
 62
     0
370
    -2
100
AcDbLine
 10
76.37504186422882
 20
28.62038676313042
 30
0.0
 11
76.37504186422882
 21
61.90091383617725
 31
0.0
  0
LINE
  5
320
330
31C
100
AcDbEntity
  8
치수문자_일반주서
 62
     0
370
    -2
100
AcDbLine
 10
102.3750000000001
 20
36.28393424691529
 30
0.0
 11
102.3750000000001
 21
61.90091383617725
 31
0.0
  0
LINE
  5
321
330
31C
100
AcDbEntity
  8
치수문자_일반주서
 62
     0
370
    -2
100
AcDbLine
 10
79.67704186422881
 20
61.90091383617725
 30
0.0
 11
99.07300000000006
 21
61.90091383617725
 31
0.0
  0
SOLID
  5
322
330
31C
100
AcDbEntity
  8
치수문자_일반주서
 62
     0
100
AcDbTrace
 10
79.67704186422881
 20
62.45124716951059
 30
0.0
 11
79.67704186422881
 21
61.35058050284392
 31
0.0
 12
76.37504186422882
 22
61.90091383617725
 32
0.0
 13
76.37504186422882
 23
61.90091383617725
 33
0.0
  0
SOLID
  5
323
330
31C
100
AcDbEntity
  8
치수문자_일반주서
 62
     0
100
AcDbTrace
 10
99.07300000000006
 20
61.35058050284392
 30
0.0
 11
99.07300000000006
 21
62.45124716951059
 31
0.0
 12
102.3750000000001
 22
61.90091383617725
 32
0.0
 13
102.3750000000001
 23
61.90091383617725
 33
0.0
  0
MTEXT
  5
324
330
31C
100
AcDbEntity
  8
치수문자_일반주서
 62
     0
100
AcDbMText
 10
89.42159572693208
 20
66.27591383617725
 30
0.0
 40
3.5
 41
0.0
 71
     2
 72
     1
  1
\A1;26 [1.02]
  7
SLDTEXTSTYLE0
 73
     1
 44
1.0
  0
POINT
  5
325
330
31C
100
AcDbEntity
  8
Defpoints
 62
     0
100
AcDbPoint
 10
76.37504186422882
 20
28.55788676313042
 30
0.0
  0
POINT
  5
326
330
31C
100
AcDbEntity
  8
Defpoints
 62
     0
100
AcDbPoint
 10
102.3750000000001
 20
36.22143424691529
 30
0.0
  0
POINT
  5
327
330
31C
100
AcDbEntity
  8
Defpoints
 62
     0
100
AcDbPoint
 10
102.3750000000001
 20
61.90091383617725
 30
0.0
  0
ENDBLK
  5
31E
330
31C
100
AcDbEntity
  8
0
100
AcDbBlockEnd
  0
BLOCK
  5
329
330
328
100
AcDbEntity
  8
0
100
AcDbBlockBegin
  2
*D11
 70
     1
 10
0.0
 20
0.0
 30
0.0
  3
*D11
  1
*D12
  0
LINE
  5
32B
330
328
100
AcDbEntity
  8
치수문자_일반주서
 62
     0
370
    -2
100
AcDbLine
 10
19.81250000000005
 20
36.22143424691529
 30
0.0
 11
4.374999999999983
 21
36.22143424691524
 31
0.0
  0
LINE
  5
32C
330
328
100
AcDbEntity
  8
치수문자_일반주서
 62
     0
370
    -2
100
AcDbLine
 10
19.81250000000005
 20
22.22143424691529
 30
0.0
 11
4.375000000000032
 21
22.22143424691524
 31
0.0
  0
LINE
  5
32D
330
328
100
AcDbEntity
  8
치수문자_일반주서
 62
     0
370
    -2
100
AcDbLine
 10
4.374999999999983
 20
36.22143424691524
 30
0.0
 11
4.375000000000032
 21
22.22143424691524
 31
0.0
  0
LINE
  5
32E
330
328
100
AcDbEntity
  8
치수문자_일반주서
 62
     0
370
    -2
100
AcDbLine
 10
4.374999999999972
 20
39.52343424691524
 30
0.0
 11
4.37499999999996
 21
42.82543424691524
 31
0.0
  0
LINE
  5
32F
330
328
100
AcDbEntity
  8
치수문자_일반주서
 62
     0
370
    -2
100
AcDbLine
 10
4.375000000000044
 20
18.91943424691524
 30
0.0
 11
4.375000000000055
 21
15.61743424691524
 31
0.0
  0
SOLID
  5
330
330
328
100
AcDbEntity
  8
치수문자_일반주서
 62
     0
100
AcDbTrace
 10
3.824666666666638
 20
39.52343424691524
 30
0.0
 11
4.925333333333305
 21
39.52343424691524
 31
0.0
 12
4.374999999999983
 22
36.22143424691524
 32
0.0
 13
4.374999999999983
 23
36.22143424691524
 33
0.0
  0
SOLID
  5
331
330
328
100
AcDbEntity
  8
치수문자_일반주서
 62
     0
100
AcDbTrace
 10
4.925333333333377
 20
18.91943424691524
 30
0.0
 11
3.82466666666671
 21
18.91943424691523
 31
0.0
 12
4.375000000000032
 22
22.22143424691524
 32
0.0
 13
4.375000000000032
 23
22.22143424691524
 33
0.0
  0
MTEXT
  5
332
330
328
100
AcDbEntity
  8
치수문자_일반주서
 62
     0
100
AcDbMText
 10
0.0000000000000071
 20
29.22143424691528
 30
0.0
 40
3.5
 41
0.0
 71
     2
 72
     1
  1
\A1;%%c14.00 [0.55]
  7
SLDTEXTSTYLE0
 11
-3.489272363107635E-15
 21
1.0
 31
0.0
 73
     1
 44
1.0
  0
POINT
  5
333
330
328
100
AcDbEntity
  8
Defpoints
 62
     0
100
AcDbPoint
 10
19.87500000000005
 20
36.22143424691529
 30
0.0
  0
POINT
  5
334
330
328
100
AcDbEntity
  8
Defpoints
 62
     0
100
AcDbPoint
 10
19.87500000000005
 20
22.22143424691529
 30
0.0
  0
POINT
  5
335
330
328
100
AcDbEntity
  8
Defpoints
 62
     0
100
AcDbPoint
 10
4.375000000000043
 20
22.22143424691524
 30
0.0
  0
ENDBLK
  5
32A
330
328
100
AcDbEntity
  8
0
100
AcDbBlockEnd
  0
BLOCK
  5
383
330
382
100
AcDbEntity
  8
0
100
AcDbBlockBegin
  2
*D12
 70
     1
 10
0.0
 20
0.0
 30
0.0
  3
*D12
  1
*D13
  0
LINE
  5
385
330
382
100
AcDbEntity
  8
치수문자_일반주서
 62
     0
370
    -2
100
AcDbLine
 10
-62.33141852479532
 20
90.39463891397719
 30
0.0
 11
-62.33141852479532
 21
125.4946230820559
 31
0.0
  0
LINE
  5
386
330
382
100
AcDbEntity
  8
치수문자_일반주서
 62
     0
370
    -2
100
AcDbLine
 10
20.66858147520469
 20
90.95713891397719
 30
0.0
 11
20.66858147520469
 21
125.4946230820559
 31
0.0
  0
LINE
  5
387
330
382
100
AcDbEntity
  8
치수문자_일반주서
 62
     0
370
    -2
100
AcDbLine
 10
-59.02941852479533
 20
125.4946230820559
 30
0.0
 11
17.36658147520469
 21
125.4946230820559
 31
0.0
  0
SOLID
  5
388
330
382
100
AcDbEntity
  8
치수문자_일반주서
 62
     0
100
AcDbTrace
 10
-59.02941852479533
 20
126.0449564153893
 30
0.0
 11
-59.02941852479533
 21
124.9442897487226
 31
0.0
 12
-62.33141852479532
 22
125.4946230820559
 32
0.0
 13
-62.33141852479532
 23
125.4946230820559
 33
0.0
  0
SOLID
  5
389
330
382
100
AcDbEntity
  8
치수문자_일반주서
 62
     0
100
AcDbTrace
 10
17.36658147520469
 20
124.9442897487226
 30
0.0
 11
17.36658147520469
 21
126.0449564153893
 31
0.0
 12
20.66858147520469
 22
125.4946230820559
 32
0.0
 13
20.66858147520469
 23
125.4946230820559
 33
0.0
  0
MTEXT
  5
38A
330
382
100
AcDbEntity
  8
치수문자_일반주서
 62
     0
100
AcDbMText
 10
-20.83141852479532
 20
129.8696230820559
 30
0.0
 40
3.5
 41
0.0
 71
     2
 72
     1
  1
\A1;83 [3.27]
  7
SLDTEXTSTYLE0
 73
     1
 44
1.0
  0
POINT
  5
38B
330
382
100
AcDbEntity
  8
Defpoints
 62
     0
100
AcDbPoint
 10
-62.33141852479532
 20
90.33213891397719
 30
0.0
  0
POINT
  5
38C
330
382
100
AcDbEntity
  8
Defpoints
 62
     0
100
AcDbPoint
 10
20.66858147520469
 20
90.89463891397719
 30
0.0
  0
POINT
  5
38D
330
382
100
AcDbEntity
  8
Defpoints
 62
     0
100
AcDbPoint
 10
20.66858147520469
 20
125.4946230820559
 30
0.0
  0
ENDBLK
  5
384
330
382
100
AcDbEntity
  8
0
100
AcDbBlockEnd
  0
BLOCK
  5
38F
330
38E
100
AcDbEntity
  8
0
100
AcDbBlockBegin
  2
*D13
 70
     1
 10
0.0
 20
0.0
 30
0.0
  3
*D13
  1
*D14
  0
LINE
  5
391
330
38E
100
AcDbEntity
  8
치수문자_일반주서
 62
     0
370
    -2
100
AcDbLine
 10
-5.331376660566548
 20
83.23109143019232
 30
0.0
 11
-5.331376660566548
 21
116.5116185032391
 31
0.0
  0
LINE
  5
392
330
38E
100
AcDbEntity
  8
치수문자_일반주서
 62
     0
370
    -2
100
AcDbLine
 10
20.66858147520469
 20
90.89463891397719
 30
0.0
 11
20.66858147520469
 21
116.5116185032391
 31
0.0
  0
LINE
  5
393
330
38E
100
AcDbEntity
  8
치수문자_일반주서
 62
     0
370
    -2
100
AcDbLine
 10
-2.029376660566548
 20
116.5116185032391
 30
0.0
 11
17.36658147520469
 21
116.5116185032391
 31
0.0
  0
SOLID
  5
394
330
38E
100
AcDbEntity
  8
치수문자_일반주서
 62
     0
100
AcDbTrace
 10
-2.029376660566548
 20
117.0619518365725
 30
0.0
 11
-2.029376660566548
 21
115.9612851699058
 31
0.0
 12
-5.331376660566548
 22
116.5116185032391
 32
0.0
 13
-5.331376660566548
 23
116.5116185032391
 33
0.0
  0
SOLID
  5
395
330
38E
100
AcDbEntity
  8
치수문자_일반주서
 62
     0
100
AcDbTrace
 10
17.36658147520469
 20
115.9612851699058
 30
0.0
 11
17.36658147520469
 21
117.0619518365725
 31
0.0
 12
20.66858147520469
 22
116.5116185032391
 32
0.0
 13
20.66858147520469
 23
116.5116185032391
 33
0.0
  0
MTEXT
  5
396
330
38E
100
AcDbEntity
  8
치수문자_일반주서
 62
     0
100
AcDbMText
 10
7.715177202136715
 20
120.8866185032391
 30
0.0
 40
3.5
 41
0.0
 71
     2
 72
     1
  1
\A1;26 [1.02]
  7
SLDTEXTSTYLE0
 73
     1
 44
1.0
  0
POINT
  5
397
330
38E
100
AcDbEntity
  8
Defpoints
 62
     0
100
AcDbPoint
 10
-5.331376660566548
 20
83.16859143019232
 30
0.0
  0
POINT
  5
398
330
38E
100
AcDbEntity
  8
Defpoints
 62
     0
100
AcDbPoint
 10
20.66858147520469
 20
90.83213891397719
 30
0.0
  0
POINT
  5
399
330
38E
100
AcDbEntity
  8
Defpoints
 62
     0
100
AcDbPoint
 10
20.66858147520469
 20
116.5116185032391
 30
0.0
  0
ENDBLK
  5
390
330
38E
100
AcDbEntity
  8
0
100
AcDbBlockEnd
  0
BLOCK
  5
39B
330
39A
100
AcDbEntity
  8
0
100
AcDbBlockBegin
  2
*D14
 70
     1
 10
0.0
 20
0.0
 30
0.0
  3
*D14
  1
*D15
  0
LINE
  5
39D
330
39A
100
AcDbEntity
  8
치수문자_일반주서
 62
     0
370
    -2
100
AcDbLine
 10
-61.89391852479532
 20
90.83213891397719
 30
0.0
 11
-77.33141852479538
 21
90.83213891397713
 31
0.0
  0
LINE
  5
39E
330
39A
100
AcDbEntity
  8
치수문자_일반주서
 62
     0
370
    -2
100
AcDbLine
 10
-61.89391852479532
 20
76.83213891397719
 30
0.0
 11
-77.33141852479534
 21
76.83213891397713
 31
0.0
  0
LINE
  5
39F
330
39A
100
AcDbEntity
  8
치수문자_일반주서
 62
     0
370
    -2
100
AcDbLine
 10
-77.33141852479538
 20
90.83213891397713
 30
0.0
 11
-77.33141852479534
 21
76.83213891397713
 31
0.0
  0
LINE
  5
3A0
330
39A
100
AcDbEntity
  8
치수문자_일반주서
 62
     0
370
    -2
100
AcDbLine
 10
-77.3314185247954
 20
94.13413891397713
 30
0.0
 11
-77.33141852479541
 21
97.43613891397712
 31
0.0
  0
LINE
  5
3A1
330
39A
100
AcDbEntity
  8
치수문자_일반주서
 62
     0
370
    -2
100
AcDbLine
 10
-77.33141852479532
 20
73.53013891397714
 30
0.0
 11
-77.33141852479531
 21
70.22813891397715
 31
0.0
  0
SOLID
  5
3A2
330
39A
100
AcDbEntity
  8
치수문자_일반주서
 62
     0
100
AcDbTrace
 10
-77.88175185812872
 20
94.13413891397713
 30
0.0
 11
-76.78108519146207
 21
94.13413891397713
 31
0.0
 12
-77.33141852479538
 22
90.83213891397713
 32
0.0
 13
-77.33141852479538
 23
90.83213891397713
 33
0.0
  0
SOLID
  5
3A3
330
39A
100
AcDbEntity
  8
치수문자_일반주서
 62
     0
100
AcDbTrace
 10
-76.781085191462
 20
73.53013891397714
 30
0.0
 11
-77.88175185812865
 21
73.53013891397714
 31
0.0
 12
-77.33141852479534
 22
76.83213891397713
 32
0.0
 13
-77.33141852479534
 23
76.83213891397713
 33
0.0
  0
MTEXT
  5
3A4
330
39A
100
AcDbEntity
  8
치수문자_일반주서
 62
     0
100
AcDbMText
 10
-81.70641852479537
 20
83.83213891397718
 30
0.0
 40
3.5
 41
0.0
 71
     2
 72
     1
  1
\A1;%%c14.00 [0.55]
  7
SLDTEXTSTYLE0
 11
-3.045183153257572E-15
 21
1.0
 31
0.0
 73
     1
 44
1.0
  0
POINT
  5
3A5
330
39A
100
AcDbEntity
  8
Defpoints
 62
     0
100
AcDbPoint
 10
-61.83141852479532
 20
90.83213891397719
 30
0.0
  0
POINT
  5
3A6
330
39A
100
AcDbEntity
  8
Defpoints
 62
     0
100
AcDbPoint
 10
-61.83141852479532
 20
76.83213891397719
 30
0.0
  0
POINT
  5
3A7
330
39A
100
AcDbEntity
  8
Defpoints
 62
     0
100
AcDbPoint
 10
-77.33141852479534
 20
76.83213891397713
 30
0.0
  0
ENDBLK
  5
39C
330
39A
100
AcDbEntity
  8
0
100
AcDbBlockEnd
  0
BLOCK
  5
3A9
330
3A8
100
AcDbEntity
  8
0
100
AcDbBlockBegin
  2
*D15
 70
     1
 10
0.0
 20
0.0
 30
0.0
  3
*D15
  1
*D16
  0
LINE
  5
3AB
330
3A8
100
AcDbEntity
  8
치수문자_일반주서
 62
     0
370
    -2
100
AcDbLine
 10
20.7310814752047
 20
90.83213891397719
 30
0.0
 11
35.6685814752047
 21
90.83213891397725
 31
0.0
  0
LINE
  5
3AC
330
3A8
100
AcDbEntity
  8
치수문자_일반주서
 62
     0
370
    -2
100
AcDbLine
 10
20.73108147520469
 20
76.83213891397719
 30
0.0
 11
35.66858147520475
 21
76.83213891397725
 31
0.0
  0
LINE
  5
3AD
330
3A8
100
AcDbEntity
  8
치수문자_일반주서
 62
     0
370
    -2
100
AcDbLine
 10
35.6685814752047
 20
90.83213891397725
 30
0.0
 11
35.66858147520475
 21
76.83213891397725
 31
0.0
  0
LINE
  5
3AE
330
3A8
100
AcDbEntity
  8
치수문자_일반주서
 62
     0
370
    -2
100
AcDbLine
 10
35.66858147520468
 20
94.13413891397724
 30
0.0
 11
35.66858147520467
 21
97.43613891397723
 31
0.0
  0
LINE
  5
3AF
330
3A8
100
AcDbEntity
  8
치수문자_일반주서
 62
     0
370
    -2
100
AcDbLine
 10
35.66858147520476
 20
73.53013891397725
 30
0.0
 11
35.66858147520477
 21
70.22813891397726
 31
0.0
  0
SOLID
  5
3B0
330
3A8
100
AcDbEntity
  8
치수문자_일반주서
 62
     0
100
AcDbTrace
 10
35.11824814187135
 20
94.13413891397724
 30
0.0
 11
36.21891480853802
 21
94.13413891397724
 31
0.0
 12
35.6685814752047
 22
90.83213891397725
 32
0.0
 13
35.6685814752047
 23
90.83213891397725
 33
0.0
  0
SOLID
  5
3B1
330
3A8
100
AcDbEntity
  8
치수문자_일반주서
 62
     0
100
AcDbTrace
 10
36.21891480853809
 20
73.53013891397725
 30
0.0
 11
35.11824814187143
 21
73.53013891397725
 31
0.0
 12
35.66858147520475
 22
76.83213891397725
 32
0.0
 13
35.66858147520475
 23
76.83213891397725
 33
0.0
  0
MTEXT
  5
3B2
330
3A8
100
AcDbEntity
  8
치수문자_일반주서
 62
     0
100
AcDbMText
 10
31.29358147520472
 20
83.89784329569022
 30
0.0
 40
3.5
 41
0.0
 71
     2
 72
     1
  1
\A1;%%c14.00 [0.55]
  7
SLDTEXTSTYLE0
 11
-3.552713678800501E-15
 21
1.0
 31
0.0
 73
     1
 44
1.0
  0
POINT
  5
3B3
330
3A8
100
AcDbEntity
  8
Defpoints
 62
     0
100
AcDbPoint
 10
20.6685814752047
 20
90.83213891397719
 30
0.0
  0
POINT
  5
3B4
330
3A8
100
AcDbEntity
  8
Defpoints
 62
     0
100
AcDbPoint
 10
20.66858147520469
 20
76.83213891397719
 30
0.0
  0
POINT
  5
3B5
330
3A8
100
AcDbEntity
  8
Defpoints
 62
     0
100
AcDbPoint
 10
35.66858147520475
 20
76.83213891397725
 30
0.0
  0
ENDBLK
  5
3AA
330
3A8
100
AcDbEntity
  8
0
100
AcDbBlockEnd
  0
BLOCK
  5
3B7
330
3B6
100
AcDbEntity
  8
0
100
AcDbBlockBegin
  2
*D16
 70
     1
 10
0.0
 20
0.0
 30
0.0
  3
*D16
  1
*D17
  0
LINE
  5
3B9
330
3B6
100
AcDbEntity
  8
치수문자_일반주서
 62
     0
370
    -2
100
AcDbLine
 10
22.15935665687414
 20
74.09300042109841
 30
0.0
 11
38.48570952539997
 21
47.52881652343903
 31
0.0
  0
MTEXT
  5
3BA
330
3B6
100
AcDbEntity
  8
치수문자_일반주서
 62
     0
100
AcDbMText
 10
33.9642198766323
 20
59.89886282159762
 30
0.0
 40
3.5
 41
0.0
 71
     5
 72
     1
  1
\A1;R.50 [R0.02]
  7
SLDTEXTSTYLE0
 11
0.5236126201129557
 21
-0.8519564684057781
 31
0.0
 73
     1
 44
1.0
  0
LINE
  5
3BB
330
3B6
100
AcDbEntity
  8
치수문자_일반주서
 62
     0
370
    -2
100
AcDbLine
 10
20.16858147520468
 20
77.33213891397719
 30
0.0
 11
20.43038778526116
 21
76.90616067977429
 31
0.0
  0
SOLID
  5
3BC
330
3B6
100
AcDbEntity
  8
치수문자_일반주서
 62
     0
100
AcDbTrace
 10
22.62821669998679
 20
74.38116189970057
 30
0.0
 11
21.6904966137615
 21
73.80483894249625
 31
0.0
 12
20.43038778526116
 22
76.90616067977429
 32
0.0
 13
20.43038778526116
 23
76.90616067977429
 33
0.0
  0
POINT
  5
3BD
330
3B6
100
AcDbEntity
  8
Defpoints
 62
     0
100
AcDbPoint
 10
20.43038778526116
 20
76.90616067977429
 30
0.0
  0
POINT
  5
3BE
330
3B6
100
AcDbEntity
  8
Defpoints
 62
     0
100
AcDbPoint
 10
20.16858147520468
 20
77.33213891397719
 30
0.0
  0
ENDBLK
  5
3B8
330
3B6
100
AcDbEntity
  8
0
100
AcDbBlockEnd
  0
BLOCK
  5
3D0
330
3CF
100
AcDbEntity
  8
0
100
AcDbBlockBegin
  2
*D17
 70
     1
 10
0.0
 20
0.0
 30
0.0
  3
*D17
  1
*D18
  0
LINE
  5
3D2
330
3CF
100
AcDbEntity
  8
치수문자_일반주서
 62
     0
370
    -2
100
AcDbLine
 10
24.81521247283709
 20
6.719820105530097
 30
0.0
 11
47.19671024214698
 21
27.97272385660317
 31
0.0
  0
MTEXT
  5
3D3
330
3CF
100
AcDbEntity
  8
치수문자_일반주서
 62
     0
100
AcDbMText
 10
35.39564790581013
 20
20.38665739918325
 30
0.0
 40
3.5
 41
0.0
 71
     5
 72
     1
  1
\A1;R1.02 [R0.04]
  7
SLDTEXTSTYLE0
 11
0.7251534212221128
 21
0.6885873333789004
 31
0.0
 73
     1
 44
1.0
  0
LINE
  5
3D4
330
3CF
100
AcDbEntity
  8
치수문자_일반주서
 62
     0
370
    -2
100
AcDbLine
 10
21.684
 20
3.746500000000001
 30
0.0
 11
22.42075587596167
 21
4.446104730712968
 31
0.0
  0
SOLID
  5
3D5
330
3CF
100
AcDbEntity
  8
치수문자_일반주서
 62
     0
100
AcDbTrace
 10
24.43625991036756
 20
7.118896205009333
 30
0.0
 11
25.1941650353066
 21
6.320744006050861
 31
0.0
 12
22.42075587596167
 22
4.446104730712968
 32
0.0
 13
22.42075587596167
 23
4.446104730712968
 33
0.0
  0
POINT
  5
3D6
330
3CF
100
AcDbEntity
  8
Defpoints
 62
     0
100
AcDbPoint
 10
22.42075587596167
 20
4.446104730712968
 30
0.0
  0
POINT
  5
3D7
330
3CF
100
AcDbEntity
  8
Defpoints
 62
     0
100
AcDbPoint
 10
21.684
 20
3.746500000000001
 30
0.0
  0
ENDBLK
  5
3D1
330
3CF
100
AcDbEntity
  8
0
100
AcDbBlockEnd
  0
ENDSEC
  0
SECTION
  2
ENTITIES
  0
SPLINE
  5
96
330
1F
100
AcDbEntity
  8
외형선
  6
Continuous
370
    15
100
AcDbSpline
210
0.0
220
0.0
230
1.0
 70
     8
 71
     3
 72
     9
 73
     5
 74
     0
 42
0.000000001
 43
0.00000001
 40
0.0
 40
0.0
 40
0.0
 40
0.0
 40
0.5012637387097143
 40
1.0
 40
1.0
 40
1.0
 40
1.0
 10
7.452643394977326
 20
-4.762330200805772
 30
0.0
 10
7.532178083917705
 20
-4.748052399013429
 30
0.0
 10
7.690846431133695
 20
-4.719568787114643
 30
0.0
 10
7.832274058118408
 20
-4.638032004410007
 30
0.0
 10
7.902809144043921
 20
-4.597366654246255
 30
0.0
  0
SPLINE
  5
97
330
1F
100
AcDbEntity
  8
외형선
  6
Continuous
370
    15
100
AcDbSpline
210
0.0
220
0.0
230
1.0
 70
     8
 71
     3
 72
     9
 73
     5
 74
     0
 42
0.000000001
 43
0.00000001
 40
0.0
 40
0.0
 40
0.0
 40
0.0
 40
0.4986934514650616
 40
1.0
 40
1.0
 40
1.0
 40
1.0
 10
6.653594989744526
 20
4.596863852315341
 30
0.0
 10
6.582957644044969
 20
4.637648027711005
 30
0.0
 10
6.441312820973726
 20
4.719430082951251
 30
0.0
 10
6.28246918504947
 20
4.747991770538046
 30
0.0
 10
6.202839830167539
 20
4.762309931562514
 30
0.0
  0
LINE
  5
98
330
1F
100
AcDbEntity
  8
외형선
  6
Continuous
370
    15
100
AcDbLine
 10
6.199299907501293
 20
4.762500000000001
 30
0.0
 11
-3.417549999999893
 21
4.7625
 31
0.0
  0
LINE
  5
99
330
1F
100
AcDbEntity
  8
외형선
  6
Continuous
370
    15
100
AcDbLine
 10
-27.10000000000001
 20
-4.762500000000002
 30
0.0
 11
7.449299907501299
 21
-4.762499999999996
 31
0.0
  0
LINE
  5
9A
330
1F
100
AcDbEntity
  8
외형선
  6
Continuous
370
    15
100
AcDbLine
 10
-27.10000000000001
 20
4.762499999999998
 30
0.0
 11
-28.10000000000001
 21
3.7625
 31
0.0
  0
LINE
  5
9B
330
1F
100
AcDbEntity
  8
외형선
  6
Continuous
370
    15
100
AcDbLine
 10
-28.10000000000001
 20
-3.762500000000006
 30
0.0
 11
-27.10000000000001
 21
-4.762500000000006
 31
0.0
  0
SPLINE
  5
9C
330
1F
100
AcDbEntity
  8
외형선
  6
Continuous
370
    15
100
AcDbSpline
210
0.0
220
0.0
230
1.0
 70
     8
 71
     3
 72
     9
 73
     5
 74
     0
 42
0.000000001
 43
0.00000001
 40
0.0
 40
0.0
 40
0.0
 40
0.0
 40
0.7822758992342421
 40
1.0
 40
1.0
 40
1.0
 40
1.0
 10
8.134768985859056
 20
-4.595559800521662
 30
0.0
 10
8.220079136163594
 20
-4.6468578052213
 30
0.0
 10
8.329132924460087
 20
-4.712433140917892
 30
0.0
 10
8.452907288738336
 20
-4.726884505494085
 30
0.0
 10
8.479855950898672
 20
-4.730030915851275
 30
0.0
  0
SPLINE
  5
9D
330
1F
100
AcDbEntity
  8
외형선
  6
Continuous
370
    15
100
AcDbSpline
210
0.0
220
0.0
230
1.0
 70
     8
 71
     3
 72
    11
 73
     7
 74
     0
 42
0.000000001
 43
0.00000001
 40
0.0
 40
0.0
 40
0.0
 40
0.0
 40
0.2453202996491687
 40
0.5002442544561948
 40
0.7550435137878101
 40
1.0
 40
1.0
 40
1.0
 40
1.0
 10
8.013667970456869
 20
4.595726753277644
 30
0.0
 10
7.927243385873155
 20
4.64204218757652
 30
0.0
 10
7.75101091777494
 20
4.736486185622301
 30
0.0
 10
7.449382678949574
 20
4.775736658891665
 30
0.0
 10
7.147810483691051
 20
4.736576808304429
 30
0.0
 10
6.971598463493601
 20
4.642143788188908
 30
0.0
 10
6.885227716021852
 20
4.595857215205674
 30
0.0
  0
SPLINE
  5
9E
330
1F
100
AcDbEntity
  8
외형선
  6
Continuous
370
    15
100
AcDbSpline
210
0.0
220
0.0
230
1.0
 70
     8
 71
     3
 72
     9
 73
     5
 74
     0
 42
0.000000001
 43
0.00000001
 40
0.0
 40
0.0
 40
0.0
 40
0.0
 40
0.5007730538364418
 40
1.0
 40
1.0
 40
1.0
 40
1.0
 10
7.903896007876598
 20
-4.596666648358488
 30
0.0
 10
7.942220631101628
 20
-4.579642660080832
 30
0.0
 10
8.01875155250689
 20
-4.545647244099012
 30
0.0
 10
8.096338254692277
 20
-4.579070782166449
 30
0.0
 10
8.135071627087187
 20
-4.595756713005835
 30
0.0
  0
SPLINE
  5
9F
330
1F
100
AcDbEntity
  8
외형선
  6
Continuous
370
    15
100
AcDbSpline
210
0.0
220
0.0
230
1.0
 70
     8
 71
     3
 72
     9
 73
     5
 74
     0
 42
0.000000001
 43
0.00000001
 40
0.0
 40
0.0
 40
0.0
 40
0.0
 40
0.5568443300146957
 40
1.0
 40
1.0
 40
1.0
 40
1.0
 10
6.885087887673986
 20
4.595767216380805
 30
0.0
 10
6.840286780860122
 20
4.577964909603531
 30
0.0
 10
6.759831428441106
 20
4.545994921192574
 30
0.0
 10
6.686309432744615
 20
4.581183277189049
 30
0.0
 10
6.653727743483077
 20
4.596777196666347
 30
0.0
  0
SPLINE
  5
A0
330
1F
100
AcDbEntity
  8
외형선
  6
Continuous
370
    15
100
AcDbSpline
210
0.0
220
0.0
230
1.0
 70
     8
 71
     3
 72
     9
 73
     5
 74
     0
 42
0.000000001
 43
0.00000001
 40
0.0
 40
0.0
 40
0.0
 40
0.0
 40
0.0734449164585573
 40
1.0
 40
1.0
 40
1.0
 40
1.0
 10
8.479325359357587
 20
4.710300231898948
 30
0.0
 10
8.473152551498014
 20
4.708870280077901
 30
0.0
 10
8.389105783427176
 20
4.689400561954471
 30
0.0
 10
8.314266438728962
 20
4.64130559676308
 30
0.0
 10
8.244923663449919
 20
4.596742962272248
 30
0.0
  0
LINE
  5
A1
330
1F
100
AcDbEntity
  8
외형선
  6
Continuous
370
    15
100
AcDbLine
 10
8.69526227055424
 20
4.762262620805756
 30
0.0
 11
8.615878685388436
 21
4.74316000096025
 31
0.0
  0
SPLINE
  5
A2
330
1F
100
AcDbEntity
  8
0
  6
Continuous
 62
     1
370
    15
100
AcDbSpline
210
0.0
220
0.0
230
1.0
 70
     8
 71
     3
 72
    11
 73
     7
 74
     0
 42
0.000000001
 43
0.00000001
 40
0.0
 40
0.0
 40
0.0
 40
0.0
 40
0.0878070980281344
 40
0.3960003673493002
 40
0.7042118846565805
 40
1.0
 40
1.0
 40
1.0
 40
1.0
 10
13.34788428404299
 20
-4.683018197311815
 30
0.0
 10
13.37327157257931
 20
-4.695178395393311
 30
0.0
 10
13.48776545533086
 20
-4.750019553061106
 30
0.0
 10
13.71940760430362
 20
-4.767140617588879
 30
0.0
 10
14.01387655433201
 20
-4.729664704229925
 30
0.0
 10
14.1866499237625
 20
-4.635964009048064
 30
0.0
 10
14.271259758873
 20
-4.590077305586708
 30
0.0
  0
SPLINE
  5
A3
330
1F
100
AcDbEntity
  8
0
  6
Continuous
 62
     1
370
    15
100
AcDbSpline
210
0.0
220
0.0
230
1.0
 70
     8
 71
     3
 72
     9
 73
     5
 74
     0
 42
0.000000001
 43
0.00000001
 40
0.0
 40
0.0
 40
0.0
 40
0.0
 40
0.1710937573208569
 40
1.0
 40
1.0
 40
1.0
 40
1.0
 10
14.35273663671532
 20
4.573237338490645
 30
0.0
 10
14.35267867876731
 20
4.573443954723787
 30
0.0
 10
14.35233992913137
 20
4.574651574664912
 30
0.0
 10
14.35179238871764
 20
4.57466767441
 30
0.0
 10
14.35133852905058
 20
4.574681019589209
 30
0.0
  0
SPLINE
  5
A4
330
1F
100
AcDbEntity
  8
0
  6
Continuous
 62
     1
370
    15
100
AcDbSpline
210
0.0
220
0.0
230
1.0
 70
     8
 71
     3
 72
     9
 73
     5
 74
     0
 42
0.000000001
 43
0.00000001
 40
0.0
 40
0.0
 40
0.0
 40
0.0
 40
0.5299993728061313
 40
1.0
 40
1.0
 40
1.0
 40
1.0
 10
12.93596085162195
 20
-4.571282278973144
 30
0.0
 10
12.93639639810707
 20
-4.572580339043849
 30
0.0
 10
12.93721818490052
 20
-4.575029511886889
 30
0.0
 10
12.93868903450902
 20
-4.575060578862924
 30
0.0
 10
12.93938033474752
 20
-4.575075180361146
 30
0.0
  0
SPLINE
  5
A5
330
1F
100
AcDbEntity
  8
외형선
  6
Continuous
370
    15
100
AcDbSpline
210
0.0
220
0.0
230
1.0
 70
     8
 71
     3
 72
     9
 73
     5
 74
     0
 42
0.000000001
 43
0.00000001
 40
0.0
 40
0.0
 40
0.0
 40
0.0
 40
0.499334876899693
 40
1.0
 40
1.0
 40
1.0
 40
1.0
 10
8.244855618265357
 20
4.596697521890246
 30
0.0
 10
8.206383406577302
 20
4.579710513541328
 30
0.0
 10
8.129336491835593
 20
4.545691242837893
 30
0.0
 10
8.052443867392846
 20
4.578914462143015
 30
0.0
 10
8.013946412110712
 20
4.5955481693262
 30
0.0
  0
SPLINE
  5
A6
330
1F
100
AcDbEntity
  8
0
  6
Continuous
 62
     1
370
    15
100
AcDbSpline
210
0.0
220
0.0
230
1.0
 70
     8
 71
     3
 72
     9
 73
     5
 74
     0
 42
0.000000001
 43
0.00000001
 40
0.0
 40
0.0
 40
0.0
 40
0.0
 40
0.5005972498169755
 40
1.0
 40
1.0
 40
1.0
 40
1.0
 10
13.6771868677674
 20
4.755208027722387
 30
0.0
 10
13.59920452458562
 20
4.740393600033681
 30
0.0
 10
13.44342591571334
 20
4.710800094088291
 30
0.0
 10
13.30555129943959
 20
4.630403162593978
 30
0.0
 10
13.23669633689205
 20
4.59025271389944
 30
0.0
  0
SPLINE
  5
A7
330
1F
100
AcDbEntity
  8
0
  6
Continuous
 62
     1
370
    15
100
AcDbSpline
210
0.0
220
0.0
230
1.0
 70
     8
 71
     3
 72
    11
 73
     7
 74
     0
 42
0.000000001
 43
0.00000001
 40
0.0
 40
0.0
 40
0.0
 40
0.0
 40
0.2476315019850002
 40
0.4998304663962727
 40
0.7521066888407002
 40
1.0
 40
1.0
 40
1.0
 40
1.0
 10
13.24230149833287
 20
4.594892803636403
 30
0.0
 10
13.22330183571058
 20
4.58471466553849
 30
0.0
 10
13.18495206940965
 20
4.564170657721452
 30
0.0
 10
13.1153917364948
 20
4.556272337772612
 30
0.0
 10
13.04573684811529
 20
4.567966411732821
 30
0.0
 10
13.00721834587438
 20
4.591234812228999
 30
0.0
 10
12.98812786070908
 20
4.602767063709449
 30
0.0
  0
SPLINE
  5
A8
330
1F
100
AcDbEntity
  8
0
  6
Continuous
 62
     1
370
    15
100
AcDbSpline
210
0.0
220
0.0
230
1.0
 70
     8
 71
     3
 72
    11
 73
     7
 74
     0
 42
0.000000001
 43
0.00000001
 40
0.0
 40
0.0
 40
0.0
 40
0.0
 40
0.2451432872213639
 40
0.5001591210993451
 40
0.7550935473484067
 40
1.0
 40
1.0
 40
1.0
 40
1.0
 10
13.00905379379375
 20
4.598368078246628
 30
0.0
 10
12.92326623642347
 20
4.643982966200933
 30
0.0
 10
12.74823623751172
 20
4.737049770219389
 30
0.0
 10
12.44866508171063
 20
4.775547494607584
 30
0.0
 10
12.14913186990777
 20
4.736743242615194
 30
0.0
 10
11.97412189655321
 20
4.643443245021708
 30
0.0
 10
11.88837246395941
 20
4.59772915398282
 30
0.0
  0
SPLINE
  5
A9
330
1F
100
AcDbEntity
  8
0
  6
Continuous
 62
     1
370
    15
100
AcDbSpline
210
0.0
220
0.0
230
1.0
 70
     8
 71
     3
 72
    11
 73
     7
 74
     0
 42
0.000000001
 43
0.00000001
 40
0.0
 40
0.0
 40
0.0
 40
0.0
 40
0.2482192207074115
 40
0.5001364967382329
 40
0.751991574175402
 40
1.0
 40
1.0
 40
1.0
 40
1.0
 10
14.26283228507531
 20
-4.596249629245787
 30
0.0
 10
14.28167504869467
 20
-4.58617806487751
 30
0.0
 10
14.31964130190664
 20
-4.565884886510952
 30
0.0
 10
14.38870811435942
 20
-4.558095909475029
 30
0.0
 10
14.45767838162272
 20
-4.569830900978222
 30
0.0
 10
14.49546354322607
 20
-4.592773851531559
 30
0.0
 10
14.5142107379855
 20
-4.604157049171265
 30
0.0
  0
SPLINE
  5
AA
330
1F
100
AcDbEntity
  8
0
  6
Continuous
 62
     1
370
    15
100
AcDbSpline
210
0.0
220
0.0
230
1.0
 70
     8
 71
     3
 72
     9
 73
     5
 74
     0
 42
0.000000001
 43
0.00000001
 40
0.0
 40
0.0
 40
0.0
 40
0.0
 40
0.499314419806842
 40
1.0
 40
1.0
 40
1.0
 40
1.0
 10
14.50684299950014
 20
-4.602603708605449
 30
0.0
 10
14.5759032716803
 20
-4.641999714879022
 30
0.0
 10
14.7142134614939
 20
-4.72089991225128
 30
0.0
 10
14.87034726925502
 20
-4.748615252072859
 30
0.0
 10
14.94852121538166
 20
-4.762491923071675
 30
0.0
  0
SPLINE
  5
AB
330
1F
100
AcDbEntity
  8
0
  6
Continuous
 62
     1
370
    15
100
AcDbSpline
210
0.0
220
0.0
230
1.0
 70
     8
 71
     3
 72
     9
 73
     5
 74
     0
 42
0.000000001
 43
0.00000001
 40
0.0
 40
0.0
 40
0.0
 40
0.0
 40
0.4966646659184531
 40
0.9999999999999999
 40
0.9999999999999999
 40
0.9999999999999999
 40
0.9999999999999999
 10
14.94956235525653
 20
-4.762498633172405
 30
0.0
 10
15.02987850341309
 20
-4.748332679821967
 30
0.0
 10
15.1915895202579
 20
-4.719810511198914
 30
0.0
 10
15.33442273710966
 20
-4.636780665227706
 30
0.0
 10
15.40631574203168
 20
-4.59498880996705
 30
0.0
  0
SPLINE
  5
AC
330
1F
100
AcDbEntity
  8
0
  6
Continuous
 62
     1
370
    15
100
AcDbSpline
210
0.0
220
0.0
230
1.0
 70
     8
 71
     3
 72
     9
 73
     5
 74
     0
 42
0.000000001
 43
0.00000001
 40
0.0
 40
0.0
 40
0.0
 40
0.0
 40
0.468688912567842
 40
0.9999999999999999
 40
0.9999999999999999
 40
0.9999999999999999
 40
0.9999999999999999
 10
11.88522739771924
 20
4.595857010989128
 30
0.0
 10
11.84790890236751
 20
4.579915338452156
 30
0.0
 10
11.76828573580429
 20
4.545902004427174
 30
0.0
 10
11.69519401661368
 20
4.577936574926786
 30
0.0
 10
11.65635957580822
 20
4.594956897414358
 30
0.0
  0
SPLINE
  5
AD
330
1F
100
AcDbEntity
  8
0
  6
Continuous
 62
     1
370
    15
100
AcDbSpline
210
0.0
220
0.0
230
1.0
 70
     8
 71
     3
 72
     9
 73
     5
 74
     0
 42
0.000000001
 43
0.00000001
 40
0.0
 40
0.0
 40
0.0
 40
0.0
 40
0.50530081641544
 40
1.0
 40
1.0
 40
1.0
 40
1.0
 10
15.40382399841026
 20
-4.596714055532058
 30
0.0
 10
15.44407133795769
 20
-4.579750243858003
 30
0.0
 10
15.52372159428015
 20
-4.546178535436092
 30
0.0
 10
15.5961976038078
 20
-4.577952014599697
 30
0.0
 10
15.63205142655059
 20
-4.593670328801573
 30
0.0
  0
SPLINE
  5
AE
330
1F
100
AcDbEntity
  8
0
  6
Continuous
 62
     1
370
    15
100
AcDbSpline
210
0.0
220
0.0
230
1.0
 70
     8
 71
     3
 72
    11
 73
     7
 74
     0
 42
0.000000001
 43
0.00000001
 40
0.0
 40
0.0
 40
0.0
 40
0.0
 40
0.244945655133591
 40
0.4997909749018434
 40
0.7547430678633105
 40
0.9999999999999999
 40
0.9999999999999999
 40
0.9999999999999999
 40
0.9999999999999999
 10
15.63788914323155
 20
-4.597460373692369
 30
0.0
 10
15.72406699782332
 20
-4.643391814490093
 30
0.0
 10
15.89990565043335
 20
-4.737111050140221
 30
0.0
 10
16.20083906662757
 20
-4.775640667037364
 30
0.0
 10
16.50182096836845
 20
-4.736131561275134
 30
0.0
 10
16.67767957177147
 20
-4.641817931358982
 30
0.0
 10
16.76390460849888
 20
-4.595575120111483
 30
0.0
  0
SPLINE
  5
AF
330
1F
100
AcDbEntity
  8
0
  6
Continuous
 62
     1
370
    15
100
AcDbSpline
210
0.0
220
0.0
230
1.0
 70
     8
 71
     3
 72
     9
 73
     5
 74
     0
 42
0.000000001
 43
0.00000001
 40
0.0
 40
0.0
 40
0.0
 40
0.0
 40
0.5126630800206308
 40
1.0
 40
1.0
 40
1.0
 40
1.0
 10
11.65790067222539
 20
4.593800608279407
 30
0.0
 10
11.58634660622818
 20
4.635871256683578
 30
0.0
 10
11.44677332938067
 20
4.717934213903899
 30
0.0
 10
11.28152472882003
 20
4.747867704076863
 30
0.0
 10
11.2009929847919
 20
4.762455398981989
 30
0.0
  0
SPLINE
  5
B3
330
1F
100
AcDbEntity
  8
0
  6
Continuous
 62
     1
370
    15
100
AcDbSpline
210
0.0
220
0.0
230
1.0
 70
     8
 71
     3
 72
     9
 73
     5
 74
     0
 42
0.000000001
 43
0.00000001
 40
0.0
 40
0.0
 40
0.0
 40
0.0
 40
0.5014673578090286
 40
1.0
 40
1.0
 40
1.0
 40
1.0
 10
11.19692618153407
 20
4.762419181352546
 30
0.0
 10
11.11741646114114
 20
4.748245951426907
 30
0.0
 10
10.95886233163545
 20
4.719982436952974
 30
0.0
 10
10.81745667523686
 20
4.638608132504032
 30
0.0
 10
10.74696133973173
 20
4.598040385500648
 30
0.0
  0
SPLINE
  5
B4
330
1F
100
AcDbEntity
  8
0
  6
Continuous
 62
     1
370
    15
100
AcDbSpline
210
0.0
220
0.0
230
1.0
 70
     8
 71
     3
 72
     9
 73
     5
 74
     0
 42
0.000000001
 43
0.00000001
 40
0.0
 40
0.0
 40
0.0
 40
0.0
 40
0.4741046758586184
 40
1.0
 40
1.0
 40
1.0
 40
1.0
 10
21.19731179593424
 20
4.762443700822749
 30
0.0
 10
21.1196160179744
 20
4.748579077232404
 30
0.0
 10
20.95573706483157
 20
4.719335274552677
 30
0.0
 10
20.81525271682558
 20
4.637319994014187
 30
0.0
 10
20.74137265509417
 20
4.594188541470851
 30
0.0
  0
SPLINE
  5
B5
330
1F
100
AcDbEntity
  8
0
  6
Continuous
 62
     1
370
    15
100
AcDbSpline
210
0.0
220
0.0
230
1.0
 70
     8
 71
     3
 72
     9
 73
     5
 74
     0
 42
0.000000001
 43
0.00000001
 40
0.0
 40
0.0
 40
0.0
 40
0.0
 40
0.4577412622345856
 40
1.0
 40
1.0
 40
1.0
 40
1.0
 10
10.74173559769327
 20
4.594466778860544
 30
0.0
 10
10.71048706973505
 20
4.579530910099689
 30
0.0
 10
10.64222027681874
 20
4.546901409564947
 30
0.0
 10
10.55902519120878
 20
4.578458367757538
 30
0.0
 10
10.51391192909763
 20
4.595570404074768
 30
0.0
  0
SPLINE
  5
B6
330
1F
100
AcDbEntity
  8
0
  6
Continuous
 62
     1
370
    15
100
AcDbSpline
210
0.0
220
0.0
230
1.0
 70
     8
 71
     3
 72
    10
 73
     6
 74
     0
 42
0.000000001
 43
0.00000001
 40
0.0
 40
0.0
 40
0.0
 40
0.0
 40
0.3840792189048703
 40
0.7419425459503162
 40
0.9999999999999999
 40
0.9999999999999999
 40
0.9999999999999999
 40
0.9999999999999999
 10
10.51638879456603
 20
4.593888218643506
 30
0.0
 10
10.45470478859066
 20
4.628743640946371
 30
0.0
 10
10.33554710917162
 20
4.69607537744932
 30
0.0
 10
10.15823558111112
 20
4.747713089433175
 30
0.0
 10
10.04718524594864
 20
4.755520462387569
 30
0.0
 10
10.00065756309884
 20
4.758791582390771
 30
0.0
  0
SPLINE
  5
B7
330
1F
100
AcDbEntity
  8
0
  6
Continuous
 62
     1
370
    15
100
AcDbSpline
210
0.0
220
0.0
230
1.0
 70
     8
 71
     3
 72
     9
 73
     5
 74
     0
 42
0.000000001
 43
0.00000001
 40
0.0
 40
0.0
 40
0.0
 40
0.0
 40
0.4924916978724238
 40
0.9999999999999999
 40
0.9999999999999999
 40
0.9999999999999999
 40
0.9999999999999999
 10
16.76721224122328
 20
-4.593290764282349
 30
0.0
 10
16.80161969243505
 20
-4.577777798592602
 30
0.0
 10
16.87148371524072
 20
-4.5462788601196
 30
0.0
 10
16.95359066611083
 20
-4.579901964060594
 30
0.0
 10
16.99526062533979
 20
-4.596965968453948
 30
0.0
  0
SPLINE
  5
B8
330
1F
100
AcDbEntity
  8
0
  6
Continuous
 62
     1
370
    15
100
AcDbSpline
210
0.0
220
0.0
230
1.0
 70
     8
 71
     3
 72
     9
 73
     5
 74
     0
 42
0.000000001
 43
0.00000001
 40
0.0
 40
0.0
 40
0.0
 40
0.0
 40
0.5343686939868658
 40
1.0
 40
1.0
 40
1.0
 40
1.0
 10
20.74291018765364
 20
4.595340435312402
 30
0.0
 10
20.70250513224277
 20
4.578141462768286
 30
0.0
 10
20.62689244035879
 20
4.545955871176466
 30
0.0
 10
20.54974714522719
 20
4.579845616152214
 30
0.0
 10
20.5138258807023
 20
4.595625742365724
 30
0.0
  0
SPLINE
  5
B9
330
1F
100
AcDbEntity
  8
0
  6
Continuous
 62
     1
370
    15
100
AcDbSpline
210
0.0
220
0.0
230
1.0
 70
     8
 71
     3
 72
     9
 73
     5
 74
     0
 42
0.000000001
 43
0.00000001
 40
0.0
 40
0.0
 40
0.0
 40
0.0
 40
0.5266440954827566
 40
1.0
 40
1.0
 40
1.0
 40
1.0
 10
16.99275017238713
 20
-4.595223824099496
 30
0.0
 10
17.06861436103515
 20
-4.638896390901452
 30
0.0
 10
17.21266646244243
 20
-4.721822540034335
 30
0.0
 10
17.37291203178022
 20
-4.749428797929061
 30
0.0
 10
17.44876521819899
 20
-4.762496383105156
 30
0.0
  0
SPLINE
  5
BA
330
1F
100
AcDbEntity
  8
0
  6
Continuous
 62
     1
370
    15
100
AcDbSpline
210
0.0
220
0.0
230
1.0
 70
     8
 71
     3
 72
    11
 73
     7
 74
     0
 42
0.000000001
 43
0.00000001
 40
0.0
 40
0.0
 40
0.0
 40
0.0
 40
0.2451258339852775
 40
0.5001484286005199
 40
0.7550950678472856
 40
1.0
 40
1.0
 40
1.0
 40
1.0
 10
20.51016202513382
 20
4.597788473133578
 30
0.0
 10
20.42442954613136
 20
4.64347520740774
 30
0.0
 10
20.24950320745878
 20
4.736693241523574
 30
0.0
 10
19.95010814678364
 20
4.775529237776667
 30
0.0
 10
19.65074863288363
 20
4.737150732047125
 30
0.0
 10
19.47584167256356
 20
4.644198623273346
 30
0.0
 10
19.39014507841205
 20
4.598656243904691
 30
0.0
  0
LINE
  5
BB
330
1F
100
AcDbEntity
  8
외형선
  6
Continuous
370
    15
100
AcDbLine
 10
9.999999999999996
 20
4.656329697304521
 30
0.0
 11
9.599708028956504
 21
4.69882881703678
 31
0.0
  0
SPLINE
  5
BC
330
1F
100
AcDbEntity
  8
0
  6
Continuous
 62
     1
370
    15
100
AcDbSpline
210
0.0
220
0.0
230
1.0
 70
     8
 71
     3
 72
     9
 73
     5
 74
     0
 42
0.000000001
 43
0.00000001
 40
0.0
 40
0.0
 40
0.0
 40
0.0
 40
0.5006536899855384
 40
1.0
 40
1.0
 40
1.0
 40
1.0
 10
17.45053798667082
 20
-4.762475729412775
 30
0.0
 10
17.52875865009146
 20
-4.748565455570358
 30
0.0
 10
17.6849957157224
 20
-4.720781232422378
 30
0.0
 10
17.82340965428561
 20
-4.641785680880164
 30
0.0
 10
17.89252614376172
 20
-4.602339543710003
 30
0.0
  0
SPLINE
  5
BD
330
1F
100
AcDbEntity
  8
외형선
  6
Continuous
370
    15
100
AcDbSpline
210
0.0
220
0.0
230
1.0
 70
     8
 71
     3
 72
     9
 73
     5
 74
     0
 42
0.000000001
 43
0.00000001
 40
0.0
 40
0.0
 40
0.0
 40
0.0
 40
0.5065762734580297
 40
1.0
 40
1.0
 40
1.0
 40
1.0
 10
9.60795894548066
 20
4.703638528391592
 30
0.0
 10
9.571093696486644
 20
4.689423713689161
 30
0.0
 10
9.498320353308996
 20
4.661363152136605
 30
0.0
 10
9.431308921676244
 20
4.621428867675285
 30
0.0
 10
9.3982438913591
 20
4.601724344219596
 30
0.0
  0
SPLINE
  5
BE
330
1F
100
AcDbEntity
  8
외형선
  6
Continuous
370
    15
100
AcDbSpline
210
0.0
220
0.0
230
1.0
 70
     8
 71
     3
 72
    11
 73
     7
 74
     0
 42
0.000000001
 43
0.00000001
 40
0.0
 40
0.0
 40
0.0
 40
0.0
 40
0.2480344006223132
 40
0.4997247334275876
 40
0.7515485823544573
 40
1.0
 40
1.0
 40
1.0
 40
1.0
 10
9.402058187836797
 20
4.602509593095884
 30
0.0
 10
9.383283189567495
 20
4.591446213815121
 30
0.0
 10
9.345456456736525
 20
4.569156385275146
 30
0.0
 10
9.276599259589782
 20
4.558363364281274
 30
0.0
 10
9.207862370396095
 20
4.567055209075481
 30
0.0
 10
9.170352750148352
 20
4.587753004416977
 30
0.0
 10
9.151724369037792
 20
4.598032138602374
 30
0.0
  0
SPLINE
  5
BF
330
1F
100
AcDbEntity
  8
0
  6
Continuous
 62
     1
370
    15
100
AcDbSpline
210
0.0
220
0.0
230
1.0
 70
     8
 71
     3
 72
    11
 73
     7
 74
     0
 42
0.000000001
 43
0.00000001
 40
0.0
 40
0.0
 40
0.0
 40
0.0
 40
0.2483862983718827
 40
0.5003265093274991
 40
0.7521091222376688
 40
0.9999999999999999
 40
0.9999999999999999
 40
0.9999999999999999
 40
0.9999999999999999
 10
17.88528618837291
 20
-4.604041989094634
 30
0.0
 10
17.90399729545075
 20
-4.592719090084139
 30
0.0
 10
17.94168722823398
 20
-4.569911283959073
 30
0.0
 10
18.01063339131466
 20
-4.558299913735274
 30
0.0
 10
18.0797023824905
 20
-4.566207677909445
 30
0.0
 10
18.11772720980841
 20
-4.586592010669305
 30
0.0
 10
18.1365915442119
 20
-4.596704794786871
 30
0.0
  0
SPLINE
  5
C1
330
1F
100
AcDbEntity
  8
외형선
  6
Continuous
370
    15
100
AcDbSpline
210
0.0
220
0.0
230
1.0
 70
     8
 71
     3
 72
     9
 73
     5
 74
     0
 42
0.000000001
 43
0.00000001
 40
0.0
 40
0.0
 40
0.0
 40
0.0
 40
0.4993217891213771
 40
1.0
 40
1.0
 40
1.0
 40
1.0
 10
9.156024226784464
 20
4.595199669527942
 30
0.0
 10
9.086863693957506
 20
4.635298453981627
 30
0.0
 10
8.948354751760824
 20
4.715604952370662
 30
0.0
 10
8.792041632452696
 20
4.74477908797003
 30
0.0
 10
8.71377905954065
 20
4.759385941985851
 30
0.0
  0
SPLINE
  5
C2
330
1F
100
AcDbEntity
  8
0
  6
Continuous
 62
     1
370
    15
100
AcDbSpline
210
0.0
220
0.0
230
1.0
 70
     8
 71
     3
 72
     9
 73
     5
 74
     0
 42
0.000000001
 43
0.00000001
 40
0.0
 40
0.0
 40
0.0
 40
0.0
 40
0.490677754974099
 40
1.0
 40
1.0
 40
1.0
 40
1.0
 10
18.12865422874147
 20
-4.591000290661409
 30
0.0
 10
18.21315229139684
 20
-4.63763829383213
 30
0.0
 10
18.3853591253093
 20
-4.732686424092658
 30
0.0
 10
18.58063765628344
 20
-4.749115859744389
 30
0.0
 10
18.68009735608454
 20
-4.757483736795037
 30
0.0
  0
LINE
  5
C3
330
1F
100
AcDbEntity
  8
0
  6
Continuous
 62
     1
370
    15
100
AcDbLine
 10
19.02496353173716
 20
-4.695363346451387
 30
0.0
 11
19.07063553998551
 21
-4.674994710085338
 31
0.0
  0
SPLINE
  5
C4
330
1F
100
AcDbEntity
  8
0
  6
Continuous
 62
     1
370
    15
100
AcDbSpline
210
0.0
220
0.0
230
1.0
 70
     8
 71
     3
 72
    11
 73
     7
 74
     0
 42
0.000000001
 43
0.00000001
 40
0.0
 40
0.0
 40
0.0
 40
0.0
 40
0.2476141952256527
 40
0.4998190589200523
 40
0.7521117082753719
 40
1.0
 40
1.0
 40
1.0
 40
1.0
 10
19.41153379470045
 20
4.602647386365106
 30
0.0
 10
19.39242967083386
 20
4.591056707091601
 30
0.0
 10
19.35386724025998
 20
4.567660461971453
 30
0.0
 10
19.28423454425499
 20
4.555823047810193
 30
0.0
 10
19.21471562804658
 20
4.563576012673654
 30
0.0
 10
19.17644289898302
 20
4.584003047891258
 30
0.0
 10
19.15747504025829
 20
4.594126630077651
 30
0.0
  0
SPLINE
  5
C5
330
1F
100
AcDbEntity
  8
0
  6
Continuous
 62
     1
370
    15
100
AcDbSpline
210
0.0
220
0.0
230
1.0
 70
     8
 71
     3
 72
     9
 73
     5
 74
     0
 42
0.000000001
 43
0.00000001
 40
0.0
 40
0.0
 40
0.0
 40
0.0
 40
0.9250486680348043
 40
1.0
 40
1.0
 40
1.0
 40
1.0
 10
19.16341718334589
 20
4.589115243871613
 30
0.0
 10
19.09577640507587
 20
4.63293119923008
 30
0.0
 10
19.0226550865903
 20
4.680297307492846
 30
0.0
 10
18.9398681016015
 20
4.700235881583771
 30
0.0
 10
18.93366310680722
 20
4.701730304269373
 30
0.0
  0
SPLINE
  5
C6
330
1F
100
AcDbEntity
  8
0
  6
Continuous
 62
     1
370
    15
100
AcDbSpline
210
0.0
220
0.0
230
1.0
 70
     8
 71
     3
 72
    10
 73
     6
 74
     0
 42
0.000000001
 43
0.00000001
 40
0.0
 40
0.0
 40
0.0
 40
0.0
 40
0.5
 40
0.5
 40
1.0
 40
1.0
 40
1.0
 40
1.0
 10
13.6516360311695
 20
-1.484180141002733
 30
0.0
 10
13.82546011165337
 20
-1.558879328792672
 30
0.0
 10
14.01532424686141
 20
-1.667391025705694
 30
0.0
 10
14.37804634027735
 20
-1.861321779860367
 30
0.0
 10
14.54711151182386
 20
-1.946177908480577
 30
0.0
 10
14.68610050589587
 20
-2.016901916902039
 30
0.0
  0
SPLINE
  5
C7
330
1F
100
AcDbEntity
  8
0
  6
Continuous
 62
     1
370
    15
100
AcDbSpline
210
0.0
220
0.0
230
1.0
 70
     8
 71
     3
 72
    10
 73
     6
 74
     0
 42
0.000000001
 43
0.00000001
 40
0.0
 40
0.0
 40
0.0
 40
0.0
 40
0.5
 40
0.5
 40
1.0
 40
1.0
 40
1.0
 40
1.0
 10
14.93335212520723
 20
0.7681591763334911
 30
0.0
 10
14.75946981773925
 20
0.8265491939505601
 30
0.0
 10
14.56957077655474
 20
0.9312770449125081
 30
0.0
 10
14.20677869128574
 20
1.13660474301491
 30
0.0
 10
14.0376762175937
 20
1.236504965510913
 30
0.0
 10
13.89879959296178
 20
1.329032418926568
 30
0.0
  0
SPLINE
  5
C8
330
1F
100
AcDbEntity
  8
외형선
  6
Continuous
370
    15
100
AcDbSpline
210
0.0
220
0.0
230
1.0
 70
     8
 71
     3
 72
     8
 73
     4
 74
     0
 42
0.000000001
 43
0.00000001
 40
0.0
 40
0.0
 40
0.0
 40
0.0
 40
1.0
 40
1.0
 40
1.0
 40
1.0
 10
8.479855950898672
 20
1.415264873610711
 30
0.0
 10
8.528767958568604
 20
1.372432120295832
 30
0.0
 10
8.574810603919973
 20
1.328016525993865
 30
0.0
 10
8.617867364470179
 20
1.281754139878133
 30
0.0
  0
SPLINE
  5
C9
330
1F
100
AcDbEntity
  8
외형선
  6
Continuous
370
    15
100
AcDbSpline
210
0.0
220
0.0
230
1.0
 70
     8
 71
     3
 72
    23
 73
    19
 74
     0
 42
0.000000001
 43
0.00000001
 40
0.0
 40
0.0
 40
0.0
 40
0.0
 40
0.0572758189925852
 40
0.1147516207450817
 40
0.1791152693499367
 40
0.243478917954792
 40
0.3070391032933491
 40
0.3705992886319113
 40
0.4349629372367627
 40
0.4993265858416182
 40
0.5628867711801748
 40
0.6264469565187367
 40
0.6908106051235926
 40
0.7551742537284438
 40
0.8187344390670034
 40
0.8822946244055634
 40
0.9466582730104198
 40
1.0
 40
1.0
 40
1.0
 40
1.0
 10
8.429763203804344
 20
3.711634479223319
 30
0.0
 10
8.411443118907563
 20
3.564643846346249
 30
0.0
 10
8.374738983182064
 20
3.270149351921426
 30
0.0
 10
8.317315563673716
 20
2.722677816903185
 30
0.0
 10
8.255559721637216
 20
2.096720315946758
 30
0.0
 10
8.191759144982017
 20
1.396646266011747
 30
0.0
 10
8.130555552283882
 20
0.6655251510998828
 30
0.0
 10
8.069350058724925
 20
-0.0819668714990485
 30
0.0
 10
8.005555256839267
 20
-0.8304518490933405
 30
0.0
 10
7.94176033523669
 20
-1.558331053123755
 30
0.0
 10
7.88055519635139
 20
-2.24496528254633
 30
0.0
 10
7.81935030119891
 20
-2.876747778723128
 30
0.0
 10
7.755554639141871
 20
-3.440189875533768
 30
0.0
 10
7.691762548130627
 20
-3.918001219440804
 30
0.0
 10
7.63054707338858
 20
-4.2984845099947
 30
0.0
 10
7.569380785520702
 20
-4.570656175170662
 30
0.0
 10
7.509104394903451
 20
-4.733761428521707
 30
0.0
 10
7.470351573266954
 20
-4.747614863473776
 30
0.0
 10
7.452789567951814
 20
-4.753892963699441
 30
0.0
  0
SPLINE
  5
CA
330
1F
100
AcDbEntity
  8
외형선
  6
Continuous
370
    15
100
AcDbSpline
210
0.0
220
0.0
230
1.0
 70
     8
 71
     3
 72
    12
 73
     8
 74
     0
 42
0.000000001
 43
0.00000001
 40
0.0
 40
0.0
 40
0.0
 40
0.0
 40
0.0271819366138494
 40
0.2577198642503544
 40
0.5032299582677321
 40
0.7518304612711474
 40
1.0
 40
1.0
 40
1.0
 40
1.0
 10
6.19929990750129
 20
4.756388950656945
 30
0.0
 10
6.196825425454506
 20
4.758372387825163
 30
0.0
 10
6.173364139886557
 20
4.777177933765616
 30
0.0
 10
6.129346123808761
 20
4.700157156856268
 30
0.0
 10
6.065307980743962
 20
4.50939592290864
 30
0.0
 10
5.997162920045556
 20
4.182504559398518
 30
0.0
 10
5.952216849609433
 20
3.868500903930446
 30
0.0
 10
5.929763310485151
 20
3.711635280421928
 30
0.0
  0
SPLINE
  5
CB
330
1F
100
AcDbEntity
  8
외형선
  6
Continuous
370
    15
100
AcDbSpline
210
0.0
220
0.0
230
1.0
 70
     8
 71
     3
 72
     8
 73
     4
 74
     0
 42
0.000000001
 43
0.00000001
 40
0.0
 40
0.0
 40
0.0
 40
0.0
 40
1.0
 40
1.0
 40
1.0
 40
1.0
 10
8.479855950898672
 20
4.05449202690621
 30
0.0
 10
8.462992346508278
 20
3.950120915869964
 30
0.0
 10
8.446230768305538
 20
3.835310139306059
 30
0.0
 10
8.429762643909244
 20
3.711630274270816
 30
0.0
  0
SPLINE
  5
CC
330
1F
100
AcDbEntity
  8
외형선
  6
Continuous
370
    15
100
AcDbSpline
210
0.0
220
0.0
230
1.0
 70
    24
 71
     3
 72
     8
 73
     4
 74
     0
 42
0.000000001
 43
0.00000001
 40
0.0
 40
0.0
 40
0.0
 40
0.0
 40
1.0
 40
1.0
 40
1.0
 40
1.0
 10
8.479855950898672
 20
4.054492026906232
 30
0.0
 10
8.479855950898672
 20
3.984065743640613
 30
0.0
 10
8.479855950898672
 20
3.908982414583086
 30
0.0
 10
8.479855950898672
 20
3.829247961051105
 30
0.0
  0
SPLINE
  5
CD
330
1F
100
AcDbEntity
  8
외형선
  6
Continuous
370
    15
100
AcDbSpline
210
0.0
220
0.0
230
1.0
 70
     8
 71
     3
 72
     8
 73
     4
 74
     0
 42
0.000000001
 43
0.00000001
 40
0.0
 40
0.0
 40
0.0
 40
0.0
 40
1.0
 40
1.0
 40
1.0
 40
1.0
 10
8.864949242482117
 20
3.615558955377839
 30
0.0
 10
8.743216428499569
 20
3.696529551962679
 30
0.0
 10
8.610984935386297
 20
3.772145864851367
 30
0.0
 10
8.479855950898672
 20
3.829264285432916
 30
0.0
  0
SPLINE
  5
CE
330
1F
100
AcDbEntity
  8
외형선
  6
Continuous
370
    15
100
AcDbSpline
210
0.0
220
0.0
230
1.0
 70
    24
 71
     3
 72
     8
 73
     4
 74
     0
 42
0.000000001
 43
0.00000001
 40
0.0
 40
0.0
 40
0.0
 40
0.0
 40
1.0
 40
1.0
 40
1.0
 40
1.0
 10
8.479855950898672
 20
1.415291199491898
 30
0.0
 10
8.479855950898672
 20
0.852771789925374
 30
0.0
 10
8.479855950898662
 20
0.2649736977586283
 30
0.0
 10
8.479855950898662
 20
-0.3143228194044264
 30
0.0
  0
SPLINE
  5
CF
330
1F
100
AcDbEntity
  8
0
  6
Continuous
 62
     1
370
    15
100
AcDbSpline
210
0.0
220
0.0
230
1.0
 70
     8
 71
     3
 72
    12
 73
     8
 74
     0
 42
0.000000001
 43
0.00000001
 40
0.0
 40
0.0
 40
0.0
 40
0.0
 40
0.4999999999999999
 40
0.4999999999999999
 40
0.7499999999999998
 40
0.7499999999999998
 40
1.0
 40
1.0
 40
1.0
 40
1.0
 10
15.60401730560201
 20
0.3395066066419195
 30
0.0
 10
15.56553871988695
 20
-0.1263827742621486
 30
0.0
 10
15.52489920011712
 20
-0.6058587739018034
 30
0.0
 10
15.46460339527443
 20
-1.298605871432817
 30
0.0
 10
15.44462318315046
 20
-1.525070086996227
 30
0.0
 10
15.40554519835153
 20
-1.96194898122064
 30
0.0
 10
15.38684082163709
 20
-2.170985430219799
 30
0.0
 10
15.36787437295633
 20
-2.372531797951341
 30
0.0
  0
SPLINE
  5
D0
330
1F
100
AcDbEntity
  8
0
  6
Continuous
 62
     1
370
    15
100
AcDbSpline
210
0.0
220
0.0
230
1.0
 70
     8
 71
     3
 72
     8
 73
     4
 74
     0
 42
0.000000001
 43
0.00000001
 40
0.0
 40
0.0
 40
0.0
 40
0.0
 40
1.0
 40
1.0
 40
1.0
 40
1.0
 10
14.95039132722093
 20
-2.148366953303543
 30
0.0
 10
15.08234855891573
 20
-2.215779199857375
 30
0.0
 10
15.22617452194833
 20
-2.29826978717698
 30
0.0
 10
15.36787437295628
 20
-2.372531797951963
 30
0.0
  0
SPLINE
  5
D1
330
1F
100
AcDbEntity
  8
0
  6
Continuous
 62
     1
370
    15
100
AcDbSpline
210
0.0
220
0.0
230
1.0
 70
     8
 71
     3
 72
     8
 73
     4
 74
     0
 42
0.000000001
 43
0.00000001
 40
0.0
 40
0.0
 40
0.0
 40
0.0
 40
1.0
 40
1.0
 40
1.0
 40
1.0
 10
15.60401730560221
 20
0.3395066066416763
 30
0.0
 10
15.45369028998758
 20
0.4318607556424439
 30
0.0
 10
15.31404825816753
 20
0.5273378017696685
 30
0.0
 10
15.1975271138494
 20
0.6217096809893747
 30
0.0
  0
SPLINE
  5
D2
330
1F
100
AcDbEntity
  8
0
  6
Continuous
 62
     1
370
    15
100
AcDbSpline
210
0.0
220
0.0
230
1.0
 70
     8
 71
     3
 72
    10
 73
     6
 74
     0
 42
0.000000001
 43
0.00000001
 40
0.0
 40
0.0
 40
0.0
 40
0.0
 40
0.5000000000000001
 40
0.5000000000000001
 40
1.0
 40
1.0
 40
1.0
 40
1.0
 10
11.26816974743183
 20
-0.1804121406440922
 30
0.0
 10
11.44193714270864
 20
-0.224704187000672
 30
0.0
 10
11.63146352698361
 20
-0.3250813278839745
 30
0.0
 10
11.99374533245078
 20
-0.5361817613899925
 30
0.0
 10
12.16272516234053
 20
-0.6461876664329903
 30
0.0
 10
12.30152605239972
 20
-0.7543050292103705
 30
0.0
  0
SPLINE
  5
D3
330
1F
100
AcDbEntity
  8
0
  6
Continuous
 62
     1
370
    15
100
AcDbSpline
210
0.0
220
0.0
230
1.0
 70
     8
 71
     3
 72
    10
 73
     6
 74
     0
 42
0.000000001
 43
0.00000001
 40
0.0
 40
0.0
 40
0.0
 40
0.0
 40
0.5
 40
0.5
 40
1.0
 40
1.0
 40
1.0
 40
1.0
 10
12.54868511181167
 20
2.029732993045675
 30
0.0
 10
12.37489308426079
 20
2.115676914202608
 30
0.0
 10
12.18504304955364
 20
2.22502014948014
 30
0.0
 10
11.82266976930998
 20
2.406367963816346
 30
0.0
 10
11.65396790022765
 20
2.477994617334939
 30
0.0
 10
11.51530890947806
 20
2.530116108914334
 30
0.0
  0
SPLINE
  5
D4
330
1F
100
AcDbEntity
  8
0
  6
Continuous
 62
     1
370
    15
100
AcDbSpline
210
0.0
220
0.0
230
1.0
 70
     8
 71
     3
 72
     8
 73
     4
 74
     0
 42
0.000000001
 43
0.00000001
 40
0.0
 40
0.0
 40
0.0
 40
0.0
 40
1.0
 40
1.0
 40
1.0
 40
1.0
 10
12.98225748145519
 20
-1.095760042596309
 30
0.0
 10
13.13232607721983
 20
-1.182567937065639
 30
0.0
 10
13.27177596713184
 20
-1.265876521643522
 30
0.0
 10
13.38792446364431
 20
-1.343448354311865
 30
0.0
  0
SPLINE
  5
D5
330
1F
100
AcDbEntity
  8
0
  6
Continuous
 62
     1
370
    15
100
AcDbSpline
210
0.0
220
0.0
230
1.0
 70
     8
 71
     3
 72
    12
 73
     8
 74
     0
 42
0.000000001
 43
0.00000001
 40
0.0
 40
0.0
 40
0.0
 40
0.0
 40
0.2500000000000001
 40
0.2500000000000001
 40
0.5
 40
0.5
 40
1.0
 40
1.0
 40
1.0
 40
1.0
 10
13.21798301054098
 20
1.681124554399972
 30
0.0
 10
13.19795231930885
 20
1.459515628670772
 30
0.0
 10
13.17813365169984
 20
1.232431841512384
 30
0.0
 10
13.13954840859673
 20
0.775086921777612
 30
0.0
 10
13.12110436150501
 20
0.5461698928626451
 30
0.0
 10
13.06320131575968
 20
-0.154197545100894
 30
0.0
 10
13.02247964300191
 20
-0.6341414159618245
 30
0.0
 10
12.98225751045715
 20
-1.095760059372596
 30
0.0
  0
SPLINE
  5
D6
330
1F
100
AcDbEntity
  8
0
  6
Continuous
 62
     1
370
    15
100
AcDbSpline
210
0.0
220
0.0
230
1.0
 70
     8
 71
     3
 72
     8
 73
     4
 74
     0
 42
0.000000001
 43
0.00000001
 40
0.0
 40
0.0
 40
0.0
 40
0.0
 40
1.0
 40
1.0
 40
1.0
 40
1.0
 10
13.63492544700323
 20
1.469163044012844
 30
0.0
 10
13.50316800415731
 20
1.525364169449126
 30
0.0
 10
13.35957980558609
 20
1.604461790901474
 30
0.0
 10
13.21798301054097
 20
1.681124554399995
 30
0.0
  0
SPLINE
  5
D7
330
1F
100
AcDbEntity
  8
0
  6
Continuous
 62
     1
370
    15
100
AcDbSpline
210
0.0
220
0.0
230
1.0
 70
     8
 71
     3
 72
     8
 73
     4
 74
     0
 42
0.000000001
 43
0.00000001
 40
0.0
 40
0.0
 40
0.0
 40
0.0
 40
1.0
 40
1.0
 40
1.0
 40
1.0
 10
15.36787434390445
 20
-2.372531783999937
 30
0.0
 10
15.51800043977983
 20
-2.444629249262658
 30
0.0
 10
15.65774466654114
 20
-2.50156136946742
 30
0.0
 10
15.77420850544717
 20
-2.544377118625072
 30
0.0
  0
SPLINE
  5
D8
330
1F
100
AcDbEntity
  8
0
  6
Continuous
 62
     1
370
    15
100
AcDbSpline
210
0.0
220
0.0
230
1.0
 70
     8
 71
     3
 72
     8
 73
     4
 74
     0
 42
0.000000001
 43
0.00000001
 40
0.0
 40
0.0
 40
0.0
 40
0.0
 40
1.0
 40
1.0
 40
1.0
 40
1.0
 10
16.02130316891946
 20
0.1633481030092359
 30
0.0
 10
15.88946877362254
 20
0.1957036995472742
 30
0.0
 10
15.74566416682511
 20
0.2632309422089218
 30
0.0
 10
15.604017305602
 20
0.3395066066419341
 30
0.0
  0
SPLINE
  5
D9
330
1F
100
AcDbEntity
  8
0
  6
Continuous
 62
     1
370
    15
100
AcDbSpline
210
0.0
220
0.0
230
1.0
 70
     8
 71
     3
 72
     8
 73
     4
 74
     0
 42
0.000000001
 43
0.00000001
 40
0.0
 40
0.0
 40
0.0
 40
0.0
 40
1.0
 40
1.0
 40
1.0
 40
1.0
 10
12.56530388268654
 20
-0.8983796156343723
 30
0.0
 10
12.69701063371166
 20
-0.9442665832796354
 30
0.0
 10
12.840693606492
 20
-1.018635756617377
 30
0.0
 10
12.98225751045715
 20
-1.0957600593726
 30
0.0
  0
SPLINE
  5
DA
330
1F
100
AcDbEntity
  8
0
  6
Continuous
 62
     1
370
    15
100
AcDbSpline
210
0.0
220
0.0
230
1.0
 70
     8
 71
     3
 72
     8
 73
     4
 74
     0
 42
0.000000001
 43
0.00000001
 40
0.0
 40
0.0
 40
0.0
 40
0.0
 40
1.0
 40
1.0
 40
1.0
 40
1.0
 10
13.21798301054113
 20
1.681124554399828
 30
0.0
 10
13.06805494534071
 20
1.76216908716413
 30
0.0
 10
12.92855420745728
 20
1.834307501519896
 30
0.0
 10
12.81234141650507
 20
1.896862038537872
 30
0.0
  0
SPLINE
  5
DB
330
1F
100
AcDbEntity
  8
0
  6
Continuous
 62
     1
370
    15
100
AcDbSpline
210
0.0
220
0.0
230
1.0
 70
     8
 71
     3
 72
    10
 73
     6
 74
     0
 42
0.000000001
 43
0.00000001
 40
0.0
 40
0.0
 40
0.0
 40
0.0
 40
0.5000000000000001
 40
0.5000000000000001
 40
1.0
 40
1.0
 40
1.0
 40
1.0
 10
22.43849345225903
 20
0.8281023484646394
 30
0.0
 10
22.3192853665142
 20
0.6803357449756466
 30
0.0
 10
22.19913066004399
 20
0.5204564167414127
 30
0.0
 10
21.95731554933278
 20
0.1814312238883136
 30
0.0
 10
21.83865282371946
 20
0.0062610600303629
 30
0.0
 10
21.72451064456011
 20
-0.1700061267343377
 30
0.0
  0
SPLINE
  5
DC
330
1F
100
AcDbEntity
  8
0
  6
Continuous
 62
     1
370
    15
100
AcDbSpline
210
0.0
220
0.0
230
1.0
 70
     8
 71
     3
 72
     8
 73
     4
 74
     0
 42
0.000000001
 43
0.00000001
 40
0.0
 40
0.0
 40
0.0
 40
0.0
 40
1.0
 40
1.0
 40
1.0
 40
1.0
 10
21.28500398933881
 20
0.0134796926307149
 30
0.0
 10
21.42538271951339
 20
-0.0183753605340693
 30
0.0
 10
21.57647931242617
 20
-0.0894423210327907
 30
0.0
 10
21.72451064456011
 20
-0.1700061267343387
 30
0.0
  0
SPLINE
  5
DD
330
1F
100
AcDbEntity
  8
0
  6
Continuous
 62
     1
370
    15
100
AcDbSpline
210
0.0
220
0.0
230
1.0
 70
     8
 71
     3
 72
    10
 73
     6
 74
     0
 42
0.000000001
 43
0.00000001
 40
0.0
 40
0.0
 40
0.0
 40
0.0
 40
0.5
 40
0.5
 40
1.0
 40
1.0
 40
1.0
 40
1.0
 10
22.56579974530973
 20
2.202716987254046
 30
0.0
 10
22.39212323425793
 20
2.292519321441532
 30
0.0
 10
22.20243170502366
 20
2.401862819656732
 30
0.0
 10
21.83996590226257
 20
2.578132418513959
 30
0.0
 10
21.67100768469422
 20
2.644620671920708
 30
0.0
 10
21.53219347233228
 20
2.690132065279399
 30
0.0
  0
SPLINE
  5
DE
330
1F
100
AcDbEntity
  8
0
  6
Continuous
 62
     1
370
    15
100
AcDbSpline
210
0.0
220
0.0
230
1.0
 70
     8
 71
     3
 72
    10
 73
     6
 74
     0
 42
0.000000001
 43
0.00000001
 40
0.0
 40
0.0
 40
0.0
 40
0.0
 40
0.5
 40
0.5
 40
1.0
 40
1.0
 40
1.0
 40
1.0
 10
16.03810715926421
 20
-2.665415397892525
 30
0.0
 10
16.2119170893598
 20
-2.763913952958595
 30
0.0
 10
16.4017727189424
 20
-2.871893375827485
 30
0.0
 10
16.76427523139225
 20
-3.033006875491481
 30
0.0
 10
16.93313945905617
 20
-3.085823768600148
 30
0.0
 10
17.07178307444882
 20
-3.113265712426465
 30
0.0
  0
SPLINE
  5
DF
330
1F
100
AcDbEntity
  8
0
  6
Continuous
 62
     1
370
    15
100
AcDbSpline
210
0.0
220
0.0
230
1.0
 70
     8
 71
     3
 72
    10
 73
     6
 74
     0
 42
0.000000001
 43
0.00000001
 40
0.0
 40
0.0
 40
0.0
 40
0.0
 40
0.5
 40
0.5
 40
1.0
 40
1.0
 40
1.0
 40
1.0
 10
17.31888540161204
 20
-0.5586969954132294
 30
0.0
 10
17.14513671864971
 20
-0.5328928412722743
 30
0.0
 10
16.95558913302892
 20
-0.4410024201385324
 30
0.0
 10
16.59317831104292
 20
-0.2283440533482661
 30
0.0
 10
16.424183230583
 20
-0.1082425387724926
 30
0.0
 10
16.28531124830297
 20
0.0170320065936892
 30
0.0
  0
SPLINE
  5
E0
330
1F
100
AcDbEntity
  8
외형선
  6
Continuous
370
    15
100
AcDbSpline
210
0.0
220
0.0
230
1.0
 70
     8
 71
     3
 72
     8
 73
     4
 74
     0
 42
0.000000001
 43
0.00000001
 40
0.0
 40
0.0
 40
0.0
 40
0.0
 40
1.0
 40
1.0
 40
1.0
 40
1.0
 10
8.479855950898672
 20
4.711189628274047
 30
0.0
 10
8.549439548941823
 20
4.736812577138328
 30
0.0
 10
8.61892568595997
 20
4.753082810130439
 30
0.0
 10
8.688879729805967
 20
4.760895185352491
 30
0.0
  0
SPLINE
  5
E1
330
1F
100
AcDbEntity
  8
외형선
  6
Continuous
370
    15
100
AcDbSpline
210
0.0
220
0.0
230
1.0
 70
     8
 71
     3
 72
     8
 73
     4
 74
     0
 42
0.000000001
 43
0.00000001
 40
0.0
 40
0.0
 40
0.0
 40
0.0
 40
1.0
 40
1.0
 40
1.0
 40
1.0
 10
8.68887970078497
 20
4.760895189489412
 30
0.0
 10
8.839021326187071
 20
4.739492611119976
 30
0.0
 10
8.978632285509114
 20
4.677740256588426
 30
0.0
 10
9.094987128213964
 20
4.585801985610853
 30
0.0
  0
SPLINE
  5
E2
330
1F
100
AcDbEntity
  8
외형선
  6
Continuous
370
    15
100
AcDbSpline
210
0.0
220
0.0
230
1.0
 70
     8
 71
     3
 72
    10
 73
     6
 74
     0
 42
0.000000001
 43
0.00000001
 40
0.0
 40
0.0
 40
0.0
 40
0.0
 40
0.4999999999999998
 40
0.4999999999999998
 40
1.0
 40
1.0
 40
1.0
 40
1.0
 10
9.094987128213967
 20
4.585801985610848
 30
0.0
 10
9.130103530960334
 20
4.558054611488719
 30
0.0
 10
9.171815696390652
 20
4.53992504924924
 30
0.0
 10
9.26415467054965
 20
4.530841806988309
 30
0.0
 10
9.314712285643646
 20
4.541072282236865
 30
0.0
 10
9.359001033518654
 20
4.568738359355079
 30
0.0
  0
SPLINE
  5
E3
330
1F
100
AcDbEntity
  8
외형선
  6
Continuous
370
    15
100
AcDbSpline
210
0.0
220
0.0
230
1.0
 70
     8
 71
     3
 72
     8
 73
     4
 74
     0
 42
0.000000001
 43
0.00000001
 40
0.0
 40
0.0
 40
0.0
 40
0.0
 40
1.0
 40
1.0
 40
1.0
 40
1.0
 10
9.35900103351864
 20
4.568738359355098
 30
0.0
 10
9.42339066473394
 20
4.608960957380308
 30
0.0
 10
9.489149220693793
 20
4.638821102059094
 30
0.0
 10
9.556750533992004
 20
4.659951754617967
 30
0.0
  0
SPLINE
  5
E4
330
1F
100
AcDbEntity
  8
외형선
  6
Continuous
370
    15
100
AcDbSpline
210
0.0
220
0.0
230
1.0
 70
     8
 71
     3
 72
     8
 73
     4
 74
     0
 42
0.000000001
 43
0.00000001
 40
0.0
 40
0.0
 40
0.0
 40
0.0
 40
1.0
 40
1.0
 40
1.0
 40
1.0
 10
9.556750533992032
 20
4.659951754618032
 30
0.0
 10
9.704441615793492
 20
4.632087114170898
 30
0.0
 10
9.8520774589366
 20
4.601654412113094
 30
0.0
 10
9.999999999999996
 20
4.568724630070209
 30
0.0
  0
SPLINE
  5
E5
330
1F
100
AcDbEntity
  8
외형선
  6
Continuous
370
    15
100
AcDbSpline
210
0.0
220
0.0
230
1.0
 70
    24
 71
     3
 72
     9
 73
     5
 74
     0
 42
0.000000001
 43
0.00000001
 40
0.0
 40
0.0
 40
0.0
 40
0.0
 40
0.5
 40
1.0
 40
1.0
 40
1.0
 40
1.0
 10
9.999999999999996
 20
4.673191883504644
 30
0.0
 10
9.999999999999996
 20
4.655226661272864
 30
0.0
 10
9.999999999999996
 20
4.619853028328231
 30
0.0
 10
9.999999999999996
 20
4.585585104234061
 30
0.0
 10
9.999999999999996
 20
4.56872463007021
 30
0.0
  0
SPLINE
  5
E6
330
1F
100
AcDbEntity
  8
0
  6
Continuous
 62
     1
370
    15
100
AcDbSpline
210
0.0
220
0.0
230
1.0
 70
     8
 71
     3
 72
     8
 73
     4
 74
     0
 42
0.000000001
 43
0.00000001
 40
0.0
 40
0.0
 40
0.0
 40
0.0
 40
1.0
 40
1.0
 40
1.0
 40
1.0
 10
10.00000000000002
 20
4.673191883504273
 30
0.0
 10
10.14409228547128
 20
4.63797742211854
 30
0.0
 10
10.27986497745465
 20
4.564850904868291
 30
0.0
 10
10.39411449670501
 20
4.462580402610724
 30
0.0
  0
SPLINE
  5
E7
330
1F
100
AcDbEntity
  8
0
  6
Continuous
 62
     1
370
    15
100
AcDbSpline
210
0.0
220
0.0
230
1.0
 70
     8
 71
     3
 72
    10
 73
     6
 74
     0
 42
0.000000001
 43
0.00000001
 40
0.0
 40
0.0
 40
0.0
 40
0.0
 40
0.5
 40
0.5
 40
1.0
 40
1.0
 40
1.0
 40
1.0
 10
10.39411449670504
 20
4.462580402610705
 30
0.0
 10
10.42948637372706
 20
4.430917252931202
 30
0.0
 10
10.47139869939063
 20
4.408825249181866
 30
0.0
 10
10.56396815731836
 20
4.39281252421323
 30
0.0
 10
10.61416672304305
 20
4.400087126686762
 30
0.0
 10
10.65820067050223
 20
4.425853696791265
 30
0.0
  0
SPLINE
  5
E8
330
1F
100
AcDbEntity
  8
0
  6
Continuous
 62
     1
370
    15
100
AcDbSpline
210
0.0
220
0.0
230
1.0
 70
     8
 71
     3
 72
     8
 73
     4
 74
     0
 42
0.000000001
 43
0.00000001
 40
0.0
 40
0.0
 40
0.0
 40
0.0
 40
1.0
 40
1.0
 40
1.0
 40
1.0
 10
10.65820067050223
 20
4.425853696791261
 30
0.0
 10
10.78998758185452
 20
4.50296912445902
 30
0.0
 10
10.93375259413453
 20
4.534305207190712
 30
0.0
 10
11.07539924850389
 20
4.527932431538916
 30
0.0
  0
SPLINE
  5
E9
330
1F
100
AcDbEntity
  8
0
  6
Continuous
 62
     1
370
    15
100
AcDbSpline
210
0.0
220
0.0
230
1.0
 70
     8
 71
     3
 72
     8
 73
     4
 74
     0
 42
0.000000001
 43
0.00000001
 40
0.0
 40
0.0
 40
0.0
 40
0.0
 40
1.0
 40
1.0
 40
1.0
 40
1.0
 10
11.07539921948202
 20
4.527932440640785
 30
0.0
 10
11.22551476839024
 20
4.480852891679992
 30
0.0
 10
11.36503715186171
 20
4.393721393742618
 30
0.0
 10
11.48122384788136
 20
4.27746735597357
 30
0.0
  0
SPLINE
  5
EA
330
1F
100
AcDbEntity
  8
0
  6
Continuous
 62
     1
370
    15
100
AcDbSpline
210
0.0
220
0.0
230
1.0
 70
     8
 71
     3
 72
    10
 73
     6
 74
     0
 42
0.000000001
 43
0.00000001
 40
0.0
 40
0.0
 40
0.0
 40
0.0
 40
0.5
 40
0.5
 40
1.0
 40
1.0
 40
1.0
 40
1.0
 10
11.48122384788136
 20
4.27746735597357
 30
0.0
 10
11.51627298344538
 20
4.242397905948567
 30
0.0
 10
11.55790531747504
 20
4.216575914313584
 30
0.0
 10
11.65010002673375
 20
4.192920009807123
 30
0.0
 10
11.70061207514121
 20
4.19641222488487
 30
0.0
 10
11.74486925883979
 20
4.219026862616243
 30
0.0
  0
SPLINE
  5
EB
330
1F
100
AcDbEntity
  8
0
  6
Continuous
 62
     1
370
    15
100
AcDbSpline
210
0.0
220
0.0
230
1.0
 70
     8
 71
     3
 72
    10
 73
     6
 74
     0
 42
0.000000001
 43
0.00000001
 40
0.0
 40
0.0
 40
0.0
 40
0.0
 40
0.5
 40
0.5
 40
1.0
 40
1.0
 40
1.0
 40
1.0
 10
11.74486925883978
 20
4.219026862616268
 30
0.0
 10
11.91850728421147
 20
4.307752821026005
 30
0.0
 10
12.10815051923735
 20
4.31322258019414
 30
0.0
 10
12.47054517435087
 20
4.21066576596723
 30
0.0
 10
12.63947321018463
 20
4.103522334289404
 30
0.0
 10
12.77820388013193
 20
3.95632354170256
 30
0.0
  0
SPLINE
  5
EC
330
1F
100
AcDbEntity
  8
0
  6
Continuous
 62
     1
370
    15
100
AcDbSpline
210
0.0
220
0.0
230
1.0
 70
     8
 71
     3
 72
    10
 73
     6
 74
     0
 42
0.000000001
 43
0.00000001
 40
0.0
 40
0.0
 40
0.0
 40
0.0
 40
0.5
 40
0.5
 40
1.0
 40
1.0
 40
1.0
 40
1.0
 10
12.77820388013197
 20
3.956323541702514
 30
0.0
 10
12.81352190520747
 20
3.918849703728259
 30
0.0
 10
12.85538754200633
 20
3.89020080591615
 30
0.0
 10
12.94786747168801
 20
3.860666675038828
 30
0.0
 10
12.99800800384479
 20
3.861093336341335
 30
0.0
 10
13.04199320209649
 20
3.880761236754314
 30
0.0
  0
SPLINE
  5
ED
330
1F
100
AcDbEntity
  8
0
  6
Continuous
 62
     1
370
    15
100
AcDbSpline
210
0.0
220
0.0
230
1.0
 70
     8
 71
     3
 72
     8
 73
     4
 74
     0
 42
0.000000001
 43
0.00000001
 40
0.0
 40
0.0
 40
0.0
 40
0.0
 40
1.0
 40
1.0
 40
1.0
 40
1.0
 10
13.04199320209649
 20
3.880761236754324
 30
0.0
 10
13.17375890101422
 20
3.939680026419214
 30
0.0
 10
13.31743752347799
 20
3.94753475904588
 30
0.0
 10
13.45893458509207
 20
3.919325824201171
 30
0.0
  0
SPLINE
  5
EE
330
1F
100
AcDbEntity
  8
0
  6
Continuous
 62
     1
370
    15
100
AcDbSpline
210
0.0
220
0.0
230
1.0
 70
     8
 71
     3
 72
     8
 73
     4
 74
     0
 42
0.000000001
 43
0.00000001
 40
0.0
 40
0.0
 40
0.0
 40
0.0
 40
1.0
 40
1.0
 40
1.0
 40
1.0
 10
13.45893455608913
 20
3.919325837550014
 30
0.0
 10
13.60888840563301
 20
3.850308211434441
 30
0.0
 10
13.74843849494695
 20
3.745029813905633
 30
0.0
 10
13.8647622459144
 20
3.614219173232564
 30
0.0
  0
SPLINE
  5
EF
330
1F
100
AcDbEntity
  8
0
  6
Continuous
 62
     1
370
    15
100
AcDbSpline
210
0.0
220
0.0
230
1.0
 70
     8
 71
     3
 72
    10
 73
     6
 74
     0
 42
0.000000001
 43
0.00000001
 40
0.0
 40
0.0
 40
0.0
 40
0.0
 40
0.5
 40
0.5
 40
1.0
 40
1.0
 40
1.0
 40
1.0
 10
13.8647622459144
 20
3.614219173232577
 30
0.0
 10
13.89984241329203
 20
3.574770142992223
 30
0.0
 10
13.94151979029793
 20
3.543454978872489
 30
0.0
 10
14.03382065415654
 20
3.507360615362876
 30
0.0
 10
14.0843689041565
 20
3.503911425651584
 30
0.0
 10
14.12864320536573
 20
3.519661648417371
 30
0.0
  0
SPLINE
  5
F0
330
1F
100
AcDbEntity
  8
0
  6
Continuous
 62
     1
370
    15
100
AcDbSpline
210
0.0
220
0.0
230
1.0
 70
     8
 71
     3
 72
    10
 73
     6
 74
     0
 42
0.000000001
 43
0.00000001
 40
0.0
 40
0.0
 40
0.0
 40
0.0
 40
0.5
 40
0.5
 40
1.0
 40
1.0
 40
1.0
 40
1.0
 10
14.12864320536571
 20
3.519661648417404
 30
0.0
 10
14.302656630823
 20
3.58156551003317
 30
0.0
 10
14.49275580136036
 20
3.555540448150736
 30
0.0
 10
14.85565744587282
 20
3.40380807434859
 30
0.0
 10
15.02474242966241
 20
3.279143807473405
 30
0.0
 10
15.16371301727362
 20
3.121134314462603
 30
0.0
  0
SPLINE
  5
F1
330
1F
100
AcDbEntity
  8
0
  6
Continuous
 62
     1
370
    15
100
AcDbSpline
210
0.0
220
0.0
230
1.0
 70
     8
 71
     3
 72
    10
 73
     6
 74
     0
 42
0.000000001
 43
0.00000001
 40
0.0
 40
0.0
 40
0.0
 40
0.0
 40
0.5
 40
0.5
 40
1.0
 40
1.0
 40
1.0
 40
1.0
 10
15.16371301727365
 20
3.121134314462565
 30
0.0
 10
15.1991119167079
 20
3.080885782389044
 30
0.0
 10
15.24104120738934
 20
3.047938995718139
 30
0.0
 10
15.33359844798353
 20
3.007037743386711
 30
0.0
 10
15.38381038120091
 20
3.000405946509739
 30
0.0
 10
15.42788910381901
 20
3.012321605812832
 30
0.0
  0
SPLINE
  5
F2
330
1F
100
AcDbEntity
  8
0
  6
Continuous
 62
     1
370
    15
100
AcDbSpline
210
0.0
220
0.0
230
1.0
 70
     8
 71
     3
 72
     8
 73
     4
 74
     0
 42
0.000000001
 43
0.00000001
 40
0.0
 40
0.0
 40
0.0
 40
0.0
 40
1.0
 40
1.0
 40
1.0
 40
1.0
 10
15.427889103819
 20
3.012321605812832
 30
0.0
 10
15.55969866653581
 20
3.047953260927504
 30
0.0
 10
15.70346264255407
 20
3.031778704405218
 30
0.0
 10
15.84519395004758
 20
2.984390223993428
 30
0.0
  0
SPLINE
  5
F3
330
1F
100
AcDbEntity
  8
0
  6
Continuous
 62
     1
370
    15
100
AcDbSpline
210
0.0
220
0.0
230
1.0
 70
     8
 71
     3
 72
     8
 73
     4
 74
     0
 42
0.000000001
 43
0.00000001
 40
0.0
 40
0.0
 40
0.0
 40
0.0
 40
1.0
 40
1.0
 40
1.0
 40
1.0
 10
15.84519392101133
 20
2.984390240410927
 30
0.0
 10
15.99530131964966
 20
2.899517429059032
 30
0.0
 10
16.13494248447007
 20
2.784996504580699
 30
0.0
 10
16.25126967758961
 20
2.650548993573746
 30
0.0
  0
SPLINE
  5
F4
330
1F
100
AcDbEntity
  8
0
  6
Continuous
 62
     1
370
    15
100
AcDbSpline
210
0.0
220
0.0
230
1.0
 70
     8
 71
     3
 72
    10
 73
     6
 74
     0
 42
0.000000001
 43
0.00000001
 40
0.0
 40
0.0
 40
0.0
 40
0.0
 40
0.5
 40
0.5
 40
1.0
 40
1.0
 40
1.0
 40
1.0
 10
16.25126967758962
 20
2.650548993573741
 30
0.0
 10
16.28634326891938
 20
2.610011979571208
 30
0.0
 10
16.32800897866752
 20
2.575808757519112
 30
0.0
 10
16.42028312690065
 20
2.530239550598425
 30
0.0
 10
16.47080517239232
 20
2.520112433576958
 30
0.0
 10
16.51505219209321
 20
2.527655210497443
 30
0.0
  0
SPLINE
  5
F5
330
1F
100
AcDbEntity
  8
0
  6
Continuous
 62
     1
370
    15
100
AcDbSpline
210
0.0
220
0.0
230
1.0
 70
     8
 71
     3
 72
    10
 73
     6
 74
     0
 42
0.000000001
 43
0.00000001
 40
0.0
 40
0.0
 40
0.0
 40
0.0
 40
0.5
 40
0.5
 40
1.0
 40
1.0
 40
1.0
 40
1.0
 10
16.5150521920932
 20
2.527655210497464
 30
0.0
 10
16.68886924197228
 20
2.557285753776497
 30
0.0
 10
16.87866833567028
 20
2.502012201589326
 30
0.0
 10
17.24082480389824
 20
2.313717998823634
 30
0.0
 10
17.40961748278579
 20
2.182014783389222
 30
0.0
 10
17.54837616938358
 20
2.026577187845648
 30
0.0
  0
SPLINE
  5
F6
330
1F
100
AcDbEntity
  8
0
  6
Continuous
 62
     1
370
    15
100
AcDbSpline
210
0.0
220
0.0
230
1.0
 70
     8
 71
     3
 72
    10
 73
     6
 74
     0
 42
0.000000001
 43
0.00000001
 40
0.0
 40
0.0
 40
0.0
 40
0.0
 40
0.5
 40
0.5
 40
1.0
 40
1.0
 40
1.0
 40
1.0
 10
17.54837616938362
 20
2.026577187845615
 30
0.0
 10
17.58367879674461
 20
1.987031155464458
 30
0.0
 10
17.62552925170939
 20
1.952704056819241
 30
0.0
 10
17.71800184334527
 20
1.90432704269958
 30
0.0
 10
17.76815247412888
 20
1.89150225141362
 30
0.0
 10
17.81214173516253
 20
1.894789864418714
 30
0.0
  0
SPLINE
  5
F7
330
1F
100
AcDbEntity
  8
0
  6
Continuous
 62
     1
370
    15
100
AcDbSpline
210
0.0
220
0.0
230
1.0
 70
     8
 71
     3
 72
     8
 73
     4
 74
     0
 42
0.000000001
 43
0.00000001
 40
0.0
 40
0.0
 40
0.0
 40
0.0
 40
1.0
 40
1.0
 40
1.0
 40
1.0
 10
17.81214173516253
 20
1.89478986441872
 30
0.0
 10
17.9438325816589
 20
1.904632006101027
 30
0.0
 10
18.08750896243608
 20
1.86606013615723
 30
0.0
 10
18.22910890899013
 20
1.803417458292329
 30
0.0
  0
SPLINE
  5
F8
330
1F
100
AcDbEntity
  8
0
  6
Continuous
 62
     1
370
    15
100
AcDbSpline
210
0.0
220
0.0
230
1.0
 70
     8
 71
     3
 72
     8
 73
     4
 74
     0
 42
0.000000001
 43
0.00000001
 40
0.0
 40
0.0
 40
0.0
 40
0.0
 40
1.0
 40
1.0
 40
1.0
 40
1.0
 10
18.22910887998577
 20
1.803417476419029
 30
0.0
 10
18.3791647770875
 20
1.709637745742096
 30
0.0
 10
18.51864897218879
 20
1.595210802804462
 30
0.0
 10
18.63483726625276
 20
1.46820376547682
 30
0.0
  0
SPLINE
  5
F9
330
1F
100
AcDbEntity
  8
0
  6
Continuous
 62
     1
370
    15
100
AcDbSpline
210
0.0
220
0.0
230
1.0
 70
     8
 71
     3
 72
    10
 73
     6
 74
     0
 42
0.000000001
 43
0.00000001
 40
0.0
 40
0.0
 40
0.0
 40
0.0
 40
0.5
 40
0.5
 40
1.0
 40
1.0
 40
1.0
 40
1.0
 10
18.63483726625276
 20
1.468203765476823
 30
0.0
 10
18.66990677996569
 20
1.429868793153807
 30
0.0
 10
18.71157093915763
 20
1.39554078467229
 30
0.0
 10
18.80382107424483
 20
1.344098800213974
 30
0.0
 10
18.85432956423928
 20
1.328013027525252
 30
0.0
 10
18.89858200989692
 20
1.326630679541023
 30
0.0
  0
SPLINE
  5
FA
330
1F
100
AcDbEntity
  8
0
  6
Continuous
 62
     1
370
    15
100
AcDbSpline
210
0.0
220
0.0
230
1.0
 70
     8
 71
     3
 72
    10
 73
     6
 74
     0
 42
0.000000001
 43
0.00000001
 40
0.0
 40
0.0
 40
0.0
 40
0.0
 40
0.5
 40
0.5
 40
1.0
 40
1.0
 40
1.0
 40
1.0
 10
18.89858200989691
 20
1.326630679541048
 30
0.0
 10
19.07245003092745
 20
1.321199429249204
 30
0.0
 10
19.2621851868362
 20
1.240865999920034
 30
0.0
 10
19.62488220516445
 20
1.032250509569453
 30
0.0
 10
19.79399909388794
 20
0.9047264327839015
 30
0.0
 10
19.93305900622854
 20
0.7647305933534971
 30
0.0
  0
SPLINE
  5
FB
330
1F
100
AcDbEntity
  8
0
  6
Continuous
 62
     1
370
    15
100
AcDbSpline
210
0.0
220
0.0
230
1.0
 70
     8
 71
     3
 72
    10
 73
     6
 74
     0
 42
0.000000001
 43
0.00000001
 40
0.0
 40
0.0
 40
0.0
 40
0.0
 40
0.5
 40
0.5
 40
1.0
 40
1.0
 40
1.0
 40
1.0
 10
19.93305900622858
 20
0.7647305933534629
 30
0.0
 10
19.96847632093584
 20
0.7290749063955264
 30
0.0
 10
20.01044061888475
 20
0.6961079890229536
 30
0.0
 10
20.10308560658319
 20
0.6439748728794437
 30
0.0
 10
20.1533174522149
 20
0.6258085006828168
 30
0.0
 10
20.19739131582219
 20
0.6201015129718845
 30
0.0
  0
SPLINE
  5
FC
330
1F
100
AcDbEntity
  8
0
  6
Continuous
 62
     1
370
    15
100
AcDbSpline
210
0.0
220
0.0
230
1.0
 70
     8
 71
     3
 72
     8
 73
     4
 74
     0
 42
0.000000001
 43
0.00000001
 40
0.0
 40
0.0
 40
0.0
 40
0.0
 40
1.0
 40
1.0
 40
1.0
 40
1.0
 10
20.19739131582219
 20
0.6201015129718859
 30
0.0
 10
20.32931318651598
 20
0.6030193596675864
 30
0.0
 10
20.47319203502136
 20
0.5447017201901556
 30
0.0
 10
20.6148948616627
 20
0.4715394780816971
 30
0.0
  0
SPLINE
  5
FD
330
1F
100
AcDbEntity
  8
0
  6
Continuous
 62
     1
370
    15
100
AcDbSpline
210
0.0
220
0.0
230
1.0
 70
     8
 71
     3
 72
     8
 73
     4
 74
     0
 42
0.000000001
 43
0.00000001
 40
0.0
 40
0.0
 40
0.0
 40
0.0
 40
1.0
 40
1.0
 40
1.0
 40
1.0
 10
20.61489483261158
 20
0.4715394965226919
 30
0.0
 10
20.7651364173177
 20
0.3761695220001435
 30
0.0
 10
20.90473161831893
 20
0.2708558064397568
 30
0.0
 10
21.02114973089992
 20
0.1615635313683993
 30
0.0
  0
SPLINE
  5
FE
330
1F
100
AcDbEntity
  8
0
  6
Continuous
 62
     1
370
    15
100
AcDbSpline
210
0.0
220
0.0
230
1.0
 70
     8
 71
     3
 72
    10
 73
     6
 74
     0
 42
0.000000001
 43
0.00000001
 40
0.0
 40
0.0
 40
0.0
 40
0.0
 40
0.5
 40
0.5
 40
1.0
 40
1.0
 40
1.0
 40
1.0
 10
21.02114973089992
 20
0.1615635313683992
 30
0.0
 10
21.05622601630311
 20
0.1286342306970785
 30
0.0
 10
21.09789106764084
 20
0.0970526033351218
 30
0.0
 10
21.19017354223293
 20
0.0441244165884693
 30
0.0
 10
21.24072416102916
 20
0.0235277695949033
 30
0.0
 10
21.28500398933883
 20
0.0134796926306926
 30
0.0
  0
SPLINE
  5
FF
330
1F
100
AcDbEntity
  8
0
  6
Continuous
 62
     1
370
    15
100
AcDbSpline
210
0.0
220
0.0
230
1.0
 70
     8
 71
     3
 72
    10
 73
     6
 74
     0
 42
0.000000001
 43
0.00000001
 40
0.0
 40
0.0
 40
0.0
 40
0.0
 40
0.5
 40
0.5
 40
1.0
 40
1.0
 40
1.0
 40
1.0
 10
21.72451064456011
 20
-0.1700061267343387
 30
0.0
 10
21.72382282690112
 20
-0.2123159776494795
 30
0.0
 10
21.71602917212275
 20
-0.2635862632578404
 30
0.0
 10
21.6845562742017
 20
-0.3861585034686134
 30
0.0
 10
21.66038041879661
 20
-0.4586903017297533
 30
0.0
 10
21.62744369628066
 20
-0.5405190008361044
 30
0.0
  0
SPLINE
  5
100
330
1F
100
AcDbEntity
  8
0
  6
Continuous
 62
     1
370
    15
100
AcDbSpline
210
0.0
220
0.0
230
1.0
 70
     8
 71
     3
 72
     8
 73
     4
 74
     0
 42
0.000000001
 43
0.00000001
 40
0.0
 40
0.0
 40
0.0
 40
0.0
 40
1.0
 40
1.0
 40
1.0
 40
1.0
 10
22.7
 20
-1.883116258311557
 30
0.0
 10
22.34116933720539
 20
-1.415920795000799
 30
0.0
 10
21.98353248481627
 20
-0.9666184928904274
 30
0.0
 10
21.62744369628086
 20
-0.5405190008362054
 30
0.0
  0
LINE
  5
101
330
1F
100
AcDbEntity
  8
0
  6
Continuous
 62
     1
370
    15
100
AcDbLine
 10
22.7
 20
-3.174119069868143
 30
0.0
 11
22.7
 21
-1.883116258311557
 31
0.0
  0
SPLINE
  5
102
330
1F
100
AcDbEntity
  8
0
  6
Continuous
 62
     1
370
    15
100
AcDbSpline
210
0.0
220
0.0
230
1.0
 70
     8
 71
     3
 72
     8
 73
     4
 74
     0
 42
0.000000001
 43
0.00000001
 40
0.0
 40
0.0
 40
0.0
 40
0.0
 40
1.0
 40
1.0
 40
1.0
 40
1.0
 10
22.55166973188062
 20
-3.267430371422796
 30
0.0
 10
22.60091952895428
 20
-3.238954354145016
 30
0.0
 10
22.6503478051714
 20
-3.207979817221629
 30
0.0
 10
22.7
 20
-3.174119069868143
 30
0.0
  0
SPLINE
  5
103
330
1F
100
AcDbEntity
  8
0
  6
Continuous
 62
     1
370
    15
100
AcDbSpline
210
0.0
220
0.0
230
1.0
 70
     8
 71
     3
 72
     8
 73
     4
 74
     0
 42
0.000000001
 43
0.00000001
 40
0.0
 40
0.0
 40
0.0
 40
0.0
 40
1.0
 40
1.0
 40
1.0
 40
1.0
 10
22.55166973188045
 20
-3.267430371422528
 30
0.0
 10
22.47999985549928
 20
-3.210796154924915
 30
0.0
 10
22.41348681153652
 20
-3.147288763327318
 30
0.0
 10
22.35280098532336
 20
-3.077131124841462
 30
0.0
  0
SPLINE
  5
104
330
1F
100
AcDbEntity
  8
0
  6
Continuous
 62
     1
370
    15
100
AcDbSpline
210
0.0
220
0.0
230
1.0
 70
     8
 71
     3
 72
    10
 73
     6
 74
     0
 42
0.000000001
 43
0.00000001
 40
0.0
 40
0.0
 40
0.0
 40
0.0
 40
0.5
 40
0.5
 40
1.0
 40
1.0
 40
1.0
 40
1.0
 10
22.35280098532337
 20
-3.077131124841463
 30
0.0
 10
22.31771812853635
 20
-3.036572553967436
 30
0.0
 10
22.27601962385668
 20
-3.003171254315396
 30
0.0
 10
22.18365940903719
 20
-2.961056479362295
 30
0.0
 10
22.13342803078796
 20
-2.953640126180445
 30
0.0
 10
22.0891146041694
 20
-2.964677091220612
 30
0.0
  0
SPLINE
  5
105
330
1F
100
AcDbEntity
  8
0
  6
Continuous
 62
     1
370
    15
100
AcDbSpline
210
0.0
220
0.0
230
1.0
 70
     8
 71
     3
 72
    10
 73
     6
 74
     0
 42
0.000000001
 43
0.00000001
 40
0.0
 40
0.0
 40
0.0
 40
0.0
 40
0.5
 40
0.5
 40
1.0
 40
1.0
 40
1.0
 40
1.0
 10
22.08911460416935
 20
-2.964677091220628
 30
0.0
 10
21.91529863159286
 20
-3.007968728973248
 30
0.0
 10
21.72540811483142
 20
-2.964427041521034
 30
0.0
 10
21.36282513674941
 20
-2.789826395725757
 30
0.0
 10
21.19391386989302
 20
-2.659813493706636
 30
0.0
 10
21.05511594628799
 20
-2.501768253863971
 30
0.0
  0
SPLINE
  5
106
330
1F
100
AcDbEntity
  8
0
  6
Continuous
 62
     1
370
    15
100
AcDbSpline
210
0.0
220
0.0
230
1.0
 70
     8
 71
     3
 72
    10
 73
     6
 74
     0
 42
0.000000001
 43
0.00000001
 40
0.0
 40
0.0
 40
0.0
 40
0.0
 40
0.5
 40
0.5
 40
1.0
 40
1.0
 40
1.0
 40
1.0
 10
21.05511594628799
 20
-2.501768253863968
 30
0.0
 10
21.01973842985486
 20
-2.461484884167304
 30
0.0
 10
20.97781719262633
 20
-2.427340770425966
 30
0.0
 10
20.88527008148453
 20
-2.381462179491315
 30
0.0
 10
20.83509384104516
 20
-2.370963669863728
 30
0.0
 10
20.791035761687
 20
-2.37778558010319
 30
0.0
  0
SPLINE
  5
107
330
1F
100
AcDbEntity
  8
0
  6
Continuous
 62
     1
370
    15
100
AcDbSpline
210
0.0
220
0.0
230
1.0
 70
     8
 71
     3
 72
     8
 73
     4
 74
     0
 42
0.000000001
 43
0.00000001
 40
0.0
 40
0.0
 40
0.0
 40
0.0
 40
1.0
 40
1.0
 40
1.0
 40
1.0
 10
20.791035761687
 20
-2.377785580103191
 30
0.0
 10
20.65918631754311
 20
-2.398201020044645
 30
0.0
 10
20.51538239145824
 20
-2.368261967143036
 30
0.0
 10
20.37361264857221
 20
-2.311163714021361
 30
0.0
  0
SPLINE
  5
108
330
1F
100
AcDbEntity
  8
0
  6
Continuous
 62
     1
370
    15
100
AcDbSpline
210
0.0
220
0.0
230
1.0
 70
     8
 71
     3
 72
     8
 73
     4
 74
     0
 42
0.000000001
 43
0.00000001
 40
0.0
 40
0.0
 40
0.0
 40
0.0
 40
1.0
 40
1.0
 40
1.0
 40
1.0
 10
20.37361264857199
 20
-2.311163714021512
 30
0.0
 10
20.22332498367355
 20
-2.219940311073598
 30
0.0
 10
20.08347731718712
 20
-2.104229224810088
 30
0.0
 10
19.96692782674798
 20
-1.972737344093351
 30
0.0
  0
SPLINE
  5
109
330
1F
100
AcDbEntity
  8
0
  6
Continuous
 62
     1
370
    15
100
AcDbSpline
210
0.0
220
0.0
230
1.0
 70
     8
 71
     3
 72
    10
 73
     6
 74
     0
 42
0.000000001
 43
0.00000001
 40
0.0
 40
0.0
 40
0.0
 40
0.0
 40
0.5
 40
0.5
 40
1.0
 40
1.0
 40
1.0
 40
1.0
 10
19.96692782674798
 20
-1.972737344093357
 30
0.0
 10
19.93180248814115
 20
-1.933108712369422
 30
0.0
 10
19.89008987486547
 20
-1.89849187345383
 30
0.0
 10
19.79773882081268
 20
-1.849000495335539
 30
0.0
 10
19.74716946596112
 20
-1.835250373018896
 30
0.0
 10
19.70287936040013
 20
-1.837610129170807
 30
0.0
  0
SPLINE
  5
10A
330
1F
100
AcDbEntity
  8
0
  6
Continuous
 62
     1
370
    15
100
AcDbSpline
210
0.0
220
0.0
230
1.0
 70
     8
 71
     3
 72
    10
 73
     6
 74
     0
 42
0.000000001
 43
0.00000001
 40
0.0
 40
0.0
 40
0.0
 40
0.0
 40
0.5
 40
0.5
 40
1.0
 40
1.0
 40
1.0
 40
1.0
 10
19.70287936040008
 20
-1.837610129170837
 30
0.0
 10
19.52894645655278
 20
-1.846877193104736
 30
0.0
 10
19.33902168256192
 20
-1.776317047365501
 30
0.0
 10
18.97659324562607
 20
-1.573778147292137
 30
0.0
 10
18.80776131148255
 20
-1.442916160726828
 30
0.0
 10
18.66892556310269
 20
-1.294974821595285
 30
0.0
  0
SPLINE
  5
10B
330
1F
100
AcDbEntity
  8
0
  6
Continuous
 62
     1
370
    15
100
AcDbSpline
210
0.0
220
0.0
230
1.0
 70
     8
 71
     3
 72
    10
 73
     6
 74
     0
 42
0.000000001
 43
0.00000001
 40
0.0
 40
0.0
 40
0.0
 40
0.0
 40
0.5
 40
0.5
 40
1.0
 40
1.0
 40
1.0
 40
1.0
 10
18.66892556310269
 20
-1.294974821595282
 30
0.0
 10
18.63361330969989
 20
-1.257346601795081
 30
0.0
 10
18.59175604915388
 20
-1.223476181927861
 30
0.0
 10
18.49927188285228
 20
-1.172362145636165
 30
0.0
 10
18.4491116808629
 20
-1.156232941481398
 30
0.0
 10
18.40511175958702
 20
-1.154200288425727
 30
0.0
  0
SPLINE
  5
10C
330
1F
100
AcDbEntity
  8
0
  6
Continuous
 62
     1
370
    15
100
AcDbSpline
210
0.0
220
0.0
230
1.0
 70
     8
 71
     3
 72
     8
 73
     4
 74
     0
 42
0.000000001
 43
0.00000001
 40
0.0
 40
0.0
 40
0.0
 40
0.0
 40
1.0
 40
1.0
 40
1.0
 40
1.0
 10
18.40511175958702
 20
-1.154200288425726
 30
0.0
 10
18.27341977765042
 20
-1.148116547779631
 30
0.0
 10
18.1297444557091
 20
-1.097545570296778
 30
0.0
 10
17.98813636615412
 20
-1.028202300696984
 30
0.0
  0
SPLINE
  5
10D
330
1F
100
AcDbEntity
  8
0
  6
Continuous
 62
     1
370
    15
100
AcDbSpline
210
0.0
220
0.0
230
1.0
 70
     8
 71
     3
 72
     8
 73
     4
 74
     0
 42
0.000000001
 43
0.00000001
 40
0.0
 40
0.0
 40
0.0
 40
0.0
 40
1.0
 40
1.0
 40
1.0
 40
1.0
 10
17.988136366154
 20
-1.028202300697143
 30
0.0
 10
17.8381208497721
 20
-0.9327870258728054
 30
0.0
 10
17.6986597437723
 20
-0.8229888517504343
 30
0.0
 10
17.5825164260807
 20
-0.7054523556827864
 30
0.0
  0
SPLINE
  5
10E
330
1F
100
AcDbEntity
  8
0
  6
Continuous
 62
     1
370
    15
100
AcDbSpline
210
0.0
220
0.0
230
1.0
 70
     8
 71
     3
 72
    10
 73
     6
 74
     0
 42
0.000000001
 43
0.00000001
 40
0.0
 40
0.0
 40
0.0
 40
0.0
 40
0.5
 40
0.5
 40
1.0
 40
1.0
 40
1.0
 40
1.0
 10
17.5825164260807
 20
-0.7054523556827873
 30
0.0
 10
17.54746833516604
 20
-0.6699838510641355
 30
0.0
 10
17.50582572315469
 20
-0.6369795263621064
 30
0.0
 10
17.41360604839392
 20
-0.5841817771805603
 30
0.0
 10
17.36311622747882
 20
-0.5652659030388033
 30
0.0
 10
17.31888540161209
 20
-0.5586969954132205
 30
0.0
  0
SPLINE
  5
10F
330
1F
100
AcDbEntity
  8
0
  6
Continuous
 62
     1
370
    15
100
AcDbSpline
210
0.0
220
0.0
230
1.0
 70
     8
 71
     3
 72
    10
 73
     6
 74
     0
 42
0.000000001
 43
0.00000001
 40
0.0
 40
0.0
 40
0.0
 40
0.0
 40
0.5
 40
0.5
 40
1.0
 40
1.0
 40
1.0
 40
1.0
 10
16.28531124830297
 20
0.0170320065936926
 30
0.0
 10
16.24995686415588
 20
0.0489247205019365
 30
0.0
 10
16.20805359433833
 20
0.0797454704302805
 30
0.0
 10
16.11550405487577
 20
0.1319814995432249
 30
0.0
 10
16.06532316571703
 20
0.1525444485245255
 30
0.0
 10
16.02130316891946
 20
0.163348103009229
 30
0.0
  0
SPLINE
  5
110
330
1F
100
AcDbEntity
  8
0
  6
Continuous
 62
     1
370
    15
100
AcDbSpline
210
0.0
220
0.0
230
1.0
 70
     8
 71
     3
 72
    10
 73
     6
 74
     0
 42
0.000000001
 43
0.00000001
 40
0.0
 40
0.0
 40
0.0
 40
0.0
 40
0.5
 40
0.5
 40
1.0
 40
1.0
 40
1.0
 40
1.0
 10
15.19752711384942
 20
0.6217096809893521
 30
0.0
 10
15.16239064673253
 20
0.6501671292093028
 30
0.0
 10
15.12066809889393
 20
0.6789086780676158
 30
0.0
 10
15.02829643750889
 20
0.7307296204080788
 30
0.0
 10
14.97768828254291
 20
0.7532710083214926
 30
0.0
 10
14.93335212520727
 20
0.7681591763335104
 30
0.0
  0
SPLINE
  5
111
330
1F
100
AcDbEntity
  8
0
  6
Continuous
 62
     1
370
    15
100
AcDbSpline
210
0.0
220
0.0
230
1.0
 70
     8
 71
     3
 72
    10
 73
     6
 74
     0
 42
0.000000001
 43
0.00000001
 40
0.0
 40
0.0
 40
0.0
 40
0.0
 40
0.5
 40
0.5
 40
1.0
 40
1.0
 40
1.0
 40
1.0
 10
13.8987995929618
 20
1.329032418926542
 30
0.0
 10
13.86345953049071
 20
1.35257796514547
 30
0.0
 10
13.82157813636363
 20
1.377847650446089
 30
0.0
 10
13.72908109641651
 20
1.427017735889353
 30
0.0
 10
13.67892955050612
 20
1.450393097607843
 30
0.0
 10
13.63492544700323
 20
1.469163044012839
 30
0.0
  0
SPLINE
  5
112
330
1F
100
AcDbEntity
  8
0
  6
Continuous
 62
     1
370
    15
100
AcDbSpline
210
0.0
220
0.0
230
1.0
 70
     8
 71
     3
 72
    10
 73
     6
 74
     0
 42
0.000000001
 43
0.00000001
 40
0.0
 40
0.0
 40
0.0
 40
0.0
 40
0.5000000000000004
 40
0.5000000000000004
 40
1.0
 40
1.0
 40
1.0
 40
1.0
 10
12.81234141650508
 20
1.89686203853786
 30
0.0
 10
12.77725882939601
 20
1.915746147386971
 30
0.0
 10
12.73556138951463
 20
1.937645575789289
 30
0.0
 10
12.64320524502129
 20
1.983863328712844
 30
0.0
 10
12.5929835236473
 20
2.00782646909387
 30
0.0
 10
12.54868511181172
 20
2.029732993045663
 30
0.0
  0
SPLINE
  5
113
330
1F
100
AcDbEntity
  8
0
  6
Continuous
 62
     1
370
    15
100
AcDbSpline
210
0.0
220
0.0
230
1.0
 70
     8
 71
     3
 72
    10
 73
     6
 74
     0
 42
0.000000001
 43
0.00000001
 40
0.0
 40
0.0
 40
0.0
 40
0.0
 40
0.5
 40
0.5
 40
1.0
 40
1.0
 40
1.0
 40
1.0
 10
11.51530890947806
 20
2.530116108914318
 30
0.0
 10
11.47999504058059
 20
2.543390484491589
 30
0.0
 10
11.43813369751205
 20
2.561023296364659
 30
0.0
 10
11.34564386135022
 20
2.60299206473032
 30
0.0
 10
11.2954719112572
 20
2.62717111690425
 30
0.0
 10
11.25144947545603
 20
2.652243784127033
 30
0.0
  0
SPLINE
  5
114
330
1F
100
AcDbEntity
  8
0
  6
Continuous
 62
     1
370
    15
100
AcDbSpline
210
0.0
220
0.0
230
1.0
 70
     8
 71
     3
 72
     8
 73
     4
 74
     0
 42
0.000000001
 43
0.00000001
 40
0.0
 40
0.0
 40
0.0
 40
0.0
 40
1.0
 40
1.0
 40
1.0
 40
1.0
 10
11.25144947545604
 20
2.652243784127028
 30
0.0
 10
11.11970212345387
 20
2.727279557457539
 30
0.0
 10
10.9759767210908
 20
2.810595893656529
 30
0.0
 10
10.83429919762413
 20
2.88106841619869
 30
0.0
  0
SPLINE
  5
115
330
1F
100
AcDbEntity
  8
0
  6
Continuous
 62
     1
370
    15
100
AcDbSpline
210
0.0
220
0.0
230
1.0
 70
     8
 71
     3
 72
     8
 73
     4
 74
     0
 42
0.000000001
 43
0.00000001
 40
0.0
 40
0.0
 40
0.0
 40
0.0
 40
1.0
 40
1.0
 40
1.0
 40
1.0
 10
10.83429919762385
 20
2.881068416198522
 30
0.0
 10
10.68411273960003
 20
2.944146707440379
 30
0.0
 10
10.54445151416279
 20
2.987505355792625
 30
0.0
 10
10.42803346965787
 20
3.01360725581511
 30
0.0
  0
SPLINE
  5
116
330
1F
100
AcDbEntity
  8
0
  6
Continuous
 62
     1
370
    15
100
AcDbSpline
210
0.0
220
0.0
230
1.0
 70
     8
 71
     3
 72
    10
 73
     6
 74
     0
 42
0.000000001
 43
0.00000001
 40
0.0
 40
0.0
 40
0.0
 40
0.0
 40
0.5
 40
0.5
 40
1.0
 40
1.0
 40
1.0
 40
1.0
 10
10.42803346965788
 20
3.01360725581511
 30
0.0
 10
10.39289873706313
 20
3.021484756948244
 30
0.0
 10
10.35116858515089
 20
3.034851798346463
 30
0.0
 10
10.25879960563078
 20
3.071869050568947
 30
0.0
 10
10.20822441104768
 20
3.095726267223424
 30
0.0
 10
10.16391990843857
 20
3.122940471558017
 30
0.0
  0
SPLINE
  5
117
330
1F
100
AcDbEntity
  8
0
  6
Continuous
 62
     1
370
    15
100
AcDbSpline
210
0.0
220
0.0
230
1.0
 70
     8
 71
     3
 72
     8
 73
     4
 74
     0
 42
0.000000001
 43
0.00000001
 40
0.0
 40
0.0
 40
0.0
 40
0.0
 40
1.0
 40
1.0
 40
1.0
 40
1.0
 10
10.16391990843853
 20
3.122940471558036
 30
0.0
 10
10.11032025184959
 20
3.155864258549726
 30
0.0
 10
10.05577083775995
 20
3.188608733571486
 30
0.0
 10
10.00000000000007
 20
3.220391952892658
 30
0.0
  0
SPLINE
  5
118
330
1F
100
AcDbEntity
  8
외형선
  6
Continuous
370
    15
100
AcDbSpline
210
0.0
220
0.0
230
1.0
 70
     8
 71
     3
 72
     8
 73
     4
 74
     0
 42
0.000000001
 43
0.00000001
 40
0.0
 40
0.0
 40
0.0
 40
0.0
 40
1.0
 40
1.0
 40
1.0
 40
1.0
 10
9.999999999999996
 20
3.208014051092502
 30
0.0
 10
9.79103097725688
 20
3.301575956371872
 30
0.0
 10
9.58296594693956
 20
3.394101433491039
 30
0.0
 10
9.375185687122196
 20
3.484681298789308
 30
0.0
  0
SPLINE
  5
119
330
1F
100
AcDbEntity
  8
외형선
  6
Continuous
370
    15
100
AcDbSpline
210
0.0
220
0.0
230
1.0
 70
     8
 71
     3
 72
     8
 73
     4
 74
     0
 42
0.000000001
 43
0.00000001
 40
0.0
 40
0.0
 40
0.0
 40
0.0
 40
1.0
 40
1.0
 40
1.0
 40
1.0
 10
9.375185687121904
 20
3.484681298789199
 30
0.0
 10
9.286480173982111
 20
3.50624806308799
 30
0.0
 10
9.203082892626567
 20
3.518247776499388
 30
0.0
 10
9.128956704411388
 20
3.522011669808809
 30
0.0
  0
SPLINE
  5
11A
330
1F
100
AcDbEntity
  8
외형선
  6
Continuous
370
    15
100
AcDbSpline
210
0.0
220
0.0
230
1.0
 70
     8
 71
     3
 72
    10
 73
     6
 74
     0
 42
0.000000001
 43
0.00000001
 40
0.0
 40
0.0
 40
0.0
 40
0.0
 40
0.5
 40
0.5
 40
1.0
 40
1.0
 40
1.0
 40
1.0
 10
9.128956704411388
 20
3.522011669808804
 30
0.0
 10
9.093601082426115
 20
3.523806916431422
 30
0.0
 10
9.051703629385935
 20
3.532231686544158
 30
0.0
 10
8.95915749399486
 20
3.563353839833329
 30
0.0
 10
8.908971067480584
 20
3.586277832923949
 30
0.0
 10
8.86494924248212
 20
3.615558955377835
 30
0.0
  0
SPLINE
  5
11B
330
1F
100
AcDbEntity
  8
외형선
  6
Continuous
370
    15
100
AcDbSpline
210
0.0
220
0.0
230
1.0
 70
     8
 71
     3
 72
    10
 73
     6
 74
     0
 42
0.000000001
 43
0.00000001
 40
0.0
 40
0.0
 40
0.0
 40
0.0
 40
0.5
 40
0.5
 40
1.0
 40
1.0
 40
1.0
 40
1.0
 10
8.617867364470186
 20
1.281754139878128
 30
0.0
 10
8.652951000141918
 20
1.244058486999249
 30
0.0
 10
8.694632347695011
 20
1.210006467766224
 30
0.0
 10
8.786935830421173
 20
1.158208921759649
 30
0.0
 10
8.837476755749927
 20
1.141463919048771
 30
0.0
 10
8.881741865310257
 20
1.138889229060789
 30
0.0
  0
SPLINE
  5
11C
330
1F
100
AcDbEntity
  8
외형선
  6
Continuous
370
    15
100
AcDbSpline
210
0.0
220
0.0
230
1.0
 70
     8
 71
     3
 72
     8
 73
     4
 74
     0
 42
0.000000001
 43
0.00000001
 40
0.0
 40
0.0
 40
0.0
 40
0.0
 40
1.0
 40
1.0
 40
1.0
 40
1.0
 10
8.881741865310248
 20
1.138889229060792
 30
0.0
 10
8.985691262953615
 20
1.132842989120866
 30
0.0
 10
9.095255491164583
 20
1.099758001875221
 30
0.0
 10
9.205592767873755
 20
1.052674098328513
 30
0.0
  0
SPLINE
  5
11D
330
1F
100
AcDbEntity
  8
외형선
  6
Continuous
370
    15
100
AcDbSpline
210
0.0
220
0.0
230
1.0
 70
     8
 71
     3
 72
     8
 73
     4
 74
     0
 42
0.000000001
 43
0.00000001
 40
0.0
 40
0.0
 40
0.0
 40
0.0
 40
1.0
 40
1.0
 40
1.0
 40
1.0
 10
9.205592767873792
 20
1.052674098328571
 30
0.0
 10
9.398159775067771
 20
0.9325669484276501
 30
0.0
 10
9.590629942242858
 20
0.8122388006483856
 30
0.0
 10
9.783175287815753
 20
0.6919642478917943
 30
0.0
  0
SPLINE
  5
11E
330
1F
100
AcDbEntity
  8
외형선
  6
Continuous
370
    15
100
AcDbSpline
210
0.0
220
0.0
230
1.0
 70
     8
 71
     3
 72
     8
 73
     4
 74
     0
 42
0.000000001
 43
0.00000001
 40
0.0
 40
0.0
 40
0.0
 40
0.0
 40
1.0
 40
1.0
 40
1.0
 40
1.0
 10
9.783175287815924
 20
0.6919642478920739
 30
0.0
 10
9.830227567045743
 20
0.6528335973218738
 30
0.0
 10
9.874778391790304
 20
0.6127780297786192
 30
0.0
 10
9.916674640325239
 20
0.5714923858493116
 30
0.0
  0
SPLINE
  5
11F
330
1F
100
AcDbEntity
  8
외형선
  6
Continuous
370
    15
100
AcDbSpline
210
0.0
220
0.0
230
1.0
 70
     8
 71
     3
 72
    10
 73
     6
 74
     0
 42
0.000000001
 43
0.00000001
 40
0.0
 40
0.0
 40
0.0
 40
0.0
 40
0.5000000000000001
 40
0.5000000000000001
 40
1.0
 40
1.0
 40
1.0
 40
1.0
 10
9.916674640325233
 20
0.5714923858493208
 30
0.0
 10
9.95206821637327
 20
0.5366146431109537
 30
0.0
 10
9.993997940510214
 20
0.5040166034898774
 30
0.0
 10
10.08659900113464
 20
0.4515716404004234
 30
0.0
 10
10.13683074931721
 20
0.4326911201298309
 30
0.0
 10
10.18090770034327
 20
0.4256613746915933
 30
0.0
  0
SPLINE
  5
120
330
1F
100
AcDbEntity
  8
0
  6
Continuous
 62
     1
370
    15
100
AcDbSpline
210
0.0
220
0.0
230
1.0
 70
     8
 71
     3
 72
     8
 73
     4
 74
     0
 42
0.000000001
 43
0.00000001
 40
0.0
 40
0.0
 40
0.0
 40
0.0
 40
1.0
 40
1.0
 40
1.0
 40
1.0
 10
10.18090770034327
 20
0.4256613746915994
 30
0.0
 10
10.31273198074095
 20
0.4046369818467657
 30
0.0
 10
10.45653537436564
 20
0.3439729043463013
 30
0.0
 10
10.59827548882799
 20
0.2700770610971242
 30
0.0
  0
SPLINE
  5
121
330
1F
100
AcDbEntity
  8
0
  6
Continuous
 62
     1
370
    15
100
AcDbSpline
210
0.0
220
0.0
230
1.0
 70
     8
 71
     3
 72
     8
 73
     4
 74
     0
 42
0.000000001
 43
0.00000001
 40
0.0
 40
0.0
 40
0.0
 40
0.0
 40
1.0
 40
1.0
 40
1.0
 40
1.0
 10
10.5982754597877
 20
0.2700770793785642
 30
0.0
 10
10.74843145806398
 20
0.1755508459960802
 30
0.0
 10
10.88807421091639
 20
0.0729453687952394
 30
0.0
 10
11.00439028679244
 20
-0.0326245041636534
 30
0.0
  0
SPLINE
  5
122
330
1F
100
AcDbEntity
  8
0
  6
Continuous
 62
     1
370
    15
100
AcDbSpline
210
0.0
220
0.0
230
1.0
 70
     8
 71
     3
 72
    10
 73
     6
 74
     0
 42
0.000000001
 43
0.00000001
 40
0.0
 40
0.0
 40
0.0
 40
0.0
 40
0.5
 40
0.5
 40
1.0
 40
1.0
 40
1.0
 40
1.0
 10
11.00439028679243
 20
-0.0326245041636445
 30
0.0
 10
11.03946754837282
 20
-0.0644610497219115
 30
0.0
 10
11.08113530716119
 20
-0.0953511928871266
 30
0.0
 10
11.17340225566925
 20
-0.1480391195102692
 30
0.0
 10
11.22391974288678
 20
-0.1691331360329896
 30
0.0
 10
11.26816974743184
 20
-0.1804121406441073
 30
0.0
  0
SPLINE
  5
123
330
1F
100
AcDbEntity
  8
0
  6
Continuous
 62
     1
370
    15
100
AcDbSpline
210
0.0
220
0.0
230
1.0
 70
     8
 71
     3
 72
    10
 73
     6
 74
     0
 42
0.000000001
 43
0.00000001
 40
0.0
 40
0.0
 40
0.0
 40
0.0
 40
0.5
 40
0.5
 40
1.0
 40
1.0
 40
1.0
 40
1.0
 10
12.30152605239973
 20
-0.7543050292103545
 30
0.0
 10
12.33683584744649
 20
-0.7818091894433153
 30
0.0
 10
12.37869370848861
 20
-0.8097957469257474
 30
0.0
 10
12.47117439248257
 20
-0.8607621278303733
 30
0.0
 10
12.52132131902469
 20
-0.8830559783872415
 30
0.0
 10
12.56530388268654
 20
-0.8983796156343734
 30
0.0
  0
SPLINE
  5
124
330
1F
100
AcDbEntity
  8
0
  6
Continuous
 62
     1
370
    15
100
AcDbSpline
210
0.0
220
0.0
230
1.0
 70
     8
 71
     3
 72
    10
 73
     6
 74
     0
 42
0.000000001
 43
0.00000001
 40
0.0
 40
0.0
 40
0.0
 40
0.0
 40
0.5
 40
0.5
 40
1.0
 40
1.0
 40
1.0
 40
1.0
 10
13.38792446364431
 20
-1.34344835431187
 30
0.0
 10
13.42297608027586
 20
-1.366858197932237
 30
0.0
 10
13.46460840559767
 20
-1.392115290919814
 30
0.0
 10
13.5568367582234
 20
-1.441435671012217
 30
0.0
 10
13.60736556161067
 20
-1.465155342425237
 30
0.0
 10
13.65163603116951
 20
-1.484180141002736
 30
0.0
  0
SPLINE
  5
125
330
1F
100
AcDbEntity
  8
0
  6
Continuous
 62
     1
370
    15
100
AcDbSpline
210
0.0
220
0.0
230
1.0
 70
     8
 71
     3
 72
    10
 73
     6
 74
     0
 42
0.000000001
 43
0.00000001
 40
0.0
 40
0.0
 40
0.0
 40
0.0
 40
0.5
 40
0.5
 40
1.0
 40
1.0
 40
1.0
 40
1.0
 10
14.68610050589588
 20
-2.016901916902043
 30
0.0
 10
14.72151383591386
 20
-2.034921851985006
 30
0.0
 10
14.76347320956018
 20
-2.056161936920369
 30
0.0
 10
14.85610045187496
 20
-2.101785795260443
 30
0.0
 10
14.90632040020454
 20
-2.125852687433255
 30
0.0
 10
14.95039132722093
 20
-2.148366953303545
 30
0.0
  0
SPLINE
  5
126
330
1F
100
AcDbEntity
  8
0
  6
Continuous
 62
     1
370
    15
100
AcDbSpline
210
0.0
220
0.0
230
1.0
 70
     8
 71
     3
 72
    10
 73
     6
 74
     0
 42
0.000000001
 43
0.00000001
 40
0.0
 40
0.0
 40
0.0
 40
0.0
 40
0.5
 40
0.5
 40
1.0
 40
1.0
 40
1.0
 40
1.0
 10
15.77420850544718
 20
-2.544377118625073
 30
0.0
 10
15.80933852852455
 20
-2.557292013669852
 30
0.0
 10
15.85107693638436
 20
-2.574643387142088
 30
0.0
 10
15.94350088507532
 20
-2.616212069757849
 30
0.0
 10
15.99376469588868
 20
-2.64028640458266
 30
0.0
 10
16.03810715926421
 20
-2.665415397892526
 30
0.0
  0
SPLINE
  5
127
330
1F
100
AcDbEntity
  8
0
  6
Continuous
 62
     1
370
    15
100
AcDbSpline
210
0.0
220
0.0
230
1.0
 70
     8
 71
     3
 72
    10
 73
     6
 74
     0
 42
0.000000001
 43
0.00000001
 40
0.0
 40
0.0
 40
0.0
 40
0.0
 40
0.5
 40
0.5
 40
1.0
 40
1.0
 40
1.0
 40
1.0
 10
17.07178307444882
 20
-3.113265712426469
 30
0.0
 10
17.1070851150658
 20
-3.120253099568834
 30
0.0
 10
17.14891705886679
 20
-3.132950052486236
 30
0.0
 10
17.24135239588986
 20
-3.169365482983603
 30
0.0
 10
17.29150189286144
 20
-3.193140650210133
 30
0.0
 10
17.33550839979137
 20
-3.220880030049808
 30
0.0
  0
SPLINE
  5
128
330
1F
100
AcDbEntity
  8
0
  6
Continuous
 62
     1
370
    15
100
AcDbSpline
210
0.0
220
0.0
230
1.0
 70
     8
 71
     3
 72
     8
 73
     4
 74
     0
 42
0.000000001
 43
0.00000001
 40
0.0
 40
0.0
 40
0.0
 40
0.0
 40
1.0
 40
1.0
 40
1.0
 40
1.0
 10
17.33550839979137
 20
-3.220880030049802
 30
0.0
 10
17.46718047280097
 20
-3.30387915682225
 30
0.0
 10
17.61081295505548
 20
-3.386821124128216
 30
0.0
 10
17.75242119460007
 20
-3.451387659394987
 30
0.0
  0
SPLINE
  5
129
330
1F
100
AcDbEntity
  8
0
  6
Continuous
 62
     1
370
    15
100
AcDbSpline
210
0.0
220
0.0
230
1.0
 70
     8
 71
     3
 72
     8
 73
     4
 74
     0
 42
0.000000001
 43
0.00000001
 40
0.0
 40
0.0
 40
0.0
 40
0.0
 40
1.0
 40
1.0
 40
1.0
 40
1.0
 10
17.75242116559997
 20
-3.451387649587475
 30
0.0
 10
17.90239803977879
 20
-3.502108105117249
 30
0.0
 10
18.0418801118146
 20
-3.5276604837827
 30
0.0
 10
18.15806842735262
 20
-3.532168076994811
 30
0.0
  0
SPLINE
  5
12A
330
1F
100
AcDbEntity
  8
0
  6
Continuous
 62
     1
370
    15
100
AcDbSpline
210
0.0
220
0.0
230
1.0
 70
     8
 71
     3
 72
    10
 73
     6
 74
     0
 42
0.000000001
 43
0.00000001
 40
0.0
 40
0.0
 40
0.0
 40
0.0
 40
0.5
 40
0.5
 40
1.0
 40
1.0
 40
1.0
 40
1.0
 10
18.15806842735262
 20
-3.532168076994814
 30
0.0
 10
18.19312387881568
 20
-3.533528073603168
 30
0.0
 10
18.23477656656654
 20
-3.541570495053331
 30
0.0
 10
18.32702780084031
 20
-3.571996427659174
 30
0.0
 10
18.37753432592772
 20
-3.594787934107931
 30
0.0
 10
18.42176910962512
 20
-3.623922029932842
 30
0.0
  0
SPLINE
  5
12B
330
1F
100
AcDbEntity
  8
0
  6
Continuous
 62
     1
370
    15
100
AcDbSpline
210
0.0
220
0.0
230
1.0
 70
     8
 71
     3
 72
    10
 73
     6
 74
     0
 42
0.000000001
 43
0.00000001
 40
0.0
 40
0.0
 40
0.0
 40
0.0
 40
0.4999999999999999
 40
0.4999999999999999
 40
1.0
 40
1.0
 40
1.0
 40
1.0
 10
18.4217691096251
 20
-3.623922029932841
 30
0.0
 10
18.59566451610624
 20
-3.738453740330495
 30
0.0
 10
18.78554840732031
 20
-3.837284351619299
 30
0.0
 10
19.14779352304627
 20
-3.95267823560541
 30
0.0
 10
19.31672267584726
 20
-3.968966284386337
 30
0.0
 10
19.45565634512474
 20
-3.950651435019526
 30
0.0
  0
SPLINE
  5
12C
330
1F
100
AcDbEntity
  8
0
  6
Continuous
 62
     1
370
    15
100
AcDbSpline
210
0.0
220
0.0
230
1.0
 70
     8
 71
     3
 72
    10
 73
     6
 74
     0
 42
0.000000001
 43
0.00000001
 40
0.0
 40
0.0
 40
0.0
 40
0.0
 40
0.5
 40
0.5
 40
1.0
 40
1.0
 40
1.0
 40
1.0
 10
19.45565634512475
 20
-3.950651435019529
 30
0.0
 10
19.49102861419393
 20
-3.94598850642106
 30
0.0
 10
19.53294913894801
 20
-3.949000448054681
 30
0.0
 10
19.62553281686762
 20
-3.973011085856466
 30
0.0
 10
19.67574135516944
 20
-3.994441664290551
 30
0.0
 10
19.71979092323638
 20
-4.025069276306714
 30
0.0
  0
SPLINE
  5
12D
330
1F
100
AcDbEntity
  8
0
  6
Continuous
 62
     1
370
    15
100
AcDbSpline
210
0.0
220
0.0
230
1.0
 70
     8
 71
     3
 72
     8
 73
     4
 74
     0
 42
0.000000001
 43
0.00000001
 40
0.0
 40
0.0
 40
0.0
 40
0.0
 40
1.0
 40
1.0
 40
1.0
 40
1.0
 10
19.71979092323637
 20
-4.025069276306714
 30
0.0
 10
19.85165855098743
 20
-4.116756680235703
 30
0.0
 10
19.99551960967304
 20
-4.193585098314519
 30
0.0
 10
20.13727642835767
 20
-4.243487203185238
 30
0.0
  0
SPLINE
  5
12E
330
1F
100
AcDbEntity
  8
0
  6
Continuous
 62
     1
370
    15
100
AcDbSpline
210
0.0
220
0.0
230
1.0
 70
     8
 71
     3
 72
     8
 73
     4
 74
     0
 42
0.000000001
 43
0.00000001
 40
0.0
 40
0.0
 40
0.0
 40
0.0
 40
1.0
 40
1.0
 40
1.0
 40
1.0
 10
20.13727639929266
 20
-4.243487198227357
 30
0.0
 10
20.28763567774183
 20
-4.269135297311298
 30
0.0
 10
20.42745128959847
 20
-4.261648636677395
 30
0.0
 10
20.54394427519714
 20
-4.227757541429892
 30
0.0
  0
SPLINE
  5
12F
330
1F
100
AcDbEntity
  8
0
  6
Continuous
 62
     1
370
    15
100
AcDbSpline
210
0.0
220
0.0
230
1.0
 70
     8
 71
     3
 72
    10
 73
     6
 74
     0
 42
0.000000001
 43
0.00000001
 40
0.0
 40
0.0
 40
0.0
 40
0.0
 40
0.5
 40
0.5
 40
1.0
 40
1.0
 40
1.0
 40
1.0
 10
20.54394427519716
 20
-4.227757541429894
 30
0.0
 10
20.57906860041074
 20
-4.217538884527932
 30
0.0
 10
20.62077660296108
 20
-4.215691685610682
 30
0.0
 10
20.71309463420821
 20
-4.232609682672155
 30
0.0
 10
20.76364714834422
 20
-4.252132032927355
 30
0.0
 10
20.80794152253672
 20
-4.282985803681458
 30
0.0
  0
SPLINE
  5
130
330
1F
100
AcDbEntity
  8
0
  6
Continuous
 62
     1
370
    15
100
AcDbSpline
210
0.0
220
0.0
230
1.0
 70
     8
 71
     3
 72
    10
 73
     6
 74
     0
 42
0.000000001
 43
0.00000001
 40
0.0
 40
0.0
 40
0.0
 40
0.0
 40
0.5
 40
0.5
 40
1.0
 40
1.0
 40
1.0
 40
1.0
 10
20.80794152253672
 20
-4.282985803681473
 30
0.0
 10
20.95821100100959
 20
-4.387657787983398
 30
0.0
 10
21.12033369764359
 20
-4.462853012224523
 30
0.0
 10
21.43683297660796
 20
-4.537362283073107
 30
0.0
 10
21.58935625346026
 20
-4.536493130678728
 30
0.0
 10
21.72287241996617
 20
-4.501917941666333
 30
0.0
  0
LINE
  5
131
330
1F
100
AcDbEntity
  8
0
  6
Continuous
 62
     1
370
    15
100
AcDbLine
 10
22.7
 20
-4.097852788406112
 30
0.0
 11
22.7
 21
-3.826075672315821
 31
0.0
  0
SPLINE
  5
132
330
1F
100
AcDbEntity
  8
0
  6
Continuous
 62
     1
370
    15
100
AcDbSpline
210
0.0
220
0.0
230
1.0
 70
     8
 71
     3
 72
     8
 73
     4
 74
     0
 42
0.000000001
 43
0.00000001
 40
0.0
 40
0.0
 40
0.0
 40
0.0
 40
1.0
 40
1.0
 40
1.0
 40
1.0
 10
22.59923684263908
 20
-4.191438228386178
 30
0.0
 10
22.63273091856736
 20
-4.159610696995945
 30
0.0
 10
22.66631395637987
 20
-4.128391493592378
 30
0.0
 10
22.7
 20
-4.097852788406112
 30
0.0
  0
SPLINE
  5
133
330
1F
100
AcDbEntity
  8
0
  6
Continuous
 62
     1
370
    15
100
AcDbSpline
210
0.0
220
0.0
230
1.0
 70
     8
 71
     3
 72
     8
 73
     4
 74
     0
 42
0.000000001
 43
0.00000001
 40
0.0
 40
0.0
 40
0.0
 40
0.0
 40
1.0
 40
1.0
 40
1.0
 40
1.0
 10
22.59923684263905
 20
-4.191438228386263
 30
0.0
 10
22.4956572056288
 20
-4.254743265289444
 30
0.0
 10
22.38848515034772
 20
-4.305594010188485
 30
0.0
 10
22.28176720620864
 20
-4.341081232990626
 30
0.0
  0
SPLINE
  5
134
330
1F
100
AcDbEntity
  8
0
  6
Continuous
 62
     1
370
    15
100
AcDbSpline
210
0.0
220
0.0
230
1.0
 70
     8
 71
     3
 72
    13
 73
     9
 74
     0
 42
0.000000001
 43
0.00000001
 40
0.0
 40
0.0
 40
0.0
 40
0.0
 40
0.2148988199945618
 40
0.4313126804427633
 40
0.6172967815802483
 40
0.8041938290813074
 40
0.993852936327386
 40
0.9999999999999999
 40
0.9999999999999999
 40
0.9999999999999999
 40
0.9999999999999999
 10
22.28176720620865
 20
-4.341081232990624
 30
0.0
 10
22.2547893272299
 20
-4.344296399895532
 30
0.0
 10
22.200643374752
 20
-4.350749400688469
 30
0.0
 10
22.12599462409521
 20
-4.352018486783948
 30
0.0
 10
22.05701951096452
 20
-4.348374995411051
 30
0.0
 10
21.99416631779658
 20
-4.339669721659503
 30
0.0
 10
21.95237604781708
 20
-4.331956135678239
 30
0.0
 10
21.93259564465841
 20
-4.326021486298461
 30
0.0
 10
21.93197466628416
 20
-4.325835176196787
 30
0.0
  0
SPLINE
  5
135
330
1F
100
AcDbEntity
  8
0
  6
Continuous
 62
     1
370
    15
100
AcDbSpline
210
0.0
220
0.0
230
1.0
 70
     8
 71
     3
 72
    10
 73
     6
 74
     0
 42
0.000000001
 43
0.00000001
 40
0.0
 40
0.0
 40
0.0
 40
0.0
 40
0.2908646837814555
 40
0.7167319070674039
 40
0.9999999999999999
 40
0.9999999999999999
 40
0.9999999999999999
 40
0.9999999999999999
 10
21.32500927794588
 20
-4.509298867224684
 30
0.0
 10
21.24615813925119
 20
-4.53602422221523
 30
0.0
 10
21.0518577302901
 20
-4.601879294066507
 30
0.0
 10
20.79015588150417
 20
-4.593999592056018
 30
0.0
 10
20.63842108884618
 20
-4.533192246416358
 30
0.0
 10
20.57780977198644
 20
-4.508902409989243
 30
0.0
  0
SPLINE
  5
136
330
1F
100
AcDbEntity
  8
0
  6
Continuous
 62
     1
370
    15
100
AcDbSpline
210
0.0
220
0.0
230
1.0
 70
     8
 71
     3
 72
    10
 73
     6
 74
     0
 42
0.000000001
 43
0.00000001
 40
0.0
 40
0.0
 40
0.0
 40
0.0
 40
0.5
 40
0.5
 40
1.0
 40
1.0
 40
1.0
 40
1.0
 10
20.57780977198644
 20
-4.508902409989243
 30
0.0
 10
20.54240720301564
 20
-4.491278121238572
 30
0.0
 10
20.50045810270679
 20
-4.482834819421959
 30
0.0
 10
20.40782780874927
 20
-4.490123928789214
 30
0.0
 10
20.3575874770986
 20
-4.506674268008219
 30
0.0
 10
20.31350094744747
 20
-4.537534830247467
 30
0.0
  0
SPLINE
  5
137
330
1F
100
AcDbEntity
  8
0
  6
Continuous
 62
     1
370
    15
100
AcDbSpline
210
0.0
220
0.0
230
1.0
 70
     8
 71
     3
 72
     8
 73
     4
 74
     0
 42
0.000000001
 43
0.00000001
 40
0.0
 40
0.0
 40
0.0
 40
0.0
 40
1.0
 40
1.0
 40
1.0
 40
1.0
 10
20.31350094744746
 20
-4.537534830247467
 30
0.0
 10
20.18161895365071
 20
-4.62985220042851
 30
0.0
 10
20.03775329814215
 20
-4.691658319628509
 30
0.0
 10
19.89596752716255
 20
-4.719347739535851
 30
0.0
  0
SPLINE
  5
138
330
1F
100
AcDbEntity
  8
0
  6
Continuous
 62
     1
370
    15
100
AcDbSpline
210
0.0
220
0.0
230
1.0
 70
     8
 71
     3
 72
     8
 73
     4
 74
     0
 42
0.000000001
 43
0.00000001
 40
0.0
 40
0.0
 40
0.0
 40
0.0
 40
1.0
 40
1.0
 40
1.0
 40
1.0
 10
19.89596752716271
 20
-4.719347739535769
 30
0.0
 10
19.74572863274859
 20
-4.713128766774617
 30
0.0
 10
19.60601300881741
 20
-4.667873276031396
 30
0.0
 10
19.48962509895827
 20
-4.592794006424704
 30
0.0
  0
SPLINE
  5
139
330
1F
100
AcDbEntity
  8
0
  6
Continuous
 62
     1
370
    15
100
AcDbSpline
210
0.0
220
0.0
230
1.0
 70
     8
 71
     3
 72
    10
 73
     6
 74
     0
 42
0.000000001
 43
0.00000001
 40
0.0
 40
0.0
 40
0.0
 40
0.0
 40
0.5
 40
0.5
 40
1.0
 40
1.0
 40
1.0
 40
1.0
 10
19.48962509895826
 20
-4.5927940064247
 30
0.0
 10
19.45453000811167
 20
-4.570154938580532
 30
0.0
 10
19.41284689292028
 20
-4.556974540679064
 30
0.0
 10
19.32055955757244
 20
-4.556345262189707
 30
0.0
 10
19.27002874769656
 20
-4.569972431936653
 30
0.0
 10
19.22576290127768
 20
-4.599457874591344
 30
0.0
  0
SPLINE
  5
13A
330
1F
100
AcDbEntity
  8
0
  6
Continuous
 62
     1
370
    15
100
AcDbSpline
210
0.0
220
0.0
230
1.0
 70
     8
 71
     3
 72
    10
 73
     6
 74
     0
 42
0.000000001
 43
0.00000001
 40
0.0
 40
0.0
 40
0.0
 40
0.0
 40
0.5
 40
0.5
 40
1.0
 40
1.0
 40
1.0
 40
1.0
 10
19.22576290127768
 20
-4.599457874591364
 30
0.0
 10
19.05198858094926
 20
-4.715208801579592
 30
0.0
 10
18.86245969578209
 20
-4.767587031032391
 30
0.0
 10
18.50005055562664
 20
-4.756117696511391
 30
0.0
 10
18.33102556477193
 20
-4.692769496527634
 30
0.0
 10
18.19219815766066
 20
-4.58561355037094
 30
0.0
  0
SPLINE
  5
13B
330
1F
100
AcDbEntity
  8
0
  6
Continuous
 62
     1
370
    15
100
AcDbSpline
210
0.0
220
0.0
230
1.0
 70
     8
 71
     3
 72
    10
 73
     6
 74
     0
 42
0.000000001
 43
0.00000001
 40
0.0
 40
0.0
 40
0.0
 40
0.0
 40
0.5
 40
0.5
 40
1.0
 40
1.0
 40
1.0
 40
1.0
 10
18.19219815766066
 20
-4.58561355037094
 30
0.0
 10
18.15688465462104
 20
-4.558356311263362
 30
0.0
 10
18.11502404656508
 20
-4.540764245260589
 30
0.0
 10
18.022540806328
 20
-4.532968294329933
 30
0.0
 10
17.97239404840042
 20
-4.54385488088047
 30
0.0
 10
17.92841149390099
 20
-4.572077968404759
 30
0.0
  0
SPLINE
  5
13C
330
1F
100
AcDbEntity
  8
0
  6
Continuous
 62
     1
370
    15
100
AcDbSpline
210
0.0
220
0.0
230
1.0
 70
     8
 71
     3
 72
     8
 73
     4
 74
     0
 42
0.000000001
 43
0.00000001
 40
0.0
 40
0.0
 40
0.0
 40
0.0
 40
1.0
 40
1.0
 40
1.0
 40
1.0
 10
17.92841149390098
 20
-4.57207796840476
 30
0.0
 10
17.79670106716356
 20
-4.65659499894056
 30
0.0
 10
17.65302218470789
 20
-4.699923069993113
 30
0.0
 10
17.51147716595903
 20
-4.705943401102886
 30
0.0
  0
SPLINE
  5
13D
330
1F
100
AcDbEntity
  8
0
  6
Continuous
 62
     1
370
    15
100
AcDbSpline
210
0.0
220
0.0
230
1.0
 70
     8
 71
     3
 72
     8
 73
     4
 74
     0
 42
0.000000001
 43
0.00000001
 40
0.0
 40
0.0
 40
0.0
 40
0.0
 40
1.0
 40
1.0
 40
1.0
 40
1.0
 10
17.51147716595893
 20
-4.705943401102817
 30
0.0
 10
17.36142885546779
 20
-4.672782759139292
 30
0.0
 10
17.22203651502107
 20
-4.598972902135695
 30
0.0
 10
17.10590076489604
 20
-4.49514377472036
 30
0.0
  0
SPLINE
  5
13E
330
1F
100
AcDbEntity
  8
0
  6
Continuous
 62
     1
370
    15
100
AcDbSpline
210
0.0
220
0.0
230
1.0
 70
     8
 71
     3
 72
    10
 73
     6
 74
     0
 42
0.000000001
 43
0.00000001
 40
0.0
 40
0.0
 40
0.0
 40
0.0
 40
0.5
 40
0.5
 40
1.0
 40
1.0
 40
1.0
 40
1.0
 10
17.10590076489605
 20
-4.495143774720359
 30
0.0
 10
17.07086767510778
 20
-4.463823056169327
 30
0.0
 10
17.02923921667919
 20
-4.442044313218199
 30
0.0
 10
16.93701668536353
 20
-4.426326197908243
 30
0.0
 10
16.88649644926272
 20
-4.433649227619992
 30
0.0
 10
16.84223890636313
 20
-4.459338212469416
 30
0.0
  0
SPLINE
  5
13F
330
1F
100
AcDbEntity
  8
0
  6
Continuous
 62
     1
370
    15
100
AcDbSpline
210
0.0
220
0.0
230
1.0
 70
     8
 71
     3
 72
    10
 73
     6
 74
     0
 42
0.000000001
 43
0.00000001
 40
0.0
 40
0.0
 40
0.0
 40
0.0
 40
0.5
 40
0.5
 40
1.0
 40
1.0
 40
1.0
 40
1.0
 10
16.84223890636314
 20
-4.459338212469437
 30
0.0
 10
16.66846775315599
 20
-4.560202477169685
 30
0.0
 10
16.47864661963089
 20
-4.583071943868239
 30
0.0
 10
16.11603779461485
 20
-4.511511366129723
 30
0.0
 10
15.94704790914727
 20
-4.41789116907991
 30
0.0
 10
15.80816650854277
 20
-4.282020665889696
 30
0.0
  0
SPLINE
  5
140
330
1F
100
AcDbEntity
  8
0
  6
Continuous
 62
     1
370
    15
100
AcDbSpline
210
0.0
220
0.0
230
1.0
 70
     8
 71
     3
 72
    10
 73
     6
 74
     0
 42
0.000000001
 43
0.00000001
 40
0.0
 40
0.0
 40
0.0
 40
0.0
 40
0.5
 40
0.5
 40
1.0
 40
1.0
 40
1.0
 40
1.0
 10
15.80816650854278
 20
-4.282020665889698
 30
0.0
 10
15.77278080348877
 20
-4.247402109837537
 30
0.0
 10
15.73084884872246
 20
-4.222129496054969
 30
0.0
 10
15.63826940281153
 20
-4.199847792688555
 30
0.0
 10
15.58807536307835
 20
-4.204083992019297
 30
0.0
 10
15.54402725783728
 20
-4.227369490968938
 30
0.0
  0
SPLINE
  5
141
330
1F
100
AcDbEntity
  8
0
  6
Continuous
 62
     1
370
    15
100
AcDbSpline
210
0.0
220
0.0
230
1.0
 70
     8
 71
     3
 72
     8
 73
     4
 74
     0
 42
0.000000001
 43
0.00000001
 40
0.0
 40
0.0
 40
0.0
 40
0.0
 40
1.0
 40
1.0
 40
1.0
 40
1.0
 10
15.54402725783727
 20
-4.227369490968938
 30
0.0
 10
15.41210048552026
 20
-4.29711098612302
 30
0.0
 10
15.2683340443891
 20
-4.317982288540643
 30
0.0
 10
15.12660537303804
 20
-4.301682858262837
 30
0.0
  0
SPLINE
  5
142
330
1F
100
AcDbEntity
  8
0
  6
Continuous
 62
     1
370
    15
100
AcDbSpline
210
0.0
220
0.0
230
1.0
 70
     8
 71
     3
 72
     8
 73
     4
 74
     0
 42
0.000000001
 43
0.00000001
 40
0.0
 40
0.0
 40
0.0
 40
0.0
 40
1.0
 40
1.0
 40
1.0
 40
1.0
 10
15.1266053730702
 20
-4.301682858272626
 30
0.0
 10
14.97637673566342
 20
-4.244215201284613
 30
0.0
 10
14.83653842317711
 20
-4.148048955601022
 30
0.0
 10
14.71998331640022
 20
-4.023968211766729
 30
0.0
  0
SPLINE
  5
143
330
1F
100
AcDbEntity
  8
0
  6
Continuous
 62
     1
370
    15
100
AcDbSpline
210
0.0
220
0.0
230
1.0
 70
     8
 71
     3
 72
    10
 73
     6
 74
     0
 42
0.000000001
 43
0.00000001
 40
0.0
 40
0.0
 40
0.0
 40
0.0
 40
0.5
 40
0.5
 40
1.0
 40
1.0
 40
1.0
 40
1.0
 10
14.71998331640023
 20
-4.023968211766724
 30
0.0
 10
14.68486780923406
 20
-3.986585394575902
 30
0.0
 10
14.64316455250903
 20
-3.95803863122815
 30
0.0
 10
14.55082275127014
 20
-3.928590036168914
 30
0.0
 10
14.50025254765772
 20
-3.929023782634776
 30
0.0
 10
14.45596216400204
 20
-3.948816766551825
 30
0.0
  0
SPLINE
  5
144
330
1F
100
AcDbEntity
  8
0
  6
Continuous
 62
     1
370
    15
100
AcDbSpline
210
0.0
220
0.0
230
1.0
 70
     8
 71
     3
 72
    10
 73
     6
 74
     0
 42
0.000000001
 43
0.00000001
 40
0.0
 40
0.0
 40
0.0
 40
0.0
 40
0.5
 40
0.5
 40
1.0
 40
1.0
 40
1.0
 40
1.0
 10
14.45596216400204
 20
-3.948816766551841
 30
0.0
 10
14.28207475794596
 20
-4.026525522886004
 30
0.0
 10
14.09214860360454
 20
-4.01793284220742
 30
0.0
 10
13.72956764280682
 20
-3.892149178637442
 30
0.0
 10
13.56069992790163
 20
-3.775897060883094
 30
0.0
 10
13.42201389009642
 20
-3.622194833450486
 30
0.0
  0
SPLINE
  5
145
330
1F
100
AcDbEntity
  8
0
  6
Continuous
 62
     1
370
    15
100
AcDbSpline
210
0.0
220
0.0
230
1.0
 70
     8
 71
     3
 72
    10
 73
     6
 74
     0
 42
0.000000001
 43
0.00000001
 40
0.0
 40
0.0
 40
0.0
 40
0.0
 40
0.5
 40
0.5
 40
1.0
 40
1.0
 40
1.0
 40
1.0
 10
13.42201389009642
 20
-3.622194833450483
 30
0.0
 10
13.38671516318759
 20
-3.583074147350543
 30
0.0
 10
13.34487274184406
 20
-3.552176109625729
 30
0.0
 10
13.25241291157753
 20
-3.517217754255654
 30
0.0
 10
13.20225336563816
 20
-3.514489382249621
 30
0.0
 10
13.15824294189711
 20
-3.530890244852258
 30
0.0
  0
SPLINE
  5
146
330
1F
100
AcDbEntity
  8
0
  6
Continuous
 62
     1
370
    15
100
AcDbSpline
210
0.0
220
0.0
230
1.0
 70
     8
 71
     3
 72
     8
 73
     4
 74
     0
 42
0.000000001
 43
0.00000001
 40
0.0
 40
0.0
 40
0.0
 40
0.0
 40
1.0
 40
1.0
 40
1.0
 40
1.0
 10
13.1582429418971
 20
-3.530890244852262
 30
0.0
 10
13.02656246412194
 20
-3.57996210646729
 30
0.0
 10
12.88291329146552
 20
-3.577269699788879
 30
0.0
 10
12.74129790367108
 20
-3.540334674249348
 30
0.0
  0
SPLINE
  5
147
330
1F
100
AcDbEntity
  8
0
  6
Continuous
 62
     1
370
    15
100
AcDbSpline
210
0.0
220
0.0
230
1.0
 70
     8
 71
     3
 72
     8
 73
     4
 74
     0
 42
0.000000001
 43
0.00000001
 40
0.0
 40
0.0
 40
0.0
 40
0.0
 40
1.0
 40
1.0
 40
1.0
 40
1.0
 10
12.74129790367122
 20
-3.54033467424941
 30
0.0
 10
12.59131416043548
 20
-3.463670859216788
 30
0.0
 10
12.45183788709325
 20
-3.353267407647274
 30
0.0
 10
12.33566798753027
 20
-3.219581169349004
 30
0.0
  0
SPLINE
  5
148
330
1F
100
AcDbEntity
  8
0
  6
Continuous
 62
     1
370
    15
100
AcDbSpline
210
0.0
220
0.0
230
1.0
 70
     8
 71
     3
 72
    10
 73
     6
 74
     0
 42
0.000000001
 43
0.00000001
 40
0.0
 40
0.0
 40
0.0
 40
0.0
 40
0.5
 40
0.5
 40
1.0
 40
1.0
 40
1.0
 40
1.0
 10
12.33566798753028
 20
-3.219581169349
 30
0.0
 10
12.30061830296759
 20
-3.179246620551462
 30
0.0
 10
12.25897217537786
 20
-3.14632721499389
 30
0.0
 10
12.16673441606124
 20
-3.105635333034925
 30
0.0
 10
12.11623600195922
 20
-3.099168642930596
 30
0.0
 10
12.07200710287135
 20
-3.111384154285387
 30
0.0
  0
SPLINE
  5
149
330
1F
100
AcDbEntity
  8
0
  6
Continuous
 62
     1
370
    15
100
AcDbSpline
210
0.0
220
0.0
230
1.0
 70
     8
 71
     3
 72
    10
 73
     6
 74
     0
 42
0.000000001
 43
0.00000001
 40
0.0
 40
0.0
 40
0.0
 40
0.0
 40
0.5
 40
0.5
 40
1.0
 40
1.0
 40
1.0
 40
1.0
 10
12.07200710287136
 20
-3.111384154285401
 30
0.0
 10
11.89817437979442
 20
-3.159394745694486
 30
0.0
 10
11.70845928979821
 20
-3.11975064604198
 30
0.0
 10
11.3462623682022
 20
-2.949845709205938
 30
0.0
 10
11.1773024011032
 20
-2.82085804710064
 30
0.0
 10
11.03842079974947
 20
-2.662454040788673
 30
0.0
  0
SPLINE
  5
14A
330
1F
100
AcDbEntity
  8
0
  6
Continuous
 62
     1
370
    15
100
AcDbSpline
210
0.0
220
0.0
230
1.0
 70
     8
 71
     3
 72
    10
 73
     6
 74
     0
 42
0.000000001
 43
0.00000001
 40
0.0
 40
0.0
 40
0.0
 40
0.0
 40
0.5000000000000009
 40
0.5000000000000009
 40
1.0
 40
1.0
 40
1.0
 40
1.0
 10
11.03842079974948
 20
-2.662454040788664
 30
0.0
 10
11.00306828256645
 20
-2.622132066528425
 30
0.0
 10
10.96116685014741
 20
-2.588269612914739
 30
0.0
 10
10.86861468390843
 20
-2.543721559709607
 30
0.0
 10
10.81842600950611
 20
-2.534321168357938
 30
0.0
 10
10.77439844723716
 20
-2.542531374218649
 30
0.0
  0
SPLINE
  5
14B
330
1F
100
AcDbEntity
  8
0
  6
Continuous
 62
     1
370
    15
100
AcDbSpline
210
0.0
220
0.0
230
1.0
 70
     8
 71
     3
 72
     8
 73
     4
 74
     0
 42
0.000000001
 43
0.00000001
 40
0.0
 40
0.0
 40
0.0
 40
0.0
 40
1.0
 40
1.0
 40
1.0
 40
1.0
 10
10.77439844723715
 20
-2.54253137421866
 30
0.0
 10
10.64257673729919
 20
-2.56711332515407
 30
0.0
 10
10.49876554067688
 20
-2.540766754672326
 30
0.0
 10
10.35706598533088
 20
-2.486018157968426
 30
0.0
  0
SPLINE
  5
14C
330
1F
100
AcDbEntity
  8
0
  6
Continuous
 62
     1
370
    15
100
AcDbSpline
210
0.0
220
0.0
230
1.0
 70
     8
 71
     3
 72
     8
 73
     4
 74
     0
 42
0.000000001
 43
0.00000001
 40
0.0
 40
0.0
 40
0.0
 40
0.0
 40
1.0
 40
1.0
 40
1.0
 40
1.0
 10
10.35706598533094
 20
-2.486018157969589
 30
0.0
 10
10.20672563295267
 20
-2.396123769676644
 30
0.0
 10
10.0669787799323
 20
-2.280207753605906
 30
0.0
 10
9.950474976327556
 20
-2.147482384224625
 30
0.0
  0
SPLINE
  5
14D
330
1F
100
AcDbEntity
  8
외형선
  6
Continuous
370
    15
100
AcDbSpline
210
0.0
220
0.0
230
1.0
 70
     8
 71
     3
 72
    10
 73
     6
 74
     0
 42
0.000000001
 43
0.00000001
 40
0.0
 40
0.0
 40
0.0
 40
0.0
 40
0.5
 40
0.5
 40
1.0
 40
1.0
 40
1.0
 40
1.0
 10
9.950474976327559
 20
-2.147482384224627
 30
0.0
 10
9.915324240651042
 20
-2.107437387989848
 30
0.0
 10
9.873593493829874
 20
-2.072731182789955
 30
0.0
 10
9.781244773226403
 20
-2.023831668650977
 30
0.0
 10
9.73067176258703
 20
-2.010756254313989
 30
0.0
 10
9.686344986209786
 20
-2.014300484178253
 30
0.0
  0
SPLINE
  5
14E
330
1F
100
AcDbEntity
  8
외형선
  6
Continuous
370
    15
100
AcDbSpline
210
0.0
220
0.0
230
1.0
 70
     8
 71
     3
 72
     8
 73
     4
 74
     0
 42
0.000000001
 43
0.00000001
 40
0.0
 40
0.0
 40
0.0
 40
0.0
 40
1.0
 40
1.0
 40
1.0
 40
1.0
 10
9.686344986209786
 20
-2.01430048417827
 30
0.0
 10
9.612746542627766
 20
-2.020185184646606
 30
0.0
 10
9.537346558332183
 20
-2.011081613210121
 30
0.0
 10
9.459422964912434
 20
-1.991476184344529
 30
0.0
  0
SPLINE
  5
14F
330
1F
100
AcDbEntity
  8
외형선
  6
Continuous
370
    15
100
AcDbSpline
210
0.0
220
0.0
230
1.0
 70
     8
 71
     3
 72
     8
 73
     4
 74
     0
 42
0.000000001
 43
0.00000001
 40
0.0
 40
0.0
 40
0.0
 40
0.0
 40
1.0
 40
1.0
 40
1.0
 40
1.0
 10
9.459422964912925
 20
-1.991476184340358
 30
0.0
 10
9.325414353476306
 20
-1.933302440343356
 30
0.0
 10
9.191579858381681
 20
-1.873846846877496
 30
0.0
 10
9.057915905004979
 20
-1.813084377552478
 30
0.0
  0
SPLINE
  5
150
330
1F
100
AcDbEntity
  8
외형선
  6
Continuous
370
    15
100
AcDbSpline
210
0.0
220
0.0
230
1.0
 70
     8
 71
     3
 72
     8
 73
     4
 74
     0
 42
0.000000001
 43
0.00000001
 40
0.0
 40
0.0
 40
0.0
 40
0.0
 40
1.0
 40
1.0
 40
1.0
 40
1.0
 10
9.057915905004979
 20
-1.81308437755247
 30
0.0
 10
8.909177058660264
 20
-1.72119594419706
 30
0.0
 10
8.769220767955836
 20
-1.607879637314595
 30
0.0
 10
8.651916338296573
 20
-1.481124634513504
 30
0.0
  0
SPLINE
  5
151
330
1F
100
AcDbEntity
  8
외형선
  6
Continuous
370
    15
100
AcDbSpline
210
0.0
220
0.0
230
1.0
 70
     8
 71
     3
 72
     8
 73
     4
 74
     0
 42
0.000000001
 43
0.00000001
 40
0.0
 40
0.0
 40
0.0
 40
0.0
 40
1.0
 40
1.0
 40
1.0
 40
1.0
 10
8.651916338296573
 20
-1.481124634513484
 30
0.0
 10
8.604480973476546
 20
-1.429867663075167
 30
0.0
 10
8.544740049795127
 20
-1.38565309484143
 30
0.0
 10
8.479855950898672
 20
-1.361201885545354
 30
0.0
  0
LINE
  5
152
330
1F
100
AcDbEntity
  8
외형선
  6
Continuous
370
    15
100
AcDbLine
 10
-27.10000000000001
 20
4.762499999999999
 30
0.0
 11
-27.10000000000001
 21
-4.762500000000002
 31
0.0
  0
LINE
  5
153
330
1F
100
AcDbEntity
  8
외형선
  6
Continuous
370
    15
100
AcDbLine
 10
7.181115259470327
 20
3.711594667304455
 30
0.0
 11
8.429997755546802
 21
3.711594667304455
 31
0.0
  0
LINE
  5
154
330
1F
100
AcDbEntity
  8
외형선
  6
Continuous
370
    15
100
AcDbLine
 10
5.930135951768984
 20
3.711594667304455
 30
0.0
 11
7.179763800587764
 21
3.711594667304455
 31
0.0
  0
SPLINE
  5
155
330
1F
100
AcDbEntity
  8
0
  6
Continuous
 62
     1
370
    15
100
AcDbSpline
210
0.0
220
0.0
230
1.0
 70
     8
 71
     3
 72
    12
 73
     8
 74
     0
 42
0.000000001
 43
0.00000001
 40
0.0
 40
0.0
 40
0.0
 40
0.0
 40
0.5000000000000002
 40
0.5000000000000002
 40
0.7500000000000001
 40
0.7500000000000001
 40
1.0
 40
1.0
 40
1.0
 40
1.0
 10
10.83429919762413
 20
2.881068416198679
 30
0.0
 10
10.79514750686276
 20
2.506868334786664
 30
0.0
 10
10.75425105066584
 20
2.08420947614257
 30
0.0
 10
10.69427269335452
 20
1.417754807610466
 30
0.0
 10
10.67451227872071
 20
1.19037333757869
 30
0.0
 10
10.63607816078909
 20
0.7329139212158141
 30
0.0
 10
10.61762826944183
 20
0.5037836324009781
 30
0.0
 10
10.5982754888279
 20
0.270077061096036
 30
0.0
  0
ELLIPSE
  5
156
330
1F
100
AcDbEntity
  8
0
  6
Continuous
 62
     1
370
    15
100
AcDbEllipse
 10
18.63844274238227
 20
-5.743078317540559
 30
0.0
 11
5.969829319528041
 21
8.394906677292383
 31
0.0
210
0.0
220
0.0
230
1.0
 40
0.1082739118711085
 41
0.6819885573186198
 42
0.6849444462932145
  0
LINE
  5
157
330
1F
100
AcDbEntity
  8
0
  6
Continuous
 62
     1
370
    15
100
AcDbLine
 10
22.7
 20
-0.2264703329427787
 30
0.0
 11
22.7
 21
1.181498136891239
 31
0.0
  0
LINE
  5
158
330
1F
100
AcDbEntity
  8
0
  6
Continuous
 62
     1
370
    15
100
AcDbLine
 10
21.6274436962807
 20
-0.5405190008359625
 30
0.0
 11
22.7
 21
-0.2264703329427787
 31
0.0
  0
SPLINE
  5
159
330
1F
100
AcDbEntity
  8
0
  6
Continuous
 62
     1
370
    15
100
AcDbSpline
210
0.0
220
0.0
230
1.0
 70
     8
 71
     3
 72
    10
 73
     6
 74
     0
 42
0.000000001
 43
0.00000001
 40
0.0
 40
0.0
 40
0.0
 40
0.0
 40
0.5
 40
0.5
 40
1.0
 40
1.0
 40
1.0
 40
1.0
 10
22.68677345212772
 20
1.167309691446513
 30
0.0
 10
22.64592034728491
 20
1.107084838633544
 30
0.0
 10
22.6042007574687
 20
1.0478730391042
 30
0.0
 10
22.52093581453504
 20
0.9337868114991779
 30
0.0
 10
22.47952010674879
 20
0.8789577023474939
 30
0.0
 10
22.43849345226018
 20
0.8281023484641838
 30
0.0
  0
LINE
  5
15A
330
1F
100
AcDbEntity
  8
외형선
  6
Continuous
370
    15
100
AcDbLine
 10
-28.10000000000001
 20
3.7625
 30
0.0
 11
-28.10000000000001
 21
-3.762500000000006
 31
0.0
  0
SPLINE
  5
15B
330
1F
100
AcDbEntity
  8
0
  6
Continuous
 62
     1
370
    15
100
AcDbSpline
210
0.0
220
0.0
230
1.0
 70
     8
 71
     3
 72
    12
 73
     8
 74
     0
 42
0.000000001
 43
0.00000001
 40
0.0
 40
0.0
 40
0.0
 40
0.0
 40
0.5
 40
0.5
 40
0.75
 40
0.75
 40
1.0
 40
1.0
 40
1.0
 40
1.0
 10
20.85100174347604
 20
3.038803628042256
 30
0.0
 10
20.81241309396731
 20
2.678817889582704
 30
0.0
 10
20.77172619756356
 20
2.26750582918531
 30
0.0
 10
20.71146790601652
 20
1.611366924283951
 30
0.0
 10
20.69151781882788
 20
1.386330811815903
 30
0.0
 10
20.65253207337962
 20
0.9313184812348974
 30
0.0
 10
20.63392359043112
 20
0.7030937871878713
 30
0.0
 10
20.61489486166264
 20
0.4715394780811945
 30
0.0
  0
SPLINE
  5
15C
330
1F
100
AcDbEntity
  8
0
  6
Continuous
 62
     1
370
    15
100
AcDbSpline
210
0.0
220
0.0
230
1.0
 70
     8
 71
     3
 72
     8
 73
     4
 74
     0
 42
0.000000001
 43
0.00000001
 40
0.0
 40
0.0
 40
0.0
 40
0.0
 40
1.0
 40
1.0
 40
1.0
 40
1.0
 10
21.26821553834682
 20
2.808447732263398
 30
0.0
 10
21.13636088205618
 20
2.88577925372707
 30
0.0
 10
20.99257503343932
 20
2.969382588623435
 30
0.0
 10
20.85100174347599
 20
3.038803628041851
 30
0.0
  0
SPLINE
  5
15D
330
1F
100
AcDbEntity
  8
0
  6
Continuous
 62
     1
370
    15
100
AcDbSpline
210
0.0
220
0.0
230
1.0
 70
     8
 71
     3
 72
    10
 73
     6
 74
     0
 42
0.000000001
 43
0.00000001
 40
0.0
 40
0.0
 40
0.0
 40
0.0
 40
0.5
 40
0.5
 40
1.0
 40
1.0
 40
1.0
 40
1.0
 10
20.18033090613282
 20
3.263833253858925
 30
0.0
 10
20.00637479600046
 20
3.372913489470458
 30
0.0
 10
19.81638303666514
 20
3.476474698663534
 30
0.0
 10
19.45357905771342
 20
3.61177660551358
 30
0.0
 10
19.28453623911034
 20
3.643368182957149
 30
0.0
 10
19.1457165635947
 20
3.643876671802863
 30
0.0
  0
SPLINE
  5
15E
330
1F
100
AcDbEntity
  8
0
  6
Continuous
 62
     1
370
    15
100
AcDbSpline
210
0.0
220
0.0
230
1.0
 70
     8
 71
     3
 72
     8
 73
     4
 74
     0
 42
0.000000001
 43
0.00000001
 40
0.0
 40
0.0
 40
0.0
 40
0.0
 40
1.0
 40
1.0
 40
1.0
 40
1.0
 10
20.85100174348455
 20
3.03880362803828
 30
0.0
 10
20.70085389554106
 20
3.099183961340089
 30
0.0
 10
20.56111312131149
 20
3.138193652210186
 30
0.0
 10
20.44454895017143
 20
3.158783849974956
 30
0.0
  0
SPLINE
  5
15F
330
1F
100
AcDbEntity
  8
0
  6
Continuous
 62
     1
370
    15
100
AcDbSpline
210
0.0
220
0.0
230
1.0
 70
     8
 71
     3
 72
    12
 73
     8
 74
     0
 42
0.000000001
 43
0.00000001
 40
0.0
 40
0.0
 40
0.0
 40
0.0
 40
0.25
 40
0.25
 40
0.5
 40
0.5
 40
1.0
 40
1.0
 40
1.0
 40
1.0
 10
17.98813636615382
 20
-1.028202300700485
 30
0.0
 10
17.9679995359464
 20
-1.259907927940801
 30
0.0
 10
17.94796211475522
 20
-1.487370282621456
 30
0.0
 10
17.90873762507228
 20
-1.926573195913685
 30
0.0
 10
17.88988646442638
 20
-2.137123834171245
 30
0.0
 10
17.83311095890802
 20
-2.744600135272866
 30
0.0
 10
17.79274913620062
 20
-3.124208393324689
 30
0.0
 10
17.75242119460013
 20
-3.451387659394525
 30
0.0
  0
SPLINE
  5
160
330
1F
100
AcDbEntity
  8
외형선
  6
Continuous
370
    15
100
AcDbSpline
210
0.0
220
0.0
230
1.0
 70
     8
 71
     3
 72
    14
 73
    10
 74
     0
 42
0.000000001
 43
0.00000001
 40
0.0
 40
0.0
 40
0.0
 40
0.0
 40
0.2500000000000002
 40
0.2500000000000002
 40
0.5000000000000004
 40
0.5000000000000004
 40
0.7500000000000002
 40
0.7500000000000002
 40
1.0
 40
1.0
 40
1.0
 40
1.0
 10
9.205592767874206
 20
1.052674098328589
 30
0.0
 10
9.218791163548879
 20
1.284667678448982
 30
0.0
 10
9.232384378195174
 20
1.511511692916709
 30
0.0
 10
9.260325799065635
 20
1.95483726350494
 30
0.0
 10
9.274775788919857
 20
2.172650817286395
 30
0.0
 10
9.303484675686741
 20
2.584054254939033
 30
0.0
 10
9.31782909950252
 20
2.779144639288314
 30
0.0
 10
9.346435633375961
 20
3.148292826840503
 30
0.0
 10
9.360542592771163
 20
3.323198400855744
 30
0.0
 10
9.375185687122643
 20
3.484681298789608
 30
0.0
  0
SPLINE
  5
161
330
1F
100
AcDbEntity
  8
외형선
  6
Continuous
370
    15
100
AcDbSpline
210
0.0
220
0.0
230
1.0
 70
     8
 71
     3
 72
    10
 73
     6
 74
     0
 42
0.000000001
 43
0.00000001
 40
0.0
 40
0.0
 40
0.0
 40
0.0
 40
0.5
 40
0.5
 40
1.0
 40
1.0
 40
1.0
 40
1.0
 10
9.999999999999996
 20
2.50424926754481
 30
0.0
 10
9.963986897885293
 20
2.228976718062209
 30
0.0
 10
9.9279254830696
 20
1.939804248301725
 30
0.0
 10
9.855571668946036
 20
1.334802359923178
 30
0.0
 10
9.818995877727167
 20
1.016327209163008
 30
0.0
 10
9.78317528781794
 20
0.6919642478916852
 30
0.0
  0
SPLINE
  5
162
330
1F
100
AcDbEntity
  8
외형선
  6
Continuous
370
    15
100
AcDbSpline
210
0.0
220
0.0
230
1.0
 70
    24
 71
     3
 72
     8
 73
     4
 74
     0
 42
0.000000001
 43
0.00000001
 40
0.0
 40
0.0
 40
0.0
 40
0.0
 40
1.0
 40
1.0
 40
1.0
 40
1.0
 10
9.99999999999937
 20
2.50424926754483
 30
0.0
 10
9.99999999999937
 20
2.757388606976424
 30
0.0
 10
9.999999999999996
 20
2.998914188056581
 30
0.0
 10
9.999999999999996
 20
3.220391952892501
 30
0.0
  0
SPLINE
  5
163
330
1F
100
AcDbEntity
  8
외형선
  6
Continuous
370
    15
100
AcDbSpline
210
0.0
220
0.0
230
1.0
 70
     8
 71
     3
 72
    12
 73
     8
 74
     0
 42
0.000000001
 43
0.00000001
 40
0.0
 40
0.0
 40
0.0
 40
0.0
 40
0.2499999999999999
 40
0.2499999999999999
 40
0.4999999999999998
 40
0.4999999999999998
 40
1.0
 40
1.0
 40
1.0
 40
1.0
 10
8.47985595089869
 20
-3.78951559478981
 30
0.0
 10
8.563162476287097
 20
-3.841273129452248
 30
0.0
 10
8.647255836943044
 20
-3.88701250972838
 30
0.0
 10
8.8191624618033
 20
-3.964927843669784
 30
0.0
 10
8.905760894230909
 20
-3.996249187364355
 30
0.0
 10
9.15475810723204
 20
-4.062308226364662
 30
0.0
 10
9.31021846532155
 20
-4.069778872606594
 30
0.0
 10
9.439128959989796
 20
-4.046724037394381
 30
0.0
  0
SPLINE
  5
164
330
1F
100
AcDbEntity
  8
외형선
  6
Continuous
370
    15
100
AcDbSpline
210
0.0
220
0.0
230
1.0
 70
    24
 71
     3
 72
    10
 73
     6
 74
     0
 42
0.000000001
 43
0.00000001
 40
0.0
 40
0.0
 40
0.0
 40
0.0
 40
0.5
 40
0.5
 40
1.0
 40
1.0
 40
1.0
 40
1.0
 10
8.479855950898672
 20
-3.789503003166939
 30
0.0
 10
8.479855950898672
 20
-4.092581183946592
 30
0.0
 10
8.479855950898672
 20
-4.323716459239535
 30
0.0
 10
8.479855950898672
 20
-4.648045565786247
 30
0.0
 10
8.479855950898672
 20
-4.732047984688888
 30
0.0
 10
8.479855950898672
 20
-4.738558472489558
 30
0.0
  0
SPLINE
  5
165
330
1F
100
AcDbEntity
  8
외형선
  6
Continuous
370
    15
100
AcDbSpline
210
0.0
220
0.0
230
1.0
 70
     8
 71
     3
 72
    10
 73
     6
 74
     0
 42
0.000000001
 43
0.00000001
 40
0.0
 40
0.0
 40
0.0
 40
0.0
 40
0.5
 40
0.5
 40
1.0
 40
1.0
 40
1.0
 40
1.0
 10
9.209044961894964
 20
-4.587862026159151
 30
0.0
 10
9.091966731076894
 20
-4.666753308332327
 30
0.0
 10
8.967335960455516
 20
-4.718241464952198
 30
0.0
 10
8.719459737964218
 20
-4.767551152994165
 30
0.0
 10
8.59590015251673
 20
-4.765400168761345
 30
0.0
 10
8.479855950898717
 20
-4.738558133015169
 30
0.0
  0
SPLINE
  5
166
330
1F
100
AcDbEntity
  8
외형선
  6
Continuous
370
    15
100
AcDbSpline
210
0.0
220
0.0
230
1.0
 70
     8
 71
     3
 72
    30
 73
    26
 74
     0
 42
0.000000001
 43
0.00000001
 40
0.0
 40
0.0
 40
0.0
 40
0.0
 40
0.2499999999999907
 40
0.2499999999999907
 40
0.3749999999999861
 40
0.3749999999999861
 40
0.4374999999999837
 40
0.4374999999999837
 40
0.4687499999999827
 40
0.4687499999999827
 40
0.4765624999999826
 40
0.4765624999999826
 40
0.4804687499999825
 40
0.4804687499999825
 40
0.4843749999999824
 40
0.4843749999999824
 40
0.4999999999999829
 40
0.4999999999999829
 40
0.5624999999999849
 40
0.5624999999999849
 40
0.6249999999999869
 40
0.6249999999999869
 40
0.7499999999999912
 40
0.7499999999999912
 40
1.0
 40
1.0
 40
1.0
 40
1.0
 10
9.459422964936634
 20
-1.991476184343708
 30
0.0
 10
9.406843331914239
 20
-2.380541572893236
 30
0.0
 10
9.352963543300381
 20
-2.745503755117895
 30
0.0
 10
9.26039283476236
 20
-3.234355205720966
 30
0.0
 10
9.227951560984277
 20
-3.388787526890986
 30
0.0
 10
9.171422672233886
 20
-3.605512365117586
 30
0.0
 10
9.151691661457189
 20
-3.675113505855518
 30
0.0
 10
9.114673128873699
 20
-3.775102915125539
 30
0.0
 10
9.102629108879315
 20
-3.807980962346093
 30
0.0
 10
9.076290065301544
 20
-3.846815604547269
 30
0.0
 10
9.071103061371094
 20
-3.855028535268171
 30
0.0
 10
9.055662113850065
 20
-3.863879350985488
 30
0.0
 10
9.047515529244542
 20
-3.863986286181493
 30
0.0
 10
9.03902124392939
 20
-3.858593829349048
 30
0.0
 10
9.036505571691425
 20
-3.855073077471162
 30
0.0
 10
9.025427511246962
 20
-3.83740704431065
 30
0.0
 10
9.02207556087411
 20
-3.821809491151472
 30
0.0
 10
9.005594873988708
 20
-3.743524783450352
 30
0.0
 10
9.003663182506177
 20
-3.676505264285271
 30
0.0
 10
8.999723974442391
 20
-3.537365063710611
 30
0.0
 10
8.999682308297956
 20
-3.464639490706439
 30
0.0
 10
9.001913905921048
 20
-3.240039616343088
 30
0.0
 10
9.006608886974186
 20
-3.081464519971974
 30
0.0
 10
9.023936166885981
 20
-2.580314824447495
 30
0.0
 10
9.039757884074936
 20
-2.208529234214264
 30
0.0
 10
9.057915905005027
 20
-1.813084377552473
 30
0.0
  0
SPLINE
  5
167
330
1F
100
AcDbEntity
  8
0
  6
Continuous
 62
     1
370
    15
100
AcDbSpline
210
0.0
220
0.0
230
1.0
 70
     8
 71
     3
 72
    10
 73
     6
 74
     0
 42
0.000000001
 43
0.00000001
 40
0.0
 40
0.0
 40
0.0
 40
0.0
 40
0.5
 40
0.5
 40
1.0
 40
1.0
 40
1.0
 40
1.0
 10
21.53219347233228
 20
2.690132065279397
 30
0.0
 10
21.49684057900699
 20
2.701722805212428
 30
0.0
 10
21.45493975700106
 20
2.718036080502578
 30
0.0
 10
21.36240328379736
 20
2.758541724308257
 30
0.0
 10
21.3122323697424
 20
2.782632272744648
 30
0.0
 10
21.26821553834682
 20
2.8084477322634
 30
0.0
  0
SPLINE
  5
168
330
1F
100
AcDbEntity
  8
외형선
  6
Continuous
370
    15
100
AcDbSpline
210
0.0
220
0.0
230
1.0
 70
    24
 71
     3
 72
     8
 73
     4
 74
     0
 42
0.000000001
 43
0.00000001
 40
0.0
 40
0.0
 40
0.0
 40
0.0
 40
1.0
 40
1.0
 40
1.0
 40
1.0
 10
8.479855950898665
 20
-0.3143228194044264
 30
0.0
 10
8.479855950898665
 20
-0.6699656034325124
 30
0.0
 10
8.479855950898672
 20
-1.020851571066306
 30
0.0
 10
8.479855950898672
 20
-1.361198111568936
 30
0.0
  0
SPLINE
  5
169
330
1F
100
AcDbEntity
  8
0
  6
Continuous
 62
     1
370
    15
100
AcDbSpline
210
0.0
220
0.0
230
1.0
 70
     8
 71
     3
 72
    10
 73
     6
 74
     0
 42
0.000000001
 43
0.00000001
 40
0.0
 40
0.0
 40
0.0
 40
0.0
 40
0.5
 40
0.5
 40
1.0
 40
1.0
 40
1.0
 40
1.0
 10
20.44454895017143
 20
3.158783849974955
 30
0.0
 10
20.40940205974235
 20
3.164992287933836
 30
0.0
 10
20.36766324687245
 20
3.177009654809095
 30
0.0
 10
20.27526709858703
 20
3.212397481044958
 30
0.0
 10
20.22465929369893
 20
3.236036869148357
 30
0.0
 10
20.18033090613282
 20
3.263833253858919
 30
0.0
  0
SPLINE
  5
16A
330
1F
100
AcDbEntity
  8
0
  6
Continuous
 62
     1
370
    15
100
AcDbSpline
210
0.0
220
0.0
230
1.0
 70
     8
 71
     3
 72
     8
 73
     4
 74
     0
 42
0.000000001
 43
0.00000001
 40
0.0
 40
0.0
 40
0.0
 40
0.0
 40
1.0
 40
1.0
 40
1.0
 40
1.0
 10
22.69999402330055
 20
2.136142218170633
 30
0.0
 10
22.69978256581636
 20
1.827258863021771
 30
0.0
 10
22.69438486438021
 20
1.502398995449787
 30
0.0
 10
22.68677345211835
 20
1.167309691445861
 30
0.0
  0
SPLINE
  5
16B
330
1F
100
AcDbEntity
  8
0
  6
Continuous
 62
     1
370
    15
100
AcDbSpline
210
0.0
220
0.0
230
1.0
 70
     8
 71
     3
 72
     8
 73
     4
 74
     0
 42
0.000000001
 43
0.00000001
 40
0.0
 40
0.0
 40
0.0
 40
0.0
 40
1.0
 40
1.0
 40
1.0
 40
1.0
 10
22.69999402330055
 20
2.13614221817065
 30
0.0
 10
22.65525399489587
 20
2.158102418370202
 30
0.0
 10
22.60793303633251
 20
2.180931267020878
 30
0.0
 10
22.56579974530973
 20
2.202716987254044
 30
0.0
  0
SPLINE
  5
16C
330
1F
100
AcDbEntity
  8
0
  6
Continuous
 62
     1
370
    15
100
AcDbSpline
210
0.0
220
0.0
230
1.0
 70
     8
 71
     3
 72
    12
 73
     8
 74
     0
 42
0.000000001
 43
0.00000001
 40
0.0
 40
0.0
 40
0.0
 40
0.0
 40
0.25
 40
0.25
 40
0.5
 40
0.5
 40
1.0
 40
1.0
 40
1.0
 40
1.0
 10
18.46486391691167
 20
3.958790786784117
 30
0.0
 10
18.44485446348622
 20
3.827160449532588
 30
0.0
 10
18.42507435545883
 20
3.681285137514604
 30
0.0
 10
18.38659674145972
 20
3.366859573676251
 30
0.0
 10
18.3681398586629
 20
3.199243095602595
 30
0.0
 10
18.3100727689056
 20
2.655760159078749
 30
0.0
 10
18.26930480006286
 20
2.242362780492488
 30
0.0
 10
18.22910890899026
 20
1.80341745829367
 30
0.0
  0
SPLINE
  5
16D
330
1F
100
AcDbEntity
  8
0
  6
Continuous
 62
     1
370
    15
100
AcDbSpline
210
0.0
220
0.0
230
1.0
 70
     8
 71
     3
 72
     8
 73
     4
 74
     0
 42
0.000000001
 43
0.00000001
 40
0.0
 40
0.0
 40
0.0
 40
0.0
 40
1.0
 40
1.0
 40
1.0
 40
1.0
 10
18.88186166747685
 20
3.732988430317387
 30
0.0
 10
18.75015666532992
 20
3.822087219952996
 30
0.0
 10
18.60649984582314
 20
3.902291367888438
 30
0.0
 10
18.46486391691133
 20
3.958790786781931
 30
0.0
  0
LINE
  5
16E
330
1F
100
AcDbEntity
  8
0
  6
Continuous
 62
     1
370
    15
100
AcDbLine
 10
22.7
 20
1.18149813689124
 30
0.0
 11
22.7
 21
2.136139318888423
 31
0.0
  0
SPLINE
  5
16F
330
1F
100
AcDbEntity
  8
0
  6
Continuous
 62
     1
370
    15
100
AcDbSpline
210
0.0
220
0.0
230
1.0
 70
     8
 71
     3
 72
     8
 73
     4
 74
     0
 42
0.000000001
 43
0.00000001
 40
0.0
 40
0.0
 40
0.0
 40
0.0
 40
1.0
 40
1.0
 40
1.0
 40
1.0
 10
18.46486391691131
 20
3.958790786781805
 30
0.0
 10
18.31488319051859
 20
3.995053948489494
 30
0.0
 10
18.17537823346002
 20
4.0010976925628
 30
0.0
 10
18.0591807677125
 20
3.982684733853563
 30
0.0
  0
SPLINE
  5
170
330
1F
100
AcDbEntity
  8
0
  6
Continuous
 62
     1
370
    15
100
AcDbSpline
210
0.0
220
0.0
230
1.0
 70
     8
 71
     3
 72
    10
 73
     6
 74
     0
 42
0.000000001
 43
0.00000001
 40
0.0
 40
0.0
 40
0.0
 40
0.0
 40
0.5
 40
0.5
 40
1.0
 40
1.0
 40
1.0
 40
1.0
 10
19.1457165635947
 20
3.643876671802858
 30
0.0
 10
19.11038035830126
 20
3.644006106381746
 30
0.0
 10
19.06850735683536
 20
3.651075785516029
 30
0.0
 10
18.976039327763
 20
3.680540214930072
 30
0.0
 10
18.9258862052411
 20
3.703205711626985
 30
0.0
 10
18.88186166747685
 20
3.732988430317384
 30
0.0
  0
SPLINE
  5
171
330
1F
100
AcDbEntity
  8
0
  6
Continuous
 62
     1
370
    15
100
AcDbSpline
210
0.0
220
0.0
230
1.0
 70
     8
 71
     3
 72
    10
 73
     6
 74
     0
 42
0.000000001
 43
0.00000001
 40
0.0
 40
0.0
 40
0.0
 40
0.0
 40
0.4999999999999999
 40
0.4999999999999999
 40
1.0
 40
1.0
 40
1.0
 40
1.0
 10
17.79552236741003
 20
4.053425787639475
 30
0.0
 10
17.62171404102765
 20
4.172894536002915
 30
0.0
 10
17.43190593051685
 20
4.262212001857231
 30
0.0
 10
17.06974929170365
 20
4.3453415942552
 30
0.0
 10
16.9009948148834
 20
4.339240176396875
 30
0.0
 10
16.76221813174092
 20
4.294404075551602
 30
0.0
  0
SPLINE
  5
172
330
1F
100
AcDbEntity
  8
0
  6
Continuous
 62
     1
370
    15
100
AcDbSpline
210
0.0
220
0.0
230
1.0
 70
     8
 71
     3
 72
    10
 73
     6
 74
     0
 42
0.000000001
 43
0.00000001
 40
0.0
 40
0.0
 40
0.0
 40
0.0
 40
0.5
 40
0.5
 40
1.0
 40
1.0
 40
1.0
 40
1.0
 10
20.37361264857203
 20
-2.311163714023313
 30
0.0
 10
20.33593656660033
 20
-2.716666284648397
 30
0.0
 10
20.29570452877762
 20
-3.09759360483236
 30
0.0
 10
20.21516928865397
 20
-3.756058513898704
 30
0.0
 10
20.17494270603348
 20
-4.03297002327561
 30
0.0
 10
20.13727642835766
 20
-4.243487203185238
 30
0.0
  0
SPLINE
  5
173
330
1F
100
AcDbEntity
  8
0
  6
Continuous
 62
     1
370
    15
100
AcDbSpline
210
0.0
220
0.0
230
1.0
 70
     8
 71
     3
 72
     9
 73
     5
 74
     0
 42
0.000000001
 43
0.00000001
 40
0.0
 40
0.0
 40
0.0
 40
0.0
 40
0.1474034842361502
 40
1.0
 40
1.0
 40
1.0
 40
1.0
 10
16.21008356075038
 20
4.504139288849291
 30
0.0
 10
16.21558856879201
 20
4.506481791315244
 30
0.0
 10
16.25293509469108
 20
4.522373562653559
 30
0.0
 10
16.29036893224995
 20
4.533074657911208
 30
0.0
 10
16.3222848917243
 20
4.542198374442736
 30
0.0
  0
SPLINE
  5
174
330
1F
100
AcDbEntity
  8
0
  6
Continuous
 62
     1
370
    15
100
AcDbSpline
210
0.0
220
0.0
230
1.0
 70
     8
 71
     3
 72
     8
 73
     4
 74
     0
 42
0.000000001
 43
0.00000001
 40
0.0
 40
0.0
 40
0.0
 40
0.0
 40
1.0
 40
1.0
 40
1.0
 40
1.0
 10
16.32228486270323
 20
4.542198372502574
 30
0.0
 10
16.47237191972226
 20
4.552232088577946
 30
0.0
 10
16.61191233565496
 20
4.525691887302457
 30
0.0
 10
16.72812188445945
 20
4.470697448704858
 30
0.0
  0
SPLINE
  5
175
330
1F
100
AcDbEntity
  8
0
  6
Continuous
 62
     1
370
    15
100
AcDbSpline
210
0.0
220
0.0
230
1.0
 70
     8
 71
     3
 72
    10
 73
     6
 74
     0
 42
0.000000001
 43
0.00000001
 40
0.0
 40
0.0
 40
0.0
 40
0.0
 40
0.4999999999999964
 40
0.4999999999999964
 40
1.0
 40
1.0
 40
1.0
 40
1.0
 10
16.72812188445945
 20
4.47069744870486
 30
0.0
 10
16.7631786704612
 20
4.45410734672928
 30
0.0
 10
16.80482709378079
 20
4.446559158172771
 30
0.0
 10
16.89705551560749
 20
4.454939152942169
 30
0.0
 10
16.94755157383602
 20
4.471793738420542
 30
0.0
 10
16.99178821805646
 20
4.50237757895712
 30
0.0
  0
SPLINE
  5
176
330
1F
100
AcDbEntity
  8
0
  6
Continuous
 62
     1
370
    15
100
AcDbSpline
210
0.0
220
0.0
230
1.0
 70
     8
 71
     3
 72
    10
 73
     6
 74
     0
 42
0.000000001
 43
0.00000001
 40
0.0
 40
0.0
 40
0.0
 40
0.0
 40
0.5
 40
0.5
 40
1.0
 40
1.0
 40
1.0
 40
1.0
 10
16.99178821805643
 20
4.502377578957138
 30
0.0
 10
17.16548333533638
 20
4.622464983019741
 30
0.0
 10
17.35497448896472
 20
4.69049473590678
 30
0.0
 10
17.71730436923836
 20
4.715247371982428
 30
0.0
 10
17.8862640896481
 20
4.672375848389803
 30
0.0
 10
18.02504472896904
 20
4.586656725373245
 30
0.0
  0
SPLINE
  5
177
330
1F
100
AcDbEntity
  8
0
  6
Continuous
 62
     1
370
    15
100
AcDbSpline
210
0.0
220
0.0
230
1.0
 70
     8
 71
     3
 72
    10
 73
     6
 74
     0
 42
0.000000001
 43
0.00000001
 40
0.0
 40
0.0
 40
0.0
 40
0.0
 40
0.5
 40
0.5
 40
1.0
 40
1.0
 40
1.0
 40
1.0
 10
18.02504472896906
 20
4.586656725373241
 30
0.0
 10
18.06036219474149
 20
4.56484257169883
 30
0.0
 10
18.10222841201127
 20
4.552510883807619
 30
0.0
 10
18.1947186258357
 20
4.553620013403157
 30
0.0
 10
18.24486738414218
 20
4.568002540489636
 30
0.0
 10
18.28885361800322
 20
4.598054142726424
 30
0.0
  0
SPLINE
  5
178
330
1F
100
AcDbEntity
  8
0
  6
Continuous
 62
     1
370
    15
100
AcDbSpline
210
0.0
220
0.0
230
1.0
 70
     8
 71
     3
 72
     8
 73
     4
 74
     0
 42
0.000000001
 43
0.00000001
 40
0.0
 40
0.0
 40
0.0
 40
0.0
 40
1.0
 40
1.0
 40
1.0
 40
1.0
 10
18.28885361800322
 20
4.598054142726426
 30
0.0
 10
18.42059475754095
 20
4.688060310022223
 30
0.0
 10
18.56430017868615
 20
4.742854671179429
 30
0.0
 10
18.70585628417523
 20
4.761855505499779
 30
0.0
  0
SPLINE
  5
179
330
1F
100
AcDbEntity
  8
0
  6
Continuous
 62
     1
370
    15
100
AcDbSpline
210
0.0
220
0.0
230
1.0
 70
     8
 71
     3
 72
     8
 73
     4
 74
     0
 42
0.000000001
 43
0.00000001
 40
0.0
 40
0.0
 40
0.0
 40
0.0
 40
1.0
 40
1.0
 40
1.0
 40
1.0
 10
18.7058562551671
 20
4.76185550886951
 30
0.0
 10
18.85597715485448
 20
4.744416924507913
 30
0.0
 10
18.99541311231366
 20
4.686877166786582
 30
0.0
 10
19.11169334979422
 20
4.599138878659398
 30
0.0
  0
SPLINE
  5
17A
330
1F
100
AcDbEntity
  8
0
  6
Continuous
 62
     1
370
    15
100
AcDbSpline
210
0.0
220
0.0
230
1.0
 70
     8
 71
     3
 72
    10
 73
     6
 74
     0
 42
0.000000001
 43
0.00000001
 40
0.0
 40
0.0
 40
0.0
 40
0.0
 40
0.5
 40
0.5
 40
1.0
 40
1.0
 40
1.0
 40
1.0
 10
19.11169334979422
 20
4.599138878659399
 30
0.0
 10
19.14676660270717
 20
4.572674646763162
 30
0.0
 10
19.1884355428295
 20
4.555799210571551
 30
0.0
 10
19.28072290141068
 20
4.548906310564747
 30
0.0
 10
19.3312770203789
 20
4.560052899937586
 30
0.0
 10
19.37556466589502
 20
4.588273405999171
 30
0.0
  0
SPLINE
  5
17B
330
1F
100
AcDbEntity
  8
0
  6
Continuous
 62
     1
370
    15
100
AcDbSpline
210
0.0
220
0.0
230
1.0
 70
     8
 71
     3
 72
    10
 73
     6
 74
     0
 42
0.000000001
 43
0.00000001
 40
0.0
 40
0.0
 40
0.0
 40
0.0
 40
0.5
 40
0.5
 40
1.0
 40
1.0
 40
1.0
 40
1.0
 10
19.37556466589501
 20
4.588273405999195
 30
0.0
 10
19.54952813880827
 20
4.699124574189137
 30
0.0
 10
19.73955796711829
 20
4.739759237953639
 30
0.0
 10
20.10249565800924
 20
4.703113776268559
 30
0.0
 10
20.27167306357206
 20
4.626577783556951
 30
0.0
 10
20.41071410313399
 20
4.506465360433308
 30
0.0
  0
SPLINE
  5
17C
330
1F
100
AcDbEntity
  8
0
  6
Continuous
 62
     1
370
    15
100
AcDbSpline
210
0.0
220
0.0
230
1.0
 70
     8
 71
     3
 72
    10
 73
     6
 74
     0
 42
0.000000001
 43
0.00000001
 40
0.0
 40
0.0
 40
0.0
 40
0.0
 40
0.5
 40
0.5
 40
1.0
 40
1.0
 40
1.0
 40
1.0
 10
20.41071410313399
 20
4.506465360433308
 30
0.0
 10
20.44611568604747
 20
4.475883239359218
 30
0.0
 10
20.48805287495487
 20
4.454918880394419
 30
0.0
 10
20.58063894584948
 20
4.441003492212547
 30
0.0
 10
20.6308402876523
 20
4.449210618968531
 30
0.0
 10
20.67489564232632
 20
4.475686673095525
 30
0.0
  0
SPLINE
  5
17D
330
1F
100
AcDbEntity
  8
0
  6
Continuous
 62
     1
370
    15
100
AcDbSpline
210
0.0
220
0.0
230
1.0
 70
     8
 71
     3
 72
     8
 73
     4
 74
     0
 42
0.000000001
 43
0.00000001
 40
0.0
 40
0.0
 40
0.0
 40
0.0
 40
1.0
 40
1.0
 40
1.0
 40
1.0
 10
20.67489564232631
 20
4.475686673095531
 30
0.0
 10
20.80675008550488
 20
4.554927559936909
 30
0.0
 10
20.95043904413892
 20
4.58931128710112
 30
0.0
 10
21.09213082476091
 20
4.586130224950957
 30
0.0
  0
SPLINE
  5
17E
330
1F
100
AcDbEntity
  8
0
  6
Continuous
 62
     1
370
    15
100
AcDbSpline
210
0.0
220
0.0
230
1.0
 70
     8
 71
     3
 72
     8
 73
     4
 74
     0
 42
0.000000001
 43
0.00000001
 40
0.0
 40
0.0
 40
0.0
 40
0.0
 40
1.0
 40
1.0
 40
1.0
 40
1.0
 10
21.09213079573048
 20
4.586130233378175
 30
0.0
 10
21.24217892026164
 20
4.542573123550443
 30
0.0
 10
21.38180902542033
 20
4.45879864680593
 30
0.0
 10
21.49814342115282
 20
4.34552800258112
 30
0.0
  0
SPLINE
  5
17F
330
1F
100
AcDbEntity
  8
0
  6
Continuous
 62
     1
370
    15
100
AcDbSpline
210
0.0
220
0.0
230
1.0
 70
     8
 71
     3
 72
    10
 73
     6
 74
     0
 42
0.000000001
 43
0.00000001
 40
0.0
 40
0.0
 40
0.0
 40
0.0
 40
0.5
 40
0.5
 40
1.0
 40
1.0
 40
1.0
 40
1.0
 10
21.49814342115283
 20
4.345528002581127
 30
0.0
 10
21.52767937600398
 20
4.31676989873127
 30
0.0
 10
21.56129395662733
 20
4.294955194571192
 30
0.0
 10
21.63748667623475
 20
4.269075677668906
 30
0.0
 10
21.67896824635062
 20
4.266263482367991
 30
0.0
 10
21.71832943636837
 20
4.27628515303474
 30
0.0
  0
SPLINE
  5
180
330
1F
100
AcDbEntity
  8
0
  6
Continuous
 62
     1
370
    15
100
AcDbSpline
210
0.0
220
0.0
230
1.0
 70
     8
 71
     3
 72
    10
 73
     6
 74
     0
 42
0.000000001
 43
0.00000001
 40
0.0
 40
0.0
 40
0.0
 40
0.0
 40
0.5
 40
0.5
 40
1.0
 40
1.0
 40
1.0
 40
1.0
 10
21.71832943636869
 20
4.276285153034698
 30
0.0
 10
21.71241990990662
 20
4.176706858330864
 30
0.0
 10
21.70227602436262
 20
4.078461191340231
 30
0.0
 10
21.67239627272544
 20
3.884988623329675
 30
0.0
 10
21.65235622776593
 20
3.788808307454156
 30
0.0
 10
21.62744369628071
 20
3.698017849776959
 30
0.0
  0
SPLINE
  5
181
330
1F
100
AcDbEntity
  8
0
  6
Continuous
 62
     1
370
    15
100
AcDbSpline
210
0.0
220
0.0
230
1.0
 70
     8
 71
     3
 72
     8
 73
     4
 74
     0
 42
0.000000001
 43
0.00000001
 40
0.0
 40
0.0
 40
0.0
 40
0.0
 40
1.0
 40
1.0
 40
1.0
 40
1.0
 10
22.7
 20
2.580286522571196
 30
0.0
 10
22.34116933720534
 20
2.92616265148329
 30
0.0
 10
21.98353248481617
 20
3.296336388560512
 30
0.0
 10
21.62744369628069
 20
3.698017849776907
 30
0.0
  0
SPLINE
  5
182
330
1F
100
AcDbEntity
  8
0
  6
Continuous
 62
     1
370
    15
100
AcDbSpline
210
0.0
220
0.0
230
1.0
 70
     8
 71
     3
 72
    10
 73
     6
 74
     0
 42
0.000000001
 43
0.00000001
 40
0.0
 40
0.0
 40
0.0
 40
0.0
 40
0.5
 40
0.5
 40
1.0
 40
1.0
 40
1.0
 40
1.0
 10
18.0591807677125
 20
3.98268473385356
 30
0.0
 10
18.02413302070785
 20
3.977130974877001
 30
0.0
 10
17.98248939715162
 20
3.979334805747369
 30
0.0
 10
17.89025023056625
 20
4.001972443397132
 30
0.0
 10
17.8397496518279
 20
4.023025757773842
 30
0.0
 10
17.79552236741002
 20
4.053425787639459
 30
0.0
  0
SPLINE
  5
183
330
1F
100
AcDbEntity
  8
0
  6
Continuous
 62
     1
370
    15
100
AcDbSpline
210
0.0
220
0.0
230
1.0
 70
     8
 71
     3
 72
    10
 73
     6
 74
     0
 42
0.000000001
 43
0.00000001
 40
0.0
 40
0.0
 40
0.0
 40
0.0
 40
0.5
 40
0.5
 40
1.0
 40
1.0
 40
1.0
 40
1.0
 10
16.76221813174092
 20
4.294404075551601
 30
0.0
 10
16.72689567761702
 20
4.28299206397055
 30
0.0
 10
16.68502438990487
 20
4.280142033528437
 30
0.0
 10
16.59251871157151
 20
4.295887393907456
 30
0.0
 10
16.54235008521558
 20
4.315122509839735
 30
0.0
 10
16.49834103692955
 20
4.346279683386918
 30
0.0
  0
SPLINE
  5
184
330
1F
100
AcDbEntity
  8
0
  6
Continuous
 62
     1
370
    15
100
AcDbSpline
210
0.0
220
0.0
230
1.0
 70
     8
 71
     3
 72
     8
 73
     4
 74
     0
 42
0.000000001
 43
0.00000001
 40
0.0
 40
0.0
 40
0.0
 40
0.0
 40
1.0
 40
1.0
 40
1.0
 40
1.0
 10
16.49834103692955
 20
4.346279683386915
 30
0.0
 10
16.36658952489912
 20
4.439556063706609
 30
0.0
 10
16.22284903125367
 20
4.509760156283767
 30
0.0
 10
16.08119034964104
 20
4.548936750835462
 30
0.0
  0
SPLINE
  5
185
330
1F
100
AcDbEntity
  8
0
  6
Continuous
 62
     1
370
    15
100
AcDbSpline
210
0.0
220
0.0
230
1.0
 70
     8
 71
     3
 72
     8
 73
     4
 74
     0
 42
0.000000001
 43
0.00000001
 40
0.0
 40
0.0
 40
0.0
 40
0.0
 40
1.0
 40
1.0
 40
1.0
 40
1.0
 10
16.0811903496412
 20
4.548936750835387
 30
0.0
 10
15.93098774319845
 20
4.558532414715358
 30
0.0
 10
15.79135780030425
 20
4.531443463468378
 30
0.0
 10
15.67498317210877
 20
4.475928059937012
 30
0.0
  0
SPLINE
  5
186
330
1F
100
AcDbEntity
  8
0
  6
Continuous
 62
     1
370
    15
100
AcDbSpline
210
0.0
220
0.0
230
1.0
 70
     8
 71
     3
 72
    10
 73
     6
 74
     0
 42
0.000000001
 43
0.00000001
 40
0.0
 40
0.0
 40
0.0
 40
0.0
 40
0.4999999999999998
 40
0.4999999999999998
 40
1.0
 40
1.0
 40
1.0
 40
1.0
 10
15.67498317210877
 20
4.47592805993701
 30
0.0
 10
15.63985477279602
 20
4.45917039296528
 30
0.0
 10
15.59813279824715
 20
4.451475038482786
 30
0.0
 10
15.50579001130399
 20
4.459614026484489
 30
0.0
 10
15.45522743770271
 20
4.476375431644676
 30
0.0
 10
15.41092368409692
 20
4.506970571443375
 30
0.0
  0
SPLINE
  5
187
330
1F
100
AcDbEntity
  8
0
  6
Continuous
 62
     1
370
    15
100
AcDbSpline
210
0.0
220
0.0
230
1.0
 70
     8
 71
     3
 72
    10
 73
     6
 74
     0
 42
0.000000001
 43
0.00000001
 40
0.0
 40
0.0
 40
0.0
 40
0.0
 40
0.5
 40
0.5
 40
1.0
 40
1.0
 40
1.0
 40
1.0
 10
15.41092368409692
 20
4.506970571443389
 30
0.0
 10
15.23693461051229
 20
4.62712337107147
 30
0.0
 10
15.04712462595405
 20
4.694655107085866
 30
0.0
 10
14.68421307016101
 20
4.718395554547249
 30
0.0
 10
14.51494043373427
 20
4.67496930735602
 30
0.0
 10
14.37586427580654
 20
4.588550343127507
 30
0.0
  0
SPLINE
  5
188
330
1F
100
AcDbEntity
  8
0
  6
Continuous
 62
     1
370
    15
100
AcDbSpline
210
0.0
220
0.0
230
1.0
 70
     8
 71
     3
 72
    10
 73
     6
 74
     0
 42
0.000000001
 43
0.00000001
 40
0.0
 40
0.0
 40
0.0
 40
0.0
 40
0.5
 40
0.5
 40
1.0
 40
1.0
 40
1.0
 40
1.0
 10
14.37586427580654
 20
4.588550343127502
 30
0.0
 10
14.34050010245263
 20
4.566575798550062
 30
0.0
 10
14.29859471198104
 20
4.554081568811587
 30
0.0
 10
14.20604211424011
 20
4.554916397768282
 30
0.0
 10
14.15585778396277
 20
4.569190716962647
 30
0.0
 10
14.11183640377114
 20
4.599217377072281
 30
0.0
  0
SPLINE
  5
189
330
1F
100
AcDbEntity
  8
0
  6
Continuous
 62
     1
370
    15
100
AcDbSpline
210
0.0
220
0.0
230
1.0
 70
     8
 71
     3
 72
     8
 73
     4
 74
     0
 42
0.000000001
 43
0.00000001
 40
0.0
 40
0.0
 40
0.0
 40
0.0
 40
1.0
 40
1.0
 40
1.0
 40
1.0
 10
14.11183640377114
 20
4.599217377072279
 30
0.0
 10
13.98004870800546
 20
4.689108796427204
 30
0.0
 10
13.83630401450824
 20
4.743573781049976
 30
0.0
 10
13.69471880494911
 20
4.762193611773045
 30
0.0
  0
SPLINE
  5
18A
330
1F
100
AcDbEntity
  8
0
  6
Continuous
 62
     1
370
    15
100
AcDbSpline
210
0.0
220
0.0
230
1.0
 70
     8
 71
     3
 72
    10
 73
     6
 74
     0
 42
0.000000001
 43
0.00000001
 40
0.0
 40
0.0
 40
0.0
 40
0.0
 40
0.3576886496867647
 40
0.7178996463598318
 40
1.0
 40
1.0
 40
1.0
 40
1.0
 10
13.69471880495019
 20
4.762193611773191
 30
0.0
 10
13.66776538739991
 20
4.758170048076614
 30
0.0
 10
13.61366848232766
 20
4.750094547337607
 30
0.0
 10
13.54084184197375
 20
4.730309003386903
 30
0.0
 10
13.49613078336635
 20
4.7128634721861
 30
0.0
 10
13.47649388073553
 20
4.705201470699144
 30
0.0
  0
LINE
  5
18B
330
1F
100
AcDbEntity
  8
0
  6
Continuous
 62
     1
370
    15
100
AcDbLine
 10
22.7
 20
2.136139318888423
 30
0.0
 11
22.7
 21
2.580286522571196
 31
0.0
  0
SPLINE
  5
18C
330
1F
100
AcDbEntity
  8
0
  6
Continuous
 62
     1
370
    15
100
AcDbSpline
210
0.0
220
0.0
230
1.0
 70
     8
 71
     3
 72
    12
 73
     8
 74
     0
 42
0.000000001
 43
0.00000001
 40
0.0
 40
0.0
 40
0.0
 40
0.0
 40
0.4999999999999998
 40
0.4999999999999998
 40
0.7499999999999999
 40
0.7499999999999999
 40
1.0
 40
1.0
 40
1.0
 40
1.0
 10
10.35706598533088
 20
-2.486018157968449
 30
0.0
 10
10.3186990978128
 20
-2.88404289259224
 30
0.0
 10
10.27810800837553
 20
-3.253032780205865
 30
0.0
 10
10.21777499272246
 20
-3.72413061550184
 30
0.0
 10
10.19776454707288
 20
-3.867570765711369
 30
0.0
 10
10.15859368541225
 20
-4.12328155593517
 30
0.0
 10
10.13977073128673
 20
-4.235001761433436
 30
0.0
 10
10.12086703485358
 20
-4.331524132208957
 30
0.0
  0
SPLINE
  5
18D
330
1F
100
AcDbEntity
  8
0
  6
Continuous
 62
     1
370
    15
100
AcDbSpline
210
0.0
220
0.0
230
1.0
 70
     8
 71
     3
 72
     8
 73
     4
 74
     0
 42
0.000000001
 43
0.00000001
 40
0.0
 40
0.0
 40
0.0
 40
0.0
 40
1.0
 40
1.0
 40
1.0
 40
1.0
 10
10.00000000000899
 20
-4.284744837916677
 30
0.0
 10
10.04023405374421
 20
-4.302419346556154
 30
0.0
 10
10.08049098567075
 20
-4.318016727906706
 30
0.0
 10
10.12086703485359
 20
-4.331524132208957
 30
0.0
  0
SPLINE
  5
18E
330
1F
100
AcDbEntity
  8
외형선
  6
Continuous
370
    15
100
AcDbSpline
210
0.0
220
0.0
230
1.0
 70
    24
 71
     3
 72
    14
 73
    10
 74
     0
 42
0.000000001
 43
0.00000001
 40
0.0
 40
0.0
 40
0.0
 40
0.0
 40
0.25
 40
0.25
 40
0.5
 40
0.5
 40
0.75
 40
0.75
 40
1.0
 40
1.0
 40
1.0
 40
1.0
 10
9.999999999999996
 20
-4.28474483791474
 30
0.0
 10
9.999999999999996
 20
-4.189016296021998
 30
0.0
 10
9.999999999999996
 20
-4.080420389040902
 30
0.0
 10
9.999999999999996
 20
-3.8374010698898
 30
0.0
 10
10.00000000000002
 20
-3.702555180305382
 30
0.0
 10
10.00000000000002
 20
-3.4139466254501
 30
0.0
 10
9.999999999999996
 20
-3.259457071260957
 30
0.0
 10
9.999999999999996
 20
-2.930128047691284
 30
0.0
 10
9.999999999999996
 20
-2.754318976018917
 30
0.0
 10
9.999999999999996
 20
-2.570205154628674
 30
0.0
  0
SPLINE
  5
18F
330
1F
100
AcDbEntity
  8
외형선
  6
Continuous
370
    15
100
AcDbSpline
210
0.0
220
0.0
230
1.0
 70
     8
 71
     3
 72
    12
 73
     8
 74
     0
 42
0.000000001
 43
0.00000001
 40
0.0
 40
0.0
 40
0.0
 40
0.0
 40
0.2500000000000004
 40
0.2500000000000004
 40
0.5000000000000006
 40
0.5000000000000006
 40
1.0
 40
1.0
 40
1.0
 40
1.0
 10
9.825989173493381
 20
-4.1951896833226
 30
0.0
 10
9.839893966245477
 20
-4.102555090508548
 30
0.0
 10
9.854065153267891
 20
-3.998122202044505
 30
0.0
 10
9.882944757815094
 20
-3.765751839224221
 30
0.0
 10
9.897655591688062
 20
-3.637638274421795
 30
0.0
 10
9.94152017264049
 20
-3.227638416872071
 30
0.0
 10
9.97076888617356
 20
-2.917818563111288
 30
0.0
 10
9.999999999999996
 20
-2.570205154628675
 30
0.0
  0
SPLINE
  5
190
330
1F
100
AcDbEntity
  8
외형선
  6
Continuous
370
    15
100
AcDbSpline
210
0.0
220
0.0
230
1.0
 70
     8
 71
     3
 72
     8
 73
     4
 74
     0
 42
0.000000001
 43
0.00000001
 40
0.0
 40
0.0
 40
0.0
 40
0.0
 40
1.0
 40
1.0
 40
1.0
 40
1.0
 10
9.703360263896588
 20
-4.116000853582342
 30
0.0
 10
9.743200304181658
 20
-4.143955114220407
 30
0.0
 10
9.784225636498773
 20
-4.170521309401337
 30
0.0
 10
9.82598917349334
 20
-4.195189683322633
 30
0.0
  0
SPLINE
  5
191
330
1F
100
AcDbEntity
  8
외형선
  6
Continuous
370
    15
100
AcDbSpline
210
0.0
220
0.0
230
1.0
 70
     8
 71
     3
 72
    10
 73
     6
 74
     0
 42
0.000000001
 43
0.00000001
 40
0.0
 40
0.0
 40
0.0
 40
0.0
 40
0.5
 40
0.5
 40
1.0
 40
1.0
 40
1.0
 40
1.0
 10
9.439128959989803
 20
-4.046724037394381
 30
0.0
 10
9.474534825627519
 20
-4.040391919905233
 30
0.0
 10
9.516484732057776
 20
-4.041990005435961
 30
0.0
 10
9.609083105264553
 20
-4.064092730623289
 30
0.0
 10
9.659288614782353
 20
-4.085077431887147
 30
0.0
 10
9.703360263896595
 20
-4.116000853582345
 30
0.0
  0
SPLINE
  5
192
330
1F
100
AcDbEntity
  8
0
  6
Continuous
 62
     1
370
    15
100
AcDbSpline
210
0.0
220
0.0
230
1.0
 70
     8
 71
     3
 72
     8
 73
     4
 74
     0
 42
0.000000001
 43
0.00000001
 40
0.0
 40
0.0
 40
0.0
 40
0.0
 40
1.0
 40
1.0
 40
1.0
 40
1.0
 10
10.12086700579314
 20
-4.331524128000619
 30
0.0
 10
10.27106257673193
 20
-4.353274107916573
 30
0.0
 10
10.41082711826559
 20
-4.340846781652369
 30
0.0
 10
10.52729037963598
 20
-4.301354038070798
 30
0.0
  0
LINE
  5
193
330
1F
100
AcDbEntity
  8
0
  6
Continuous
 62
     1
370
    15
100
AcDbLine
 10
22.7
 20
-0.2264703329427787
 30
0.0
 11
22.7
 21
-1.883116258311558
 31
0.0
  0
SPLINE
  5
194
330
1F
100
AcDbEntity
  8
0
  6
Continuous
 62
     1
370
    15
100
AcDbSpline
210
0.0
220
0.0
230
1.0
 70
     8
 71
     3
 72
     8
 73
     4
 74
     0
 42
0.000000001
 43
0.00000001
 40
0.0
 40
0.0
 40
0.0
 40
0.0
 40
1.0
 40
1.0
 40
1.0
 40
1.0
 10
21.86730635316847
 20
-4.379230892722102
 30
0.0
 10
21.81902926860663
 20
-4.4250386163873
 30
0.0
 10
21.77089188744172
 20
-4.465664915045943
 30
0.0
 10
21.72287241997019
 20
-4.501917941665305
 30
0.0
  0
SPLINE
  5
195
330
1F
100
AcDbEntity
  8
0
  6
Continuous
 62
     1
370
    15
100
AcDbSpline
210
0.0
220
0.0
230
1.0
 70
     8
 71
     3
 72
    10
 73
     6
 74
     0
 42
0.000000001
 43
0.00000001
 40
0.0
 40
0.0
 40
0.0
 40
0.0
 40
0.5
 40
0.5
 40
1.0
 40
1.0
 40
1.0
 40
1.0
 10
10.79121754903251
 20
-4.35047497676541
 30
0.0
 10
10.96509178530212
 20
-4.471484117871517
 30
0.0
 10
11.15498335215186
 20
-4.549476389084515
 30
0.0
 10
11.51738860477143
 20
-4.60003563949148
 30
0.0
 10
11.68612027819261
 20
-4.572978902396304
 30
0.0
 10
11.82486932586395
 20
-4.504356853526554
 30
0.0
  0
SPLINE
  5
196
330
1F
100
AcDbEntity
  8
0
  6
Continuous
 62
     1
370
    15
100
AcDbSpline
210
0.0
220
0.0
230
1.0
 70
     8
 71
     3
 72
    12
 73
     8
 74
     0
 42
0.000000001
 43
0.00000001
 40
0.0
 40
0.0
 40
0.0
 40
0.0
 40
0.5
 40
0.5
 40
0.75
 40
0.75
 40
1.0
 40
1.0
 40
1.0
 40
1.0
 10
16.08119034964105
 20
4.548936750835464
 30
0.0
 10
16.04194819065043
 20
4.409677337549869
 30
0.0
 10
16.00102867088874
 20
4.200447788474397
 30
0.0
 10
15.94112393405122
 20
3.80046556951463
 30
0.0
 10
15.92140558681636
 20
3.653071594411349
 30
0.0
 10
15.88308617721544
 20
3.336041466298573
 30
0.0
 10
15.86459971238533
 20
3.166981501420714
 30
0.0
 10
15.84519395004731
 20
2.984390223990866
 30
0.0
  0
SPLINE
  5
197
330
1F
100
AcDbEntity
  8
외형선
  6
Continuous
370
    15
100
AcDbSpline
210
0.0
220
0.0
230
1.0
 70
     8
 71
     3
 72
     8
 73
     4
 74
     0
 42
0.000000001
 43
0.00000001
 40
0.0
 40
0.0
 40
0.0
 40
0.0
 40
1.0
 40
1.0
 40
1.0
 40
1.0
 10
9.825989173493323
 20
-4.195189683322642
 30
0.0
 10
9.883959924579795
 20
-4.205402615110232
 30
0.0
 10
9.941963334060283
 20
-4.215199504391111
 30
0.0
 10
9.999999999999996
 20
-4.224581898531308
 30
0.0
  0
SPLINE
  5
198
330
1F
100
AcDbEntity
  8
0
  6
Continuous
 62
     1
370
    15
100
AcDbSpline
210
0.0
220
0.0
230
1.0
 70
     8
 71
     3
 72
    10
 73
     6
 74
     0
 42
0.000000001
 43
0.00000001
 40
0.0
 40
0.0
 40
0.0
 40
0.0
 40
0.5
 40
0.5
 40
1.0
 40
1.0
 40
1.0
 40
1.0
 10
10.52729037963598
 20
-4.301354038070798
 30
0.0
 10
10.56239035207935
 20
-4.289451621848586
 30
0.0
 10
10.60407990758469
 20
-4.286105301453877
 30
0.0
 10
10.69639632964513
 20
-4.300809008355662
 30
0.0
 10
10.74694628553953
 20
-4.319664043035902
 30
0.0
 10
10.79121754903253
 20
-4.350474976765395
 30
0.0
  0
SPLINE
  5
199
330
1F
100
AcDbEntity
  8
0
  6
Continuous
 62
     1
370
    15
100
AcDbSpline
210
0.0
220
0.0
230
1.0
 70
     8
 71
     3
 72
     8
 73
     4
 74
     0
 42
0.000000001
 43
0.00000001
 40
0.0
 40
0.0
 40
0.0
 40
0.0
 40
1.0
 40
1.0
 40
1.0
 40
1.0
 10
22.55166973188071
 20
-3.267430371422807
 30
0.0
 10
22.54168178860732
 20
-3.591768458596877
 30
0.0
 10
22.53278541220247
 20
-3.87133571700029
 30
0.0
 10
22.5252289277939
 20
-4.098843881050149
 30
0.0
  0
SPLINE
  5
19A
330
1F
100
AcDbEntity
  8
0
  6
Continuous
 62
     1
370
    15
100
AcDbSpline
210
0.0
220
0.0
230
1.0
 70
     8
 71
     3
 72
     8
 73
     4
 74
     0
 42
0.000000001
 43
0.00000001
 40
0.0
 40
0.0
 40
0.0
 40
0.0
 40
1.0
 40
1.0
 40
1.0
 40
1.0
 10
22.52522892779391
 20
-4.098843881050151
 30
0.0
 10
22.4067446893266
 20
-4.162042439064117
 30
0.0
 10
22.29206542681116
 20
-4.20102012782738
 30
0.0
 10
22.18411646652995
 20
-4.213563243682411
 30
0.0
  0
SPLINE
  5
19B
330
1F
100
AcDbEntity
  8
0
  6
Continuous
 62
     1
370
    15
100
AcDbSpline
210
0.0
220
0.0
230
1.0
 70
     8
 71
     3
 72
    10
 73
     6
 74
     0
 42
0.000000001
 43
0.00000001
 40
0.0
 40
0.0
 40
0.0
 40
0.0
 40
0.5
 40
0.5
 40
1.0
 40
1.0
 40
1.0
 40
1.0
 10
22.18411646652995
 20
-4.213563243682406
 30
0.0
 10
22.13528968607798
 20
-4.219236665292414
 30
0.0
 10
22.0832659110327
 20
-4.237574757678396
 30
0.0
 10
21.97677508060924
 20
-4.291867335187079
 30
0.0
 10
21.92214095531219
 20
-4.327201066872319
 30
0.0
 10
21.86730635316855
 20
-4.379230892722078
 30
0.0
  0
SPLINE
  5
19C
330
1F
100
AcDbEntity
  8
0
  6
Continuous
 62
     1
370
    15
100
AcDbSpline
210
0.0
220
0.0
230
1.0
 70
     8
 71
     3
 72
    12
 73
     8
 74
     0
 42
0.000000001
 43
0.00000001
 40
0.0
 40
0.0
 40
0.0
 40
0.0
 40
0.2499999999999997
 40
0.2499999999999997
 40
0.4999999999999997
 40
0.4999999999999997
 40
1.0
 40
1.0
 40
1.0
 40
1.0
 10
12.74129790367092
 20
-3.540334674250579
 30
0.0
 10
12.72115150438829
 20
-3.699086193002396
 30
0.0
 10
12.70108673111953
 20
-3.844354569722602
 30
0.0
 10
12.66177493208821
 20
-4.103809048585334
 30
0.0
 10
12.64278553393561
 20
-4.217560305805676
 30
0.0
 10
12.58620412811393
 20
-4.512148625981057
 30
0.0
 10
12.54591298644065
 20
-4.649992118696614
 30
0.0
 10
12.50558260774811
 20
-4.716107348860077
 30
0.0
  0
SPLINE
  5
19D
330
1F
100
AcDbEntity
  8
0
  6
Continuous
 62
     1
370
    15
100
AcDbSpline
210
0.0
220
0.0
230
1.0
 70
     8
 71
     3
 72
     8
 73
     4
 74
     0
 42
0.000000001
 43
0.00000001
 40
0.0
 40
0.0
 40
0.0
 40
0.0
 40
1.0
 40
1.0
 40
1.0
 40
1.0
 10
12.08863544411835
 20
-4.533643115032218
 30
0.0
 10
12.22031544045969
 20
-4.625959600358455
 30
0.0
 10
12.36397660503217
 20
-4.68806907094576
 30
0.0
 10
12.5055826077481
 20
-4.716107348860079
 30
0.0
  0
SPLINE
  5
19E
330
1F
100
AcDbEntity
  8
0
  6
Continuous
 62
     1
370
    15
100
AcDbSpline
210
0.0
220
0.0
230
1.0
 70
     8
 71
     3
 72
    10
 73
     6
 74
     0
 42
0.000000001
 43
0.00000001
 40
0.0
 40
0.0
 40
0.0
 40
0.0
 40
0.5
 40
0.5
 40
1.0
 40
1.0
 40
1.0
 40
1.0
 10
11.82486932586394
 20
-4.504356853526558
 30
0.0
 10
11.86017016498332
 20
-4.486897880309454
 30
0.0
 10
11.90201683599942
 20
-4.478603148559746
 30
0.0
 10
11.99448413385702
 20
-4.486142889396156
 30
0.0
 10
12.04463844273739
 20
-4.502798274166215
 30
0.0
 10
12.08863544411835
 20
-4.533643115032217
 30
0.0
  0
ELLIPSE
  5
19F
330
1F
100
AcDbEntity
  8
0
  6
Continuous
 62
     1
370
    15
100
AcDbEllipse
 10
18.63844274238227
 20
-3.549417600292593
 30
0.0
 11
5.392035381642542
 21
6.768872931977128
 31
0.0
210
0.0
220
0.0
230
1.0
 40
0.4016385608855358
 41
4.944653321757612
 42
4.983101590658191
  0
LINE
  5
1A0
330
1F
100
AcDbEntity
  8
0
  6
Continuous
 62
     1
370
    15
100
AcDbLine
 10
22.7
 20
-3.826075672315825
 30
0.0
 11
22.7
 21
-3.174119069868144
 31
0.0
  0
SPLINE
  5
1A1
330
1F
100
AcDbEntity
  8
0
  6
Continuous
 62
     1
370
    15
100
AcDbSpline
210
0.0
220
0.0
230
1.0
 70
     8
 71
     3
 72
     8
 73
     4
 74
     0
 42
0.000000001
 43
0.00000001
 40
0.0
 40
0.0
 40
0.0
 40
0.0
 40
1.0
 40
1.0
 40
1.0
 40
1.0
 10
12.50558257874691
 20
-4.716107349975479
 30
0.0
 10
12.65559212195948
 20
-4.710337872281673
 30
0.0
 10
12.79505963896317
 20
-4.665571692669484
 30
0.0
 10
12.9112199236334
 20
-4.591083708057766
 30
0.0
  0
LINE
  5
1A2
330
1F
100
AcDbEntity
  8
외형선
  6
Continuous
370
    15
100
AcDbLine
 10
8.695240656544282
 20
4.757242856055157
 30
0.0
 11
8.688879729805967
 21
4.760895185352491
 31
0.0
  0
SPLINE
  5
1A3
330
1F
100
AcDbEntity
  8
외형선
  6
Continuous
370
    15
100
AcDbSpline
210
0.0
220
0.0
230
1.0
 70
    24
 71
     3
 72
    13
 73
     9
 74
     0
 42
0.000000001
 43
0.00000001
 40
0.0
 40
0.0
 40
0.0
 40
0.0
 40
0.134003194367353
 40
0.3290508446571641
 40
0.4933971654798356
 40
0.6590399965589991
 40
0.8288040240094845
 40
1.0
 40
1.0
 40
1.0
 40
1.0
 10
8.479855950898672
 20
4.707979463690992
 30
0.0
 10
8.47985595089868
 20
4.707186022631729
 30
0.0
 10
8.479855950898695
 20
4.705237692579084
 30
0.0
 10
8.479855950898523
 20
4.648285343675139
 30
0.0
 10
8.479855950898706
 20
4.552726571231013
 30
0.0
 10
8.479855950898662
 20
4.424654846576037
 30
0.0
 10
8.479855950898672
 20
4.262349394883667
 30
0.0
 10
8.479855950898672
 20
4.123971533944703
 30
0.0
 10
8.479855950898676
 20
4.054492026906203
 30
0.0
  0
SPLINE
  5
1A4
330
1F
100
AcDbEntity
  8
0
  6
Continuous
 62
     1
370
    15
100
AcDbSpline
210
0.0
220
0.0
230
1.0
 70
     8
 71
     3
 72
     9
 73
     5
 74
     0
 42
0.000000001
 43
0.00000001
 40
0.0
 40
0.0
 40
0.0
 40
0.0
 40
0.0143541019046239
 40
1.0
 40
1.0
 40
1.0
 40
1.0
 10
14.27113724246806
 20
-4.590073571370512
 30
0.0
 10
14.27109648096082
 20
-4.590144469150728
 30
0.0
 10
14.26825676953107
 20
-4.595083669156939
 30
0.0
 10
14.26546012040196
 20
-4.592484258960498
 30
0.0
 10
14.26270361465944
 20
-4.589922160962906
 30
0.0
  0
LINE
  5
1A5
330
1F
100
AcDbEntity
  8
0
  6
Continuous
 62
     1
370
    15
100
AcDbLine
 10
13.17489210832812
 20
-4.598489831605891
 30
0.0
 11
13.34847703987071
 21
-4.681729360276838
 31
0.0
  0
LINE
  5
1A6
330
1F
100
AcDbEntity
  8
0
  6
Continuous
 62
     1
370
    15
100
AcDbLine
 10
12.91121992363342
 20
-4.591083708057755
 30
0.0
 11
12.94135979077468
 21
-4.580441788217905
 31
0.0
  0
SPLINE
  5
1A7
330
1F
100
AcDbEntity
  8
0
  6
Continuous
 62
     1
370
    15
100
AcDbSpline
210
0.0
220
0.0
230
1.0
 70
     8
 71
     3
 72
    11
 73
     7
 74
     0
 42
0.000000001
 43
0.00000001
 40
0.0
 40
0.0
 40
0.0
 40
0.0
 40
0.1834888127654852
 40
0.5676358590362104
 40
0.9038138378631324
 40
1.0
 40
1.0
 40
1.0
 40
1.0
 10
12.97559845898991
 20
-4.568352645261102
 30
0.0
 10
12.98607223842158
 20
-4.563921526280502
 30
0.0
 10
13.01847362952245
 20
-4.550213540539376
 30
0.0
 10
13.08338762392539
 20
-4.557190940765856
 30
0.0
 10
13.14071578525535
 20
-4.576917961682469
 30
0.0
 10
13.16867266368296
 20
-4.594564159128006
 30
0.0
 10
13.17489210832813
 20
-4.598489831605869
 30
0.0
  0
SPLINE
  5
1A8
330
1F
100
AcDbEntity
  8
0
  6
Continuous
 62
     1
370
    15
100
AcDbSpline
210
0.0
220
0.0
230
1.0
 70
     8
 71
     3
 72
    10
 73
     6
 74
     0
 42
0.000000001
 43
0.00000001
 40
0.0
 40
0.0
 40
0.0
 40
0.0
 40
0.5
 40
0.5
 40
1.0
 40
1.0
 40
1.0
 40
1.0
 10
13.69471880495019
 20
4.762193611773191
 30
0.0
 10
13.65509335873143
 20
4.756840872371128
 30
0.0
 10
13.61840126343828
 20
4.683160192155457
 30
0.0
 10
13.53978403719637
 20
4.399705851059571
 30
0.0
 10
13.49884313553682
 20
4.188049676813283
 30
0.0
 10
13.45893458509217
 20
3.919325824201893
 30
0.0
  0
SPLINE
  5
1A9
330
1F
100
AcDbEntity
  8
0
  6
Continuous
 62
     1
370
    15
100
AcDbSpline
210
0.0
220
0.0
230
1.0
 70
     8
 71
     3
 72
    10
 73
     6
 74
     0
 42
0.000000001
 43
0.00000001
 40
0.0
 40
0.0
 40
0.0
 40
0.0
 40
0.0480403624634425
 40
0.6194591710325957
 40
1.0
 40
1.0
 40
1.0
 40
1.0
 10
11.10174029251735
 20
-4.50931750859445
 30
0.0
 10
11.09208899761907
 20
-4.51239238421605
 30
0.0
 10
10.96763982965895
 20
-4.552041541839175
 30
0.0
 10
10.77370661841326
 20
-4.53977031164464
 30
0.0
 10
10.6219152638315
 20
-4.486753720658422
 30
0.0
 10
10.56123747285698
 20
-4.465560618884561
 30
0.0
  0
SPLINE
  5
1AA
330
1F
100
AcDbEntity
  8
0
  6
Continuous
 62
     1
370
    15
100
AcDbSpline
210
0.0
220
0.0
230
1.0
 70
     8
 71
     3
 72
    10
 73
     6
 74
     0
 42
0.000000001
 43
0.00000001
 40
0.0
 40
0.0
 40
0.0
 40
0.0
 40
0.5
 40
0.5
 40
1.0
 40
1.0
 40
1.0
 40
1.0
 10
10.56123747285699
 20
-4.465560618884563
 30
0.0
 10
10.52584719757805
 20
-4.449471312563072
 30
0.0
 10
10.48390927152431
 20
-4.442437345500658
 30
0.0
 10
10.39130908541935
 20
-4.451917960253618
 30
0.0
 10
10.34110276824754
 20
-4.469205378986148
 30
0.0
 10
10.29705291418616
 20
-4.500213193134784
 30
0.0
  0
SPLINE
  5
1AB
330
1F
100
AcDbEntity
  8
0
  6
Continuous
 62
     1
370
    15
100
AcDbSpline
210
0.0
220
0.0
230
1.0
 70
     8
 71
     3
 72
     8
 73
     4
 74
     0
 42
0.000000001
 43
0.00000001
 40
0.0
 40
0.0
 40
0.0
 40
0.0
 40
1.0
 40
1.0
 40
1.0
 40
1.0
 10
10.29705291418615
 20
-4.500213193134788
 30
0.0
 10
10.20257897118173
 20
-4.566715807706163
 30
0.0
 10
10.10115411922036
 20
-4.619008654985584
 30
0.0
 10
9.999999999999789
 20
-4.654066075634772
 30
0.0
  0
SPLINE
  5
1AC
330
1F
100
AcDbEntity
  8
외형선
  6
Continuous
370
    15
100
AcDbSpline
210
0.0
220
0.0
230
1.0
 70
    24
 71
     3
 72
     9
 73
     5
 74
     0
 42
0.000000001
 43
0.00000001
 40
0.0
 40
0.0
 40
0.0
 40
0.0
 40
0.5
 40
1.0
 40
1.0
 40
1.0
 40
1.0
 10
9.999999999999996
 20
-4.579063223483431
 30
0.0
 10
9.999999999999996
 20
-4.591374845104241
 30
0.0
 10
9.999999999999996
 20
-4.61619418492271
 30
0.0
 10
9.999999999999996
 20
-4.641384058041651
 30
0.0
 10
9.999999999999996
 20
-4.654066075634463
 30
0.0
  0
SPLINE
  5
1AD
330
1F
100
AcDbEntity
  8
외형선
  6
Continuous
370
    15
100
AcDbSpline
210
0.0
220
0.0
230
1.0
 70
     8
 71
     3
 72
     8
 73
     4
 74
     0
 42
0.000000001
 43
0.00000001
 40
0.0
 40
0.0
 40
0.0
 40
0.0
 40
1.0
 40
1.0
 40
1.0
 40
1.0
 10
9.999999999999996
 20
-4.579063223483431
 30
0.0
 10
9.877709541137905
 20
-4.603297136724645
 30
0.0
 10
9.755756513247173
 20
-4.626375930121953
 30
0.0
 10
9.633958192100252
 20
-4.648213649000668
 30
0.0
  0
SPLINE
  5
1AE
330
1F
100
AcDbEntity
  8
외형선
  6
Continuous
370
    15
100
AcDbSpline
210
0.0
220
0.0
230
1.0
 70
     8
 71
     3
 72
     8
 73
     4
 74
     0
 42
0.000000001
 43
0.00000001
 40
0.0
 40
0.0
 40
0.0
 40
0.0
 40
1.0
 40
1.0
 40
1.0
 40
1.0
 10
9.633958192100238
 20
-4.648213649000678
 30
0.0
 10
9.57672558743562
 20
-4.629685970425916
 30
0.0
 10
9.522751407035406
 20
-4.604976991544416
 30
0.0
 10
9.473023110757339
 20
-4.574968739513527
 30
0.0
  0
SPLINE
  5
1AF
330
1F
100
AcDbEntity
  8
외형선
  6
Continuous
370
    15
100
AcDbSpline
210
0.0
220
0.0
230
1.0
 70
     8
 71
     3
 72
    10
 73
     6
 74
     0
 42
0.000000001
 43
0.00000001
 40
0.0
 40
0.0
 40
0.0
 40
0.0
 40
0.5
 40
0.5
 40
1.0
 40
1.0
 40
1.0
 40
1.0
 10
9.473023110757346
 20
-4.574968739513523
 30
0.0
 10
9.437920769579852
 20
-4.553786435276949
 30
0.0
 10
9.396231232689603
 20
-4.541967679803292
 30
0.0
 10
9.303909415197193
 20
-4.543558159298429
 30
0.0
 10
9.253339776639285
 20
-4.558014677899886
 30
0.0
 10
9.209044961894957
 20
-4.587862026159129
 30
0.0
  0
LINE
  5
1B0
330
1F
100
AcDbEntity
  8
0
  6
Continuous
 62
     1
370
    15
100
AcDbLine
 10
13.24233497681027
 20
4.594286577625281
 30
0.0
 11
13.23726190832055
 21
4.587252899475386
 31
0.0
  0
LINE
  5
1B1
330
1F
100
AcDbEntity
  8
0
  6
Continuous
 62
     1
370
    15
100
AcDbLine
 10
11.88831491144824
 20
4.597697508255306
 30
0.0
 11
11.88539433741115
 21
4.59389566805146
 31
0.0
  0
LINE
  5
1B2
330
1F
100
AcDbEntity
  8
0
  6
Continuous
 62
     1
370
    15
100
AcDbLine
 10
14.51482181222721
 20
-4.592126327227368
 30
0.0
 11
14.50747012499538
 21
-4.589081689646125
 31
0.0
  0
SPLINE
  5
1B3
330
1F
100
AcDbEntity
  8
0
  6
Continuous
 62
     1
370
    15
100
AcDbSpline
210
0.0
220
0.0
230
1.0
 70
     8
 71
     3
 72
    11
 73
     7
 74
     0
 42
0.000000001
 43
0.00000001
 40
0.0
 40
0.0
 40
0.0
 40
0.0
 40
0.3306270695505739
 40
0.6651602340498275
 40
0.9998862774652265
 40
1.0
 40
1.0
 40
1.0
 40
1.0
 10
15.12660537303804
 20
-4.301682858262834
 30
0.0
 10
15.1073940224563
 20
-4.39367429614491
 30
0.0
 10
15.06874435451854
 20
-4.578743977327994
 30
0.0
 10
15.0087459108171
 20
-4.719171811501869
 30
0.0
 10
14.96815608792045
 20
-4.780339762841174
 30
0.0
 10
14.94852809494041
 20
-4.762480233926803
 30
0.0
 10
14.9485214286321
 20
-4.762474168246727
 30
0.0
  0
LINE
  5
1B4
330
1F
100
AcDbEntity
  8
0
  6
Continuous
 62
     1
370
    15
100
AcDbLine
 10
15.4054718454852
 20
-4.584174752058872
 30
0.0
 11
15.40334675548918
 21
-4.585216943557573
 31
0.0
  0
SPLINE
  5
1B6
330
1F
100
AcDbEntity
  8
0
  6
Continuous
 62
     1
370
    15
100
AcDbSpline
210
0.0
220
0.0
230
1.0
 70
     8
 71
     3
 72
     8
 73
     4
 74
     0
 42
0.000000001
 43
0.00000001
 40
0.0
 40
0.0
 40
0.0
 40
0.0
 40
1.0
 40
1.0
 40
1.0
 40
1.0
 10
21.77072731850375
 20
4.328588270973382
 30
0.0
 10
21.75364027384823
 20
4.309796890030326
 30
0.0
 10
21.73614970221713
 20
4.292450656188398
 30
0.0
 10
21.71832943635921
 20
4.276285153032363
 30
0.0
  0
LINE
  5
1B8
330
1F
100
AcDbEntity
  8
0
  6
Continuous
 62
     1
370
    15
100
AcDbLine
 10
22.7
 20
2.580286522571196
 30
0.0
 11
22.7
 21
3.746500000000001
 31
0.0
  0
SPLINE
  5
1B9
330
1F
100
AcDbEntity
  8
0
  6
Continuous
 62
     1
370
    15
100
AcDbSpline
210
0.0
220
0.0
230
1.0
 70
     8
 71
     3
 72
    10
 73
     6
 74
     0
 42
0.000000001
 43
0.00000001
 40
0.0
 40
0.0
 40
0.0
 40
0.0
 40
0.0615800396363788
 40
0.545076725587954
 40
1.0
 40
1.0
 40
1.0
 40
1.0
 10
11.19690091921635
 20
4.756423194915424
 30
0.0
 10
11.19434301640927
 20
4.758168738982259
 30
0.0
 10
11.17170169797735
 20
4.773619450770318
 30
0.0
 10
11.13186510313346
 20
4.70778065939925
 30
0.0
 10
11.09383521664112
 20
4.5866524530479
 30
0.0
 10
11.07539924850388
 20
4.527932431538915
 30
0.0
  0
SPLINE
  5
1BC
330
1F
100
AcDbEntity
  8
0
  6
Continuous
 62
     1
370
    15
100
AcDbSpline
210
0.0
220
0.0
230
1.0
 70
     8
 71
     3
 72
    10
 73
     6
 74
     0
 42
0.000000001
 43
0.00000001
 40
0.0
 40
0.0
 40
0.0
 40
0.0
 40
0.0225708525920494
 40
0.6324964112612562
 40
1.0
 40
1.0
 40
1.0
 40
1.0
 10
21.19729053803503
 20
4.760147379694686
 30
0.0
 10
21.19647715489666
 20
4.760860334907503
 30
0.0
 10
21.17368395672656
 20
4.780839270645865
 30
0.0
 10
21.13904508402198
 20
4.7193489575976
 30
0.0
 10
21.10495017117012
 20
4.622532314824548
 30
0.0
 10
21.0921308247612
 20
4.586130224951241
 30
0.0
  0
SPLINE
  5
1BD
330
1F
100
AcDbEntity
  8
외형선
  6
Continuous
370
    15
100
AcDbSpline
210
0.0
220
0.0
230
1.0
 70
    24
 71
     3
 72
     9
 73
     5
 74
     0
 42
0.000000001
 43
0.00000001
 40
0.0
 40
0.0
 40
0.0
 40
0.0
 40
0.814690124392942
 40
1.0
 40
1.0
 40
1.0
 40
1.0
 10
10.00000000000002
 20
4.673191883504273
 30
0.0
 10
10.00000000000001
 20
4.717607981722773
 30
0.0
 10
9.999999999999993
 20
4.772126990716034
 30
0.0
 10
9.999999999999993
 20
4.7535097645282
 30
0.0
 10
9.999999999999993
 20
4.750059808659185
 30
0.0
  0
LINE
  5
1BE
330
1F
100
AcDbEntity
  8
0
  6
Continuous
 62
     1
370
    15
100
AcDbLine
 10
20.51328395964159
 20
4.583550439244699
 30
0.0
 11
20.50967704846227
 21
4.58545433977597
 31
0.0
  0
LINE
  5
1BF
330
1F
100
AcDbEntity
  8
0
  6
Continuous
 62
     1
370
    15
100
AcDbLine
 10
17.51147716595904
 20
-4.705943401102889
 30
0.0
 11
17.45060353122358
 21
-4.757303235235412
 31
0.0
  0
SPLINE
  5
1C0
330
1F
100
AcDbEntity
  8
외형선
  6
Continuous
370
    15
100
AcDbSpline
210
0.0
220
0.0
230
1.0
 70
     8
 71
     3
 72
     9
 73
     5
 74
     0
 42
0.000000001
 43
0.00000001
 40
0.0
 40
0.0
 40
0.0
 40
0.0
 40
0.8261686304958231
 40
1.0
 40
1.0
 40
1.0
 40
1.0
 10
9.556750533992004
 20
4.659951754617967
 30
0.0
 10
9.567154658791475
 20
4.681695797482821
 30
0.0
 10
9.579747880581113
 20
4.708014931449219
 30
0.0
 10
9.592946151665666
 20
4.693849607719543
 30
0.0
 10
9.595240425203382
 20
4.691387230096144
 30
0.0
  0
LINE
  5
1C1
330
1F
100
AcDbEntity
  8
외형선
  6
Continuous
370
    15
100
AcDbLine
 10
9.156089467604842
 20
4.59425215472042
 30
0.0
 11
9.151630095439549
 21
4.593635444308105
 31
0.0
  0
LINE
  5
1C3
330
1F
100
AcDbEntity
  8
중심선
 62
     1
100
AcDbLine
 10
-31.09999999999999
 20
-0.0000000000000038
 30
0.0
 11
25.70000000000002
 21
0.0000000000000031
 31
0.0
  0
LINE
  5
1C4
330
1F
100
AcDbEntity
  8
참조1
100
AcDbLine
 10
-2.699999999999994
 20
0.0010749287238892
 30
0.0
 11
-2.699999999999994
 21
-39.99892507127611
 31
0.0
  0
LINE
  5
1C5
330
1F
100
AcDbEntity
  8
참조1
100
AcDbLine
 10
-2.699999999999994
 20
-39.99892507127611
 30
0.0
 11
13.92939446285957
 21
-39.9989250712761
 31
0.0
  0
CIRCLE
  5
1C6
330
1F
100
AcDbEntity
  8
해칭선
100
AcDbCircle
 10
0.0
 20
0.0
 30
0.0
 40
3.000000000000001
  0
INSERT
  5
1C7
330
1F
100
AcDbEntity
  8
0
  6
Continuous
 62
     7
100
AcDbBlockReference
 66
     1
  2
블럭10
 10
-11.05604516671257
 20
-29.40458674940242
 30
0.0
  0
ATTRIB
  5
1C8
330
1C7
100
AcDbEntity
  8
FORMAT
 62
     2
100
AcDbText
 10
-20.23734045545385
 20
-27.32921983657023
 30
0.0
 40
4.233333333333333
  1
E5056024 [ 5 FLUTE ]
 41
0.75
  7
SLDTEXTSTYLE0
 11
-20.23734045545385
 21
-29.4458865032369
 31
0.0
100
AcDbAttribute
  2
AUTOATTR0
 70
     0
 74
     1
  0
SEQEND
  5
1C9
330
1C7
100
AcDbEntity
  8
0
  6
Continuous
 62
     7
  0
HATCH
  5
1CA
330
1F
100
AcDbEntity
  8
중심선
100
AcDbHatch
 10
0.0
 20
0.0
 30
0.0
210
0.0
220
0.0
230
1.0
  2
SOLID
 70
     1
 71
     0
 91
        1
 92
        0
 93
        4
 72
     1
 10
-5.341135862331747
 20
-13.15741244775848
 11
-8.787411106169028
 21
-13.15741244775848
 72
     1
 10
-8.787411106169028
 20
-13.15741244775848
 11
-10.91564096537305
 21
-15.69373802833108
 72
     1
 10
-10.91564096537305
 20
-15.69373802833108
 11
-7.469332636422592
 21
-15.69369859902859
 72
     1
 10
-7.469332636422592
 20
-15.69369859902859
 11
-5.341135862331747
 21
-13.15741244775848
 97
        0
 75
     0
 76
     1
 98
        1
 10
5.584227765412631
 20
22.64151262351762
  0
HATCH
  5
1CB
330
1F
100
AcDbEntity
  8
중심선
100
AcDbHatch
 10
0.0
 20
0.0
 30
0.0
210
0.0
220
0.0
230
1.0
  2
SOLID
 70
     1
 71
     0
 91
        1
 92
        0
 93
        4
 72
     1
 10
-0.3283718712957677
 20
-13.15741244775848
 11
-3.774647115133078
 21
-13.15741244775851
 72
     1
 10
-3.774647115133078
 20
-13.15741244775851
 11
-8.305785123490466
 21
-18.5574124477585
 72
     1
 10
-8.305785123490466
 20
-18.5574124477585
 11
-4.859509879653183
 21
-18.5574124477585
 72
     1
 10
-4.859509879653183
 20
-18.5574124477585
 11
-0.3283718712957677
 21
-13.15741244775848
 97
        0
 75
     0
 76
     1
 98
        1
 10
5.584227765412631
 20
22.64151262351762
  0
HATCH
  5
1CC
330
1F
100
AcDbEntity
  8
중심선
100
AcDbHatch
 10
0.0
 20
0.0
 30
0.0
210
0.0
220
0.0
230
1.0
  2
SOLID
 70
     1
 71
     0
 91
        1
 92
        0
 93
        4
 72
     1
 10
4.6843921197401
 20
-13.15741244775848
 11
1.238116875903012
 21
-13.15741244775848
 72
     1
 10
1.238116875903012
 20
-13.15741244775848
 11
-5.810320025986265
 21
-21.5574124477585
 72
     1
 10
-5.810320025986265
 20
-21.5574124477585
 11
-2.364044782148981
 21
-21.5574124477585
 72
     1
 10
-2.364044782148981
 20
-21.5574124477585
 11
4.6843921197401
 21
-13.15741244775848
 97
        0
 75
     0
 76
     1
 98
        1
 10
5.584227765412631
 20
22.64151262351762
  0
HATCH
  5
1CD
330
1F
100
AcDbEntity
  8
중심선
100
AcDbHatch
 10
0.0
 20
0.0
 30
0.0
210
0.0
220
0.0
230
1.0
  2
SOLID
 70
     1
 71
     0
 91
        1
 92
        0
 93
        6
 72
     3
 10
9.4842825507523
 20
-17.35741244780975
 11
3.960054785062285
 21
1.540882976769353E-10
 40
0.3939339440162626
 50
17.09539180608438
 51
320.0019657685081
 73
     0
 72
     1
 10
11.1672822064529
 20
-15.94530645239678
 11
13.47258408015396
 21
-14.01097974234886
 72
     3
 10
9.484282550699453
 20
-17.35741244775863
 11
6.600054785286828
 21
-1.278976924368180E-13
 40
0.6363583540795982
 50
39.99873849337386
 51
368.4976242363724
 73
     1
 72
     1
 10
15.90961504260007
 20
-16.39741244768851
 11
8.164349857535402
 21
-16.39741244768851
 72
     1
 10
8.164349857535402
 20
-16.39741244768851
 11
8.16432481308944
 21
-18.31741244768839
 72
     1
 10
8.164324813089442
 20
-18.31741244768839
 11
12.60570458256148
 21
-18.31741244768837
 97
        0
 75
     0
 76
     1
 98
        1
 10
5.584227765412631
 20
22.64151262351762
  0
DIMENSION
  5
1CE
330
1F
100
AcDbEntity
  8
치수문자_일반주서
100
AcDbDimension
  2
_D
 10
-39.00419963030951
 20
-4.762500000000045
 30
0.0
 11
-39.00419963030963
 21
24.92899999999996
 31
0.0
 70
   160
  1
%%c<>
 71
     2
 42
9.525000000000006
 52
-270.0
  3
SLDDIMSTYLE0
100
AcDbAlignedDimension
 13
-27.10000000000002
 23
4.762500000000006
 33
0.0
 14
-27.10000000000002
 24
-4.762499999999999
 34
0.0
 50
90.0000000000002
100
AcDbRotatedDimension
1001
ACAD
1000
DSTYLE
1002
{
1070
   171
1070
     6
1070
   273
1070
     5
1002
}
  0
DIMENSION
  5
1E3
330
1F
100
AcDbEntity
  8
치수문자_일반주서
100
AcDbDimension
  2
_D_1
 10
9.999999999999996
 20
20.65204915178752
 30
0.0
 11
16.39133980258433
 21
20.65204915178752
 31
0.0
 70
   160
  1
<>
 71
     2
 42
12.7
  3
SLDDIMSTYLE0
100
AcDbAlignedDimension
 13
22.7
 23
4.762500000000001
 33
0.0
 14
9.999999999999996
 24
-2.570205154628674
 34
0.0
 50
0.0000000000000321
100
AcDbRotatedDimension
1001
ACAD
1000
DSTYLE
1002
{
1070
   171
1070
     6
1070
   273
1070
     5
1002
}
  0
DIMENSION
  5
1F9
330
1F
100
AcDbEntity
  8
치수문자_일반주서
100
AcDbDimension
  2
_D_2
 10
22.69999999999999
 20
35.82549028620473
 30
0.0
 11
-2.700000000000012
 21
35.82549028620473
 31
0.0
 70
   160
  1
<>
 71
     2
 42
50.80000000000001
  3
SLDDIMSTYLE0
100
AcDbAlignedDimension
 13
-28.10000000000001
 23
3.7625
 33
0.0
 14
22.7
 24
4.762500000000001
 34
0.0
 50
0.000000000000008
100
AcDbRotatedDimension
1001
ACAD
1000
DSTYLE
1002
{
1070
   171
1070
     6
1070
   273
1070
     5
1002
}
  0
DIMENSION
  5
20D
330
1F
100
AcDbEntity
  8
치수문자_일반주서
100
AcDbDimension
  2
_D_3
 10
57.2127707075018
 20
-4.762499999999868
 30
0.0
 11
57.21277070750169
 21
24.92900000000013
 31
0.0
 70
   160
  1
%%c<>
 71
     2
 42
9.524999999999997
 52
-270.0
  3
SLDDIMSTYLE0
100
AcDbAlignedDimension
 13
22.7
 23
4.762500000000001
 33
0.0
 14
22.70000000000001
 24
-4.762499999999996
 34
0.0
 50
90.0000000000002
100
AcDbRotatedDimension
1001
ACAD
1000
DSTYLE
1002
{
1070
   171
1070
     6
1070
   273
1070
     5
1002
}
  0
LINE
  5
221
330
1F
100
AcDbEntity
  8
참조1
100
AcDbLine
 10
111.9017350925138
 20
7.441074928723896
 30
0.0
 11
111.9017350925138
 21
-7.438925071276109
 31
0.0
  0
LINE
  5
222
330
1F
100
AcDbEntity
  8
참조1
100
AcDbLine
 10
124.6017350925138
 20
5.441074928723896
 30
0.0
 11
111.9017350925138
 21
5.441074928723896
 31
0.0
  0
SOLID
  5
223
330
1F
100
AcDbEntity
  8
참조1
100
AcDbTrace
 10
111.9017350925138
 20
5.441074928723896
 30
0.0
 11
118.2517350925138
 21
4.425074928723896
 31
0.0
 12
118.2517350925138
 22
6.457074928723896
 32
0.0
 13
118.2517350925138
 23
6.457074928723896
 33
0.0
  0
LINE
  5
224
330
1F
100
AcDbEntity
  8
참조1
100
AcDbLine
 10
124.6017350925138
 20
-5.438925071276109
 30
0.0
 11
111.9017350925138
 21
-5.438925071276109
 31
0.0
  0
SOLID
  5
225
330
1F
100
AcDbEntity
  8
참조1
100
AcDbTrace
 10
111.9017350925138
 20
-5.438925071276109
 30
0.0
 11
118.2517350925138
 21
-6.454925071276109
 31
0.0
 12
118.2517350925138
 22
-4.422925071276109
 32
0.0
 13
118.2517350925138
 23
-4.422925071276109
 33
0.0
  0
MTEXT
  5
226
330
1F
100
AcDbEntity
  8
참조1
100
AcDbMText
 10
121.5018499030764
 20
11.06679249473997
 30
0.0
 40
3.5
 41
0.0
 71
     1
 72
     1
  1
A
  7
SLDTEXTSTYLE0
 73
     1
 44
1.0
  0
MTEXT
  5
227
330
1F
100
AcDbEntity
  8
참조1
100
AcDbMText
 10
121.5018499030764
 20
0.1867924947399659
 30
0.0
 40
3.5
 41
0.0
 71
     1
 72
     1
  1
A
  7
SLDTEXTSTYLE0
 73
     1
 44
1.0
  0
INSERT
  5
22E
330
1F
100
AcDbEntity
  8
해칭선
100
AcDbBlockReference
  2
SW_DOWELSYMBOL_0
 10
0.0
 20
0.0
 30
0.0
  0
LINE
  5
3C5
330
1F
100
AcDbEntity
  8
0
100
AcDbLine
 10
6.199299907501293
 20
4.762500000000001
 30
0.0
 11
9.999999999999996
 21
4.762500000000001
 31
0.0
  0
ARC
  5
3C8
330
1F
100
AcDbEntity
  8
0
  6
Continuous
 62
     1
370
    15
100
AcDbCircle
 10
21.684
 20
3.746500000000001
 30
0.0
 40
1.016
100
AcDbArc
 50
0.0
 51
90.0
  0
LINE
  5
3CB
330
1F
100
AcDbEntity
  8
0
  6
Continuous
 62
     1
370
    15
100
AcDbLine
 10
21.684
 20
4.762500000000001
 30
0.0
 11
21.19731179593424
 21
4.762443700822749
 31
0.0
  0
DIMENSION
  5
3CC
330
1F
100
AcDbEntity
  8
치수문자_일반주서
100
AcDbDimension
  2
*D17
 10
21.684
 20
3.746500000000001
 30
0.0
 11
37.20318965592974
 21
18.4831296684752
 31
0.0
 70
   164
  1
<>
 71
     5
 42
1.016000000000004
  3
SLDDIMSTYLE0
100
AcDbRadialDimension
 15
22.42075587596167
 25
4.446104730712968
 35
0.0
 40
0.0
1001
ACAD_DSTYLE_DIMRADIAL_EXTENSION
1070
   387
1070
     1
1070
   388
1040
0.0
1070
   390
1040
1.570796326794897
  0
LINE
  5
439
330
1F
100
AcDbEntity
  8
외형선
  6
Continuous
370
    15
100
AcDbLine
 10
-11.82495000000013
 20
3.492500000000004
 30
0.0
 11
-4.687550000000005
 21
3.492500000000004
 31
0.0
  0
LINE
  5
43A
330
1F
100
AcDbEntity
  8
외형선
  6
Continuous
370
    15
100
AcDbLine
 10
-11.82495000000013
 20
3.492500000000004
 30
0.0
 11
-13.09495000000011
 21
4.762499999999986
 31
0.0
  0
LINE
  5
43B
330
1F
100
AcDbEntity
  8
외형선
  6
Continuous
370
    15
100
AcDbLine
 10
-4.687550000000005
 20
3.492500000000004
 30
0.0
 11
-3.41754999999991
 21
4.762499999999986
 31
0.0
  0
LINE
  5
43C
330
1F
100
AcDbEntity
  8
외형선
  6
Continuous
370
    15
100
AcDbLine
 10
-13.09495000000013
 20
4.762499999999998
 30
0.0
 11
-27.10000000000002
 21
4.762499999999997
 31
0.0
  0
ENDSEC
  0
SECTION
  2
OBJECTS
  0
DICTIONARY
  5
C
330
0
100
AcDbDictionary
281
     1
  3
ACAD_GROUP
350
D
  3
ACAD_IMAGE_VARS
350
252
  3
ACAD_LAYOUT
350
1A
  3
ACAD_MLINESTYLE
350
17
  3
ACAD_PLOTSETTINGS
350
19
  3
ACAD_PLOTSTYLENAME
350
E
  3
ACAD_SCALELIST
350
47
  3
APPDATA
350
250
  3
DWGPROPS
350
461
  0
DICTIONARY
  5
30C
330
2
100
AcDbDictionary
280
     1
281
     1
  3
ACAD_LAYERSTATES
360
30D
  0
DICTIONARY
  5
45F
330
1F
100
AcDbDictionary
280
     1
281
     1
  3
DIM_BOUNDING_BOXES_V1
360
460
  0
DICTIONARY
  5
D
102
{ACAD_REACTORS
330
C
102
}
330
C
100
AcDbDictionary
281
     1
  0
RASTERVARIABLES
  5
252
102
{ACAD_REACTORS
330
C
102
}
330
C
100
AcDbRasterVariables
 90
        0
 70
     1
 71
     1
 72
     1
  0
DICTIONARY
  5
1A
102
{ACAD_REACTORS
330
C
102
}
330
C
100
AcDbDictionary
281
     1
  3
Layout1
350
1E
  3
Layout2
350
26
  3
Model
350
22
  0
DICTIONARY
  5
17
102
{ACAD_REACTORS
330
C
102
}
330
C
100
AcDbDictionary
281
     1
  3
Standard
350
18
  0
DICTIONARY
  5
19
102
{ACAD_REACTORS
330
C
102
}
330
C
100
AcDbDictionary
281
     1
  0
ACDBDICTIONARYWDFLT
  5
E
102
{ACAD_REACTORS
330
C
102
}
330
C
100
AcDbDictionary
281
     1
  3
Normal
350
F
100
AcDbDictionaryWithDefault
340
F
  0
DICTIONARY
  5
47
102
{ACAD_REACTORS
330
C
102
}
330
C
100
AcDbDictionary
281
     1
  3
A0
350
48
  3
A1
350
49
  3
A2
350
4A
  3
A3
350
4B
  3
A4
350
4C
  3
A5
350
4D
  3
A6
350
4E
  3
A7
350
4F
  3
A8
350
50
  3
A9
350
51
  3
B0
350
52
  3
B1
350
53
  3
B2
350
54
  3
B3
350
55
  3
B4
350
56
  3
B5
350
57
  3
B6
350
58
  3
B7
350
59
  3
B8
350
5A
  3
B9
350
5B
  3
C0
350
5C
  3
C1
350
5D
  3
C2
350
5E
  3
C3
350
5F
  3
C4
350
60
  3
C5
350
61
  3
C6
350
62
  3
C7
350
63
  3
C8
350
64
  3
C9
350
65
  3
D0
350
66
  3
D1
350
67
  3
D2
350
68
  0
DICTIONARY
  5
250
102
{ACAD_REACTORS
330
C
102
}
330
C
100
AcDbDictionary
281
     1
  0
XRECORD
  5
461
102
{ACAD_REACTORS
330
C
102
}
330
C
100
AcDbXrecord
280
     1
  1
DWGPROPS COOKIE
  2

  3

  4

  6

  7

  8
12011056
  9

300
=
301
=
302
=
303
=
304
=
305
=
306
=
307
=
308
=
309
=
 40
0.0
 41
2458319.18100772
 42
2459720.015221007
  1

 90
        0
  0
DICTIONARY
  5
30D
102
{ACAD_REACTORS
330
30C
102
}
330
30C
100
AcDbDictionary
281
     1
  0
DICTIONARY
  5
460
102
{ACAD_REACTORS
330
45F
102
}
330
45F
100
AcDbDictionary
281
     1
  0
LAYOUT
  5
1E
102
{ACAD_REACTORS
330
1A
102
}
330
1A
100
AcDbPlotSettings
  1

  2
none_device
  4

  6

 40
0.0
 41
0.0
 42
0.0
 43
0.0
 44
0.0
 45
0.0
 46
0.0
 47
0.0
 48
0.0
 49
0.0
140
0.0
141
0.0
142
1.0
143
1.0
 70
   688
 72
     1
 73
     0
 74
     5
  7

 75
    16
147
1.0
148
0.0
149
0.0
100
AcDbLayout
  1
Layout1
 70
     1
 71
     1
 10
0.0
 20
0.0
 11
420.0
 21
297.0
 12
0.0
 22
0.0
 32
0.0
 14
1.000000000000000E+20
 24
1.000000000000000E+20
 34
1.000000000000000E+20
 15
-1.000000000000000E+20
 25
-1.000000000000000E+20
 35
-1.000000000000000E+20
146
0.0
 13
0.0
 23
0.0
 33
0.0
 16
1.0
 26
0.0
 36
0.0
 17
0.0
 27
1.0
 37
0.0
 76
     0
330
1B
  0
LAYOUT
  5
26
102
{ACAD_REACTORS
330
1A
102
}
330
1A
100
AcDbPlotSettings
  1

  2
none_device
  4

  6

 40
0.0
 41
0.0
 42
0.0
 43
0.0
 44
0.0
 45
0.0
 46
0.0
 47
0.0
 48
0.0
 49
0.0
140
0.0
141
0.0
142
1.0
143
1.0
 70
   688
 72
     1
 73
     0
 74
     5
  7

 75
    16
147
1.0
148
0.0
149
0.0
100
AcDbLayout
  1
Layout2
 70
     1
 71
     2
 10
0.0
 20
0.0
 11
0.0
 21
0.0
 12
0.0
 22
0.0
 32
0.0
 14
0.0
 24
0.0
 34
0.0
 15
0.0
 25
0.0
 35
0.0
146
0.0
 13
0.0
 23
0.0
 33
0.0
 16
1.0
 26
0.0
 36
0.0
 17
0.0
 27
1.0
 37
0.0
 76
     0
330
23
  0
LAYOUT
  5
22
102
{ACAD_REACTORS
330
1A
102
}
330
1A
100
AcDbPlotSettings
  1

  2
none_device
  4
ANSI_A_(11.00_x_8.50_Inches)
  6

 40
6.35
 41
19.05
 42
6.35000508
 43
19.05000254
 44
279.4
 45
215.9
 46
73.59411130454637
 47
92.58208199054505
 48
0.0
 49
0.0
140
0.0
141
0.0
142
0.0595921050172837
143
1.0
 70
  1696
 72
     0
 73
     0
 74
     0
  7

 75
     0
147
0.0235690232323232
148
0.0
149
0.0
100
AcDbLayout
  1
Model
 70
     1
 71
     0
 10
0.0
 20
0.0
 11
420.0
 21
297.0
 12
0.0
 22
0.0
 32
0.0
 14
-43.37919963030967
 24
-39.99892507127611
 34
0.0
 15
124.6017350925138
 25
40.20049028620473
 35
0.0
146
0.0
 13
0.0
 23
0.0
 33
0.0
 16
1.0
 26
0.0
 36
0.0
 17
0.0
 27
1.0
 37
0.0
 76
     0
330
1F
331
29
  0
MLINESTYLE
  5
18
102
{ACAD_REACTORS
330
17
102
}
330
17
100
AcDbMlineStyle
  2
Standard
 70
     0
  3

 62
   256
 51
90.0
 52
90.0
 71
     2
 49
0.5
 62
   256
  6
BYLAYER
 49
-0.5
 62
   256
  6
BYLAYER
  0
ACDBPLACEHOLDER
  5
F
102
{ACAD_REACTORS
330
E
102
}
330
E
  0
SCALE
  5
48
102
{ACAD_REACTORS
330
47
102
}
330
47
100
AcDbScale
 70
     0
300
1:1
140
1.0
141
1.0
290
     1
  0
SCALE
  5
49
102
{ACAD_REACTORS
330
47
102
}
330
47
100
AcDbScale
 70
     0
300
1:2
140
1.0
141
2.0
290
     0
  0
SCALE
  5
4A
102
{ACAD_REACTORS
330
47
102
}
330
47
100
AcDbScale
 70
     0
300
1:4
140
1.0
141
4.0
290
     0
  0
SCALE
  5
4B
102
{ACAD_REACTORS
330
47
102
}
330
47
100
AcDbScale
 70
     0
300
1:5
140
1.0
141
5.0
290
     0
  0
SCALE
  5
4C
102
{ACAD_REACTORS
330
47
102
}
330
47
100
AcDbScale
 70
     0
300
1:8
140
1.0
141
8.0
290
     0
  0
SCALE
  5
4D
102
{ACAD_REACTORS
330
47
102
}
330
47
100
AcDbScale
 70
     0
300
1:10
140
1.0
141
10.0
290
     0
  0
SCALE
  5
4E
102
{ACAD_REACTORS
330
47
102
}
330
47
100
AcDbScale
 70
     0
300
1:16
140
1.0
141
16.0
290
     0
  0
SCALE
  5
4F
102
{ACAD_REACTORS
330
47
102
}
330
47
100
AcDbScale
 70
     0
300
1:20
140
1.0
141
20.0
290
     0
  0
SCALE
  5
50
102
{ACAD_REACTORS
330
47
102
}
330
47
100
AcDbScale
 70
     0
300
1:30
140
1.0
141
30.0
290
     0
  0
SCALE
  5
51
102
{ACAD_REACTORS
330
47
102
}
330
47
100
AcDbScale
 70
     0
300
1:40
140
1.0
141
40.0
290
     0
  0
SCALE
  5
52
102
{ACAD_REACTORS
330
47
102
}
330
47
100
AcDbScale
 70
     0
300
1:50
140
1.0
141
50.0
290
     0
  0
SCALE
  5
53
102
{ACAD_REACTORS
330
47
102
}
330
47
100
AcDbScale
 70
     0
300
1:100
140
1.0
141
100.0
290
     0
  0
SCALE
  5
54
102
{ACAD_REACTORS
330
47
102
}
330
47
100
AcDbScale
 70
     0
300
2:1
140
2.0
141
1.0
290
     0
  0
SCALE
  5
55
102
{ACAD_REACTORS
330
47
102
}
330
47
100
AcDbScale
 70
     0
300
4:1
140
4.0
141
1.0
290
     0
  0
SCALE
  5
56
102
{ACAD_REACTORS
330
47
102
}
330
47
100
AcDbScale
 70
     0
300
8:1
140
8.0
141
1.0
290
     0
  0
SCALE
  5
57
102
{ACAD_REACTORS
330
47
102
}
330
47
100
AcDbScale
 70
     0
300
10:1
140
10.0
141
1.0
290
     0
  0
SCALE
  5
58
102
{ACAD_REACTORS
330
47
102
}
330
47
100
AcDbScale
 70
     0
300
100:1
140
100.0
141
1.0
290
     0
  0
SCALE
  5
59
102
{ACAD_REACTORS
330
47
102
}
330
47
100
AcDbScale
 70
     0
300
1/128" = 1'-0"
140
0.0078125
141
12.0
290
     0
  0
SCALE
  5
5A
102
{ACAD_REACTORS
330
47
102
}
330
47
100
AcDbScale
 70
     0
300
1/64" = 1'-0"
140
0.015625
141
12.0
290
     0
  0
SCALE
  5
5B
102
{ACAD_REACTORS
330
47
102
}
330
47
100
AcDbScale
 70
     0
300
1/32" = 1'-0"
140
0.03125
141
12.0
290
     0
  0
SCALE
  5
5C
102
{ACAD_REACTORS
330
47
102
}
330
47
100
AcDbScale
 70
     0
300
1/16" = 1'-0"
140
0.0625
141
12.0
290
     0
  0
SCALE
  5
5D
102
{ACAD_REACTORS
330
47
102
}
330
47
100
AcDbScale
 70
     0
300
3/32" = 1'-0"
140
0.09375
141
12.0
290
     0
  0
SCALE
  5
5E
102
{ACAD_REACTORS
330
47
102
}
330
47
100
AcDbScale
 70
     0
300
1/8" = 1'-0"
140
0.125
141
12.0
290
     0
  0
SCALE
  5
5F
102
{ACAD_REACTORS
330
47
102
}
330
47
100
AcDbScale
 70
     0
300
3/16" = 1'-0"
140
0.1875
141
12.0
290
     0
  0
SCALE
  5
60
102
{ACAD_REACTORS
330
47
102
}
330
47
100
AcDbScale
 70
     0
300
1/4" = 1'-0"
140
0.25
141
12.0
290
     0
  0
SCALE
  5
61
102
{ACAD_REACTORS
330
47
102
}
330
47
100
AcDbScale
 70
     0
300
3/8" = 1'-0"
140
0.375
141
12.0
290
     0
  0
SCALE
  5
62
102
{ACAD_REACTORS
330
47
102
}
330
47
100
AcDbScale
 70
     0
300
1/2" = 1'-0"
140
0.5
141
12.0
290
     0
  0
SCALE
  5
63
102
{ACAD_REACTORS
330
47
102
}
330
47
100
AcDbScale
 70
     0
300
3/4" = 1'-0"
140
0.75
141
12.0
290
     0
  0
SCALE
  5
64
102
{ACAD_REACTORS
330
47
102
}
330
47
100
AcDbScale
 70
     0
300
1" = 1'-0"
140
1.0
141
12.0
290
     0
  0
SCALE
  5
65
102
{ACAD_REACTORS
330
47
102
}
330
47
100
AcDbScale
 70
     0
300
1-1/2" = 1'-0"
140
1.5
141
12.0
290
     0
  0
SCALE
  5
66
102
{ACAD_REACTORS
330
47
102
}
330
47
100
AcDbScale
 70
     0
300
3" = 1'-0"
140
3.0
141
12.0
290
     0
  0
SCALE
  5
67
102
{ACAD_REACTORS
330
47
102
}
330
47
100
AcDbScale
 70
     0
300
6" = 1'-0"
140
6.0
141
12.0
290
     0
  0
SCALE
  5
68
102
{ACAD_REACTORS
330
47
102
}
330
47
100
AcDbScale
 70
     0
300
1'-0" = 1'-0"
140
12.0
141
12.0
290
     0
  0
ENDSEC
  0
EOF
