  0
SECTION
  2
HEADER
  9
$ACADVER
  1
AC1015
  9
$ACADMAINTVER
 70
     6
  9
$DWGCODEPAGE
  3
ANSI_949
  9
$INSBASE
 10
0.0
 20
0.0
 30
0.0
  9
$EXTMIN
 10
-82.67415883139992
 20
-49.97180738881174
 30
0.0
  9
$EXTMAX
 10
90.52153940838579
 20
37.16019501024256
 30
0.0
  9
$LIMMIN
 10
0.0
 20
0.0
  9
$LIMMAX
 10
420.0
 20
297.0
  9
$ORTHOMODE
 70
     1
  9
$REGENMODE
 70
     1
  9
$FILLMODE
 70
     1
  9
$QTEXTMODE
 70
     0
  9
$MIRRTEXT
 70
     1
  9
$LTSCALE
 40
1.0
  9
$ATTMODE
 70
     1
  9
$TEXTSIZE
 40
3.5
  9
$TRACEWID
 40
1.0
  9
$TEXTSTYLE
  7
Standard
  9
$CLAYER
  8
0
  9
$CELTYPE
  6
ByLayer
  9
$CECOLOR
 62
   256
  9
$CELTSCALE
 40
1.0
  9
$DISPSILH
 70
     0
  9
$DIMSCALE
 40
1.0
  9
$DIMASZ
 40
3.302
  9
$DIMEXO
 40
1.0
  9
$DIMDLI
 40
3.75
  9
$DIMRND
 40
0.0
  9
$DIMDLE
 40
0.0
  9
$DIMEXE
 40
1.0
  9
$DIMTP
 40
0.0
  9
$DIMTM
 40
0.0
  9
$DIMTXT
 40
3.5
  9
$DIMCEN
 40
2.5
  9
$DIMTSZ
 40
0.0
  9
$DIMTOL
 70
     0
  9
$DIMLIM
 70
     0
  9
$DIMTIH
 70
     1
  9
$DIMTOH
 70
     1
  9
$DIMSE1
 70
     0
  9
$DIMSE2
 70
     0
  9
$DIMTAD
 70
     1
  9
$DIMZIN
 70
     0
  9
$DIMBLK
  1

  9
$DIMASO
 70
     1
  9
$DIMSHO
 70
     1
  9
$DIMPOST
  1

  9
$DIMAPOST
  1

  9
$DIMALT
 70
     0
  9
$DIMALTD
 70
     3
  9
$DIMALTF
 40
0.0393700787401575
  9
$DIMLFAC
 40
1.0
  9
$DIMTOFL
 70
     1
  9
$DIMTVP
 40
0.0
  9
$DIMTIX
 70
     0
  9
$DIMSOXD
 70
     0
  9
$DIMSAH
 70
     0
  9
$DIMBLK1
  1

  9
$DIMBLK2
  1

  9
$DIMSTYLE
  2
ISO-25
  9
$DIMCLRD
 70
     0
  9
$DIMCLRE
 70
     0
  9
$DIMCLRT
 70
     0
  9
$DIMTFAC
 40
1.0
  9
$DIMGAP
 40
1.524
  9
$DIMJUST
 70
     0
  9
$DIMSD1
 70
     0
  9
$DIMSD2
 70
     0
  9
$DIMTOLJ
 70
     0
  9
$DIMTZIN
 70
     0
  9
$DIMALTZ
 70
     0
  9
$DIMALTTZ
 70
     0
  9
$DIMUPT
 70
     0
  9
$DIMDEC
 70
     2
  9
$DIMTDEC
 70
     2
  9
$DIMALTU
 70
     2
  9
$DIMALTTD
 70
     3
  9
$DIMTXSTY
  7
Standard
  9
$DIMAUNIT
 70
     0
  9
$DIMADEC
 70
     2
  9
$DIMALTRND
 40
0.0
  9
$DIMAZIN
 70
     0
  9
$DIMDSEP
 70
    44
  9
$DIMATFIT
 70
     3
  9
$DIMFRAC
 70
     0
  9
$DIMLDRBLK
  1

  9
$DIMLUNIT
 70
     2
  9
$DIMLWD
 70
    -2
  9
$DIMLWE
 70
    -2
  9
$DIMTMOVE
 70
     0
  9
$LUNITS
 70
     2
  9
$LUPREC
 70
     2
  9
$SKETCHINC
 40
1.0
  9
$FILLETRAD
 40
10.0
  9
$AUNITS
 70
     0
  9
$AUPREC
 70
     2
  9
$MENU
  1
.
  9
$ELEVATION
 40
0.0
  9
$PELEVATION
 40
0.0
  9
$THICKNESS
 40
0.0
  9
$LIMCHECK
 70
     0
  9
$CHAMFERA
 40
0.0
  9
$CHAMFERB
 40
0.0
  9
$CHAMFERC
 40
0.0
  9
$CHAMFERD
 40
0.0
  9
$SKPOLY
 70
     0
  9
$TDCREATE
 40
2458311.496089549
  9
$TDUCREATE
 40
2458311.121089549
  9
$TDUPDATE
 40
2459720.388881736
  9
$TDUUPDATE
 40
2459720.013881736
  9
$TDINDWG
 40
0.0016985648
  9
$TDUSRTIMER
 40
0.0001558565
  9
$USRTIMER
 70
     1
  9
$ANGBASE
 50
0.0
  9
$ANGDIR
 70
     0
  9
$PDMODE
 70
     0
  9
$PDSIZE
 40
-1.0
  9
$PLINEWID
 40
0.0
  9
$SPLFRAME
 70
     0
  9
$SPLINETYPE
 70
     6
  9
$SPLINESEGS
 70
     8
  9
$HANDSEED
  5
308
  9
$SURFTAB1
 70
     6
  9
$SURFTAB2
 70
     6
  9
$SURFTYPE
 70
     6
  9
$SURFU
 70
     6
  9
$SURFV
 70
     6
  9
$UCSBASE
  2

  9
$UCSNAME
  2

  9
$UCSORG
 10
0.0
 20
0.0
 30
0.0
  9
$UCSXDIR
 10
1.0
 20
0.0
 30
0.0
  9
$UCSYDIR
 10
0.0
 20
1.0
 30
0.0
  9
$UCSORTHOREF
  2

  9
$UCSORTHOVIEW
 70
     0
  9
$UCSORGTOP
 10
0.0
 20
0.0
 30
0.0
  9
$UCSORGBOTTOM
 10
0.0
 20
0.0
 30
0.0
  9
$UCSORGLEFT
 10
0.0
 20
0.0
 30
0.0
  9
$UCSORGRIGHT
 10
0.0
 20
0.0
 30
0.0
  9
$UCSORGFRONT
 10
0.0
 20
0.0
 30
0.0
  9
$UCSORGBACK
 10
0.0
 20
0.0
 30
0.0
  9
$PUCSBASE
  2

  9
$PUCSNAME
  2

  9
$PUCSORG
 10
0.0
 20
0.0
 30
0.0
  9
$PUCSXDIR
 10
1.0
 20
0.0
 30
0.0
  9
$PUCSYDIR
 10
0.0
 20
1.0
 30
0.0
  9
$PUCSORTHOREF
  2

  9
$PUCSORTHOVIEW
 70
     0
  9
$PUCSORGTOP
 10
0.0
 20
0.0
 30
0.0
  9
$PUCSORGBOTTOM
 10
0.0
 20
0.0
 30
0.0
  9
$PUCSORGLEFT
 10
0.0
 20
0.0
 30
0.0
  9
$PUCSORGRIGHT
 10
0.0
 20
0.0
 30
0.0
  9
$PUCSORGFRONT
 10
0.0
 20
0.0
 30
0.0
  9
$PUCSORGBACK
 10
0.0
 20
0.0
 30
0.0
  9
$USERI1
 70
     0
  9
$USERI2
 70
     0
  9
$USERI3
 70
     0
  9
$USERI4
 70
     0
  9
$USERI5
 70
     0
  9
$USERR1
 40
0.0
  9
$USERR2
 40
0.0
  9
$USERR3
 40
0.0
  9
$USERR4
 40
0.0
  9
$USERR5
 40
0.0
  9
$WORLDVIEW
 70
     1
  9
$SHADEDGE
 70
     3
  9
$SHADEDIF
 70
    70
  9
$TILEMODE
 70
     1
  9
$MAXACTVP
 70
    64
  9
$PINSBASE
 10
0.0
 20
0.0
 30
0.0
  9
$PLIMCHECK
 70
     0
  9
$PEXTMIN
 10
1.000000000000000E+20
 20
1.000000000000000E+20
 30
1.000000000000000E+20
  9
$PEXTMAX
 10
-1.000000000000000E+20
 20
-1.000000000000000E+20
 30
-1.000000000000000E+20
  9
$PLIMMIN
 10
0.0
 20
0.0
  9
$PLIMMAX
 10
0.0
 20
0.0
  9
$UNITMODE
 70
     0
  9
$VISRETAIN
 70
     1
  9
$PLINEGEN
 70
     0
  9
$PSLTSCALE
 70
     1
  9
$TREEDEPTH
 70
  3020
  9
$CMLSTYLE
  2
Standard
  9
$CMLJUST
 70
     0
  9
$CMLSCALE
 40
20.0
  9
$PROXYGRAPHICS
 70
     1
  9
$MEASUREMENT
 70
     1
  9
$CELWEIGHT
370
    -1
  9
$ENDCAPS
280
     0
  9
$JOINSTYLE
280
     0
  9
$LWDISPLAY
290
     1
  9
$INSUNITS
 70
     4
  9
$HYPERLINKBASE
  1

  9
$STYLESHEET
  1

  9
$XEDIT
290
     1
  9
$CEPSNTYPE
380
     0
  9
$PSTYLEMODE
290
     1
  9
$FINGERPRINTGUID
  2
{9B4E7D80-7CB9-498A-B14E-AB8DDBFC3334}
  9
$VERSIONGUID
  2
{FAEB1C32-E019-11D5-929B-00C0DF256EC4}
  9
$EXTNAMES
290
     1
  9
$PSVPSCALE
 40
0.0
  9
$OLESTARTUP
290
     0
  0
ENDSEC
  0
SECTION
  2
CLASSES
  0
CLASS
  1
ACDBDICTIONARYWDFLT
  2
AcDbDictionaryWithDefault
  3
ObjectDBX Classes
 90
        0
280
     0
281
     0
  0
CLASS
  1
VISUALSTYLE
  2
AcDbVisualStyle
  3
ObjectDBX Classes
 90
     4095
280
     0
281
     0
  0
CLASS
  1
MATERIAL
  2
AcDbMaterial
  3
ObjectDBX Classes
 90
     1153
280
     0
281
     0
  0
CLASS
  1
SCALE
  2
AcDbScale
  3
ObjectDBX Classes
 90
     1153
280
     0
281
     0
  0
CLASS
  1
SUN
  2
AcDbSun
  3
SCENEOE
 90
     1153
280
     0
281
     0
  0
CLASS
  1
ACDBPLACEHOLDER
  2
AcDbPlaceHolder
  3
ObjectDBX Classes
 90
        0
280
     0
281
     0
  0
CLASS
  1
LAYOUT
  2
AcDbLayout
  3
ObjectDBX Classes
 90
        0
280
     0
281
     0
  0
CLASS
  1
TABLESTYLE
  2
AcDbTableStyle
  3
ObjectDBX Classes
 90
     4095
280
     0
281
     0
  0
CLASS
  1
MLEADERSTYLE
  2
AcDbMLeaderStyle
  3
ACDB_MLEADERSTYLE_CLASS
 90
     4095
280
     0
281
     0
  0
CLASS
  1
RASTERVARIABLES
  2
AcDbRasterVariables
  3
ISM
 90
        0
280
     0
281
     0
  0
ENDSEC
  0
SECTION
  2
TABLES
  0
TABLE
  2
VPORT
  5
8
330
0
100
AcDbSymbolTable
 70
     1
  0
VPORT
  5
29
330
8
100
AcDbSymbolTableRecord
100
AcDbViewportTableRecord
  2
*Active
 70
     0
 10
0.0
 20
0.0
 11
1.0
 21
1.0
 12
-17.14747946500766
 22
-8.509469645232958
 13
0.0
 23
0.0
 14
10.0
 24
10.0
 15
10.0
 25
10.0
 16
0.0
 26
0.0
 36
1.0
 17
0.0
 27
0.0
 37
0.0
 40
126.4852033049101
 41
1.519944979367263
 42
50.0
 43
0.0
 44
0.0
 50
0.0
 51
0.0
 71
    16
 72
  2000
 73
     1
 74
     3
 75
     0
 76
     0
 77
     0
 78
     0
281
     0
 65
     1
110
0.0
120
0.0
130
0.0
111
1.0
121
0.0
131
0.0
112
0.0
122
1.0
132
0.0
 79
     0
146
0.0
  0
ENDTAB
  0
TABLE
  2
LTYPE
  5
5
330
0
100
AcDbSymbolTable
 70
     6
  0
LTYPE
  5
14
330
5
100
AcDbSymbolTableRecord
100
AcDbLinetypeTableRecord
  2
ByBlock
 70
     0
  3

 72
    65
 73
     0
 40
0.0
  0
LTYPE
  5
15
330
5
100
AcDbSymbolTableRecord
100
AcDbLinetypeTableRecord
  2
ByLayer
 70
     0
  3

 72
    65
 73
     0
 40
0.0
  0
LTYPE
  5
16
330
5
100
AcDbSymbolTableRecord
100
AcDbLinetypeTableRecord
  2
Continuous
 70
     0
  3
Solid line
 72
    65
 73
     0
 40
0.0
  0
LTYPE
  5
6A
330
5
100
AcDbSymbolTableRecord
100
AcDbLinetypeTableRecord
  2
HIDDEN
 70
     0
  3
Hidden __ __ __ __ __ __ __ __ __ __ __ __ __ __
 72
    65
 73
     2
 40
1.905
 49
1.27
 74
     0
 49
-0.635
 74
     0
  0
LTYPE
  5
6B
330
5
100
AcDbSymbolTableRecord
100
AcDbLinetypeTableRecord
  2
PHANTOM
 70
     0
  3
Phantom ______  __  __  ______  __  __  ______
 72
    65
 73
     6
 40
12.7
 49
6.35
 74
     0
 49
-1.27
 74
     0
 49
1.27
 74
     0
 49
-1.27
 74
     0
 49
1.27
 74
     0
 49
-1.27
 74
     0
  0
LTYPE
  5
6C
330
5
100
AcDbSymbolTableRecord
100
AcDbLinetypeTableRecord
  2
CENTER
 70
     0
  3
Center ____ _ ____ _ ____ _ ____ _ ____ _ ____
 72
    65
 73
     4
 40
10.16
 49
6.35
 74
     0
 49
-1.27
 74
     0
 49
1.27
 74
     0
 49
-1.27
 74
     0
  0
LTYPE
  5
6D
330
5
100
AcDbSymbolTableRecord
100
AcDbLinetypeTableRecord
  2
CENTERX2
 70
     0
  3
Center (2x) ________  __  ________  __  _____
 72
    65
 73
     4
 40
20.32
 49
12.7
 74
     0
 49
-2.54
 74
     0
 49
2.54
 74
     0
 49
-2.54
 74
     0
  0
LTYPE
  5
6E
330
5
100
AcDbSymbolTableRecord
100
AcDbLinetypeTableRecord
  2
DOT2
 70
     0
  3
Dot (.5x) ........................................
 72
    65
 73
     2
 40
0.635
 49
0.0
 74
     0
 49
-0.635
 74
     0
  0
ENDTAB
  0
TABLE
  2
LAYER
  5
2
102
{ACAD_XDICTIONARY
360
227
102
}
330
0
100
AcDbSymbolTable
 70
    18
  0
LAYER
  5
10
330
2
100
AcDbSymbolTableRecord
100
AcDbLayerTableRecord
  2
0
 70
     0
 62
     7
  6
Continuous
370
    -3
390
F
  0
LAYER
  5
6F
330
2
100
AcDbSymbolTableRecord
100
AcDbLayerTableRecord
  2
FORMAT
 70
     0
 62
     2
  6
Continuous
370
    -3
390
F
  0
LAYER
  5
70
330
2
100
AcDbSymbolTableRecord
100
AcDbLayerTableRecord
  2
외형선
 70
     0
 62
     4
  6
Continuous
370
    30
390
F
  0
LAYER
  5
71
330
2
100
AcDbSymbolTableRecord
100
AcDbLayerTableRecord
  2
숨은선
 70
     0
 62
     2
  6
HIDDEN
370
    15
390
F
  0
LAYER
  5
72
330
2
100
AcDbSymbolTableRecord
100
AcDbLayerTableRecord
  2
중심선
 70
     0
 62
     1
  6
CENTERX2
370
    -3
390
F
  0
LAYER
  5
73
330
2
100
AcDbSymbolTableRecord
100
AcDbLayerTableRecord
  2
파단선
 70
     0
 62
     4
  6
Continuous
370
    -3
390
F
  0
LAYER
  5
74
330
2
100
AcDbSymbolTableRecord
100
AcDbLayerTableRecord
  2
해칭선
 70
     0
 62
   100
  6
Continuous
370
    -3
390
F
  0
LAYER
  5
75
330
2
100
AcDbSymbolTableRecord
100
AcDbLayerTableRecord
  2
가는실선
 70
     0
 62
     4
  6
Continuous
370
    -3
390
F
  0
LAYER
  5
76
330
2
100
AcDbSymbolTableRecord
100
AcDbLayerTableRecord
  2
치수_보조선
 70
     0
 62
     4
  6
Continuous
370
    -3
390
F
  0
LAYER
  5
77
330
2
100
AcDbSymbolTableRecord
100
AcDbLayerTableRecord
  2
치수문자_일반주서
 70
     0
 62
     7
  6
Continuous
370
    15
390
F
  0
LAYER
  5
78
330
2
100
AcDbSymbolTableRecord
100
AcDbLayerTableRecord
  2
개별주서
 70
     0
 62
   100
  6
Continuous
370
    30
390
F
  0
LAYER
  5
79
330
2
100
AcDbSymbolTableRecord
100
AcDbLayerTableRecord
  2
중간선
 70
     0
 62
     2
  6
Continuous
370
    15
390
F
  0
LAYER
  5
7A
330
2
100
AcDbSymbolTableRecord
100
AcDbLayerTableRecord
  2
윤곽선
 70
     0
 62
     3
  6
Continuous
370
    40
390
F
  0
LAYER
  5
7B
330
2
100
AcDbSymbolTableRecord
100
AcDbLayerTableRecord
  2
중심마크
 70
     0
 62
   100
  6
Continuous
370
    30
390
F
  0
LAYER
  5
7C
330
2
100
AcDbSymbolTableRecord
100
AcDbLayerTableRecord
  2
가상선
 70
     0
 62
     4
  6
PHANTOM
370
    -3
390
F
  0
LAYER
  5
7D
330
2
100
AcDbSymbolTableRecord
100
AcDbLayerTableRecord
  2
특수지정선
 70
     0
 62
     5
  6
CENTERX2
370
    60
390
F
  0
LAYER
  5
7E
330
2
100
AcDbSymbolTableRecord
100
AcDbLayerTableRecord
  2
참조1
 70
     0
 62
    -4
  6
Continuous
370
    -3
390
F
  0
LAYER
  5
16F
330
2
100
AcDbSymbolTableRecord
100
AcDbLayerTableRecord
  2
Defpoints
 70
     0
 62
     7
  6
Continuous
290
     0
370
    -3
390
F
  0
ENDTAB
  0
TABLE
  2
STYLE
  5
3
330
0
100
AcDbSymbolTable
 70
     2
  0
STYLE
  5
11
330
3
100
AcDbSymbolTableRecord
100
AcDbTextStyleTableRecord
  2
Standard
 70
     0
 40
0.0
 41
1.0
 50
0.0
 71
     0
 42
3.5
  3
txt
  4

  0
STYLE
  5
94
330
3
100
AcDbSymbolTableRecord
100
AcDbTextStyleTableRecord
  2
SLDTEXTSTYLE0
 70
     0
 40
0.0
 41
0.75
 50
0.0
 71
     0
 42
3.5
  3
TXT
  4

  0
ENDTAB
  0
TABLE
  2
VIEW
  5
6
330
0
100
AcDbSymbolTable
 70
     0
  0
ENDTAB
  0
TABLE
  2
UCS
  5
7
330
0
100
AcDbSymbolTable
 70
     0
  0
ENDTAB
  0
TABLE
  2
APPID
  5
9
330
0
100
AcDbSymbolTable
 70
     3
  0
APPID
  5
12
330
9
100
AcDbSymbolTableRecord
100
AcDbRegAppTableRecord
  2
ACAD
 70
     0
  0
APPID
  5
17B
330
9
100
AcDbSymbolTableRecord
100
AcDbRegAppTableRecord
  2
PE_URL
 70
     0
  0
APPID
  5
17C
330
9
100
AcDbSymbolTableRecord
100
AcDbRegAppTableRecord
  2
ACAD_DSTYLE_DIMRADIAL_EXTENSION
 70
     0
  0
ENDTAB
  0
TABLE
  2
DIMSTYLE
  5
A
330
0
100
AcDbSymbolTable
 70
     4
100
AcDbDimStyleTable
  0
DIMSTYLE
105
27
330
A
100
AcDbSymbolTableRecord
100
AcDbDimStyleTableRecord
  2
ISO-25
 70
     0
 41
2.5
 42
0.625
 43
3.75
 44
1.25
 73
     0
 74
     0
 77
     1
 78
     8
140
2.5
141
2.5
143
0.03937007874016
147
0.625
171
     3
172
     1
178
     0
271
     2
272
     2
274
     3
278
    44
283
     0
284
     8
340
11
  0
DIMSTYLE
105
EC
102
{ACAD_REACTORS
330
EB
330
128
330
100
330
115
102
}
330
A
100
AcDbSymbolTableRecord
100
AcDbDimStyleTableRecord
  2
SLDDIMSTYLE0
 70
     0
 41
3.302
 44
0.0
 45
0.000000001
 73
     0
 74
     0
 77
     1
 78
    12
 79
     3
140
3.5
143
0.0393700787401575
147
0.875
148
0.000000001
170
     1
172
     1
173
     1
178
     0
271
     2
272
     2
276
     2
284
    12
289
     0
340
94
  0
DIMSTYLE
105
101
102
{ACAD_REACTORS
102
}
330
A
100
AcDbSymbolTableRecord
100
AcDbDimStyleTableRecord
  2
SLDDIMSTYLE1
 70
     0
 41
3.302
 44
0.0
 45
0.000000001
 73
     0
 74
     0
 77
     1
 78
     4
 79
     1
140
3.5
143
0.0393700787401575
147
0.875
148
0.000000001
170
     1
173
     1
178
     0
271
     2
272
     2
276
     2
284
    12
340
94
  0
DIMSTYLE
105
17A
102
{ACAD_REACTORS
102
}
330
A
100
AcDbSymbolTableRecord
100
AcDbDimStyleTableRecord
  2
SLDDIMSTYLE2
 70
     0
 41
3.302
 44
0.0
 45
0.000000001
 73
     0
 74
     0
 77
     1
 78
    12
 79
     3
140
3.5
147
0.875
172
     1
173
     1
178
     0
271
     2
272
     2
276
     2
284
    12
289
     0
340
94
  0
ENDTAB
  0
TABLE
  2
BLOCK_RECORD
  5
1
330
0
100
AcDbSymbolTable
 70
    17
  0
BLOCK_RECORD
  5
1F
102
{ACAD_XDICTIONARY
360
305
102
}
330
1
100
AcDbSymbolTableRecord
100
AcDbBlockTableRecord
  2
*Model_Space
340
22
  0
BLOCK_RECORD
  5
1B
330
1
100
AcDbSymbolTableRecord
100
AcDbBlockTableRecord
  2
*Paper_Space
340
1E
  0
BLOCK_RECORD
  5
23
330
1
100
AcDbSymbolTableRecord
100
AcDbBlockTableRecord
  2
*Paper_Space0
340
26
  0
BLOCK_RECORD
  5
7F
330
1
100
AcDbSymbolTableRecord
100
AcDbBlockTableRecord
  2
블럭10
340
0
102
{BLKREFS
331
E4
102
}
  0
BLOCK_RECORD
  5
ED
330
1
100
AcDbSymbolTableRecord
100
AcDbBlockTableRecord
  2
_D
340
0
  0
BLOCK_RECORD
  5
102
330
1
100
AcDbSymbolTableRecord
100
AcDbBlockTableRecord
  2
_D_1
340
0
  0
BLOCK_RECORD
  5
116
330
1
100
AcDbSymbolTableRecord
100
AcDbBlockTableRecord
  2
_D_2
340
0
  0
BLOCK_RECORD
  5
129
330
1
100
AcDbSymbolTableRecord
100
AcDbBlockTableRecord
  2
_D_3
340
0
  0
BLOCK_RECORD
  5
143
330
1
100
AcDbSymbolTableRecord
100
AcDbBlockTableRecord
  2
SW_DOWELSYMBOL_0
340
0
102
{BLKREFS
331
149
102
}
  0
BLOCK_RECORD
  5
205
330
1
100
AcDbSymbolTableRecord
100
AcDbBlockTableRecord
  2
_D_4
340
0
  0
BLOCK_RECORD
  5
21F
330
1
100
AcDbSymbolTableRecord
100
AcDbBlockTableRecord
  2
*D8
340
0
  0
BLOCK_RECORD
  5
22B
330
1
100
AcDbSymbolTableRecord
100
AcDbBlockTableRecord
  2
*D9
340
0
  0
BLOCK_RECORD
  5
237
330
1
100
AcDbSymbolTableRecord
100
AcDbBlockTableRecord
  2
*D10
340
0
  0
BLOCK_RECORD
  5
243
330
1
100
AcDbSymbolTableRecord
100
AcDbBlockTableRecord
  2
*D11
340
0
  0
BLOCK_RECORD
  5
29E
330
1
100
AcDbSymbolTableRecord
100
AcDbBlockTableRecord
  2
*D12
340
0
  0
BLOCK_RECORD
  5
2AA
330
1
100
AcDbSymbolTableRecord
100
AcDbBlockTableRecord
  2
*D13
340
0
  0
BLOCK_RECORD
  5
2B6
330
1
100
AcDbSymbolTableRecord
100
AcDbBlockTableRecord
  2
*D14
340
0
  0
BLOCK_RECORD
  5
2C4
330
1
100
AcDbSymbolTableRecord
100
AcDbBlockTableRecord
  2
*D15
340
0
  0
BLOCK_RECORD
  5
2D2
330
1
100
AcDbSymbolTableRecord
100
AcDbBlockTableRecord
  2
*D16
340
0
  0
ENDTAB
  0
ENDSEC
  0
SECTION
  2
BLOCKS
  0
BLOCK
  5
20
330
1F
100
AcDbEntity
  8
0
100
AcDbBlockBegin
  2
*Model_Space
 70
     0
 10
0.0
 20
0.0
 30
0.0
  3
*Model_Space
  1
*Model_Space
  0
ENDBLK
  5
21
330
1F
100
AcDbEntity
  8
0
100
AcDbBlockEnd
  0
BLOCK
  5
1C
330
1B
100
AcDbEntity
 67
     1
  8
0
100
AcDbBlockBegin
  2
*Paper_Space
 70
     0
 10
0.0
 20
0.0
 30
0.0
  3
*Paper_Space
  1
*Paper_Space
  0
ENDBLK
  5
1D
330
1B
100
AcDbEntity
 67
     1
  8
0
100
AcDbBlockEnd
  0
BLOCK
  5
24
330
23
100
AcDbEntity
  8
0
100
AcDbBlockBegin
  2
*Paper_Space0
 70
     0
 10
0.0
 20
0.0
 30
0.0
  3
*Paper_Space0
  1
*Paper_Space0
  0
ENDBLK
  5
25
330
23
100
AcDbEntity
  8
0
100
AcDbBlockEnd
  0
BLOCK
  5
80
330
7F
100
AcDbEntity
  8
0
100
AcDbBlockBegin
  2
블럭10
 70
     2
 10
0.0
 20
0.0
 30
0.0
  3
블럭10
  1
블럭10
  0
ELLIPSE
  5
82
330
7F
100
AcDbEntity
  8
중심선
100
AcDbEllipse
 10
20.54032771741204
 20
12.0471743016438
 30
0.0
 11
6.600054785286829
 21
-1.261213355974178E-13
 31
0.0
210
0.0
220
0.0
230
1.0
 40
0.636358354079598
 41
0.9219305317359503
 42
6.513795318482858
  0
ELLIPSE
  5
83
330
7F
100
AcDbEntity
  8
중심선
100
AcDbEllipse
 10
20.54032771746488
 20
12.04717430159265
 30
0.0
 11
3.960054785062283
 21
1.540847449632565E-10
 31
0.0
210
0.0
220
0.0
230
1.0
 40
0.3939339440162632
 41
1.131841032648279
 42
5.62031148352944
  0
LINE
  5
84
330
7F
100
AcDbEntity
  8
중심선
100
AcDbLine
 10
2.268634060543552
 20
16.24717430164393
 30
0.0
 11
5.714909304380834
 21
16.24717430164393
 31
0.0
  0
LINE
  5
85
330
7F
100
AcDbEntity
  8
중심선
100
AcDbLine
 10
5.245725140726316
 20
7.84717430164391
 30
0.0
 11
8.692000384563599
 21
7.84717430164391
 31
0.0
  0
LINE
  5
86
330
7F
100
AcDbEntity
  8
중심선
100
AcDbLine
 10
15.74043728645272
 20
16.24717430164393
 30
0.0
 11
8.692000384563599
 21
7.84717430164391
 31
0.0
  0
LINE
  5
87
330
7F
100
AcDbEntity
  8
중심선
100
AcDbLine
 10
0.1404042013395286
 20
13.71084872107135
 30
0.0
 11
3.58671253028996
 21
13.71088815037384
 31
0.0
  0
LINE
  5
88
330
7F
100
AcDbEntity
  8
중심선
100
AcDbLine
 10
2.750260043222114
 20
10.84717430164391
 30
0.0
 11
6.196535287059397
 21
10.84717430164391
 31
0.0
  0
LINE
  5
89
330
7F
100
AcDbEntity
  8
중심선
100
AcDbLine
 10
12.29416204261559
 20
16.24717430164393
 30
0.0
 11
5.245725140726316
 21
7.84717430164391
 31
0.0
  0
LINE
  5
8A
330
7F
100
AcDbEntity
  8
중심선
100
AcDbLine
 10
10.72767329541681
 20
16.24717430164393
 30
0.0
 11
6.196535287059397
 21
10.84717430164391
 31
0.0
  0
LINE
  5
8B
330
7F
100
AcDbEntity
  8
중심선
100
AcDbLine
 10
7.28139805157953
 20
16.24717430164393
 30
0.0
 11
2.750260043222114
 21
10.84717430164391
 31
0.0
  0
LINE
  5
8C
330
7F
100
AcDbEntity
  8
중심선
100
AcDbLine
 10
5.714909304380834
 20
16.24717430164393
 30
0.0
 11
3.58671253028996
 21
13.71088815037384
 31
0.0
  0
LINE
  5
8D
330
7F
100
AcDbEntity
  8
중심선
100
AcDbLine
 10
2.268634060543552
 20
16.24717430164393
 30
0.0
 11
0.1404042013395286
 21
13.71084872107135
 31
0.0
  0
LINE
  5
8E
330
7F
100
AcDbEntity
  8
중심선
100
AcDbLine
 10
7.28139805157953
 20
16.24717430164393
 30
0.0
 11
10.72767329541681
 21
16.24717430164393
 31
0.0
  0
LINE
  5
8F
330
7F
100
AcDbEntity
  8
중심선
100
AcDbLine
 10
12.29416204261559
 20
16.24717430164393
 30
0.0
 11
15.74043728645272
 21
16.24717430164393
 31
0.0
  0
LINE
  5
90
330
7F
100
AcDbEntity
  8
중심선
100
AcDbLine
 10
19.22036997980202
 20
11.08717430171403
 30
0.0
 11
23.66174974927406
 21
11.08717430171406
 31
0.0
  0
LINE
  5
91
330
7F
100
AcDbEntity
  8
중심선
100
AcDbLine
 10
19.22039502424796
 20
13.00717430171391
 30
0.0
 11
19.22036997980202
 21
11.08717430171403
 31
0.0
  0
LINE
  5
92
330
7F
100
AcDbEntity
  8
중심선
100
AcDbLine
 10
19.22039502424796
 20
13.00717430171391
 30
0.0
 11
26.96566020931264
 21
13.00717430171391
 31
0.0
  0
LINE
  5
93
330
7F
100
AcDbEntity
  8
중심선
100
AcDbLine
 10
22.22332737316547
 20
13.45928029700563
 30
0.0
 11
24.52862924686651
 21
15.39360700705356
 31
0.0
  0
ATTDEF
  5
95
330
7F
100
AcDbEntity
  8
FORMAT
 62
     2
100
AcDbText
 10
4.408487351596664
 20
2.075366912832191
 30
0.0
 40
4.233333333333333
  1
E5026904
 41
0.75
  7
SLDTEXTSTYLE0
 11
4.408487351596664
 21
-0.0412997538344756
 31
0.0
100
AcDbAttributeDefinition
  3

  2
AUTOATTR0
 70
     0
 74
     1
  0
ENDBLK
  5
81
330
7F
100
AcDbEntity
  8
0
100
AcDbBlockEnd
  0
BLOCK
  5
EE
330
ED
100
AcDbEntity
  8
0
100
AcDbBlockBegin
  2
_D
 70
     0
 10
0.0
 20
0.0
 30
0.0
  3
_D
  1
_D
  0
LINE
  5
F0
330
ED
100
AcDbEntity
  8
치수문자_일반주서
 62
     0
370
    -2
100
AcDbLine
 10
-65.83250000000001
 20
2.381249999999996
 30
0.0
 11
-78.29915883139982
 21
2.381249999999952
 31
0.0
  0
LINE
  5
F1
330
ED
100
AcDbEntity
  8
치수문자_일반주서
 62
     0
370
    -2
100
AcDbLine
 10
-65.83250000000001
 20
-2.381250000000007
 30
0.0
 11
-78.29915883139981
 21
-2.381250000000051
 31
0.0
  0
LINE
  5
F2
330
ED
100
AcDbEntity
  8
치수문자_일반주서
 62
     0
370
    -2
100
AcDbLine
 10
-78.29915883139982
 20
2.381249999999952
 30
0.0
 11
-78.29915883139992
 21
36.98524999999995
 31
0.0
  0
LINE
  5
F3
330
ED
100
AcDbEntity
  8
치수문자_일반주서
 62
     0
370
    -2
100
AcDbLine
 10
-78.29915883139982
 20
2.381249999999952
 30
0.0
 11
-78.29915883139981
 21
-2.381250000000051
 31
0.0
  0
LINE
  5
F4
330
ED
100
AcDbEntity
  8
치수문자_일반주서
 62
     0
370
    -2
100
AcDbLine
 10
-78.29915883139984
 20
5.683249999999951
 30
0.0
 11
-78.29915883139985
 21
8.98524999999995
 31
0.0
  0
LINE
  5
F5
330
ED
100
AcDbEntity
  8
치수문자_일반주서
 62
     0
370
    -2
100
AcDbLine
 10
-78.2991588313998
 20
-5.683250000000051
 30
0.0
 11
-78.29915883139978
 21
-8.98525000000005
 31
0.0
  0
SOLID
  5
F6
330
ED
100
AcDbEntity
  8
치수문자_일반주서
 62
     0
100
AcDbTrace
 10
-78.84949216473316
 20
5.68324999999995
 30
0.0
 11
-77.74882549806651
 21
5.683249999999953
 31
0.0
 12
-78.29915883139982
 22
2.381249999999952
 32
0.0
 13
-78.29915883139982
 23
2.381249999999952
 33
0.0
  0
SOLID
  5
F7
330
ED
100
AcDbEntity
  8
치수문자_일반주서
 62
     0
100
AcDbTrace
 10
-77.74882549806647
 20
-5.683250000000049
 30
0.0
 11
-78.84949216473312
 21
-5.683250000000053
 31
0.0
 12
-78.29915883139981
 22
-2.381250000000051
 32
0.0
 13
-78.29915883139981
 23
-2.381250000000051
 33
0.0
  0
MTEXT
  5
F8
330
ED
100
AcDbEntity
  8
치수문자_일반주서
 62
     0
100
AcDbMText
 10
-82.67415883139988
 20
22.98524999999994
 30
0.0
 40
3.5
 41
0.0
 71
     2
 72
     1
  1
\A1;%%c4.76 [3/16]
  7
SLDTEXTSTYLE0
 11
-2.983906501879685E-15
 21
1.0
 31
0.0
 73
     1
 44
1.0
  0
POINT
  5
2DC
330
ED
100
AcDbEntity
  8
Defpoints
 62
     0
100
AcDbPoint
 10
-65.77000000000001
 20
2.381249999999997
 30
0.0
  0
POINT
  5
2DD
330
ED
100
AcDbEntity
  8
Defpoints
 62
     0
100
AcDbPoint
 10
-65.77000000000001
 20
-2.381250000000006
 30
0.0
  0
POINT
  5
2DE
330
ED
100
AcDbEntity
  8
Defpoints
 62
     0
100
AcDbPoint
 10
-78.29915883139981
 20
-2.381250000000053
 30
0.0
  0
ENDBLK
  5
EF
330
ED
100
AcDbEntity
  8
0
100
AcDbBlockEnd
  0
BLOCK
  5
103
330
102
100
AcDbEntity
  8
0
100
AcDbBlockBegin
  2
_D_1
 70
     0
 10
0.0
 20
0.0
 30
0.0
  3
_D_1
  1
_D_1
  0
LINE
  5
105
330
102
100
AcDbEntity
  8
치수문자_일반주서
 62
     0
370
    -2
100
AcDbLine
 10
35.40000000000001
 20
2.441737403765588
 30
0.0
 11
35.40000000000001
 21
15.55557913458852
 31
0.0
  0
LINE
  5
106
330
102
100
AcDbEntity
  8
치수문자_일반주서
 62
     0
370
    -2
100
AcDbLine
 10
10.0
 20
2.435408613302917
 30
0.0
 11
10.0
 21
15.55557913458852
 31
0.0
  0
LINE
  5
107
330
102
100
AcDbEntity
  8
치수문자_일반주서
 62
     0
370
    -2
100
AcDbLine
 10
32.09800000000001
 20
15.55557913458852
 30
0.0
 11
13.302
 21
15.55557913458852
 31
0.0
  0
SOLID
  5
108
330
102
100
AcDbEntity
  8
치수문자_일반주서
 62
     0
100
AcDbTrace
 10
32.09800000000001
 20
15.00524580125519
 30
0.0
 11
32.09800000000001
 21
16.10591246792185
 31
0.0
 12
35.40000000000001
 22
15.55557913458852
 32
0.0
 13
35.40000000000001
 23
15.55557913458852
 33
0.0
  0
SOLID
  5
109
330
102
100
AcDbEntity
  8
치수문자_일반주서
 62
     0
100
AcDbTrace
 10
13.302
 20
16.10591246792185
 30
0.0
 11
13.302
 21
15.00524580125519
 31
0.0
 12
10.0
 22
15.55557913458852
 32
0.0
 13
10.0
 23
15.55557913458852
 33
0.0
  0
MTEXT
  5
10A
330
102
100
AcDbEntity
  8
치수문자_일반주서
 62
     0
100
AcDbMText
 10
22.7
 20
19.93057913458852
 30
0.0
 40
3.5
 41
0.0
 71
     2
 72
     1
  1
\A1;25.4 [1]
  7
SLDTEXTSTYLE0
 73
     1
 44
1.0
  0
POINT
  5
10B
330
102
100
AcDbEntity
  8
Defpoints
 62
     0
100
AcDbPoint
 10
35.40000000000001
 20
2.379237403765588
 30
0.0
  0
POINT
  5
10C
330
102
100
AcDbEntity
  8
Defpoints
 62
     0
100
AcDbPoint
 10
10.0
 20
2.372908613302917
 30
0.0
  0
POINT
  5
10D
330
102
100
AcDbEntity
  8
Defpoints
 62
     0
100
AcDbPoint
 10
10.0
 20
15.55557913458852
 30
0.0
  0
ENDBLK
  5
104
330
102
100
AcDbEntity
  8
0
100
AcDbBlockEnd
  0
BLOCK
  5
117
330
116
100
AcDbEntity
  8
0
100
AcDbBlockBegin
  2
_D_2
 70
     0
 10
0.0
 20
0.0
 30
0.0
  3
_D_2
  1
_D_2
  0
LINE
  5
119
330
116
100
AcDbEntity
  8
치수문자_일반주서
 62
     0
370
    -2
100
AcDbLine
 10
35.40000000000001
 20
2.443749999999996
 30
0.0
 11
35.40000000000001
 21
32.78519501024256
 31
0.0
  0
LINE
  5
11A
330
116
100
AcDbEntity
  8
치수문자_일반주서
 62
     0
370
    -2
100
AcDbLine
 10
-66.19999999999999
 20
2.013749999999986
 30
0.0
 11
-66.19999999999999
 21
32.78519501024256
 31
0.0
  0
LINE
  5
11B
330
116
100
AcDbEntity
  8
치수문자_일반주서
 62
     0
370
    -2
100
AcDbLine
 10
32.09800000000001
 20
32.78519501024256
 30
0.0
 11
-62.89799999999999
 21
32.78519501024256
 31
0.0
  0
SOLID
  5
11C
330
116
100
AcDbEntity
  8
치수문자_일반주서
 62
     0
100
AcDbTrace
 10
32.09800000000001
 20
32.23486167690923
 30
0.0
 11
32.09800000000001
 21
33.33552834357589
 31
0.0
 12
35.40000000000001
 22
32.78519501024256
 32
0.0
 13
35.40000000000001
 23
32.78519501024256
 33
0.0
  0
SOLID
  5
11D
330
116
100
AcDbEntity
  8
치수문자_일반주서
 62
     0
100
AcDbTrace
 10
-62.89799999999999
 20
33.33552834357589
 30
0.0
 11
-62.89799999999999
 21
32.23486167690923
 31
0.0
 12
-66.19999999999999
 22
32.78519501024256
 32
0.0
 13
-66.19999999999999
 23
32.78519501024256
 33
0.0
  0
MTEXT
  5
11E
330
116
100
AcDbEntity
  8
치수문자_일반주서
 62
     0
100
AcDbMText
 10
-15.4
 20
37.16019501024256
 30
0.0
 40
3.5
 41
0.0
 71
     2
 72
     1
  1
\A1;101.6 [4]
  7
SLDTEXTSTYLE0
 73
     1
 44
1.0
  0
POINT
  5
11F
330
116
100
AcDbEntity
  8
Defpoints
 62
     0
100
AcDbPoint
 10
35.40000000000001
 20
2.381249999999996
 30
0.0
  0
POINT
  5
120
330
116
100
AcDbEntity
  8
Defpoints
 62
     0
100
AcDbPoint
 10
-66.19999999999999
 20
1.951249999999986
 30
0.0
  0
POINT
  5
121
330
116
100
AcDbEntity
  8
Defpoints
 62
     0
100
AcDbPoint
 10
-66.19999999999999
 20
32.78519501024256
 30
0.0
  0
ENDBLK
  5
118
330
116
100
AcDbEntity
  8
0
100
AcDbBlockEnd
  0
BLOCK
  5
12A
330
129
100
AcDbEntity
  8
0
100
AcDbBlockBegin
  2
_D_3
 70
     0
 10
0.0
 20
0.0
 30
0.0
  3
_D_3
  1
_D_3
  0
LINE
  5
12C
330
129
100
AcDbEntity
  8
치수문자_일반주서
 62
     0
370
    -2
100
AcDbLine
 10
35.46250000000001
 20
-2.381250000000005
 30
0.0
 11
45.96426078577426
 21
-2.381249999999966
 31
0.0
  0
LINE
  5
12D
330
129
100
AcDbEntity
  8
치수문자_일반주서
 62
     0
370
    -2
100
AcDbLine
 10
35.46250000000001
 20
2.379237403765588
 30
0.0
 11
45.96426078577424
 21
2.379237403765625
 31
0.0
  0
LINE
  5
12E
330
129
100
AcDbEntity
  8
치수문자_일반주서
 62
     0
370
    -2
100
AcDbLine
 10
45.96426078577424
 20
2.379237403765625
 30
0.0
 11
45.96426078577414
 21
36.98323740376563
 31
0.0
  0
LINE
  5
12F
330
129
100
AcDbEntity
  8
치수문자_일반주서
 62
     0
370
    -2
100
AcDbLine
 10
45.96426078577426
 20
-2.381249999999966
 30
0.0
 11
45.96426078577424
 21
2.379237403765625
 31
0.0
  0
LINE
  5
130
330
129
100
AcDbEntity
  8
치수문자_일반주서
 62
     0
370
    -2
100
AcDbLine
 10
45.96426078577426
 20
-5.683249999999965
 30
0.0
 11
45.96426078577427
 21
-8.985249999999965
 31
0.0
  0
LINE
  5
131
330
129
100
AcDbEntity
  8
치수문자_일반주서
 62
     0
370
    -2
100
AcDbLine
 10
45.96426078577424
 20
5.681237403765625
 30
0.0
 11
45.96426078577423
 21
8.983237403765624
 31
0.0
  0
SOLID
  5
132
330
129
100
AcDbEntity
  8
치수문자_일반주서
 62
     0
100
AcDbTrace
 10
46.5145941191076
 20
-5.683249999999964
 30
0.0
 11
45.41392745244093
 21
-5.683249999999967
 31
0.0
 12
45.96426078577426
 22
-2.381249999999966
 32
0.0
 13
45.96426078577426
 23
-2.381249999999966
 33
0.0
  0
SOLID
  5
133
330
129
100
AcDbEntity
  8
치수문자_일반주서
 62
     0
100
AcDbTrace
 10
45.4139274524409
 20
5.681237403765623
 30
0.0
 11
46.51459411910757
 21
5.681237403765627
 31
0.0
 12
45.96426078577424
 22
2.379237403765625
 32
0.0
 13
45.96426078577424
 23
2.379237403765625
 33
0.0
  0
MTEXT
  5
134
330
129
100
AcDbEntity
  8
치수문자_일반주서
 62
     0
100
AcDbMText
 10
41.58926078577419
 20
22.98323740376561
 30
0.0
 40
3.5
 41
0.0
 71
     2
 72
     1
  1
\A1;%%c4.76 [3/16]
  7
SLDTEXTSTYLE0
 11
-2.985168011149673E-15
 21
1.0
 31
0.0
 73
     1
 44
1.0
  0
POINT
  5
135
330
129
100
AcDbEntity
  8
Defpoints
 62
     0
100
AcDbPoint
 10
35.40000000000001
 20
-2.381250000000005
 30
0.0
  0
POINT
  5
136
330
129
100
AcDbEntity
  8
Defpoints
 62
     0
100
AcDbPoint
 10
35.40000000000001
 20
2.379237403765588
 30
0.0
  0
POINT
  5
137
330
129
100
AcDbEntity
  8
Defpoints
 62
     0
100
AcDbPoint
 10
45.96426078577424
 20
2.379237403765627
 30
0.0
  0
ENDBLK
  5
12B
330
129
100
AcDbEntity
  8
0
100
AcDbBlockEnd
  0
BLOCK
  5
144
330
143
100
AcDbEntity
  8
0
100
AcDbBlockBegin
  2
SW_DOWELSYMBOL_0
 70
     0
 10
0.0
 20
0.0
 30
0.0
  3
SW_DOWELSYMBOL_0
  1
SW_DOWELSYMBOL_0
  0
CIRCLE
  5
146
330
143
100
AcDbEntity
  8
해칭선
 62
     0
100
AcDbCircle
 10
0.0
 20
0.0
 30
0.0
 40
2.999999999999996
  0
HATCH
  5
147
330
143
100
AcDbEntity
  8
0
  6
Continuous
 62
     0
370
     0
100
AcDbHatch
 10
0.0
 20
0.0
 30
0.0
210
0.0
220
0.0
230
1.0
  2
SOLID
 70
     1
 71
     0
 91
        1
 92
        0
 93
        3
 72
     2
 10
0.0
 20
0.0
 40
2.999999999999996
 50
0.0
 51
90.0
 73
     1
 72
     1
 10
0.0
 20
2.999999999999996
 11
0.0
 21
0.0
 72
     1
 10
0.0
 20
0.0
 11
2.999999999999996
 21
0.0
 97
        0
 75
     0
 76
     1
 98
        1
 10
0.0
 20
0.0
  0
HATCH
  5
148
330
143
100
AcDbEntity
  8
0
  6
Continuous
 62
     0
370
     0
100
AcDbHatch
 10
0.0
 20
0.0
 30
0.0
210
0.0
220
0.0
230
1.0
  2
SOLID
 70
     1
 71
     0
 91
        1
 92
        0
 93
        3
 72
     2
 10
0.0
 20
0.0
 40
2.999999999999996
 50
180.0
 51
270.0000000000007
 73
     1
 72
     1
 10
0.0
 20
-2.999999999999996
 11
0.0
 21
0.0
 72
     1
 10
0.0
 20
0.0
 11
-2.999999999999996
 21
0.0
 97
        0
 75
     0
 76
     1
 98
        1
 10
0.0
 20
0.0
  0
ENDBLK
  5
145
330
143
100
AcDbEntity
  8
0
100
AcDbBlockEnd
  0
BLOCK
  5
206
330
205
100
AcDbEntity
  8
0
100
AcDbBlockBegin
  2
_D_4
 70
     0
 10
0.0
 20
0.0
 30
0.0
  3
_D_4
  1
_D_4
  0
LINE
  5
207
330
205
100
AcDbEntity
  8
치수문자_일반주서
 62
     0
370
    -2
100
AcDbLine
 10
102.4375000000001
 20
36.22143424691529
 30
0.0
 11
117.3750000000001
 21
36.22143424691535
 31
0.0
  0
LINE
  5
208
330
205
100
AcDbEntity
  8
치수문자_일반주서
 62
     0
370
    -2
100
AcDbLine
 10
102.4375000000001
 20
22.22143424691529
 30
0.0
 11
117.3750000000001
 21
22.22143424691535
 31
0.0
  0
LINE
  5
209
330
205
100
AcDbEntity
  8
치수문자_일반주서
 62
     0
370
    -2
100
AcDbLine
 10
117.3750000000001
 20
36.22143424691535
 30
0.0
 11
117.3750000000001
 21
22.22143424691535
 31
0.0
  0
LINE
  5
20A
330
205
100
AcDbEntity
  8
치수문자_일반주서
 62
     0
370
    -2
100
AcDbLine
 10
117.3750000000001
 20
39.52343424691535
 30
0.0
 11
117.375
 21
42.82543424691535
 31
0.0
  0
LINE
  5
20B
330
205
100
AcDbEntity
  8
치수문자_일반주서
 62
     0
370
    -2
100
AcDbLine
 10
117.3750000000001
 20
18.91943424691535
 30
0.0
 11
117.3750000000001
 21
15.61743424691535
 31
0.0
  0
SOLID
  5
20C
330
205
100
AcDbEntity
  8
치수문자_일반주서
 62
     0
100
AcDbTrace
 10
116.8246666666667
 20
39.52343424691535
 30
0.0
 11
117.9253333333334
 21
39.52343424691535
 31
0.0
 12
117.3750000000001
 22
36.22143424691535
 32
0.0
 13
117.3750000000001
 23
36.22143424691535
 33
0.0
  0
SOLID
  5
20D
330
205
100
AcDbEntity
  8
치수문자_일반주서
 62
     0
100
AcDbTrace
 10
117.9253333333335
 20
18.91943424691535
 30
0.0
 11
116.8246666666668
 21
18.91943424691535
 31
0.0
 12
117.3750000000001
 22
22.22143424691535
 32
0.0
 13
117.3750000000001
 23
22.22143424691535
 33
0.0
  0
MTEXT
  5
20E
330
205
100
AcDbEntity
  8
치수문자_일반주서
 62
     0
100
AcDbMText
 10
113.0000000000001
 20
29.28713862862833
 30
0.0
 40
3.5
 41
0.0
 71
     2
 72
     1
  1
\A1;%%c14
  7
SLDTEXTSTYLE0
 11
-3.045183153257572E-15
 21
1.0
 31
0.0
 73
     1
 44
1.0
  0
POINT
  5
20F
330
205
100
AcDbEntity
  8
Defpoints
 62
     0
100
AcDbPoint
 10
102.3750000000001
 20
36.22143424691529
 30
0.0
  0
POINT
  5
210
330
205
100
AcDbEntity
  8
Defpoints
 62
     0
100
AcDbPoint
 10
102.3750000000001
 20
22.22143424691529
 30
0.0
  0
POINT
  5
211
330
205
100
AcDbEntity
  8
Defpoints
 62
     0
100
AcDbPoint
 10
117.3750000000001
 20
22.22143424691535
 30
0.0
  0
ENDBLK
  5
212
330
205
100
AcDbEntity
  8
0
100
AcDbBlockEnd
  0
BLOCK
  5
220
330
21F
100
AcDbEntity
  8
0
100
AcDbBlockBegin
  2
*D8
 70
     1
 10
0.0
 20
0.0
 30
0.0
  3
*D8
  1
*D8
  0
LINE
  5
221
330
21F
100
AcDbEntity
  8
치수문자_일반주서
 62
     0
370
    -2
100
AcDbLine
 10
103.8657751816695
 20
19.48229575403651
 30
0.0
 11
120.1921280501954
 21
-7.081888143622854
 31
0.0
  0
MTEXT
  5
222
330
21F
100
AcDbEntity
  8
치수문자_일반주서
 62
     0
100
AcDbMText
 10
115.6706384014277
 20
5.288158154535728
 30
0.0
 40
3.5
 41
0.0
 71
     5
 72
     1
  1
\A1;R.50 [R0.02]
  7
SLDTEXTSTYLE0
 11
0.5236126201129557
 21
-0.8519564684057781
 31
0.0
 73
     1
 44
1.0
  0
SOLID
  5
223
330
21F
100
AcDbEntity
  8
치수문자_일반주서
 62
     0
100
AcDbTrace
 10
104.3346352247821
 20
19.77045723263868
 30
0.0
 11
103.3969151385569
 21
19.19413427543435
 31
0.0
 12
102.1368063100565
 22
22.29545601271239
 32
0.0
 13
102.1368063100565
 23
22.29545601271239
 33
0.0
  0
LINE
  5
224
330
21F
100
AcDbEntity
  8
치수문자_일반주서
 62
     0
100
AcDbLine
 10
101.785
 20
22.72143424691529
 30
0.0
 11
101.965
 21
22.72143424691529
 31
0.0
  0
LINE
  5
225
330
21F
100
AcDbEntity
  8
치수문자_일반주서
 62
     0
100
AcDbLine
 10
101.875
 20
22.63143424691529
 30
0.0
 11
101.875
 21
22.81143424691529
 31
0.0
  0
POINT
  5
251
330
21F
100
AcDbEntity
  8
Defpoints
 62
     0
100
AcDbPoint
 10
102.1368063100565
 20
22.29545601271239
 30
0.0
  0
POINT
  5
252
330
21F
100
AcDbEntity
  8
Defpoints
 62
     0
100
AcDbPoint
 10
101.875
 20
22.72143424691529
 30
0.0
  0
ENDBLK
  5
226
330
21F
100
AcDbEntity
  8
0
100
AcDbBlockEnd
  0
BLOCK
  5
22C
330
22B
100
AcDbEntity
  8
0
100
AcDbBlockBegin
  2
*D9
 70
     1
 10
0.0
 20
0.0
 30
0.0
  3
*D9
  1
*D10
  0
LINE
  5
22E
330
22B
100
AcDbEntity
  8
치수문자_일반주서
 62
     0
370
    -2
100
AcDbLine
 10
19.37500000000004
 20
35.78393424691529
 30
0.0
 11
19.37500000000004
 21
70.88391841499404
 31
0.0
  0
LINE
  5
22F
330
22B
100
AcDbEntity
  8
치수문자_일반주서
 62
     0
370
    -2
100
AcDbLine
 10
102.3750000000001
 20
36.34643424691529
 30
0.0
 11
102.3750000000001
 21
70.88391841499404
 31
0.0
  0
LINE
  5
230
330
22B
100
AcDbEntity
  8
치수문자_일반주서
 62
     0
370
    -2
100
AcDbLine
 10
22.67700000000004
 20
70.88391841499404
 30
0.0
 11
99.07300000000006
 21
70.88391841499404
 31
0.0
  0
SOLID
  5
231
330
22B
100
AcDbEntity
  8
치수문자_일반주서
 62
     0
100
AcDbTrace
 10
22.67700000000004
 20
71.43425174832737
 30
0.0
 11
22.67700000000004
 21
70.33358508166071
 31
0.0
 12
19.37500000000004
 22
70.88391841499404
 32
0.0
 13
19.37500000000004
 23
70.88391841499404
 33
0.0
  0
SOLID
  5
232
330
22B
100
AcDbEntity
  8
치수문자_일반주서
 62
     0
100
AcDbTrace
 10
99.07300000000006
 20
70.33358508166071
 30
0.0
 11
99.07300000000006
 21
71.43425174832737
 31
0.0
 12
102.3750000000001
 22
70.88391841499404
 32
0.0
 13
102.3750000000001
 23
70.88391841499404
 33
0.0
  0
MTEXT
  5
233
330
22B
100
AcDbEntity
  8
치수문자_일반주서
 62
     0
100
AcDbMText
 10
60.87500000000005
 20
75.25891841499404
 30
0.0
 40
3.5
 41
0.0
 71
     2
 72
     1
  1
\A1;83 [3.27]
  7
SLDTEXTSTYLE0
 73
     1
 44
1.0
  0
POINT
  5
234
330
22B
100
AcDbEntity
  8
Defpoints
 62
     0
100
AcDbPoint
 10
19.37500000000004
 20
35.72143424691529
 30
0.0
  0
POINT
  5
235
330
22B
100
AcDbEntity
  8
Defpoints
 62
     0
100
AcDbPoint
 10
102.3750000000001
 20
36.28393424691529
 30
0.0
  0
POINT
  5
236
330
22B
100
AcDbEntity
  8
Defpoints
 62
     0
100
AcDbPoint
 10
102.3750000000001
 20
70.88391841499404
 30
0.0
  0
ENDBLK
  5
22D
330
22B
100
AcDbEntity
  8
0
100
AcDbBlockEnd
  0
BLOCK
  5
238
330
237
100
AcDbEntity
  8
0
100
AcDbBlockBegin
  2
*D10
 70
     1
 10
0.0
 20
0.0
 30
0.0
  3
*D10
  1
*D11
  0
LINE
  5
23A
330
237
100
AcDbEntity
  8
치수문자_일반주서
 62
     0
370
    -2
100
AcDbLine
 10
76.37504186422882
 20
28.62038676313042
 30
0.0
 11
76.37504186422882
 21
61.90091383617725
 31
0.0
  0
LINE
  5
23B
330
237
100
AcDbEntity
  8
치수문자_일반주서
 62
     0
370
    -2
100
AcDbLine
 10
102.3750000000001
 20
36.28393424691529
 30
0.0
 11
102.3750000000001
 21
61.90091383617725
 31
0.0
  0
LINE
  5
23C
330
237
100
AcDbEntity
  8
치수문자_일반주서
 62
     0
370
    -2
100
AcDbLine
 10
79.67704186422881
 20
61.90091383617725
 30
0.0
 11
99.07300000000006
 21
61.90091383617725
 31
0.0
  0
SOLID
  5
23D
330
237
100
AcDbEntity
  8
치수문자_일반주서
 62
     0
100
AcDbTrace
 10
79.67704186422881
 20
62.45124716951059
 30
0.0
 11
79.67704186422881
 21
61.35058050284392
 31
0.0
 12
76.37504186422882
 22
61.90091383617725
 32
0.0
 13
76.37504186422882
 23
61.90091383617725
 33
0.0
  0
SOLID
  5
23E
330
237
100
AcDbEntity
  8
치수문자_일반주서
 62
     0
100
AcDbTrace
 10
99.07300000000006
 20
61.35058050284392
 30
0.0
 11
99.07300000000006
 21
62.45124716951059
 31
0.0
 12
102.3750000000001
 22
61.90091383617725
 32
0.0
 13
102.3750000000001
 23
61.90091383617725
 33
0.0
  0
MTEXT
  5
23F
330
237
100
AcDbEntity
  8
치수문자_일반주서
 62
     0
100
AcDbMText
 10
89.42159572693208
 20
66.27591383617725
 30
0.0
 40
3.5
 41
0.0
 71
     2
 72
     1
  1
\A1;26 [1.02]
  7
SLDTEXTSTYLE0
 73
     1
 44
1.0
  0
POINT
  5
240
330
237
100
AcDbEntity
  8
Defpoints
 62
     0
100
AcDbPoint
 10
76.37504186422882
 20
28.55788676313042
 30
0.0
  0
POINT
  5
241
330
237
100
AcDbEntity
  8
Defpoints
 62
     0
100
AcDbPoint
 10
102.3750000000001
 20
36.22143424691529
 30
0.0
  0
POINT
  5
242
330
237
100
AcDbEntity
  8
Defpoints
 62
     0
100
AcDbPoint
 10
102.3750000000001
 20
61.90091383617725
 30
0.0
  0
ENDBLK
  5
239
330
237
100
AcDbEntity
  8
0
100
AcDbBlockEnd
  0
BLOCK
  5
244
330
243
100
AcDbEntity
  8
0
100
AcDbBlockBegin
  2
*D11
 70
     1
 10
0.0
 20
0.0
 30
0.0
  3
*D11
  1
*D12
  0
LINE
  5
246
330
243
100
AcDbEntity
  8
치수문자_일반주서
 62
     0
370
    -2
100
AcDbLine
 10
19.81250000000005
 20
36.22143424691529
 30
0.0
 11
4.374999999999983
 21
36.22143424691524
 31
0.0
  0
LINE
  5
247
330
243
100
AcDbEntity
  8
치수문자_일반주서
 62
     0
370
    -2
100
AcDbLine
 10
19.81250000000005
 20
22.22143424691529
 30
0.0
 11
4.375000000000032
 21
22.22143424691524
 31
0.0
  0
LINE
  5
248
330
243
100
AcDbEntity
  8
치수문자_일반주서
 62
     0
370
    -2
100
AcDbLine
 10
4.374999999999983
 20
36.22143424691524
 30
0.0
 11
4.375000000000032
 21
22.22143424691524
 31
0.0
  0
LINE
  5
249
330
243
100
AcDbEntity
  8
치수문자_일반주서
 62
     0
370
    -2
100
AcDbLine
 10
4.374999999999972
 20
39.52343424691524
 30
0.0
 11
4.37499999999996
 21
42.82543424691524
 31
0.0
  0
LINE
  5
24A
330
243
100
AcDbEntity
  8
치수문자_일반주서
 62
     0
370
    -2
100
AcDbLine
 10
4.375000000000044
 20
18.91943424691524
 30
0.0
 11
4.375000000000055
 21
15.61743424691524
 31
0.0
  0
SOLID
  5
24B
330
243
100
AcDbEntity
  8
치수문자_일반주서
 62
     0
100
AcDbTrace
 10
3.824666666666638
 20
39.52343424691524
 30
0.0
 11
4.925333333333305
 21
39.52343424691524
 31
0.0
 12
4.374999999999983
 22
36.22143424691524
 32
0.0
 13
4.374999999999983
 23
36.22143424691524
 33
0.0
  0
SOLID
  5
24C
330
243
100
AcDbEntity
  8
치수문자_일반주서
 62
     0
100
AcDbTrace
 10
4.925333333333377
 20
18.91943424691524
 30
0.0
 11
3.82466666666671
 21
18.91943424691523
 31
0.0
 12
4.375000000000032
 22
22.22143424691524
 32
0.0
 13
4.375000000000032
 23
22.22143424691524
 33
0.0
  0
MTEXT
  5
24D
330
243
100
AcDbEntity
  8
치수문자_일반주서
 62
     0
100
AcDbMText
 10
0.0000000000000071
 20
29.22143424691528
 30
0.0
 40
3.5
 41
0.0
 71
     2
 72
     1
  1
\A1;%%c14
  7
SLDTEXTSTYLE0
 11
-3.489272363107635E-15
 21
1.0
 31
0.0
 73
     1
 44
1.0
  0
POINT
  5
24E
330
243
100
AcDbEntity
  8
Defpoints
 62
     0
100
AcDbPoint
 10
19.87500000000005
 20
36.22143424691529
 30
0.0
  0
POINT
  5
24F
330
243
100
AcDbEntity
  8
Defpoints
 62
     0
100
AcDbPoint
 10
19.87500000000005
 20
22.22143424691529
 30
0.0
  0
POINT
  5
250
330
243
100
AcDbEntity
  8
Defpoints
 62
     0
100
AcDbPoint
 10
4.375000000000043
 20
22.22143424691524
 30
0.0
  0
ENDBLK
  5
245
330
243
100
AcDbEntity
  8
0
100
AcDbBlockEnd
  0
BLOCK
  5
29F
330
29E
100
AcDbEntity
  8
0
100
AcDbBlockBegin
  2
*D12
 70
     1
 10
0.0
 20
0.0
 30
0.0
  3
*D12
  1
*D13
  0
LINE
  5
2A1
330
29E
100
AcDbEntity
  8
치수문자_일반주서
 62
     0
370
    -2
100
AcDbLine
 10
-60.36420088074146
 20
100.0089121722081
 30
0.0
 11
-60.36420088074146
 21
135.1088963402869
 31
0.0
  0
LINE
  5
2A2
330
29E
100
AcDbEntity
  8
치수문자_일반주서
 62
     0
370
    -2
100
AcDbLine
 10
22.63579911925855
 20
100.5714121722081
 30
0.0
 11
22.63579911925855
 21
135.1088963402869
 31
0.0
  0
LINE
  5
2A3
330
29E
100
AcDbEntity
  8
치수문자_일반주서
 62
     0
370
    -2
100
AcDbLine
 10
-57.06220088074146
 20
135.1088963402869
 30
0.0
 11
19.33379911925855
 21
135.1088963402869
 31
0.0
  0
SOLID
  5
2A4
330
29E
100
AcDbEntity
  8
치수문자_일반주서
 62
     0
100
AcDbTrace
 10
-57.06220088074146
 20
135.6592296736202
 30
0.0
 11
-57.06220088074146
 21
134.5585630069535
 31
0.0
 12
-60.36420088074146
 22
135.1088963402869
 32
0.0
 13
-60.36420088074146
 23
135.1088963402869
 33
0.0
  0
SOLID
  5
2A5
330
29E
100
AcDbEntity
  8
치수문자_일반주서
 62
     0
100
AcDbTrace
 10
19.33379911925855
 20
134.5585630069535
 30
0.0
 11
19.33379911925855
 21
135.6592296736202
 31
0.0
 12
22.63579911925855
 22
135.1088963402869
 32
0.0
 13
22.63579911925855
 23
135.1088963402869
 33
0.0
  0
MTEXT
  5
2A6
330
29E
100
AcDbEntity
  8
치수문자_일반주서
 62
     0
100
AcDbMText
 10
-18.86420088074146
 20
139.4838963402869
 30
0.0
 40
3.5
 41
0.0
 71
     2
 72
     1
  1
\A1;83 [3.27]
  7
SLDTEXTSTYLE0
 73
     1
 44
1.0
  0
POINT
  5
2A7
330
29E
100
AcDbEntity
  8
Defpoints
 62
     0
100
AcDbPoint
 10
-60.36420088074146
 20
99.94641217220811
 30
0.0
  0
POINT
  5
2A8
330
29E
100
AcDbEntity
  8
Defpoints
 62
     0
100
AcDbPoint
 10
22.63579911925855
 20
100.5089121722081
 30
0.0
  0
POINT
  5
2A9
330
29E
100
AcDbEntity
  8
Defpoints
 62
     0
100
AcDbPoint
 10
22.63579911925855
 20
135.1088963402869
 30
0.0
  0
ENDBLK
  5
2A0
330
29E
100
AcDbEntity
  8
0
100
AcDbBlockEnd
  0
BLOCK
  5
2AB
330
2AA
100
AcDbEntity
  8
0
100
AcDbBlockBegin
  2
*D13
 70
     1
 10
0.0
 20
0.0
 30
0.0
  3
*D13
  1
*D14
  0
LINE
  5
2AD
330
2AA
100
AcDbEntity
  8
치수문자_일반주서
 62
     0
370
    -2
100
AcDbLine
 10
-3.364159016512687
 20
92.84536468842325
 30
0.0
 11
-3.364159016512687
 21
126.1258917614701
 31
0.0
  0
LINE
  5
2AE
330
2AA
100
AcDbEntity
  8
치수문자_일반주서
 62
     0
370
    -2
100
AcDbLine
 10
22.63579911925855
 20
100.5089121722081
 30
0.0
 11
22.63579911925855
 21
126.1258917614701
 31
0.0
  0
LINE
  5
2AF
330
2AA
100
AcDbEntity
  8
치수문자_일반주서
 62
     0
370
    -2
100
AcDbLine
 10
-0.0621590165126875
 20
126.1258917614701
 30
0.0
 11
19.33379911925855
 21
126.1258917614701
 31
0.0
  0
SOLID
  5
2B0
330
2AA
100
AcDbEntity
  8
치수문자_일반주서
 62
     0
100
AcDbTrace
 10
-0.0621590165126875
 20
126.6762250948034
 30
0.0
 11
-0.0621590165126875
 21
125.5755584281367
 31
0.0
 12
-3.364159016512687
 22
126.1258917614701
 32
0.0
 13
-3.364159016512687
 23
126.1258917614701
 33
0.0
  0
SOLID
  5
2B1
330
2AA
100
AcDbEntity
  8
치수문자_일반주서
 62
     0
100
AcDbTrace
 10
19.33379911925855
 20
125.5755584281367
 30
0.0
 11
19.33379911925855
 21
126.6762250948034
 31
0.0
 12
22.63579911925855
 22
126.1258917614701
 32
0.0
 13
22.63579911925855
 23
126.1258917614701
 33
0.0
  0
MTEXT
  5
2B2
330
2AA
100
AcDbEntity
  8
치수문자_일반주서
 62
     0
100
AcDbMText
 10
9.682394846190576
 20
130.5008917614701
 30
0.0
 40
3.5
 41
0.0
 71
     2
 72
     1
  1
\A1;26 [1.02]
  7
SLDTEXTSTYLE0
 73
     1
 44
1.0
  0
POINT
  5
2B3
330
2AA
100
AcDbEntity
  8
Defpoints
 62
     0
100
AcDbPoint
 10
-3.364159016512687
 20
92.78286468842325
 30
0.0
  0
POINT
  5
2B4
330
2AA
100
AcDbEntity
  8
Defpoints
 62
     0
100
AcDbPoint
 10
22.63579911925855
 20
100.4464121722081
 30
0.0
  0
POINT
  5
2B5
330
2AA
100
AcDbEntity
  8
Defpoints
 62
     0
100
AcDbPoint
 10
22.63579911925855
 20
126.1258917614701
 30
0.0
  0
ENDBLK
  5
2AC
330
2AA
100
AcDbEntity
  8
0
100
AcDbBlockEnd
  0
BLOCK
  5
2B7
330
2B6
100
AcDbEntity
  8
0
100
AcDbBlockBegin
  2
*D14
 70
     1
 10
0.0
 20
0.0
 30
0.0
  3
*D14
  1
*D15
  0
LINE
  5
2B9
330
2B6
100
AcDbEntity
  8
치수문자_일반주서
 62
     0
370
    -2
100
AcDbLine
 10
-59.92670088074146
 20
100.4464121722081
 30
0.0
 11
-75.3642008807415
 21
100.4464121722081
 31
0.0
  0
LINE
  5
2BA
330
2B6
100
AcDbEntity
  8
치수문자_일반주서
 62
     0
370
    -2
100
AcDbLine
 10
-59.92670088074146
 20
86.44641217220811
 30
0.0
 11
-75.36420088074146
 21
86.44641217220806
 31
0.0
  0
LINE
  5
2BB
330
2B6
100
AcDbEntity
  8
치수문자_일반주서
 62
     0
370
    -2
100
AcDbLine
 10
-75.3642008807415
 20
100.4464121722081
 30
0.0
 11
-75.36420088074146
 21
86.44641217220806
 31
0.0
  0
LINE
  5
2BC
330
2B6
100
AcDbEntity
  8
치수문자_일반주서
 62
     0
370
    -2
100
AcDbLine
 10
-75.36420088074152
 20
103.7484121722081
 30
0.0
 11
-75.36420088074154
 21
107.0504121722081
 31
0.0
  0
LINE
  5
2BD
330
2B6
100
AcDbEntity
  8
치수문자_일반주서
 62
     0
370
    -2
100
AcDbLine
 10
-75.36420088074145
 20
83.14441217220805
 30
0.0
 11
-75.36420088074144
 21
79.84241217220804
 31
0.0
  0
SOLID
  5
2BE
330
2B6
100
AcDbEntity
  8
치수문자_일반주서
 62
     0
100
AcDbTrace
 10
-75.91453421407485
 20
103.7484121722081
 30
0.0
 11
-74.8138675474082
 21
103.7484121722081
 31
0.0
 12
-75.3642008807415
 22
100.4464121722081
 32
0.0
 13
-75.3642008807415
 23
100.4464121722081
 33
0.0
  0
SOLID
  5
2BF
330
2B6
100
AcDbEntity
  8
치수문자_일반주서
 62
     0
100
AcDbTrace
 10
-74.81386754740812
 20
83.14441217220805
 30
0.0
 11
-75.91453421407478
 21
83.14441217220805
 31
0.0
 12
-75.36420088074146
 22
86.44641217220806
 32
0.0
 13
-75.36420088074146
 23
86.44641217220806
 33
0.0
  0
MTEXT
  5
2C0
330
2B6
100
AcDbEntity
  8
치수문자_일반주서
 62
     0
100
AcDbMText
 10
-79.73920088074149
 20
93.4464121722081
 30
0.0
 40
3.5
 41
0.0
 71
     2
 72
     1
  1
\A1;%%c14
  7
SLDTEXTSTYLE0
 11
-3.045183153257572E-15
 21
1.0
 31
0.0
 73
     1
 44
1.0
  0
POINT
  5
2C1
330
2B6
100
AcDbEntity
  8
Defpoints
 62
     0
100
AcDbPoint
 10
-59.86420088074146
 20
100.4464121722081
 30
0.0
  0
POINT
  5
2C2
330
2B6
100
AcDbEntity
  8
Defpoints
 62
     0
100
AcDbPoint
 10
-59.86420088074146
 20
86.44641217220811
 30
0.0
  0
POINT
  5
2C3
330
2B6
100
AcDbEntity
  8
Defpoints
 62
     0
100
AcDbPoint
 10
-75.36420088074148
 20
86.44641217220806
 30
0.0
  0
ENDBLK
  5
2B8
330
2B6
100
AcDbEntity
  8
0
100
AcDbBlockEnd
  0
BLOCK
  5
2C5
330
2C4
100
AcDbEntity
  8
0
100
AcDbBlockBegin
  2
*D15
 70
     1
 10
0.0
 20
0.0
 30
0.0
  3
*D15
  1
*D16
  0
LINE
  5
2C7
330
2C4
100
AcDbEntity
  8
치수문자_일반주서
 62
     0
370
    -2
100
AcDbLine
 10
22.69829911925856
 20
100.4464121722081
 30
0.0
 11
37.63579911925856
 21
100.4464121722082
 31
0.0
  0
LINE
  5
2C8
330
2C4
100
AcDbEntity
  8
치수문자_일반주서
 62
     0
370
    -2
100
AcDbLine
 10
22.69829911925855
 20
86.44641217220811
 30
0.0
 11
37.63579911925861
 21
86.44641217220817
 31
0.0
  0
LINE
  5
2C9
330
2C4
100
AcDbEntity
  8
치수문자_일반주서
 62
     0
370
    -2
100
AcDbLine
 10
37.63579911925856
 20
100.4464121722082
 30
0.0
 11
37.63579911925861
 21
86.44641217220817
 31
0.0
  0
LINE
  5
2CA
330
2C4
100
AcDbEntity
  8
치수문자_일반주서
 62
     0
370
    -2
100
AcDbLine
 10
37.63579911925854
 20
103.7484121722082
 30
0.0
 11
37.63579911925853
 21
107.0504121722082
 31
0.0
  0
LINE
  5
2CB
330
2C4
100
AcDbEntity
  8
치수문자_일반주서
 62
     0
370
    -2
100
AcDbLine
 10
37.63579911925862
 20
83.14441217220816
 30
0.0
 11
37.63579911925864
 21
79.84241217220816
 31
0.0
  0
SOLID
  5
2CC
330
2C4
100
AcDbEntity
  8
치수문자_일반주서
 62
     0
100
AcDbTrace
 10
37.08546578592521
 20
103.7484121722082
 30
0.0
 11
38.18613245259188
 21
103.7484121722082
 31
0.0
 12
37.63579911925856
 22
100.4464121722082
 32
0.0
 13
37.63579911925856
 23
100.4464121722082
 33
0.0
  0
SOLID
  5
2CD
330
2C4
100
AcDbEntity
  8
치수문자_일반주서
 62
     0
100
AcDbTrace
 10
38.18613245259196
 20
83.14441217220816
 30
0.0
 11
37.08546578592529
 21
83.14441217220816
 31
0.0
 12
37.63579911925861
 22
86.44641217220817
 32
0.0
 13
37.63579911925861
 23
86.44641217220817
 33
0.0
  0
MTEXT
  5
2CE
330
2C4
100
AcDbEntity
  8
치수문자_일반주서
 62
     0
100
AcDbMText
 10
33.26079911925858
 20
93.51211655392115
 30
0.0
 40
3.5
 41
0.0
 71
     2
 72
     1
  1
\A1;%%c14
  7
SLDTEXTSTYLE0
 11
-3.552713678800501E-15
 21
1.0
 31
0.0
 73
     1
 44
1.0
  0
POINT
  5
2CF
330
2C4
100
AcDbEntity
  8
Defpoints
 62
     0
100
AcDbPoint
 10
22.63579911925856
 20
100.4464121722081
 30
0.0
  0
POINT
  5
2D0
330
2C4
100
AcDbEntity
  8
Defpoints
 62
     0
100
AcDbPoint
 10
22.63579911925855
 20
86.44641217220811
 30
0.0
  0
POINT
  5
2D1
330
2C4
100
AcDbEntity
  8
Defpoints
 62
     0
100
AcDbPoint
 10
37.63579911925861
 20
86.44641217220817
 30
0.0
  0
ENDBLK
  5
2C6
330
2C4
100
AcDbEntity
  8
0
100
AcDbBlockEnd
  0
BLOCK
  5
2D3
330
2D2
100
AcDbEntity
  8
0
100
AcDbBlockBegin
  2
*D16
 70
     1
 10
0.0
 20
0.0
 30
0.0
  3
*D16
  1
*D17
  0
LINE
  5
2D5
330
2D2
100
AcDbEntity
  8
치수문자_일반주서
 62
     0
370
    -2
100
AcDbLine
 10
24.126574300928
 20
83.70727367932933
 30
0.0
 11
40.45292716945384
 21
57.14308978166996
 31
0.0
  0
MTEXT
  5
2D6
330
2D2
100
AcDbEntity
  8
치수문자_일반주서
 62
     0
100
AcDbMText
 10
35.93143752068617
 20
69.51313607982854
 30
0.0
 40
3.5
 41
0.0
 71
     5
 72
     1
  1
\A1;R.50 [R0.02]
  7
SLDTEXTSTYLE0
 11
0.5236126201129557
 21
-0.8519564684057781
 31
0.0
 73
     1
 44
1.0
  0
SOLID
  5
2D7
330
2D2
100
AcDbEntity
  8
치수문자_일반주서
 62
     0
100
AcDbTrace
 10
24.59543434404065
 20
83.9954351579315
 30
0.0
 11
23.65771425781536
 21
83.41911220072717
 31
0.0
 12
22.39760542931502
 22
86.52043393800521
 32
0.0
 13
22.39760542931502
 23
86.52043393800521
 33
0.0
  0
LINE
  5
2D8
330
2D2
100
AcDbEntity
  8
치수문자_일반주서
 62
     0
100
AcDbLine
 10
22.04579911925854
 20
86.94641217220811
 30
0.0
 11
22.22579911925854
 21
86.94641217220811
 31
0.0
  0
LINE
  5
2D9
330
2D2
100
AcDbEntity
  8
치수문자_일반주서
 62
     0
100
AcDbLine
 10
22.13579911925854
 20
86.85641217220811
 30
0.0
 11
22.13579911925854
 21
87.03641217220812
 31
0.0
  0
POINT
  5
2DA
330
2D2
100
AcDbEntity
  8
Defpoints
 62
     0
100
AcDbPoint
 10
22.39760542931502
 20
86.52043393800521
 30
0.0
  0
POINT
  5
2DB
330
2D2
100
AcDbEntity
  8
Defpoints
 62
     0
100
AcDbPoint
 10
22.13579911925854
 20
86.94641217220811
 30
0.0
  0
ENDBLK
  5
2D4
330
2D2
100
AcDbEntity
  8
0
100
AcDbBlockEnd
  0
ENDSEC
  0
SECTION
  2
ENTITIES
  0
LINE
  5
96
330
1F
100
AcDbEntity
  8
외형선
  6
Continuous
370
    15
100
AcDbLine
 10
9.110088410692475
 20
2.381249999999996
 30
0.0
 11
-65.77
 21
2.381249999999991
 31
0.0
  0
LINE
  5
97
330
1F
100
AcDbEntity
  8
외형선
  6
Continuous
370
    15
100
AcDbLine
 10
9.999999999999996
 20
2.381249999999996
 30
0.0
 11
9.655203664966342
 21
2.381249999999996
 31
0.0
  0
LINE
  5
98
330
1F
100
AcDbEntity
  8
외형선
  6
Continuous
370
    15
100
AcDbLine
 10
9.655203664966367
 20
-2.381250000000005
 30
0.0
 11
10.0
 21
-2.381250000000005
 31
0.0
  0
LINE
  5
99
330
1F
100
AcDbEntity
  8
외형선
  6
Continuous
370
    15
100
AcDbLine
 10
-65.77
 20
-2.381250000000009
 30
0.0
 11
9.110088410692475
 21
-2.381250000000005
 31
0.0
  0
LINE
  5
9A
330
1F
100
AcDbEntity
  8
외형선
  6
Continuous
370
    15
100
AcDbLine
 10
-65.77
 20
2.381249999999987
 30
0.0
 11
-66.19999999999999
 21
1.951249999999986
 31
0.0
  0
LINE
  5
9B
330
1F
100
AcDbEntity
  8
외형선
  6
Continuous
370
    15
100
AcDbLine
 10
-66.19999999999999
 20
-1.951250000000005
 30
0.0
 11
-65.77
 21
-2.381250000000006
 31
0.0
  0
SPLINE
  5
9C
330
1F
100
AcDbEntity
  8
0
  6
Continuous
 62
     1
370
    15
100
AcDbSpline
210
0.0
220
0.0
230
1.0
 70
     8
 71
     3
 72
     9
 73
     5
 74
     0
 42
0.000000001
 43
0.00000001
 40
0.0
 40
0.0
 40
0.0
 40
0.0
 40
0.4369568795859075
 40
0.9999999999999999
 40
0.9999999999999999
 40
0.9999999999999999
 40
0.9999999999999999
 10
16.2741287657158
 20
0.6102002539067495
 30
0.0
 10
16.1776964554506
 20
0.6559612268338827
 30
0.0
 10
15.95700577687246
 20
0.760687745776667
 30
0.0
 10
15.73631598755317
 20
0.875805109400919
 30
0.0
 10
15.61205811993131
 20
0.9406211490297616
 30
0.0
  0
SPLINE
  5
9D
330
1F
100
AcDbEntity
  8
0
  6
Continuous
 62
     1
370
    15
100
AcDbSpline
210
0.0
220
0.0
230
1.0
 70
     8
 71
     3
 72
     9
 73
     5
 74
     0
 42
0.000000001
 43
0.00000001
 40
0.0
 40
0.0
 40
0.0
 40
0.0
 40
0.5371390472581895
 40
1.0
 40
1.0
 40
1.0
 40
1.0
 10
29.23183381913717
 20
0.6100244898816858
 30
0.0
 10
29.11316911463197
 20
0.6665194391397267
 30
0.0
 10
28.89224921482035
 20
0.7716969523859107
 30
0.0
 10
28.67146658950624
 20
0.8872129374985692
 30
0.0
 10
28.56927493320451
 20
0.9406807764247231
 30
0.0
  0
LINE
  5
9E
330
1F
100
AcDbEntity
  8
0
  6
Continuous
 62
     1
370
    15
100
AcDbLine
 10
28.14651469971346
 20
0.54296928623515
 30
0.0
 11
27.88870468242413
 21
0.6845686206356096
 31
0.0
  0
LINE
  5
9F
330
1F
100
AcDbEntity
  8
0
  6
Continuous
 62
     1
370
    15
100
AcDbLine
 10
15.26801913729456
 20
0.5002781781440545
 30
0.0
 11
14.93157982200287
 21
0.6844559340463701
 31
0.0
  0
LINE
  5
A0
330
1F
100
AcDbEntity
  8
0
  6
Continuous
 62
     1
370
    15
100
AcDbLine
 10
10.0
 20
-2.381250000000007
 30
0.0
 11
10.80930509958885
 21
-2.381250000000007
 31
0.0
  0
LINE
  5
A1
330
1F
100
AcDbEntity
  8
0
  6
Continuous
 62
     1
370
    15
100
AcDbLine
 10
23.76554655626075
 20
2.381249999999997
 30
0.0
 11
22.61186473870999
 21
2.381249999999997
 31
0.0
  0
LINE
  5
A2
330
1F
100
AcDbEntity
  8
0
  6
Continuous
 62
     1
370
    15
100
AcDbLine
 10
22.61186473870999
 20
-2.381250000000007
 30
0.0
 11
23.76554655626076
 21
-2.381250000000007
 31
0.0
  0
LINE
  5
A3
330
1F
100
AcDbEntity
  8
0
  6
Continuous
 62
     1
370
    15
100
AcDbLine
 10
10.80930509958884
 20
2.381249999999997
 30
0.0
 11
10.0
 21
2.381249999999997
 31
0.0
  0
SPLINE
  5
A4
330
1F
100
AcDbEntity
  8
0
  6
Continuous
 62
     1
370
    15
100
AcDbSpline
210
0.0
220
0.0
230
1.0
 70
     8
 71
     3
 72
    10
 73
     6
 74
     0
 42
0.000000001
 43
0.00000001
 40
0.0
 40
0.0
 40
0.0
 40
0.0
 40
0.265603128242676
 40
0.4527895831968349
 40
0.9999999999999999
 40
0.9999999999999999
 40
0.9999999999999999
 40
0.9999999999999999
 10
11.88067075975139
 20
-1.98388497764626
 30
0.0
 10
12.20073216255059
 20
-1.955084366066279
 30
0.0
 10
12.74636003271046
 20
-1.905986236087936
 30
0.0
 10
13.94571728885386
 20
-1.84652020939276
 30
0.0
 10
14.82816065589138
 20
-1.87271505669634
 30
0.0
 10
15.48568279582957
 20
-1.892233240749585
 30
0.0
  0
SPLINE
  5
A5
330
1F
100
AcDbEntity
  8
0
  6
Continuous
 62
     1
370
    15
100
AcDbSpline
210
0.0
220
0.0
230
1.0
 70
     8
 71
     3
 72
    11
 73
     7
 74
     0
 42
0.000000001
 43
0.00000001
 40
0.0
 40
0.0
 40
0.0
 40
0.0
 40
0.3943184095769109
 40
0.6856853467697834
 40
0.9351095426593742
 40
1.0
 40
1.0
 40
1.0
 40
1.0
 10
28.44272458472709
 20
1.892217841488278
 30
0.0
 10
28.18312718931912
 20
1.88076893917145
 30
0.0
 10
27.73170994435245
 20
1.86086029589083
 30
0.0
 10
27.1168247783869
 20
1.858252974380566
 30
0.0
 10
26.71826061925439
 20
1.864074532501254
 30
0.0
 10
26.5114164928764
 20
1.871458812473789
 30
0.0
 10
26.46871339322468
 20
1.872983301706551
 30
0.0
  0
SPLINE
  5
A6
330
1F
100
AcDbEntity
  8
0
  6
Continuous
 62
     1
370
    15
100
AcDbSpline
210
0.0
220
0.0
230
1.0
 70
     8
 71
     3
 72
    15
 73
    11
 74
     0
 42
0.000000001
 43
0.00000001
 40
0.0
 40
0.0
 40
0.0
 40
0.0
 40
0.2200855639745949
 40
0.384926677841648
 40
0.5185103554162387
 40
0.5807918665242878
 40
0.6303330166352464
 40
0.7079461835607483
 40
0.8317940877572222
 40
1.0
 40
1.0
 40
1.0
 40
1.0
 10
24.86162113465239
 20
-1.981542136556597
 30
0.0
 10
25.12456484612323
 20
-1.957484999907431
 30
0.0
 10
25.58444984488447
 20
-1.915409392941155
 30
0.0
 10
26.20267789070325
 20
-1.881112131102619
 30
0.0
 10
26.63344810234543
 20
-1.866641791505885
 30
0.0
 10
26.92639872894787
 20
-1.861419354663986
 30
0.0
 10
27.1524543955781
 20
-1.859363448439443
 30
0.0
 10
27.45147949779781
 20
-1.859820680816231
 30
0.0
 10
27.89256118119494
 20
-1.866817555877057
 30
0.0
 10
28.24166259427506
 20
-1.882935086673526
 30
0.0
 10
28.44272458472709
 20
-1.892217841488288
 30
0.0
  0
LINE
  5
A7
330
1F
100
AcDbEntity
  8
0
  6
Continuous
 62
     1
370
    15
100
AcDbLine
 10
15.48568279582957
 20
1.892233240749575
 30
0.0
 11
13.53566481706709
 21
1.872685277055753
 31
0.0
  0
SPLINE
  5
A8
330
1F
100
AcDbEntity
  8
0
  6
Continuous
 62
     1
370
    15
100
AcDbSpline
210
0.0
220
0.0
230
1.0
 70
     8
 71
     3
 72
    12
 73
     8
 74
     0
 42
0.000000001
 43
0.00000001
 40
0.0
 40
0.0
 40
0.0
 40
0.0
 40
0.3203983242885732
 40
0.5599427705888513
 40
0.7366982611995907
 40
0.9165997410999511
 40
0.9999999999999999
 40
0.9999999999999999
 40
0.9999999999999999
 40
0.9999999999999999
 10
30.35616916288156
 20
-1.790993813203815
 30
0.0
 10
30.54961828010668
 20
-1.762009309933382
 30
0.0
 10
30.88769880817287
 20
-1.711354665901069
 30
0.0
 10
31.33153177911154
 20
-1.660616673591462
 30
0.0
 10
31.69111026785151
 20
-1.626832262650489
 30
0.0
 10
31.95599333700743
 20
-1.605663546248082
 30
0.0
 10
32.11476638838973
 20
-1.597245021877156
 30
0.0
 10
32.16505741059096
 20
-1.594578472406991
 30
0.0
  0
SPLINE
  5
A9
330
1F
100
AcDbEntity
  8
0
  6
Continuous
 62
     1
370
    15
100
AcDbSpline
210
0.0
220
0.0
230
1.0
 70
     8
 71
     3
 72
    17
 73
    13
 74
     0
 42
0.000000001
 43
0.00000001
 40
0.0
 40
0.0
 40
0.0
 40
0.0
 40
0.129034413897324
 40
0.2190535389230605
 40
0.2750817915046594
 40
0.3287963120680885
 40
0.3846831080886077
 40
0.4467177295913105
 40
0.5537983208585924
 40
0.6650208992595075
 40
0.8066600490588715
 40
1.0
 40
1.0
 40
1.0
 40
1.0
 10
21.55635807434371
 20
1.628600680768109
 30
0.0
 10
21.37723302475644
 20
1.614727329767002
 30
0.0
 10
21.07314379122002
 20
1.591175421855578
 30
0.0
 10
20.69237596894174
 20
1.575591062786442
 30
0.0
 10
20.41569619757213
 20
1.568853911614163
 30
0.0
 10
20.1863366778494
 20
1.566558850767949
 30
0.0
 10
19.94883546105519
 20
1.567527589896502
 30
0.0
 10
19.63708991251174
 20
1.573556140457984
 30
0.0
 10
19.2483141274763
 20
1.589261030151718
 30
0.0
 10
18.75009219166958
 20
1.623745511379906
 30
0.0
 10
18.13248503691698
 20
1.683485457783147
 30
0.0
 10
17.66768403237939
 20
1.751593520708249
 30
0.0
 10
17.39941474866578
 20
1.790903464270476
 30
0.0
  0
SPLINE
  5
AA
330
1F
100
AcDbEntity
  8
0
  6
Continuous
 62
     1
370
    15
100
AcDbSpline
210
0.0
220
0.0
230
1.0
 70
     8
 71
     3
 72
    13
 73
     9
 74
     0
 42
0.000000001
 43
0.00000001
 40
0.0
 40
0.0
 40
0.0
 40
0.0
 40
0.2972032630381306
 40
0.5046677683966471
 40
0.6340631044626088
 40
0.7578408784338231
 40
0.8863060602902456
 40
1.0
 40
1.0
 40
1.0
 40
1.0
 10
17.39941474866578
 20
-1.790903464270486
 30
0.0
 10
17.57809794004808
 20
-1.764004511230379
 30
0.0
 10
17.88151199588005
 20
-1.718328584041062
 30
0.0
 10
18.26175370933377
 20
-1.673355393079132
 30
0.0
 10
18.53827370245689
 20
-1.644854014072386
 30
0.0
 10
18.76729538627585
 20
-1.624351084754563
 30
0.0
 10
18.98657532618148
 20
-1.607067539220553
 30
0.0
 10
19.1319253859495
 20
-1.598548033871287
 30
0.0
 10
19.20016737834358
 20
-1.594548117942985
 30
0.0
  0
SPLINE
  5
AB
330
1F
100
AcDbEntity
  8
0
  6
Continuous
 62
     1
370
    15
100
AcDbSpline
210
0.0
220
0.0
230
1.0
 70
     8
 71
     3
 72
    17
 73
    13
 74
     0
 42
0.000000001
 43
0.00000001
 40
0.0
 40
0.0
 40
0.0
 40
0.0
 40
0.1392458867724314
 40
0.2351194176471863
 40
0.2984967768112863
 40
0.3674098598025403
 40
0.4463899605592817
 40
0.5380657754179219
 40
0.6350519268898549
 40
0.726308376427652
 40
0.8378170504763703
 40
1.0
 40
1.0
 40
1.0
 40
1.0
 10
34.54083498957203
 20
1.630900676442265
 30
0.0
 10
34.34560792172432
 20
1.61565027023556
 30
0.0
 10
34.01596317913786
 20
1.589899659504317
 30
0.0
 10
33.59889733047258
 20
1.573767280353273
 30
0.0
 10
33.28098452876912
 20
1.567278514489831
 30
0.0
 10
32.98684169759046
 20
1.566408205236029
 30
0.0
 10
32.65312696904581
 20
1.571821957704252
 30
0.0
 10
32.27999488322768
 20
1.585970541120363
 30
0.0
 10
31.89011328692164
 20
1.610126481651891
 30
0.0
 10
31.47266127523664
 20
1.646073946022258
 30
0.0
 10
30.96428921527279
 20
1.70066584033404
 30
0.0
 10
30.58244229246729
 20
1.757384013576234
 30
0.0
 10
30.35616916288156
 20
1.790993813203805
 30
0.0
  0
SPLINE
  5
AC
330
1F
100
AcDbEntity
  8
외형선
  6
Continuous
370
    15
100
AcDbSpline
210
0.0
220
0.0
230
1.0
 70
     8
 71
     3
 72
    16
 73
    12
 74
     0
 42
0.000000001
 43
0.00000001
 40
0.0
 40
0.0
 40
0.0
 40
0.0
 40
0.0198684876976145
 40
0.0541968283612458
 40
0.1038984776665596
 40
0.1692017563863164
 40
0.2501860678085074
 40
0.3694984659948328
 40
0.5000910872847321
 40
0.7578527538764782
 40
1.0
 40
1.0
 40
1.0
 40
1.0
 10
9.560018999525719
 20
-1.892142643884358
 30
0.0
 10
9.556989811457884
 20
-1.89257329033571
 30
0.0
 10
9.548726858167973
 20
-1.89374799835393
 30
0.0
 10
9.534810599351738
 20
-1.902530672669006
 30
0.0
 10
9.515516790011855
 20
-1.915279199940064
 30
0.0
 10
9.491169012902086
 20
-1.934077432300952
 30
0.0
 10
9.458845074595526
 20
-1.960330851637949
 30
0.0
 10
9.419352061075086
 20
-1.994258902065769
 30
0.0
 10
9.360076781847063
 20
-2.04812659382929
 30
0.0
 10
9.287843045920162
 20
-2.117047344412085
 30
0.0
 10
9.233321015972042
 20
-2.175410304154615
 30
0.0
 10
9.206911486017285
 20
-2.203680314186064
 30
0.0
  0
SPLINE
  5
AD
330
1F
100
AcDbEntity
  8
외형선
  6
Continuous
370
    15
100
AcDbSpline
210
0.0
220
0.0
230
1.0
 70
     8
 71
     3
 72
    14
 73
    10
 74
     0
 42
0.000000001
 43
0.00000001
 40
0.0
 40
0.0
 40
0.0
 40
0.0
 40
0.1253645750420744
 40
0.2499096046690221
 40
0.4981861814959231
 40
0.6253976539289724
 40
0.7485284844362963
 40
0.8910920527126437
 40
1.0
 40
1.0
 40
1.0
 40
1.0
 10
9.206911486017288
 20
-2.203680314186063
 30
0.0
 10
9.200567335818247
 20
-2.185343248851772
 30
0.0
 10
9.187920509011935
 20
-2.148788993018777
 30
0.0
 10
9.165247149411687
 20
-2.06343969107077
 30
0.0
 10
9.145825633089125
 20
-1.964002589116456
 30
0.0
 10
9.130185146870035
 20
-1.851199857554459
 30
0.0
 10
9.120245813817563
 20
-1.755437145586832
 30
0.0
 10
9.112307317807627
 20
-1.657956711728194
 30
0.0
 10
9.11075897226449
 20
-1.587724638869989
 30
0.0
 10
9.110088410692471
 20
-1.557308347499662
 30
0.0
  0
SPLINE
  5
AE
330
1F
100
AcDbEntity
  8
외형선
  6
Continuous
370
    15
100
AcDbSpline
210
0.0
220
0.0
230
1.0
 70
     8
 71
     3
 72
    20
 73
    16
 74
     0
 42
0.000000001
 43
0.00000001
 40
0.0
 40
0.0
 40
0.0
 40
0.0
 40
0.4999999999999993
 40
0.4999999999999993
 40
0.749999999999999
 40
0.749999999999999
 40
0.8749999999999989
 40
0.8749999999999989
 40
0.9374999999999988
 40
0.9374999999999988
 40
0.9531249999999991
 40
0.9531249999999991
 40
0.9687499999999993
 40
0.9687499999999993
 40
1.0
 40
1.0
 40
1.0
 40
1.0
 10
9.371264303911829
 20
-0.3462053174843423
 30
0.0
 10
9.321583478027954
 20
-0.399371912597601
 30
0.0
 10
9.267016924550754
 20
-0.4430874228999307
 30
0.0
 10
9.184413559364742
 20
-0.4680865038853609
 30
0.0
 10
9.156462530461285
 20
-0.4695480138426609
 30
0.0
 10
9.127272070267699
 20
-0.4413622623119554
 30
0.0
 10
9.120795274418994
 20
-0.4268285047319592
 30
0.0
 10
9.114765997113325
 20
-0.4019358681682094
 30
0.0
 10
9.113330407269792
 20
-0.3930665152591697
 30
0.0
 10
9.111710255220682
 20
-0.3821524332649708
 30
0.0
 10
9.11144768812587
 20
-0.3798152925275388
 30
0.0
 10
9.110509342795092
 20
-0.3763228875367781
 30
0.0
 10
9.110272957829306
 20
-0.3810715846611998
 30
0.0
 10
9.110092462766248
 20
-0.3886434336181723
 30
0.0
 10
9.110088410692471
 20
-0.3936526705434846
 30
0.0
 10
9.110088410692471
 20
-0.3986502654662264
 30
0.0
  0
SPLINE
  5
AF
330
1F
100
AcDbEntity
  8
외형선
  6
Continuous
370
    15
100
AcDbSpline
210
0.0
220
0.0
230
1.0
 70
     8
 71
     3
 72
    16
 73
    12
 74
     0
 42
0.000000001
 43
0.00000001
 40
0.0
 40
0.0
 40
0.0
 40
0.0
 40
0.2105396253117549
 40
0.4795978474968026
 40
0.6401180611346918
 40
0.7403507481328065
 40
0.8292276398774787
 40
0.8991826099456831
 40
0.9503958104819908
 40
0.9833287493213231
 40
1.0
 40
1.0
 40
1.0
 40
1.0
 10
9.371261856633494
 20
-0.3462031467752573
 30
0.0
 10
9.389232130189276
 20
-0.326825098630725
 30
0.0
 10
9.43016743870196
 20
-0.2826829559578404
 30
0.0
 10
9.484619459399742
 20
-0.2220034453716157
 30
0.0
 10
9.529861646545914
 20
-0.1711393933058589
 30
0.0
 10
9.559907305974324
 20
-0.1373321375069729
 30
0.0
 10
9.582776749332297
 20
-0.1127264140089511
 30
0.0
 10
9.60199223008589
 20
-0.0929466915942236
 30
0.0
 10
9.617213693223091
 20
-0.0801350378853761
 30
0.0
 10
9.62769415103238
 20
-0.0709519470605266
 30
0.0
 10
9.63455678622942
 20
-0.0704491822446307
 30
0.0
 10
9.636863218665834
 20
-0.070280210261424
 30
0.0
  0
LINE
  5
B0
330
1F
100
AcDbEntity
  8
외형선
  6
Continuous
370
    15
100
AcDbLine
 10
9.110088410692475
 20
-0.3986502654662238
 30
0.0
 11
9.110088410692475
 21
-0.2103509089678328
 31
0.0
  0
LINE
  5
B1
330
1F
100
AcDbEntity
  8
외형선
  6
Continuous
370
    15
100
AcDbLine
 10
9.110088410692475
 20
-2.360455401239179
 30
0.0
 11
9.65520366496636
 21
-2.368083615032796
 31
0.0
  0
LINE
  5
B2
330
1F
100
AcDbEntity
  8
외형선
  6
Continuous
370
    15
100
AcDbLine
 10
9.110088410692475
 20
-2.381250000000005
 30
0.0
 11
9.110088410692475
 21
-2.360371343934808
 31
0.0
  0
LINE
  5
B3
330
1F
100
AcDbEntity
  8
외형선
  6
Continuous
370
    15
100
AcDbLine
 10
9.999999999999996
 20
2.381249999999996
 30
0.0
 11
10.0
 21
2.372908613302921
 31
0.0
  0
SPLINE
  5
B4
330
1F
100
AcDbEntity
  8
외형선
  6
Continuous
370
    15
100
AcDbSpline
210
0.0
220
0.0
230
1.0
 70
     8
 71
     3
 72
     8
 73
     4
 74
     0
 42
0.000000001
 43
0.00000001
 40
0.0
 40
0.0
 40
0.0
 40
0.0
 40
1.0
 40
1.0
 40
1.0
 40
1.0
 10
10.00000000000002
 20
2.372908613302916
 30
0.0
 10
9.701476057126577
 20
2.387275495323907
 30
0.0
 10
9.408087205845495
 20
2.383096333088597
 30
0.0
 10
9.110088410692475
 20
2.360455401239169
 30
0.0
  0
LINE
  5
B5
330
1F
100
AcDbEntity
  8
외형선
  6
Continuous
370
    15
100
AcDbLine
 10
9.110088410692475
 20
-0.2103509089678328
 30
0.0
 11
9.110088410692475
 21
2.381249999999996
 31
0.0
  0
LINE
  5
B6
330
1F
100
AcDbEntity
  8
외형선
  6
Continuous
370
    15
100
AcDbLine
 10
9.110088410692475
 20
-1.557308347499402
 30
0.0
 11
9.110088410692475
 21
-0.3986502654662238
 31
0.0
  0
SPLINE
  5
B7
330
1F
100
AcDbEntity
  8
외형선
  6
Continuous
370
    15
100
AcDbSpline
210
0.0
220
0.0
230
1.0
 70
     8
 71
     3
 72
     8
 73
     4
 74
     0
 42
0.000000001
 43
0.00000001
 40
0.0
 40
0.0
 40
0.0
 40
0.0
 40
1.0
 40
1.0
 40
1.0
 40
1.0
 10
10.00000000000002
 20
-2.335614327426408
 30
0.0
 10
9.733841148546878
 20
-2.30577100100962
 30
0.0
 10
9.47200995637776
 20
-2.261642063204605
 30
0.0
 10
9.206911486017285
 20
-2.203680314186065
 30
0.0
  0
LINE
  5
B8
330
1F
100
AcDbEntity
  8
외형선
  6
Continuous
370
    15
100
AcDbLine
 10
-65.77
 20
2.381249999999987
 30
0.0
 11
-65.77
 21
-2.381250000000007
 31
0.0
  0
LINE
  5
B9
330
1F
100
AcDbEntity
  8
외형선
  6
Continuous
370
    15
100
AcDbLine
 10
-66.19999999999999
 20
1.951249999999986
 30
0.0
 11
-66.19999999999999
 21
-1.951250000000005
 31
0.0
  0
SPLINE
  5
BA
330
1F
100
AcDbEntity
  8
외형선
  6
Continuous
370
    15
100
AcDbSpline
210
0.0
220
0.0
230
1.0
 70
     8
 71
     3
 72
    14
 73
    10
 74
     0
 42
0.000000001
 43
0.00000001
 40
0.0
 40
0.0
 40
0.0
 40
0.0
 40
0.25
 40
0.25
 40
0.5
 40
0.5
 40
0.75
 40
0.75
 40
1.0
 40
1.0
 40
1.0
 40
1.0
 10
9.110088410704714
 20
2.096055610320042
 30
0.0
 10
9.110087936447195
 20
2.036221768882499
 30
0.0
 10
9.123495489511214
 20
1.980138584554893
 30
0.0
 10
9.164330252311201
 20
1.880710817435998
 30
0.0
 10
9.192155244542343
 20
1.836544007858884
 30
0.0
 10
9.257495533710673
 20
1.761511064152285
 30
0.0
 10
9.295686195807502
 20
1.72967054864536
 30
0.0
 10
9.383932944868347
 20
1.682440883051001
 30
0.0
 10
9.434609984946723
 20
1.666901150249243
 30
0.0
 10
9.490290664904743
 20
1.666873783679605
 30
0.0
  0
SPLINE
  5
BB
330
1F
100
AcDbEntity
  8
외형선
  6
Continuous
370
    15
100
AcDbSpline
210
0.0
220
0.0
230
1.0
 70
     8
 71
     3
 72
     8
 73
     4
 74
     0
 42
0.000000001
 43
0.00000001
 40
0.0
 40
0.0
 40
0.0
 40
0.0
 40
1.0
 40
1.0
 40
1.0
 40
1.0
 10
10.0
 20
1.653902167748652
 30
0.0
 10
9.829161225830207
 20
1.662471581462046
 30
0.0
 10
9.658614231208603
 20
1.666791054111602
 30
0.0
 10
9.490290664904808
 20
1.666873783679605
 30
0.0
  0
SPLINE
  5
BC
330
1F
100
AcDbEntity
  8
외형선
  6
Continuous
370
    15
100
AcDbSpline
210
0.0
220
0.0
230
1.0
 70
    24
 71
     3
 72
    14
 73
    10
 74
     0
 42
0.000000001
 43
0.00000001
 40
0.0
 40
0.0
 40
0.0
 40
0.0
 40
0.2500000000000001
 40
0.2500000000000001
 40
0.5000000000000002
 40
0.5000000000000002
 40
0.7500000000000001
 40
0.7500000000000001
 40
1.0
 40
1.0
 40
1.0
 40
1.0
 10
10.0
 20
1.653902167748652
 30
0.0
 10
10.0
 20
1.583679101826741
 30
0.0
 10
10.0
 20
1.486819487002598
 30
0.0
 10
10.0
 20
1.241543163640636
 30
0.0
 10
10.0
 20
1.093145437822256
 30
0.0
 10
10.0
 20
0.7570406495146791
 30
0.0
 10
9.999999999999996
 20
0.5695126777086356
 30
0.0
 10
9.999999999999996
 20
0.1751374738983445
 30
0.0
 10
10.0
 20
-0.0314813579638742
 30
0.0
 10
10.0
 20
-0.2372079363817934
 30
0.0
  0
SPLINE
  5
BD
330
1F
100
AcDbEntity
  8
외형선
  6
Continuous
370
    15
100
AcDbSpline
210
0.0
220
0.0
230
1.0
 70
     8
 71
     3
 72
     8
 73
     4
 74
     0
 42
0.000000001
 43
0.00000001
 40
0.0
 40
0.0
 40
0.0
 40
0.0
 40
1.0
 40
1.0
 40
1.0
 40
1.0
 10
10.00000000000004
 20
-0.2372079363818102
 30
0.0
 10
9.878576460919263
 20
-0.1817412724804981
 30
0.0
 10
9.757298264343856
 20
-0.1259900881138337
 30
0.0
 10
9.636864043721475
 20
-0.0702783970762455
 30
0.0
  0
SPLINE
  5
BE
330
1F
100
AcDbEntity
  8
외형선
  6
Continuous
370
    15
100
AcDbSpline
210
0.0
220
0.0
230
1.0
 70
    24
 71
     3
 72
    10
 73
     6
 74
     0
 42
0.000000001
 43
0.00000001
 40
0.0
 40
0.0
 40
0.0
 40
0.0
 40
0.5
 40
0.5
 40
1.0
 40
1.0
 40
1.0
 40
1.0
 10
9.999999999999996
 20
-0.2372079363817914
 30
0.0
 10
9.999999999999996
 20
-0.593913667410723
 30
0.0
 10
9.999999999999996
 20
-0.9486626610632196
 30
0.0
 10
9.999999999999996
 20
-1.550127643746673
 30
0.0
 10
9.999999999999996
 20
-1.794254692362993
 30
0.0
 10
9.999999999999996
 20
-1.957893825738009
 30
0.0
  0
SPLINE
  5
BF
330
1F
100
AcDbEntity
  8
외형선
  6
Continuous
370
    15
100
AcDbSpline
210
0.0
220
0.0
230
1.0
 70
     8
 71
     3
 72
     8
 73
     4
 74
     0
 42
0.000000001
 43
0.00000001
 40
0.0
 40
0.0
 40
0.0
 40
0.0
 40
1.0
 40
1.0
 40
1.0
 40
1.0
 10
10.00000000000004
 20
-1.957893825738015
 30
0.0
 10
9.852710379840335
 20
-1.939622334235015
 30
0.0
 10
9.70563597973564
 20
-1.917628326103391
 30
0.0
 10
9.560019312871182
 20
-1.892140081931111
 30
0.0
  0
SPLINE
  5
C0
330
1F
100
AcDbEntity
  8
외형선
  6
Continuous
370
    15
100
AcDbSpline
210
0.0
220
0.0
230
1.0
 70
    24
 71
     3
 72
     8
 73
     4
 74
     0
 42
0.000000001
 43
0.00000001
 40
0.0
 40
0.0
 40
0.0
 40
0.0
 40
1.0
 40
1.0
 40
1.0
 40
1.0
 10
10.0
 20
-1.957893825738011
 30
0.0
 10
10.0
 20
-2.084432462759083
 30
0.0
 10
9.999999999999996
 20
-2.211151307255188
 30
0.0
 10
10.0
 20
-2.335614327414733
 30
0.0
  0
SPLINE
  5
C1
330
1F
100
AcDbEntity
  8
외형선
  6
Continuous
370
    15
100
AcDbSpline
210
0.0
220
0.0
230
1.0
 70
    24
 71
     3
 72
    10
 73
     6
 74
     0
 42
0.000000001
 43
0.00000001
 40
0.0
 40
0.0
 40
0.0
 40
0.0
 40
0.5
 40
0.5
 40
1.0
 40
1.0
 40
1.0
 40
1.0
 10
10.0
 20
2.372908613297341
 30
0.0
 10
10.0
 20
2.258380087500659
 30
0.0
 10
10.0
 20
2.131982215295242
 30
0.0
 10
10.0
 20
1.883173587256778
 30
0.0
 10
10.0
 20
1.761421580024513
 30
0.0
 10
10.0
 20
1.653902167748651
 30
0.0
  0
SPLINE
  5
C2
330
1F
100
AcDbEntity
  8
0
  6
Continuous
 62
     1
370
    15
100
AcDbSpline
210
0.0
220
0.0
230
1.0
 70
     8
 71
     3
 72
    21
 73
    17
 74
     0
 42
0.000000001
 43
0.00000001
 40
0.0
 40
0.0
 40
0.0
 40
0.0
 40
0.0171992790457759
 40
0.1011254005068027
 40
0.1850148354680922
 40
0.2689312000508763
 40
0.3528826898631662
 40
0.4368574374699649
 40
0.5208434519299814
 40
0.604828682293869
 40
0.688801081792185
 40
0.7613841147669657
 40
0.8339651806424085
 40
0.9065446185734779
 40
0.9791227685097941
 40
1.0
 40
1.0
 40
1.0
 40
1.0
 10
26.46640629722837
 20
-1.873886271402123
 30
0.0
 10
26.37663255562018
 20
-1.910009373803876
 30
0.0
 10
25.84879615323612
 20
-2.122399857626088
 30
0.0
 10
24.88317004538765
 20
-2.323721580950985
 30
0.0
 10
23.56949574117542
 20
-2.421767447840319
 30
0.0
 10
22.25555098654337
 20
-2.260346556909412
 30
0.0
 10
20.9410479699184
 20
-1.875456519851064
 30
0.0
 10
19.626112867894
 20
-1.300490033894657
 30
0.0
 10
18.31095257277928
 20
-0.5947489120019493
 30
0.0
 10
16.99585798987753
 20
0.1708955345945041
 30
0.0
 10
15.74014142112078
 20
0.8858274101843548
 30
0.0
 10
14.54462659300714
 20
1.487301042197168
 30
0.0
 10
13.40840471000906
 20
1.950325833597123
 30
0.0
 10
12.272255411783
 20
2.252831109676445
 30
0.0
 10
11.40588781413274
 20
2.39213175302624
 30
0.0
 10
10.91824160612753
 20
2.368138647446983
 30
0.0
 10
10.80930509958884
 20
2.362778767558837
 30
0.0
  0
SPLINE
  5
C3
330
1F
100
AcDbEntity
  8
0
  6
Continuous
 62
     1
370
    15
100
AcDbSpline
210
0.0
220
0.0
230
1.0
 70
     8
 71
     3
 72
    16
 73
    12
 74
     0
 42
0.000000001
 43
0.00000001
 40
0.0
 40
0.0
 40
0.0
 40
0.0
 40
0.0487873138381058
 40
0.1759722393583684
 40
0.303176547830793
 40
0.4304051920660288
 40
0.5576630781596197
 40
0.6849366686671415
 40
0.8121810693452433
 40
0.9393983834757731
 40
1.0
 40
1.0
 40
1.0
 40
1.0
 10
24.86667372626121
 20
-1.964711414144491
 30
0.0
 10
24.72662508195842
 20
-1.983000373226296
 30
0.0
 10
24.22147996085488
 20
-2.048967298477365
 30
0.0
 10
23.35116499418191
 20
-2.015917929803063
 30
0.0
 10
22.25565086628241
 20
-1.86580352419404
 30
0.0
 10
21.15989582576682
 20
-1.57595798499221
 30
0.0
 10
20.06390248228207
 20
-1.178081201691009
 30
0.0
 10
18.96782917647048
 20
-0.6963397064965101
 30
0.0
 10
17.87193058349876
 20
-0.1682475395487538
 30
0.0
 10
16.96745680900829
 20
0.2847610344667181
 30
0.0
 10
16.42829002830488
 20
0.5331126935792679
 30
0.0
 10
16.25432258863901
 20
0.6132457874917218
 30
0.0
  0
SPLINE
  5
C4
330
1F
100
AcDbEntity
  8
0
  6
Continuous
 62
     1
370
    15
100
AcDbSpline
210
0.0
220
0.0
230
1.0
 70
     8
 71
     3
 72
    16
 73
    12
 74
     0
 42
0.000000001
 43
0.00000001
 40
0.0
 40
0.0
 40
0.0
 40
0.0
 40
0.1129184273574453
 40
0.2258900845952682
 40
0.3388990841263995
 40
0.451929340391455
 40
0.5649646547150176
 40
0.677988801460484
 40
0.7909856144951379
 40
0.903939072970916
 40
0.9999999999999999
 40
0.9999999999999999
 40
0.9999999999999999
 40
0.9999999999999999
 10
35.40000000000001
 20
-2.259665444858469
 30
0.0
 10
34.96214518116625
 20
-2.157608562576219
 30
0.0
 10
34.08622913821861
 20
-1.953446688276552
 30
0.0
 10
32.77194051081316
 20
-1.389555718420243
 30
0.0
 10
31.45714288521688
 20
-0.7020053624995725
 30
0.0
 10
30.14204583276732
 20
0.0608250816263806
 30
0.0
 10
28.82687921212771
 20
0.8159034206430221
 30
0.0
 10
27.51186761007276
 20
1.490800103886669
 30
0.0
 10
26.19723872264546
 20
2.008925951028888
 30
0.0
 10
24.94848741745831
 20
2.331896511390286
 30
0.0
 10
24.13802637051835
 20
2.355253131087082
 30
0.0
 10
23.76554655626075
 20
2.365987600558743
 30
0.0
  0
SPLINE
  5
C5
330
1F
100
AcDbEntity
  8
0
  6
Continuous
 62
     1
370
    15
100
AcDbSpline
210
0.0
220
0.0
230
1.0
 70
     8
 71
     3
 72
    11
 73
     7
 74
     0
 42
0.000000001
 43
0.00000001
 40
0.0
 40
0.0
 40
0.0
 40
0.0
 40
0.0359931753290648
 40
0.3573339834365823
 40
0.6786690890299075
 40
1.0
 40
1.0
 40
1.0
 40
1.0
 10
13.53566481706709
 20
-1.872685277055762
 30
0.0
 10
13.49324455772821
 20
-1.889888658283316
 30
0.0
 10
13.07210360227227
 20
-2.060680834478338
 30
0.0
 10
12.27225373283949
 20
-2.250559098748249
 30
0.0
 10
11.13611903635162
 20
-2.414078347793263
 30
0.0
 10
10.37870469758915
 20
-2.36176888707531
 30
0.0
 10
9.999999999995518
 20
-2.335614327425904
 30
0.0
  0
SPLINE
  5
C6
330
1F
100
AcDbEntity
  8
외형선
  6
Continuous
370
    15
100
AcDbSpline
210
0.0
220
0.0
230
1.0
 70
    24
 71
     3
 72
     8
 73
     4
 74
     0
 42
0.000000001
 43
0.00000001
 40
0.0
 40
0.0
 40
0.0
 40
0.0
 40
1.0
 40
1.0
 40
1.0
 40
1.0
 10
10.0
 20
-1.957893825738011
 30
0.0
 10
10.0
 20
-2.084432462759082
 30
0.0
 10
9.999999999999996
 20
-2.211151307255188
 30
0.0
 10
9.999999999999996
 20
-2.335614327414731
 30
0.0
  0
SPLINE
  5
C7
330
1F
100
AcDbEntity
  8
0
  6
Continuous
 62
     1
370
    15
100
AcDbSpline
210
0.0
220
0.0
230
1.0
 70
     8
 71
     3
 72
    13
 73
     9
 74
     0
 42
0.000000001
 43
0.00000001
 40
0.0
 40
0.0
 40
0.0
 40
0.0
 40
0.1770851772052675
 40
0.3541277699329922
 40
0.5311345842701427
 40
0.7081124949145196
 40
0.8850684321782151
 40
1.0
 40
1.0
 40
1.0
 40
1.0
 10
35.40000000000001
 20
-1.878740204526819
 30
0.0
 10
35.03462352322962
 20
-1.79921876997623
 30
0.0
 10
34.30395843343113
 20
-1.640195023755901
 30
0.0
 10
33.20812970821972
 20
-1.251382549152867
 30
0.0
 10
32.11255178888602
 20
-0.7838521772412733
 30
0.0
 10
31.01718048129251
 20
-0.2604906295276473
 30
0.0
 10
30.04989147736718
 20
0.2226702008463805
 30
0.0
 10
29.44772416221036
 20
0.5040529111288705
 30
0.0
 10
29.21061900211883
 20
0.6148481849493065
 30
0.0
  0
SPLINE
  5
C8
330
1F
100
AcDbEntity
  8
0
  6
Continuous
 62
     1
370
    15
100
AcDbSpline
210
0.0
220
0.0
230
1.0
 70
     8
 71
     3
 72
     9
 73
     5
 74
     0
 42
0.000000001
 43
0.00000001
 40
0.0
 40
0.0
 40
0.0
 40
0.0
 40
0.3650295582022409
 40
1.0
 40
1.0
 40
1.0
 40
1.0
 10
11.88623157863898
 20
-1.962894605222848
 30
0.0
 10
11.65672144756166
 20
-1.988818214458088
 30
0.0
 10
11.02797748444907
 20
-2.059836050281884
 30
0.0
 10
10.39923371136976
 20
-1.997484938642349
 30
0.0
 10
10.0
 20
-1.957893825738011
 30
0.0
  0
LINE
  5
C9
330
1F
100
AcDbEntity
  8
0
  6
Continuous
 62
     1
370
    15
100
AcDbLine
 10
35.40000000000001
 20
-2.259665444858471
 30
0.0
 11
35.40000000000001
 21
-1.878740204526819
 31
0.0
  0
SPLINE
  5
CA
330
1F
100
AcDbEntity
  8
0
  6
Continuous
 62
     1
370
    15
100
AcDbSpline
210
0.0
220
0.0
230
1.0
 70
     8
 71
     3
 72
    20
 73
    16
 74
     0
 42
0.000000001
 43
0.00000001
 40
0.0
 40
0.0
 40
0.0
 40
0.0
 40
0.0262596982856437
 40
0.1074308751618376
 40
0.1885795735801358
 40
0.2696943211350693
 40
0.3507830219030135
 40
0.4319071788002661
 40
0.513062478025799
 40
0.5942374121687897
 40
0.6754203694475306
 40
0.7565996953279764
 40
0.8377637546339968
 40
0.9189009934348666
 40
1.0
 40
1.0
 40
1.0
 40
1.0
 10
19.2006808585278
 20
1.594776222877639
 30
0.0
 10
19.3424901614556
 20
1.659739515650174
 30
0.0
 10
19.92264524754634
 20
1.925510406085868
 30
0.0
 10
20.94099690783045
 20
2.218661765824119
 30
0.0
 10
22.25550464015178
 20
2.414662571798738
 30
0.0
 10
23.56945554253102
 20
2.356524912255396
 30
0.0
 10
24.88312898713091
 20
2.063939679303056
 30
0.0
 10
26.19720759642559
 20
1.56278332154568
 30
0.0
 10
27.51183952178891
 20
0.9044022730998951
 30
0.0
 10
28.82685609980379
 20
0.1547034399190335
 30
0.0
 10
30.14202724475476
 20
-0.6102650946356116
 30
0.0
 10
31.45712898149767
 20
-1.314978311664285
 30
0.0
 10
32.77193125810997
 20
-1.882557487011805
 30
0.0
 10
34.0862245268228
 20
-2.277679962824257
 30
0.0
 10
34.96214364799696
 20
-2.345390242270184
 30
0.0
 10
35.40000000000001
 20
-2.381250000000002
 30
0.0
  0
SPLINE
  5
CB
330
1F
100
AcDbEntity
  8
0
  6
Continuous
 62
     1
370
    15
100
AcDbSpline
210
0.0
220
0.0
230
1.0
 70
     8
 71
     3
 72
    13
 73
     9
 74
     0
 42
0.000000001
 43
0.00000001
 40
0.0
 40
0.0
 40
0.0
 40
0.0
 40
0.0813230052939095
 40
0.2886944603962144
 40
0.4959718061303857
 40
0.7035797783083806
 40
0.9107159871891665
 40
1.0
 40
1.0
 40
1.0
 40
1.0
 10
29.47120421112061
 20
-0.2164543943575848
 30
0.0
 10
29.25640790808568
 20
-0.131864474534296
 30
0.0
 10
28.49388686529267
 20
0.1684274437253001
 30
0.0
 10
27.18404546818179
 20
0.700602132355508
 30
0.0
 10
25.54091421083306
 20
1.253347578152757
 30
0.0
 10
23.89768859569083
 20
1.596574023842064
 30
0.0
 10
22.5670014290721
 20
1.716733649036662
 30
0.0
 10
21.78405483507367
 20
1.62422368108106
 30
0.0
 10
21.54822539897845
 20
1.596358979014036
 30
0.0
  0
SPLINE
  5
CC
330
1F
100
AcDbEntity
  8
0
  6
Continuous
 62
     1
370
    15
100
AcDbSpline
210
0.0
220
0.0
230
1.0
 70
     8
 71
     3
 72
    18
 73
    14
 74
     0
 42
0.000000001
 43
0.00000001
 40
0.0
 40
0.0
 40
0.0
 40
0.0
 40
0.0900992269042378
 40
0.1801996308938491
 40
0.2703016351995141
 40
0.3604056622696017
 40
0.4505121335644436
 40
0.5547592837293321
 40
0.6590223708037978
 40
0.7632864379359893
 40
0.8675365230491554
 40
0.9717577385408745
 40
1.0
 40
1.0
 40
1.0
 40
1.0
 10
10.00000000000046
 20
2.372908613302898
 30
0.0
 10
10.3786999312176
 20
2.337183616793987
 30
0.0
 10
11.13610474110999
 20
2.265733157053281
 30
0.0
 10
12.27222741482109
 20
1.939734314204704
 30
0.0
 10
13.40836304381344
 20
1.480301491768573
 30
0.0
 10
14.54457101599699
 20
0.9057538671592009
 30
0.0
 10
15.7400780894187
 20
0.2303439738965988
 30
0.0
 10
16.99579318686627
 20
-0.5031270990660769
 30
0.0
 10
18.310891807046
 20
-1.219152323254101
 30
0.0
 10
19.62605880098504
 20
-1.817316096775568
 30
0.0
 10
20.940991114383
 20
-2.213982855824081
 30
0.0
 10
21.93625602320468
 20
-2.397345479871608
 30
0.0
 10
22.49313395674695
 20
-2.364453056728096
 30
0.0
 10
22.61186473870999
 20
-2.357440131838708
 30
0.0
  0
SPLINE
  5
CD
330
1F
100
AcDbEntity
  8
0
  6
Continuous
 62
     1
370
    15
100
AcDbSpline
210
0.0
220
0.0
230
1.0
 70
     8
 71
     3
 72
    10
 73
     6
 74
     0
 42
0.000000001
 43
0.00000001
 40
0.0
 40
0.0
 40
0.0
 40
0.0
 40
0.1875271399818212
 40
0.5938593027719663
 40
1.0
 40
1.0
 40
1.0
 40
1.0
 10
32.16544008155484
 20
1.594741950298685
 30
0.0
 10
32.36764938209117
 20
1.684591794426498
 30
0.0
 10
33.00800402218302
 20
1.969127493062357
 30
0.0
 10
34.0862224443626
 20
2.272654413914466
 30
0.0
 10
34.96214295395263
 20
2.343715322500871
 30
0.0
 10
35.40000000000001
 20
2.381249999999993
 30
0.0
  0
SPLINE
  5
CE
330
1F
100
AcDbEntity
  8
0
  6
Continuous
 62
     1
370
    15
100
AcDbSpline
210
0.0
220
0.0
230
1.0
 70
    24
 71
     3
 72
    10
 73
     6
 74
     0
 42
0.000000001
 43
0.00000001
 40
0.0
 40
0.0
 40
0.0
 40
0.0
 40
0.5
 40
0.5
 40
1.0
 40
1.0
 40
1.0
 40
1.0
 10
35.40000000000001
 20
1.666874999999995
 30
0.0
 10
35.40000000000001
 20
1.767916811522411
 30
0.0
 10
35.40000000000001
 20
1.885336753989819
 30
0.0
 10
35.40000000000001
 20
2.131683477038034
 30
0.0
 10
35.40000000000001
 20
2.259981119002253
 30
0.0
 10
35.40000000000001
 20
2.381249999999996
 30
0.0
  0
LINE
  5
CF
330
1F
100
AcDbEntity
  8
0
  6
Continuous
 62
     1
370
    15
100
AcDbLine
 10
35.40000000000001
 20
1.666874999999995
 30
0.0
 11
34.53232230053042
 21
1.597932421191561
 31
0.0
  0
SPLINE
  5
D0
330
1F
100
AcDbEntity
  8
0
  6
Continuous
 62
     1
370
    15
100
AcDbSpline
210
0.0
220
0.0
230
1.0
 70
     8
 71
     3
 72
    12
 73
     8
 74
     0
 42
0.000000001
 43
0.00000001
 40
0.0
 40
0.0
 40
0.0
 40
0.0
 40
0.1274777364720701
 40
0.3795111965907635
 40
0.6320087333954454
 40
0.816004496316154
 40
1.0
 40
1.0
 40
1.0
 40
1.0
 10
16.51099041547312
 20
-0.216124649981895
 30
0.0
 10
16.23423140739031
 20
-0.1062068691581098
 30
0.0
 10
15.41029818397767
 20
0.2210269654038618
 30
0.0
 10
14.03891523720743
 20
0.772678454790253
 30
0.0
 10
12.54378421103275
 20
1.252011528777537
 30
0.0
 10
11.19771197783344
 20
1.553076752951066
 30
0.0
 10
10.39923713844536
 20
1.620293711933449
 30
0.0
 10
10.0
 20
1.653902167748652
 30
0.0
  0
SPLINE
  5
D1
330
1F
100
AcDbEntity
  8
외형선
  6
Continuous
370
    15
100
AcDbSpline
210
0.0
220
0.0
230
1.0
 70
    24
 71
     3
 72
    10
 73
     6
 74
     0
 42
0.000000001
 43
0.00000001
 40
0.0
 40
0.0
 40
0.0
 40
0.0
 40
0.5000000000000004
 40
0.5000000000000004
 40
1.0
 40
1.0
 40
1.0
 40
1.0
 10
10.0
 20
2.37290861329734
 30
0.0
 10
10.0
 20
2.258380087500659
 30
0.0
 10
10.0
 20
2.131982215295242
 30
0.0
 10
10.0
 20
1.883173587256779
 30
0.0
 10
10.0
 20
1.761421580024513
 30
0.0
 10
10.0
 20
1.653902167748651
 30
0.0
  0
LINE
  5
D2
330
1F
100
AcDbEntity
  8
0
  6
Continuous
 62
     1
370
    15
100
AcDbLine
 10
35.40000000000001
 20
-2.381250000000005
 30
0.0
 11
35.40000000000001
 21
-2.259665444858471
 31
0.0
  0
SPLINE
  5
D3
330
1F
100
AcDbEntity
  8
0
  6
Continuous
 62
     1
370
    15
100
AcDbSpline
210
0.0
220
0.0
230
1.0
 70
     8
 71
     3
 72
     8
 73
     4
 74
     0
 42
0.000000001
 43
0.00000001
 40
0.0
 40
0.0
 40
0.0
 40
0.0
 40
1.0
 40
1.0
 40
1.0
 40
1.0
 10
33.92593131851545
 20
0.6667656290396401
 30
0.0
 10
33.84157539430416
 20
0.7667237491414455
 30
0.0
 10
33.76626846147553
 20
0.862955878720583
 30
0.0
 10
33.70215717569904
 20
0.954578116097644
 30
0.0
  0
LINE
  5
D4
330
1F
100
AcDbEntity
  8
0
  6
Continuous
 62
     1
370
    15
100
AcDbLine
 10
33.7322831714075
 20
0.9798568279854752
 30
0.0
 11
35.40000000000001
 21
-0.0000000000000015
 31
0.0
  0
LINE
  5
D5
330
1F
100
AcDbEntity
  8
0
  6
Continuous
 62
     1
370
    15
100
AcDbLine
 10
35.40000000000001
 20
-0.0000000000000015
 30
0.0
 11
35.40000000000001
 21
-0.6363722652330934
 31
0.0
  0
SPLINE
  5
D6
330
1F
100
AcDbEntity
  8
0
  6
Continuous
 62
     1
370
    15
100
AcDbSpline
210
0.0
220
0.0
230
1.0
 70
     8
 71
     3
 72
    10
 73
     6
 74
     0
 42
0.000000001
 43
0.00000001
 40
0.0
 40
0.0
 40
0.0
 40
0.0
 40
0.5
 40
0.5
 40
1.0
 40
1.0
 40
1.0
 40
1.0
 10
35.40000000000001
 20
-0.6363722652330931
 30
0.0
 10
35.14482507708536
 20
-0.4357598858607725
 30
0.0
 10
34.89391634127838
 20
-0.2269170311293176
 30
0.0
 10
34.40084008684128
 20
0.2076325360986682
 30
0.0
 10
34.15638005573235
 20
0.4356364190385526
 30
0.0
 10
33.92593131851543
 20
0.6667656290396491
 30
0.0
  0
SPLINE
  5
D7
330
1F
100
AcDbEntity
  8
외형선
  6
Continuous
370
    15
100
AcDbSpline
210
0.0
220
0.0
230
1.0
 70
    24
 71
     3
 72
    10
 73
     6
 74
     0
 42
0.000000001
 43
0.00000001
 40
0.0
 40
0.0
 40
0.0
 40
0.0
 40
0.5
 40
0.5
 40
1.0
 40
1.0
 40
1.0
 40
1.0
 10
9.999999999999996
 20
-0.2372079363817914
 30
0.0
 10
9.999999999999996
 20
-0.593913667410723
 30
0.0
 10
9.999999999999996
 20
-0.9486626610632196
 30
0.0
 10
9.999999999999996
 20
-1.550127643746673
 30
0.0
 10
9.999999999999996
 20
-1.794254692362993
 30
0.0
 10
9.999999999999996
 20
-1.957893825738009
 30
0.0
  0
SPLINE
  5
D8
330
1F
100
AcDbEntity
  8
0
  6
Continuous
 62
     1
370
    15
100
AcDbSpline
210
0.0
220
0.0
230
1.0
 70
     8
 71
     3
 72
    13
 73
     9
 74
     0
 42
0.000000001
 43
0.00000001
 40
0.0
 40
0.0
 40
0.0
 40
0.0
 40
0.1652711649427759
 40
0.3306241571325508
 40
0.5303275991779198
 40
0.7300058999731053
 40
0.9296670368155417
 40
0.9999999999999999
 40
0.9999999999999999
 40
0.9999999999999999
 40
0.9999999999999999
 10
33.92593131851783
 20
0.6667656290386057
 30
0.0
 10
33.62378141714777
 20
0.7943382925156801
 30
0.0
 10
33.01933201726155
 20
1.049546781848144
 30
0.0
 10
32.0496733718295
 20
1.3951042789561
 30
0.0
 10
31.01717383932032
 20
1.685493985729034
 30
0.0
 10
29.92195235530119
 20
1.865380800580708
 30
0.0
 10
29.06326934015624
 20
1.930065623601577
 30
0.0
 10
28.56965281255808
 20
1.887936014759347
 30
0.0
 10
28.4410666210104
 20
1.876961329655558
 30
0.0
  0
SPLINE
  5
D9
330
1F
100
AcDbEntity
  8
0
  6
Continuous
 62
     1
370
    15
100
AcDbSpline
210
0.0
220
0.0
230
1.0
 70
     8
 71
     3
 72
    14
 73
    10
 74
     0
 42
0.000000001
 43
0.00000001
 40
0.0
 40
0.0
 40
0.0
 40
0.0
 40
0.0850430383202343
 40
0.2329555334604699
 40
0.3808477592235041
 40
0.5287256148734379
 40
0.6765950275392943
 40
0.8382976247610406
 40
1.0
 40
1.0
 40
1.0
 40
1.0
 10
17.40601360190078
 20
-1.774160902605717
 30
0.0
 10
17.1960700370583
 20
-1.809401520028813
 30
0.0
 10
16.62097869377502
 20
-1.905934957608504
 30
0.0
 10
15.68081823621919
 20
-1.919395527696563
 30
0.0
 10
14.58556425307582
 20
-1.821921319540599
 30
0.0
 10
13.49041193182227
 20
-1.591045270636219
 30
0.0
 10
12.36125347362463
 20
-1.239156898503764
 30
0.0
 10
11.19766207311147
 20
-0.7802097123033449
 30
0.0
 10
10.39922050835569
 20
-0.4182084455306442
 30
0.0
 10
10.0
 20
-0.237207936381793
 30
0.0
  0
SPLINE
  5
DA
330
1F
100
AcDbEntity
  8
0
  6
Continuous
 62
     1
370
    15
100
AcDbSpline
210
0.0
220
0.0
230
1.0
 70
    24
 71
     3
 72
    10
 73
     6
 74
     0
 42
0.000000001
 43
0.00000001
 40
0.0
 40
0.0
 40
0.0
 40
0.0
 40
0.5
 40
0.5
 40
1.0
 40
1.0
 40
1.0
 40
1.0
 10
35.40000000000001
 20
-1.878740204526818
 30
0.0
 10
35.40000000000001
 20
-1.734720120065314
 30
0.0
 10
35.40000000000001
 20
-1.552745221052282
 30
0.0
 10
35.40000000000001
 20
-1.129671093977559
 30
0.0
 10
35.40000000000001
 20
-0.8889383487659336
 30
0.0
 10
35.40000000000001
 20
-0.6363722652331696
 30
0.0
  0
SPLINE
  5
DB
330
1F
100
AcDbEntity
  8
0
  6
Continuous
 62
     1
370
    15
100
AcDbSpline
210
0.0
220
0.0
230
1.0
 70
     8
 71
     3
 72
    22
 73
    18
 74
     0
 42
0.000000001
 43
0.00000001
 40
0.0
 40
0.0
 40
0.0
 40
0.0
 40
0.0296218421815245
 40
0.1032317347558258
 40
0.1768382527241788
 40
0.2504443559401835
 40
0.3240530050633856
 40
0.3976671558074177
 40
0.4712897532084995
 40
0.5449237259378248
 40
0.6185719806810726
 40
0.692237396607781
 40
0.76591204099131
 40
0.8395695574116692
 40
0.9132111750556852
 40
0.9868397858680448
 40
1.0
 40
1.0
 40
1.0
 40
1.0
 10
30.36261430295885
 20
-1.774710436275196
 30
0.0
 10
30.21571716683277
 20
-1.801679941763604
 30
0.0
 10
29.70378255790369
 20
-1.895668317638876
 30
0.0
 10
28.82684158988825
 20
-1.922184369931716
 30
0.0
 10
27.73178581255723
 20
-1.849211398528596
 30
0.0
 10
26.63673796139112
 20
-1.638896443092585
 30
0.0
 10
25.54164697769253
 20
-1.315727058385376
 30
0.0
 10
24.44646338267372
 20
-0.8997383628150559
 30
0.0
 10
23.35113754710886
 20
-0.4207901265401363
 30
0.0
 10
22.25561997595865
 20
0.0877529127519287
 30
0.0
 10
21.15986249300541
 20
0.5901086896843332
 30
0.0
 10
20.06386726007122
 20
1.051314269618466
 30
0.0
 10
18.96779512480968
 20
1.437888944333227
 30
0.0
 10
17.87189204073367
 20
1.72682008541651
 30
0.0
 10
16.7762462880434
 20
1.882736488487865
 30
0.0
 10
15.98063953797137
 20
1.932216994902305
 30
0.0
 10
15.55024604283099
 20
1.889050174067916
 30
0.0
 10
15.48498337150571
 20
1.882504577835442
 30
0.0
  0
SPLINE
  5
DC
330
1F
100
AcDbEntity
  8
0
  6
Continuous
 62
     1
370
    15
100
AcDbSpline
210
0.0
220
0.0
230
1.0
 70
    24
 71
     3
 72
     8
 73
     4
 74
     0
 42
0.000000001
 43
0.00000001
 40
0.0
 40
0.0
 40
0.0
 40
0.0
 40
1.0
 40
1.0
 40
1.0
 40
1.0
 10
33.95082768727659
 20
1.163237450647044
 30
0.0
 10
33.87229014769486
 20
1.097336630150442
 30
0.0
 10
33.78890712988961
 20
1.02736997066356
 30
0.0
 10
33.70215717569906
 20
0.9545781160976244
 30
0.0
  0
SPLINE
  5
DD
330
1F
100
AcDbEntity
  8
외형선
  6
Continuous
370
    15
100
AcDbSpline
210
0.0
220
0.0
230
1.0
 70
    24
 71
     3
 72
    14
 73
    10
 74
     0
 42
0.000000001
 43
0.00000001
 40
0.0
 40
0.0
 40
0.0
 40
0.0
 40
0.2500000000000001
 40
0.2500000000000001
 40
0.5000000000000002
 40
0.5000000000000002
 40
0.7500000000000001
 40
0.7500000000000001
 40
1.0
 40
1.0
 40
1.0
 40
1.0
 10
10.0
 20
1.653902167748652
 30
0.0
 10
10.0
 20
1.583679101826741
 30
0.0
 10
10.0
 20
1.486819487002598
 30
0.0
 10
10.0
 20
1.241543163640636
 30
0.0
 10
10.0
 20
1.093145437822256
 30
0.0
 10
10.0
 20
0.7570406495146791
 30
0.0
 10
9.999999999999996
 20
0.5695126777086356
 30
0.0
 10
9.999999999999996
 20
0.1751374738983445
 30
0.0
 10
10.0
 20
-0.0314813579638742
 30
0.0
 10
10.0
 20
-0.2372079363817934
 30
0.0
  0
SPLINE
  5
DE
330
1F
100
AcDbEntity
  8
0
  6
Continuous
 62
     1
370
    15
100
AcDbSpline
210
0.0
220
0.0
230
1.0
 70
     8
 71
     3
 72
     8
 73
     4
 74
     0
 42
0.000000001
 43
0.00000001
 40
0.0
 40
0.0
 40
0.0
 40
0.0
 40
1.0
 40
1.0
 40
1.0
 40
1.0
 10
35.40000000000001
 20
1.666874999999998
 30
0.0
 10
34.91027141749201
 20
1.533916378226919
 30
0.0
 10
34.42504459560947
 20
1.370650605133985
 30
0.0
 10
33.95082768728582
 20
1.163237450651081
 30
0.0
  0
LINE
  5
DF
330
1F
100
AcDbEntity
  8
0
  6
Continuous
 62
     1
370
    15
100
AcDbLine
 10
35.40000000000001
 20
-0.0000000000000015
 30
0.0
 11
35.40000000000001
 21
1.666874999999999
 31
0.0
  0
LINE
  5
E0
330
1F
100
AcDbEntity
  8
중심선
 62
     1
100
AcDbLine
 10
-69.19999999999999
 20
-0.0000000000000095
 30
0.0
 11
38.40000000000001
 21
0.0000000000000037
 31
0.0
  0
LINE
  5
E1
330
1F
100
AcDbEntity
  8
참조1
100
AcDbLine
 10
-10.55073868596883
 20
0.0010749287238892
 30
0.0
 11
-10.55073868596882
 21
-39.99892507127611
 31
0.0
  0
LINE
  5
E2
330
1F
100
AcDbEntity
  8
참조1
100
AcDbLine
 10
-10.55073868596882
 20
-39.99892507127611
 30
0.0
 11
-20.15080122126847
 21
-39.9989250712761
 31
0.0
  0
CIRCLE
  5
E3
330
1F
100
AcDbEntity
  8
해칭선
100
AcDbCircle
 10
0.0
 20
0.0
 30
0.0
 40
2.999999999999996
  0
INSERT
  5
E4
330
1F
100
AcDbEntity
  8
0
  6
Continuous
 62
     7
100
AcDbBlockReference
 66
     1
  2
블럭10
 10
-29.3402729321252
 20
-52.04717430164393
 30
0.0
  0
ATTRIB
  5
E5
330
E4
100
AcDbEntity
  8
FORMAT
 62
     2
100
AcDbText
 10
-38.52156822086648
 20
-49.97180738881174
 30
0.0
 40
4.233333333333333
  1
E5026904 [ 2 FLUTE ]
 41
0.75
  7
SLDTEXTSTYLE0
 11
-38.52156822086648
 21
-52.08847405547841
 31
0.0
100
AcDbAttribute
  2
AUTOATTR0
 70
     0
 74
     1
  0
SEQEND
  5
E6
330
E4
100
AcDbEntity
  8
0
  6
Continuous
 62
     7
  0
HATCH
  5
E7
330
1F
100
AcDbEntity
  8
중심선
100
AcDbHatch
 10
0.0
 20
0.0
 30
0.0
210
0.0
220
0.0
230
1.0
  2
SOLID
 70
     1
 71
     0
 91
        1
 92
        0
 93
        4
 72
     1
 10
-23.62536362774435
 20
-35.8
 11
-27.07163887158163
 21
-35.8
 72
     1
 10
-27.07163887158163
 20
-35.8
 11
-29.19986873078566
 21
-38.33632558057257
 72
     1
 10
-29.19986873078566
 20
-38.33632558057258
 11
-25.75356040183522
 21
-38.33628615127009
 72
     1
 10
-25.75356040183522
 20
-38.33628615127009
 11
-23.62536362774435
 21
-35.8
 97
        0
 75
     0
 76
     1
 98
        1
 10
-4.849261314031168
 20
-0.0010749287238987
  0
HATCH
  5
E8
330
1F
100
AcDbEntity
  8
중심선
100
AcDbHatch
 10
0.0
 20
0.0
 30
0.0
210
0.0
220
0.0
230
1.0
  2
SOLID
 70
     1
 71
     0
 91
        1
 92
        0
 93
        4
 72
     1
 10
-18.61259963670837
 20
-35.8
 11
-22.05887488054566
 21
-35.8
 72
     1
 10
-22.05887488054566
 20
-35.8
 11
-26.59001288890307
 21
-41.20000000000002
 72
     1
 10
-26.59001288890307
 20
-41.20000000000002
 11
-23.14373764506579
 21
-41.20000000000002
 72
     1
 10
-23.14373764506579
 20
-41.20000000000002
 11
-18.61259963670837
 21
-35.8
 97
        0
 75
     0
 76
     1
 98
        1
 10
-4.849261314031168
 20
-0.0010749287238987
  0
HATCH
  5
E9
330
1F
100
AcDbEntity
  8
중심선
100
AcDbHatch
 10
0.0
 20
0.0
 30
0.0
210
0.0
220
0.0
230
1.0
  2
SOLID
 70
     1
 71
     0
 91
        1
 92
        0
 93
        4
 72
     1
 10
-13.59983564567253
 20
-35.80000000000003
 11
-17.04611088950965
 21
-35.80000000000003
 72
     1
 10
-17.04611088950965
 20
-35.80000000000003
 11
-24.09454779139887
 21
-44.20000000000002
 72
     1
 10
-24.09454779139887
 20
-44.20000000000002
 11
-20.64827254756159
 21
-44.20000000000002
 72
     1
 10
-20.64827254756159
 20
-44.20000000000002
 11
-13.59983564567253
 21
-35.80000000000003
 97
        0
 75
     0
 76
     1
 98
        1
 10
-4.849261314031168
 20
-0.0010749287238987
  0
HATCH
  5
EA
330
1F
100
AcDbEntity
  8
중심선
100
AcDbHatch
 10
0.0
 20
0.0
 30
0.0
210
0.0
220
0.0
230
1.0
  2
SOLID
 70
     1
 71
     0
 91
        1
 92
        0
 93
        6
 72
     3
 10
-8.799945214660305
 20
-40.00000000005127
 11
3.960054785062283
 21
1.540882976769353E-10
 40
0.3939339440162628
 50
17.09539180608436
 51
320.0019657685082
 73
     0
 72
     1
 10
-7.116945558959737
 20
-38.58789400463833
 11
-4.811643685258671
 21
-36.65356729459038
 72
     3
 10
-8.799945214713151
 20
-40.00000000000016
 11
6.600054785286829
 21
-1.278976924368180E-13
 40
0.636358354079598
 50
39.99873849337417
 51
368.4976242363724
 73
     1
 72
     1
 10
-2.374612722812542
 20
-39.03999999993003
 11
-10.11987790787723
 21
-39.03999999993003
 72
     1
 10
-10.11987790787723
 20
-39.03999999993003
 11
-10.11990295232316
 21
-40.95999999992992
 72
     1
 10
-10.11990295232316
 20
-40.95999999992992
 11
-5.678523182851126
 21
-40.95999999992989
 97
        0
 75
     0
 76
     1
 98
        1
 10
-4.849261314031168
 20
-0.0010749287238987
  0
DIMENSION
  5
EB
330
1F
100
AcDbEntity
  8
치수문자_일반주서
100
AcDbDimension
  2
_D
 10
-78.29915883139981
 20
-2.381250000000051
 30
0.0
 11
-78.29915883139988
 21
22.98524999999995
 31
0.0
 70
   160
  1
%%c<>
 71
     2
 42
4.762500000000003
 52
-270.0
  3
SLDDIMSTYLE0
100
AcDbAlignedDimension
 13
-65.77000000000001
 23
2.381249999999997
 33
0.0
 14
-65.77000000000001
 24
-2.381250000000006
 34
0.0
 50
90.0000000000002
100
AcDbRotatedDimension
1001
ACAD
1000
DSTYLE
1002
{
1070
   171
1070
     6
1070
   273
1070
     5
1002
}
  0
DIMENSION
  5
100
330
1F
100
AcDbEntity
  8
치수문자_일반주서
100
AcDbDimension
  2
_D_1
 10
10.0
 20
15.55557913458852
 30
0.0
 11
22.7
 21
15.55557913458852
 31
0.0
 70
   160
  1
<>
 71
     2
 42
25.40000000000001
  3
SLDDIMSTYLE0
100
AcDbAlignedDimension
 13
35.40000000000001
 23
2.379237403765588
 33
0.0
 14
10.0
 24
2.372908613302917
 34
0.0
 50
0.000000000000004
100
AcDbRotatedDimension
1001
ACAD
1000
DSTYLE
1002
{
1070
   171
1070
     6
1070
   273
1070
     5
1002
}
  0
DIMENSION
  5
115
330
1F
100
AcDbEntity
  8
치수문자_일반주서
100
AcDbDimension
  2
_D_2
 10
-66.19999999999999
 20
32.78519501024256
 30
0.0
 11
-15.4
 21
32.78519501024256
 31
0.0
 70
   160
  1
<>
 71
     2
 42
101.6
  3
SLDDIMSTYLE0
100
AcDbAlignedDimension
 13
35.40000000000001
 23
2.381249999999996
 33
0.0
 14
-66.19999999999999
 24
1.951249999999986
 34
0.0
 50
0.000000000000004
100
AcDbRotatedDimension
1001
ACAD
1000
DSTYLE
1002
{
1070
   171
1070
     6
1070
   273
1070
     5
1002
}
  0
DIMENSION
  5
128
330
1F
100
AcDbEntity
  8
치수문자_일반주서
100
AcDbDimension
  2
_D_3
 10
45.96426078577424
 20
2.379237403765625
 30
0.0
 11
45.96426078577419
 21
22.98323740376562
 31
0.0
 70
   160
  1
%%c<>
 71
     2
 42
4.760487403765593
 52
-270.0
  3
SLDDIMSTYLE0
100
AcDbAlignedDimension
 13
35.40000000000001
 23
-2.381250000000005
 33
0.0
 14
35.40000000000001
 24
2.379237403765588
 34
0.0
 50
90.0000000000002
100
AcDbRotatedDimension
1001
ACAD
1000
DSTYLE
1002
{
1070
   171
1070
     6
1070
   273
1070
     5
1002
}
  0
LINE
  5
13C
330
1F
100
AcDbEntity
  8
참조1
100
AcDbLine
 10
77.82153940838579
 20
7.441074928723896
 30
0.0
 11
77.82153940838579
 21
-7.438925071276109
 31
0.0
  0
LINE
  5
13D
330
1F
100
AcDbEntity
  8
참조1
100
AcDbLine
 10
90.52153940838579
 20
5.441074928723896
 30
0.0
 11
77.82153940838579
 21
5.441074928723896
 31
0.0
  0
SOLID
  5
13E
330
1F
100
AcDbEntity
  8
참조1
100
AcDbTrace
 10
77.82153940838579
 20
5.441074928723896
 30
0.0
 11
84.17153940838578
 21
4.425074928723896
 31
0.0
 12
84.17153940838578
 22
6.457074928723896
 32
0.0
 13
84.17153940838578
 23
6.457074928723896
 33
0.0
  0
LINE
  5
13F
330
1F
100
AcDbEntity
  8
참조1
100
AcDbLine
 10
90.52153940838579
 20
-5.438925071276109
 30
0.0
 11
77.82153940838579
 21
-5.438925071276109
 31
0.0
  0
SOLID
  5
140
330
1F
100
AcDbEntity
  8
참조1
100
AcDbTrace
 10
77.82153940838579
 20
-5.438925071276109
 30
0.0
 11
84.17153940838578
 21
-6.454925071276109
 31
0.0
 12
84.17153940838578
 22
-4.422925071276109
 32
0.0
 13
84.17153940838578
 23
-4.422925071276109
 33
0.0
  0
MTEXT
  5
141
330
1F
100
AcDbEntity
  8
참조1
100
AcDbMText
 10
87.20588954101179
 20
11.01136670591222
 30
0.0
 40
3.5
 41
0.0
 71
     1
 72
     1
  1
A
  7
SLDTEXTSTYLE0
 73
     1
 44
1.0
  0
MTEXT
  5
142
330
1F
100
AcDbEntity
  8
참조1
100
AcDbMText
 10
87.20588954101179
 20
0.1313667059122192
 30
0.0
 40
3.5
 41
0.0
 71
     1
 72
     1
  1
A
  7
SLDTEXTSTYLE0
 73
     1
 44
1.0
  0
INSERT
  5
149
330
1F
100
AcDbEntity
  8
해칭선
100
AcDbBlockReference
  2
SW_DOWELSYMBOL_0
 10
0.0
 20
0.0
 30
0.0
  0
ENDSEC
  0
SECTION
  2
OBJECTS
  0
DICTIONARY
  5
C
330
0
100
AcDbDictionary
281
     1
  3
ACAD_GROUP
350
D
  3
ACAD_IMAGE_VARS
350
16D
  3
ACAD_LAYOUT
350
1A
  3
ACAD_MLINESTYLE
350
17
  3
ACAD_PLOTSETTINGS
350
19
  3
ACAD_PLOTSTYLENAME
350
E
  3
ACAD_SCALELIST
350
47
  3
APPDATA
350
16B
  3
DWGPROPS
350
307
  0
DICTIONARY
  5
227
330
2
100
AcDbDictionary
280
     1
281
     1
  3
ACAD_LAYERSTATES
360
228
  0
DICTIONARY
  5
305
330
1F
100
AcDbDictionary
280
     1
281
     1
  3
DIM_BOUNDING_BOXES_V1
360
306
  0
DICTIONARY
  5
D
102
{ACAD_REACTORS
330
C
102
}
330
C
100
AcDbDictionary
281
     1
  0
RASTERVARIABLES
  5
16D
102
{ACAD_REACTORS
330
C
102
}
330
C
100
AcDbRasterVariables
 90
        0
 70
     1
 71
     1
 72
     1
  0
DICTIONARY
  5
1A
102
{ACAD_REACTORS
330
C
102
}
330
C
100
AcDbDictionary
281
     1
  3
Layout1
350
1E
  3
Layout2
350
26
  3
Model
350
22
  0
DICTIONARY
  5
17
102
{ACAD_REACTORS
330
C
102
}
330
C
100
AcDbDictionary
281
     1
  3
Standard
350
18
  0
DICTIONARY
  5
19
102
{ACAD_REACTORS
330
C
102
}
330
C
100
AcDbDictionary
281
     1
  0
ACDBDICTIONARYWDFLT
  5
E
102
{ACAD_REACTORS
330
C
102
}
330
C
100
AcDbDictionary
281
     1
  3
Normal
350
F
100
AcDbDictionaryWithDefault
340
F
  0
DICTIONARY
  5
47
102
{ACAD_REACTORS
330
C
102
}
330
C
100
AcDbDictionary
281
     1
  3
A0
350
48
  3
A1
350
49
  3
A2
350
4A
  3
A3
350
4B
  3
A4
350
4C
  3
A5
350
4D
  3
A6
350
4E
  3
A7
350
4F
  3
A8
350
50
  3
A9
350
51
  3
B0
350
52
  3
B1
350
53
  3
B2
350
54
  3
B3
350
55
  3
B4
350
56
  3
B5
350
57
  3
B6
350
58
  3
B7
350
59
  3
B8
350
5A
  3
B9
350
5B
  3
C0
350
5C
  3
C1
350
5D
  3
C2
350
5E
  3
C3
350
5F
  3
C4
350
60
  3
C5
350
61
  3
C6
350
62
  3
C7
350
63
  3
C8
350
64
  3
C9
350
65
  3
D0
350
66
  3
D1
350
67
  3
D2
350
68
  0
DICTIONARY
  5
16B
102
{ACAD_REACTORS
330
C
102
}
330
C
100
AcDbDictionary
281
     1
  0
XRECORD
  5
307
102
{ACAD_REACTORS
330
C
102
}
330
C
100
AcDbXrecord
280
     1
  1
DWGPROPS COOKIE
  2

  3

  4

  6

  7

  8
12011056
  9

300
=
301
=
302
=
303
=
304
=
305
=
306
=
307
=
308
=
309
=
 40
0.0
 41
2458311.121089549
 42
2459720.013881736
  1

 90
        0
  0
DICTIONARY
  5
228
102
{ACAD_REACTORS
330
227
102
}
330
227
100
AcDbDictionary
281
     1
  0
DICTIONARY
  5
306
102
{ACAD_REACTORS
330
305
102
}
330
305
100
AcDbDictionary
281
     1
  0
LAYOUT
  5
1E
102
{ACAD_REACTORS
330
1A
102
}
330
1A
100
AcDbPlotSettings
  1

  2
none_device
  4

  6

 40
0.0
 41
0.0
 42
0.0
 43
0.0
 44
0.0
 45
0.0
 46
0.0
 47
0.0
 48
0.0
 49
0.0
140
0.0
141
0.0
142
1.0
143
1.0
 70
   688
 72
     1
 73
     0
 74
     5
  7

 75
    16
147
1.0
148
0.0
149
0.0
100
AcDbLayout
  1
Layout1
 70
     1
 71
     1
 10
0.0
 20
0.0
 11
420.0
 21
297.0
 12
0.0
 22
0.0
 32
0.0
 14
1.000000000000000E+20
 24
1.000000000000000E+20
 34
1.000000000000000E+20
 15
-1.000000000000000E+20
 25
-1.000000000000000E+20
 35
-1.000000000000000E+20
146
0.0
 13
0.0
 23
0.0
 33
0.0
 16
1.0
 26
0.0
 36
0.0
 17
0.0
 27
1.0
 37
0.0
 76
     0
330
1B
  0
LAYOUT
  5
26
102
{ACAD_REACTORS
330
1A
102
}
330
1A
100
AcDbPlotSettings
  1

  2
none_device
  4

  6

 40
0.0
 41
0.0
 42
0.0
 43
0.0
 44
0.0
 45
0.0
 46
0.0
 47
0.0
 48
0.0
 49
0.0
140
0.0
141
0.0
142
1.0
143
1.0
 70
   688
 72
     1
 73
     0
 74
     5
  7

 75
    16
147
1.0
148
0.0
149
0.0
100
AcDbLayout
  1
Layout2
 70
     1
 71
     2
 10
0.0
 20
0.0
 11
0.0
 21
0.0
 12
0.0
 22
0.0
 32
0.0
 14
0.0
 24
0.0
 34
0.0
 15
0.0
 25
0.0
 35
0.0
146
0.0
 13
0.0
 23
0.0
 33
0.0
 16
1.0
 26
0.0
 36
0.0
 17
0.0
 27
1.0
 37
0.0
 76
     0
330
23
  0
LAYOUT
  5
22
102
{ACAD_REACTORS
330
1A
102
}
330
1A
100
AcDbPlotSettings
  1

  2
none_device
  4
ANSI_A_(11.00_x_8.50_Inches)
  6

 40
6.35
 41
19.05
 42
6.35000508
 43
19.05000254
 44
279.4
 45
215.9
 46
129.1726824415905
 47
94.51565068373957
 48
0.0
 49
0.0
140
0.0
141
0.0
142
0.0619682481966007
143
1.0
 70
  1696
 72
     0
 73
     0
 74
     0
  7

 75
     0
147
0.0235690232323232
148
0.0
149
0.0
100
AcDbLayout
  1
Model
 70
     1
 71
     0
 10
0.0
 20
0.0
 11
420.0
 21
297.0
 12
0.0
 22
0.0
 32
0.0
 14
-82.67415883139992
 24
-49.97180738881174
 34
0.0
 15
90.52153940838579
 25
37.16019501024256
 35
0.0
146
0.0
 13
0.0
 23
0.0
 33
0.0
 16
1.0
 26
0.0
 36
0.0
 17
0.0
 27
1.0
 37
0.0
 76
     0
330
1F
331
29
  0
MLINESTYLE
  5
18
102
{ACAD_REACTORS
330
17
102
}
330
17
100
AcDbMlineStyle
  2
Standard
 70
     0
  3

 62
   256
 51
90.0
 52
90.0
 71
     2
 49
0.5
 62
   256
  6
BYLAYER
 49
-0.5
 62
   256
  6
BYLAYER
  0
ACDBPLACEHOLDER
  5
F
102
{ACAD_REACTORS
330
E
102
}
330
E
  0
SCALE
  5
48
102
{ACAD_REACTORS
330
47
102
}
330
47
100
AcDbScale
 70
     0
300
1:1
140
1.0
141
1.0
290
     1
  0
SCALE
  5
49
102
{ACAD_REACTORS
330
47
102
}
330
47
100
AcDbScale
 70
     0
300
1:2
140
1.0
141
2.0
290
     0
  0
SCALE
  5
4A
102
{ACAD_REACTORS
330
47
102
}
330
47
100
AcDbScale
 70
     0
300
1:4
140
1.0
141
4.0
290
     0
  0
SCALE
  5
4B
102
{ACAD_REACTORS
330
47
102
}
330
47
100
AcDbScale
 70
     0
300
1:5
140
1.0
141
5.0
290
     0
  0
SCALE
  5
4C
102
{ACAD_REACTORS
330
47
102
}
330
47
100
AcDbScale
 70
     0
300
1:8
140
1.0
141
8.0
290
     0
  0
SCALE
  5
4D
102
{ACAD_REACTORS
330
47
102
}
330
47
100
AcDbScale
 70
     0
300
1:10
140
1.0
141
10.0
290
     0
  0
SCALE
  5
4E
102
{ACAD_REACTORS
330
47
102
}
330
47
100
AcDbScale
 70
     0
300
1:16
140
1.0
141
16.0
290
     0
  0
SCALE
  5
4F
102
{ACAD_REACTORS
330
47
102
}
330
47
100
AcDbScale
 70
     0
300
1:20
140
1.0
141
20.0
290
     0
  0
SCALE
  5
50
102
{ACAD_REACTORS
330
47
102
}
330
47
100
AcDbScale
 70
     0
300
1:30
140
1.0
141
30.0
290
     0
  0
SCALE
  5
51
102
{ACAD_REACTORS
330
47
102
}
330
47
100
AcDbScale
 70
     0
300
1:40
140
1.0
141
40.0
290
     0
  0
SCALE
  5
52
102
{ACAD_REACTORS
330
47
102
}
330
47
100
AcDbScale
 70
     0
300
1:50
140
1.0
141
50.0
290
     0
  0
SCALE
  5
53
102
{ACAD_REACTORS
330
47
102
}
330
47
100
AcDbScale
 70
     0
300
1:100
140
1.0
141
100.0
290
     0
  0
SCALE
  5
54
102
{ACAD_REACTORS
330
47
102
}
330
47
100
AcDbScale
 70
     0
300
2:1
140
2.0
141
1.0
290
     0
  0
SCALE
  5
55
102
{ACAD_REACTORS
330
47
102
}
330
47
100
AcDbScale
 70
     0
300
4:1
140
4.0
141
1.0
290
     0
  0
SCALE
  5
56
102
{ACAD_REACTORS
330
47
102
}
330
47
100
AcDbScale
 70
     0
300
8:1
140
8.0
141
1.0
290
     0
  0
SCALE
  5
57
102
{ACAD_REACTORS
330
47
102
}
330
47
100
AcDbScale
 70
     0
300
10:1
140
10.0
141
1.0
290
     0
  0
SCALE
  5
58
102
{ACAD_REACTORS
330
47
102
}
330
47
100
AcDbScale
 70
     0
300
100:1
140
100.0
141
1.0
290
     0
  0
SCALE
  5
59
102
{ACAD_REACTORS
330
47
102
}
330
47
100
AcDbScale
 70
     0
300
1/128" = 1'-0"
140
0.0078125
141
12.0
290
     0
  0
SCALE
  5
5A
102
{ACAD_REACTORS
330
47
102
}
330
47
100
AcDbScale
 70
     0
300
1/64" = 1'-0"
140
0.015625
141
12.0
290
     0
  0
SCALE
  5
5B
102
{ACAD_REACTORS
330
47
102
}
330
47
100
AcDbScale
 70
     0
300
1/32" = 1'-0"
140
0.03125
141
12.0
290
     0
  0
SCALE
  5
5C
102
{ACAD_REACTORS
330
47
102
}
330
47
100
AcDbScale
 70
     0
300
1/16" = 1'-0"
140
0.0625
141
12.0
290
     0
  0
SCALE
  5
5D
102
{ACAD_REACTORS
330
47
102
}
330
47
100
AcDbScale
 70
     0
300
3/32" = 1'-0"
140
0.09375
141
12.0
290
     0
  0
SCALE
  5
5E
102
{ACAD_REACTORS
330
47
102
}
330
47
100
AcDbScale
 70
     0
300
1/8" = 1'-0"
140
0.125
141
12.0
290
     0
  0
SCALE
  5
5F
102
{ACAD_REACTORS
330
47
102
}
330
47
100
AcDbScale
 70
     0
300
3/16" = 1'-0"
140
0.1875
141
12.0
290
     0
  0
SCALE
  5
60
102
{ACAD_REACTORS
330
47
102
}
330
47
100
AcDbScale
 70
     0
300
1/4" = 1'-0"
140
0.25
141
12.0
290
     0
  0
SCALE
  5
61
102
{ACAD_REACTORS
330
47
102
}
330
47
100
AcDbScale
 70
     0
300
3/8" = 1'-0"
140
0.375
141
12.0
290
     0
  0
SCALE
  5
62
102
{ACAD_REACTORS
330
47
102
}
330
47
100
AcDbScale
 70
     0
300
1/2" = 1'-0"
140
0.5
141
12.0
290
     0
  0
SCALE
  5
63
102
{ACAD_REACTORS
330
47
102
}
330
47
100
AcDbScale
 70
     0
300
3/4" = 1'-0"
140
0.75
141
12.0
290
     0
  0
SCALE
  5
64
102
{ACAD_REACTORS
330
47
102
}
330
47
100
AcDbScale
 70
     0
300
1" = 1'-0"
140
1.0
141
12.0
290
     0
  0
SCALE
  5
65
102
{ACAD_REACTORS
330
47
102
}
330
47
100
AcDbScale
 70
     0
300
1-1/2" = 1'-0"
140
1.5
141
12.0
290
     0
  0
SCALE
  5
66
102
{ACAD_REACTORS
330
47
102
}
330
47
100
AcDbScale
 70
     0
300
3" = 1'-0"
140
3.0
141
12.0
290
     0
  0
SCALE
  5
67
102
{ACAD_REACTORS
330
47
102
}
330
47
100
AcDbScale
 70
     0
300
6" = 1'-0"
140
6.0
141
12.0
290
     0
  0
SCALE
  5
68
102
{ACAD_REACTORS
330
47
102
}
330
47
100
AcDbScale
 70
     0
300
1'-0" = 1'-0"
140
12.0
141
12.0
290
     0
  0
ENDSEC
  0
EOF
