  0
SECTION
  2
HEADER
  9
$ACADVER
  1
AC1015
  9
$ACADMAINTVER
 70
     6
  9
$DWGCODEPAGE
  3
ANSI_949
  9
$INSBASE
 10
0.0
 20
0.0
 30
0.0
  9
$EXTMIN
 10
1.000000000000000E+20
 20
1.000000000000000E+20
 30
1.000000000000000E+20
  9
$EXTMAX
 10
-1.000000000000000E+20
 20
-1.000000000000000E+20
 30
-1.000000000000000E+20
  9
$LIMMIN
 10
0.0
 20
0.0
  9
$LIMMAX
 10
420.0
 20
297.0
  9
$ORTHOMODE
 70
     1
  9
$REGENMODE
 70
     1
  9
$FILLMODE
 70
     1
  9
$QTEXTMODE
 70
     0
  9
$MIRRTEXT
 70
     1
  9
$LTSCALE
 40
1.0
  9
$ATTMODE
 70
     1
  9
$TEXTSIZE
 40
3.5
  9
$TRACEWID
 40
1.0
  9
$TEXTSTYLE
  7
Standard
  9
$CLAYER
  8
0
  9
$CELTYPE
  6
ByLayer
  9
$CECOLOR
 62
   256
  9
$CELTSCALE
 40
1.0
  9
$DISPSILH
 70
     0
  9
$DIMSCALE
 40
1.0
  9
$DIMASZ
 40
3.302
  9
$DIMEXO
 40
1.0
  9
$DIMDLI
 40
3.75
  9
$DIMRND
 40
0.0
  9
$DIMDLE
 40
0.0
  9
$DIMEXE
 40
1.0
  9
$DIMTP
 40
0.0
  9
$DIMTM
 40
0.0
  9
$DIMTXT
 40
3.5
  9
$DIMCEN
 40
2.5
  9
$DIMTSZ
 40
0.0
  9
$DIMTOL
 70
     0
  9
$DIMLIM
 70
     0
  9
$DIMTIH
 70
     1
  9
$DIMTOH
 70
     1
  9
$DIMSE1
 70
     0
  9
$DIMSE2
 70
     0
  9
$DIMTAD
 70
     1
  9
$DIMZIN
 70
     0
  9
$DIMBLK
  1

  9
$DIMASO
 70
     1
  9
$DIMSHO
 70
     1
  9
$DIMPOST
  1

  9
$DIMAPOST
  1

  9
$DIMALT
 70
     0
  9
$DIMALTD
 70
     3
  9
$DIMALTF
 40
0.0393700787401575
  9
$DIMLFAC
 40
1.0
  9
$DIMTOFL
 70
     1
  9
$DIMTVP
 40
0.0
  9
$DIMTIX
 70
     0
  9
$DIMSOXD
 70
     0
  9
$DIMSAH
 70
     0
  9
$DIMBLK1
  1

  9
$DIMBLK2
  1

  9
$DIMSTYLE
  2
ISO-25
  9
$DIMCLRD
 70
     0
  9
$DIMCLRE
 70
     0
  9
$DIMCLRT
 70
     0
  9
$DIMTFAC
 40
1.0
  9
$DIMGAP
 40
1.524
  9
$DIMJUST
 70
     0
  9
$DIMSD1
 70
     0
  9
$DIMSD2
 70
     0
  9
$DIMTOLJ
 70
     0
  9
$DIMTZIN
 70
     0
  9
$DIMALTZ
 70
     0
  9
$DIMALTTZ
 70
     0
  9
$DIMUPT
 70
     0
  9
$DIMDEC
 70
     2
  9
$DIMTDEC
 70
     2
  9
$DIMALTU
 70
     2
  9
$DIMALTTD
 70
     3
  9
$DIMTXSTY
  7
Standard
  9
$DIMAUNIT
 70
     0
  9
$DIMADEC
 70
     2
  9
$DIMALTRND
 40
0.0
  9
$DIMAZIN
 70
     0
  9
$DIMDSEP
 70
    44
  9
$DIMATFIT
 70
     3
  9
$DIMFRAC
 70
     0
  9
$DIMLDRBLK
  1

  9
$DIMLUNIT
 70
     2
  9
$DIMLWD
 70
    -2
  9
$DIMLWE
 70
    -2
  9
$DIMTMOVE
 70
     0
  9
$LUNITS
 70
     2
  9
$LUPREC
 70
     2
  9
$SKETCHINC
 40
1.0
  9
$FILLETRAD
 40
10.0
  9
$AUNITS
 70
     0
  9
$AUPREC
 70
     2
  9
$MENU
  1
.
  9
$ELEVATION
 40
0.0
  9
$PELEVATION
 40
0.0
  9
$THICKNESS
 40
0.0
  9
$LIMCHECK
 70
     0
  9
$CHAMFERA
 40
0.0
  9
$CHAMFERB
 40
0.0
  9
$CHAMFERC
 40
0.0
  9
$CHAMFERD
 40
0.0
  9
$SKPOLY
 70
     0
  9
$TDCREATE
 40
2458311.494818796
  9
$TDUCREATE
 40
2458311.119818796
  9
$TDUPDATE
 40
2458320.654557778
  9
$TDUUPDATE
 40
2458320.279557778
  9
$TDINDWG
 40
0.0012872454
  9
$TDUSRTIMER
 40
2458320.278270775
  9
$USRTIMER
 70
     1
  9
$ANGBASE
 50
0.0
  9
$ANGDIR
 70
     0
  9
$PDMODE
 70
     0
  9
$PDSIZE
 40
-1.0
  9
$PLINEWID
 40
0.0
  9
$SPLFRAME
 70
     0
  9
$SPLINETYPE
 70
     6
  9
$SPLINESEGS
 70
     8
  9
$HANDSEED
  5
2DD
  9
$SURFTAB1
 70
     6
  9
$SURFTAB2
 70
     6
  9
$SURFTYPE
 70
     6
  9
$SURFU
 70
     6
  9
$SURFV
 70
     6
  9
$UCSBASE
  2

  9
$UCSNAME
  2

  9
$UCSORG
 10
0.0
 20
0.0
 30
0.0
  9
$UCSXDIR
 10
1.0
 20
0.0
 30
0.0
  9
$UCSYDIR
 10
0.0
 20
1.0
 30
0.0
  9
$UCSORTHOREF
  2

  9
$UCSORTHOVIEW
 70
     0
  9
$UCSORGTOP
 10
0.0
 20
0.0
 30
0.0
  9
$UCSORGBOTTOM
 10
0.0
 20
0.0
 30
0.0
  9
$UCSORGLEFT
 10
0.0
 20
0.0
 30
0.0
  9
$UCSORGRIGHT
 10
0.0
 20
0.0
 30
0.0
  9
$UCSORGFRONT
 10
0.0
 20
0.0
 30
0.0
  9
$UCSORGBACK
 10
0.0
 20
0.0
 30
0.0
  9
$PUCSBASE
  2

  9
$PUCSNAME
  2

  9
$PUCSORG
 10
0.0
 20
0.0
 30
0.0
  9
$PUCSXDIR
 10
1.0
 20
0.0
 30
0.0
  9
$PUCSYDIR
 10
0.0
 20
1.0
 30
0.0
  9
$PUCSORTHOREF
  2

  9
$PUCSORTHOVIEW
 70
     0
  9
$PUCSORGTOP
 10
0.0
 20
0.0
 30
0.0
  9
$PUCSORGBOTTOM
 10
0.0
 20
0.0
 30
0.0
  9
$PUCSORGLEFT
 10
0.0
 20
0.0
 30
0.0
  9
$PUCSORGRIGHT
 10
0.0
 20
0.0
 30
0.0
  9
$PUCSORGFRONT
 10
0.0
 20
0.0
 30
0.0
  9
$PUCSORGBACK
 10
0.0
 20
0.0
 30
0.0
  9
$USERI1
 70
     0
  9
$USERI2
 70
     0
  9
$USERI3
 70
     0
  9
$USERI4
 70
     0
  9
$USERI5
 70
     0
  9
$USERR1
 40
0.0
  9
$USERR2
 40
0.0
  9
$USERR3
 40
0.0
  9
$USERR4
 40
0.0
  9
$USERR5
 40
0.0
  9
$WORLDVIEW
 70
     1
  9
$SHADEDGE
 70
     3
  9
$SHADEDIF
 70
    70
  9
$TILEMODE
 70
     1
  9
$MAXACTVP
 70
    64
  9
$PINSBASE
 10
0.0
 20
0.0
 30
0.0
  9
$PLIMCHECK
 70
     0
  9
$PEXTMIN
 10
1.000000000000000E+20
 20
1.000000000000000E+20
 30
1.000000000000000E+20
  9
$PEXTMAX
 10
-1.000000000000000E+20
 20
-1.000000000000000E+20
 30
-1.000000000000000E+20
  9
$PLIMMIN
 10
0.0
 20
0.0
  9
$PLIMMAX
 10
0.0
 20
0.0
  9
$UNITMODE
 70
     0
  9
$VISRETAIN
 70
     1
  9
$PLINEGEN
 70
     0
  9
$PSLTSCALE
 70
     1
  9
$TREEDEPTH
 70
  3020
  9
$CMLSTYLE
  2
Standard
  9
$CMLJUST
 70
     0
  9
$CMLSCALE
 40
20.0
  9
$PROXYGRAPHICS
 70
     1
  9
$MEASUREMENT
 70
     1
  9
$CELWEIGHT
370
    -1
  9
$ENDCAPS
280
     0
  9
$JOINSTYLE
280
     0
  9
$LWDISPLAY
290
     1
  9
$INSUNITS
 70
     4
  9
$HYPERLINKBASE
  1

  9
$STYLESHEET
  1

  9
$XEDIT
290
     1
  9
$CEPSNTYPE
380
     0
  9
$PSTYLEMODE
290
     1
  9
$FINGERPRINTGUID
  2
{7E76D47E-5717-4642-A9C3-A17B1FF28106}
  9
$VERSIONGUID
  2
{FAEB1C32-E019-11D5-929B-00C0DF256EC4}
  9
$EXTNAMES
290
     1
  9
$PSVPSCALE
 40
0.0
  9
$OLESTARTUP
290
     0
  0
ENDSEC
  0
SECTION
  2
CLASSES
  0
CLASS
  1
ACDBDICTIONARYWDFLT
  2
AcDbDictionaryWithDefault
  3
ObjectDBX Classes
 90
        0
280
     0
281
     0
  0
CLASS
  1
VISUALSTYLE
  2
AcDbVisualStyle
  3
ObjectDBX Classes
 90
     4095
280
     0
281
     0
  0
CLASS
  1
MATERIAL
  2
AcDbMaterial
  3
ObjectDBX Classes
 90
     1153
280
     0
281
     0
  0
CLASS
  1
SCALE
  2
AcDbScale
  3
ObjectDBX Classes
 90
     1153
280
     0
281
     0
  0
CLASS
  1
SUN
  2
AcDbSun
  3
SCENEOE
 90
     1153
280
     0
281
     0
  0
CLASS
  1
ACDBPLACEHOLDER
  2
AcDbPlaceHolder
  3
ObjectDBX Classes
 90
        0
280
     0
281
     0
  0
CLASS
  1
LAYOUT
  2
AcDbLayout
  3
ObjectDBX Classes
 90
        0
280
     0
281
     0
  0
CLASS
  1
TABLESTYLE
  2
AcDbTableStyle
  3
ObjectDBX Classes
 90
     4095
280
     0
281
     0
  0
CLASS
  1
MLEADERSTYLE
  2
AcDbMLeaderStyle
  3
ACDB_MLEADERSTYLE_CLASS
 90
     4095
280
     0
281
     0
  0
CLASS
  1
RASTERVARIABLES
  2
AcDbRasterVariables
  3
ISM
 90
        0
280
     0
281
     0
  0
ENDSEC
  0
SECTION
  2
TABLES
  0
TABLE
  2
VPORT
  5
8
330
0
100
AcDbSymbolTable
 70
     1
  0
VPORT
  5
29
330
8
100
AcDbSymbolTableRecord
100
AcDbViewportTableRecord
  2
*Active
 70
     0
 10
0.0
 20
0.0
 11
1.0
 21
1.0
 12
1.385628647870661
 22
-1.829844337321489
 13
0.0
 23
0.0
 14
10.0
 24
10.0
 15
10.0
 25
10.0
 16
0.0
 26
0.0
 36
1.0
 17
0.0
 27
0.0
 37
0.0
 40
137.0461218582652
 41
1.970186335403727
 42
50.0
 43
0.0
 44
0.0
 50
0.0
 51
0.0
 71
    16
 72
  2000
 73
     1
 74
     3
 75
     0
 76
     0
 77
     0
 78
     0
281
     0
 65
     1
110
0.0
120
0.0
130
0.0
111
1.0
121
0.0
131
0.0
112
0.0
122
1.0
132
0.0
 79
     0
146
0.0
  0
ENDTAB
  0
TABLE
  2
LTYPE
  5
5
330
0
100
AcDbSymbolTable
 70
     6
  0
LTYPE
  5
14
330
5
100
AcDbSymbolTableRecord
100
AcDbLinetypeTableRecord
  2
ByBlock
 70
     0
  3

 72
    65
 73
     0
 40
0.0
  0
LTYPE
  5
15
330
5
100
AcDbSymbolTableRecord
100
AcDbLinetypeTableRecord
  2
ByLayer
 70
     0
  3

 72
    65
 73
     0
 40
0.0
  0
LTYPE
  5
16
330
5
100
AcDbSymbolTableRecord
100
AcDbLinetypeTableRecord
  2
Continuous
 70
     0
  3
Solid line
 72
    65
 73
     0
 40
0.0
  0
LTYPE
  5
6A
330
5
100
AcDbSymbolTableRecord
100
AcDbLinetypeTableRecord
  2
HIDDEN
 70
     0
  3
Hidden __ __ __ __ __ __ __ __ __ __ __ __ __ __
 72
    65
 73
     2
 40
1.905
 49
1.27
 74
     0
 49
-0.635
 74
     0
  0
LTYPE
  5
6B
330
5
100
AcDbSymbolTableRecord
100
AcDbLinetypeTableRecord
  2
PHANTOM
 70
     0
  3
Phantom ______  __  __  ______  __  __  ______
 72
    65
 73
     6
 40
12.7
 49
6.35
 74
     0
 49
-1.27
 74
     0
 49
1.27
 74
     0
 49
-1.27
 74
     0
 49
1.27
 74
     0
 49
-1.27
 74
     0
  0
LTYPE
  5
6C
330
5
100
AcDbSymbolTableRecord
100
AcDbLinetypeTableRecord
  2
CENTER
 70
     0
  3
Center ____ _ ____ _ ____ _ ____ _ ____ _ ____
 72
    65
 73
     4
 40
10.16
 49
6.35
 74
     0
 49
-1.27
 74
     0
 49
1.27
 74
     0
 49
-1.27
 74
     0
  0
LTYPE
  5
6D
330
5
100
AcDbSymbolTableRecord
100
AcDbLinetypeTableRecord
  2
CENTERX2
 70
     0
  3
Center (2x) ________  __  ________  __  _____
 72
    65
 73
     4
 40
20.32
 49
12.7
 74
     0
 49
-2.54
 74
     0
 49
2.54
 74
     0
 49
-2.54
 74
     0
  0
LTYPE
  5
6E
330
5
100
AcDbSymbolTableRecord
100
AcDbLinetypeTableRecord
  2
DOT2
 70
     0
  3
Dot (.5x) ........................................
 72
    65
 73
     2
 40
0.635
 49
0.0
 74
     0
 49
-0.635
 74
     0
  0
ENDTAB
  0
TABLE
  2
LAYER
  5
2
102
{ACAD_XDICTIONARY
360
220
102
}
330
0
100
AcDbSymbolTable
 70
    18
  0
LAYER
  5
10
330
2
100
AcDbSymbolTableRecord
100
AcDbLayerTableRecord
  2
0
 70
     0
 62
     7
  6
Continuous
370
    -3
390
F
  0
LAYER
  5
6F
330
2
100
AcDbSymbolTableRecord
100
AcDbLayerTableRecord
  2
FORMAT
 70
     0
 62
     2
  6
Continuous
370
    -3
390
F
  0
LAYER
  5
70
330
2
100
AcDbSymbolTableRecord
100
AcDbLayerTableRecord
  2
외형선
 70
     0
 62
     4
  6
Continuous
370
    30
390
F
  0
LAYER
  5
71
330
2
100
AcDbSymbolTableRecord
100
AcDbLayerTableRecord
  2
숨은선
 70
     0
 62
     2
  6
HIDDEN
370
    15
390
F
  0
LAYER
  5
72
330
2
100
AcDbSymbolTableRecord
100
AcDbLayerTableRecord
  2
중심선
 70
     0
 62
     1
  6
CENTERX2
370
    -3
390
F
  0
LAYER
  5
73
330
2
100
AcDbSymbolTableRecord
100
AcDbLayerTableRecord
  2
파단선
 70
     0
 62
     4
  6
Continuous
370
    -3
390
F
  0
LAYER
  5
74
330
2
100
AcDbSymbolTableRecord
100
AcDbLayerTableRecord
  2
해칭선
 70
     0
 62
   100
  6
Continuous
370
    -3
390
F
  0
LAYER
  5
75
330
2
100
AcDbSymbolTableRecord
100
AcDbLayerTableRecord
  2
가는실선
 70
     0
 62
     4
  6
Continuous
370
    -3
390
F
  0
LAYER
  5
76
330
2
100
AcDbSymbolTableRecord
100
AcDbLayerTableRecord
  2
치수_보조선
 70
     0
 62
     4
  6
Continuous
370
    -3
390
F
  0
LAYER
  5
77
330
2
100
AcDbSymbolTableRecord
100
AcDbLayerTableRecord
  2
치수문자_일반주서
 70
     0
 62
     7
  6
Continuous
370
    15
390
F
  0
LAYER
  5
78
330
2
100
AcDbSymbolTableRecord
100
AcDbLayerTableRecord
  2
개별주서
 70
     0
 62
   100
  6
Continuous
370
    30
390
F
  0
LAYER
  5
79
330
2
100
AcDbSymbolTableRecord
100
AcDbLayerTableRecord
  2
중간선
 70
     0
 62
     2
  6
Continuous
370
    15
390
F
  0
LAYER
  5
7A
330
2
100
AcDbSymbolTableRecord
100
AcDbLayerTableRecord
  2
윤곽선
 70
     0
 62
     3
  6
Continuous
370
    40
390
F
  0
LAYER
  5
7B
330
2
100
AcDbSymbolTableRecord
100
AcDbLayerTableRecord
  2
중심마크
 70
     0
 62
   100
  6
Continuous
370
    30
390
F
  0
LAYER
  5
7C
330
2
100
AcDbSymbolTableRecord
100
AcDbLayerTableRecord
  2
가상선
 70
     0
 62
     4
  6
PHANTOM
370
    -3
390
F
  0
LAYER
  5
7D
330
2
100
AcDbSymbolTableRecord
100
AcDbLayerTableRecord
  2
특수지정선
 70
     0
 62
     5
  6
CENTERX2
370
    60
390
F
  0
LAYER
  5
7E
330
2
100
AcDbSymbolTableRecord
100
AcDbLayerTableRecord
  2
참조1
 70
     0
 62
    -4
  6
Continuous
370
    -3
390
F
  0
LAYER
  5
168
330
2
100
AcDbSymbolTableRecord
100
AcDbLayerTableRecord
  2
Defpoints
 70
     0
 62
     7
  6
Continuous
290
     0
370
    -3
390
F
  0
ENDTAB
  0
TABLE
  2
STYLE
  5
3
330
0
100
AcDbSymbolTable
 70
     2
  0
STYLE
  5
11
330
3
100
AcDbSymbolTableRecord
100
AcDbTextStyleTableRecord
  2
Standard
 70
     0
 40
0.0
 41
1.0
 50
0.0
 71
     0
 42
3.5
  3
txt
  4

  0
STYLE
  5
94
330
3
100
AcDbSymbolTableRecord
100
AcDbTextStyleTableRecord
  2
SLDTEXTSTYLE0
 70
     0
 40
0.0
 41
0.75
 50
0.0
 71
     0
 42
3.5
  3
TXT
  4

  0
ENDTAB
  0
TABLE
  2
VIEW
  5
6
330
0
100
AcDbSymbolTable
 70
     0
  0
ENDTAB
  0
TABLE
  2
UCS
  5
7
330
0
100
AcDbSymbolTable
 70
     0
  0
ENDTAB
  0
TABLE
  2
APPID
  5
9
330
0
100
AcDbSymbolTable
 70
     3
  0
APPID
  5
12
330
9
100
AcDbSymbolTableRecord
100
AcDbRegAppTableRecord
  2
ACAD
 70
     0
  0
APPID
  5
174
330
9
100
AcDbSymbolTableRecord
100
AcDbRegAppTableRecord
  2
PE_URL
 70
     0
  0
APPID
  5
175
330
9
100
AcDbSymbolTableRecord
100
AcDbRegAppTableRecord
  2
ACAD_DSTYLE_DIMRADIAL_EXTENSION
 70
     0
  0
ENDTAB
  0
TABLE
  2
DIMSTYLE
  5
A
330
0
100
AcDbSymbolTable
 70
     4
100
AcDbDimStyleTable
  0
DIMSTYLE
105
27
330
A
100
AcDbSymbolTableRecord
100
AcDbDimStyleTableRecord
  2
ISO-25
 70
     0
 41
2.5
 42
0.625
 43
3.75
 44
1.25
 73
     0
 74
     0
 77
     1
 78
     8
140
2.5
141
2.5
143
0.03937007874016
147
0.625
171
     3
172
     1
178
     0
271
     2
272
     2
274
     3
278
    44
283
     0
284
     8
340
11
  0
DIMSTYLE
105
E5
102
{ACAD_REACTORS
330
E4
330
1D4
330
1E1
330
F9
330
10E
330
121
102
}
330
A
100
AcDbSymbolTableRecord
100
AcDbDimStyleTableRecord
  2
SLDDIMSTYLE0
 70
     0
 41
3.302
 44
0.0
 45
0.000000001
 73
     0
 74
     0
 77
     1
 78
    12
 79
     3
140
3.5
143
0.0393700787401575
147
0.875
148
0.000000001
170
     1
172
     1
173
     1
178
     0
271
     2
272
     2
276
     2
284
    12
289
     0
340
94
  0
DIMSTYLE
105
FA
102
{ACAD_REACTORS
330
217
102
}
330
A
100
AcDbSymbolTableRecord
100
AcDbDimStyleTableRecord
  2
SLDDIMSTYLE1
 70
     0
 41
3.302
 44
0.0
 45
0.000000001
 73
     0
 74
     0
 77
     1
 78
     4
 79
     1
140
3.5
143
0.0393700787401575
147
0.875
148
0.000000001
170
     1
173
     1
178
     0
271
     2
272
     2
276
     2
284
    12
340
94
  0
DIMSTYLE
105
122
102
{ACAD_REACTORS
330
1EE
330
1FD
102
}
330
A
100
AcDbSymbolTableRecord
100
AcDbDimStyleTableRecord
  2
SLDDIMSTYLE2
 70
     0
 41
3.302
 44
0.0
 45
0.000000001
 73
     0
 74
     0
 77
     1
 78
    12
 79
     3
140
3.5
143
0.0393700787401575
147
0.875
148
0.000000001
170
     1
173
     1
178
     0
271
     2
272
     2
276
     2
284
    12
340
94
  0
ENDTAB
  0
TABLE
  2
BLOCK_RECORD
  5
1
330
0
100
AcDbSymbolTable
 70
    18
  0
BLOCK_RECORD
  5
1F
330
1
100
AcDbSymbolTableRecord
100
AcDbBlockTableRecord
  2
*Model_Space
340
22
  0
BLOCK_RECORD
  5
1B
330
1
100
AcDbSymbolTableRecord
100
AcDbBlockTableRecord
  2
*Paper_Space
340
1E
  0
BLOCK_RECORD
  5
23
330
1
100
AcDbSymbolTableRecord
100
AcDbBlockTableRecord
  2
*Paper_Space0
340
26
  0
BLOCK_RECORD
  5
7F
330
1
100
AcDbSymbolTableRecord
100
AcDbBlockTableRecord
  2
블럭10
340
0
102
{BLKREFS
331
DD
102
}
  0
BLOCK_RECORD
  5
E6
330
1
100
AcDbSymbolTableRecord
100
AcDbBlockTableRecord
  2
_D
340
0
  0
BLOCK_RECORD
  5
FB
330
1
100
AcDbSymbolTableRecord
100
AcDbBlockTableRecord
  2
_D_1
340
0
  0
BLOCK_RECORD
  5
10F
330
1
100
AcDbSymbolTableRecord
100
AcDbBlockTableRecord
  2
_D_2
340
0
  0
BLOCK_RECORD
  5
123
330
1
100
AcDbSymbolTableRecord
100
AcDbBlockTableRecord
  2
_D_3
340
0
  0
BLOCK_RECORD
  5
13C
330
1
100
AcDbSymbolTableRecord
100
AcDbBlockTableRecord
  2
SW_DOWELSYMBOL_0
340
0
102
{BLKREFS
331
142
331
20C
331
0
102
}
  0
BLOCK_RECORD
  5
1FE
330
1
100
AcDbSymbolTableRecord
100
AcDbBlockTableRecord
  2
_D_4
340
0
  0
BLOCK_RECORD
  5
218
330
1
100
AcDbSymbolTableRecord
100
AcDbBlockTableRecord
  2
*D9
340
0
  0
BLOCK_RECORD
  5
224
330
1
100
AcDbSymbolTableRecord
100
AcDbBlockTableRecord
  2
*D10
340
0
  0
BLOCK_RECORD
  5
230
330
1
100
AcDbSymbolTableRecord
100
AcDbBlockTableRecord
  2
*D11
340
0
  0
BLOCK_RECORD
  5
23C
330
1
100
AcDbSymbolTableRecord
100
AcDbBlockTableRecord
  2
*D12
340
0
  0
BLOCK_RECORD
  5
297
330
1
100
AcDbSymbolTableRecord
100
AcDbBlockTableRecord
  2
*D13
340
0
  0
BLOCK_RECORD
  5
2A3
330
1
100
AcDbSymbolTableRecord
100
AcDbBlockTableRecord
  2
*D14
340
0
  0
BLOCK_RECORD
  5
2AF
330
1
100
AcDbSymbolTableRecord
100
AcDbBlockTableRecord
  2
*D15
340
0
  0
BLOCK_RECORD
  5
2BD
330
1
100
AcDbSymbolTableRecord
100
AcDbBlockTableRecord
  2
*D16
340
0
  0
BLOCK_RECORD
  5
2CB
330
1
100
AcDbSymbolTableRecord
100
AcDbBlockTableRecord
  2
*D17
340
0
  0
ENDTAB
  0
ENDSEC
  0
SECTION
  2
BLOCKS
  0
BLOCK
  5
20
330
1F
100
AcDbEntity
  8
0
100
AcDbBlockBegin
  2
*Model_Space
 70
     0
 10
0.0
 20
0.0
 30
0.0
  3
*Model_Space
  1
*Model_Space
  0
ENDBLK
  5
21
330
1F
100
AcDbEntity
  8
0
100
AcDbBlockEnd
  0
BLOCK
  5
1C
330
1B
100
AcDbEntity
 67
     1
  8
0
100
AcDbBlockBegin
  2
*Paper_Space
 70
     0
 10
0.0
 20
0.0
 30
0.0
  3
*Paper_Space
  1
*Paper_Space
  0
ENDBLK
  5
1D
330
1B
100
AcDbEntity
 67
     1
  8
0
100
AcDbBlockEnd
  0
BLOCK
  5
24
330
23
100
AcDbEntity
  8
0
100
AcDbBlockBegin
  2
*Paper_Space0
 70
     0
 10
0.0
 20
0.0
 30
0.0
  3
*Paper_Space0
  1
*Paper_Space0
  0
ENDBLK
  5
25
330
23
100
AcDbEntity
  8
0
100
AcDbBlockEnd
  0
BLOCK
  5
80
330
7F
100
AcDbEntity
  8
0
100
AcDbBlockBegin
  2
블럭10
 70
     2
 10
0.0
 20
0.0
 30
0.0
  3
블럭10
  1
블럭10
  0
ELLIPSE
  5
82
330
7F
100
AcDbEntity
  8
중심선
100
AcDbEllipse
 10
20.54032771741204
 20
12.0471743016438
 30
0.0
 11
6.600054785286829
 21
-1.261213355974178E-13
 31
0.0
210
0.0
220
0.0
230
1.0
 40
0.636358354079598
 41
0.9219305317359503
 42
6.513795318482858
  0
ELLIPSE
  5
83
330
7F
100
AcDbEntity
  8
중심선
100
AcDbEllipse
 10
20.54032771746488
 20
12.04717430159265
 30
0.0
 11
3.960054785062283
 21
1.540847449632565E-10
 31
0.0
210
0.0
220
0.0
230
1.0
 40
0.3939339440162632
 41
1.131841032648279
 42
5.62031148352944
  0
LINE
  5
84
330
7F
100
AcDbEntity
  8
중심선
100
AcDbLine
 10
2.268634060543552
 20
16.24717430164393
 30
0.0
 11
5.714909304380834
 21
16.24717430164393
 31
0.0
  0
LINE
  5
85
330
7F
100
AcDbEntity
  8
중심선
100
AcDbLine
 10
5.245725140726316
 20
7.84717430164391
 30
0.0
 11
8.692000384563599
 21
7.84717430164391
 31
0.0
  0
LINE
  5
86
330
7F
100
AcDbEntity
  8
중심선
100
AcDbLine
 10
15.74043728645272
 20
16.24717430164393
 30
0.0
 11
8.692000384563599
 21
7.84717430164391
 31
0.0
  0
LINE
  5
87
330
7F
100
AcDbEntity
  8
중심선
100
AcDbLine
 10
0.1404042013395286
 20
13.71084872107135
 30
0.0
 11
3.58671253028996
 21
13.71088815037384
 31
0.0
  0
LINE
  5
88
330
7F
100
AcDbEntity
  8
중심선
100
AcDbLine
 10
2.750260043222114
 20
10.84717430164391
 30
0.0
 11
6.196535287059397
 21
10.84717430164391
 31
0.0
  0
LINE
  5
89
330
7F
100
AcDbEntity
  8
중심선
100
AcDbLine
 10
12.29416204261559
 20
16.24717430164393
 30
0.0
 11
5.245725140726316
 21
7.84717430164391
 31
0.0
  0
LINE
  5
8A
330
7F
100
AcDbEntity
  8
중심선
100
AcDbLine
 10
10.72767329541681
 20
16.24717430164393
 30
0.0
 11
6.196535287059397
 21
10.84717430164391
 31
0.0
  0
LINE
  5
8B
330
7F
100
AcDbEntity
  8
중심선
100
AcDbLine
 10
7.28139805157953
 20
16.24717430164393
 30
0.0
 11
2.750260043222114
 21
10.84717430164391
 31
0.0
  0
LINE
  5
8C
330
7F
100
AcDbEntity
  8
중심선
100
AcDbLine
 10
5.714909304380834
 20
16.24717430164393
 30
0.0
 11
3.58671253028996
 21
13.71088815037384
 31
0.0
  0
LINE
  5
8D
330
7F
100
AcDbEntity
  8
중심선
100
AcDbLine
 10
2.268634060543552
 20
16.24717430164393
 30
0.0
 11
0.1404042013395286
 21
13.71084872107135
 31
0.0
  0
LINE
  5
8E
330
7F
100
AcDbEntity
  8
중심선
100
AcDbLine
 10
7.28139805157953
 20
16.24717430164393
 30
0.0
 11
10.72767329541681
 21
16.24717430164393
 31
0.0
  0
LINE
  5
8F
330
7F
100
AcDbEntity
  8
중심선
100
AcDbLine
 10
12.29416204261559
 20
16.24717430164393
 30
0.0
 11
15.74043728645272
 21
16.24717430164393
 31
0.0
  0
LINE
  5
90
330
7F
100
AcDbEntity
  8
중심선
100
AcDbLine
 10
19.22036997980202
 20
11.08717430171403
 30
0.0
 11
23.66174974927406
 21
11.08717430171406
 31
0.0
  0
LINE
  5
91
330
7F
100
AcDbEntity
  8
중심선
100
AcDbLine
 10
19.22039502424796
 20
13.00717430171391
 30
0.0
 11
19.22036997980202
 21
11.08717430171403
 31
0.0
  0
LINE
  5
92
330
7F
100
AcDbEntity
  8
중심선
100
AcDbLine
 10
19.22039502424796
 20
13.00717430171391
 30
0.0
 11
26.96566020931264
 21
13.00717430171391
 31
0.0
  0
LINE
  5
93
330
7F
100
AcDbEntity
  8
중심선
100
AcDbLine
 10
22.22332737316547
 20
13.45928029700563
 30
0.0
 11
24.52862924686651
 21
15.39360700705356
 31
0.0
  0
ATTDEF
  5
95
330
7F
100
AcDbEntity
  8
FORMAT
 62
     2
100
AcDbText
 10
4.408487351596664
 20
2.075366912832191
 30
0.0
 40
4.233333333333333
  1
E5026040
 41
0.75
  7
SLDTEXTSTYLE0
 11
4.408487351596664
 21
-0.0412997538344756
 31
0.0
100
AcDbAttributeDefinition
  3

  2
AUTOATTR0
 70
     0
 74
     1
  0
ENDBLK
  5
81
330
7F
100
AcDbEntity
  8
0
100
AcDbBlockEnd
  0
BLOCK
  5
E7
330
E6
100
AcDbEntity
  8
0
100
AcDbBlockBegin
  2
_D
 70
     0
 10
0.0
 20
0.0
 30
0.0
  3
_D
  1
_D
  0
LINE
  5
E9
330
E6
100
AcDbEntity
  8
치수문자_일반주서
 62
     0
370
    -2
100
AcDbLine
 10
-63.2625
 20
7.93749999999998
 30
0.0
 11
-81.07500000000005
 21
7.937499999999915
 31
0.0
  0
LINE
  5
EA
330
E6
100
AcDbEntity
  8
치수문자_일반주서
 62
     0
370
    -2
100
AcDbLine
 10
-63.2625
 20
-7.93750000000002
 30
0.0
 11
-81.07499999999999
 21
-7.937500000000082
 31
0.0
  0
LINE
  5
EB
330
E6
100
AcDbEntity
  8
치수문자_일반주서
 62
     0
370
    -2
100
AcDbLine
 10
-81.07500000000005
 20
7.937499999999915
 30
0.0
 11
-81.07500000000017
 21
42.76024999999991
 31
0.0
  0
LINE
  5
EC
330
E6
100
AcDbEntity
  8
치수문자_일반주서
 62
     0
370
    -2
100
AcDbLine
 10
-81.07500000000005
 20
7.937499999999915
 30
0.0
 11
-81.07499999999999
 21
-7.937500000000082
 31
0.0
  0
LINE
  5
ED
330
E6
100
AcDbEntity
  8
치수문자_일반주서
 62
     0
370
    -2
100
AcDbLine
 10
-81.07500000000006
 20
11.23949999999991
 30
0.0
 11
-81.07500000000007
 21
14.54149999999991
 31
0.0
  0
LINE
  5
EE
330
E6
100
AcDbEntity
  8
치수문자_일반주서
 62
     0
370
    -2
100
AcDbLine
 10
-81.07499999999997
 20
-11.23950000000008
 30
0.0
 11
-81.07499999999996
 21
-14.54150000000008
 31
0.0
  0
SOLID
  5
EF
330
E6
100
AcDbEntity
  8
치수문자_일반주서
 62
     0
100
AcDbTrace
 10
-81.62533333333339
 20
11.23949999999991
 30
0.0
 11
-80.52466666666673
 21
11.23949999999992
 31
0.0
 12
-81.07500000000005
 22
7.937499999999915
 32
0.0
 13
-81.07500000000005
 23
7.937499999999915
 33
0.0
  0
SOLID
  5
F0
330
E6
100
AcDbEntity
  8
치수문자_일반주서
 62
     0
100
AcDbTrace
 10
-80.52466666666665
 20
-11.23950000000008
 30
0.0
 11
-81.6253333333333
 21
-11.23950000000008
 31
0.0
 12
-81.07499999999999
 22
-7.937500000000082
 32
0.0
 13
-81.07499999999999
 23
-7.937500000000082
 33
0.0
  0
MTEXT
  5
F1
330
E6
100
AcDbEntity
  8
치수문자_일반주서
 62
     0
100
AcDbMText
 10
-85.45000000000012
 20
28.7602499999999
 30
0.0
 40
3.5
 41
0.0
 71
     2
 72
     1
  1
\A1;%%c15.88 [5/8]
  7
SLDTEXTSTYLE0
 11
-3.580687802255623E-15
 21
1.0
 31
0.0
 73
     1
 44
1.0
  0
POINT
  5
2D5
330
E6
100
AcDbEntity
  8
Defpoints
 62
     0
100
AcDbPoint
 10
-63.2
 20
7.93749999999998
 30
0.0
  0
POINT
  5
2D6
330
E6
100
AcDbEntity
  8
Defpoints
 62
     0
100
AcDbPoint
 10
-63.2
 20
-7.93750000000002
 30
0.0
  0
POINT
  5
2D7
330
E6
100
AcDbEntity
  8
Defpoints
 62
     0
100
AcDbPoint
 10
-81.07499999999999
 20
-7.937500000000086
 30
0.0
  0
ENDBLK
  5
E8
330
E6
100
AcDbEntity
  8
0
100
AcDbBlockEnd
  0
BLOCK
  5
FC
330
FB
100
AcDbEntity
  8
0
100
AcDbBlockBegin
  2
_D_1
 70
     0
 10
0.0
 20
0.0
 30
0.0
  3
_D_1
  1
_D_1
  0
LINE
  5
FE
330
FB
100
AcDbEntity
  8
치수문자_일반주서
 62
     0
370
    -2
100
AcDbLine
 10
88.20000000000002
 20
7.999999999999995
 30
0.0
 11
88.20000000000002
 21
21.10713307670823
 31
0.0
  0
LINE
  5
FF
330
FB
100
AcDbEntity
  8
치수문자_일반주서
 62
     0
370
    -2
100
AcDbLine
 10
12.0
 20
7.311349474327655
 30
0.0
 11
12.0
 21
21.10713307670823
 31
0.0
  0
LINE
  5
100
330
FB
100
AcDbEntity
  8
치수문자_일반주서
 62
     0
370
    -2
100
AcDbLine
 10
84.89800000000002
 20
21.10713307670823
 30
0.0
 11
15.302
 21
21.10713307670823
 31
0.0
  0
SOLID
  5
101
330
FB
100
AcDbEntity
  8
치수문자_일반주서
 62
     0
100
AcDbTrace
 10
84.89800000000002
 20
20.5567997433749
 30
0.0
 11
84.89800000000002
 21
21.65746641004156
 31
0.0
 12
88.20000000000002
 22
21.10713307670823
 32
0.0
 13
88.20000000000002
 23
21.10713307670823
 33
0.0
  0
SOLID
  5
102
330
FB
100
AcDbEntity
  8
치수문자_일반주서
 62
     0
100
AcDbTrace
 10
15.302
 20
21.65746641004156
 30
0.0
 11
15.302
 21
20.5567997433749
 31
0.0
 12
12.0
 22
21.10713307670823
 32
0.0
 13
12.0
 23
21.10713307670823
 33
0.0
  0
MTEXT
  5
103
330
FB
100
AcDbEntity
  8
치수문자_일반주서
 62
     0
100
AcDbMText
 10
50.10000000000001
 20
25.48213307670823
 30
0.0
 40
3.5
 41
0.0
 71
     2
 72
     1
  1
\A1;76.2 [3]
  7
SLDTEXTSTYLE0
 73
     1
 44
1.0
  0
POINT
  5
104
330
FB
100
AcDbEntity
  8
Defpoints
 62
     0
100
AcDbPoint
 10
88.20000000000002
 20
7.937499999999995
 30
0.0
  0
POINT
  5
105
330
FB
100
AcDbEntity
  8
Defpoints
 62
     0
100
AcDbPoint
 10
12.0
 20
7.248849474327655
 30
0.0
  0
POINT
  5
106
330
FB
100
AcDbEntity
  8
Defpoints
 62
     0
100
AcDbPoint
 10
12.0
 20
21.10713307670823
 30
0.0
  0
ENDBLK
  5
FD
330
FB
100
AcDbEntity
  8
0
100
AcDbBlockEnd
  0
BLOCK
  5
110
330
10F
100
AcDbEntity
  8
0
100
AcDbBlockBegin
  2
_D_2
 70
     0
 10
0.0
 20
0.0
 30
0.0
  3
_D_2
  1
_D_2
  0
LINE
  5
112
330
10F
100
AcDbEntity
  8
치수문자_일반주서
 62
     0
370
    -2
100
AcDbLine
 10
88.20000000000003
 20
7.999999999999995
 30
0.0
 11
88.20000000000003
 21
38.05774771491231
 31
0.0
  0
LINE
  5
113
330
10F
100
AcDbEntity
  8
치수문자_일반주서
 62
     0
370
    -2
100
AcDbLine
 10
-64.2
 20
6.999999999999985
 30
0.0
 11
-64.2
 21
38.05774771491231
 31
0.0
  0
LINE
  5
114
330
10F
100
AcDbEntity
  8
치수문자_일반주서
 62
     0
370
    -2
100
AcDbLine
 10
84.89800000000002
 20
38.05774771491231
 30
0.0
 11
-60.898
 21
38.05774771491231
 31
0.0
  0
SOLID
  5
115
330
10F
100
AcDbEntity
  8
치수문자_일반주서
 62
     0
100
AcDbTrace
 10
84.89800000000002
 20
37.50741438157898
 30
0.0
 11
84.89800000000002
 21
38.60808104824564
 31
0.0
 12
88.20000000000003
 22
38.05774771491231
 32
0.0
 13
88.20000000000003
 23
38.05774771491231
 33
0.0
  0
SOLID
  5
116
330
10F
100
AcDbEntity
  8
치수문자_일반주서
 62
     0
100
AcDbTrace
 10
-60.898
 20
38.60808104824564
 30
0.0
 11
-60.898
 21
37.50741438157898
 31
0.0
 12
-64.2
 22
38.05774771491231
 32
0.0
 13
-64.2
 23
38.05774771491231
 33
0.0
  0
MTEXT
  5
117
330
10F
100
AcDbEntity
  8
치수문자_일반주서
 62
     0
100
AcDbMText
 10
12.0
 20
42.43274771491231
 30
0.0
 40
3.5
 41
0.0
 71
     2
 72
     1
  1
\A1;152.4 [6]
  7
SLDTEXTSTYLE0
 73
     1
 44
1.0
  0
POINT
  5
118
330
10F
100
AcDbEntity
  8
Defpoints
 62
     0
100
AcDbPoint
 10
88.20000000000003
 20
7.937499999999995
 30
0.0
  0
POINT
  5
119
330
10F
100
AcDbEntity
  8
Defpoints
 62
     0
100
AcDbPoint
 10
-64.2
 20
6.937499999999985
 30
0.0
  0
POINT
  5
11A
330
10F
100
AcDbEntity
  8
Defpoints
 62
     0
100
AcDbPoint
 10
-64.2
 20
38.05774771491231
 30
0.0
  0
ENDBLK
  5
111
330
10F
100
AcDbEntity
  8
0
100
AcDbBlockEnd
  0
BLOCK
  5
124
330
123
100
AcDbEntity
  8
0
100
AcDbBlockBegin
  2
_D_3
 70
     0
 10
0.0
 20
0.0
 30
0.0
  3
_D_3
  1
_D_3
  0
LINE
  5
126
330
123
100
AcDbEntity
  8
치수문자_일반주서
 62
     0
370
    -2
100
AcDbLine
 10
88.26249999999999
 20
-7.937500000000005
 30
0.0
 11
101.9303461546643
 21
-7.937499999999954
 31
0.0
  0
LINE
  5
127
330
123
100
AcDbEntity
  8
치수문자_일반주서
 62
     0
370
    -2
100
AcDbLine
 10
88.26250000000002
 20
7.937499999999995
 30
0.0
 11
101.9303461546642
 21
7.937500000000046
 31
0.0
  0
LINE
  5
128
330
123
100
AcDbEntity
  8
치수문자_일반주서
 62
     0
370
    -2
100
AcDbLine
 10
101.9303461546642
 20
7.937500000000046
 30
0.0
 11
101.9303461546641
 21
42.76025000000004
 31
0.0
  0
LINE
  5
129
330
123
100
AcDbEntity
  8
치수문자_일반주서
 62
     0
370
    -2
100
AcDbLine
 10
101.9303461546643
 20
-7.937499999999954
 30
0.0
 11
101.9303461546642
 21
7.937500000000046
 31
0.0
  0
LINE
  5
12A
330
123
100
AcDbEntity
  8
치수문자_일반주서
 62
     0
370
    -2
100
AcDbLine
 10
101.9303461546643
 20
-11.23949999999995
 30
0.0
 11
101.9303461546643
 21
-14.54149999999995
 31
0.0
  0
LINE
  5
12B
330
123
100
AcDbEntity
  8
치수문자_일반주서
 62
     0
370
    -2
100
AcDbLine
 10
101.9303461546642
 20
11.23950000000005
 30
0.0
 11
101.9303461546642
 21
14.54150000000005
 31
0.0
  0
SOLID
  5
12C
330
123
100
AcDbEntity
  8
치수문자_일반주서
 62
     0
100
AcDbTrace
 10
102.4806794879976
 20
-11.23949999999995
 30
0.0
 11
101.380012821331
 21
-11.23949999999996
 31
0.0
 12
101.9303461546643
 22
-7.937499999999954
 32
0.0
 13
101.9303461546643
 23
-7.937499999999954
 33
0.0
  0
SOLID
  5
12D
330
123
100
AcDbEntity
  8
치수문자_일반주서
 62
     0
100
AcDbTrace
 10
101.3800128213309
 20
11.23950000000004
 30
0.0
 11
102.4806794879975
 21
11.23950000000005
 31
0.0
 12
101.9303461546642
 22
7.937500000000046
 32
0.0
 13
101.9303461546642
 23
7.937500000000046
 33
0.0
  0
MTEXT
  5
12E
330
123
100
AcDbEntity
  8
치수문자_일반주서
 62
     0
100
AcDbMText
 10
97.55534615466414
 20
28.76025000000003
 30
0.0
 40
3.5
 41
0.0
 71
     2
 72
     1
  1
\A1;%%c15.88 [5/8]
  7
SLDTEXTSTYLE0
 11
-3.580687802255623E-15
 21
1.0
 31
0.0
 73
     1
 44
1.0
  0
POINT
  5
12F
330
123
100
AcDbEntity
  8
Defpoints
 62
     0
100
AcDbPoint
 10
88.19999999999999
 20
-7.937500000000005
 30
0.0
  0
POINT
  5
130
330
123
100
AcDbEntity
  8
Defpoints
 62
     0
100
AcDbPoint
 10
88.20000000000002
 20
7.937499999999995
 30
0.0
  0
POINT
  5
131
330
123
100
AcDbEntity
  8
Defpoints
 62
     0
100
AcDbPoint
 10
101.9303461546642
 20
7.937500000000046
 30
0.0
  0
ENDBLK
  5
125
330
123
100
AcDbEntity
  8
0
100
AcDbBlockEnd
  0
BLOCK
  5
13D
330
13C
100
AcDbEntity
  8
0
100
AcDbBlockBegin
  2
SW_DOWELSYMBOL_0
 70
     0
 10
0.0
 20
0.0
 30
0.0
  3
SW_DOWELSYMBOL_0
  1
SW_DOWELSYMBOL_0
  0
CIRCLE
  5
13F
330
13C
100
AcDbEntity
  8
해칭선
 62
     0
100
AcDbCircle
 10
0.0
 20
0.0
 30
0.0
 40
2.999999999999996
  0
HATCH
  5
140
330
13C
100
AcDbEntity
  8
0
  6
Continuous
 62
     0
370
     0
100
AcDbHatch
 10
0.0
 20
0.0
 30
0.0
210
0.0
220
0.0
230
1.0
  2
SOLID
 70
     1
 71
     0
 91
        1
 92
        0
 93
        3
 72
     2
 10
0.0
 20
0.0
 40
2.999999999999996
 50
0.0
 51
90.0
 73
     1
 72
     1
 10
0.0
 20
2.999999999999996
 11
0.0
 21
0.0
 72
     1
 10
0.0
 20
0.0
 11
2.999999999999996
 21
0.0
 97
        0
 75
     0
 76
     1
 98
        1
 10
0.0
 20
0.0
  0
HATCH
  5
141
330
13C
100
AcDbEntity
  8
0
  6
Continuous
 62
     0
370
     0
100
AcDbHatch
 10
0.0
 20
0.0
 30
0.0
210
0.0
220
0.0
230
1.0
  2
SOLID
 70
     1
 71
     0
 91
        1
 92
        0
 93
        3
 72
     2
 10
0.0
 20
0.0
 40
2.999999999999996
 50
180.0
 51
270.0000000000008
 73
     1
 72
     1
 10
0.0
 20
-2.999999999999996
 11
0.0
 21
0.0
 72
     1
 10
0.0
 20
0.0
 11
-2.999999999999996
 21
0.0
 97
        0
 75
     0
 76
     1
 98
        1
 10
0.0
 20
0.0
  0
ENDBLK
  5
13E
330
13C
100
AcDbEntity
  8
0
100
AcDbBlockEnd
  0
BLOCK
  5
1FF
330
1FE
100
AcDbEntity
  8
0
100
AcDbBlockBegin
  2
_D_4
 70
     0
 10
0.0
 20
0.0
 30
0.0
  3
_D_4
  1
_D_4
  0
LINE
  5
200
330
1FE
100
AcDbEntity
  8
치수문자_일반주서
 62
     0
370
    -2
100
AcDbLine
 10
102.4375000000001
 20
36.22143424691529
 30
0.0
 11
117.3750000000001
 21
36.22143424691535
 31
0.0
  0
LINE
  5
201
330
1FE
100
AcDbEntity
  8
치수문자_일반주서
 62
     0
370
    -2
100
AcDbLine
 10
102.4375000000001
 20
22.22143424691529
 30
0.0
 11
117.3750000000001
 21
22.22143424691535
 31
0.0
  0
LINE
  5
202
330
1FE
100
AcDbEntity
  8
치수문자_일반주서
 62
     0
370
    -2
100
AcDbLine
 10
117.3750000000001
 20
36.22143424691535
 30
0.0
 11
117.3750000000001
 21
22.22143424691535
 31
0.0
  0
LINE
  5
203
330
1FE
100
AcDbEntity
  8
치수문자_일반주서
 62
     0
370
    -2
100
AcDbLine
 10
117.3750000000001
 20
39.52343424691535
 30
0.0
 11
117.375
 21
42.82543424691535
 31
0.0
  0
LINE
  5
204
330
1FE
100
AcDbEntity
  8
치수문자_일반주서
 62
     0
370
    -2
100
AcDbLine
 10
117.3750000000001
 20
18.91943424691535
 30
0.0
 11
117.3750000000001
 21
15.61743424691535
 31
0.0
  0
SOLID
  5
205
330
1FE
100
AcDbEntity
  8
치수문자_일반주서
 62
     0
100
AcDbTrace
 10
116.8246666666667
 20
39.52343424691535
 30
0.0
 11
117.9253333333334
 21
39.52343424691535
 31
0.0
 12
117.3750000000001
 22
36.22143424691535
 32
0.0
 13
117.3750000000001
 23
36.22143424691535
 33
0.0
  0
SOLID
  5
206
330
1FE
100
AcDbEntity
  8
치수문자_일반주서
 62
     0
100
AcDbTrace
 10
117.9253333333335
 20
18.91943424691535
 30
0.0
 11
116.8246666666668
 21
18.91943424691535
 31
0.0
 12
117.3750000000001
 22
22.22143424691535
 32
0.0
 13
117.3750000000001
 23
22.22143424691535
 33
0.0
  0
MTEXT
  5
207
330
1FE
100
AcDbEntity
  8
치수문자_일반주서
 62
     0
100
AcDbMText
 10
113.0000000000001
 20
29.28713862862833
 30
0.0
 40
3.5
 41
0.0
 71
     2
 72
     1
  1
\A1;%%c14 [0.55]
  7
SLDTEXTSTYLE0
 11
-3.045183153257572E-15
 21
1.0
 31
0.0
 73
     1
 44
1.0
  0
POINT
  5
208
330
1FE
100
AcDbEntity
  8
Defpoints
 62
     0
100
AcDbPoint
 10
102.3750000000001
 20
36.22143424691529
 30
0.0
  0
POINT
  5
209
330
1FE
100
AcDbEntity
  8
Defpoints
 62
     0
100
AcDbPoint
 10
102.3750000000001
 20
22.22143424691529
 30
0.0
  0
POINT
  5
20A
330
1FE
100
AcDbEntity
  8
Defpoints
 62
     0
100
AcDbPoint
 10
117.3750000000001
 20
22.22143424691535
 30
0.0
  0
ENDBLK
  5
20B
330
1FE
100
AcDbEntity
  8
0
100
AcDbBlockEnd
  0
BLOCK
  5
219
330
218
100
AcDbEntity
  8
0
100
AcDbBlockBegin
  2
*D9
 70
     1
 10
0.0
 20
0.0
 30
0.0
  3
*D9
  1
*D8
  0
LINE
  5
21A
330
218
100
AcDbEntity
  8
치수문자_일반주서
 62
     0
370
    -2
100
AcDbLine
 10
103.8657751816695
 20
19.48229575403651
 30
0.0
 11
120.1921280501954
 21
-7.081888143622854
 31
0.0
  0
MTEXT
  5
21B
330
218
100
AcDbEntity
  8
치수문자_일반주서
 62
     0
100
AcDbMText
 10
115.6706384014277
 20
5.288158154535728
 30
0.0
 40
3.5
 41
0.0
 71
     5
 72
     1
  1
\A1;R.50 [R0.02]
  7
SLDTEXTSTYLE0
 11
0.5236126201129557
 21
-0.8519564684057781
 31
0.0
 73
     1
 44
1.0
  0
SOLID
  5
21C
330
218
100
AcDbEntity
  8
치수문자_일반주서
 62
     0
100
AcDbTrace
 10
104.3346352247821
 20
19.77045723263868
 30
0.0
 11
103.3969151385569
 21
19.19413427543435
 31
0.0
 12
102.1368063100565
 22
22.29545601271239
 32
0.0
 13
102.1368063100565
 23
22.29545601271239
 33
0.0
  0
LINE
  5
21D
330
218
100
AcDbEntity
  8
치수문자_일반주서
 62
     0
100
AcDbLine
 10
101.785
 20
22.72143424691529
 30
0.0
 11
101.965
 21
22.72143424691529
 31
0.0
  0
LINE
  5
21E
330
218
100
AcDbEntity
  8
치수문자_일반주서
 62
     0
100
AcDbLine
 10
101.875
 20
22.63143424691529
 30
0.0
 11
101.875
 21
22.81143424691529
 31
0.0
  0
POINT
  5
24A
330
218
100
AcDbEntity
  8
Defpoints
 62
     0
100
AcDbPoint
 10
102.1368063100565
 20
22.29545601271239
 30
0.0
  0
POINT
  5
24B
330
218
100
AcDbEntity
  8
Defpoints
 62
     0
100
AcDbPoint
 10
101.875
 20
22.72143424691529
 30
0.0
  0
ENDBLK
  5
21F
330
218
100
AcDbEntity
  8
0
100
AcDbBlockEnd
  0
BLOCK
  5
225
330
224
100
AcDbEntity
  8
0
100
AcDbBlockBegin
  2
*D10
 70
     1
 10
0.0
 20
0.0
 30
0.0
  3
*D10
  1
*D10
  0
LINE
  5
227
330
224
100
AcDbEntity
  8
치수문자_일반주서
 62
     0
370
    -2
100
AcDbLine
 10
19.37500000000004
 20
35.78393424691529
 30
0.0
 11
19.37500000000004
 21
70.88391841499404
 31
0.0
  0
LINE
  5
228
330
224
100
AcDbEntity
  8
치수문자_일반주서
 62
     0
370
    -2
100
AcDbLine
 10
102.3750000000001
 20
36.34643424691529
 30
0.0
 11
102.3750000000001
 21
70.88391841499404
 31
0.0
  0
LINE
  5
229
330
224
100
AcDbEntity
  8
치수문자_일반주서
 62
     0
370
    -2
100
AcDbLine
 10
22.67700000000004
 20
70.88391841499404
 30
0.0
 11
99.07300000000006
 21
70.88391841499404
 31
0.0
  0
SOLID
  5
22A
330
224
100
AcDbEntity
  8
치수문자_일반주서
 62
     0
100
AcDbTrace
 10
22.67700000000004
 20
71.43425174832737
 30
0.0
 11
22.67700000000004
 21
70.33358508166071
 31
0.0
 12
19.37500000000004
 22
70.88391841499404
 32
0.0
 13
19.37500000000004
 23
70.88391841499404
 33
0.0
  0
SOLID
  5
22B
330
224
100
AcDbEntity
  8
치수문자_일반주서
 62
     0
100
AcDbTrace
 10
99.07300000000006
 20
70.33358508166071
 30
0.0
 11
99.07300000000006
 21
71.43425174832737
 31
0.0
 12
102.3750000000001
 22
70.88391841499404
 32
0.0
 13
102.3750000000001
 23
70.88391841499404
 33
0.0
  0
MTEXT
  5
22C
330
224
100
AcDbEntity
  8
치수문자_일반주서
 62
     0
100
AcDbMText
 10
60.87500000000005
 20
75.25891841499404
 30
0.0
 40
3.5
 41
0.0
 71
     2
 72
     1
  1
\A1;83 [3.27]
  7
SLDTEXTSTYLE0
 73
     1
 44
1.0
  0
POINT
  5
22D
330
224
100
AcDbEntity
  8
Defpoints
 62
     0
100
AcDbPoint
 10
19.37500000000004
 20
35.72143424691529
 30
0.0
  0
POINT
  5
22E
330
224
100
AcDbEntity
  8
Defpoints
 62
     0
100
AcDbPoint
 10
102.3750000000001
 20
36.28393424691529
 30
0.0
  0
POINT
  5
22F
330
224
100
AcDbEntity
  8
Defpoints
 62
     0
100
AcDbPoint
 10
102.3750000000001
 20
70.88391841499404
 30
0.0
  0
ENDBLK
  5
226
330
224
100
AcDbEntity
  8
0
100
AcDbBlockEnd
  0
BLOCK
  5
231
330
230
100
AcDbEntity
  8
0
100
AcDbBlockBegin
  2
*D11
 70
     1
 10
0.0
 20
0.0
 30
0.0
  3
*D11
  1
*D11
  0
LINE
  5
233
330
230
100
AcDbEntity
  8
치수문자_일반주서
 62
     0
370
    -2
100
AcDbLine
 10
76.37504186422882
 20
28.62038676313042
 30
0.0
 11
76.37504186422882
 21
61.90091383617725
 31
0.0
  0
LINE
  5
234
330
230
100
AcDbEntity
  8
치수문자_일반주서
 62
     0
370
    -2
100
AcDbLine
 10
102.3750000000001
 20
36.28393424691529
 30
0.0
 11
102.3750000000001
 21
61.90091383617725
 31
0.0
  0
LINE
  5
235
330
230
100
AcDbEntity
  8
치수문자_일반주서
 62
     0
370
    -2
100
AcDbLine
 10
79.67704186422881
 20
61.90091383617725
 30
0.0
 11
99.07300000000006
 21
61.90091383617725
 31
0.0
  0
SOLID
  5
236
330
230
100
AcDbEntity
  8
치수문자_일반주서
 62
     0
100
AcDbTrace
 10
79.67704186422881
 20
62.45124716951059
 30
0.0
 11
79.67704186422881
 21
61.35058050284392
 31
0.0
 12
76.37504186422882
 22
61.90091383617725
 32
0.0
 13
76.37504186422882
 23
61.90091383617725
 33
0.0
  0
SOLID
  5
237
330
230
100
AcDbEntity
  8
치수문자_일반주서
 62
     0
100
AcDbTrace
 10
99.07300000000006
 20
61.35058050284392
 30
0.0
 11
99.07300000000006
 21
62.45124716951059
 31
0.0
 12
102.3750000000001
 22
61.90091383617725
 32
0.0
 13
102.3750000000001
 23
61.90091383617725
 33
0.0
  0
MTEXT
  5
238
330
230
100
AcDbEntity
  8
치수문자_일반주서
 62
     0
100
AcDbMText
 10
89.42159572693208
 20
66.27591383617725
 30
0.0
 40
3.5
 41
0.0
 71
     2
 72
     1
  1
\A1;26 [1.02]
  7
SLDTEXTSTYLE0
 73
     1
 44
1.0
  0
POINT
  5
239
330
230
100
AcDbEntity
  8
Defpoints
 62
     0
100
AcDbPoint
 10
76.37504186422882
 20
28.55788676313042
 30
0.0
  0
POINT
  5
23A
330
230
100
AcDbEntity
  8
Defpoints
 62
     0
100
AcDbPoint
 10
102.3750000000001
 20
36.22143424691529
 30
0.0
  0
POINT
  5
23B
330
230
100
AcDbEntity
  8
Defpoints
 62
     0
100
AcDbPoint
 10
102.3750000000001
 20
61.90091383617725
 30
0.0
  0
ENDBLK
  5
232
330
230
100
AcDbEntity
  8
0
100
AcDbBlockEnd
  0
BLOCK
  5
23D
330
23C
100
AcDbEntity
  8
0
100
AcDbBlockBegin
  2
*D12
 70
     1
 10
0.0
 20
0.0
 30
0.0
  3
*D12
  1
*D12
  0
LINE
  5
23F
330
23C
100
AcDbEntity
  8
치수문자_일반주서
 62
     0
370
    -2
100
AcDbLine
 10
19.81250000000005
 20
36.22143424691529
 30
0.0
 11
4.374999999999983
 21
36.22143424691524
 31
0.0
  0
LINE
  5
240
330
23C
100
AcDbEntity
  8
치수문자_일반주서
 62
     0
370
    -2
100
AcDbLine
 10
19.81250000000005
 20
22.22143424691529
 30
0.0
 11
4.375000000000032
 21
22.22143424691524
 31
0.0
  0
LINE
  5
241
330
23C
100
AcDbEntity
  8
치수문자_일반주서
 62
     0
370
    -2
100
AcDbLine
 10
4.374999999999983
 20
36.22143424691524
 30
0.0
 11
4.375000000000032
 21
22.22143424691524
 31
0.0
  0
LINE
  5
242
330
23C
100
AcDbEntity
  8
치수문자_일반주서
 62
     0
370
    -2
100
AcDbLine
 10
4.374999999999972
 20
39.52343424691524
 30
0.0
 11
4.37499999999996
 21
42.82543424691524
 31
0.0
  0
LINE
  5
243
330
23C
100
AcDbEntity
  8
치수문자_일반주서
 62
     0
370
    -2
100
AcDbLine
 10
4.375000000000044
 20
18.91943424691524
 30
0.0
 11
4.375000000000055
 21
15.61743424691524
 31
0.0
  0
SOLID
  5
244
330
23C
100
AcDbEntity
  8
치수문자_일반주서
 62
     0
100
AcDbTrace
 10
3.824666666666638
 20
39.52343424691524
 30
0.0
 11
4.925333333333305
 21
39.52343424691524
 31
0.0
 12
4.374999999999983
 22
36.22143424691524
 32
0.0
 13
4.374999999999983
 23
36.22143424691524
 33
0.0
  0
SOLID
  5
245
330
23C
100
AcDbEntity
  8
치수문자_일반주서
 62
     0
100
AcDbTrace
 10
4.925333333333377
 20
18.91943424691524
 30
0.0
 11
3.82466666666671
 21
18.91943424691523
 31
0.0
 12
4.375000000000032
 22
22.22143424691524
 32
0.0
 13
4.375000000000032
 23
22.22143424691524
 33
0.0
  0
MTEXT
  5
246
330
23C
100
AcDbEntity
  8
치수문자_일반주서
 62
     0
100
AcDbMText
 10
0.0000000000000071
 20
29.22143424691528
 30
0.0
 40
3.5
 41
0.0
 71
     2
 72
     1
  1
\A1;%%c14 [0.55]
  7
SLDTEXTSTYLE0
 11
-3.489272363107635E-15
 21
1.0
 31
0.0
 73
     1
 44
1.0
  0
POINT
  5
247
330
23C
100
AcDbEntity
  8
Defpoints
 62
     0
100
AcDbPoint
 10
19.87500000000005
 20
36.22143424691529
 30
0.0
  0
POINT
  5
248
330
23C
100
AcDbEntity
  8
Defpoints
 62
     0
100
AcDbPoint
 10
19.87500000000005
 20
22.22143424691529
 30
0.0
  0
POINT
  5
249
330
23C
100
AcDbEntity
  8
Defpoints
 62
     0
100
AcDbPoint
 10
4.375000000000043
 20
22.22143424691524
 30
0.0
  0
ENDBLK
  5
23E
330
23C
100
AcDbEntity
  8
0
100
AcDbBlockEnd
  0
BLOCK
  5
298
330
297
100
AcDbEntity
  8
0
100
AcDbBlockBegin
  2
*D13
 70
     1
 10
0.0
 20
0.0
 30
0.0
  3
*D13
  1
*D13
  0
LINE
  5
29A
330
297
100
AcDbEntity
  8
치수문자_일반주서
 62
     0
370
    -2
100
AcDbLine
 10
-60.25754824549058
 20
99.31031925120683
 30
0.0
 11
-60.25754824549058
 21
134.4103034192856
 31
0.0
  0
LINE
  5
29B
330
297
100
AcDbEntity
  8
치수문자_일반주서
 62
     0
370
    -2
100
AcDbLine
 10
22.74245175450943
 20
99.87281925120683
 30
0.0
 11
22.74245175450943
 21
134.4103034192856
 31
0.0
  0
LINE
  5
29C
330
297
100
AcDbEntity
  8
치수문자_일반주서
 62
     0
370
    -2
100
AcDbLine
 10
-56.95554824549058
 20
134.4103034192856
 30
0.0
 11
19.44045175450943
 21
134.4103034192856
 31
0.0
  0
SOLID
  5
29D
330
297
100
AcDbEntity
  8
치수문자_일반주서
 62
     0
100
AcDbTrace
 10
-56.95554824549058
 20
134.9606367526189
 30
0.0
 11
-56.95554824549058
 21
133.8599700859523
 31
0.0
 12
-60.25754824549058
 22
134.4103034192856
 32
0.0
 13
-60.25754824549058
 23
134.4103034192856
 33
0.0
  0
SOLID
  5
29E
330
297
100
AcDbEntity
  8
치수문자_일반주서
 62
     0
100
AcDbTrace
 10
19.44045175450943
 20
133.8599700859523
 30
0.0
 11
19.44045175450943
 21
134.9606367526189
 31
0.0
 12
22.74245175450943
 22
134.4103034192856
 32
0.0
 13
22.74245175450943
 23
134.4103034192856
 33
0.0
  0
MTEXT
  5
29F
330
297
100
AcDbEntity
  8
치수문자_일반주서
 62
     0
100
AcDbMText
 10
-18.75754824549058
 20
138.7853034192856
 30
0.0
 40
3.5
 41
0.0
 71
     2
 72
     1
  1
\A1;83 [3.27]
  7
SLDTEXTSTYLE0
 73
     1
 44
1.0
  0
POINT
  5
2A0
330
297
100
AcDbEntity
  8
Defpoints
 62
     0
100
AcDbPoint
 10
-60.25754824549058
 20
99.24781925120683
 30
0.0
  0
POINT
  5
2A1
330
297
100
AcDbEntity
  8
Defpoints
 62
     0
100
AcDbPoint
 10
22.74245175450943
 20
99.81031925120683
 30
0.0
  0
POINT
  5
2A2
330
297
100
AcDbEntity
  8
Defpoints
 62
     0
100
AcDbPoint
 10
22.74245175450943
 20
134.4103034192856
 30
0.0
  0
ENDBLK
  5
299
330
297
100
AcDbEntity
  8
0
100
AcDbBlockEnd
  0
BLOCK
  5
2A4
330
2A3
100
AcDbEntity
  8
0
100
AcDbBlockBegin
  2
*D14
 70
     1
 10
0.0
 20
0.0
 30
0.0
  3
*D14
  1
*D14
  0
LINE
  5
2A6
330
2A3
100
AcDbEntity
  8
치수문자_일반주서
 62
     0
370
    -2
100
AcDbLine
 10
-3.257506381261805
 20
92.14677176742197
 30
0.0
 11
-3.257506381261805
 21
125.4272988404688
 31
0.0
  0
LINE
  5
2A7
330
2A3
100
AcDbEntity
  8
치수문자_일반주서
 62
     0
370
    -2
100
AcDbLine
 10
22.74245175450943
 20
99.81031925120683
 30
0.0
 11
22.74245175450943
 21
125.4272988404688
 31
0.0
  0
LINE
  5
2A8
330
2A3
100
AcDbEntity
  8
치수문자_일반주서
 62
     0
370
    -2
100
AcDbLine
 10
0.0444936187381941
 20
125.4272988404688
 30
0.0
 11
19.44045175450943
 21
125.4272988404688
 31
0.0
  0
SOLID
  5
2A9
330
2A3
100
AcDbEntity
  8
치수문자_일반주서
 62
     0
100
AcDbTrace
 10
0.0444936187381941
 20
125.9776321738021
 30
0.0
 11
0.0444936187381941
 21
124.8769655071355
 31
0.0
 12
-3.257506381261805
 22
125.4272988404688
 32
0.0
 13
-3.257506381261805
 23
125.4272988404688
 33
0.0
  0
SOLID
  5
2AA
330
2A3
100
AcDbEntity
  8
치수문자_일반주서
 62
     0
100
AcDbTrace
 10
19.44045175450943
 20
124.8769655071355
 30
0.0
 11
19.44045175450943
 21
125.9776321738021
 31
0.0
 12
22.74245175450943
 22
125.4272988404688
 32
0.0
 13
22.74245175450943
 23
125.4272988404688
 33
0.0
  0
MTEXT
  5
2AB
330
2A3
100
AcDbEntity
  8
치수문자_일반주서
 62
     0
100
AcDbMText
 10
9.789047481441457
 20
129.8022988404688
 30
0.0
 40
3.5
 41
0.0
 71
     2
 72
     1
  1
\A1;26 [1.02]
  7
SLDTEXTSTYLE0
 73
     1
 44
1.0
  0
POINT
  5
2AC
330
2A3
100
AcDbEntity
  8
Defpoints
 62
     0
100
AcDbPoint
 10
-3.257506381261805
 20
92.08427176742197
 30
0.0
  0
POINT
  5
2AD
330
2A3
100
AcDbEntity
  8
Defpoints
 62
     0
100
AcDbPoint
 10
22.74245175450943
 20
99.74781925120683
 30
0.0
  0
POINT
  5
2AE
330
2A3
100
AcDbEntity
  8
Defpoints
 62
     0
100
AcDbPoint
 10
22.74245175450943
 20
125.4272988404688
 30
0.0
  0
ENDBLK
  5
2A5
330
2A3
100
AcDbEntity
  8
0
100
AcDbBlockEnd
  0
BLOCK
  5
2B0
330
2AF
100
AcDbEntity
  8
0
100
AcDbBlockBegin
  2
*D15
 70
     1
 10
0.0
 20
0.0
 30
0.0
  3
*D15
  1
*D15
  0
LINE
  5
2B2
330
2AF
100
AcDbEntity
  8
치수문자_일반주서
 62
     0
370
    -2
100
AcDbLine
 10
-59.82004824549058
 20
99.74781925120683
 30
0.0
 11
-75.25754824549064
 21
99.74781925120678
 31
0.0
  0
LINE
  5
2B3
330
2AF
100
AcDbEntity
  8
치수문자_일반주서
 62
     0
370
    -2
100
AcDbLine
 10
-59.82004824549058
 20
85.74781925120683
 30
0.0
 11
-75.2575482454906
 21
85.74781925120678
 31
0.0
  0
LINE
  5
2B4
330
2AF
100
AcDbEntity
  8
치수문자_일반주서
 62
     0
370
    -2
100
AcDbLine
 10
-75.25754824549064
 20
99.74781925120678
 30
0.0
 11
-75.2575482454906
 21
85.74781925120678
 31
0.0
  0
LINE
  5
2B5
330
2AF
100
AcDbEntity
  8
치수문자_일반주서
 62
     0
370
    -2
100
AcDbLine
 10
-75.25754824549065
 20
103.0498192512068
 30
0.0
 11
-75.25754824549067
 21
106.3518192512068
 31
0.0
  0
LINE
  5
2B6
330
2AF
100
AcDbEntity
  8
치수문자_일반주서
 62
     0
370
    -2
100
AcDbLine
 10
-75.25754824549058
 20
82.44581925120679
 30
0.0
 11
-75.25754824549057
 21
79.14381925120679
 31
0.0
  0
SOLID
  5
2B7
330
2AF
100
AcDbEntity
  8
치수문자_일반주서
 62
     0
100
AcDbTrace
 10
-75.80788157882398
 20
103.0498192512068
 30
0.0
 11
-74.70721491215733
 21
103.0498192512068
 31
0.0
 12
-75.25754824549064
 22
99.74781925120678
 32
0.0
 13
-75.25754824549064
 23
99.74781925120678
 33
0.0
  0
SOLID
  5
2B8
330
2AF
100
AcDbEntity
  8
치수문자_일반주서
 62
     0
100
AcDbTrace
 10
-74.70721491215726
 20
82.44581925120679
 30
0.0
 11
-75.80788157882391
 21
82.44581925120679
 31
0.0
 12
-75.2575482454906
 22
85.74781925120678
 32
0.0
 13
-75.2575482454906
 23
85.74781925120678
 33
0.0
  0
MTEXT
  5
2B9
330
2AF
100
AcDbEntity
  8
치수문자_일반주서
 62
     0
100
AcDbMText
 10
-79.63254824549063
 20
92.74781925120682
 30
0.0
 40
3.5
 41
0.0
 71
     2
 72
     1
  1
\A1;%%c14 [0.55]
  7
SLDTEXTSTYLE0
 11
-3.045183153257572E-15
 21
1.0
 31
0.0
 73
     1
 44
1.0
  0
POINT
  5
2BA
330
2AF
100
AcDbEntity
  8
Defpoints
 62
     0
100
AcDbPoint
 10
-59.75754824549058
 20
99.74781925120683
 30
0.0
  0
POINT
  5
2BB
330
2AF
100
AcDbEntity
  8
Defpoints
 62
     0
100
AcDbPoint
 10
-59.75754824549058
 20
85.74781925120683
 30
0.0
  0
POINT
  5
2BC
330
2AF
100
AcDbEntity
  8
Defpoints
 62
     0
100
AcDbPoint
 10
-75.2575482454906
 20
85.74781925120678
 30
0.0
  0
ENDBLK
  5
2B1
330
2AF
100
AcDbEntity
  8
0
100
AcDbBlockEnd
  0
BLOCK
  5
2BE
330
2BD
100
AcDbEntity
  8
0
100
AcDbBlockBegin
  2
*D16
 70
     1
 10
0.0
 20
0.0
 30
0.0
  3
*D16
  1
*D16
  0
LINE
  5
2C0
330
2BD
100
AcDbEntity
  8
치수문자_일반주서
 62
     0
370
    -2
100
AcDbLine
 10
22.80495175450945
 20
99.74781925120683
 30
0.0
 11
37.74245175450944
 21
99.74781925120689
 31
0.0
  0
LINE
  5
2C1
330
2BD
100
AcDbEntity
  8
치수문자_일반주서
 62
     0
370
    -2
100
AcDbLine
 10
22.80495175450943
 20
85.74781925120683
 30
0.0
 11
37.74245175450949
 21
85.74781925120689
 31
0.0
  0
LINE
  5
2C2
330
2BD
100
AcDbEntity
  8
치수문자_일반주서
 62
     0
370
    -2
100
AcDbLine
 10
37.74245175450944
 20
99.74781925120689
 30
0.0
 11
37.74245175450949
 21
85.74781925120689
 31
0.0
  0
LINE
  5
2C3
330
2BD
100
AcDbEntity
  8
치수문자_일반주서
 62
     0
370
    -2
100
AcDbLine
 10
37.74245175450942
 20
103.0498192512069
 30
0.0
 11
37.74245175450941
 21
106.3518192512069
 31
0.0
  0
LINE
  5
2C4
330
2BD
100
AcDbEntity
  8
치수문자_일반주서
 62
     0
370
    -2
100
AcDbLine
 10
37.7424517545095
 20
82.4458192512069
 30
0.0
 11
37.74245175450952
 21
79.1438192512069
 31
0.0
  0
SOLID
  5
2C5
330
2BD
100
AcDbEntity
  8
치수문자_일반주서
 62
     0
100
AcDbTrace
 10
37.19211842117609
 20
103.0498192512069
 30
0.0
 11
38.29278508784276
 21
103.0498192512069
 31
0.0
 12
37.74245175450944
 22
99.74781925120689
 32
0.0
 13
37.74245175450944
 23
99.74781925120689
 33
0.0
  0
SOLID
  5
2C6
330
2BD
100
AcDbEntity
  8
치수문자_일반주서
 62
     0
100
AcDbTrace
 10
38.29278508784284
 20
82.4458192512069
 30
0.0
 11
37.19211842117617
 21
82.4458192512069
 31
0.0
 12
37.74245175450949
 22
85.74781925120689
 32
0.0
 13
37.74245175450949
 23
85.74781925120689
 33
0.0
  0
MTEXT
  5
2C7
330
2BD
100
AcDbEntity
  8
치수문자_일반주서
 62
     0
100
AcDbMText
 10
33.36745175450946
 20
92.81352363291987
 30
0.0
 40
3.5
 41
0.0
 71
     2
 72
     1
  1
\A1;%%c14 [0.55]
  7
SLDTEXTSTYLE0
 11
-3.552713678800501E-15
 21
1.0
 31
0.0
 73
     1
 44
1.0
  0
POINT
  5
2C8
330
2BD
100
AcDbEntity
  8
Defpoints
 62
     0
100
AcDbPoint
 10
22.74245175450945
 20
99.74781925120683
 30
0.0
  0
POINT
  5
2C9
330
2BD
100
AcDbEntity
  8
Defpoints
 62
     0
100
AcDbPoint
 10
22.74245175450943
 20
85.74781925120683
 30
0.0
  0
POINT
  5
2CA
330
2BD
100
AcDbEntity
  8
Defpoints
 62
     0
100
AcDbPoint
 10
37.74245175450949
 20
85.74781925120689
 30
0.0
  0
ENDBLK
  5
2BF
330
2BD
100
AcDbEntity
  8
0
100
AcDbBlockEnd
  0
BLOCK
  5
2CC
330
2CB
100
AcDbEntity
  8
0
100
AcDbBlockBegin
  2
*D17
 70
     1
 10
0.0
 20
0.0
 30
0.0
  3
*D17
  1
*D17
  0
LINE
  5
2CE
330
2CB
100
AcDbEntity
  8
치수문자_일반주서
 62
     0
370
    -2
100
AcDbLine
 10
24.23322693617888
 20
83.00868075832805
 30
0.0
 11
40.55957980470472
 21
56.44449686066868
 31
0.0
  0
MTEXT
  5
2CF
330
2CB
100
AcDbEntity
  8
치수문자_일반주서
 62
     0
100
AcDbMText
 10
36.03809015593706
 20
68.81454315882726
 30
0.0
 40
3.5
 41
0.0
 71
     5
 72
     1
  1
\A1;R.50 [R0.02]
  7
SLDTEXTSTYLE0
 11
0.5236126201129557
 21
-0.8519564684057781
 31
0.0
 73
     1
 44
1.0
  0
SOLID
  5
2D0
330
2CB
100
AcDbEntity
  8
치수문자_일반주서
 62
     0
100
AcDbTrace
 10
24.70208697929153
 20
83.29684223693022
 30
0.0
 11
23.76436689306624
 21
82.72051927972589
 31
0.0
 12
22.5042580645659
 22
85.82184101700393
 32
0.0
 13
22.5042580645659
 23
85.82184101700393
 33
0.0
  0
LINE
  5
2D1
330
2CB
100
AcDbEntity
  8
치수문자_일반주서
 62
     0
100
AcDbLine
 10
22.15245175450942
 20
86.24781925120683
 30
0.0
 11
22.33245175450942
 21
86.24781925120683
 31
0.0
  0
LINE
  5
2D2
330
2CB
100
AcDbEntity
  8
치수문자_일반주서
 62
     0
100
AcDbLine
 10
22.24245175450942
 20
86.15781925120683
 30
0.0
 11
22.24245175450942
 21
86.33781925120684
 31
0.0
  0
POINT
  5
2D3
330
2CB
100
AcDbEntity
  8
Defpoints
 62
     0
100
AcDbPoint
 10
22.5042580645659
 20
85.82184101700393
 30
0.0
  0
POINT
  5
2D4
330
2CB
100
AcDbEntity
  8
Defpoints
 62
     0
100
AcDbPoint
 10
22.24245175450942
 20
86.24781925120683
 30
0.0
  0
ENDBLK
  5
2CD
330
2CB
100
AcDbEntity
  8
0
100
AcDbBlockEnd
  0
ENDSEC
  0
SECTION
  2
ENTITIES
  0
LINE
  5
96
330
1F
100
AcDbEntity
  8
외형선
  6
Continuous
370
    15
100
AcDbLine
 10
8.95007944544364
 20
7.937499999999995
 30
0.0
 11
-63.2
 21
7.937499999999991
 31
0.0
  0
LINE
  5
97
330
1F
100
AcDbEntity
  8
외형선
  6
Continuous
370
    15
100
AcDbLine
 10
-63.2
 20
-7.937500000000009
 30
0.0
 11
8.95007944544364
 21
-7.937500000000005
 31
0.0
  0
LINE
  5
98
330
1F
100
AcDbEntity
  8
외형선
  6
Continuous
370
    15
100
AcDbLine
 10
-63.2
 20
7.937499999999984
 30
0.0
 11
-64.2
 21
6.937499999999984
 31
0.0
  0
LINE
  5
99
330
1F
100
AcDbEntity
  8
외형선
  6
Continuous
370
    15
100
AcDbLine
 10
-64.2
 20
-6.937500000000003
 30
0.0
 11
-63.2
 21
-7.937500000000005
 31
0.0
  0
SPLINE
  5
9A
330
1F
100
AcDbEntity
  8
외형선
  6
Continuous
370
    15
100
AcDbSpline
210
0.0
220
0.0
230
1.0
 70
     8
 71
     3
 72
     9
 73
     5
 74
     0
 42
0.000000001
 43
0.00000001
 40
0.0
 40
0.0
 40
0.0
 40
0.0
 40
0.4990915403075488
 40
1.0
 40
1.0
 40
1.0
 40
1.0
 10
9.942994948429176
 20
-6.598982893020118
 30
0.0
 10
10.28552125864348
 20
-6.565888840229141
 30
0.0
 10
10.97182083006727
 20
-6.499580257297472
 30
0.0
 10
11.6568587238129
 20
-6.446018333614729
 30
0.0
 10
11.99999999999999
 20
-6.41918871292464
 30
0.0
  0
SPLINE
  5
9B
330
1F
100
AcDbEntity
  8
0
  6
Continuous
 62
     1
370
    15
100
AcDbSpline
210
0.0
220
0.0
230
1.0
 70
     8
 71
     3
 72
    10
 73
     6
 74
     0
 42
0.000000001
 43
0.00000001
 40
0.0
 40
0.0
 40
0.0
 40
0.0
 40
0.4989182626248687
 40
0.6863694433298572
 40
1.0
 40
1.0
 40
1.0
 40
1.0
 10
67.63516786355608
 20
2.0340001920255
 30
0.0
 10
67.2691618826004
 20
2.208762331429438
 30
0.0
 10
66.7656418869958
 20
2.449185265051344
 30
0.0
 10
66.03241349070846
 20
2.821643298362484
 30
0.0
 10
65.66453089053236
 20
3.014577517174819
 30
0.0
 10
65.43427060348439
 20
3.135336391293456
 30
0.0
  0
SPLINE
  5
9C
330
1F
100
AcDbEntity
  8
0
  6
Continuous
 62
     1
370
    15
100
AcDbSpline
210
0.0
220
0.0
230
1.0
 70
     8
 71
     3
 72
     9
 73
     5
 74
     0
 42
0.000000001
 43
0.00000001
 40
0.0
 40
0.0
 40
0.0
 40
0.0
 40
0.525279686060794
 40
1.0
 40
1.0
 40
1.0
 40
1.0
 10
24.44407812177983
 20
2.033996631721269
 30
0.0
 10
24.05884242788598
 20
2.21801147920023
 30
0.0
 10
23.3254508574203
 20
2.568329323887762
 30
0.0
 10
22.59163357800926
 20
2.952777038850214
 30
0.0
 10
22.24327560875325
 20
3.1352821787904
 30
0.0
  0
LINE
  5
9D
330
1F
100
AcDbEntity
  8
0
  6
Continuous
 62
     1
370
    15
100
AcDbLine
 10
63.71268666983069
 20
1.978304120899709
 30
0.0
 11
63.16132830375454
 21
2.282035280039645
 31
0.0
  0
LINE
  5
9E
330
1F
100
AcDbEntity
  8
0
  6
Continuous
 62
     1
370
    15
100
AcDbLine
 10
45.57389520071726
 20
-7.937500000000012
 30
0.0
 11
49.419690657749
 21
-7.937500000000012
 31
0.0
  0
LINE
  5
9F
330
1F
100
AcDbEntity
  8
0
  6
Continuous
 62
     1
370
    15
100
AcDbLine
 10
49.41969065774893
 20
7.937500000000002
 30
0.0
 11
45.57389520071726
 21
7.937500000000002
 31
0.0
  0
SPLINE
  5
A0
330
1F
100
AcDbEntity
  8
0
  6
Continuous
 62
     1
370
    15
100
AcDbSpline
210
0.0
220
0.0
230
1.0
 70
     8
 71
     3
 72
    18
 73
    14
 74
     0
 42
0.000000001
 43
0.00000001
 40
0.0
 40
0.0
 40
0.0
 40
0.0
 40
0.1187408713783433
 40
0.2086522524492334
 40
0.2755311699877158
 40
0.3387474598217485
 40
0.4007240767290464
 40
0.4658683748188092
 40
0.6681270426475189
 40
0.7159261567540582
 40
0.7758927394857529
 40
0.8705123929605211
 40
1.0
 40
1.0
 40
1.0
 40
1.0
 10
11.99999999999999
 20
-6.419188712924642
 30
0.0
 10
12.38562176986172
 20
-6.391720937051105
 30
0.0
 10
13.06323892005708
 20
-6.343454377784225
 30
0.0
 10
13.96386832247152
 20
-6.294407954340231
 30
0.0
 10
14.69054841415959
 20
-6.261524877074383
 30
0.0
 10
15.32101044607054
 20
-6.238280037305421
 30
0.0
 10
15.94199843280285
 20
-6.220453018349068
 30
0.0
 10
17.01979995038453
 20
-6.198457885788508
 30
0.0
 10
18.05537963840576
 20
-6.195560185706076
 30
0.0
 10
19.06508966992004
 20
-6.209211173996205
 30
0.0
 10
19.72543118561648
 20
-6.222826550505053
 30
0.0
 10
20.65752335053129
 20
-6.250664994704984
 30
0.0
 10
21.39468297247576
 20
-6.286657839060948
 30
0.0
 10
21.82060864410588
 20
-6.307454252686744
 30
0.0
  0
SPLINE
  5
A1
330
1F
100
AcDbEntity
  8
0
  6
Continuous
 62
     1
370
    15
100
AcDbSpline
210
0.0
220
0.0
230
1.0
 70
     8
 71
     3
 72
    15
 73
    11
 74
     0
 42
0.000000001
 43
0.00000001
 40
0.0
 40
0.0
 40
0.0
 40
0.0
 40
0.144030182304057
 40
0.2513130265584048
 40
0.3315826117457803
 40
0.4128111004093877
 40
0.4973050103616812
 40
0.6893393087232114
 40
0.9143871035435756
 40
0.9999999999999999
 40
0.9999999999999999
 40
0.9999999999999999
 40
0.9999999999999999
 10
65.0114009367501
 20
6.307437991021084
 30
0.0
 10
64.69997981665844
 20
6.291858116394627
 30
0.0
 10
64.15659243095601
 20
6.264673359816944
 30
0.0
 10
63.43606299074111
 20
6.238500472117206
 30
0.0
 10
62.84572295240719
 20
6.221666225838771
 30
0.0
 10
62.30804589367213
 20
6.210133973086986
 30
0.0
 10
61.52877782723765
 20
6.198879464044591
 30
0.0
 10
60.43711206803326
 20
6.197336245797755
 30
0.0
 10
59.34224724902722
 20
6.211492497304835
 30
0.0
 10
58.66597468751021
 20
6.236000721674447
 30
0.0
 10
58.47960526771806
 20
6.242754778863537
 30
0.0
  0
SPLINE
  5
A2
330
1F
100
AcDbEntity
  8
0
  6
Continuous
 62
     1
370
    15
100
AcDbSpline
210
0.0
220
0.0
230
1.0
 70
     8
 71
     3
 72
    22
 73
    18
 74
     0
 42
0.000000001
 43
0.00000001
 40
0.0
 40
0.0
 40
0.0
 40
0.0
 40
0.0849223739289122
 40
0.1462083612503662
 40
0.1947236838145724
 40
0.2454393406093889
 40
0.3001188064144469
 40
0.3613361976981789
 40
0.428387330393162
 40
0.4996809738016174
 40
0.6050398516042803
 40
0.6983075688176357
 40
0.7773521286540744
 40
0.8209057141750798
 40
0.8642481756624083
 40
0.9224210055590331
 40
1.0
 40
1.0
 40
1.0
 40
1.0
 10
53.07382297530292
 20
-6.605097083818079
 30
0.0
 10
53.40908794474414
 20
-6.572536137162629
 30
0.0
 10
53.98630381258704
 20
-6.516476910000194
 30
0.0
 10
54.76194930647381
 20
-6.451737889167753
 30
0.0
 10
55.40608292821258
 20
-6.402682867683516
 30
0.0
 10
56.01965394673279
 20
-6.360272888693367
 30
0.0
 10
56.68240906009004
 20
-6.319852443902128
 30
0.0
 10
57.41063225798335
 20
-6.281924509547816
 30
0.0
 10
58.20473069783304
 20
-6.248365577349209
 30
0.0
 10
59.17418818546862
 20
-6.217796214293396
 30
0.0
 10
60.24853172862282
 20
-6.199138158306353
 30
0.0
 10
61.35333030183328
 20
-6.197385162304039
 30
0.0
 10
62.21203274436699
 20
-6.207895668371708
 30
0.0
 10
62.87505463406171
 20
-6.222428098138514
 30
0.0
 10
63.45732616008615
 20
-6.239215432553091
 30
0.0
 10
64.16836040675211
 20
-6.265224324049144
 30
0.0
 10
64.7048243391226
 20
-6.292086745223134
 30
0.0
 10
65.0114009367501
 20
-6.307437991021094
 30
0.0
  0
SPLINE
  5
A3
330
1F
100
AcDbEntity
  8
0
  6
Continuous
 62
     1
370
    15
100
AcDbSpline
210
0.0
220
0.0
230
1.0
 70
     8
 71
     3
 72
    16
 73
    12
 74
     0
 42
0.000000001
 43
0.00000001
 40
0.0
 40
0.0
 40
0.0
 40
0.0
 40
0.1962778634581687
 40
0.3397027351489155
 40
0.4448735655930249
 40
0.5327781755871378
 40
0.6242842665914291
 40
0.7170088409795214
 40
0.8096488037605746
 40
0.9083948068560069
 40
1.0
 40
1.0
 40
1.0
 40
1.0
 10
21.82060864410588
 20
6.307454252686735
 30
0.0
 10
21.3947010578482
 20
6.286659272668009
 30
0.0
 10
20.65757273668506
 20
6.250668909489672
 30
0.0
 10
19.69441240810079
 20
6.221894074766236
 30
0.0
 10
18.97076653596018
 20
6.20740887321887
 30
0.0
 10
18.35870106495729
 20
6.200285035304327
 30
0.0
 10
17.77063442692247
 20
6.197973754126791
 30
0.0
 10
17.17229674600271
 20
6.200421618676582
 30
0.0
 10
16.55795153226513
 20
6.207954566047015
 30
0.0
 10
15.94720704041316
 20
6.220097863510926
 30
0.0
 10
15.53698780973501
 20
6.23256797127733
 30
0.0
 10
15.33957264975678
 20
6.238569124162292
 30
0.0
  0
SPLINE
  5
A4
330
1F
100
AcDbEntity
  8
0
  6
Continuous
 62
     1
370
    15
100
AcDbSpline
210
0.0
220
0.0
230
1.0
 70
     8
 71
     3
 72
    16
 73
    12
 74
     0
 42
0.000000001
 43
0.00000001
 40
0.0
 40
0.0
 40
0.0
 40
0.0
 40
0.1863077282876575
 40
0.3287198278274566
 40
0.4265261577707162
 40
0.4972506130147173
 40
0.5674156329556975
 40
0.6377725709076122
 40
0.7140264820460137
 40
0.874787256451171
 40
1.0
 40
1.0
 40
1.0
 40
1.0
 10
71.38512907154427
 20
-5.970069670141016
 30
0.0
 10
71.7547012525518
 20
-5.913478245836409
 30
0.0
 10
72.40677137775374
 20
-5.813628800915917
 30
0.0
 10
73.2503706138377
 20
-5.701340967590381
 30
0.0
 10
73.86277527789466
 20
-5.626258445795751
 30
0.0
 10
74.32987282627094
 20
-5.572829651264727
 30
0.0
 10
74.74508081586465
 20
-5.528028032995897
 30
0.0
 10
75.1724861329216
 20
-5.484937506777301
 30
0.0
 10
75.77926117860274
 20
-5.428682758259789
 30
0.0
 10
76.49487929291877
 20
-5.369461264448277
 30
0.0
 10
77.0593312873749
 20
-5.335652635803762
 30
0.0
 10
77.30647509052535
 20
-5.320849617753383
 30
0.0
  0
SPLINE
  5
A5
330
1F
100
AcDbEntity
  8
0
  6
Continuous
 62
     1
370
    15
100
AcDbSpline
210
0.0
220
0.0
230
1.0
 70
     8
 71
     3
 72
    22
 73
    18
 74
     0
 42
0.000000001
 43
0.00000001
 40
0.0
 40
0.0
 40
0.0
 40
0.0
 40
0.0847591910220302
 40
0.1487719476723655
 40
0.1917831271914622
 40
0.2592380594429338
 40
0.3296093306834463
 40
0.4106493057675734
 40
0.4997142776513112
 40
0.6106591628995
 40
0.7050523116363749
 40
0.7498376281155041
 40
0.7949341332502164
 40
0.8263548417376594
 40
0.871105834500768
 40
0.9290511707103887
 40
1.0
 40
1.0
 40
1.0
 40
1.0
 10
42.06006664010836
 20
5.428878283394144
 30
0.0
 10
41.66538717515523
 20
5.397221614318751
 30
0.0
 10
40.97263359882507
 20
5.341656851862
 30
0.0
 10
40.0830573185216
 20
5.291841141687888
 30
0.0
 10
39.28058348770298
 20
5.256704527952677
 30
0.0
 10
38.45424434878275
 20
5.232360964147667
 30
0.0
 10
37.43909205402355
 20
5.220065053324684
 30
0.0
 10
36.32901453568915
 20
5.228474409618823
 30
0.0
 10
35.0292617030828
 20
5.266450522558026
 30
0.0
 10
33.66933035504053
 20
5.341162649746858
 30
0.0
 10
32.51218210439477
 20
5.433749194995458
 30
0.0
 10
31.66051694569945
 20
5.516389618440497
 30
0.0
 10
31.10775149124958
 20
5.575949774319215
 30
0.0
 10
30.55007687076838
 20
5.6406213667958
 30
0.0
 10
29.92943507184562
 20
5.71810789612856
 30
0.0
 10
29.12390165731199
 20
5.827230494319871
 30
0.0
 10
28.52432493397526
 20
5.919332042811623
 30
0.0
 10
28.19429241136046
 20
5.970028651272842
 30
0.0
  0
SPLINE
  5
A6
330
1F
100
AcDbEntity
  8
0
  6
Continuous
 62
     1
370
    15
100
AcDbSpline
210
0.0
220
0.0
230
1.0
 70
     8
 71
     3
 72
    17
 73
    13
 74
     0
 42
0.000000001
 43
0.00000001
 40
0.0
 40
0.0
 40
0.0
 40
0.0
 40
0.1664456609857589
 40
0.3023851808202979
 40
0.433299369406175
 40
0.5139261813126051
 40
0.5826732334059341
 40
0.6512977388830846
 40
0.7203197124213019
 40
0.7913688257082581
 40
0.9682828217978953
 40
1.0
 40
1.0
 40
1.0
 40
1.0
 10
28.19429241136046
 20
-5.970028651272852
 30
0.0
 10
28.52434813324922
 20
-5.919330857261734
 30
0.0
 10
29.12396700317367
 20
-5.827227154957628
 30
0.0
 10
29.98050265477476
 20
-5.711172800956762
 30
0.0
 10
30.66656809276823
 20
-5.626363835491658
 30
0.0
 10
31.21291017004684
 20
-5.564557975233248
 30
0.0
 10
31.63804178270599
 20
-5.519321839837417
 30
0.0
 10
32.0431999327993
 20
-5.479107453156666
 30
0.0
 10
32.45483363985575
 20
-5.441074205375466
 30
0.0
 10
33.07960271979776
 20
-5.388640491312545
 30
0.0
 10
33.63089517112047
 20
-5.345155228916277
 30
0.0
 10
34.04185404149518
 20
-5.324475548489365
 30
0.0
 10
34.10433011090169
 20
-5.321331717700462
 30
0.0
  0
SPLINE
  5
A7
330
1F
100
AcDbEntity
  8
0
  6
Continuous
 62
     1
370
    15
100
AcDbSpline
210
0.0
220
0.0
230
1.0
 70
     8
 71
     3
 72
    22
 73
    18
 74
     0
 42
0.000000001
 43
0.00000001
 40
0.0
 40
0.0
 40
0.0
 40
0.0
 40
0.0821305035008419
 40
0.1432323490080276
 40
0.2016904528022861
 40
0.2726117035433989
 40
0.3454543952242682
 40
0.414948980535645
 40
0.4748644549950624
 40
0.5693176278244721
 40
0.6613537343997693
 40
0.6943588904918706
 40
0.7303441642162842
 40
0.7714921624133527
 40
0.8294666851608908
 40
0.9058287184623951
 40
1.0
 40
1.0
 40
1.0
 40
1.0
 10
85.26338523320398
 20
5.42992934938886
 30
0.0
 10
84.89082641757794
 20
5.399681720267368
 30
0.0
 10
84.24109858161964
 20
5.346931051681118
 30
0.0
 10
83.29948880422185
 20
5.292719074459465
 30
0.0
 10
82.40509210276839
 20
5.253679512197055
 30
0.0
 10
81.47073244324486
 20
5.228730368999314
 30
0.0
 10
80.48401702946077
 20
5.220385753317116
 30
0.0
 10
79.5491022349722
 20
5.229725180601997
 30
0.0
 10
78.5134857232655
 20
5.257170077992629
 30
0.0
 10
77.37352082674839
 20
5.309929011302315
 30
0.0
 10
76.35843120990324
 20
5.380708548972372
 30
0.0
 10
75.61380042860678
 20
5.443839359265234
 30
0.0
 10
75.10447755141111
 20
5.491295806966154
 30
0.0
 10
74.47992734751234
 20
5.555447910501898
 30
0.0
 10
73.66906574204904
 20
5.64810668742028
 30
0.0
 10
72.61194787107
 20
5.783319732785129
 30
0.0
 10
71.82158200869443
 20
5.903631530537106
 30
0.0
 10
71.38512907154427
 20
5.970069670141006
 30
0.0
  0
SPLINE
  5
A8
330
1F
100
AcDbEntity
  8
외형선
  6
Continuous
370
    15
100
AcDbSpline
210
0.0
220
0.0
230
1.0
 70
     8
 71
     3
 72
    10
 73
     6
 74
     0
 42
0.000000001
 43
0.00000001
 40
0.0
 40
0.0
 40
0.0
 40
0.0
 40
0.5
 40
0.5
 40
1.0
 40
1.0
 40
1.0
 40
1.0
 10
11.99999999999999
 20
-7.248849474327669
 30
0.0
 10
11.49161962313207
 20
-7.368410812704177
 30
0.0
 10
10.98098000288416
 20
-7.473240240235353
 30
0.0
 10
9.964582174517938
 20
-7.651516373478273
 30
0.0
 10
9.459332614976262
 20
-7.725011441211326
 30
0.0
 10
8.95016268857449
 20
-7.782712790005073
 30
0.0
  0
LINE
  5
A9
330
1F
100
AcDbEntity
  8
외형선
  6
Continuous
370
    15
100
AcDbLine
 10
8.95007944544364
 20
7.782779635781578
 30
0.0
 11
8.95007944544364
 21
7.937499999999995
 31
0.0
  0
SPLINE
  5
AA
330
1F
100
AcDbEntity
  8
외형선
  6
Continuous
370
    15
100
AcDbSpline
210
0.0
220
0.0
230
1.0
 70
     8
 71
     3
 72
    10
 73
     6
 74
     0
 42
0.000000001
 43
0.00000001
 40
0.0
 40
0.0
 40
0.0
 40
0.0
 40
0.5
 40
0.5
 40
1.0
 40
1.0
 40
1.0
 40
1.0
 10
11.99999999999999
 20
7.248849474327659
 30
0.0
 10
11.49161962313207
 20
7.368410812704167
 30
0.0
 10
10.98098000288416
 20
7.473240240235343
 30
0.0
 10
9.964582174517938
 20
7.651516373478264
 30
0.0
 10
9.459332614976262
 20
7.725011441211317
 30
0.0
 10
8.95016268857449
 20
7.782712790005063
 30
0.0
  0
LINE
  5
AB
330
1F
100
AcDbEntity
  8
외형선
  6
Continuous
370
    15
100
AcDbLine
 10
12.00000000000001
 20
7.248849474327652
 30
0.0
 11
12.0
 21
6.073770513391531
 31
0.0
  0
SPLINE
  5
AC
330
1F
100
AcDbEntity
  8
외형선
  6
Continuous
370
    15
100
AcDbSpline
210
0.0
220
0.0
230
1.0
 70
     8
 71
     3
 72
    10
 73
     6
 74
     0
 42
0.000000001
 43
0.00000001
 40
0.0
 40
0.0
 40
0.0
 40
0.0
 40
0.5
 40
0.5
 40
1.0
 40
1.0
 40
1.0
 40
1.0
 10
11.99999999999999
 20
6.073770513391531
 30
0.0
 10
11.49160577079231
 20
6.262703009351985
 30
0.0
 10
10.98095217524008
 20
6.439421871985032
 30
0.0
 10
9.964526917801292
 20
6.765188348583893
 30
0.0
 10
9.45926337444623
 20
6.914249634907203
 30
0.0
 10
8.950079445443633
 20
7.049217361967136
 30
0.0
  0
LINE
  5
AD
330
1F
100
AcDbEntity
  8
외형선
  6
Continuous
370
    15
100
AcDbLine
 10
8.95007944544364
 20
-7.937500000000005
 30
0.0
 11
8.950079445443633
 21
7.049216941449648
 31
0.0
  0
LINE
  5
AE
330
1F
100
AcDbEntity
  8
외형선
  6
Continuous
370
    15
100
AcDbLine
 10
-63.2
 20
7.937499999999984
 30
0.0
 11
-63.2
 21
-7.937500000000009
 31
0.0
  0
LINE
  5
AF
330
1F
100
AcDbEntity
  8
외형선
  6
Continuous
370
    15
100
AcDbLine
 10
-64.2
 20
6.937499999999985
 30
0.0
 11
-64.2
 21
-6.937500000000003
 31
0.0
  0
SPLINE
  5
B0
330
1F
100
AcDbEntity
  8
외형선
  6
Continuous
370
    15
100
AcDbSpline
210
0.0
220
0.0
230
1.0
 70
     8
 71
     3
 72
    12
 73
     8
 74
     0
 42
0.000000001
 43
0.00000001
 40
0.0
 40
0.0
 40
0.0
 40
0.0
 40
0.5000000000000002
 40
0.5000000000000002
 40
0.7500000000000001
 40
0.7500000000000001
 40
1.0
 40
1.0
 40
1.0
 40
1.0
 10
8.95007944544396
 20
5.320379505966077
 30
0.0
 10
8.950079445442526
 20
5.196118467185328
 30
0.0
 10
8.990875722252653
 20
5.074049564948377
 30
0.0
 10
9.087967557958825
 20
4.91692335644968
 30
0.0
 10
9.126682909934397
 20
4.869229882354442
 30
0.0
 10
9.2184909897038
 20
4.790474278964933
 30
0.0
 10
9.271663928453853
 20
4.759645157341184
 30
0.0
 10
9.330080805541076
 20
4.747379250619053
 30
0.0
  0
SPLINE
  5
B1
330
1F
100
AcDbEntity
  8
외형선
  6
Continuous
370
    15
100
AcDbSpline
210
0.0
220
0.0
230
1.0
 70
     8
 71
     3
 72
    10
 73
     6
 74
     0
 42
0.000000001
 43
0.00000001
 40
0.0
 40
0.0
 40
0.0
 40
0.0
 40
0.5000000000000001
 40
0.5000000000000001
 40
1.0
 40
1.0
 40
1.0
 40
1.0
 10
12.0
 20
4.101008718795749
 30
0.0
 10
11.55488970327724
 20
4.222358201596088
 30
0.0
 10
11.10804715747688
 20
4.337403726289672
 30
0.0
 10
10.21720853847571
 20
4.553252670190023
 30
0.0
 10
9.775113043196363
 20
4.653934955278435
 30
0.0
 10
9.330080805541055
 20
4.747379250619058
 30
0.0
  0
SPLINE
  5
B2
330
1F
100
AcDbEntity
  8
외형선
  6
Continuous
370
    15
100
AcDbSpline
210
0.0
220
0.0
230
1.0
 70
    24
 71
     3
 72
    14
 73
    10
 74
     0
 42
0.000000001
 43
0.00000001
 40
0.0
 40
0.0
 40
0.0
 40
0.0
 40
0.2499999999999999
 40
0.2499999999999999
 40
0.4999999999999999
 40
0.4999999999999999
 40
0.7499999999999999
 40
0.7499999999999999
 40
1.0
 40
1.0
 40
1.0
 40
1.0
 10
12.00000000000001
 20
4.101008718795747
 30
0.0
 10
12.00000000000001
 20
3.526985621457421
 30
0.0
 10
12.00000000000001
 20
2.884753639328679
 30
0.0
 10
12.00000000000001
 20
1.50817479310527
 30
0.0
 10
12.00000000000001
 20
0.7743180148387138
 30
0.0
 10
12.00000000000001
 20
-0.7160045149559476
 30
0.0
 10
12.00000000000001
 20
-1.471676160332446
 30
0.0
 10
12.00000000000001
 20
-2.931376698769267
 30
0.0
 10
12.00000000000001
 20
-3.634798757099732
 30
0.0
 10
12.00000000000001
 20
-4.284364214150359
 30
0.0
  0
SPLINE
  5
B3
330
1F
100
AcDbEntity
  8
외형선
  6
Continuous
370
    15
100
AcDbSpline
210
0.0
220
0.0
230
1.0
 70
     8
 71
     3
 72
    10
 73
     6
 74
     0
 42
0.000000001
 43
0.00000001
 40
0.0
 40
0.0
 40
0.0
 40
0.0
 40
0.5000000000000001
 40
0.5000000000000001
 40
1.0
 40
1.0
 40
1.0
 40
1.0
 10
11.99999999999992
 20
-4.284364214150327
 30
0.0
 10
11.57939469448844
 20
-4.141002482299234
 30
0.0
 10
11.1572425820808
 20
-3.991439944814305
 30
0.0
 10
10.31516995613361
 20
-3.681788349642774
 30
0.0
 10
9.897136480926367
 20
-3.521953487971825
 30
0.0
 10
9.47701532776804
 20
-3.357147712311058
 30
0.0
  0
SPLINE
  5
B4
330
1F
100
AcDbEntity
  8
외형선
  6
Continuous
370
    15
100
AcDbSpline
210
0.0
220
0.0
230
1.0
 70
     8
 71
     3
 72
    16
 73
    12
 74
     0
 42
0.000000001
 43
0.00000001
 40
0.0
 40
0.0
 40
0.0
 40
0.0
 40
0.2055832650477366
 40
0.3872508084202972
 40
0.5450486151199464
 40
0.6790313620813946
 40
0.7892730705915626
 40
0.8758918553685476
 40
0.9391199459265146
 40
0.9795721471066421
 40
1.0
 40
1.0
 40
1.0
 40
1.0
 10
9.235251550942445
 20
-3.682873744851343
 30
0.0
 10
9.250431238379077
 20
-3.65935099042958
 30
0.0
 10
9.279024743935276
 20
-3.615041908831989
 30
0.0
 10
9.319977987553036
 20
-3.553159488403998
 30
0.0
 10
9.356188715218693
 20
-3.499862128679639
 30
0.0
 10
9.387661533068144
 20
-3.455051261944482
 30
0.0
 10
9.414462955000651
 20
-3.41896686150677
 30
0.0
 10
9.436362721289882
 20
-3.390815176149299
 30
0.0
 10
9.453884783973258
 20
-3.372342238037091
 30
0.0
 10
9.465952961320708
 20
-3.359137452607196
 30
0.0
 10
9.474225062439126
 20
-3.357673434143669
 30
0.0
 10
9.477000704927255
 20
-3.357182193551636
 30
0.0
  0
SPLINE
  5
B5
330
1F
100
AcDbEntity
  8
외형선
  6
Continuous
370
    15
100
AcDbSpline
210
0.0
220
0.0
230
1.0
 70
     8
 71
     3
 72
    18
 73
    14
 74
     0
 42
0.000000001
 43
0.00000001
 40
0.0
 40
0.0
 40
0.0
 40
0.0
 40
0.0160350566655767
 40
0.0448032949037964
 40
0.0870491162734323
 40
0.1429757728414708
 40
0.2500822532512094
 40
0.5000974870655093
 40
0.750134542652628
 40
0.8501693999081819
 40
0.9245386405345261
 40
0.9741275515000278
 40
1.0
 40
1.0
 40
1.0
 40
1.0
 10
9.400112880336227
 20
-6.649376492881568
 30
0.0
 10
9.396858384001437
 20
-6.650628052681503
 30
0.0
 10
9.387765047938334
 20
-6.654125015865092
 30
0.0
 10
9.372375332656457
 20
-6.666860917406324
 30
0.0
 10
9.350614175065797
 20
-6.685188378113461
 30
0.0
 10
9.316719575013476
 20
-6.716973751753841
 30
0.0
 10
9.250410053671162
 20
-6.782577896038299
 30
0.0
 10
9.156681544725148
 20
-6.882944992893755
 30
0.0
 10
9.067805489527174
 20
-6.985088380762095
 30
0.0
 10
9.007317842203094
 20
-7.059452470777524
 30
0.0
 10
8.977724111908989
 20
-7.099796941832801
 30
0.0
 10
8.957352946637295
 20
-7.127293371709373
 30
0.0
 10
8.951998498213605
 20
-7.142617958277202
 30
0.0
 10
8.95016268857449
 20
-7.147872098668629
 30
0.0
  0
SPLINE
  5
B6
330
1F
100
AcDbEntity
  8
외형선
  6
Continuous
370
    15
100
AcDbSpline
210
0.0
220
0.0
230
1.0
 70
     8
 71
     3
 72
    16
 73
    12
 74
     0
 42
0.000000001
 43
0.00000001
 40
0.0
 40
0.0
 40
0.0
 40
0.0
 40
0.2499999999999988
 40
0.2499999999999988
 40
0.4999999999999976
 40
0.4999999999999976
 40
0.6249999999999969
 40
0.6249999999999969
 40
0.7499999999999963
 40
0.7499999999999963
 40
1.0
 40
1.0
 40
1.0
 40
1.0
 10
9.235249426565472
 20
-3.682958967740845
 30
0.0
 10
9.206357549324872
 20
-3.727860969050298
 30
0.0
 10
9.175831315063096
 20
-3.771231085054991
 30
0.0
 10
9.107568127503303
 20
-3.851168415249905
 30
0.0
 10
9.068043244086759
 20
-3.888876216977074
 30
0.0
 10
9.01624665016837
 20
-3.908240545679522
 30
0.0
 10
9.001084114568341
 20
-3.907738618612886
 30
0.0
 10
8.978191966608085
 20
-3.895103325504497
 30
0.0
 10
8.970295526661221
 20
-3.883694833107795
 30
0.0
 10
8.953174500192983
 20
-3.842364176583141
 30
0.0
 10
8.950079445443636
 20
-3.80547150417032
 30
0.0
 10
8.95007944544364
 20
-3.76732930065895
 30
0.0
  0
LINE
  5
B7
330
1F
100
AcDbEntity
  8
외형선
  6
Continuous
370
    15
100
AcDbLine
 10
9.949247633870392
 20
-6.578961634918604
 30
0.0
 11
9.40011066791954
 21
-6.649376676836963
 31
0.0
  0
SPLINE
  5
B8
330
1F
100
AcDbEntity
  8
외형선
  6
Continuous
370
    15
100
AcDbSpline
210
0.0
220
0.0
230
1.0
 70
    24
 71
     3
 72
    13
 73
     9
 74
     0
 42
0.000000001
 43
0.00000001
 40
0.0
 40
0.0
 40
0.0
 40
0.0
 40
0.1580448558190296
 40
0.3160897116380591
 40
0.5472324493377537
 40
0.7850783420894618
 40
0.9938079538295359
 40
0.9999999999999999
 40
0.9999999999999999
 40
0.9999999999999999
 40
0.9999999999999999
 10
12.0
 20
-4.284364214150355
 30
0.0
 10
12.0
 20
-4.492772255941558
 30
0.0
 10
12.0
 20
-4.909588339523961
 30
0.0
 10
12.0
 20
-5.497113591884369
 30
0.0
 10
12.0
 20
-6.022564803973933
 30
0.0
 10
12.0
 20
-6.332405646065475
 30
0.0
 10
12.0
 20
-6.452820557059265
 30
0.0
 10
12.0
 20
-6.417297057925085
 30
0.0
 10
12.0
 20
-6.416273600592242
 30
0.0
  0
SPLINE
  5
B9
330
1F
100
AcDbEntity
  8
외형선
  6
Continuous
370
    15
100
AcDbSpline
210
0.0
220
0.0
230
1.0
 70
    24
 71
     3
 72
    10
 73
     6
 74
     0
 42
0.000000001
 43
0.00000001
 40
0.0
 40
0.0
 40
0.0
 40
0.0
 40
0.5
 40
0.5
 40
1.0
 40
1.0
 40
1.0
 40
1.0
 10
12.00000000000001
 20
6.073770513391523
 30
0.0
 10
12.00000000000001
 20
5.848991915857276
 30
0.0
 10
12.00000000000001
 20
5.549619833960212
 30
0.0
 10
12.00000000000001
 20
4.864438855827313
 30
0.0
 10
12.00000000000001
 20
4.480801069997622
 30
0.0
 10
12.00000000000001
 20
4.101008718795747
 30
0.0
  0
SPLINE
  5
BA
330
1F
100
AcDbEntity
  8
외형선
  6
Continuous
370
    15
100
AcDbSpline
210
0.0
220
0.0
230
1.0
 70
    24
 71
     3
 72
    12
 73
     8
 74
     0
 42
0.000000001
 43
0.00000001
 40
0.0
 40
0.0
 40
0.0
 40
0.0
 40
0.1209970539879738
 40
0.3591274349856108
 40
0.5969806194336218
 40
0.8351110004312566
 40
1.0
 40
1.0
 40
1.0
 40
1.0
 10
12.0
 20
-6.419188712924641
 30
0.0
 10
12.0
 20
-6.454950264284449
 30
0.0
 10
12.0
 20
-6.561092966008664
 30
0.0
 10
12.0
 20
-6.731152585609981
 30
0.0
 10
12.0
 20
-6.929403404279029
 30
0.0
 10
12.0
 20
-7.101650287841249
 30
0.0
 10
12.0
 20
-7.206111019587373
 30
0.0
 10
12.0
 20
-7.248849474317841
 30
0.0
  0
SPLINE
  5
BB
330
1F
100
AcDbEntity
  8
0
  6
Continuous
 62
     1
370
    15
100
AcDbSpline
210
0.0
220
0.0
230
1.0
 70
     8
 71
     3
 72
    21
 73
    17
 74
     0
 42
0.000000001
 43
0.00000001
 40
0.0
 40
0.0
 40
0.0
 40
0.0
 40
0.0729736700863807
 40
0.1459508953964784
 40
0.2189312980581609
 40
0.2919144988154416
 40
0.3649001171920529
 40
0.4378877716561634
 40
0.5108770797860882
 40
0.5838676584368367
 40
0.6568591239073394
 40
0.7298510921082029
 40
0.8028431787298285
 40
0.8758349994107403
 40
0.948826169905961
 40
1.0
 40
1.0
 40
1.0
 40
1.0
 10
88.20000000000002
 20
-7.532218149528214
 30
0.0
 10
87.25672207874833
 20
-7.32957460760183
 30
0.0
 10
85.37012028043605
 20
-6.924277651104239
 30
0.0
 10
82.54011783810535
 20
-5.938693781200414
 30
0.0
 10
79.70996976780123
 20
-4.725130166593808
 30
0.0
 10
76.8796909356693
 20
-3.305871642569298
 30
0.0
 10
74.04929978124238
 20
-1.748612107383426
 30
0.0
 10
71.21881385339462
 20
-0.1170471879179512
 30
0.0
 10
68.38825099548428
 20
1.519375410256015
 30
0.0
 10
65.55762902113159
 20
3.091604964246086
 30
0.0
 10
62.72696577771687
 20
4.5334884902713
 30
0.0
 10
59.89627916823454
 20
5.783019479005628
 30
0.0
 10
57.06558695183331
 20
6.791562342472596
 30
0.0
 10
54.23490747115149
 20
7.501037899998012
 30
0.0
 10
51.68627478606166
 20
7.89559252313138
 30
0.0
 10
50.08120864908095
 20
7.900338510359179
 30
0.0
 10
49.41969065774894
 20
7.90229453937598
 30
0.0
  0
SPLINE
  5
BC
330
1F
100
AcDbEntity
  8
0
  6
Continuous
 62
     1
370
    15
100
AcDbSpline
210
0.0
220
0.0
230
1.0
 70
     8
 71
     3
 72
     9
 73
     5
 74
     0
 42
0.000000001
 43
0.00000001
 40
0.0
 40
0.0
 40
0.0
 40
0.0
 40
0.1634051561081293
 40
1.0
 40
1.0
 40
1.0
 40
1.0
 10
15.33957264975679
 20
-6.238569124162301
 30
0.0
 10
15.15767210326375
 20
-6.309461626754243
 30
0.0
 10
14.04448479127544
 20
-6.743306581714121
 30
0.0
 10
12.93129164577715
 20
-7.018567559547888
 30
0.0
 10
11.99999999999751
 20
-7.248849474328253
 30
0.0
  0
SPLINE
  5
BD
330
1F
100
AcDbEntity
  8
외형선
  6
Continuous
370
    15
100
AcDbSpline
210
0.0
220
0.0
230
1.0
 70
    24
 71
     3
 72
    12
 73
     8
 74
     0
 42
0.000000001
 43
0.00000001
 40
0.0
 40
0.0
 40
0.0
 40
0.0
 40
0.1209970539879741
 40
0.3591274349856137
 40
0.5969806194336315
 40
0.8351110004312673
 40
1.0
 40
1.0
 40
1.0
 40
1.0
 10
12.00000000000001
 20
-6.41918871292464
 30
0.0
 10
12.00000000000002
 20
-6.454950264284448
 30
0.0
 10
12.00000000000002
 20
-6.561092966008661
 30
0.0
 10
12.00000000000002
 20
-6.731152585609979
 30
0.0
 10
12.00000000000002
 20
-6.929403404279029
 30
0.0
 10
12.00000000000002
 20
-7.101650287841243
 30
0.0
 10
12.00000000000002
 20
-7.206111019587366
 30
0.0
 10
12.00000000000001
 20
-7.24884947431783
 30
0.0
  0
SPLINE
  5
BE
330
1F
100
AcDbEntity
  8
0
  6
Continuous
 62
     1
370
    15
100
AcDbSpline
210
0.0
220
0.0
230
1.0
 70
     8
 71
     3
 72
    14
 73
    10
 74
     0
 42
0.000000001
 43
0.00000001
 40
0.0
 40
0.0
 40
0.0
 40
0.0
 40
0.1602735698061598
 40
0.3206382478366598
 40
0.4810205756939676
 40
0.6413469283429474
 40
0.801588645638306
 40
0.9619187985188946
 40
1.0
 40
1.0
 40
1.0
 40
1.0
 10
88.20000000000002
 20
-6.26246734842272
 30
0.0
 10
87.09973560391994
 20
-6.026568224829557
 30
0.0
 10
84.89858136156518
 20
-5.554635879736135
 30
0.0
 10
81.59600150491569
 20
-4.431610822493887
 30
0.0
 10
78.29304651523623
 20
-3.080700600469483
 30
0.0
 10
74.99107775243404
 20
-1.543257653575168
 30
0.0
 10
71.68993806850722
 20
0.0709621740949879
 30
0.0
 10
69.22760093860003
 20
1.301356303282875
 30
0.0
 10
67.8653540674487
 20
1.918505991549283
 30
0.0
 10
67.6038972685966
 20
2.036955874110096
 30
0.0
  0
LINE
  5
BF
330
1F
100
AcDbEntity
  8
0
  6
Continuous
 62
     1
370
    15
100
AcDbLine
 10
88.20000000000002
 20
-7.532218149528221
 30
0.0
 11
88.20000000000002
 21
-6.26246734842272
 31
0.0
  0
SPLINE
  5
C0
330
1F
100
AcDbEntity
  8
0
  6
Continuous
 62
     1
370
    15
100
AcDbSpline
210
0.0
220
0.0
230
1.0
 70
     8
 71
     3
 72
    24
 73
    20
 74
     0
 42
0.000000001
 43
0.00000001
 40
0.0
 40
0.0
 40
0.0
 40
0.0
 40
0.0305169593455505
 40
0.0914109916656457
 40
0.1523044815629307
 40
0.2131971087154116
 40
0.2740885531788163
 40
0.3349784955263901
 40
0.395866616988207
 40
0.4567525995898586
 40
0.5176361262903972
 40
0.5785168811194008
 40
0.6393950325131996
 40
0.6994924417558611
 40
0.7595913764111235
 40
0.8196917182518522
 40
0.8797933487325926
 40
0.9398961490160977
 40
1.0
 40
1.0
 40
1.0
 40
1.0
 10
58.48417840745407
 20
-6.241141059002649
 30
0.0
 10
58.01131354304957
 20
-6.414708172567378
 30
0.0
 10
56.59488651014601
 20
-6.934613900783679
 30
0.0
 10
54.23490726482454
 20
-7.500023085170389
 30
0.0
 10
51.40425772820964
 20
-7.913031724501507
 30
0.0
 10
48.57365633871136
 20
-7.977989803532441
 30
0.0
 10
45.74312090339336
 20
-7.709694118209673
 30
0.0
 10
42.91266923821863
 20
-7.114787661952761
 30
0.0
 10
40.08231914286932
 20
-6.21966653041863
 30
0.0
 10
37.25208824543354
 20
-5.061811131345887
 30
0.0
 10
34.42199460070439
 20
-3.69022346501384
 30
0.0
 10
31.59204691766098
 20
-2.162815778964446
 30
0.0
 10
28.7743123935677
 20
-0.5509810768724442
 30
0.0
 10
25.9686808613872
 20
1.07652376289185
 30
0.0
 10
23.17508557365663
 20
2.652329491788794
 30
0.0
 10
20.38141218915728
 20
4.120527316039563
 30
0.0
 10
17.58766668567842
 20
5.41342422696478
 30
0.0
 10
14.79385658850354
 20
6.504961067047726
 30
0.0
 10
12.93129095626093
 20
7.000885226979384
 30
0.0
 10
11.99999999999751
 20
7.248849474328244
 30
0.0
  0
SPLINE
  5
C1
330
1F
100
AcDbEntity
  8
0
  6
Continuous
 62
     1
370
    15
100
AcDbSpline
210
0.0
220
0.0
230
1.0
 70
     8
 71
     3
 72
    17
 73
    13
 74
     0
 42
0.000000001
 43
0.00000001
 40
0.0
 40
0.0
 40
0.0
 40
0.0
 40
0.0421251070631795
 40
0.15724637982521
 40
0.2723252750772672
 40
0.3873465570289125
 40
0.5024336356164543
 40
0.6175564936865647
 40
0.73266227432334
 40
0.8476990996317453
 40
0.9627503834349146
 40
1.0
 40
1.0
 40
1.0
 40
1.0
 10
53.08582112976713
 20
-6.559981120599665
 30
0.0
 10
52.68290006040101
 20
-6.612040603607166
 30
0.0
 10
51.17885926548739
 20
-6.806370441777648
 30
0.0
 10
48.57401138200105
 20
-6.745960682067436
 30
0.0
 10
45.2720991750415
 20
-6.374674516701662
 30
0.0
 10
41.97095743394614
 20
-5.61229893489774
 30
0.0
 10
38.66889107740467
 20
-4.534550787733624
 30
0.0
 10
35.36590822077427
 20
-3.195273499319605
 30
0.0
 10
32.06342947915181
 20
-1.67080963774434
 30
0.0
 10
28.76208588315975
 20
-0.0587007807239832
 30
0.0
 10
26.2052887487213
 20
1.218186869670217
 30
0.0
 10
24.74852993432436
 20
1.882216678980029
 30
0.0
 10
24.39223718009318
 20
2.044624489602092
 30
0.0
  0
SPLINE
  5
C2
330
1F
100
AcDbEntity
  8
0
  6
Continuous
 62
     1
370
    15
100
AcDbSpline
210
0.0
220
0.0
230
1.0
 70
     8
 71
     3
 72
    19
 73
    15
 74
     0
 42
0.000000001
 43
0.00000001
 40
0.0
 40
0.0
 40
0.0
 40
0.0
 40
0.0832147362309221
 40
0.1664280180831963
 40
0.2496396807114392
 40
0.3328495596371627
 40
0.4160574907856804
 40
0.4992633105228182
 40
0.5835504784993311
 40
0.6678412497172984
 40
0.7521358590116646
 40
0.836433868885656
 40
0.9207348403601227
 40
1.0
 40
1.0
 40
1.0
 40
1.0
 10
11.99999999999999
 20
6.073770513391536
 30
0.0
 10
12.93128749504889
 20
5.703401466147645
 30
0.0
 10
14.79384620864677
 20
4.962669844754155
 30
0.0
 10
17.58764593694666
 20
3.580353885513949
 30
0.0
 10
20.38138108710774
 20
2.068647794720912
 30
0.0
 10
23.17504413674574
 20
0.4670186399032077
 30
0.0
 10
25.96862910816346
 20
-1.152543044288836
 30
0.0
 10
28.77425475845481
 20
-2.731766197451115
 30
0.0
 10
31.59198778694532
 20
-4.204136757721725
 30
0.0
 10
34.42193838873538
 20
-5.504737759219809
 30
0.0
 10
37.2520348667953
 20
-6.574886535716438
 30
0.0
 10
40.0822689275592
 20
-7.359934177097314
 30
0.0
 10
42.85623462646045
 20
-7.851933133587978
 30
0.0
 10
44.68679453672789
 20
-7.90322092611506
 30
0.0
 10
45.57389520071726
 20
-7.928075307853751
 30
0.0
  0
SPLINE
  5
C3
330
1F
100
AcDbEntity
  8
0
  6
Continuous
 62
     1
370
    15
100
AcDbSpline
210
0.0
220
0.0
230
1.0
 70
     8
 71
     3
 72
    11
 73
     7
 74
     0
 42
0.000000001
 43
0.00000001
 40
0.0
 40
0.0
 40
0.0
 40
0.0
 40
0.2208377158789163
 40
0.4805702339845626
 40
0.7402914436624584
 40
0.9999999999999999
 40
0.9999999999999999
 40
0.9999999999999999
 40
0.9999999999999999
 10
77.30363328185749
 20
5.319719307147981
 30
0.0
 10
78.10575448911817
 20
5.653238403644576
 30
0.0
 10
79.851269627794
 20
6.37901728432078
 30
0.0
 10
82.54011158831086
 20
7.180127498955228
 30
0.0
 10
85.37011740322102
 20
7.767221065739568
 30
0.0
 10
87.25672112033368
 20
7.876268804639879
 30
0.0
 10
88.20000000000003
 20
7.937499999999995
 30
0.0
  0
SPLINE
  5
C4
330
1F
100
AcDbEntity
  8
0
  6
Continuous
 62
     1
370
    15
100
AcDbSpline
210
0.0
220
0.0
230
1.0
 70
    24
 71
     3
 72
    10
 73
     6
 74
     0
 42
0.000000001
 43
0.00000001
 40
0.0
 40
0.0
 40
0.0
 40
0.0
 40
0.5
 40
0.5
 40
1.0
 40
1.0
 40
1.0
 40
1.0
 10
88.20000000000002
 20
5.556249999999994
 30
0.0
 10
88.20000000000002
 20
5.893056038408048
 30
0.0
 10
88.20000000000003
 20
6.284455846632738
 30
0.0
 10
88.20000000000005
 20
7.105611590126788
 30
0.0
 10
88.20000000000003
 20
7.533270396674186
 30
0.0
 10
88.20000000000003
 20
7.937499999999995
 30
0.0
  0
LINE
  5
C5
330
1F
100
AcDbEntity
  8
0
  6
Continuous
 62
     1
370
    15
100
AcDbLine
 10
88.20000000000002
 20
5.556249999999995
 30
0.0
 11
85.25963530679476
 21
5.414205993036224
 31
0.0
  0
SPLINE
  5
C6
330
1F
100
AcDbEntity
  8
0
  6
Continuous
 62
     1
370
    15
100
AcDbSpline
210
0.0
220
0.0
230
1.0
 70
     8
 71
     3
 72
    11
 73
     7
 74
     0
 42
0.000000001
 43
0.00000001
 40
0.0
 40
0.0
 40
0.0
 40
0.0
 40
0.2361211866009548
 40
0.4845301431632449
 40
0.7423040363723347
 40
1.0
 40
1.0
 40
1.0
 40
1.0
 10
25.29789819963251
 20
-0.7584435608184109
 30
0.0
 10
24.25124695819187
 20
-0.3356280422198539
 30
0.0
 10
22.10347664093407
 20
0.5320063564858659
 30
0.0
 10
18.8130098492069
 20
1.840099463928198
 30
0.0
 10
15.42702261005245
 20
3.092087267569889
 30
0.0
 10
13.14222573023313
 20
3.764735465741058
 30
0.0
 10
12.0
 20
4.101008718795749
 30
0.0
  0
SPLINE
  5
C7
330
1F
100
AcDbEntity
  8
외형선
  6
Continuous
370
    15
100
AcDbSpline
210
0.0
220
0.0
230
1.0
 70
    24
 71
     3
 72
    10
 73
     6
 74
     0
 42
0.000000001
 43
0.00000001
 40
0.0
 40
0.0
 40
0.0
 40
0.0
 40
0.5
 40
0.5
 40
1.0
 40
1.0
 40
1.0
 40
1.0
 10
12.00000000000001
 20
6.073770513391522
 30
0.0
 10
12.00000000000001
 20
5.848991915857275
 30
0.0
 10
12.00000000000001
 20
5.549619833960211
 30
0.0
 10
12.00000000000001
 20
4.864438855827315
 30
0.0
 10
12.00000000000001
 20
4.480801069997623
 30
0.0
 10
12.00000000000001
 20
4.101008718795747
 30
0.0
  0
SPLINE
  5
C8
330
1F
100
AcDbEntity
  8
0
  6
Continuous
 62
     1
370
    15
100
AcDbSpline
210
0.0
220
0.0
230
1.0
 70
     8
 71
     3
 72
    27
 73
    23
 74
     0
 42
0.000000001
 43
0.00000001
 40
0.0
 40
0.0
 40
0.0
 40
0.0
 40
0.0057625140247982
 40
0.0580857926338462
 40
0.1104111820478038
 40
0.1627384097839044
 40
0.2150672025570474
 40
0.2673972863983606
 40
0.3197283867744016
 40
0.3720602287068966
 40
0.4243925368928925
 40
0.4767250358252197
 40
0.529057449913146
 40
0.5813895036031088
 40
0.6337209214994143
 40
0.6860514284847845
 40
0.738380749840645
 40
0.7907086113670346
 40
0.8430347395020256
 40
0.895358861440546
 40
0.9476807052524888
 40
1.0
 40
1.0
 40
1.0
 40
1.0
 10
34.11021513059966
 20
5.324018237020515
 30
0.0
 10
34.21410988605358
 20
5.371807163545354
 30
0.0
 10
35.2613627335211
 20
5.853516650823029
 30
0.0
 10
37.2520366730469
 20
6.560108416826363
 30
0.0
 10
40.08226826021492
 20
7.368221897206664
 30
0.0
 10
42.91262187651927
 20
7.843561129463382
 30
0.0
 10
45.74307631883676
 20
7.993421735100284
 30
0.0
 10
48.57361474142185
 20
7.804124994781389
 30
0.0
 10
51.40421908060733
 20
7.285623899145196
 30
0.0
 10
54.2348715589728
 20
6.459285935998764
 30
0.0
 10
57.06555429253844
 20
5.360152009131322
 30
0.0
 10
59.89624940626132
 20
4.034609419475965
 30
0.0
 10
62.72693901348701
 20
2.538657584541529
 30
0.0
 10
65.55760523134299
 20
0.9354857831381799
 30
0.0
 10
68.38823018844265
 20
-0.7071988991919936
 30
0.0
 10
71.21879602739232
 20
-2.319969316096806
 30
0.0
 10
74.04928493571273
 20
-3.834863526101554
 30
0.0
 10
76.87967906819748
 20
-5.187313431211622
 30
0.0
 10
79.7099608749392
 20
-6.322392656010981
 30
0.0
 10
82.54011191511857
 20
-7.184000224966028
 30
0.0
 10
85.37011732152521
 20
-7.766252956830376
 30
0.0
 10
87.2567210931022
 20
-7.875946106910908
 30
0.0
 10
88.2
 20
-7.937500000000002
 30
0.0
  0
SPLINE
  5
C9
330
1F
100
AcDbEntity
  8
0
  6
Continuous
 62
     1
370
    15
100
AcDbSpline
210
0.0
220
0.0
230
1.0
 70
     8
 71
     3
 72
    16
 73
    12
 74
     0
 42
0.000000001
 43
0.00000001
 40
0.0
 40
0.0
 40
0.0
 40
0.0
 40
0.0035469343671041
 40
0.1285637274470825
 40
0.2535637034658023
 40
0.3784875001626241
 40
0.5034197086397108
 40
0.6284233737930683
 40
0.7534388667811746
 40
0.8784064464530567
 40
1.0
 40
1.0
 40
1.0
 40
1.0
 10
68.48197116925498
 20
-0.755254658353602
 30
0.0
 10
68.45073079083043
 20
-0.7430572314122851
 30
0.0
 10
67.31837843202526
 20
-0.3009439835938683
 30
0.0
 10
65.08492831961571
 20
0.6235606719802997
 30
0.0
 10
61.78245188426952
 20
1.925725930759089
 30
0.0
 10
58.48101899640631
 20
3.125700384719962
 30
0.0
 10
55.17951427292978
 20
4.1435206482059
 30
0.0
 10
51.87692321921529
 20
4.925502985754443
 30
0.0
 10
48.57400683462235
 20
5.418243288819529
 30
0.0
 10
45.30126638353747
 20
5.622090247901363
 30
0.0
 10
43.12977854656725
 20
5.489883344791321
 30
0.0
 10
42.05889231590234
 20
5.424684475274772
 30
0.0
  0
LINE
  5
CA
330
1F
100
AcDbEntity
  8
0
  6
Continuous
 62
     1
370
    15
100
AcDbLine
 10
88.19999999999999
 20
-7.937500000000005
 30
0.0
 11
88.20000000000002
 21
-7.532218149528221
 31
0.0
  0
SPLINE
  5
CB
330
1F
100
AcDbEntity
  8
0
  6
Continuous
 62
     1
370
    15
100
AcDbSpline
210
0.0
220
0.0
230
1.0
 70
     8
 71
     3
 72
     8
 73
     4
 74
     0
 42
0.000000001
 43
0.00000001
 40
0.0
 40
0.0
 40
0.0
 40
0.0
 40
1.0
 40
1.0
 40
1.0
 40
1.0
 10
83.28883024581499
 20
2.220079671996145
 30
0.0
 10
83.25890471791476
 20
2.255523819275142
 30
0.0
 10
83.22929209921003
 20
2.290863161820007
 30
0.0
 10
83.20000000000823
 20
2.326095150660438
 30
0.0
  0
LINE
  5
CC
330
1F
100
AcDbEntity
  8
0
  6
Continuous
 62
     1
370
    15
100
AcDbLine
 10
83.20000000000002
 20
2.937719435296595
 30
0.0
 11
88.20000000000002
 21
0.0000000000000048
 31
0.0
  0
LINE
  5
CD
330
1F
100
AcDbEntity
  8
0
  6
Continuous
 62
     1
370
    15
100
AcDbLine
 10
88.20000000000002
 20
0.0000000000000048
 30
0.0
 11
88.20000000000002
 21
-2.121240884110302
 31
0.0
  0
SPLINE
  5
CE
330
1F
100
AcDbEntity
  8
0
  6
Continuous
 62
     1
370
    15
100
AcDbSpline
210
0.0
220
0.0
230
1.0
 70
     8
 71
     3
 72
    12
 73
     8
 74
     0
 42
0.000000001
 43
0.00000001
 40
0.0
 40
0.0
 40
0.0
 40
0.0
 40
0.5000000000000024
 40
0.5000000000000024
 40
0.7500000000000012
 40
0.7500000000000012
 40
1.0
 40
1.0
 40
1.0
 40
1.0
 10
88.20000000000002
 20
-2.121240884110301
 30
0.0
 10
87.34985708373023
 20
-1.452887382416926
 30
0.0
 10
86.51391642663297
 20
-0.7571355301524888
 30
0.0
 10
85.28186851419042
 20
0.3286694918015989
 30
0.0
 10
84.87488238863047
 20
0.6977356413039768
 30
0.0
 10
84.06922911848994
 20
1.451916538950619
 30
0.0
 10
83.67274411284303
 20
1.835090379293994
 30
0.0
 10
83.28883024581512
 20
2.220079671996082
 30
0.0
  0
SPLINE
  5
CF
330
1F
100
AcDbEntity
  8
외형선
  6
Continuous
370
    15
100
AcDbSpline
210
0.0
220
0.0
230
1.0
 70
    24
 71
     3
 72
    13
 73
     9
 74
     0
 42
0.000000001
 43
0.00000001
 40
0.0
 40
0.0
 40
0.0
 40
0.0
 40
0.1571409492498924
 40
0.3163279717953523
 40
0.5476425543419194
 40
0.7856652754526995
 40
0.9945500688286937
 40
1.0
 40
1.0
 40
1.0
 40
1.0
 10
12.00000000000001
 20
-4.284364214150359
 30
0.0
 10
12.00000000000001
 20
-4.491546912365903
 30
0.0
 10
12.00000000000002
 20
-4.908609956915741
 30
0.0
 10
12.00000000000002
 20
-5.496160103438545
 30
0.0
 10
12.00000000000001
 20
-6.022623676847932
 30
0.0
 10
12.00000000000002
 20
-6.33229061380034
 30
0.0
 10
12.00000000000001
 20
-6.452828220683164
 30
0.0
 10
12.00000000000002
 20
-6.417531809654802
 30
0.0
 10
12.00000000000002
 20
-6.41663432087362
 30
0.0
  0
SPLINE
  5
D0
330
1F
100
AcDbEntity
  8
0
  6
Continuous
 62
     1
370
    15
100
AcDbSpline
210
0.0
220
0.0
230
1.0
 70
     8
 71
     3
 72
    14
 73
    10
 74
     0
 42
0.000000001
 43
0.00000001
 40
0.0
 40
0.0
 40
0.0
 40
0.0
 40
0.1366949799156251
 40
0.2733796996493694
 40
0.45403127894676
 40
0.6345861618450501
 40
0.8152420864203828
 40
0.9959584620449946
 40
1.0
 40
1.0
 40
1.0
 40
1.0
 10
83.28883024581499
 20
2.220079671996134
 30
0.0
 10
82.45608976062067
 20
2.573310662465766
 30
0.0
 10
80.7906712948598
 20
3.279746130257213
 30
0.0
 10
78.02499465848705
 20
4.312603794548987
 30
0.0
 10
74.99101588372618
 20
5.253127309252922
 30
0.0
 10
71.68992990395117
 20
5.984946741318725
 30
0.0
 10
68.38790824839543
 20
6.330868738880358
 30
0.0
 10
66.16130455642245
 20
6.425872754554278
 30
0.0
 10
65.03554684634587
 20
6.306101359144807
 30
0.0
 10
65.01092114872209
 20
6.303481386711191
 30
0.0
  0
SPLINE
  5
D1
330
1F
100
AcDbEntity
  8
0
  6
Continuous
 62
     1
370
    15
100
AcDbSpline
210
0.0
220
0.0
230
1.0
 70
     8
 71
     3
 72
    12
 73
     8
 74
     0
 42
0.000000001
 43
0.00000001
 40
0.0
 40
0.0
 40
0.0
 40
0.0
 40
0.1694325708464096
 40
0.3732360991769573
 40
0.5770544487134905
 40
0.788558364058464
 40
1.0
 40
1.0
 40
1.0
 40
1.0
 10
28.20692584161678
 20
-5.943472210532151
 30
0.0
 10
27.29165353634674
 20
-6.074743574689996
 30
0.0
 10
25.27543750894927
 20
-6.363915908245192
 30
0.0
 10
22.15785910875727
 20
-6.379340749712272
 30
0.0
 10
18.81301002423915
 20
-6.056836361650555
 30
0.0
 10
15.42701138037781
 20
-5.375357193882191
 30
0.0
 10
13.14222498065186
 20
-4.647992838875881
 30
0.0
 10
11.99999999999999
 20
-4.284364214150352
 30
0.0
  0
SPLINE
  5
D2
330
1F
100
AcDbEntity
  8
0
  6
Continuous
 62
     1
370
    15
100
AcDbSpline
210
0.0
220
0.0
230
1.0
 70
    24
 71
     3
 72
    10
 73
     6
 74
     0
 42
0.000000001
 43
0.00000001
 40
0.0
 40
0.0
 40
0.0
 40
0.0
 40
0.5
 40
0.5
 40
1.0
 40
1.0
 40
1.0
 40
1.0
 10
88.20000000000002
 20
-6.262467348422717
 30
0.0
 10
88.20000000000003
 20
-5.782400400217704
 30
0.0
 10
88.20000000000003
 20
-5.175817403507597
 30
0.0
 10
88.20000000000002
 20
-3.765570313258522
 30
0.0
 10
88.20000000000003
 20
-2.963127829219769
 30
0.0
 10
88.20000000000002
 20
-2.121240884110555
 30
0.0
  0
SPLINE
  5
D3
330
1F
100
AcDbEntity
  8
0
  6
Continuous
 62
     1
370
    15
100
AcDbSpline
210
0.0
220
0.0
230
1.0
 70
     8
 71
     3
 72
    23
 73
    19
 74
     0
 42
0.000000001
 43
0.00000001
 40
0.0
 40
0.0
 40
0.0
 40
0.0
 40
0.0606013980119244
 40
0.127235306128659
 40
0.1938604842439346
 40
0.2604461155574512
 40
0.3270361130524651
 40
0.3936632060014736
 40
0.4602964393170627
 40
0.5269047998181133
 40
0.5934793494624372
 40
0.6600925165217398
 40
0.7267266809615937
 40
0.7933508207879364
 40
0.8599344895525292
 40
0.9265266502507569
 40
0.9931546197129838
 40
1.0
 40
1.0
 40
1.0
 40
1.0
 10
71.39250484378019
 20
-5.95446632233105
 30
0.0
 10
70.39109858582674
 20
-6.090611494134907
 30
0.0
 10
68.28860201033861
 20
-6.376454282926581
 30
0.0
 10
65.08493436033407
 20
-6.367088660596375
 30
0.0
 10
61.78242245636264
 20
-6.022588004551777
 30
0.0
 10
58.48102710781099
 20
-5.323938233764336
 30
0.0
 10
55.17954686181457
 20
-4.321762266383611
 30
0.0
 10
51.87692987989151
 20
-3.071178867078181
 30
0.0
 10
48.57400039687201
 20
-1.644358734491143
 30
0.0
 10
45.27208353175644
 20
-0.1231966012098151
 30
0.0
 10
41.97091048545998
 20
1.405794705455118
 30
0.0
 10
38.6688513179994
 20
2.853115850503388
 30
0.0
 10
35.36587622323712
 20
4.137517535659651
 30
0.0
 10
32.0634064219791
 20
5.181641927427617
 30
0.0
 10
28.76205090971803
 20
5.93849431611129
 30
0.0
 10
25.46052953720363
 20
6.317298571313901
 30
0.0
 10
23.14587101019214
 20
6.425138815694306
 30
0.0
 10
21.93169820286257
 20
6.302185171255553
 30
0.0
 10
21.81857589894297
 20
6.290729800611224
 30
0.0
  0
SPLINE
  5
D4
330
1F
100
AcDbEntity
  8
외형선
  6
Continuous
370
    15
100
AcDbSpline
210
0.0
220
0.0
230
1.0
 70
    24
 71
     3
 72
    14
 73
    10
 74
     0
 42
0.000000001
 43
0.00000001
 40
0.0
 40
0.0
 40
0.0
 40
0.0
 40
0.25
 40
0.25
 40
0.5
 40
0.5
 40
0.75
 40
0.75
 40
1.0
 40
1.0
 40
1.0
 40
1.0
 10
12.00000000000001
 20
4.101008718795747
 30
0.0
 10
12.00000000000001
 20
3.526985621457421
 30
0.0
 10
12.00000000000001
 20
2.884753639328679
 30
0.0
 10
12.00000000000001
 20
1.508174793105267
 30
0.0
 10
12.00000000000001
 20
0.7743180148387105
 30
0.0
 10
12.00000000000001
 20
-0.7160045149559537
 30
0.0
 10
12.00000000000001
 20
-1.471676160332453
 30
0.0
 10
12.00000000000001
 20
-2.931376698769275
 30
0.0
 10
12.00000000000001
 20
-3.634798757099732
 30
0.0
 10
12.00000000000001
 20
-4.284364214150359
 30
0.0
  0
SPLINE
  5
D5
330
1F
100
AcDbEntity
  8
0
  6
Continuous
 62
     1
370
    15
100
AcDbSpline
210
0.0
220
0.0
230
1.0
 70
     8
 71
     3
 72
    10
 73
     6
 74
     0
 42
0.000000001
 43
0.00000001
 40
0.0
 40
0.0
 40
0.0
 40
0.0
 40
0.5
 40
0.5
 40
1.0
 40
1.0
 40
1.0
 40
1.0
 10
88.20000000000002
 20
5.556250000000005
 30
0.0
 10
87.3835236168514
 20
5.334841988152207
 30
0.0
 10
86.57150566384055
 20
5.086020824326225
 30
0.0
 10
84.95932145579498
 20
4.529646173222806
 30
0.0
 10
84.15911785017185
 20
4.222606164143127
 30
0.0
 10
83.36849131611415
 20
3.876674191206869
 30
0.0
  0
SPLINE
  5
D6
330
1F
100
AcDbEntity
  8
0
  6
Continuous
 62
     1
370
    15
100
AcDbSpline
210
0.0
220
0.0
230
1.0
 70
    24
 71
     3
 72
     8
 73
     4
 74
     0
 42
0.000000001
 43
0.00000001
 40
0.0
 40
0.0
 40
0.0
 40
0.0
 40
1.0
 40
1.0
 40
1.0
 40
1.0
 10
83.36849131611426
 20
3.876674191206893
 30
0.0
 10
83.31308168337127
 20
3.830179988808565
 30
0.0
 10
83.2569080995201
 20
3.783044755317187
 30
0.0
 10
83.20000000000003
 20
3.735293189998893
 30
0.0
  0
SPLINE
  5
D7
330
1F
100
AcDbEntity
  8
0
  6
Continuous
 62
     1
370
    15
100
AcDbSpline
210
0.0
220
0.0
230
1.0
 70
    24
 71
     3
 72
     8
 73
     4
 74
     0
 42
0.000000001
 43
0.00000001
 40
0.0
 40
0.0
 40
0.0
 40
0.0
 40
1.0
 40
1.0
 40
1.0
 40
1.0
 10
83.2
 20
2.326095150670333
 30
0.0
 10
83.2
 20
2.844328698008605
 30
0.0
 10
83.20000000000005
 20
3.323694336875004
 30
0.0
 10
83.20000000000005
 20
3.735293189998739
 30
0.0
  0
LINE
  5
D8
330
1F
100
AcDbEntity
  8
0
  6
Continuous
 62
     1
370
    15
100
AcDbLine
 10
88.20000000000002
 20
0.0000000000000048
 30
0.0
 11
88.20000000000002
 21
5.55625
 31
0.0
  0
LINE
  5
D9
330
1F
100
AcDbEntity
  8
중심선
 62
     1
100
AcDbLine
 10
-67.2
 20
-0.0000000000000099
 30
0.0
 11
91.20000000000003
 21
0.0000000000000095
 31
0.0
  0
LINE
  5
DA
330
1F
100
AcDbEntity
  8
참조1
100
AcDbLine
 10
14.84926131403116
 20
0.0010749287238892
 30
0.0
 11
14.84926131403117
 21
-39.99892507127611
 31
0.0
  0
LINE
  5
DB
330
1F
100
AcDbEntity
  8
참조1
100
AcDbLine
 10
14.84926131403117
 20
-39.99892507127611
 30
0.0
 11
-20.15080122126847
 21
-39.9989250712761
 31
0.0
  0
CIRCLE
  5
DC
330
1F
100
AcDbEntity
  8
해칭선
100
AcDbCircle
 10
0.0
 20
0.0
 30
0.0
 40
2.999999999999996
  0
INSERT
  5
DD
330
1F
100
AcDbEntity
  8
0
  6
Continuous
 62
     7
100
AcDbBlockReference
 66
     1
  2
블럭10
 10
-1.940272932125196
 20
-52.04717430164393
 30
0.0
  0
ATTRIB
  5
DE
330
DD
100
AcDbEntity
  8
FORMAT
 62
     2
100
AcDbText
 10
-11.12156822086648
 20
-49.97180738881175
 30
0.0
 40
4.233333333333333
  1
E5026040 [ 2 FLUTE ]
 41
0.75
  7
SLDTEXTSTYLE0
 11
-11.12156822086648
 21
-52.08847405547841
 31
0.0
100
AcDbAttribute
  2
AUTOATTR0
 70
     0
 74
     1
  0
SEQEND
  5
DF
330
DD
100
AcDbEntity
  8
0
  6
Continuous
 62
     7
  0
HATCH
  5
E0
330
1F
100
AcDbEntity
  8
중심선
100
AcDbHatch
 10
0.0
 20
0.0
 30
0.0
210
0.0
220
0.0
230
1.0
  2
SOLID
 70
     1
 71
     0
 91
        1
 92
        0
 93
        4
 72
     1
 10
3.774636372255638
 20
-35.8
 11
0.3283611284183556
 21
-35.8
 72
     1
 10
0.3283611284183556
 20
-35.8
 11
-1.799868730785667
 21
-38.3363255805726
 72
     1
 10
-1.799868730785667
 20
-38.33632558057261
 11
1.646439598164765
 21
-38.33628615127012
 72
     1
 10
1.646439598164765
 20
-38.33628615127012
 11
3.774636372255638
 21
-35.8
 97
        0
 75
     0
 76
     1
 98
        1
 10
-2.849261314031157
 20
-0.0010749287238987
  0
HATCH
  5
E1
330
1F
100
AcDbEntity
  8
중심선
100
AcDbHatch
 10
0.0
 20
0.0
 30
0.0
210
0.0
220
0.0
230
1.0
  2
SOLID
 70
     1
 71
     0
 91
        1
 92
        0
 93
        4
 72
     1
 10
8.787400363291617
 20
-35.8
 11
5.341125119454363
 21
-35.8
 72
     1
 10
5.341125119454363
 20
-35.8
 11
0.8099871110969188
 21
-41.20000000000002
 72
     1
 10
0.8099871110969188
 20
-41.20000000000002
 11
4.256262354934201
 21
-41.20000000000002
 72
     1
 10
4.256262354934201
 20
-41.20000000000002
 11
8.787400363291617
 21
-35.8
 97
        0
 75
     0
 76
     1
 98
        1
 10
-2.849261314031157
 20
-0.0010749287238987
  0
HATCH
  5
E2
330
1F
100
AcDbEntity
  8
중심선
100
AcDbHatch
 10
0.0
 20
0.0
 30
0.0
210
0.0
220
0.0
230
1.0
  2
SOLID
 70
     1
 71
     0
 91
        1
 92
        0
 93
        4
 72
     1
 10
13.80016435432751
 20
-35.79999999999998
 11
10.3538891104904
 21
-35.79999999999998
 72
     1
 10
10.3538891104904
 20
-35.79999999999998
 11
3.30545220860112
 21
-44.20000000000002
 72
     1
 10
3.30545220860112
 20
-44.20000000000002
 11
6.751727452438402
 21
-44.20000000000002
 72
     1
 10
6.751727452438402
 20
-44.20000000000002
 11
13.80016435432751
 21
-35.79999999999998
 97
        0
 75
     0
 76
     1
 98
        1
 10
-2.849261314031157
 20
-0.0010749287238987
  0
HATCH
  5
E3
330
1F
100
AcDbEntity
  8
중심선
100
AcDbHatch
 10
0.0
 20
0.0
 30
0.0
210
0.0
220
0.0
230
1.0
  2
SOLID
 70
     1
 71
     0
 91
        1
 92
        0
 93
        6
 72
     3
 10
18.60005478533968
 20
-40.00000000005127
 11
3.960054785062283
 21
1.540882976769353E-10
 40
0.3939339440162628
 50
17.09539180608437
 51
320.0019657685077
 73
     0
 72
     1
 10
20.28305444104028
 20
-38.58789400463827
 11
22.58835631474134
 21
-36.65356729459038
 72
     3
 10
18.60005478528684
 20
-40.00000000000016
 11
6.600054785286829
 21
-1.278976924368180E-13
 40
0.636358354079598
 50
39.99873849337392
 51
368.4976242363725
 73
     1
 72
     1
 10
25.02538727718745
 20
-39.03999999993003
 11
17.28012209212276
 21
-39.03999999993003
 72
     1
 10
17.28012209212276
 20
-39.03999999993003
 11
17.28009704767683
 21
-40.95999999992992
 72
     1
 10
17.28009704767683
 20
-40.95999999992992
 11
21.72147681714886
 21
-40.95999999992989
 97
        0
 75
     0
 76
     1
 98
        1
 10
-2.849261314031157
 20
-0.0010749287238987
  0
DIMENSION
  5
E4
330
1F
100
AcDbEntity
  8
치수문자_일반주서
100
AcDbDimension
  2
_D
 10
-81.07499999999999
 20
-7.937500000000082
 30
0.0
 11
-81.07500000000012
 21
28.76024999999992
 31
0.0
 70
   160
  1
%%c<>
 71
     2
 42
15.875
 52
-270.0
  3
SLDDIMSTYLE0
100
AcDbAlignedDimension
 13
-63.2
 23
7.93749999999998
 33
0.0
 14
-63.2
 24
-7.93750000000002
 34
0.0
 50
90.0000000000002
100
AcDbRotatedDimension
1001
ACAD
1000
DSTYLE
1002
{
1070
   171
1070
     6
1070
   273
1070
     5
1002
}
  0
DIMENSION
  5
F9
330
1F
100
AcDbEntity
  8
치수문자_일반주서
100
AcDbDimension
  2
_D_1
 10
12.0
 20
21.10713307670823
 30
0.0
 11
50.10000000000001
 21
21.10713307670823
 31
0.0
 70
   160
  1
<>
 71
     2
 42
76.20000000000002
  3
SLDDIMSTYLE0
100
AcDbAlignedDimension
 13
88.20000000000002
 23
7.937499999999995
 33
0.0
 14
12.0
 24
7.248849474327655
 34
0.0
 50
0.0000000000000053
100
AcDbRotatedDimension
1001
ACAD
1000
DSTYLE
1002
{
1070
   171
1070
     6
1070
   273
1070
     5
1002
}
  0
DIMENSION
  5
10E
330
1F
100
AcDbEntity
  8
치수문자_일반주서
100
AcDbDimension
  2
_D_2
 10
-64.2
 20
38.05774771491231
 30
0.0
 11
12.0
 21
38.05774771491231
 31
0.0
 70
   160
  1
<>
 71
     2
 42
152.4
  3
SLDDIMSTYLE0
100
AcDbAlignedDimension
 13
88.20000000000003
 23
7.937499999999995
 33
0.0
 14
-64.2
 24
6.937499999999985
 34
0.0
 50
0.0000000000000027
100
AcDbRotatedDimension
1001
ACAD
1000
DSTYLE
1002
{
1070
   171
1070
     6
1070
   273
1070
     5
1002
}
  0
DIMENSION
  5
121
330
1F
100
AcDbEntity
  8
치수문자_일반주서
100
AcDbDimension
  2
_D_3
 10
101.9303461546642
 20
7.937500000000046
 30
0.0
 11
101.9303461546641
 21
28.76025000000005
 31
0.0
 70
   160
  1
%%c<>
 71
     2
 42
15.875
 52
-270.0
  3
SLDDIMSTYLE0
100
AcDbAlignedDimension
 13
88.19999999999999
 23
-7.937500000000005
 33
0.0
 14
88.20000000000002
 24
7.937499999999995
 34
0.0
 50
90.0000000000002
100
AcDbRotatedDimension
1001
ACAD
1000
DSTYLE
1002
{
1070
   171
1070
     6
1070
   273
1070
     5
1002
}
  0
LINE
  5
135
330
1F
100
AcDbEntity
  8
참조1
100
AcDbLine
 10
77.82153940838579
 20
7.441074928723896
 30
0.0
 11
77.82153940838579
 21
-7.438925071276109
 31
0.0
  0
LINE
  5
136
330
1F
100
AcDbEntity
  8
참조1
100
AcDbLine
 10
90.52153940838579
 20
5.441074928723896
 30
0.0
 11
77.82153940838579
 21
5.441074928723896
 31
0.0
  0
SOLID
  5
137
330
1F
100
AcDbEntity
  8
참조1
100
AcDbTrace
 10
77.82153940838579
 20
5.441074928723896
 30
0.0
 11
84.17153940838578
 21
4.425074928723896
 31
0.0
 12
84.17153940838578
 22
6.457074928723896
 32
0.0
 13
84.17153940838578
 23
6.457074928723896
 33
0.0
  0
LINE
  5
138
330
1F
100
AcDbEntity
  8
참조1
100
AcDbLine
 10
90.52153940838579
 20
-5.438925071276109
 30
0.0
 11
77.82153940838579
 21
-5.438925071276109
 31
0.0
  0
SOLID
  5
139
330
1F
100
AcDbEntity
  8
참조1
100
AcDbTrace
 10
77.82153940838579
 20
-5.438925071276109
 30
0.0
 11
84.17153940838578
 21
-6.454925071276109
 31
0.0
 12
84.17153940838578
 22
-4.422925071276109
 32
0.0
 13
84.17153940838578
 23
-4.422925071276109
 33
0.0
  0
MTEXT
  5
13A
330
1F
100
AcDbEntity
  8
참조1
100
AcDbMText
 10
87.20588954101179
 20
11.01136670591222
 30
0.0
 40
3.5
 41
0.0
 71
     1
 72
     1
  1
A
  7
SLDTEXTSTYLE0
 73
     1
 44
1.0
  0
MTEXT
  5
13B
330
1F
100
AcDbEntity
  8
참조1
100
AcDbMText
 10
87.20588954101179
 20
0.1313667059122192
 30
0.0
 40
3.5
 41
0.0
 71
     1
 72
     1
  1
A
  7
SLDTEXTSTYLE0
 73
     1
 44
1.0
  0
INSERT
  5
142
330
1F
100
AcDbEntity
  8
해칭선
100
AcDbBlockReference
  2
SW_DOWELSYMBOL_0
 10
0.0
 20
0.0
 30
0.0
  0
ENDSEC
  0
SECTION
  2
OBJECTS
  0
DICTIONARY
  5
C
330
0
100
AcDbDictionary
281
     1
  3
ACAD_GROUP
350
D
  3
ACAD_IMAGE_VARS
350
166
  3
ACAD_LAYOUT
350
1A
  3
ACAD_MLINESTYLE
350
17
  3
ACAD_PLOTSETTINGS
350
19
  3
ACAD_PLOTSTYLENAME
350
E
  3
ACAD_SCALELIST
350
47
  3
APPDATA
350
164
  3
DWGPROPS
350
2DC
  0
DICTIONARY
  5
220
330
2
100
AcDbDictionary
280
     1
281
     1
  3
ACAD_LAYERSTATES
360
221
  0
DICTIONARY
  5
D
102
{ACAD_REACTORS
330
C
102
}
330
C
100
AcDbDictionary
281
     1
  0
RASTERVARIABLES
  5
166
102
{ACAD_REACTORS
330
C
102
}
330
C
100
AcDbRasterVariables
 90
        0
 70
     1
 71
     1
 72
     1
  0
DICTIONARY
  5
1A
102
{ACAD_REACTORS
330
C
102
}
330
C
100
AcDbDictionary
281
     1
  3
Layout1
350
1E
  3
Layout2
350
26
  3
Model
350
22
  0
DICTIONARY
  5
17
102
{ACAD_REACTORS
330
C
102
}
330
C
100
AcDbDictionary
281
     1
  3
Standard
350
18
  0
DICTIONARY
  5
19
102
{ACAD_REACTORS
330
C
102
}
330
C
100
AcDbDictionary
281
     1
  0
ACDBDICTIONARYWDFLT
  5
E
102
{ACAD_REACTORS
330
C
102
}
330
C
100
AcDbDictionary
281
     1
  3
Normal
350
F
100
AcDbDictionaryWithDefault
340
F
  0
DICTIONARY
  5
47
102
{ACAD_REACTORS
330
C
102
}
330
C
100
AcDbDictionary
281
     1
  3
A0
350
48
  3
A1
350
49
  3
A2
350
4A
  3
A3
350
4B
  3
A4
350
4C
  3
A5
350
4D
  3
A6
350
4E
  3
A7
350
4F
  3
A8
350
50
  3
A9
350
51
  3
B0
350
52
  3
B1
350
53
  3
B2
350
54
  3
B3
350
55
  3
B4
350
56
  3
B5
350
57
  3
B6
350
58
  3
B7
350
59
  3
B8
350
5A
  3
B9
350
5B
  3
C0
350
5C
  3
C1
350
5D
  3
C2
350
5E
  3
C3
350
5F
  3
C4
350
60
  3
C5
350
61
  3
C6
350
62
  3
C7
350
63
  3
C8
350
64
  3
C9
350
65
  3
D0
350
66
  3
D1
350
67
  3
D2
350
68
  0
DICTIONARY
  5
164
102
{ACAD_REACTORS
330
C
102
}
330
C
100
AcDbDictionary
281
     1
  0
XRECORD
  5
2DC
102
{ACAD_REACTORS
330
C
102
}
330
C
100
AcDbXrecord
280
     1
  1
DWGPROPS COOKIE
  2

  3

  4

  6

  7

  8
12014074
  9

300
=
301
=
302
=
303
=
304
=
305
=
306
=
307
=
308
=
309
=
 40
0.0
 41
2458311.119818796
 42
2458320.279557778
  1

 90
        0
  0
DICTIONARY
  5
221
102
{ACAD_REACTORS
330
220
102
}
330
220
100
AcDbDictionary
281
     1
  0
LAYOUT
  5
1E
102
{ACAD_REACTORS
330
1A
102
}
330
1A
100
AcDbPlotSettings
  1

  2
none_device
  4

  6

 40
0.0
 41
0.0
 42
0.0
 43
0.0
 44
0.0
 45
0.0
 46
0.0
 47
0.0
 48
0.0
 49
0.0
140
0.0
141
0.0
142
1.0
143
1.0
 70
   688
 72
     1
 73
     0
 74
     5
  7

 75
    16
147
1.0
148
0.0
149
0.0
100
AcDbLayout
  1
Layout1
 70
     1
 71
     1
 10
0.0
 20
0.0
 11
420.0
 21
297.0
 12
0.0
 22
0.0
 32
0.0
 14
1.000000000000000E+20
 24
1.000000000000000E+20
 34
1.000000000000000E+20
 15
-1.000000000000000E+20
 25
-1.000000000000000E+20
 35
-1.000000000000000E+20
146
0.0
 13
0.0
 23
0.0
 33
0.0
 16
1.0
 26
0.0
 36
0.0
 17
0.0
 27
1.0
 37
0.0
 76
     0
330
1B
  0
LAYOUT
  5
26
102
{ACAD_REACTORS
330
1A
102
}
330
1A
100
AcDbPlotSettings
  1

  2
none_device
  4

  6

 40
0.0
 41
0.0
 42
0.0
 43
0.0
 44
0.0
 45
0.0
 46
0.0
 47
0.0
 48
0.0
 49
0.0
140
0.0
141
0.0
142
1.0
143
1.0
 70
   688
 72
     1
 73
     0
 74
     5
  7

 75
    16
147
1.0
148
0.0
149
0.0
100
AcDbLayout
  1
Layout2
 70
     1
 71
     2
 10
0.0
 20
0.0
 11
0.0
 21
0.0
 12
0.0
 22
0.0
 32
0.0
 14
0.0
 24
0.0
 34
0.0
 15
0.0
 25
0.0
 35
0.0
146
0.0
 13
0.0
 23
0.0
 33
0.0
 16
1.0
 26
0.0
 36
0.0
 17
0.0
 27
1.0
 37
0.0
 76
     0
330
23
  0
LAYOUT
  5
22
102
{ACAD_REACTORS
330
1A
102
}
330
1A
100
AcDbPlotSettings
  1

  2
none_device
  4
ANSI_A_(11.00_x_8.50_Inches)
  6

 40
6.35
 41
19.05
 42
6.35000508
 43
19.05000254
 44
279.4
 45
215.9
 46
83.83824355532478
 47
72.3484167153872
 48
0.0
 49
0.0
140
0.0
141
0.0
142
0.0412992536662167
143
1.0
 70
  1696
 72
     0
 73
     0
 74
     0
  7

 75
     0
147
0.0235690232323232
148
0.0
149
0.0
100
AcDbLayout
  1
Model
 70
     1
 71
     0
 10
0.0
 20
0.0
 11
420.0
 21
297.0
 12
0.0
 22
0.0
 32
0.0
 14
1.000000000000000E+20
 24
1.000000000000000E+20
 34
1.000000000000000E+20
 15
-1.000000000000000E+20
 25
-1.000000000000000E+20
 35
-1.000000000000000E+20
146
0.0
 13
0.0
 23
0.0
 33
0.0
 16
1.0
 26
0.0
 36
0.0
 17
0.0
 27
1.0
 37
0.0
 76
     0
330
1F
331
29
  0
MLINESTYLE
  5
18
102
{ACAD_REACTORS
330
17
102
}
330
17
100
AcDbMlineStyle
  2
Standard
 70
     0
  3

 62
   256
 51
90.0
 52
90.0
 71
     2
 49
0.5
 62
   256
  6
BYLAYER
 49
-0.5
 62
   256
  6
BYLAYER
  0
ACDBPLACEHOLDER
  5
F
102
{ACAD_REACTORS
330
E
102
}
330
E
  0
SCALE
  5
48
102
{ACAD_REACTORS
330
47
102
}
330
47
100
AcDbScale
 70
     0
300
1:1
140
1.0
141
1.0
290
     1
  0
SCALE
  5
49
102
{ACAD_REACTORS
330
47
102
}
330
47
100
AcDbScale
 70
     0
300
1:2
140
1.0
141
2.0
290
     0
  0
SCALE
  5
4A
102
{ACAD_REACTORS
330
47
102
}
330
47
100
AcDbScale
 70
     0
300
1:4
140
1.0
141
4.0
290
     0
  0
SCALE
  5
4B
102
{ACAD_REACTORS
330
47
102
}
330
47
100
AcDbScale
 70
     0
300
1:5
140
1.0
141
5.0
290
     0
  0
SCALE
  5
4C
102
{ACAD_REACTORS
330
47
102
}
330
47
100
AcDbScale
 70
     0
300
1:8
140
1.0
141
8.0
290
     0
  0
SCALE
  5
4D
102
{ACAD_REACTORS
330
47
102
}
330
47
100
AcDbScale
 70
     0
300
1:10
140
1.0
141
10.0
290
     0
  0
SCALE
  5
4E
102
{ACAD_REACTORS
330
47
102
}
330
47
100
AcDbScale
 70
     0
300
1:16
140
1.0
141
16.0
290
     0
  0
SCALE
  5
4F
102
{ACAD_REACTORS
330
47
102
}
330
47
100
AcDbScale
 70
     0
300
1:20
140
1.0
141
20.0
290
     0
  0
SCALE
  5
50
102
{ACAD_REACTORS
330
47
102
}
330
47
100
AcDbScale
 70
     0
300
1:30
140
1.0
141
30.0
290
     0
  0
SCALE
  5
51
102
{ACAD_REACTORS
330
47
102
}
330
47
100
AcDbScale
 70
     0
300
1:40
140
1.0
141
40.0
290
     0
  0
SCALE
  5
52
102
{ACAD_REACTORS
330
47
102
}
330
47
100
AcDbScale
 70
     0
300
1:50
140
1.0
141
50.0
290
     0
  0
SCALE
  5
53
102
{ACAD_REACTORS
330
47
102
}
330
47
100
AcDbScale
 70
     0
300
1:100
140
1.0
141
100.0
290
     0
  0
SCALE
  5
54
102
{ACAD_REACTORS
330
47
102
}
330
47
100
AcDbScale
 70
     0
300
2:1
140
2.0
141
1.0
290
     0
  0
SCALE
  5
55
102
{ACAD_REACTORS
330
47
102
}
330
47
100
AcDbScale
 70
     0
300
4:1
140
4.0
141
1.0
290
     0
  0
SCALE
  5
56
102
{ACAD_REACTORS
330
47
102
}
330
47
100
AcDbScale
 70
     0
300
8:1
140
8.0
141
1.0
290
     0
  0
SCALE
  5
57
102
{ACAD_REACTORS
330
47
102
}
330
47
100
AcDbScale
 70
     0
300
10:1
140
10.0
141
1.0
290
     0
  0
SCALE
  5
58
102
{ACAD_REACTORS
330
47
102
}
330
47
100
AcDbScale
 70
     0
300
100:1
140
100.0
141
1.0
290
     0
  0
SCALE
  5
59
102
{ACAD_REACTORS
330
47
102
}
330
47
100
AcDbScale
 70
     0
300
1/128" = 1'-0"
140
0.0078125
141
12.0
290
     0
  0
SCALE
  5
5A
102
{ACAD_REACTORS
330
47
102
}
330
47
100
AcDbScale
 70
     0
300
1/64" = 1'-0"
140
0.015625
141
12.0
290
     0
  0
SCALE
  5
5B
102
{ACAD_REACTORS
330
47
102
}
330
47
100
AcDbScale
 70
     0
300
1/32" = 1'-0"
140
0.03125
141
12.0
290
     0
  0
SCALE
  5
5C
102
{ACAD_REACTORS
330
47
102
}
330
47
100
AcDbScale
 70
     0
300
1/16" = 1'-0"
140
0.0625
141
12.0
290
     0
  0
SCALE
  5
5D
102
{ACAD_REACTORS
330
47
102
}
330
47
100
AcDbScale
 70
     0
300
3/32" = 1'-0"
140
0.09375
141
12.0
290
     0
  0
SCALE
  5
5E
102
{ACAD_REACTORS
330
47
102
}
330
47
100
AcDbScale
 70
     0
300
1/8" = 1'-0"
140
0.125
141
12.0
290
     0
  0
SCALE
  5
5F
102
{ACAD_REACTORS
330
47
102
}
330
47
100
AcDbScale
 70
     0
300
3/16" = 1'-0"
140
0.1875
141
12.0
290
     0
  0
SCALE
  5
60
102
{ACAD_REACTORS
330
47
102
}
330
47
100
AcDbScale
 70
     0
300
1/4" = 1'-0"
140
0.25
141
12.0
290
     0
  0
SCALE
  5
61
102
{ACAD_REACTORS
330
47
102
}
330
47
100
AcDbScale
 70
     0
300
3/8" = 1'-0"
140
0.375
141
12.0
290
     0
  0
SCALE
  5
62
102
{ACAD_REACTORS
330
47
102
}
330
47
100
AcDbScale
 70
     0
300
1/2" = 1'-0"
140
0.5
141
12.0
290
     0
  0
SCALE
  5
63
102
{ACAD_REACTORS
330
47
102
}
330
47
100
AcDbScale
 70
     0
300
3/4" = 1'-0"
140
0.75
141
12.0
290
     0
  0
SCALE
  5
64
102
{ACAD_REACTORS
330
47
102
}
330
47
100
AcDbScale
 70
     0
300
1" = 1'-0"
140
1.0
141
12.0
290
     0
  0
SCALE
  5
65
102
{ACAD_REACTORS
330
47
102
}
330
47
100
AcDbScale
 70
     0
300
1-1/2" = 1'-0"
140
1.5
141
12.0
290
     0
  0
SCALE
  5
66
102
{ACAD_REACTORS
330
47
102
}
330
47
100
AcDbScale
 70
     0
300
3" = 1'-0"
140
3.0
141
12.0
290
     0
  0
SCALE
  5
67
102
{ACAD_REACTORS
330
47
102
}
330
47
100
AcDbScale
 70
     0
300
6" = 1'-0"
140
6.0
141
12.0
290
     0
  0
SCALE
  5
68
102
{ACAD_REACTORS
330
47
102
}
330
47
100
AcDbScale
 70
     0
300
1'-0" = 1'-0"
140
12.0
141
12.0
290
     0
  0
ENDSEC
  0
EOF
