  0
SECTION
  2
HEADER
  9
$ACADVER
  1
AC1015
  9
$ACADMAINTVER
 70
     6
  9
$DWGCODEPAGE
  3
ANSI_949
  9
$INSBASE
 10
0.0
 20
0.0
 30
0.0
  9
$EXTMIN
 10
1.000000000000000E+20
 20
1.000000000000000E+20
 30
1.000000000000000E+20
  9
$EXTMAX
 10
-1.000000000000000E+20
 20
-1.000000000000000E+20
 30
-1.000000000000000E+20
  9
$LIMMIN
 10
0.0
 20
0.0
  9
$LIMMAX
 10
420.0
 20
297.0
  9
$ORTHOMODE
 70
     0
  9
$REGENMODE
 70
     1
  9
$FILLMODE
 70
     1
  9
$QTEXTMODE
 70
     0
  9
$MIRRTEXT
 70
     1
  9
$LTSCALE
 40
1.0
  9
$ATTMODE
 70
     1
  9
$TEXTSIZE
 40
3.5
  9
$TRACEWID
 40
1.0
  9
$TEXTSTYLE
  7
Standard
  9
$CLAYER
  8
0
  9
$CELTYPE
  6
ByLayer
  9
$CECOLOR
 62
   256
  9
$CELTSCALE
 40
1.0
  9
$DISPSILH
 70
     0
  9
$DIMSCALE
 40
1.0
  9
$DIMASZ
 40
3.302
  9
$DIMEXO
 40
1.0
  9
$DIMDLI
 40
3.75
  9
$DIMRND
 40
0.0
  9
$DIMDLE
 40
0.0
  9
$DIMEXE
 40
1.0
  9
$DIMTP
 40
0.0
  9
$DIMTM
 40
0.0
  9
$DIMTXT
 40
3.5
  9
$DIMCEN
 40
2.5
  9
$DIMTSZ
 40
0.0
  9
$DIMTOL
 70
     0
  9
$DIMLIM
 70
     0
  9
$DIMTIH
 70
     1
  9
$DIMTOH
 70
     1
  9
$DIMSE1
 70
     0
  9
$DIMSE2
 70
     0
  9
$DIMTAD
 70
     1
  9
$DIMZIN
 70
     0
  9
$DIMBLK
  1

  9
$DIMASO
 70
     1
  9
$DIMSHO
 70
     1
  9
$DIMPOST
  1

  9
$DIMAPOST
  1

  9
$DIMALT
 70
     0
  9
$DIMALTD
 70
     3
  9
$DIMALTF
 40
0.0393700787401575
  9
$DIMLFAC
 40
1.0
  9
$DIMTOFL
 70
     1
  9
$DIMTVP
 40
0.0
  9
$DIMTIX
 70
     0
  9
$DIMSOXD
 70
     0
  9
$DIMSAH
 70
     0
  9
$DIMBLK1
  1

  9
$DIMBLK2
  1

  9
$DIMSTYLE
  2
ISO-25
  9
$DIMCLRD
 70
     0
  9
$DIMCLRE
 70
     0
  9
$DIMCLRT
 70
     0
  9
$DIMTFAC
 40
1.0
  9
$DIMGAP
 40
1.524
  9
$DIMJUST
 70
     0
  9
$DIMSD1
 70
     0
  9
$DIMSD2
 70
     0
  9
$DIMTOLJ
 70
     0
  9
$DIMTZIN
 70
     0
  9
$DIMALTZ
 70
     0
  9
$DIMALTTZ
 70
     0
  9
$DIMUPT
 70
     0
  9
$DIMDEC
 70
     2
  9
$DIMTDEC
 70
     2
  9
$DIMALTU
 70
     2
  9
$DIMALTTD
 70
     3
  9
$DIMTXSTY
  7
Standard
  9
$DIMAUNIT
 70
     0
  9
$DIMADEC
 70
     2
  9
$DIMALTRND
 40
0.0
  9
$DIMAZIN
 70
     0
  9
$DIMDSEP
 70
    44
  9
$DIMATFIT
 70
     3
  9
$DIMFRAC
 70
     0
  9
$DIMLDRBLK
  1

  9
$DIMLUNIT
 70
     2
  9
$DIMLWD
 70
    -2
  9
$DIMLWE
 70
    -2
  9
$DIMTMOVE
 70
     0
  9
$LUNITS
 70
     2
  9
$LUPREC
 70
     2
  9
$SKETCHINC
 40
1.0
  9
$FILLETRAD
 40
10.0
  9
$AUNITS
 70
     0
  9
$AUPREC
 70
     2
  9
$MENU
  1
.
  9
$ELEVATION
 40
0.0
  9
$PELEVATION
 40
0.0
  9
$THICKNESS
 40
0.0
  9
$LIMCHECK
 70
     0
  9
$CHAMFERA
 40
0.0
  9
$CHAMFERB
 40
0.0
  9
$CHAMFERC
 40
0.0
  9
$CHAMFERD
 40
0.0
  9
$SKPOLY
 70
     0
  9
$TDCREATE
 40
2458311.494606829
  9
$TDUCREATE
 40
2458311.119606829
  9
$TDUPDATE
 40
2458320.653225324
  9
$TDUUPDATE
 40
2458320.278225324
  9
$TDINDWG
 40
0.0012579514
  9
$TDUSRTIMER
 40
2458320.276862373
  9
$USRTIMER
 70
     1
  9
$ANGBASE
 50
0.0
  9
$ANGDIR
 70
     0
  9
$PDMODE
 70
     0
  9
$PDSIZE
 40
-1.0
  9
$PLINEWID
 40
0.0
  9
$SPLFRAME
 70
     0
  9
$SPLINETYPE
 70
     6
  9
$SPLINESEGS
 70
     8
  9
$HANDSEED
  5
2E4
  9
$SURFTAB1
 70
     6
  9
$SURFTAB2
 70
     6
  9
$SURFTYPE
 70
     6
  9
$SURFU
 70
     6
  9
$SURFV
 70
     6
  9
$UCSBASE
  2

  9
$UCSNAME
  2

  9
$UCSORG
 10
0.0
 20
0.0
 30
0.0
  9
$UCSXDIR
 10
1.0
 20
0.0
 30
0.0
  9
$UCSYDIR
 10
0.0
 20
1.0
 30
0.0
  9
$UCSORTHOREF
  2

  9
$UCSORTHOVIEW
 70
     0
  9
$UCSORGTOP
 10
0.0
 20
0.0
 30
0.0
  9
$UCSORGBOTTOM
 10
0.0
 20
0.0
 30
0.0
  9
$UCSORGLEFT
 10
0.0
 20
0.0
 30
0.0
  9
$UCSORGRIGHT
 10
0.0
 20
0.0
 30
0.0
  9
$UCSORGFRONT
 10
0.0
 20
0.0
 30
0.0
  9
$UCSORGBACK
 10
0.0
 20
0.0
 30
0.0
  9
$PUCSBASE
  2

  9
$PUCSNAME
  2

  9
$PUCSORG
 10
0.0
 20
0.0
 30
0.0
  9
$PUCSXDIR
 10
1.0
 20
0.0
 30
0.0
  9
$PUCSYDIR
 10
0.0
 20
1.0
 30
0.0
  9
$PUCSORTHOREF
  2

  9
$PUCSORTHOVIEW
 70
     0
  9
$PUCSORGTOP
 10
0.0
 20
0.0
 30
0.0
  9
$PUCSORGBOTTOM
 10
0.0
 20
0.0
 30
0.0
  9
$PUCSORGLEFT
 10
0.0
 20
0.0
 30
0.0
  9
$PUCSORGRIGHT
 10
0.0
 20
0.0
 30
0.0
  9
$PUCSORGFRONT
 10
0.0
 20
0.0
 30
0.0
  9
$PUCSORGBACK
 10
0.0
 20
0.0
 30
0.0
  9
$USERI1
 70
     0
  9
$USERI2
 70
     0
  9
$USERI3
 70
     0
  9
$USERI4
 70
     0
  9
$USERI5
 70
     0
  9
$USERR1
 40
0.0
  9
$USERR2
 40
0.0
  9
$USERR3
 40
0.0
  9
$USERR4
 40
0.0
  9
$USERR5
 40
0.0
  9
$WORLDVIEW
 70
     1
  9
$SHADEDGE
 70
     3
  9
$SHADEDIF
 70
    70
  9
$TILEMODE
 70
     1
  9
$MAXACTVP
 70
    64
  9
$PINSBASE
 10
0.0
 20
0.0
 30
0.0
  9
$PLIMCHECK
 70
     0
  9
$PEXTMIN
 10
1.000000000000000E+20
 20
1.000000000000000E+20
 30
1.000000000000000E+20
  9
$PEXTMAX
 10
-1.000000000000000E+20
 20
-1.000000000000000E+20
 30
-1.000000000000000E+20
  9
$PLIMMIN
 10
0.0
 20
0.0
  9
$PLIMMAX
 10
0.0
 20
0.0
  9
$UNITMODE
 70
     0
  9
$VISRETAIN
 70
     1
  9
$PLINEGEN
 70
     0
  9
$PSLTSCALE
 70
     1
  9
$TREEDEPTH
 70
  3020
  9
$CMLSTYLE
  2
Standard
  9
$CMLJUST
 70
     0
  9
$CMLSCALE
 40
20.0
  9
$PROXYGRAPHICS
 70
     1
  9
$MEASUREMENT
 70
     1
  9
$CELWEIGHT
370
    -1
  9
$ENDCAPS
280
     0
  9
$JOINSTYLE
280
     0
  9
$LWDISPLAY
290
     1
  9
$INSUNITS
 70
     4
  9
$HYPERLINKBASE
  1

  9
$STYLESHEET
  1

  9
$XEDIT
290
     1
  9
$CEPSNTYPE
380
     0
  9
$PSTYLEMODE
290
     1
  9
$FINGERPRINTGUID
  2
{04AB8041-0544-4AA0-BEB0-0724EBDFB2CD}
  9
$VERSIONGUID
  2
{FAEB1C32-E019-11D5-929B-00C0DF256EC4}
  9
$EXTNAMES
290
     1
  9
$PSVPSCALE
 40
0.0
  9
$OLESTARTUP
290
     0
  0
ENDSEC
  0
SECTION
  2
CLASSES
  0
CLASS
  1
ACDBDICTIONARYWDFLT
  2
AcDbDictionaryWithDefault
  3
ObjectDBX Classes
 90
        0
280
     0
281
     0
  0
CLASS
  1
VISUALSTYLE
  2
AcDbVisualStyle
  3
ObjectDBX Classes
 90
     4095
280
     0
281
     0
  0
CLASS
  1
MATERIAL
  2
AcDbMaterial
  3
ObjectDBX Classes
 90
     1153
280
     0
281
     0
  0
CLASS
  1
SCALE
  2
AcDbScale
  3
ObjectDBX Classes
 90
     1153
280
     0
281
     0
  0
CLASS
  1
SUN
  2
AcDbSun
  3
SCENEOE
 90
     1153
280
     0
281
     0
  0
CLASS
  1
ACDBPLACEHOLDER
  2
AcDbPlaceHolder
  3
ObjectDBX Classes
 90
        0
280
     0
281
     0
  0
CLASS
  1
LAYOUT
  2
AcDbLayout
  3
ObjectDBX Classes
 90
        0
280
     0
281
     0
  0
CLASS
  1
TABLESTYLE
  2
AcDbTableStyle
  3
ObjectDBX Classes
 90
     4095
280
     0
281
     0
  0
CLASS
  1
MLEADERSTYLE
  2
AcDbMLeaderStyle
  3
ACDB_MLEADERSTYLE_CLASS
 90
     4095
280
     0
281
     0
  0
CLASS
  1
RASTERVARIABLES
  2
AcDbRasterVariables
  3
ISM
 90
        0
280
     0
281
     0
  0
ENDSEC
  0
SECTION
  2
TABLES
  0
TABLE
  2
VPORT
  5
8
330
0
100
AcDbSymbolTable
 70
     1
  0
VPORT
  5
29
330
8
100
AcDbSymbolTableRecord
100
AcDbViewportTableRecord
  2
*Active
 70
     0
 10
0.0
 20
0.0
 11
1.0
 21
1.0
 12
16.48949694201152
 22
-1.864562351111601
 13
0.0
 23
0.0
 14
10.0
 24
10.0
 15
10.0
 25
10.0
 16
0.0
 26
0.0
 36
1.0
 17
0.0
 27
0.0
 37
0.0
 40
109.2115403256646
 41
1.970186335403727
 42
50.0
 43
0.0
 44
0.0
 50
0.0
 51
0.0
 71
    16
 72
  2000
 73
     1
 74
     3
 75
     0
 76
     0
 77
     0
 78
     0
281
     0
 65
     1
110
0.0
120
0.0
130
0.0
111
1.0
121
0.0
131
0.0
112
0.0
122
1.0
132
0.0
 79
     0
146
0.0
  0
ENDTAB
  0
TABLE
  2
LTYPE
  5
5
330
0
100
AcDbSymbolTable
 70
     6
  0
LTYPE
  5
14
330
5
100
AcDbSymbolTableRecord
100
AcDbLinetypeTableRecord
  2
ByBlock
 70
     0
  3

 72
    65
 73
     0
 40
0.0
  0
LTYPE
  5
15
330
5
100
AcDbSymbolTableRecord
100
AcDbLinetypeTableRecord
  2
ByLayer
 70
     0
  3

 72
    65
 73
     0
 40
0.0
  0
LTYPE
  5
16
330
5
100
AcDbSymbolTableRecord
100
AcDbLinetypeTableRecord
  2
Continuous
 70
     0
  3
Solid line
 72
    65
 73
     0
 40
0.0
  0
LTYPE
  5
6A
330
5
100
AcDbSymbolTableRecord
100
AcDbLinetypeTableRecord
  2
HIDDEN
 70
     0
  3
Hidden __ __ __ __ __ __ __ __ __ __ __ __ __ __
 72
    65
 73
     2
 40
1.905
 49
1.27
 74
     0
 49
-0.635
 74
     0
  0
LTYPE
  5
6B
330
5
100
AcDbSymbolTableRecord
100
AcDbLinetypeTableRecord
  2
PHANTOM
 70
     0
  3
Phantom ______  __  __  ______  __  __  ______
 72
    65
 73
     6
 40
12.7
 49
6.35
 74
     0
 49
-1.27
 74
     0
 49
1.27
 74
     0
 49
-1.27
 74
     0
 49
1.27
 74
     0
 49
-1.27
 74
     0
  0
LTYPE
  5
6C
330
5
100
AcDbSymbolTableRecord
100
AcDbLinetypeTableRecord
  2
CENTER
 70
     0
  3
Center ____ _ ____ _ ____ _ ____ _ ____ _ ____
 72
    65
 73
     4
 40
10.16
 49
6.35
 74
     0
 49
-1.27
 74
     0
 49
1.27
 74
     0
 49
-1.27
 74
     0
  0
LTYPE
  5
6D
330
5
100
AcDbSymbolTableRecord
100
AcDbLinetypeTableRecord
  2
CENTERX2
 70
     0
  3
Center (2x) ________  __  ________  __  _____
 72
    65
 73
     4
 40
20.32
 49
12.7
 74
     0
 49
-2.54
 74
     0
 49
2.54
 74
     0
 49
-2.54
 74
     0
  0
LTYPE
  5
6E
330
5
100
AcDbSymbolTableRecord
100
AcDbLinetypeTableRecord
  2
DOT2
 70
     0
  3
Dot (.5x) ........................................
 72
    65
 73
     2
 40
0.635
 49
0.0
 74
     0
 49
-0.635
 74
     0
  0
ENDTAB
  0
TABLE
  2
LAYER
  5
2
102
{ACAD_XDICTIONARY
360
225
102
}
330
0
100
AcDbSymbolTable
 70
    18
  0
LAYER
  5
10
330
2
100
AcDbSymbolTableRecord
100
AcDbLayerTableRecord
  2
0
 70
     0
 62
     7
  6
Continuous
370
    -3
390
F
  0
LAYER
  5
6F
330
2
100
AcDbSymbolTableRecord
100
AcDbLayerTableRecord
  2
FORMAT
 70
     0
 62
     2
  6
Continuous
370
    -3
390
F
  0
LAYER
  5
70
330
2
100
AcDbSymbolTableRecord
100
AcDbLayerTableRecord
  2
외형선
 70
     0
 62
     4
  6
Continuous
370
    30
390
F
  0
LAYER
  5
71
330
2
100
AcDbSymbolTableRecord
100
AcDbLayerTableRecord
  2
숨은선
 70
     0
 62
     2
  6
HIDDEN
370
    15
390
F
  0
LAYER
  5
72
330
2
100
AcDbSymbolTableRecord
100
AcDbLayerTableRecord
  2
중심선
 70
     0
 62
     1
  6
CENTERX2
370
    -3
390
F
  0
LAYER
  5
73
330
2
100
AcDbSymbolTableRecord
100
AcDbLayerTableRecord
  2
파단선
 70
     0
 62
     4
  6
Continuous
370
    -3
390
F
  0
LAYER
  5
74
330
2
100
AcDbSymbolTableRecord
100
AcDbLayerTableRecord
  2
해칭선
 70
     0
 62
   100
  6
Continuous
370
    -3
390
F
  0
LAYER
  5
75
330
2
100
AcDbSymbolTableRecord
100
AcDbLayerTableRecord
  2
가는실선
 70
     0
 62
     4
  6
Continuous
370
    -3
390
F
  0
LAYER
  5
76
330
2
100
AcDbSymbolTableRecord
100
AcDbLayerTableRecord
  2
치수_보조선
 70
     0
 62
     4
  6
Continuous
370
    -3
390
F
  0
LAYER
  5
77
330
2
100
AcDbSymbolTableRecord
100
AcDbLayerTableRecord
  2
치수문자_일반주서
 70
     0
 62
     7
  6
Continuous
370
    15
390
F
  0
LAYER
  5
78
330
2
100
AcDbSymbolTableRecord
100
AcDbLayerTableRecord
  2
개별주서
 70
     0
 62
   100
  6
Continuous
370
    30
390
F
  0
LAYER
  5
79
330
2
100
AcDbSymbolTableRecord
100
AcDbLayerTableRecord
  2
중간선
 70
     0
 62
     2
  6
Continuous
370
    15
390
F
  0
LAYER
  5
7A
330
2
100
AcDbSymbolTableRecord
100
AcDbLayerTableRecord
  2
윤곽선
 70
     0
 62
     3
  6
Continuous
370
    40
390
F
  0
LAYER
  5
7B
330
2
100
AcDbSymbolTableRecord
100
AcDbLayerTableRecord
  2
중심마크
 70
     0
 62
   100
  6
Continuous
370
    30
390
F
  0
LAYER
  5
7C
330
2
100
AcDbSymbolTableRecord
100
AcDbLayerTableRecord
  2
가상선
 70
     0
 62
     4
  6
PHANTOM
370
    -3
390
F
  0
LAYER
  5
7D
330
2
100
AcDbSymbolTableRecord
100
AcDbLayerTableRecord
  2
특수지정선
 70
     0
 62
     5
  6
CENTERX2
370
    60
390
F
  0
LAYER
  5
7E
330
2
100
AcDbSymbolTableRecord
100
AcDbLayerTableRecord
  2
참조1
 70
     0
 62
    -4
  6
Continuous
370
    -3
390
F
  0
LAYER
  5
16D
330
2
100
AcDbSymbolTableRecord
100
AcDbLayerTableRecord
  2
Defpoints
 70
     0
 62
     7
  6
Continuous
290
     0
370
    -3
390
F
  0
ENDTAB
  0
TABLE
  2
STYLE
  5
3
330
0
100
AcDbSymbolTable
 70
     2
  0
STYLE
  5
11
330
3
100
AcDbSymbolTableRecord
100
AcDbTextStyleTableRecord
  2
Standard
 70
     0
 40
0.0
 41
1.0
 50
0.0
 71
     0
 42
3.5
  3
txt
  4

  0
STYLE
  5
94
330
3
100
AcDbSymbolTableRecord
100
AcDbTextStyleTableRecord
  2
SLDTEXTSTYLE0
 70
     0
 40
0.0
 41
0.75
 50
0.0
 71
     0
 42
3.5
  3
TXT
  4

  0
ENDTAB
  0
TABLE
  2
VIEW
  5
6
330
0
100
AcDbSymbolTable
 70
     0
  0
ENDTAB
  0
TABLE
  2
UCS
  5
7
330
0
100
AcDbSymbolTable
 70
     0
  0
ENDTAB
  0
TABLE
  2
APPID
  5
9
330
0
100
AcDbSymbolTable
 70
     3
  0
APPID
  5
12
330
9
100
AcDbSymbolTableRecord
100
AcDbRegAppTableRecord
  2
ACAD
 70
     0
  0
APPID
  5
179
330
9
100
AcDbSymbolTableRecord
100
AcDbRegAppTableRecord
  2
PE_URL
 70
     0
  0
APPID
  5
17A
330
9
100
AcDbSymbolTableRecord
100
AcDbRegAppTableRecord
  2
ACAD_DSTYLE_DIMRADIAL_EXTENSION
 70
     0
  0
ENDTAB
  0
TABLE
  2
DIMSTYLE
  5
A
330
0
100
AcDbSymbolTable
 70
     4
100
AcDbDimStyleTable
  0
DIMSTYLE
105
27
330
A
100
AcDbSymbolTableRecord
100
AcDbDimStyleTableRecord
  2
ISO-25
 70
     0
 41
2.5
 42
0.625
 43
3.75
 44
1.25
 73
     0
 74
     0
 77
     1
 78
     8
140
2.5
141
2.5
143
0.03937007874016
147
0.625
171
     3
172
     1
178
     0
271
     2
272
     2
274
     3
278
    44
283
     0
284
     8
340
11
  0
DIMSTYLE
105
EA
102
{ACAD_REACTORS
330
E9
330
1D9
330
1E6
330
FE
330
113
330
126
102
}
330
A
100
AcDbSymbolTableRecord
100
AcDbDimStyleTableRecord
  2
SLDDIMSTYLE0
 70
     0
 41
3.302
 44
0.0
 45
0.000000001
 73
     0
 74
     0
 77
     1
 78
     4
 79
     1
140
3.5
143
0.0393700787401575
147
0.875
148
0.000000001
170
     1
172
     1
173
     1
178
     0
271
     2
272
     2
276
     2
284
    12
289
     0
340
94
  0
DIMSTYLE
105
FF
102
{ACAD_REACTORS
330
21C
102
}
330
A
100
AcDbSymbolTableRecord
100
AcDbDimStyleTableRecord
  2
SLDDIMSTYLE1
 70
     0
 41
3.302
 44
0.0
 45
0.000000001
 73
     0
 74
     0
 77
     1
 78
     4
 79
     1
140
3.5
143
0.0393700787401575
147
0.875
148
0.000000001
170
     1
173
     1
178
     0
271
     2
272
     2
276
     2
284
    12
340
94
  0
DIMSTYLE
105
127
102
{ACAD_REACTORS
330
1F3
330
202
102
}
330
A
100
AcDbSymbolTableRecord
100
AcDbDimStyleTableRecord
  2
SLDDIMSTYLE2
 70
     0
 41
3.302
 44
0.0
 45
0.000000001
 73
     0
 74
     0
 77
     1
 78
    12
 79
     3
140
3.5
143
0.0393700787401575
147
0.875
148
0.000000001
170
     1
173
     1
178
     0
271
     2
272
     2
276
     2
284
    12
340
94
  0
ENDTAB
  0
TABLE
  2
BLOCK_RECORD
  5
1
330
0
100
AcDbSymbolTable
 70
    18
  0
BLOCK_RECORD
  5
1F
330
1
100
AcDbSymbolTableRecord
100
AcDbBlockTableRecord
  2
*Model_Space
340
22
  0
BLOCK_RECORD
  5
1B
330
1
100
AcDbSymbolTableRecord
100
AcDbBlockTableRecord
  2
*Paper_Space
340
1E
  0
BLOCK_RECORD
  5
23
330
1
100
AcDbSymbolTableRecord
100
AcDbBlockTableRecord
  2
*Paper_Space0
340
26
  0
BLOCK_RECORD
  5
7F
330
1
100
AcDbSymbolTableRecord
100
AcDbBlockTableRecord
  2
블럭10
340
0
102
{BLKREFS
331
E2
102
}
  0
BLOCK_RECORD
  5
EB
330
1
100
AcDbSymbolTableRecord
100
AcDbBlockTableRecord
  2
_D
340
0
  0
BLOCK_RECORD
  5
100
330
1
100
AcDbSymbolTableRecord
100
AcDbBlockTableRecord
  2
_D_1
340
0
  0
BLOCK_RECORD
  5
114
330
1
100
AcDbSymbolTableRecord
100
AcDbBlockTableRecord
  2
_D_2
340
0
  0
BLOCK_RECORD
  5
128
330
1
100
AcDbSymbolTableRecord
100
AcDbBlockTableRecord
  2
_D_3
340
0
  0
BLOCK_RECORD
  5
141
330
1
100
AcDbSymbolTableRecord
100
AcDbBlockTableRecord
  2
SW_DOWELSYMBOL_0
340
0
102
{BLKREFS
331
147
331
211
331
0
102
}
  0
BLOCK_RECORD
  5
203
330
1
100
AcDbSymbolTableRecord
100
AcDbBlockTableRecord
  2
_D_4
340
0
  0
BLOCK_RECORD
  5
21D
330
1
100
AcDbSymbolTableRecord
100
AcDbBlockTableRecord
  2
*D9
340
0
  0
BLOCK_RECORD
  5
229
330
1
100
AcDbSymbolTableRecord
100
AcDbBlockTableRecord
  2
*D10
340
0
  0
BLOCK_RECORD
  5
235
330
1
100
AcDbSymbolTableRecord
100
AcDbBlockTableRecord
  2
*D11
340
0
  0
BLOCK_RECORD
  5
241
330
1
100
AcDbSymbolTableRecord
100
AcDbBlockTableRecord
  2
*D12
340
0
  0
BLOCK_RECORD
  5
29C
330
1
100
AcDbSymbolTableRecord
100
AcDbBlockTableRecord
  2
*D13
340
0
  0
BLOCK_RECORD
  5
2A8
330
1
100
AcDbSymbolTableRecord
100
AcDbBlockTableRecord
  2
*D14
340
0
  0
BLOCK_RECORD
  5
2B4
330
1
100
AcDbSymbolTableRecord
100
AcDbBlockTableRecord
  2
*D15
340
0
  0
BLOCK_RECORD
  5
2C2
330
1
100
AcDbSymbolTableRecord
100
AcDbBlockTableRecord
  2
*D16
340
0
  0
BLOCK_RECORD
  5
2D0
330
1
100
AcDbSymbolTableRecord
100
AcDbBlockTableRecord
  2
*D17
340
0
  0
ENDTAB
  0
ENDSEC
  0
SECTION
  2
BLOCKS
  0
BLOCK
  5
20
330
1F
100
AcDbEntity
  8
0
100
AcDbBlockBegin
  2
*Model_Space
 70
     0
 10
0.0
 20
0.0
 30
0.0
  3
*Model_Space
  1
*Model_Space
  0
ENDBLK
  5
21
330
1F
100
AcDbEntity
  8
0
100
AcDbBlockEnd
  0
BLOCK
  5
1C
330
1B
100
AcDbEntity
 67
     1
  8
0
100
AcDbBlockBegin
  2
*Paper_Space
 70
     0
 10
0.0
 20
0.0
 30
0.0
  3
*Paper_Space
  1
*Paper_Space
  0
ENDBLK
  5
1D
330
1B
100
AcDbEntity
 67
     1
  8
0
100
AcDbBlockEnd
  0
BLOCK
  5
24
330
23
100
AcDbEntity
  8
0
100
AcDbBlockBegin
  2
*Paper_Space0
 70
     0
 10
0.0
 20
0.0
 30
0.0
  3
*Paper_Space0
  1
*Paper_Space0
  0
ENDBLK
  5
25
330
23
100
AcDbEntity
  8
0
100
AcDbBlockEnd
  0
BLOCK
  5
80
330
7F
100
AcDbEntity
  8
0
100
AcDbBlockBegin
  2
블럭10
 70
     2
 10
0.0
 20
0.0
 30
0.0
  3
블럭10
  1
블럭10
  0
ELLIPSE
  5
82
330
7F
100
AcDbEntity
  8
중심선
100
AcDbEllipse
 10
20.54032771741204
 20
12.0471743016438
 30
0.0
 11
6.600054785286829
 21
-1.261213355974178E-13
 31
0.0
210
0.0
220
0.0
230
1.0
 40
0.636358354079598
 41
0.9219305317359503
 42
6.513795318482858
  0
ELLIPSE
  5
83
330
7F
100
AcDbEntity
  8
중심선
100
AcDbEllipse
 10
20.54032771746488
 20
12.04717430159265
 30
0.0
 11
3.960054785062283
 21
1.540847449632565E-10
 31
0.0
210
0.0
220
0.0
230
1.0
 40
0.3939339440162632
 41
1.131841032648279
 42
5.62031148352944
  0
LINE
  5
84
330
7F
100
AcDbEntity
  8
중심선
100
AcDbLine
 10
2.268634060543552
 20
16.24717430164393
 30
0.0
 11
5.714909304380834
 21
16.24717430164393
 31
0.0
  0
LINE
  5
85
330
7F
100
AcDbEntity
  8
중심선
100
AcDbLine
 10
5.245725140726316
 20
7.84717430164391
 30
0.0
 11
8.692000384563599
 21
7.84717430164391
 31
0.0
  0
LINE
  5
86
330
7F
100
AcDbEntity
  8
중심선
100
AcDbLine
 10
15.74043728645272
 20
16.24717430164393
 30
0.0
 11
8.692000384563599
 21
7.84717430164391
 31
0.0
  0
LINE
  5
87
330
7F
100
AcDbEntity
  8
중심선
100
AcDbLine
 10
0.1404042013395286
 20
13.71084872107135
 30
0.0
 11
3.58671253028996
 21
13.71088815037384
 31
0.0
  0
LINE
  5
88
330
7F
100
AcDbEntity
  8
중심선
100
AcDbLine
 10
2.750260043222114
 20
10.84717430164391
 30
0.0
 11
6.196535287059397
 21
10.84717430164391
 31
0.0
  0
LINE
  5
89
330
7F
100
AcDbEntity
  8
중심선
100
AcDbLine
 10
12.29416204261559
 20
16.24717430164393
 30
0.0
 11
5.245725140726316
 21
7.84717430164391
 31
0.0
  0
LINE
  5
8A
330
7F
100
AcDbEntity
  8
중심선
100
AcDbLine
 10
10.72767329541681
 20
16.24717430164393
 30
0.0
 11
6.196535287059397
 21
10.84717430164391
 31
0.0
  0
LINE
  5
8B
330
7F
100
AcDbEntity
  8
중심선
100
AcDbLine
 10
7.28139805157953
 20
16.24717430164393
 30
0.0
 11
2.750260043222114
 21
10.84717430164391
 31
0.0
  0
LINE
  5
8C
330
7F
100
AcDbEntity
  8
중심선
100
AcDbLine
 10
5.714909304380834
 20
16.24717430164393
 30
0.0
 11
3.58671253028996
 21
13.71088815037384
 31
0.0
  0
LINE
  5
8D
330
7F
100
AcDbEntity
  8
중심선
100
AcDbLine
 10
2.268634060543552
 20
16.24717430164393
 30
0.0
 11
0.1404042013395286
 21
13.71084872107135
 31
0.0
  0
LINE
  5
8E
330
7F
100
AcDbEntity
  8
중심선
100
AcDbLine
 10
7.28139805157953
 20
16.24717430164393
 30
0.0
 11
10.72767329541681
 21
16.24717430164393
 31
0.0
  0
LINE
  5
8F
330
7F
100
AcDbEntity
  8
중심선
100
AcDbLine
 10
12.29416204261559
 20
16.24717430164393
 30
0.0
 11
15.74043728645272
 21
16.24717430164393
 31
0.0
  0
LINE
  5
90
330
7F
100
AcDbEntity
  8
중심선
100
AcDbLine
 10
19.22036997980202
 20
11.08717430171403
 30
0.0
 11
23.66174974927406
 21
11.08717430171406
 31
0.0
  0
LINE
  5
91
330
7F
100
AcDbEntity
  8
중심선
100
AcDbLine
 10
19.22039502424796
 20
13.00717430171391
 30
0.0
 11
19.22036997980202
 21
11.08717430171403
 31
0.0
  0
LINE
  5
92
330
7F
100
AcDbEntity
  8
중심선
100
AcDbLine
 10
19.22039502424796
 20
13.00717430171391
 30
0.0
 11
26.96566020931264
 21
13.00717430171391
 31
0.0
  0
LINE
  5
93
330
7F
100
AcDbEntity
  8
중심선
100
AcDbLine
 10
22.22332737316547
 20
13.45928029700563
 30
0.0
 11
24.52862924686651
 21
15.39360700705356
 31
0.0
  0
ATTDEF
  5
95
330
7F
100
AcDbEntity
  8
FORMAT
 62
     2
100
AcDbText
 10
4.408487351596664
 20
2.075366912832191
 30
0.0
 40
4.233333333333333
  1
E5026032
 41
0.75
  7
SLDTEXTSTYLE0
 11
4.408487351596664
 21
-0.0412997538344756
 31
0.0
100
AcDbAttributeDefinition
  3

  2
AUTOATTR0
 70
     0
 74
     1
  0
ENDBLK
  5
81
330
7F
100
AcDbEntity
  8
0
100
AcDbBlockEnd
  0
BLOCK
  5
EC
330
EB
100
AcDbEntity
  8
0
100
AcDbBlockBegin
  2
_D
 70
     0
 10
0.0
 20
0.0
 30
0.0
  3
_D
  1
_D
  0
LINE
  5
EE
330
EB
100
AcDbEntity
  8
치수문자_일반주서
 62
     0
370
    -2
100
AcDbLine
 10
-65.26250000000002
 20
6.349999999999993
 30
0.0
 11
-78.50298624441294
 21
6.349999999999941
 31
0.0
  0
LINE
  5
EF
330
EB
100
AcDbEntity
  8
치수문자_일반주서
 62
     0
370
    -2
100
AcDbLine
 10
-65.26250000000002
 20
-6.349999999999997
 30
0.0
 11
-78.5029862444129
 21
-6.350000000000048
 31
0.0
  0
LINE
  5
F0
330
EB
100
AcDbEntity
  8
치수문자_일반주서
 62
     0
370
    -2
100
AcDbLine
 10
-78.50298624441294
 20
6.349999999999941
 30
0.0
 11
-78.50298624441305
 21
40.07899999999995
 31
0.0
  0
LINE
  5
F1
330
EB
100
AcDbEntity
  8
치수문자_일반주서
 62
     0
370
    -2
100
AcDbLine
 10
-78.50298624441294
 20
6.349999999999941
 30
0.0
 11
-78.5029862444129
 21
-6.350000000000048
 31
0.0
  0
LINE
  5
F2
330
EB
100
AcDbEntity
  8
치수문자_일반주서
 62
     0
370
    -2
100
AcDbLine
 10
-78.50298624441295
 20
9.65199999999994
 30
0.0
 11
-78.50298624441297
 21
12.95399999999994
 31
0.0
  0
LINE
  5
F3
330
EB
100
AcDbEntity
  8
치수문자_일반주서
 62
     0
370
    -2
100
AcDbLine
 10
-78.50298624441288
 20
-9.652000000000047
 30
0.0
 11
-78.50298624441287
 21
-12.95400000000005
 31
0.0
  0
SOLID
  5
F4
330
EB
100
AcDbEntity
  8
치수문자_일반주서
 62
     0
100
AcDbTrace
 10
-79.05331957774628
 20
9.651999999999939
 30
0.0
 11
-77.95265291107962
 21
9.651999999999942
 31
0.0
 12
-78.50298624441294
 22
6.349999999999941
 32
0.0
 13
-78.50298624441294
 23
6.349999999999941
 33
0.0
  0
SOLID
  5
F5
330
EB
100
AcDbEntity
  8
치수문자_일반주서
 62
     0
100
AcDbTrace
 10
-77.95265291107955
 20
-9.652000000000045
 30
0.0
 11
-79.05331957774621
 21
-9.652000000000049
 31
0.0
 12
-78.5029862444129
 22
-6.350000000000048
 32
0.0
 13
-78.5029862444129
 23
-6.350000000000048
 33
0.0
  0
MTEXT
  5
F6
330
EB
100
AcDbEntity
  8
치수문자_일반주서
 62
     0
100
AcDbMText
 10
-82.87798624441301
 20
26.73524999999993
 30
0.0
 40
3.5
 41
0.0
 71
     2
 72
     1
  1
\A1;%%c12.70 [1/2]
  7
SLDTEXTSTYLE0
 11
-3.356894814614650E-15
 21
1.0
 31
0.0
 73
     1
 44
1.0
  0
POINT
  5
2DC
330
EB
100
AcDbEntity
  8
Defpoints
 62
     0
100
AcDbPoint
 10
-65.20000000000002
 20
6.349999999999993
 30
0.0
  0
POINT
  5
2DD
330
EB
100
AcDbEntity
  8
Defpoints
 62
     0
100
AcDbPoint
 10
-65.20000000000002
 20
-6.349999999999997
 30
0.0
  0
POINT
  5
2DE
330
EB
100
AcDbEntity
  8
Defpoints
 62
     0
100
AcDbPoint
 10
-78.5029862444129
 20
-6.350000000000047
 30
0.0
  0
ENDBLK
  5
ED
330
EB
100
AcDbEntity
  8
0
100
AcDbBlockEnd
  0
BLOCK
  5
101
330
100
100
AcDbEntity
  8
0
100
AcDbBlockBegin
  2
_D_1
 70
     0
 10
0.0
 20
0.0
 30
0.0
  3
_D_1
  1
_D_1
  0
LINE
  5
103
330
100
100
AcDbEntity
  8
치수문자_일반주서
 62
     0
370
    -2
100
AcDbLine
 10
86.19999999999999
 20
6.412499999999997
 30
0.0
 11
86.19999999999999
 21
19.52097480753118
 31
0.0
  0
LINE
  5
104
330
100
100
AcDbEntity
  8
치수문자_일반주서
 62
     0
370
    -2
100
AcDbLine
 10
9.999999999999996
 20
4.251736984184255
 30
0.0
 11
10.0
 21
19.52097480753118
 31
0.0
  0
LINE
  5
105
330
100
100
AcDbEntity
  8
치수문자_일반주서
 62
     0
370
    -2
100
AcDbLine
 10
82.898
 20
19.52097480753118
 30
0.0
 11
13.302
 21
19.52097480753118
 31
0.0
  0
SOLID
  5
106
330
100
100
AcDbEntity
  8
치수문자_일반주서
 62
     0
100
AcDbTrace
 10
82.898
 20
18.97064147419785
 30
0.0
 11
82.898
 21
20.07130814086452
 31
0.0
 12
86.19999999999999
 22
19.52097480753118
 32
0.0
 13
86.19999999999999
 23
19.52097480753118
 33
0.0
  0
SOLID
  5
107
330
100
100
AcDbEntity
  8
치수문자_일반주서
 62
     0
100
AcDbTrace
 10
13.302
 20
20.07130814086452
 30
0.0
 11
13.302
 21
18.97064147419785
 31
0.0
 12
10.0
 22
19.52097480753118
 32
0.0
 13
10.0
 23
19.52097480753118
 33
0.0
  0
MTEXT
  5
108
330
100
100
AcDbEntity
  8
치수문자_일반주서
 62
     0
100
AcDbMText
 10
48.10000000000001
 20
23.89597480753118
 30
0.0
 40
3.5
 41
0.0
 71
     2
 72
     1
  1
\A1;76.20 [3]
  7
SLDTEXTSTYLE0
 73
     1
 44
1.0
  0
POINT
  5
109
330
100
100
AcDbEntity
  8
Defpoints
 62
     0
100
AcDbPoint
 10
86.19999999999999
 20
6.349999999999997
 30
0.0
  0
POINT
  5
10A
330
100
100
AcDbEntity
  8
Defpoints
 62
     0
100
AcDbPoint
 10
9.999999999999996
 20
4.189236984184255
 30
0.0
  0
POINT
  5
10B
330
100
100
AcDbEntity
  8
Defpoints
 62
     0
100
AcDbPoint
 10
9.999999999999996
 20
19.52097480753118
 30
0.0
  0
ENDBLK
  5
102
330
100
100
AcDbEntity
  8
0
100
AcDbBlockEnd
  0
BLOCK
  5
115
330
114
100
AcDbEntity
  8
0
100
AcDbBlockBegin
  2
_D_2
 70
     0
 10
0.0
 20
0.0
 30
0.0
  3
_D_2
  1
_D_2
  0
LINE
  5
117
330
114
100
AcDbEntity
  8
치수문자_일반주서
 62
     0
370
    -2
100
AcDbLine
 10
86.19999999999999
 20
6.412499999999998
 30
0.0
 11
86.19999999999999
 21
36.55130408500667
 31
0.0
  0
LINE
  5
118
330
114
100
AcDbEntity
  8
치수문자_일반주서
 62
     0
370
    -2
100
AcDbLine
 10
-66.20000000000002
 20
5.412499999999988
 30
0.0
 11
-66.20000000000002
 21
36.55130408500667
 31
0.0
  0
LINE
  5
119
330
114
100
AcDbEntity
  8
치수문자_일반주서
 62
     0
370
    -2
100
AcDbLine
 10
82.898
 20
36.55130408500667
 30
0.0
 11
-62.89800000000002
 21
36.55130408500667
 31
0.0
  0
SOLID
  5
11A
330
114
100
AcDbEntity
  8
치수문자_일반주서
 62
     0
100
AcDbTrace
 10
82.898
 20
36.00097075167334
 30
0.0
 11
82.898
 21
37.10163741834
 31
0.0
 12
86.19999999999999
 22
36.55130408500667
 32
0.0
 13
86.19999999999999
 23
36.55130408500667
 33
0.0
  0
SOLID
  5
11B
330
114
100
AcDbEntity
  8
치수문자_일반주서
 62
     0
100
AcDbTrace
 10
-62.89800000000002
 20
37.10163741834
 30
0.0
 11
-62.89800000000002
 21
36.00097075167334
 31
0.0
 12
-66.20000000000002
 22
36.55130408500667
 32
0.0
 13
-66.20000000000002
 23
36.55130408500667
 33
0.0
  0
MTEXT
  5
11C
330
114
100
AcDbEntity
  8
치수문자_일반주서
 62
     0
100
AcDbMText
 10
9.99999999999999
 20
40.92630408500667
 30
0.0
 40
3.5
 41
0.0
 71
     2
 72
     1
  1
\A1;152.40 [6]
  7
SLDTEXTSTYLE0
 73
     1
 44
1.0
  0
POINT
  5
11D
330
114
100
AcDbEntity
  8
Defpoints
 62
     0
100
AcDbPoint
 10
86.19999999999999
 20
6.349999999999998
 30
0.0
  0
POINT
  5
11E
330
114
100
AcDbEntity
  8
Defpoints
 62
     0
100
AcDbPoint
 10
-66.20000000000002
 20
5.349999999999988
 30
0.0
  0
POINT
  5
11F
330
114
100
AcDbEntity
  8
Defpoints
 62
     0
100
AcDbPoint
 10
-66.20000000000002
 20
36.55130408500667
 30
0.0
  0
ENDBLK
  5
116
330
114
100
AcDbEntity
  8
0
100
AcDbBlockEnd
  0
BLOCK
  5
129
330
128
100
AcDbEntity
  8
0
100
AcDbBlockBegin
  2
_D_3
 70
     0
 10
0.0
 20
0.0
 30
0.0
  3
_D_3
  1
_D_3
  0
LINE
  5
12B
330
128
100
AcDbEntity
  8
치수문자_일반주서
 62
     0
370
    -2
100
AcDbLine
 10
86.26249999999962
 20
-6.350000000000001
 30
0.0
 11
101.8658504090073
 21
-6.349999999999945
 31
0.0
  0
LINE
  5
12C
330
128
100
AcDbEntity
  8
치수문자_일반주서
 62
     0
370
    -2
100
AcDbLine
 10
86.26249999999999
 20
6.349999999999997
 30
0.0
 11
101.8658504090073
 21
6.350000000000058
 31
0.0
  0
LINE
  5
12D
330
128
100
AcDbEntity
  8
치수문자_일반주서
 62
     0
370
    -2
100
AcDbLine
 10
101.8658504090073
 20
6.350000000000058
 30
0.0
 11
101.8658504090072
 21
40.29775000000005
 31
0.0
  0
LINE
  5
12E
330
128
100
AcDbEntity
  8
치수문자_일반주서
 62
     0
370
    -2
100
AcDbLine
 10
101.8658504090073
 20
-6.349999999999945
 30
0.0
 11
101.8658504090073
 21
6.350000000000058
 31
0.0
  0
LINE
  5
12F
330
128
100
AcDbEntity
  8
치수문자_일반주서
 62
     0
370
    -2
100
AcDbLine
 10
101.8658504090074
 20
-9.651999999999944
 30
0.0
 11
101.8658504090074
 21
-12.95399999999994
 31
0.0
  0
LINE
  5
130
330
128
100
AcDbEntity
  8
치수문자_일반주서
 62
     0
370
    -2
100
AcDbLine
 10
101.8658504090073
 20
9.652000000000058
 30
0.0
 11
101.8658504090073
 21
12.95400000000006
 31
0.0
  0
SOLID
  5
131
330
128
100
AcDbEntity
  8
치수문자_일반주서
 62
     0
100
AcDbTrace
 10
102.4161837423407
 20
-9.651999999999942
 30
0.0
 11
101.315517075674
 21
-9.651999999999946
 31
0.0
 12
101.8658504090073
 22
-6.349999999999945
 32
0.0
 13
101.8658504090073
 23
-6.349999999999945
 33
0.0
  0
SOLID
  5
132
330
128
100
AcDbEntity
  8
치수문자_일반주서
 62
     0
100
AcDbTrace
 10
101.315517075674
 20
9.652000000000056
 30
0.0
 11
102.4161837423406
 21
9.65200000000006
 31
0.0
 12
101.8658504090073
 22
6.350000000000058
 32
0.0
 13
101.8658504090073
 23
6.350000000000058
 33
0.0
  0
MTEXT
  5
133
330
128
100
AcDbEntity
  8
치수문자_일반주서
 62
     0
100
AcDbMText
 10
97.49085040900722
 20
26.95400000000004
 30
0.0
 40
3.5
 41
0.0
 71
     2
 72
     1
  1
\A1;%%c12.70 [1/2]
  7
SLDTEXTSTYLE0
 11
-3.356894814614647E-15
 21
1.0
 31
0.0
 73
     1
 44
1.0
  0
POINT
  5
134
330
128
100
AcDbEntity
  8
Defpoints
 62
     0
100
AcDbPoint
 10
86.19999999999962
 20
-6.350000000000001
 30
0.0
  0
POINT
  5
135
330
128
100
AcDbEntity
  8
Defpoints
 62
     0
100
AcDbPoint
 10
86.19999999999999
 20
6.349999999999997
 30
0.0
  0
POINT
  5
136
330
128
100
AcDbEntity
  8
Defpoints
 62
     0
100
AcDbPoint
 10
101.8658504090073
 20
6.350000000000056
 30
0.0
  0
ENDBLK
  5
12A
330
128
100
AcDbEntity
  8
0
100
AcDbBlockEnd
  0
BLOCK
  5
142
330
141
100
AcDbEntity
  8
0
100
AcDbBlockBegin
  2
SW_DOWELSYMBOL_0
 70
     0
 10
0.0
 20
0.0
 30
0.0
  3
SW_DOWELSYMBOL_0
  1
SW_DOWELSYMBOL_0
  0
CIRCLE
  5
144
330
141
100
AcDbEntity
  8
해칭선
 62
     0
100
AcDbCircle
 10
0.0
 20
0.0
 30
0.0
 40
2.999999999999996
  0
HATCH
  5
145
330
141
100
AcDbEntity
  8
0
  6
Continuous
 62
     0
370
     0
100
AcDbHatch
 10
0.0
 20
0.0
 30
0.0
210
0.0
220
0.0
230
1.0
  2
SOLID
 70
     1
 71
     0
 91
        1
 92
        0
 93
        3
 72
     2
 10
0.0
 20
0.0
 40
2.999999999999996
 50
0.0
 51
90.0
 73
     1
 72
     1
 10
0.0
 20
2.999999999999996
 11
0.0
 21
0.0
 72
     1
 10
0.0
 20
0.0
 11
2.999999999999996
 21
0.0
 97
        0
 75
     0
 76
     1
 98
        1
 10
0.0
 20
0.0
  0
HATCH
  5
146
330
141
100
AcDbEntity
  8
0
  6
Continuous
 62
     0
370
     0
100
AcDbHatch
 10
0.0
 20
0.0
 30
0.0
210
0.0
220
0.0
230
1.0
  2
SOLID
 70
     1
 71
     0
 91
        1
 92
        0
 93
        3
 72
     2
 10
0.0
 20
0.0
 40
2.999999999999996
 50
180.0
 51
270.0000000000008
 73
     1
 72
     1
 10
0.0
 20
-2.999999999999996
 11
0.0
 21
0.0
 72
     1
 10
0.0
 20
0.0
 11
-2.999999999999996
 21
0.0
 97
        0
 75
     0
 76
     1
 98
        1
 10
0.0
 20
0.0
  0
ENDBLK
  5
143
330
141
100
AcDbEntity
  8
0
100
AcDbBlockEnd
  0
BLOCK
  5
204
330
203
100
AcDbEntity
  8
0
100
AcDbBlockBegin
  2
_D_4
 70
     0
 10
0.0
 20
0.0
 30
0.0
  3
_D_4
  1
_D_4
  0
LINE
  5
205
330
203
100
AcDbEntity
  8
치수문자_일반주서
 62
     0
370
    -2
100
AcDbLine
 10
102.4375000000001
 20
36.22143424691529
 30
0.0
 11
117.3750000000001
 21
36.22143424691535
 31
0.0
  0
LINE
  5
206
330
203
100
AcDbEntity
  8
치수문자_일반주서
 62
     0
370
    -2
100
AcDbLine
 10
102.4375000000001
 20
22.22143424691529
 30
0.0
 11
117.3750000000001
 21
22.22143424691535
 31
0.0
  0
LINE
  5
207
330
203
100
AcDbEntity
  8
치수문자_일반주서
 62
     0
370
    -2
100
AcDbLine
 10
117.3750000000001
 20
36.22143424691535
 30
0.0
 11
117.3750000000001
 21
22.22143424691535
 31
0.0
  0
LINE
  5
208
330
203
100
AcDbEntity
  8
치수문자_일반주서
 62
     0
370
    -2
100
AcDbLine
 10
117.3750000000001
 20
39.52343424691535
 30
0.0
 11
117.375
 21
42.82543424691535
 31
0.0
  0
LINE
  5
209
330
203
100
AcDbEntity
  8
치수문자_일반주서
 62
     0
370
    -2
100
AcDbLine
 10
117.3750000000001
 20
18.91943424691535
 30
0.0
 11
117.3750000000001
 21
15.61743424691535
 31
0.0
  0
SOLID
  5
20A
330
203
100
AcDbEntity
  8
치수문자_일반주서
 62
     0
100
AcDbTrace
 10
116.8246666666667
 20
39.52343424691535
 30
0.0
 11
117.9253333333334
 21
39.52343424691535
 31
0.0
 12
117.3750000000001
 22
36.22143424691535
 32
0.0
 13
117.3750000000001
 23
36.22143424691535
 33
0.0
  0
SOLID
  5
20B
330
203
100
AcDbEntity
  8
치수문자_일반주서
 62
     0
100
AcDbTrace
 10
117.9253333333335
 20
18.91943424691535
 30
0.0
 11
116.8246666666668
 21
18.91943424691535
 31
0.0
 12
117.3750000000001
 22
22.22143424691535
 32
0.0
 13
117.3750000000001
 23
22.22143424691535
 33
0.0
  0
MTEXT
  5
20C
330
203
100
AcDbEntity
  8
치수문자_일반주서
 62
     0
100
AcDbMText
 10
113.0000000000001
 20
29.28713862862833
 30
0.0
 40
3.5
 41
0.0
 71
     2
 72
     1
  1
\A1;%%c14 [0.55]
  7
SLDTEXTSTYLE0
 11
-3.045183153257572E-15
 21
1.0
 31
0.0
 73
     1
 44
1.0
  0
POINT
  5
20D
330
203
100
AcDbEntity
  8
Defpoints
 62
     0
100
AcDbPoint
 10
102.3750000000001
 20
36.22143424691529
 30
0.0
  0
POINT
  5
20E
330
203
100
AcDbEntity
  8
Defpoints
 62
     0
100
AcDbPoint
 10
102.3750000000001
 20
22.22143424691529
 30
0.0
  0
POINT
  5
20F
330
203
100
AcDbEntity
  8
Defpoints
 62
     0
100
AcDbPoint
 10
117.3750000000001
 20
22.22143424691535
 30
0.0
  0
ENDBLK
  5
210
330
203
100
AcDbEntity
  8
0
100
AcDbBlockEnd
  0
BLOCK
  5
21E
330
21D
100
AcDbEntity
  8
0
100
AcDbBlockBegin
  2
*D9
 70
     1
 10
0.0
 20
0.0
 30
0.0
  3
*D9
  1
*D8
  0
LINE
  5
21F
330
21D
100
AcDbEntity
  8
치수문자_일반주서
 62
     0
370
    -2
100
AcDbLine
 10
103.8657751816695
 20
19.48229575403651
 30
0.0
 11
120.1921280501954
 21
-7.081888143622854
 31
0.0
  0
MTEXT
  5
220
330
21D
100
AcDbEntity
  8
치수문자_일반주서
 62
     0
100
AcDbMText
 10
115.6706384014277
 20
5.288158154535728
 30
0.0
 40
3.5
 41
0.0
 71
     5
 72
     1
  1
\A1;R.50 [R0.02]
  7
SLDTEXTSTYLE0
 11
0.5236126201129557
 21
-0.8519564684057781
 31
0.0
 73
     1
 44
1.0
  0
SOLID
  5
221
330
21D
100
AcDbEntity
  8
치수문자_일반주서
 62
     0
100
AcDbTrace
 10
104.3346352247821
 20
19.77045723263868
 30
0.0
 11
103.3969151385569
 21
19.19413427543435
 31
0.0
 12
102.1368063100565
 22
22.29545601271239
 32
0.0
 13
102.1368063100565
 23
22.29545601271239
 33
0.0
  0
LINE
  5
222
330
21D
100
AcDbEntity
  8
치수문자_일반주서
 62
     0
100
AcDbLine
 10
101.785
 20
22.72143424691529
 30
0.0
 11
101.965
 21
22.72143424691529
 31
0.0
  0
LINE
  5
223
330
21D
100
AcDbEntity
  8
치수문자_일반주서
 62
     0
100
AcDbLine
 10
101.875
 20
22.63143424691529
 30
0.0
 11
101.875
 21
22.81143424691529
 31
0.0
  0
POINT
  5
24F
330
21D
100
AcDbEntity
  8
Defpoints
 62
     0
100
AcDbPoint
 10
102.1368063100565
 20
22.29545601271239
 30
0.0
  0
POINT
  5
250
330
21D
100
AcDbEntity
  8
Defpoints
 62
     0
100
AcDbPoint
 10
101.875
 20
22.72143424691529
 30
0.0
  0
ENDBLK
  5
224
330
21D
100
AcDbEntity
  8
0
100
AcDbBlockEnd
  0
BLOCK
  5
22A
330
229
100
AcDbEntity
  8
0
100
AcDbBlockBegin
  2
*D10
 70
     1
 10
0.0
 20
0.0
 30
0.0
  3
*D10
  1
*D10
  0
LINE
  5
22C
330
229
100
AcDbEntity
  8
치수문자_일반주서
 62
     0
370
    -2
100
AcDbLine
 10
19.37500000000004
 20
35.78393424691529
 30
0.0
 11
19.37500000000004
 21
70.88391841499404
 31
0.0
  0
LINE
  5
22D
330
229
100
AcDbEntity
  8
치수문자_일반주서
 62
     0
370
    -2
100
AcDbLine
 10
102.3750000000001
 20
36.34643424691529
 30
0.0
 11
102.3750000000001
 21
70.88391841499404
 31
0.0
  0
LINE
  5
22E
330
229
100
AcDbEntity
  8
치수문자_일반주서
 62
     0
370
    -2
100
AcDbLine
 10
22.67700000000004
 20
70.88391841499404
 30
0.0
 11
99.07300000000006
 21
70.88391841499404
 31
0.0
  0
SOLID
  5
22F
330
229
100
AcDbEntity
  8
치수문자_일반주서
 62
     0
100
AcDbTrace
 10
22.67700000000004
 20
71.43425174832737
 30
0.0
 11
22.67700000000004
 21
70.33358508166071
 31
0.0
 12
19.37500000000004
 22
70.88391841499404
 32
0.0
 13
19.37500000000004
 23
70.88391841499404
 33
0.0
  0
SOLID
  5
230
330
229
100
AcDbEntity
  8
치수문자_일반주서
 62
     0
100
AcDbTrace
 10
99.07300000000006
 20
70.33358508166071
 30
0.0
 11
99.07300000000006
 21
71.43425174832737
 31
0.0
 12
102.3750000000001
 22
70.88391841499404
 32
0.0
 13
102.3750000000001
 23
70.88391841499404
 33
0.0
  0
MTEXT
  5
231
330
229
100
AcDbEntity
  8
치수문자_일반주서
 62
     0
100
AcDbMText
 10
60.87500000000005
 20
75.25891841499404
 30
0.0
 40
3.5
 41
0.0
 71
     2
 72
     1
  1
\A1;83.00 [3.27]
  7
SLDTEXTSTYLE0
 73
     1
 44
1.0
  0
POINT
  5
232
330
229
100
AcDbEntity
  8
Defpoints
 62
     0
100
AcDbPoint
 10
19.37500000000004
 20
35.72143424691529
 30
0.0
  0
POINT
  5
233
330
229
100
AcDbEntity
  8
Defpoints
 62
     0
100
AcDbPoint
 10
102.3750000000001
 20
36.28393424691529
 30
0.0
  0
POINT
  5
234
330
229
100
AcDbEntity
  8
Defpoints
 62
     0
100
AcDbPoint
 10
102.3750000000001
 20
70.88391841499404
 30
0.0
  0
ENDBLK
  5
22B
330
229
100
AcDbEntity
  8
0
100
AcDbBlockEnd
  0
BLOCK
  5
236
330
235
100
AcDbEntity
  8
0
100
AcDbBlockBegin
  2
*D11
 70
     1
 10
0.0
 20
0.0
 30
0.0
  3
*D11
  1
*D11
  0
LINE
  5
238
330
235
100
AcDbEntity
  8
치수문자_일반주서
 62
     0
370
    -2
100
AcDbLine
 10
76.37504186422882
 20
28.62038676313042
 30
0.0
 11
76.37504186422882
 21
61.90091383617725
 31
0.0
  0
LINE
  5
239
330
235
100
AcDbEntity
  8
치수문자_일반주서
 62
     0
370
    -2
100
AcDbLine
 10
102.3750000000001
 20
36.28393424691529
 30
0.0
 11
102.3750000000001
 21
61.90091383617725
 31
0.0
  0
LINE
  5
23A
330
235
100
AcDbEntity
  8
치수문자_일반주서
 62
     0
370
    -2
100
AcDbLine
 10
79.67704186422881
 20
61.90091383617725
 30
0.0
 11
99.07300000000006
 21
61.90091383617725
 31
0.0
  0
SOLID
  5
23B
330
235
100
AcDbEntity
  8
치수문자_일반주서
 62
     0
100
AcDbTrace
 10
79.67704186422881
 20
62.45124716951059
 30
0.0
 11
79.67704186422881
 21
61.35058050284392
 31
0.0
 12
76.37504186422882
 22
61.90091383617725
 32
0.0
 13
76.37504186422882
 23
61.90091383617725
 33
0.0
  0
SOLID
  5
23C
330
235
100
AcDbEntity
  8
치수문자_일반주서
 62
     0
100
AcDbTrace
 10
99.07300000000006
 20
61.35058050284392
 30
0.0
 11
99.07300000000006
 21
62.45124716951059
 31
0.0
 12
102.3750000000001
 22
61.90091383617725
 32
0.0
 13
102.3750000000001
 23
61.90091383617725
 33
0.0
  0
MTEXT
  5
23D
330
235
100
AcDbEntity
  8
치수문자_일반주서
 62
     0
100
AcDbMText
 10
89.42159572693208
 20
66.27591383617725
 30
0.0
 40
3.5
 41
0.0
 71
     2
 72
     1
  1
\A1;26.00 [1.02]
  7
SLDTEXTSTYLE0
 73
     1
 44
1.0
  0
POINT
  5
23E
330
235
100
AcDbEntity
  8
Defpoints
 62
     0
100
AcDbPoint
 10
76.37504186422882
 20
28.55788676313042
 30
0.0
  0
POINT
  5
23F
330
235
100
AcDbEntity
  8
Defpoints
 62
     0
100
AcDbPoint
 10
102.3750000000001
 20
36.22143424691529
 30
0.0
  0
POINT
  5
240
330
235
100
AcDbEntity
  8
Defpoints
 62
     0
100
AcDbPoint
 10
102.3750000000001
 20
61.90091383617725
 30
0.0
  0
ENDBLK
  5
237
330
235
100
AcDbEntity
  8
0
100
AcDbBlockEnd
  0
BLOCK
  5
242
330
241
100
AcDbEntity
  8
0
100
AcDbBlockBegin
  2
*D12
 70
     1
 10
0.0
 20
0.0
 30
0.0
  3
*D12
  1
*D12
  0
LINE
  5
244
330
241
100
AcDbEntity
  8
치수문자_일반주서
 62
     0
370
    -2
100
AcDbLine
 10
19.81250000000005
 20
36.22143424691529
 30
0.0
 11
4.374999999999983
 21
36.22143424691524
 31
0.0
  0
LINE
  5
245
330
241
100
AcDbEntity
  8
치수문자_일반주서
 62
     0
370
    -2
100
AcDbLine
 10
19.81250000000005
 20
22.22143424691529
 30
0.0
 11
4.375000000000032
 21
22.22143424691524
 31
0.0
  0
LINE
  5
246
330
241
100
AcDbEntity
  8
치수문자_일반주서
 62
     0
370
    -2
100
AcDbLine
 10
4.374999999999983
 20
36.22143424691524
 30
0.0
 11
4.375000000000032
 21
22.22143424691524
 31
0.0
  0
LINE
  5
247
330
241
100
AcDbEntity
  8
치수문자_일반주서
 62
     0
370
    -2
100
AcDbLine
 10
4.374999999999972
 20
39.52343424691524
 30
0.0
 11
4.37499999999996
 21
42.82543424691524
 31
0.0
  0
LINE
  5
248
330
241
100
AcDbEntity
  8
치수문자_일반주서
 62
     0
370
    -2
100
AcDbLine
 10
4.375000000000044
 20
18.91943424691524
 30
0.0
 11
4.375000000000055
 21
15.61743424691524
 31
0.0
  0
SOLID
  5
249
330
241
100
AcDbEntity
  8
치수문자_일반주서
 62
     0
100
AcDbTrace
 10
3.824666666666638
 20
39.52343424691524
 30
0.0
 11
4.925333333333305
 21
39.52343424691524
 31
0.0
 12
4.374999999999983
 22
36.22143424691524
 32
0.0
 13
4.374999999999983
 23
36.22143424691524
 33
0.0
  0
SOLID
  5
24A
330
241
100
AcDbEntity
  8
치수문자_일반주서
 62
     0
100
AcDbTrace
 10
4.925333333333377
 20
18.91943424691524
 30
0.0
 11
3.82466666666671
 21
18.91943424691523
 31
0.0
 12
4.375000000000032
 22
22.22143424691524
 32
0.0
 13
4.375000000000032
 23
22.22143424691524
 33
0.0
  0
MTEXT
  5
24B
330
241
100
AcDbEntity
  8
치수문자_일반주서
 62
     0
100
AcDbMText
 10
0.0000000000000071
 20
29.22143424691528
 30
0.0
 40
3.5
 41
0.0
 71
     2
 72
     1
  1
\A1;%%c14 [0.55]
  7
SLDTEXTSTYLE0
 11
-3.489272363107635E-15
 21
1.0
 31
0.0
 73
     1
 44
1.0
  0
POINT
  5
24C
330
241
100
AcDbEntity
  8
Defpoints
 62
     0
100
AcDbPoint
 10
19.87500000000005
 20
36.22143424691529
 30
0.0
  0
POINT
  5
24D
330
241
100
AcDbEntity
  8
Defpoints
 62
     0
100
AcDbPoint
 10
19.87500000000005
 20
22.22143424691529
 30
0.0
  0
POINT
  5
24E
330
241
100
AcDbEntity
  8
Defpoints
 62
     0
100
AcDbPoint
 10
4.375000000000043
 20
22.22143424691524
 30
0.0
  0
ENDBLK
  5
243
330
241
100
AcDbEntity
  8
0
100
AcDbBlockEnd
  0
BLOCK
  5
29D
330
29C
100
AcDbEntity
  8
0
100
AcDbBlockBegin
  2
*D13
 70
     1
 10
0.0
 20
0.0
 30
0.0
  3
*D13
  1
*D13
  0
LINE
  5
29F
330
29C
100
AcDbEntity
  8
치수문자_일반주서
 62
     0
370
    -2
100
AcDbLine
 10
-61.5196069183752
 20
110.0190416400826
 30
0.0
 11
-61.5196069183752
 21
145.1190258081614
 31
0.0
  0
LINE
  5
2A0
330
29C
100
AcDbEntity
  8
치수문자_일반주서
 62
     0
370
    -2
100
AcDbLine
 10
21.48039308162481
 20
110.5815416400826
 30
0.0
 11
21.48039308162481
 21
145.1190258081614
 31
0.0
  0
LINE
  5
2A1
330
29C
100
AcDbEntity
  8
치수문자_일반주서
 62
     0
370
    -2
100
AcDbLine
 10
-58.2176069183752
 20
145.1190258081614
 30
0.0
 11
18.17839308162481
 21
145.1190258081614
 31
0.0
  0
SOLID
  5
2A2
330
29C
100
AcDbEntity
  8
치수문자_일반주서
 62
     0
100
AcDbTrace
 10
-58.2176069183752
 20
145.6693591414947
 30
0.0
 11
-58.2176069183752
 21
144.5686924748281
 31
0.0
 12
-61.5196069183752
 22
145.1190258081614
 32
0.0
 13
-61.5196069183752
 23
145.1190258081614
 33
0.0
  0
SOLID
  5
2A3
330
29C
100
AcDbEntity
  8
치수문자_일반주서
 62
     0
100
AcDbTrace
 10
18.17839308162481
 20
144.5686924748281
 30
0.0
 11
18.17839308162481
 21
145.6693591414947
 31
0.0
 12
21.48039308162481
 22
145.1190258081614
 32
0.0
 13
21.48039308162481
 23
145.1190258081614
 33
0.0
  0
MTEXT
  5
2A4
330
29C
100
AcDbEntity
  8
치수문자_일반주서
 62
     0
100
AcDbMText
 10
-20.0196069183752
 20
149.4940258081614
 30
0.0
 40
3.5
 41
0.0
 71
     2
 72
     1
  1
\A1;83.00 [3.27]
  7
SLDTEXTSTYLE0
 73
     1
 44
1.0
  0
POINT
  5
2A5
330
29C
100
AcDbEntity
  8
Defpoints
 62
     0
100
AcDbPoint
 10
-61.5196069183752
 20
109.9565416400826
 30
0.0
  0
POINT
  5
2A6
330
29C
100
AcDbEntity
  8
Defpoints
 62
     0
100
AcDbPoint
 10
21.48039308162481
 20
110.5190416400826
 30
0.0
  0
POINT
  5
2A7
330
29C
100
AcDbEntity
  8
Defpoints
 62
     0
100
AcDbPoint
 10
21.48039308162481
 20
145.1190258081614
 30
0.0
  0
ENDBLK
  5
29E
330
29C
100
AcDbEntity
  8
0
100
AcDbBlockEnd
  0
BLOCK
  5
2A9
330
2A8
100
AcDbEntity
  8
0
100
AcDbBlockBegin
  2
*D14
 70
     1
 10
0.0
 20
0.0
 30
0.0
  3
*D14
  1
*D14
  0
LINE
  5
2AB
330
2A8
100
AcDbEntity
  8
치수문자_일반주서
 62
     0
370
    -2
100
AcDbLine
 10
-4.519565054146426
 20
102.8554941562978
 30
0.0
 11
-4.519565054146426
 21
136.1360212293446
 31
0.0
  0
LINE
  5
2AC
330
2A8
100
AcDbEntity
  8
치수문자_일반주서
 62
     0
370
    -2
100
AcDbLine
 10
21.48039308162481
 20
110.5190416400826
 30
0.0
 11
21.48039308162481
 21
136.1360212293446
 31
0.0
  0
LINE
  5
2AD
330
2A8
100
AcDbEntity
  8
치수문자_일반주서
 62
     0
370
    -2
100
AcDbLine
 10
-1.217565054146426
 20
136.1360212293446
 30
0.0
 11
18.17839308162481
 21
136.1360212293446
 31
0.0
  0
SOLID
  5
2AE
330
2A8
100
AcDbEntity
  8
치수문자_일반주서
 62
     0
100
AcDbTrace
 10
-1.217565054146426
 20
136.6863545626779
 30
0.0
 11
-1.217565054146426
 21
135.5856878960113
 31
0.0
 12
-4.519565054146426
 22
136.1360212293446
 32
0.0
 13
-4.519565054146426
 23
136.1360212293446
 33
0.0
  0
SOLID
  5
2AF
330
2A8
100
AcDbEntity
  8
치수문자_일반주서
 62
     0
100
AcDbTrace
 10
18.17839308162481
 20
135.5856878960113
 30
0.0
 11
18.17839308162481
 21
136.6863545626779
 31
0.0
 12
21.48039308162481
 22
136.1360212293446
 32
0.0
 13
21.48039308162481
 23
136.1360212293446
 33
0.0
  0
MTEXT
  5
2B0
330
2A8
100
AcDbEntity
  8
치수문자_일반주서
 62
     0
100
AcDbMText
 10
8.526988808556837
 20
140.5110212293446
 30
0.0
 40
3.5
 41
0.0
 71
     2
 72
     1
  1
\A1;26.00 [1.02]
  7
SLDTEXTSTYLE0
 73
     1
 44
1.0
  0
POINT
  5
2B1
330
2A8
100
AcDbEntity
  8
Defpoints
 62
     0
100
AcDbPoint
 10
-4.519565054146426
 20
102.7929941562978
 30
0.0
  0
POINT
  5
2B2
330
2A8
100
AcDbEntity
  8
Defpoints
 62
     0
100
AcDbPoint
 10
21.48039308162481
 20
110.4565416400826
 30
0.0
  0
POINT
  5
2B3
330
2A8
100
AcDbEntity
  8
Defpoints
 62
     0
100
AcDbPoint
 10
21.48039308162481
 20
136.1360212293446
 30
0.0
  0
ENDBLK
  5
2AA
330
2A8
100
AcDbEntity
  8
0
100
AcDbBlockEnd
  0
BLOCK
  5
2B5
330
2B4
100
AcDbEntity
  8
0
100
AcDbBlockBegin
  2
*D15
 70
     1
 10
0.0
 20
0.0
 30
0.0
  3
*D15
  1
*D15
  0
LINE
  5
2B7
330
2B4
100
AcDbEntity
  8
치수문자_일반주서
 62
     0
370
    -2
100
AcDbLine
 10
-61.0821069183752
 20
110.4565416400826
 30
0.0
 11
-76.51960691837526
 21
110.4565416400826
 31
0.0
  0
LINE
  5
2B8
330
2B4
100
AcDbEntity
  8
치수문자_일반주서
 62
     0
370
    -2
100
AcDbLine
 10
-61.0821069183752
 20
96.45654164008263
 30
0.0
 11
-76.51960691837522
 21
96.45654164008258
 31
0.0
  0
LINE
  5
2B9
330
2B4
100
AcDbEntity
  8
치수문자_일반주서
 62
     0
370
    -2
100
AcDbLine
 10
-76.51960691837526
 20
110.4565416400826
 30
0.0
 11
-76.51960691837522
 21
96.45654164008258
 31
0.0
  0
LINE
  5
2BA
330
2B4
100
AcDbEntity
  8
치수문자_일반주서
 62
     0
370
    -2
100
AcDbLine
 10
-76.51960691837527
 20
113.7585416400826
 30
0.0
 11
-76.51960691837529
 21
117.0605416400826
 31
0.0
  0
LINE
  5
2BB
330
2B4
100
AcDbEntity
  8
치수문자_일반주서
 62
     0
370
    -2
100
AcDbLine
 10
-76.5196069183752
 20
93.15454164008258
 30
0.0
 11
-76.51960691837519
 21
89.85254164008259
 31
0.0
  0
SOLID
  5
2BC
330
2B4
100
AcDbEntity
  8
치수문자_일반주서
 62
     0
100
AcDbTrace
 10
-77.0699402517086
 20
113.7585416400826
 30
0.0
 11
-75.96927358504195
 21
113.7585416400826
 31
0.0
 12
-76.51960691837526
 22
110.4565416400826
 32
0.0
 13
-76.51960691837526
 23
110.4565416400826
 33
0.0
  0
SOLID
  5
2BD
330
2B4
100
AcDbEntity
  8
치수문자_일반주서
 62
     0
100
AcDbTrace
 10
-75.96927358504188
 20
93.15454164008258
 30
0.0
 11
-77.06994025170853
 21
93.15454164008258
 31
0.0
 12
-76.51960691837522
 22
96.45654164008258
 32
0.0
 13
-76.51960691837522
 23
96.45654164008258
 33
0.0
  0
MTEXT
  5
2BE
330
2B4
100
AcDbEntity
  8
치수문자_일반주서
 62
     0
100
AcDbMText
 10
-80.89460691837525
 20
103.4565416400826
 30
0.0
 40
3.5
 41
0.0
 71
     2
 72
     1
  1
\A1;%%c14 [0.55]
  7
SLDTEXTSTYLE0
 11
-3.045183153257572E-15
 21
1.0
 31
0.0
 73
     1
 44
1.0
  0
POINT
  5
2BF
330
2B4
100
AcDbEntity
  8
Defpoints
 62
     0
100
AcDbPoint
 10
-61.0196069183752
 20
110.4565416400826
 30
0.0
  0
POINT
  5
2C0
330
2B4
100
AcDbEntity
  8
Defpoints
 62
     0
100
AcDbPoint
 10
-61.0196069183752
 20
96.45654164008263
 30
0.0
  0
POINT
  5
2C1
330
2B4
100
AcDbEntity
  8
Defpoints
 62
     0
100
AcDbPoint
 10
-76.51960691837522
 20
96.45654164008258
 30
0.0
  0
ENDBLK
  5
2B6
330
2B4
100
AcDbEntity
  8
0
100
AcDbBlockEnd
  0
BLOCK
  5
2C3
330
2C2
100
AcDbEntity
  8
0
100
AcDbBlockBegin
  2
*D16
 70
     1
 10
0.0
 20
0.0
 30
0.0
  3
*D16
  1
*D16
  0
LINE
  5
2C5
330
2C2
100
AcDbEntity
  8
치수문자_일반주서
 62
     0
370
    -2
100
AcDbLine
 10
21.54289308162483
 20
110.4565416400826
 30
0.0
 11
36.48039308162482
 21
110.4565416400827
 31
0.0
  0
LINE
  5
2C6
330
2C2
100
AcDbEntity
  8
치수문자_일반주서
 62
     0
370
    -2
100
AcDbLine
 10
21.54289308162481
 20
96.45654164008263
 30
0.0
 11
36.48039308162487
 21
96.45654164008269
 31
0.0
  0
LINE
  5
2C7
330
2C2
100
AcDbEntity
  8
치수문자_일반주서
 62
     0
370
    -2
100
AcDbLine
 10
36.48039308162482
 20
110.4565416400827
 30
0.0
 11
36.48039308162487
 21
96.45654164008269
 31
0.0
  0
LINE
  5
2C8
330
2C2
100
AcDbEntity
  8
치수문자_일반주서
 62
     0
370
    -2
100
AcDbLine
 10
36.4803930816248
 20
113.7585416400827
 30
0.0
 11
36.48039308162479
 21
117.0605416400827
 31
0.0
  0
LINE
  5
2C9
330
2C2
100
AcDbEntity
  8
치수문자_일반주서
 62
     0
370
    -2
100
AcDbLine
 10
36.48039308162488
 20
93.1545416400827
 30
0.0
 11
36.4803930816249
 21
89.8525416400827
 31
0.0
  0
SOLID
  5
2CA
330
2C2
100
AcDbEntity
  8
치수문자_일반주서
 62
     0
100
AcDbTrace
 10
35.93005974829147
 20
113.7585416400827
 30
0.0
 11
37.03072641495814
 21
113.7585416400827
 31
0.0
 12
36.48039308162482
 22
110.4565416400827
 32
0.0
 13
36.48039308162482
 23
110.4565416400827
 33
0.0
  0
SOLID
  5
2CB
330
2C2
100
AcDbEntity
  8
치수문자_일반주서
 62
     0
100
AcDbTrace
 10
37.03072641495822
 20
93.1545416400827
 30
0.0
 11
35.93005974829155
 21
93.1545416400827
 31
0.0
 12
36.48039308162487
 22
96.45654164008269
 32
0.0
 13
36.48039308162487
 23
96.45654164008269
 33
0.0
  0
MTEXT
  5
2CC
330
2C2
100
AcDbEntity
  8
치수문자_일반주서
 62
     0
100
AcDbMText
 10
32.10539308162484
 20
103.5222460217957
 30
0.0
 40
3.5
 41
0.0
 71
     2
 72
     1
  1
\A1;%%c14 [0.55]
  7
SLDTEXTSTYLE0
 11
-3.552713678800501E-15
 21
1.0
 31
0.0
 73
     1
 44
1.0
  0
POINT
  5
2CD
330
2C2
100
AcDbEntity
  8
Defpoints
 62
     0
100
AcDbPoint
 10
21.48039308162483
 20
110.4565416400826
 30
0.0
  0
POINT
  5
2CE
330
2C2
100
AcDbEntity
  8
Defpoints
 62
     0
100
AcDbPoint
 10
21.48039308162481
 20
96.45654164008263
 30
0.0
  0
POINT
  5
2CF
330
2C2
100
AcDbEntity
  8
Defpoints
 62
     0
100
AcDbPoint
 10
36.48039308162487
 20
96.45654164008269
 30
0.0
  0
ENDBLK
  5
2C4
330
2C2
100
AcDbEntity
  8
0
100
AcDbBlockEnd
  0
BLOCK
  5
2D1
330
2D0
100
AcDbEntity
  8
0
100
AcDbBlockBegin
  2
*D17
 70
     1
 10
0.0
 20
0.0
 30
0.0
  3
*D17
  1
*D17
  0
LINE
  5
2D3
330
2D0
100
AcDbEntity
  8
치수문자_일반주서
 62
     0
370
    -2
100
AcDbLine
 10
22.97116826329426
 20
93.71740314720385
 30
0.0
 11
39.2975211318201
 21
67.15321924954448
 31
0.0
  0
MTEXT
  5
2D4
330
2D0
100
AcDbEntity
  8
치수문자_일반주서
 62
     0
100
AcDbMText
 10
34.77603148305244
 20
79.52326554770306
 30
0.0
 40
3.5
 41
0.0
 71
     5
 72
     1
  1
\A1;R.50 [R0.02]
  7
SLDTEXTSTYLE0
 11
0.5236126201129557
 21
-0.8519564684057781
 31
0.0
 73
     1
 44
1.0
  0
SOLID
  5
2D5
330
2D0
100
AcDbEntity
  8
치수문자_일반주서
 62
     0
100
AcDbTrace
 10
23.44002830640691
 20
94.00556462580602
 30
0.0
 11
22.50230822018162
 21
93.42924166860169
 31
0.0
 12
21.24219939168128
 22
96.53056340587973
 32
0.0
 13
21.24219939168128
 23
96.53056340587973
 33
0.0
  0
LINE
  5
2D6
330
2D0
100
AcDbEntity
  8
치수문자_일반주서
 62
     0
100
AcDbLine
 10
20.8903930816248
 20
96.95654164008263
 30
0.0
 11
21.0703930816248
 21
96.95654164008263
 31
0.0
  0
LINE
  5
2D7
330
2D0
100
AcDbEntity
  8
치수문자_일반주서
 62
     0
100
AcDbLine
 10
20.9803930816248
 20
96.86654164008263
 30
0.0
 11
20.9803930816248
 21
97.04654164008264
 31
0.0
  0
POINT
  5
2D8
330
2D0
100
AcDbEntity
  8
Defpoints
 62
     0
100
AcDbPoint
 10
21.24219939168128
 20
96.53056340587973
 30
0.0
  0
POINT
  5
2D9
330
2D0
100
AcDbEntity
  8
Defpoints
 62
     0
100
AcDbPoint
 10
20.9803930816248
 20
96.95654164008263
 30
0.0
  0
ENDBLK
  5
2D2
330
2D0
100
AcDbEntity
  8
0
100
AcDbBlockEnd
  0
ENDSEC
  0
SECTION
  2
ENTITIES
  0
LINE
  5
96
330
1F
100
AcDbEntity
  8
외형선
  6
Continuous
370
    15
100
AcDbLine
 10
7.969958906942571
 20
6.349999999999998
 30
0.0
 11
-65.20000000000002
 21
6.349999999999993
 31
0.0
  0
LINE
  5
97
330
1F
100
AcDbEntity
  8
외형선
  6
Continuous
370
    15
100
AcDbLine
 10
-65.20000000000002
 20
-6.350000000000006
 30
0.0
 11
7.969958906942571
 21
-6.350000000000001
 31
0.0
  0
LINE
  5
98
330
1F
100
AcDbEntity
  8
외형선
  6
Continuous
370
    15
100
AcDbLine
 10
-65.20000000000002
 20
6.349999999999987
 30
0.0
 11
-66.20000000000002
 21
5.349999999999987
 31
0.0
  0
LINE
  5
99
330
1F
100
AcDbEntity
  8
외형선
  6
Continuous
370
    15
100
AcDbLine
 10
-66.20000000000002
 20
-5.350000000000001
 30
0.0
 11
-65.20000000000002
 21
-6.35
 31
0.0
  0
SPLINE
  5
9A
330
1F
100
AcDbEntity
  8
외형선
  6
Continuous
370
    15
100
AcDbSpline
210
0.0
220
0.0
230
1.0
 70
     8
 71
     3
 72
     9
 73
     5
 74
     0
 42
0.000000001
 43
0.00000001
 40
0.0
 40
0.0
 40
0.0
 40
0.0
 40
0.5167893195941414
 40
1.0
 40
1.0
 40
1.0
 40
1.0
 10
10.0
 20
4.189235763709786
 30
0.0
 10
9.707156118788395
 20
4.197139517739839
 30
0.0
 10
9.140496030995589
 20
4.212433475510214
 30
0.0
 10
8.57371452729115
 20
4.244767736505698
 30
0.0
 10
8.299839651244671
 20
4.260391996761746
 30
0.0
  0
ARC
  5
9B
330
1F
100
AcDbEntity
  8
외형선
  6
Continuous
370
    15
100
AcDbCircle
 10
8.319958841358703
 20
4.609271375468822
 30
0.0
 40
0.349999934495437
100
AcDbArc
 50
180.082464891089
 51
267.2045685346774
  0
LINE
  5
9C
330
1F
100
AcDbEntity
  8
외형선
  6
Continuous
370
    15
100
AcDbLine
 10
7.957821853900761
 20
-4.282035152631645
 30
0.0
 11
8.356231978569653
 21
-4.25867880665302
 31
0.0
  0
LINE
  5
9D
330
1F
100
AcDbEntity
  8
0
  6
Continuous
 62
     1
370
    15
100
AcDbLine
 10
68.04811555184033
 20
2.476525369134664
 30
0.0
 11
67.98636290949294
 21
2.508399951652008
 31
0.0
  0
SPLINE
  5
9E
330
1F
100
AcDbEntity
  8
0
  6
Continuous
 62
     1
370
    15
100
AcDbSpline
210
0.0
220
0.0
230
1.0
 70
     8
 71
     3
 72
     9
 73
     5
 74
     0
 42
0.000000001
 43
0.00000001
 40
0.0
 40
0.0
 40
0.0
 40
0.0
 40
0.5378648520912439
 40
1.0
 40
1.0
 40
1.0
 40
1.0
 10
69.74946730038253
 20
1.627101295615968
 30
0.0
 10
69.44483741448776
 20
1.772178021341641
 30
0.0
 10
68.87846858649992
 20
2.041905119443715
 30
0.0
 10
68.31056415177841
 20
2.339155514055029
 30
0.0
 10
68.04811555184033
 20
2.476525369134664
 30
0.0
  0
LINE
  5
9F
330
1F
100
AcDbEntity
  8
0
  6
Continuous
 62
     1
370
    15
100
AcDbLine
 10
33.4955025113651
 20
2.476426828998182
 30
0.0
 11
33.43349099399164
 21
2.508396777803506
 31
0.0
  0
SPLINE
  5
A0
330
1F
100
AcDbEntity
  8
0
  6
Continuous
 62
     1
370
    15
100
AcDbSpline
210
0.0
220
0.0
230
1.0
 70
     8
 71
     3
 72
     9
 73
     5
 74
     0
 42
0.000000001
 43
0.00000001
 40
0.0
 40
0.0
 40
0.0
 40
0.0
 40
0.517240690317481
 40
1.0
 40
1.0
 40
1.0
 40
1.0
 10
35.19655704872976
 20
1.627116453825729
 30
0.0
 10
34.90330811698662
 20
1.766693585582241
 30
0.0
 10
34.33635942707764
 20
2.036543066431941
 30
0.0
 10
33.76927014278066
 20
2.333208721939055
 30
0.0
 10
33.4955025113651
 20
2.476426828998182
 30
0.0
  0
LINE
  5
A1
330
1F
100
AcDbEntity
  8
0
  6
Continuous
 62
     1
370
    15
100
AcDbLine
 10
17.5459421985747
 20
-6.350000000000009
 30
0.0
 11
20.62231466085629
 21
-6.350000000000009
 31
0.0
  0
LINE
  5
A2
330
1F
100
AcDbEntity
  8
0
  6
Continuous
 62
     1
370
    15
100
AcDbLine
 10
55.1753160928089
 20
6.350000000000005
 30
0.0
 11
52.09937432095697
 21
6.350000000000005
 31
0.0
  0
LINE
  5
A3
330
1F
100
AcDbEntity
  8
0
  6
Continuous
 62
     1
370
    15
100
AcDbLine
 10
52.09937432095693
 20
-6.350000000000009
 30
0.0
 11
55.17531609280886
 21
-6.350000000000009
 31
0.0
  0
LINE
  5
A4
330
1F
100
AcDbEntity
  8
0
  6
Continuous
 62
     1
370
    15
100
AcDbLine
 10
20.62231466085633
 20
6.350000000000005
 30
0.0
 11
17.54594219857472
 21
6.350000000000005
 31
0.0
  0
SPLINE
  5
A5
330
1F
100
AcDbEntity
  8
0
  6
Continuous
 62
     1
370
    15
100
AcDbSpline
210
0.0
220
0.0
230
1.0
 70
     8
 71
     3
 72
    19
 73
    15
 74
     0
 42
0.000000001
 43
0.00000001
 40
0.0
 40
0.0
 40
0.0
 40
0.0
 40
0.1085897242087095
 40
0.1906428325797719
 40
0.2536073607828541
 40
0.3189207410952285
 40
0.3868011179685794
 40
0.4547930936777089
 40
0.556332734367994
 40
0.6547607064621308
 40
0.7006509559486708
 40
0.7670854563883307
 40
0.8668604230719897
 40
1.0
 40
1.0
 40
1.0
 40
1.0
 10
23.54732241498347
 20
-5.284036023673137
 30
0.0
 10
23.89415959883809
 20
-5.250679363377411
 30
0.0
 10
24.50307562340549
 20
-5.192117577255218
 30
0.0
 10
25.31061852443726
 20
-5.128959744539443
 30
0.0
 10
25.97697372985112
 20
-5.083245528708689
 30
0.0
 10
26.60062847166603
 20
-5.046339943048918
 30
0.0
 10
27.24124593980714
 20
-5.015141584554763
 30
0.0
 10
27.99712221210764
 20
-4.986323218854745
 30
0.0
 10
28.84986028428354
 20
-4.965033024539406
 30
0.0
 10
29.63255444389648
 20
-4.958092862818787
 30
0.0
 10
30.30364076391414
 20
-4.959806831567872
 30
0.0
 10
30.9780107982967
 20
-4.967774948721517
 30
0.0
 10
31.93018161474271
 20
-4.990437952754505
 30
0.0
 10
32.672724724338
 20
-5.025768376554821
 30
0.0
 10
33.09718029473447
 20
-5.045964099863986
 30
0.0
  0
SPLINE
  5
A6
330
1F
100
AcDbEntity
  8
0
  6
Continuous
 62
     1
370
    15
100
AcDbSpline
210
0.0
220
0.0
230
1.0
 70
     8
 71
     3
 72
    14
 73
    10
 74
     0
 42
0.000000001
 43
0.00000001
 40
0.0
 40
0.0
 40
0.0
 40
0.0
 40
0.209481061496491
 40
0.3652217272707292
 40
0.4669864468341321
 40
0.5496933692064002
 40
0.6335241324538193
 40
0.9663561787565084
 40
1.0
 40
1.0
 40
1.0
 40
1.0
 10
67.65007947749959
 20
5.045965239379014
 30
0.0
 10
67.2854198843115
 20
5.02830856642225
 30
0.0
 10
66.64965068618655
 20
4.997524873858081
 30
0.0
 10
65.83809752177031
 20
4.974784498609036
 30
0.0
 10
65.24709958377264
 20
4.96413430684422
 30
0.0
 10
64.78061962154715
 20
4.959570454030636
 30
0.0
 10
63.91243110505606
 20
4.957758324874351
 30
0.0
 10
63.12976498105265
 20
4.966722372029266
 30
0.0
 10
62.49261776681662
 20
4.990531734988544
 30
0.0
 10
62.4341253287604
 20
4.992717521345192
 30
0.0
  0
SPLINE
  5
A7
330
1F
100
AcDbEntity
  8
0
  6
Continuous
 62
     1
370
    15
100
AcDbSpline
210
0.0
220
0.0
230
1.0
 70
     8
 71
     3
 72
    19
 73
    15
 74
     0
 42
0.000000001
 43
0.00000001
 40
0.0
 40
0.0
 40
0.0
 40
0.0
 40
0.1068589330966982
 40
0.1881353036641646
 40
0.2510437736960915
 40
0.316349402776439
 40
0.384220719490211
 40
0.4522163067643747
 40
0.5537685530264065
 40
0.6521868306397391
 40
0.6980881279602537
 40
0.7648766420984356
 40
0.8654931940465785
 40
1.0
 40
1.0
 40
1.0
 40
1.0
 10
58.10038941216639
 20
-5.284017091062485
 30
0.0
 10
58.44158731400725
 20
-5.251182653135696
 30
0.0
 10
59.04229863511237
 20
-5.193374505786808
 30
0.0
 10
59.84157457508927
 20
-5.130603323734992
 30
0.0
 10
60.50567596079058
 20
-5.084793969776568
 30
0.0
 10
61.12915131504816
 20
-5.047659734714856
 30
0.0
 10
61.76968472093158
 20
-5.016206777271702
 30
0.0
 10
62.52557383449168
 20
-4.987088413763566
 30
0.0
 10
63.37832248142497
 20
-4.965453134957793
 30
0.0
 10
64.16102695320323
 20
-4.958191491439035
 30
0.0
 10
64.83323263771189
 20
-4.959634870756962
 30
0.0
 10
65.51142721565917
 20
-4.967388730870135
 30
0.0
 10
66.47169416491374
 20
-4.98996740518893
 30
0.0
 10
67.22127019709538
 20
-5.025587871529319
 30
0.0
 10
67.6500794774996
 20
-5.045965239379019
 30
0.0
  0
SPLINE
  5
A8
330
1F
100
AcDbEntity
  8
0
  6
Continuous
 62
     1
370
    15
100
AcDbSpline
210
0.0
220
0.0
230
1.0
 70
     8
 71
     3
 72
    14
 73
    10
 74
     0
 42
0.000000001
 43
0.00000001
 40
0.0
 40
0.0
 40
0.0
 40
0.0
 40
0.2106053202446348
 40
0.3671816984208156
 40
0.4694923682099894
 40
0.5526428269865477
 40
0.6369229763643094
 40
0.9715398483155601
 40
1.0
 40
1.0
 40
1.0
 40
1.0
 10
33.09718029473444
 20
5.045964099863982
 30
0.0
 10
32.73252167499925
 20
5.028307630859693
 30
0.0
 10
32.09675439626845
 20
4.997524304638029
 30
0.0
 10
31.28520398675412
 20
4.974783869867449
 30
0.0
 10
30.69420866111177
 20
4.964134689909697
 30
0.0
 10
30.22773170693707
 20
4.959568707186031
 30
0.0
 10
29.35954945881534
 20
4.95777297258667
 30
0.0
 10
28.5861636053892
 20
4.966474805128444
 30
0.0
 10
27.95829777034037
 20
4.989865928309394
 30
0.0
 10
27.90908188572164
 20
4.991699464640428
 30
0.0
  0
SPLINE
  5
A9
330
1F
100
AcDbEntity
  8
0
  6
Continuous
 62
     1
370
    15
100
AcDbSpline
210
0.0
220
0.0
230
1.0
 70
     8
 71
     3
 72
    14
 73
    10
 74
     0
 42
0.000000001
 43
0.00000001
 40
0.0
 40
0.0
 40
0.0
 40
0.0
 40
0.2563035483896831
 40
0.4468681728636012
 40
0.5723506696998526
 40
0.6674483935377493
 40
0.7638321236966128
 40
0.9583856572683583
 40
1.0
 40
1.0
 40
1.0
 40
1.0
 10
72.74637535605454
 20
-4.776101887945161
 30
0.0
 10
73.15229961698537
 20
-4.714885460769939
 30
0.0
 10
73.86003321623846
 20
-4.608153918686733
 30
0.0
 10
74.76342075611286
 20
-4.495654826300944
 30
0.0
 10
75.41234724227017
 20
-4.424254703714977
 30
0.0
 10
75.91326659985735
 20
-4.374767475158115
 30
0.0
 10
76.52318203369789
 20
-4.321211706222332
 30
0.0
 10
77.04815578944522
 20
-4.278895699697217
 30
0.0
 10
77.42139217389563
 20
-4.260072994580277
 30
0.0
 10
77.48715889486361
 20
-4.256756309372563
 30
0.0
  0
SPLINE
  5
AA
330
1F
100
AcDbEntity
  8
0
  6
Continuous
 62
     1
370
    15
100
AcDbSpline
210
0.0
220
0.0
230
1.0
 70
     8
 71
     3
 72
    19
 73
    15
 74
     0
 42
0.000000001
 43
0.00000001
 40
0.0
 40
0.0
 40
0.0
 40
0.0
 40
0.1013078522934465
 40
0.1771231162827874
 40
0.2276252605039228
 40
0.2713054461888005
 40
0.3167392520589814
 40
0.4985067311617908
 40
0.6116547802555439
 40
0.716245876779476
 40
0.756679115420419
 40
0.8110699046799744
 40
0.892092102493563
 40
1.0
 40
1.0
 40
1.0
 40
1.0
 10
49.28772406112033
 20
4.343098824003856
 30
0.0
 10
48.91034271832119
 20
4.313239839021629
 30
0.0
 10
48.25054233809058
 20
4.261035430879864
 30
0.0
 10
47.40611184144423
 20
4.218749990128466
 30
0.0
 10
46.78294829650827
 20
4.196549673320243
 30
0.0
 10
46.27122452660068
 20
4.184611454772948
 30
0.0
 10
45.27076828880308
 20
4.172483256902766
 30
0.0
 10
44.01104743038725
 20
4.194164110890275
 30
0.0
 10
42.53389643298796
 20
4.275001412726081
 30
0.0
 10
41.5834066197028
 20
4.352775272738033
 30
0.0
 10
40.84385465658482
 20
4.425820581369325
 30
0.0
 10
40.19318202446044
 20
4.497723362303236
 30
0.0
 10
39.29382131541924
 20
4.610054441467262
 30
0.0
 10
38.59347339697821
 20
4.715742525392209
 30
0.0
 10
38.19346792789734
 20
4.776106539439346
 30
0.0
  0
SPLINE
  5
AB
330
1F
100
AcDbEntity
  8
0
  6
Continuous
 62
     1
370
    15
100
AcDbSpline
210
0.0
220
0.0
230
1.0
 70
     8
 71
     3
 72
    14
 73
    10
 74
     0
 42
0.000000001
 43
0.00000001
 40
0.0
 40
0.0
 40
0.0
 40
0.0
 40
0.2570029257073123
 40
0.4486517341097397
 40
0.5756176984989085
 40
0.6721622044116295
 40
0.7695642995210986
 40
0.9651374771218242
 40
1.0
 40
1.0
 40
1.0
 40
1.0
 10
38.19346792789734
 20
-4.77610653943935
 30
0.0
 10
38.59984053227008
 20
-4.714825913360625
 30
0.0
 10
39.30924791798272
 20
-4.607847912694355
 30
0.0
 10
40.21664353297626
 20
-4.494897677473773
 30
0.0
 10
40.8721162741106
 20
-4.422901614387784
 30
0.0
 10
41.3795443529895
 20
-4.372929791753765
 30
0.0
 10
41.99368005752554
 20
-4.319347947412811
 30
0.0
 10
42.5077932058494
 20
-4.277970726229221
 30
0.0
 10
42.87126159619167
 20
-4.259752940436348
 30
0.0
 10
42.92625058030946
 20
-4.256996779074747
 30
0.0
  0
SPLINE
  5
AC
330
1F
100
AcDbEntity
  8
0
  6
Continuous
 62
     1
370
    15
100
AcDbSpline
210
0.0
220
0.0
230
1.0
 70
     8
 71
     3
 72
    19
 73
    15
 74
     0
 42
0.000000001
 43
0.00000001
 40
0.0
 40
0.0
 40
0.0
 40
0.0
 40
0.1026033463001505
 40
0.1791441790430685
 40
0.2298247906689425
 40
0.2735104310290534
 40
0.3189463529192745
 40
0.5007198220547352
 40
0.6137666808600974
 40
0.717727989150252
 40
0.7576132688900524
 40
0.8114835322128181
 40
0.8921962498390235
 40
1.0
 40
1.0
 40
1.0
 40
1.0
 10
83.84057558621663
 20
4.343096548519634
 30
0.0
 10
83.45841281486895
 20
4.312894347198274
 30
0.0
 10
82.79116132256743
 20
4.260161675642113
 30
0.0
 10
81.93866968205081
 20
4.217835317325938
 30
0.0
 10
81.31213446791415
 20
4.195850089757277
 30
0.0
 10
80.79969502568642
 20
4.184185689322419
 30
0.0
 10
79.79921057193344
 20
4.172620573464282
 30
0.0
 10
78.53996897317468
 20
4.19501684167344
 30
0.0
 10
77.06527100181852
 20
4.27648203381109
 30
0.0
 10
76.11583751945021
 20
4.354664733498762
 30
0.0
 10
75.38452802736576
 20
4.427138238064626
 30
0.0
 10
74.74013989659424
 20
4.498458622087063
 30
0.0
 10
73.84469431379702
 20
4.610349061721467
 30
0.0
 10
73.1459528919291
 20
4.715799636582004
 30
0.0
 10
72.74637535605454
 20
4.776101887945157
 30
0.0
  0
SPLINE
  5
AD
330
1F
100
AcDbEntity
  8
0
  6
Continuous
 62
     1
370
    15
100
AcDbSpline
210
0.0
220
0.0
230
1.0
 70
     8
 71
     3
 72
     9
 73
     5
 74
     0
 42
0.000000001
 43
0.00000001
 40
0.0
 40
0.0
 40
0.0
 40
0.0
 40
0.4957273203031552
 40
1.0
 40
1.0
 40
1.0
 40
1.0
 10
14.73483763170989
 20
4.343098086839993
 30
0.0
 10
13.94914860708133
 20
4.285606528023512
 30
0.0
 10
12.36422683164221
 20
4.169632369525805
 30
0.0
 10
10.7925524513572
 20
4.182664989808379
 30
0.0
 10
10.0
 20
4.189236984161745
 30
0.0
  0
SPLINE
  5
AE
330
1F
100
AcDbEntity
  8
외형선
  6
Continuous
370
    15
100
AcDbSpline
210
0.0
220
0.0
230
1.0
 70
     8
 71
     3
 72
     8
 73
     4
 74
     0
 42
0.000000001
 43
0.00000001
 40
0.0
 40
0.0
 40
0.0
 40
0.0
 40
1.0
 40
1.0
 40
1.0
 40
1.0
 10
10.0
 20
-3.610573649370423
 30
0.0
 10
9.3257828579744
 20
-3.289705873287565
 30
0.0
 10
8.643333425883643
 20
-2.946941299405045
 30
0.0
 10
7.969915949439315
 20
-2.590971864789407
 30
0.0
  0
LINE
  5
AF
330
1F
100
AcDbEntity
  8
외형선
  6
Continuous
370
    15
100
AcDbLine
 10
10.0
 20
-3.610573649370415
 30
0.0
 11
10.0
 21
-4.912807734315174
 31
0.0
  0
SPLINE
  5
B0
330
1F
100
AcDbEntity
  8
외형선
  6
Continuous
370
    15
100
AcDbSpline
210
0.0
220
0.0
230
1.0
 70
     8
 71
     3
 72
     8
 73
     4
 74
     0
 42
0.000000001
 43
0.00000001
 40
0.0
 40
0.0
 40
0.0
 40
0.0
 40
1.0
 40
1.0
 40
1.0
 40
1.0
 10
7.969958906942571
 20
-4.09133581180062
 30
0.0
 10
8.643362447026409
 20
-4.389514959368635
 30
0.0
 10
9.325797194141712
 20
-4.665677631173239
 30
0.0
 10
10.0
 20
-4.912807734315173
 30
0.0
  0
LINE
  5
B1
330
1F
100
AcDbEntity
  8
외형선
  6
Continuous
370
    15
100
AcDbLine
 10
7.969958906942571
 20
-6.350000000000001
 30
0.0
 11
7.969958906942571
 21
-4.091337509719304
 31
0.0
  0
SPLINE
  5
B2
330
1F
100
AcDbEntity
  8
외형선
  6
Continuous
370
    15
100
AcDbSpline
210
0.0
220
0.0
230
1.0
 70
     8
 71
     3
 72
    11
 73
     7
 74
     0
 42
0.000000001
 43
0.00000001
 40
0.0
 40
0.0
 40
0.0
 40
0.0
 40
0.0746986934129836
 40
0.3827495904292672
 40
0.6912926361267104
 40
1.0
 40
1.0
 40
1.0
 40
1.0
 10
8.353696205389316
 20
4.257580247345021
 30
0.0
 10
8.39466884134396
 20
4.275398923450354
 30
0.0
 10
8.604609054672004
 20
4.366700265812558
 30
0.0
 10
8.984128328260113
 20
4.522030318261632
 30
0.0
 10
9.492060486613095
 20
4.723929360751906
 30
0.0
 10
9.83065678297453
 20
4.849837103831106
 30
0.0
 10
10.0
 20
4.912807734315171
 30
0.0
  0
LINE
  5
B3
330
1F
100
AcDbEntity
  8
외형선
  6
Continuous
370
    15
100
AcDbLine
 10
7.969958906942571
 20
-2.590723403936491
 30
0.0
 11
7.969958906942571
 21
6.349999999999998
 31
0.0
  0
LINE
  5
B4
330
1F
100
AcDbEntity
  8
외형선
  6
Continuous
370
    15
100
AcDbLine
 10
-65.20000000000002
 20
6.349999999999987
 30
0.0
 11
-65.20000000000002
 21
-6.350000000000004
 31
0.0
  0
LINE
  5
B5
330
1F
100
AcDbEntity
  8
외형선
  6
Continuous
370
    15
100
AcDbLine
 10
-66.20000000000002
 20
5.349999999999988
 30
0.0
 11
-66.20000000000002
 21
-5.350000000000003
 31
0.0
  0
SPLINE
  5
B6
330
1F
100
AcDbEntity
  8
외형선
  6
Continuous
370
    15
100
AcDbSpline
210
0.0
220
0.0
230
1.0
 70
    24
 71
     3
 72
     8
 73
     4
 74
     0
 42
0.000000001
 43
0.00000001
 40
0.0
 40
0.0
 40
0.0
 40
0.0
 40
1.0
 40
1.0
 40
1.0
 40
1.0
 10
10.0
 20
-2.795795848324941
 30
0.0
 10
10.0
 20
-3.049781240618316
 30
0.0
 10
10.0
 20
-3.323041246129807
 30
0.0
 10
10.0
 20
-3.610573649359281
 30
0.0
  0
SPLINE
  5
B7
330
1F
100
AcDbEntity
  8
외형선
  6
Continuous
370
    15
100
AcDbSpline
210
0.0
220
0.0
230
1.0
 70
     8
 71
     3
 72
    18
 73
    14
 74
     0
 42
0.000000001
 43
0.00000001
 40
0.0
 40
0.0
 40
0.0
 40
0.0
 40
0.0161571687057028
 40
0.0449819066034201
 40
0.0871913899528774
 40
0.142976820659318
 40
0.2500824590493264
 40
0.5000731163587461
 40
0.750079145268178
 40
0.850111511043717
 40
0.9244880513809082
 40
0.9740920945942414
 40
1.0
 40
1.0
 40
1.0
 40
1.0
 10
8.419410994938136
 20
-2.106502016658724
 30
0.0
 10
8.41613812326318
 20
-2.105763396585051
 30
0.0
 10
8.407026377839868
 20
-2.103707062348866
 30
0.0
 10
8.391630105435691
 20
-2.105119310511553
 30
0.0
 10
8.36991201522522
 20
-2.107359488081697
 30
0.0
 10
8.336080238481275
 20
-2.113172533787017
 30
0.0
 10
8.269865142880908
 20
-2.127032119024264
 30
0.0
 10
8.176243294269694
 20
-2.152218988138319
 30
0.0
 10
8.087482662184087
 20
-2.181512684109352
 30
0.0
 10
8.0270951739211
 20
-2.20534384779474
 30
0.0
 10
7.997538434960411
 20
-2.220132661184404
 30
0.0
 10
7.977198013944884
 20
-2.230137649883346
 30
0.0
 10
7.971808916694449
 20
-2.239071248018571
 30
0.0
 10
7.969959934853296
 20
-2.242136336652266
 30
0.0
  0
SPLINE
  5
B8
330
1F
100
AcDbEntity
  8
외형선
  6
Continuous
370
    15
100
AcDbSpline
210
0.0
220
0.0
230
1.0
 70
     8
 71
     3
 72
     8
 73
     4
 74
     0
 42
0.000000001
 43
0.00000001
 40
0.0
 40
0.0
 40
0.0
 40
0.0
 40
1.0
 40
1.0
 40
1.0
 40
1.0
 10
9.999999999999952
 20
-2.795795848324921
 30
0.0
 10
9.475419753424816
 20
-2.575135382689737
 30
0.0
 10
8.945852408578371
 20
-2.344150961145831
 30
0.0
 10
8.419438422294348
 20
-2.106364940398068
 30
0.0
  0
SPLINE
  5
B9
330
1F
100
AcDbEntity
  8
외형선
  6
Continuous
370
    15
100
AcDbSpline
210
0.0
220
0.0
230
1.0
 70
     8
 71
     3
 72
    14
 73
    10
 74
     0
 42
0.000000001
 43
0.00000001
 40
0.0
 40
0.0
 40
0.0
 40
0.0
 40
0.25
 40
0.25
 40
0.5
 40
0.5
 40
0.75
 40
0.75
 40
1.0
 40
1.0
 40
1.0
 40
1.0
 10
8.252485717402168
 20
3.483151585642198
 30
0.0
 10
8.223586626385513
 20
3.470609679366222
 30
0.0
 10
8.193095000214512
 20
3.462375060124429
 30
0.0
 10
8.125344382249727
 20
3.465013574152443
 30
0.0
 10
8.086458237352915
 20
3.477208447311916
 30
0.0
 10
8.01868617810529
 20
3.546203311637575
 30
0.0
 10
7.99582351840618
 20
3.6001907729824
 30
0.0
 10
7.973126632877156
 20
3.697723917160118
 30
0.0
 10
7.969958906942574
 20
3.745444286152481
 30
0.0
 10
7.969958906942571
 20
3.789281322155827
 30
0.0
  0
SPLINE
  5
BA
330
1F
100
AcDbEntity
  8
외형선
  6
Continuous
370
    15
100
AcDbSpline
210
0.0
220
0.0
230
1.0
 70
     8
 71
     3
 72
    16
 73
    12
 74
     0
 42
0.000000001
 43
0.00000001
 40
0.0
 40
0.0
 40
0.0
 40
0.0
 40
0.2899792220134454
 40
0.4433029671488753
 40
0.5743717183115149
 40
0.6995570737185546
 40
0.8025917813326565
 40
0.8835862653084655
 40
0.9427604206473336
 40
0.980699034926008
 40
1.0
 40
1.0
 40
1.0
 40
1.0
 10
8.25247908062291
 20
3.483154695236566
 30
0.0
 10
8.274334508062612
 20
3.492693065034903
 30
0.0
 10
8.307745784101822
 20
3.507274756798909
 30
0.0
 10
8.351790837712718
 20
3.526710201844816
 30
0.0
 10
8.383619066820788
 20
3.54064475685699
 30
0.0
 10
8.41212355062501
 20
3.552870375726211
 30
0.0
 10
8.437517840810079
 20
3.563111313530108
 30
0.0
 10
8.458285064788308
 20
3.571067606356198
 30
0.0
 10
8.474885417245062
 20
3.575871633685998
 30
0.0
 10
8.486377783818686
 20
3.579401509611205
 30
0.0
 10
8.49418083668343
 20
3.578741895892325
 30
0.0
 10
8.496811995970694
 20
3.578519476694029
 30
0.0
  0
SPLINE
  5
BB
330
1F
100
AcDbEntity
  8
외형선
  6
Continuous
370
    15
100
AcDbSpline
210
0.0
220
0.0
230
1.0
 70
     8
 71
     3
 72
     8
 73
     4
 74
     0
 42
0.000000001
 43
0.00000001
 40
0.0
 40
0.0
 40
0.0
 40
0.0
 40
1.0
 40
1.0
 40
1.0
 40
1.0
 10
9.999999999999984
 20
3.054353059910087
 30
0.0
 10
9.501109908159638
 20
3.238855701315986
 30
0.0
 10
8.997709386291767
 20
3.414402379948398
 30
0.0
 10
8.496800039041497
 20
3.578509102829433
 30
0.0
  0
SPLINE
  5
BC
330
1F
100
AcDbEntity
  8
외형선
  6
Continuous
370
    15
100
AcDbSpline
210
0.0
220
0.0
230
1.0
 70
    24
 71
     3
 72
    14
 73
    10
 74
     0
 42
0.000000001
 43
0.00000001
 40
0.0
 40
0.0
 40
0.0
 40
0.0
 40
0.25
 40
0.25
 40
0.5
 40
0.5
 40
0.75
 40
0.75
 40
1.0
 40
1.0
 40
1.0
 40
1.0
 10
10.0
 20
3.054353059910083
 30
0.0
 10
10.0
 20
2.631626078708062
 30
0.0
 10
10.0
 20
2.172570378508136
 30
0.0
 10
10.0
 20
1.207661675352036
 30
0.0
 10
10.0
 20
0.7020183492067218
 30
0.0
 10
10.0
 20
-0.3204401173713011
 30
0.0
 10
10.0
 20
-0.8369600028367129
 30
0.0
 10
10.0
 20
-1.843843432692435
 30
0.0
 10
10.0
 20
-2.333964247618272
 30
0.0
 10
10.0
 20
-2.79579584832494
 30
0.0
  0
SPLINE
  5
BD
330
1F
100
AcDbEntity
  8
외형선
  6
Continuous
370
    15
100
AcDbSpline
210
0.0
220
0.0
230
1.0
 70
    24
 71
     3
 72
    11
 73
     7
 74
     0
 42
0.000000001
 43
0.00000001
 40
0.0
 40
0.0
 40
0.0
 40
0.0
 40
0.1259299920444065
 40
0.4220960160729716
 40
0.7070042176627941
 40
1.0
 40
1.0
 40
1.0
 40
1.0
 10
9.999999999999996
 20
4.165490031963469
 30
0.0
 10
9.999999999999996
 20
4.170926509763818
 30
0.0
 10
9.999999999999996
 20
4.189148663070928
 30
0.0
 10
9.999999999999996
 20
4.008509653999451
 30
0.0
 10
9.999999999999993
 20
3.64823915037754
 30
0.0
 10
9.999999999999996
 20
3.25415345765517
 30
0.0
 10
9.999999999999996
 20
3.054353059910083
 30
0.0
  0
SPLINE
  5
BE
330
1F
100
AcDbEntity
  8
외형선
  6
Continuous
370
    15
100
AcDbSpline
210
0.0
220
0.0
230
1.0
 70
    24
 71
     3
 72
    10
 73
     6
 74
     0
 42
0.000000001
 43
0.00000001
 40
0.0
 40
0.0
 40
0.0
 40
0.0
 40
0.2166706571056808
 40
0.7766628543710962
 40
1.0
 40
1.0
 40
1.0
 40
1.0
 10
9.999999999999996
 20
4.912807734315169
 30
0.0
 10
9.999999999999996
 20
4.863121175256588
 30
0.0
 10
9.999999999999993
 20
4.685018125689099
 30
0.0
 10
9.999999999999993
 20
4.463629540000515
 30
0.0
 10
9.999999999999996
 20
4.317107397530971
 30
0.0
 10
9.999999999999996
 20
4.275332073566125
 30
0.0
  0
SPLINE
  5
BF
330
1F
100
AcDbEntity
  8
0
  6
Continuous
 62
     1
370
    15
100
AcDbSpline
210
0.0
220
0.0
230
1.0
 70
     8
 71
     3
 72
    30
 73
    26
 74
     0
 42
0.000000001
 43
0.00000001
 40
0.0
 40
0.0
 40
0.0
 40
0.0
 40
0.0472621668177981
 40
0.0949145921074016
 40
0.1383400085648122
 40
0.1820672329593648
 40
0.2254705000194733
 40
0.2691747479023922
 40
0.3125600831100505
 40
0.3562468188392905
 40
0.3996167339235931
 40
0.4432868762194089
 40
0.4866569540455016
 40
0.5303283833952627
 40
0.5736983176198962
 40
0.6173688107238409
 40
0.660738722814121
 40
0.7044090571650025
 40
0.7477790201570953
 40
0.7914499499605515
 40
0.8348198598605141
 40
0.8784899335028745
 40
0.9218594925700266
 40
0.9655304771421689
 40
1.0
 40
1.0
 40
1.0
 40
1.0
 10
10.0
 20
4.912807734315177
 30
0.0
 10
10.66329758936248
 20
5.139886190319164
 30
0.0
 10
11.99536982343649
 20
5.595918160056962
 30
0.0
 10
13.93683612935745
 20
6.039782773885833
 30
0.0
 10
15.82827541951844
 20
6.302327990214779
 30
0.0
 10
17.66021838674182
 20
6.379036328536971
 30
0.0
 10
19.49635423483489
 20
6.27943923730394
 30
0.0
 10
21.32799363069031
 20
6.006296481786749
 30
0.0
 10
23.1630420233494
 20
5.565752749804613
 30
0.0
 10
24.99334629197385
 20
4.972078499650028
 30
0.0
 10
26.82764931909754
 20
4.239230980227308
 30
0.0
 10
28.65791774261156
 20
3.391359511020267
 30
0.0
 10
30.49255664872689
 20
2.447950812526016
 30
0.0
 10
32.32248484749316
 20
1.438128590319036
 30
0.0
 10
34.15654123392959
 20
0.3860420499582723
 30
0.0
 10
35.98644176193754
 20
-0.6742818142726371
 30
0.0
 10
37.82100568260148
 20
-1.717465334887545
 30
0.0
 10
39.65134100170367
 20
-2.71095485116036
 30
0.0
 10
41.48543499287325
 20
-3.632204399295874
 30
0.0
 10
43.3153002366014
 20
-4.4510342621062
 30
0.0
 10
45.14941071968059
 20
-5.147756886069916
 30
0.0
 10
46.97983533618536
 20
-5.701512710817795
 30
0.0
 10
48.81429146097426
 20
-6.093481201099835
 30
0.0
 10
50.51928777744125
 20
-6.319601668954871
 30
0.0
 10
51.61571554660203
 20
-6.330797634878781
 30
0.0
 10
52.09937432095693
 20
-6.335736425475651
 30
0.0
  0
SPLINE
  5
C0
330
1F
100
AcDbEntity
  8
0
  6
Continuous
 62
     1
370
    15
100
AcDbSpline
210
0.0
220
0.0
230
1.0
 70
     8
 71
     3
 72
    13
 73
     9
 74
     0
 42
0.000000001
 43
0.00000001
 40
0.0
 40
0.0
 40
0.0
 40
0.0
 40
0.072619172079508
 40
0.2837308856829936
 40
0.460584141515511
 40
0.6383068753621821
 40
0.8186918747658121
 40
1.0
 40
1.0
 40
1.0
 40
1.0
 10
77.49195560819159
 20
4.258850601417663
 30
0.0
 10
77.70273902833158
 20
4.352452936766626
 30
0.0
 10
78.52629243400983
 20
4.71816728946512
 30
0.0
 10
79.86307840227741
 20
5.194910320640001
 30
0.0
 10
81.50544872022374
 20
5.687233121321184
 30
0.0
 10
83.05836600583952
 20
6.032228376095473
 30
0.0
 10
84.6235439796863
 20
6.269678617478214
 30
0.0
 10
85.67362131187589
 20
6.319605781680565
 30
0.0
 10
86.19999999999999
 20
6.349999999999998
 30
0.0
  0
SPLINE
  5
C1
330
1F
100
AcDbEntity
  8
0
  6
Continuous
 62
     1
370
    15
100
AcDbSpline
210
0.0
220
0.0
230
1.0
 70
    24
 71
     3
 72
    10
 73
     6
 74
     0
 42
0.000000001
 43
0.00000001
 40
0.0
 40
0.0
 40
0.0
 40
0.0
 40
0.5
 40
0.5
 40
1.0
 40
1.0
 40
1.0
 40
1.0
 10
86.2
 20
4.444999999999998
 30
0.0
 10
86.20000000000002
 20
4.714444830726441
 30
0.0
 10
86.19999999999997
 20
5.027564677306191
 30
0.0
 10
86.19999999999997
 20
5.684489272101435
 30
0.0
 10
86.20000000000002
 20
6.026616317339356
 30
0.0
 10
86.19999999999999
 20
6.349999999999998
 30
0.0
  0
LINE
  5
C2
330
1F
100
AcDbEntity
  8
0
  6
Continuous
 62
     1
370
    15
100
AcDbLine
 10
86.2
 20
4.444999999999998
 30
0.0
 11
83.82936563222029
 21
4.304058114038167
 31
0.0
  0
SPLINE
  5
C3
330
1F
100
AcDbEntity
  8
0
  6
Continuous
 62
     1
370
    15
100
AcDbSpline
210
0.0
220
0.0
230
1.0
 70
     8
 71
     3
 72
    15
 73
    11
 74
     0
 42
0.000000001
 43
0.00000001
 40
0.0
 40
0.0
 40
0.0
 40
0.0
 40
0.0848493384789918
 40
0.2392149000017002
 40
0.3936582823650577
 40
0.5481346596668708
 40
0.702472773013281
 40
0.8569920319123808
 40
0.9794040975177339
 40
0.9999999999999999
 40
0.9999999999999999
 40
0.9999999999999999
 40
0.9999999999999999
 10
35.83717792034373
 20
-0.5848925920703499
 30
0.0
 10
35.24014127775797
 20
-0.3466693202695389
 30
0.0
 10
33.55692178172306
 20
0.3249511916100952
 30
0.0
 10
30.78746312515298
 20
1.44535559952133
 30
0.0
 10
27.52777886715781
 20
2.628781627374602
 30
0.0
 10
24.2680724125054
 20
3.583003308840894
 30
0.0
 10
21.00864960276683
 20
4.233238360420901
 30
0.0
 10
17.97362535033944
 20
4.466094554365299
 30
0.0
 10
15.88085185836387
 20
4.466970105683467
 30
0.0
 10
14.8748792385178
 20
4.343946024216757
 30
0.0
 10
14.72999980099243
 20
4.32622818640155
 30
0.0
  0
SPLINE
  5
C4
330
1F
100
AcDbEntity
  8
외형선
  6
Continuous
370
    15
100
AcDbSpline
210
0.0
220
0.0
230
1.0
 70
    24
 71
     3
 72
    10
 73
     6
 74
     0
 42
0.000000001
 43
0.00000001
 40
0.0
 40
0.0
 40
0.0
 40
0.0
 40
0.2166706571056825
 40
0.7766628543710968
 40
1.0
 40
1.0
 40
1.0
 40
1.0
 10
9.999999999999996
 20
4.912807734315171
 30
0.0
 10
9.999999999999996
 20
4.863121175256591
 30
0.0
 10
9.999999999999993
 20
4.685018125689099
 30
0.0
 10
9.999999999999993
 20
4.463629540000517
 30
0.0
 10
9.999999999999993
 20
4.31710739753097
 30
0.0
 10
9.999999999999993
 20
4.275332073566125
 30
0.0
  0
SPLINE
  5
C5
330
1F
100
AcDbEntity
  8
0
  6
Continuous
 62
     1
370
    15
100
AcDbSpline
210
0.0
220
0.0
230
1.0
 70
     8
 71
     3
 72
    11
 73
     7
 74
     0
 42
0.000000001
 43
0.00000001
 40
0.0
 40
0.0
 40
0.0
 40
0.0
 40
0.2636757820420795
 40
0.5295288173647489
 40
0.7717993566959831
 40
0.9999999999999999
 40
0.9999999999999999
 40
0.9999999999999999
 40
0.9999999999999999
 10
10.0
 20
-4.912807734315182
 30
0.0
 10
10.66329724538016
 20
-5.140117724864386
 30
0.0
 10
11.99536878864915
 20
-5.596614675545671
 30
0.0
 10
13.93684015382607
 20
-6.037073903566366
 30
0.0
 10
15.78864240159791
 20
-6.305761383925109
 30
0.0
 10
16.9719718032335
 20
-6.331937911987879
 30
0.0
 10
17.5459421985747
 20
-6.344634758816902
 30
0.0
  0
SPLINE
  5
C6
330
1F
100
AcDbEntity
  8
0
  6
Continuous
 62
     1
370
    15
100
AcDbSpline
210
0.0
220
0.0
230
1.0
 70
     8
 71
     3
 72
    32
 73
    28
 74
     0
 42
0.000000001
 43
0.00000001
 40
0.0
 40
0.0
 40
0.0
 40
0.0
 40
0.0089766537752476
 40
0.0511739547573444
 40
0.0936633038394049
 40
0.1358602634742928
 40
0.1783504988569765
 40
0.2205473092024404
 40
0.2630364516737585
 40
0.3052332631438467
 40
0.3477225425830449
 40
0.389919374146368
 40
0.4324089171040272
 40
0.4746057039789571
 40
0.5170945155877673
 40
0.5592914294123753
 40
0.6017814975309518
 40
0.6439783033328275
 40
0.6864673563859303
 40
0.7286642017750316
 40
0.7711537282829818
 40
0.8133505523694335
 40
0.8558399844841668
 40
0.8914343827281174
 40
0.9272037766008138
 40
0.9635089917679469
 40
0.9999999999999999
 40
0.9999999999999999
 40
0.9999999999999999
 40
0.9999999999999999
 10
42.93115856384601
 20
4.259182500124419
 30
0.0
 10
43.06061549318642
 20
4.317487122473427
 30
0.0
 10
43.79862134825886
 20
4.64986911925484
 30
0.0
 10
45.14941147485369
 20
5.14183764538747
 30
0.0
 10
46.97983544112972
 20
5.702258548271795
 30
0.0
 10
48.81429029706301
 20
6.096366448943766
 30
0.0
 10
50.64417309653497
 20
6.323801275078421
 30
0.0
 10
52.47820753806846
 20
6.375633199701216
 30
0.0
 10
54.30812727178609
 20
6.25107979241671
 30
0.0
 10
56.14280649150113
 20
5.953247821057136
 30
0.0
 10
57.97296267199083
 20
5.491457568602493
 30
0.0
 10
59.80701376441129
 20
4.876099567722821
 30
0.0
 10
61.63685741787636
 20
4.127149809643738
 30
0.0
 10
63.4710068306761
 20
3.262217255406865
 30
0.0
 10
65.3015116329763
 20
2.309893951790257
 30
0.0
 10
67.13580823463376
 20
1.29081809440591
 30
0.0
 10
68.96567262150789
 20
0.2378696322972684
 30
0.0
 10
70.79970962687179
 20
-0.8240560455302548
 30
0.0
 10
72.62970629165582
 20
-1.860508979807203
 30
0.0
 10
74.46444380358912
 20
-2.846866711103236
 30
0.0
 10
76.29447288363319
 20
-3.753167268225793
 30
0.0
 10
78.12853506902681
 20
-4.557693395537415
 30
0.0
 10
79.86308286899593
 20
-5.199019592042642
 30
0.0
 10
81.50544760877484
 20
-5.686210615648976
 30
0.0
 10
83.05836630775984
 20
-6.032506135354594
 30
0.0
 10
84.6235439032858
 20
-6.269608330918662
 30
0.0
 10
85.67362128636579
 20
-6.31958231299731
 30
0.0
 10
86.19999999999962
 20
-6.350000000000001
 30
0.0
  0
SPLINE
  5
C7
330
1F
100
AcDbEntity
  8
0
  6
Continuous
 62
     1
370
    15
100
AcDbSpline
210
0.0
220
0.0
230
1.0
 70
     8
 71
     3
 72
    15
 73
    11
 74
     0
 42
0.000000001
 43
0.00000001
 40
0.0
 40
0.0
 40
0.0
 40
0.0
 40
0.0234942943331271
 40
0.1778289249829642
 40
0.3321745456511909
 40
0.486399648314307
 40
0.6407971178569042
 40
0.7950042296112584
 40
0.9493754000664846
 40
1.0
 40
1.0
 40
1.0
 40
1.0
 10
70.39918319297587
 20
-0.5893821185658557
 30
0.0
 10
70.2337594276318
 20
-0.5247872942636004
 30
0.0
 10
68.98166264444433
 20
-0.0358673887639485
 30
0.0
 10
66.64259225741293
 20
0.9332230588639249
 30
0.0
 10
63.38288950616975
 20
2.176015162017732
 30
0.0
 10
60.12340643864141
 20
3.235677220014187
 30
0.0
 10
56.86388973185024
 20
4.016571298138075
 30
0.0
 10
53.60446811498664
 20
4.422967934004788
 30
0.0
 10
51.07484731521158
 20
4.514327916215514
 30
0.0
 10
49.63141876348958
 20
4.342779989098286
 30
0.0
 10
49.27495778468514
 20
4.300415480000051
 30
0.0
  0
SPLINE
  5
C8
330
1F
100
AcDbEntity
  8
0
  6
Continuous
 62
     1
370
    15
100
AcDbSpline
210
0.0
220
0.0
230
1.0
 70
     8
 71
     3
 72
    20
 73
    16
 74
     0
 42
0.000000001
 43
0.00000001
 40
0.0
 40
0.0
 40
0.0
 40
0.0
 40
0.0787811718953024
 40
0.1575690351159443
 40
0.2363626652609571
 40
0.3151611333630405
 40
0.3939635066174653
 40
0.4727688491175304
 40
0.5515762225953215
 40
0.6303846871665274
 40
0.709193302078023
 40
0.788001126456946
 40
0.8668072200599782
 40
0.9456106440215511
 40
1.0
 40
1.0
 40
1.0
 40
1.0
 10
86.20000000000002
 20
-6.02577451962257
 30
0.0
 10
85.38532329196818
 20
-5.84861207831909
 30
0.0
 10
83.75590068085742
 20
-5.494272148315599
 30
0.0
 10
81.3116184351039
 20
-4.613044208098801
 30
0.0
 10
78.86712496565133
 20
-3.526119379772739
 30
0.0
 10
76.42245054070216
 20
-2.259972416803689
 30
0.0
 10
73.97763101964144
 20
-0.884134438441718
 30
0.0
 10
71.53270092072468
 20
0.5356540292272658
 30
0.0
 10
69.0876952520771
 20
1.928930304067133
 30
0.0
 10
66.64264894941115
 20
3.227550610205184
 30
0.0
 10
64.19759712185213
 20
4.36651287011034
 30
0.0
 10
61.75257445813477
 20
5.293720396662175
 30
0.0
 10
59.3076171827862
 20
5.948832344854133
 30
0.0
 10
57.11519999194824
 20
6.312639775194698
 30
0.0
 10
55.73778455725271
 20
6.315387343396858
 30
0.0
 10
55.1753160928089
 20
6.316509314610987
 30
0.0
  0
SPLINE
  5
C9
330
1F
100
AcDbEntity
  8
0
  6
Continuous
 62
     1
370
    15
100
AcDbSpline
210
0.0
220
0.0
230
1.0
 70
     8
 71
     3
 72
    15
 73
    11
 74
     0
 42
0.000000001
 43
0.00000001
 40
0.0
 40
0.0
 40
0.0
 40
0.0
 40
0.021375909050773
 40
0.1612086892015361
 40
0.3010383719929568
 40
0.4408602880321211
 40
0.5806697804264846
 40
0.7204622122520995
 40
0.8602329739526002
 40
1.0
 40
1.0
 40
1.0
 40
1.0
 10
27.91081249685324
 20
-4.991028044124506
 30
0.0
 10
27.78319218882095
 20
-5.041304563803755
 30
0.0
 10
26.82073007670609
 20
-5.420470278621104
 30
0.0
 10
25.02333179414996
 20
-5.885126236146249
 30
0.0
 10
22.51881528152099
 20
-6.31411386546606
 30
0.0
 10
20.01444592430923
 20
-6.394098824690221
 30
0.0
 10
17.51035051060477
 20
-6.151142253702899
 30
0.0
 10
15.0066130150221
 20
-5.585538292519055
 30
0.0
 10
12.50323373479139
 20
-4.745482423873239
 30
0.0
 10
10.83440381102552
 20
-3.988873203842599
 30
0.0
 10
9.999999999995806
 20
-3.610573649368432
 30
0.0
  0
SPLINE
  5
CA
330
1F
100
AcDbEntity
  8
외형선
  6
Continuous
370
    15
100
AcDbSpline
210
0.0
220
0.0
230
1.0
 70
    24
 71
     3
 72
     8
 73
     4
 74
     0
 42
0.000000001
 43
0.00000001
 40
0.0
 40
0.0
 40
0.0
 40
0.0
 40
1.0
 40
1.0
 40
1.0
 40
1.0
 10
10.0
 20
-2.795795848324941
 30
0.0
 10
10.0
 20
-3.04978124061832
 30
0.0
 10
10.0
 20
-3.323041246129816
 30
0.0
 10
10.0
 20
-3.610573649359296
 30
0.0
  0
SPLINE
  5
CB
330
1F
100
AcDbEntity
  8
0
  6
Continuous
 62
     1
370
    15
100
AcDbSpline
210
0.0
220
0.0
230
1.0
 70
     8
 71
     3
 72
    14
 73
    10
 74
     0
 42
0.000000001
 43
0.00000001
 40
0.0
 40
0.0
 40
0.0
 40
0.0
 40
0.1482043416153876
 40
0.296421833676175
 40
0.4446506596494659
 40
0.5928889939429139
 40
0.7411350033507658
 40
0.8893868485129537
 40
1.0
 40
1.0
 40
1.0
 40
1.0
 10
86.2
 20
-5.009973878738174
 30
0.0
 10
85.38532261921223
 20
-4.837281329279428
 30
0.0
 10
83.7558955698056
 20
-4.491880907032551
 30
0.0
 10
81.3116145645238
 20
-3.686722519340085
 30
0.0
 10
78.8671215654255
 20
-2.718036882495126
 30
0.0
 10
76.42244787801188
 20
-1.610170605519923
 30
0.0
 10
73.97762881482913
 20
-0.4268772737369033
 30
0.0
 10
71.73963184664801
 20
0.6845333024996202
 30
0.0
 10
70.31657586333701
 20
1.353440153904946
 30
0.0
 10
69.70850328073973
 20
1.639264409184533
 30
0.0
  0
SPLINE
  5
CC
330
1F
100
AcDbEntity
  8
0
  6
Continuous
 62
     1
370
    15
100
AcDbSpline
210
0.0
220
0.0
230
1.0
 70
     8
 71
     3
 72
    13
 73
     9
 74
     0
 42
0.000000001
 43
0.00000001
 40
0.0
 40
0.0
 40
0.0
 40
0.0
 40
0.0676870035040213
 40
0.2480573800418213
 40
0.4284220899438562
 40
0.6189918675180293
 40
0.8095132193326141
 40
1.0
 40
1.0
 40
1.0
 40
1.0
 10
23.55536988218625
 20
-5.252675345213018
 30
0.0
 10
23.24952780451732
 20
-5.291318519649825
 30
0.0
 10
22.12868657110985
 20
-5.432936911823498
 30
0.0
 10
20.19286665490735
 20
-5.404622319715751
 30
0.0
 10
17.70187095045794
 20
-5.161587350909123
 30
0.0
 10
15.16480556580042
 20
-4.622464885241875
 30
0.0
 10
12.58218622962591
 20
-3.835588403985056
 30
0.0
 10
10.86067667558841
 20
-3.142372400333266
 30
0.0
 10
9.999999999999952
 20
-2.795795848324921
 30
0.0
  0
LINE
  5
CD
330
1F
100
AcDbEntity
  8
0
  6
Continuous
 62
     1
370
    15
100
AcDbLine
 10
86.2
 20
-6.025774519622577
 30
0.0
 11
86.2
 21
-5.009973878738174
 31
0.0
  0
SPLINE
  5
CE
330
1F
100
AcDbEntity
  8
0
  6
Continuous
 62
     1
370
    15
100
AcDbSpline
210
0.0
220
0.0
230
1.0
 70
     8
 71
     3
 72
    25
 73
    21
 74
     0
 42
0.000000001
 43
0.00000001
 40
0.0
 40
0.0
 40
0.0
 40
0.0
 40
0.0163516817936044
 40
0.0748233500106475
 40
0.1332930374368338
 40
0.1917600490387703
 40
0.250223691909382
 40
0.3086832758149572
 40
0.3671381137376238
 40
0.4255901369860944
 40
0.4840467667208347
 40
0.5425078949012432
 40
0.6009728332866284
 40
0.6594408906156529
 40
0.7179113731505635
 40
0.7763835852256583
 40
0.8348568297990557
 40
0.8947526931921201
 40
0.9546472298647127
 40
0.9999999999999999
 40
0.9999999999999999
 40
0.9999999999999999
 40
0.9999999999999999
 10
62.43629980707429
 20
-4.991901854094121
 30
0.0
 10
62.20838595604914
 20
-5.079644426844451
 30
0.0
 10
61.16547929587918
 20
-5.481143998240251
 30
0.0
 10
59.30761697569417
 20
-5.944611144761065
 30
0.0
 10
56.86275780013267
 20
-6.330452480395722
 30
0.0
 10
54.41803345599747
 20
-6.386474928069956
 30
0.0
 10
51.97347801912936
 20
-6.133187844260931
 30
0.0
 10
49.52912581338668
 20
-5.576849422430619
 30
0.0
 10
47.08497666531211
 20
-4.746514644590694
 30
0.0
 10
44.64090849048154
 20
-3.682539116012285
 30
0.0
 10
42.19669333596029
 20
-2.437458434278641
 30
0.0
 10
39.75226484558502
 20
-1.072417770677629
 30
0.0
 10
37.3076442980168
 20
0.3454339791736671
 30
0.0
 10
34.86286685070296
 20
1.746267479779049
 30
0.0
 10
32.41797051759492
 20
3.061399417586452
 30
0.0
 10
29.9729768147565
 20
4.225164419402328
 30
0.0
 10
27.50814707516232
 20
5.191581418434516
 30
0.0
 10
25.0233376383967
 20
5.892740405307586
 30
0.0
 10
22.72145782347123
 20
6.29949152310799
 30
0.0
 10
21.25446544900672
 20
6.31368631156512
 30
0.0
 10
20.62231466085632
 20
6.319803075951219
 30
0.0
  0
SPLINE
  5
CF
330
1F
100
AcDbEntity
  8
0
  6
Continuous
 62
     1
370
    15
100
AcDbSpline
210
0.0
220
0.0
230
1.0
 70
     8
 71
     3
 72
    17
 73
    13
 74
     0
 42
0.000000001
 43
0.00000001
 40
0.0
 40
0.0
 40
0.0
 40
0.0
 40
0.0542663124810102
 40
0.1607296243945819
 40
0.2671865278153884
 40
0.3736357097838128
 40
0.480075863515796
 40
0.5865106629889196
 40
0.6929542252490466
 40
0.7994063449097586
 40
0.9058657128387559
 40
1.0
 40
1.0
 40
1.0
 40
1.0
 10
58.10885872910185
 20
-5.250423525179672
 30
0.0
 10
57.69348019035149
 20
-5.298223044940768
 30
0.0
 10
56.46318401833359
 20
-5.439798886493128
 30
0.0
 10
54.41803706589666
 20
-5.388371344958742
 30
0.0
 10
51.97348167679671
 20
-5.111617478699105
 30
0.0
 10
49.52913033546882
 20
-4.57004668442083
 30
0.0
 10
47.08497989853809
 20
-3.807196744895872
 30
0.0
 10
44.64090339454779
 20
-2.856192957485416
 30
0.0
 10
42.19668935198578
 20
-1.764448454029091
 30
0.0
 10
39.75226101410786
 20
-0.5877365192477307
 30
0.0
 10
37.40202802224653
 20
0.5783274409650971
 30
0.0
 10
35.8666005485174
 20
1.305881988582693
 30
0.0
 10
35.14605746522668
 20
1.647307686619318
 30
0.0
  0
LINE
  5
D0
330
1F
100
AcDbEntity
  8
0
  6
Continuous
 62
     1
370
    15
100
AcDbLine
 10
86.19999999999962
 20
-6.350000000000001
 30
0.0
 11
86.19999999999942
 21
-6.025774519622575
 31
0.0
  0
SPLINE
  5
D1
330
1F
100
AcDbEntity
  8
0
  6
Continuous
 62
     1
370
    15
100
AcDbSpline
210
0.0
220
0.0
230
1.0
 70
     8
 71
     3
 72
     8
 73
     4
 74
     0
 42
0.000000001
 43
0.00000001
 40
0.0
 40
0.0
 40
0.0
 40
0.0
 40
1.0
 40
1.0
 40
1.0
 40
1.0
 10
82.27110935627955
 20
1.776017074452408
 30
0.0
 10
82.04595661830992
 20
2.042719345429111
 30
0.0
 10
81.84437534697453
 20
2.30005092628174
 30
0.0
 10
81.67247056944503
 20
2.545584801385308
 30
0.0
  0
LINE
  5
D2
330
1F
100
AcDbEntity
  8
0
  6
Continuous
 62
     1
370
    15
100
AcDbLine
 10
81.75275512375333
 20
2.612951541294613
 30
0.0
 11
86.2
 21
0.0000000000000074
 31
0.0
  0
LINE
  5
D3
330
1F
100
AcDbEntity
  8
0
  6
Continuous
 62
     1
370
    15
100
AcDbLine
 10
86.2
 20
0.0000000000000074
 30
0.0
 11
86.2
 21
-1.696992707288237
 31
0.0
  0
SPLINE
  5
D4
330
1F
100
AcDbEntity
  8
0
  6
Continuous
 62
     1
370
    15
100
AcDbSpline
210
0.0
220
0.0
230
1.0
 70
     8
 71
     3
 72
    12
 73
     8
 74
     0
 42
0.000000001
 43
0.00000001
 40
0.0
 40
0.0
 40
0.0
 40
0.0
 40
0.5
 40
0.5
 40
0.75
 40
0.75
 40
1.0
 40
1.0
 40
1.0
 40
1.0
 10
86.2
 20
-1.696992707288237
 30
0.0
 10
85.51989727265337
 20
-1.162318204574587
 30
0.0
 10
84.85115445793743
 20
-0.6057234975944729
 30
0.0
 10
83.86552321729278
 20
0.2629039036809193
 30
0.0
 10
83.53994021316343
 20
0.55815945044315
 30
0.0
 10
82.89542402705888
 20
1.161502109200032
 30
0.0
 10
82.57824347732006
 20
1.468032404438899
 30
0.0
 10
82.2711093562819
 20
1.77601707445007
 30
0.0
  0
SPLINE
  5
D5
330
1F
100
AcDbEntity
  8
외형선
  6
Continuous
370
    15
100
AcDbSpline
210
0.0
220
0.0
230
1.0
 70
    24
 71
     3
 72
    14
 73
    10
 74
     0
 42
0.000000001
 43
0.00000001
 40
0.0
 40
0.0
 40
0.0
 40
0.0
 40
0.25
 40
0.25
 40
0.5
 40
0.5
 40
0.75
 40
0.75
 40
1.0
 40
1.0
 40
1.0
 40
1.0
 10
10.0
 20
3.054353059910083
 30
0.0
 10
10.0
 20
2.631626078708062
 30
0.0
 10
10.0
 20
2.172570378508136
 30
0.0
 10
10.0
 20
1.207661675352036
 30
0.0
 10
10.0
 20
0.7020183492067218
 30
0.0
 10
10.0
 20
-0.3204401173713011
 30
0.0
 10
10.0
 20
-0.8369600028367129
 30
0.0
 10
10.0
 20
-1.843843432692435
 30
0.0
 10
10.0
 20
-2.333964247618272
 30
0.0
 10
10.0
 20
-2.79579584832494
 30
0.0
  0
SPLINE
  5
D6
330
1F
100
AcDbEntity
  8
0
  6
Continuous
 62
     1
370
    15
100
AcDbSpline
210
0.0
220
0.0
230
1.0
 70
     8
 71
     3
 72
    13
 73
     9
 74
     0
 42
0.000000001
 43
0.00000001
 40
0.0
 40
0.0
 40
0.0
 40
0.0
 40
0.1999514846473084
 40
0.3998609615122848
 40
0.5670272420794478
 40
0.7342001952214731
 40
0.9013777125084161
 40
1.0
 40
1.0
 40
1.0
 40
1.0
 10
82.27110935627951
 20
1.776017074452407
 30
0.0
 10
81.29622311485798
 20
2.185835375325614
 30
0.0
 10
79.34665544574305
 20
3.005385878396596
 30
0.0
 10
76.58205681916486
 20
3.935356677801082
 30
0.0
 10
73.97764764659712
 20
4.592937647825653
 30
0.0
 10
71.53270003980742
 20
4.971591073124917
 30
0.0
 10
69.42192559897462
 20
5.123373394105784
 30
0.0
 10
68.1261258400729
 20
5.044733526237621
 30
0.0
 10
67.64533264889496
 20
5.015555010987556
 30
0.0
  0
SPLINE
  5
D7
330
1F
100
AcDbEntity
  8
0
  6
Continuous
 62
     1
370
    15
100
AcDbSpline
210
0.0
220
0.0
230
1.0
 70
     8
 71
     3
 72
    19
 73
    15
 74
     0
 42
0.000000001
 43
0.00000001
 40
0.0
 40
0.0
 40
0.0
 40
0.0
 40
0.0319230594030211
 40
0.1185931183783954
 40
0.2052669857974209
 40
0.2919435692886026
 40
0.3786217742926277
 40
0.4653005049432512
 40
0.5519786649504324
 40
0.6386551584842014
 40
0.7253288910577338
 40
0.8169072743530491
 40
0.908462060584401
 40
1.0
 40
1.0
 40
1.0
 40
1.0
 10
38.20817779765352
 20
-4.746825015804904
 30
0.0
 10
37.90801896391186
 20
-4.80134835460949
 30
0.0
 10
36.79293874391024
 20
-5.003900769514486
 30
0.0
 10
34.86288146327368
 20
-5.107310972300185
 30
0.0
 10
32.41798569316461
 20
-5.044009948522376
 30
0.0
 10
29.97300176871239
 20
-4.717237935376686
 30
0.0
 10
27.5279666609314
 20
-4.162434155681559
 30
0.0
 10
25.0829137005799
 20
-3.401726817316118
 30
0.0
 10
22.63788260037454
 20
-2.473871052788683
 30
0.0
 10
20.19289126898618
 20
-1.42442374459682
 30
0.0
 10
17.70188588601745
 20
-0.282989274870944
 30
0.0
 10
15.16482749255139
 20
0.8923480973695725
 30
0.0
 10
12.58219728880652
 20
2.052172791707395
 30
0.0
 10
10.86067962923245
 20
2.720313462935898
 30
0.0
 10
10.0
 20
3.054353059910083
 30
0.0
  0
SPLINE
  5
D8
330
1F
100
AcDbEntity
  8
0
  6
Continuous
 62
     1
370
    15
100
AcDbSpline
210
0.0
220
0.0
230
1.0
 70
    24
 71
     3
 72
    10
 73
     6
 74
     0
 42
0.000000001
 43
0.00000001
 40
0.0
 40
0.0
 40
0.0
 40
0.0
 40
0.4999999999999999
 40
0.4999999999999999
 40
1.0
 40
1.0
 40
1.0
 40
1.0
 10
86.2
 20
-5.009973878738172
 30
0.0
 10
86.20000000000002
 20
-4.625920320174162
 30
0.0
 10
86.20000000000002
 20
-4.140653922806076
 30
0.0
 10
86.19999999999996
 20
-3.012456250606814
 30
0.0
 10
86.2
 20
-2.370502263375812
 30
0.0
 10
86.20000000000002
 20
-1.696992707288441
 30
0.0
  0
SPLINE
  5
D9
330
1F
100
AcDbEntity
  8
0
  6
Continuous
 62
     1
370
    15
100
AcDbSpline
210
0.0
220
0.0
230
1.0
 70
     8
 71
     3
 72
    24
 73
    20
 74
     0
 42
0.000000001
 43
0.00000001
 40
0.0
 40
0.0
 40
0.0
 40
0.0
 40
0.0309876228838915
 40
0.0926227834807054
 40
0.1542588480970257
 40
0.2158950373104895
 40
0.2775305715982748
 40
0.3391646719655483
 40
0.4007965605729973
 40
0.4624254613623772
 40
0.524050600678989
 40
0.5856712078900336
 40
0.6472865159977766
 40
0.7088986806312089
 40
0.7705159882949554
 40
0.8321383188647452
 40
0.8937649039613554
 40
0.9553949717910023
 40
1.0
 40
1.0
 40
1.0
 40
1.0
 10
72.76197274541883
 20
-4.744403252233374
 30
0.0
 10
72.35222372390825
 20
-4.814711284734206
 30
0.0
 10
71.1274736021254
 20
-5.024863760633355
 30
0.0
 10
69.08769989240122
 20
-5.113778152190111
 30
0.0
 10
66.64265578044363
 20
-5.014306359689052
 30
0.0
 10
64.19760550055929
 20
-4.655882358658315
 30
0.0
 10
61.75258479485439
 20
-4.071632211037996
 30
0.0
 10
59.30762846152575
 20
-3.286162090410387
 30
0.0
 10
56.86277150008745
 20
-2.339243412255384
 30
0.0
 10
54.41804873023733
 20
-1.277180795305298
 30
0.0
 10
51.97349499876992
 20
-0.1523244803761869
 30
0.0
 10
49.52914456155682
 20
0.9800098452613676
 30
0.0
 10
47.08499458980208
 20
2.064069502925063
 30
0.0
 10
44.64091624393282
 20
3.046784222865126
 30
0.0
 10
42.1967033054451
 20
3.87894577442548
 30
0.0
 10
39.75227640378129
 20
4.522623867406765
 30
0.0
 10
37.30765717768497
 20
4.935131784913725
 30
0.0
 10
35.08803940643315
 20
5.118577904041362
 30
0.0
 10
33.6832937423324
 20
5.049695760113261
 30
0.0
 10
33.093481878738
 20
5.020774150517393
 30
0.0
  0
SPLINE
  5
DA
330
1F
100
AcDbEntity
  8
0
  6
Continuous
 62
     1
370
    15
100
AcDbSpline
210
0.0
220
0.0
230
1.0
 70
    24
 71
     3
 72
     8
 73
     4
 74
     0
 42
0.000000001
 43
0.00000001
 40
0.0
 40
0.0
 40
0.0
 40
0.0
 40
1.0
 40
1.0
 40
1.0
 40
1.0
 10
82.3347968843033
 20
3.101342567901435
 30
0.0
 10
82.12520081076369
 20
2.925470579898143
 30
0.0
 10
81.90370784598383
 20
2.739615914843408
 30
0.0
 10
81.67247056944508
 20
2.545584801385308
 30
0.0
  0
SPLINE
  5
DB
330
1F
100
AcDbEntity
  8
0
  6
Continuous
 62
     1
370
    15
100
AcDbSpline
210
0.0
220
0.0
230
1.0
 70
     8
 71
     3
 72
    10
 73
     6
 74
     0
 42
0.000000001
 43
0.00000001
 40
0.0
 40
0.0
 40
0.0
 40
0.0
 40
0.5
 40
0.5
 40
1.0
 40
1.0
 40
1.0
 40
1.0
 10
86.2
 20
4.445000000000007
 30
0.0
 10
85.54677884300197
 20
4.267837056609059
 30
0.0
 10
84.89755500543647
 20
4.068937872914637
 30
0.0
 10
83.60780659456468
 20
3.623835480516966
 30
0.0
 10
82.96724863861672
 20
3.378145942251271
 30
0.0
 10
82.33479688431505
 20
3.10134256790692
 30
0.0
  0
SPLINE
  5
DC
330
1F
100
AcDbEntity
  8
외형선
  6
Continuous
370
    15
100
AcDbSpline
210
0.0
220
0.0
230
1.0
 70
    24
 71
     3
 72
    11
 73
     7
 74
     0
 42
0.000000001
 43
0.00000001
 40
0.0
 40
0.0
 40
0.0
 40
0.0
 40
0.1293900211208528
 40
0.4243836641670397
 40
0.7081640491601978
 40
1.0
 40
1.0
 40
1.0
 40
1.0
 10
9.999999999999996
 20
4.165329450347087
 30
0.0
 10
9.999999999999996
 20
4.171018278540964
 30
0.0
 10
9.999999999999993
 20
4.189676948914618
 30
0.0
 10
9.999999999999993
 20
4.008672727411652
 30
0.0
 10
9.999999999999993
 20
3.648197709546817
 30
0.0
 10
9.999999999999996
 20
3.254139515765312
 30
0.0
 10
9.999999999999996
 20
3.054353059910083
 30
0.0
  0
LINE
  5
DD
330
1F
100
AcDbEntity
  8
0
  6
Continuous
 62
     1
370
    15
100
AcDbLine
 10
86.2
 20
0.0000000000000074
 30
0.0
 11
86.2
 21
4.445000000000006
 31
0.0
  0
LINE
  5
DE
330
1F
100
AcDbEntity
  8
중심선
 62
     1
100
AcDbLine
 10
-69.20000000000002
 20
-0.0000000000000072
 30
0.0
 11
89.20000000000002
 21
0.0000000000000122
 31
0.0
  0
LINE
  5
DF
330
1F
100
AcDbEntity
  8
참조1
100
AcDbLine
 10
14.84926131403116
 20
0.0010749287238892
 30
0.0
 11
14.84926131403117
 21
-39.99892507127611
 31
0.0
  0
LINE
  5
E0
330
1F
100
AcDbEntity
  8
참조1
100
AcDbLine
 10
14.84926131403117
 20
-39.99892507127611
 30
0.0
 11
-20.15080122126847
 21
-39.9989250712761
 31
0.0
  0
CIRCLE
  5
E1
330
1F
100
AcDbEntity
  8
해칭선
100
AcDbCircle
 10
0.0
 20
0.0
 30
0.0
 40
2.999999999999996
  0
INSERT
  5
E2
330
1F
100
AcDbEntity
  8
0
  6
Continuous
 62
     7
100
AcDbBlockReference
 66
     1
  2
블럭10
 10
-8.080486241491776
 20
-35.07229973324118
 30
0.0
  0
ATTRIB
  5
E3
330
E2
100
AcDbEntity
  8
FORMAT
 62
     2
100
AcDbText
 10
-17.26178153023305
 20
-32.99693282040899
 30
0.0
 40
4.233333333333333
  1
E5026032 [ 2 FLUTE ]
 41
0.75
  7
SLDTEXTSTYLE0
 11
-17.26178153023305
 21
-35.11359948707566
 31
0.0
100
AcDbAttribute
  2
AUTOATTR0
 70
     0
 74
     1
  0
SEQEND
  5
E4
330
E2
100
AcDbEntity
  8
0
  6
Continuous
 62
     7
  0
HATCH
  5
E5
330
1F
100
AcDbEntity
  8
중심선
100
AcDbHatch
 10
0.0
 20
0.0
 30
0.0
210
0.0
220
0.0
230
1.0
  2
SOLID
 70
     1
 71
     0
 91
        1
 92
        0
 93
        4
 72
     1
 10
-2.365576937110942
 20
-18.82512543159724
 11
-5.811852180948224
 21
-18.82512543159724
 72
     1
 10
-5.811852180948224
 20
-18.82512543159724
 11
-7.940082040152246
 21
-21.36145101216984
 72
     1
 10
-7.940082040152246
 20
-21.36145101216984
 11
-4.493773711201815
 21
-21.36141158286735
 72
     1
 10
-4.493773711201815
 20
-21.36141158286735
 11
-2.365576937110942
 21
-18.82512543159724
 97
        0
 75
     0
 76
     1
 98
        1
 10
-8.989474623397737
 20
16.97379963967886
  0
HATCH
  5
E6
330
1F
100
AcDbEntity
  8
중심선
100
AcDbHatch
 10
0.0
 20
0.0
 30
0.0
210
0.0
220
0.0
230
1.0
  2
SOLID
 70
     1
 71
     0
 91
        1
 92
        0
 93
        4
 72
     1
 10
2.647187053925038
 20
-18.82512543159724
 11
-0.7990881899122169
 21
-18.82512543159724
 72
     1
 10
-0.7990881899122169
 20
-18.82512543159724
 11
-5.330226198269661
 21
-24.22512543159726
 72
     1
 10
-5.330226198269661
 20
-24.22512543159726
 11
-1.883950954432379
 21
-24.22512543159726
 72
     1
 10
-1.883950954432379
 20
-24.22512543159726
 11
2.647187053925038
 21
-18.82512543159724
 97
        0
 75
     0
 76
     1
 98
        1
 10
-8.989474623397737
 20
16.97379963967886
  0
HATCH
  5
E7
330
1F
100
AcDbEntity
  8
중심선
100
AcDbHatch
 10
0.0
 20
0.0
 30
0.0
210
0.0
220
0.0
230
1.0
  2
SOLID
 70
     1
 71
     0
 91
        1
 92
        0
 93
        4
 72
     1
 10
7.659951044960934
 20
-18.82512543159722
 11
4.213675801123816
 21
-18.82512543159722
 72
     1
 10
4.213675801123816
 20
-18.82512543159722
 11
-2.834761100765459
 21
-27.22512543159726
 72
     1
 10
-2.834761100765459
 20
-27.22512543159726
 11
0.6115141430718225
 21
-27.22512543159726
 72
     1
 10
0.6115141430718225
 20
-27.22512543159726
 11
7.659951044960934
 21
-18.82512543159722
 97
        0
 75
     0
 76
     1
 98
        1
 10
-8.989474623397737
 20
16.97379963967886
  0
HATCH
  5
E8
330
1F
100
AcDbEntity
  8
중심선
100
AcDbHatch
 10
0.0
 20
0.0
 30
0.0
210
0.0
220
0.0
230
1.0
  2
SOLID
 70
     1
 71
     0
 91
        1
 92
        0
 93
        6
 72
     3
 10
12.4598414759731
 20
-23.02512543164852
 11
3.960054785062283
 21
1.540882976769353E-10
 40
0.3939339440162628
 50
17.09539180608439
 51
320.0019657685077
 73
     0
 72
     1
 10
14.1428411316737
 20
-21.61301943623552
 11
16.44814300537476
 21
-19.67869272618763
 72
     3
 10
12.45984147592026
 20
-23.0251254315974
 11
6.600054785286829
 21
-1.278976924368180E-13
 40
0.636358354079598
 50
39.99873849337386
 51
368.4976242363725
 73
     1
 72
     1
 10
18.88517396782087
 20
-22.06512543152727
 11
11.13990878275618
 21
-22.06512543152727
 72
     1
 10
11.13990878275618
 20
-22.06512543152727
 11
11.13988373831025
 21
-23.98512543152716
 72
     1
 10
11.13988373831025
 20
-23.98512543152716
 11
15.58126350778228
 21
-23.98512543152713
 97
        0
 75
     0
 76
     1
 98
        1
 10
-8.989474623397737
 20
16.97379963967886
  0
DIMENSION
  5
E9
330
1F
100
AcDbEntity
  8
치수문자_일반주서
100
AcDbDimension
  2
_D
 10
-78.5029862444129
 20
-6.350000000000048
 30
0.0
 11
-78.50298624441301
 21
26.73524999999995
 31
0.0
 70
   160
  1
%%c<>
 71
     2
 42
12.69999999999999
 52
-270.0
  3
SLDDIMSTYLE0
100
AcDbAlignedDimension
 13
-65.20000000000002
 23
6.349999999999993
 33
0.0
 14
-65.20000000000002
 24
-6.349999999999997
 34
0.0
 50
90.0000000000002
100
AcDbRotatedDimension
1001
ACAD
1000
DSTYLE
1002
{
1070
   171
1070
     6
1070
   273
1070
     5
1002
}
  0
DIMENSION
  5
FE
330
1F
100
AcDbEntity
  8
치수문자_일반주서
100
AcDbDimension
  2
_D_1
 10
10.0
 20
19.52097480753118
 30
0.0
 11
48.10000000000001
 21
19.52097480753118
 31
0.0
 70
   160
  1
<>
 71
     2
 42
76.19999999999999
  3
SLDDIMSTYLE0
100
AcDbAlignedDimension
 13
86.19999999999999
 23
6.349999999999997
 33
0.0
 14
9.999999999999996
 24
4.189236984184255
 34
0.0
100
AcDbRotatedDimension
1001
ACAD
1000
DSTYLE
1002
{
1070
   171
1070
     6
1070
   273
1070
     5
1002
}
  0
DIMENSION
  5
113
330
1F
100
AcDbEntity
  8
치수문자_일반주서
100
AcDbDimension
  2
_D_2
 10
-66.20000000000002
 20
36.55130408500667
 30
0.0
 11
9.99999999999999
 21
36.55130408500667
 31
0.0
 70
   160
  1
<>
 71
     2
 42
152.4
  3
SLDDIMSTYLE0
100
AcDbAlignedDimension
 13
86.19999999999999
 23
6.349999999999998
 33
0.0
 14
-66.20000000000002
 24
5.349999999999988
 34
0.0
 50
0.0000000000000027
100
AcDbRotatedDimension
1001
ACAD
1000
DSTYLE
1002
{
1070
   171
1070
     6
1070
   273
1070
     5
1002
}
  0
DIMENSION
  5
126
330
1F
100
AcDbEntity
  8
치수문자_일반주서
100
AcDbDimension
  2
_D_3
 10
101.8658504090073
 20
6.350000000000058
 30
0.0
 11
101.8658504090072
 21
26.95400000000005
 31
0.0
 70
   160
  1
%%c<>
 71
     2
 42
12.7
 52
-270.0
  3
SLDDIMSTYLE0
100
AcDbAlignedDimension
 13
86.19999999999962
 23
-6.350000000000001
 33
0.0
 14
86.19999999999999
 24
6.349999999999997
 34
0.0
 50
90.0000000000002
100
AcDbRotatedDimension
1001
ACAD
1000
DSTYLE
1002
{
1070
   171
1070
     6
1070
   273
1070
     5
1002
}
  0
LINE
  5
13A
330
1F
100
AcDbEntity
  8
참조1
100
AcDbLine
 10
77.82153940838579
 20
7.441074928723896
 30
0.0
 11
77.82153940838579
 21
-7.438925071276109
 31
0.0
  0
LINE
  5
13B
330
1F
100
AcDbEntity
  8
참조1
100
AcDbLine
 10
90.52153940838579
 20
5.441074928723896
 30
0.0
 11
77.82153940838579
 21
5.441074928723896
 31
0.0
  0
SOLID
  5
13C
330
1F
100
AcDbEntity
  8
참조1
100
AcDbTrace
 10
77.82153940838579
 20
5.441074928723896
 30
0.0
 11
84.17153940838578
 21
4.425074928723896
 31
0.0
 12
84.17153940838578
 22
6.457074928723896
 32
0.0
 13
84.17153940838578
 23
6.457074928723896
 33
0.0
  0
LINE
  5
13D
330
1F
100
AcDbEntity
  8
참조1
100
AcDbLine
 10
90.52153940838579
 20
-5.438925071276109
 30
0.0
 11
77.82153940838579
 21
-5.438925071276109
 31
0.0
  0
SOLID
  5
13E
330
1F
100
AcDbEntity
  8
참조1
100
AcDbTrace
 10
77.82153940838579
 20
-5.438925071276109
 30
0.0
 11
84.17153940838578
 21
-6.454925071276109
 31
0.0
 12
84.17153940838578
 22
-4.422925071276109
 32
0.0
 13
84.17153940838578
 23
-4.422925071276109
 33
0.0
  0
MTEXT
  5
13F
330
1F
100
AcDbEntity
  8
참조1
100
AcDbMText
 10
87.20588954101179
 20
11.01136670591222
 30
0.0
 40
3.5
 41
0.0
 71
     1
 72
     1
  1
A
  7
SLDTEXTSTYLE0
 73
     1
 44
1.0
  0
MTEXT
  5
140
330
1F
100
AcDbEntity
  8
참조1
100
AcDbMText
 10
87.20588954101179
 20
0.1313667059122192
 30
0.0
 40
3.5
 41
0.0
 71
     1
 72
     1
  1
A
  7
SLDTEXTSTYLE0
 73
     1
 44
1.0
  0
INSERT
  5
147
330
1F
100
AcDbEntity
  8
해칭선
100
AcDbBlockReference
  2
SW_DOWELSYMBOL_0
 10
0.0
 20
0.0
 30
0.0
  0
ENDSEC
  0
SECTION
  2
OBJECTS
  0
DICTIONARY
  5
C
330
0
100
AcDbDictionary
281
     1
  3
ACAD_GROUP
350
D
  3
ACAD_IMAGE_VARS
350
16B
  3
ACAD_LAYOUT
350
1A
  3
ACAD_MLINESTYLE
350
17
  3
ACAD_PLOTSETTINGS
350
19
  3
ACAD_PLOTSTYLENAME
350
E
  3
ACAD_SCALELIST
350
47
  3
APPDATA
350
169
  3
DWGPROPS
350
2E3
  0
DICTIONARY
  5
225
330
2
100
AcDbDictionary
280
     1
281
     1
  3
ACAD_LAYERSTATES
360
226
  0
DICTIONARY
  5
D
102
{ACAD_REACTORS
330
C
102
}
330
C
100
AcDbDictionary
281
     1
  0
RASTERVARIABLES
  5
16B
102
{ACAD_REACTORS
330
C
102
}
330
C
100
AcDbRasterVariables
 90
        0
 70
     1
 71
     1
 72
     1
  0
DICTIONARY
  5
1A
102
{ACAD_REACTORS
330
C
102
}
330
C
100
AcDbDictionary
281
     1
  3
Layout1
350
1E
  3
Layout2
350
26
  3
Model
350
22
  0
DICTIONARY
  5
17
102
{ACAD_REACTORS
330
C
102
}
330
C
100
AcDbDictionary
281
     1
  3
Standard
350
18
  0
DICTIONARY
  5
19
102
{ACAD_REACTORS
330
C
102
}
330
C
100
AcDbDictionary
281
     1
  0
ACDBDICTIONARYWDFLT
  5
E
102
{ACAD_REACTORS
330
C
102
}
330
C
100
AcDbDictionary
281
     1
  3
Normal
350
F
100
AcDbDictionaryWithDefault
340
F
  0
DICTIONARY
  5
47
102
{ACAD_REACTORS
330
C
102
}
330
C
100
AcDbDictionary
281
     1
  3
A0
350
48
  3
A1
350
49
  3
A2
350
4A
  3
A3
350
4B
  3
A4
350
4C
  3
A5
350
4D
  3
A6
350
4E
  3
A7
350
4F
  3
A8
350
50
  3
A9
350
51
  3
B0
350
52
  3
B1
350
53
  3
B2
350
54
  3
B3
350
55
  3
B4
350
56
  3
B5
350
57
  3
B6
350
58
  3
B7
350
59
  3
B8
350
5A
  3
B9
350
5B
  3
C0
350
5C
  3
C1
350
5D
  3
C2
350
5E
  3
C3
350
5F
  3
C4
350
60
  3
C5
350
61
  3
C6
350
62
  3
C7
350
63
  3
C8
350
64
  3
C9
350
65
  3
D0
350
66
  3
D1
350
67
  3
D2
350
68
  0
DICTIONARY
  5
169
102
{ACAD_REACTORS
330
C
102
}
330
C
100
AcDbDictionary
281
     1
  0
XRECORD
  5
2E3
102
{ACAD_REACTORS
330
C
102
}
330
C
100
AcDbXrecord
280
     1
  1
DWGPROPS COOKIE
  2

  3

  4

  6

  7

  8
12014074
  9

300
=
301
=
302
=
303
=
304
=
305
=
306
=
307
=
308
=
309
=
 40
0.0
 41
2458311.119606829
 42
2458320.278225324
  1

 90
        0
  0
DICTIONARY
  5
226
102
{ACAD_REACTORS
330
225
102
}
330
225
100
AcDbDictionary
281
     1
  0
LAYOUT
  5
1E
102
{ACAD_REACTORS
330
1A
102
}
330
1A
100
AcDbPlotSettings
  1

  2
none_device
  4

  6

 40
0.0
 41
0.0
 42
0.0
 43
0.0
 44
0.0
 45
0.0
 46
0.0
 47
0.0
 48
0.0
 49
0.0
140
0.0
141
0.0
142
1.0
143
1.0
 70
   688
 72
     1
 73
     0
 74
     5
  7

 75
    16
147
1.0
148
0.0
149
0.0
100
AcDbLayout
  1
Layout1
 70
     1
 71
     1
 10
0.0
 20
0.0
 11
420.0
 21
297.0
 12
0.0
 22
0.0
 32
0.0
 14
1.000000000000000E+20
 24
1.000000000000000E+20
 34
1.000000000000000E+20
 15
-1.000000000000000E+20
 25
-1.000000000000000E+20
 35
-1.000000000000000E+20
146
0.0
 13
0.0
 23
0.0
 33
0.0
 16
1.0
 26
0.0
 36
0.0
 17
0.0
 27
1.0
 37
0.0
 76
     0
330
1B
  0
LAYOUT
  5
26
102
{ACAD_REACTORS
330
1A
102
}
330
1A
100
AcDbPlotSettings
  1

  2
none_device
  4

  6

 40
0.0
 41
0.0
 42
0.0
 43
0.0
 44
0.0
 45
0.0
 46
0.0
 47
0.0
 48
0.0
 49
0.0
140
0.0
141
0.0
142
1.0
143
1.0
 70
   688
 72
     1
 73
     0
 74
     5
  7

 75
    16
147
1.0
148
0.0
149
0.0
100
AcDbLayout
  1
Layout2
 70
     1
 71
     2
 10
0.0
 20
0.0
 11
0.0
 21
0.0
 12
0.0
 22
0.0
 32
0.0
 14
0.0
 24
0.0
 34
0.0
 15
0.0
 25
0.0
 35
0.0
146
0.0
 13
0.0
 23
0.0
 33
0.0
 16
1.0
 26
0.0
 36
0.0
 17
0.0
 27
1.0
 37
0.0
 76
     0
330
23
  0
LAYOUT
  5
22
102
{ACAD_REACTORS
330
1A
102
}
330
1A
100
AcDbPlotSettings
  1

  2
none_device
  4
ANSI_A_(11.00_x_8.50_Inches)
  6

 40
6.35
 41
19.05
 42
6.35000508
 43
19.05000254
 44
279.4
 45
215.9
 46
83.83824355532475
 47
80.09135566493076
 48
0.0
 49
0.0
140
0.0
141
0.0
142
0.0412992536662167
143
1.0
 70
  1696
 72
     0
 73
     0
 74
     0
  7

 75
     0
147
0.0235690232323232
148
0.0
149
0.0
100
AcDbLayout
  1
Model
 70
     1
 71
     0
 10
0.0
 20
0.0
 11
420.0
 21
297.0
 12
0.0
 22
0.0
 32
0.0
 14
1.000000000000000E+20
 24
1.000000000000000E+20
 34
1.000000000000000E+20
 15
-1.000000000000000E+20
 25
-1.000000000000000E+20
 35
-1.000000000000000E+20
146
0.0
 13
0.0
 23
0.0
 33
0.0
 16
1.0
 26
0.0
 36
0.0
 17
0.0
 27
1.0
 37
0.0
 76
     0
330
1F
331
29
  0
MLINESTYLE
  5
18
102
{ACAD_REACTORS
330
17
102
}
330
17
100
AcDbMlineStyle
  2
Standard
 70
     0
  3

 62
   256
 51
90.0
 52
90.0
 71
     2
 49
0.5
 62
   256
  6
BYLAYER
 49
-0.5
 62
   256
  6
BYLAYER
  0
ACDBPLACEHOLDER
  5
F
102
{ACAD_REACTORS
330
E
102
}
330
E
  0
SCALE
  5
48
102
{ACAD_REACTORS
330
47
102
}
330
47
100
AcDbScale
 70
     0
300
1:1
140
1.0
141
1.0
290
     1
  0
SCALE
  5
49
102
{ACAD_REACTORS
330
47
102
}
330
47
100
AcDbScale
 70
     0
300
1:2
140
1.0
141
2.0
290
     0
  0
SCALE
  5
4A
102
{ACAD_REACTORS
330
47
102
}
330
47
100
AcDbScale
 70
     0
300
1:4
140
1.0
141
4.0
290
     0
  0
SCALE
  5
4B
102
{ACAD_REACTORS
330
47
102
}
330
47
100
AcDbScale
 70
     0
300
1:5
140
1.0
141
5.0
290
     0
  0
SCALE
  5
4C
102
{ACAD_REACTORS
330
47
102
}
330
47
100
AcDbScale
 70
     0
300
1:8
140
1.0
141
8.0
290
     0
  0
SCALE
  5
4D
102
{ACAD_REACTORS
330
47
102
}
330
47
100
AcDbScale
 70
     0
300
1:10
140
1.0
141
10.0
290
     0
  0
SCALE
  5
4E
102
{ACAD_REACTORS
330
47
102
}
330
47
100
AcDbScale
 70
     0
300
1:16
140
1.0
141
16.0
290
     0
  0
SCALE
  5
4F
102
{ACAD_REACTORS
330
47
102
}
330
47
100
AcDbScale
 70
     0
300
1:20
140
1.0
141
20.0
290
     0
  0
SCALE
  5
50
102
{ACAD_REACTORS
330
47
102
}
330
47
100
AcDbScale
 70
     0
300
1:30
140
1.0
141
30.0
290
     0
  0
SCALE
  5
51
102
{ACAD_REACTORS
330
47
102
}
330
47
100
AcDbScale
 70
     0
300
1:40
140
1.0
141
40.0
290
     0
  0
SCALE
  5
52
102
{ACAD_REACTORS
330
47
102
}
330
47
100
AcDbScale
 70
     0
300
1:50
140
1.0
141
50.0
290
     0
  0
SCALE
  5
53
102
{ACAD_REACTORS
330
47
102
}
330
47
100
AcDbScale
 70
     0
300
1:100
140
1.0
141
100.0
290
     0
  0
SCALE
  5
54
102
{ACAD_REACTORS
330
47
102
}
330
47
100
AcDbScale
 70
     0
300
2:1
140
2.0
141
1.0
290
     0
  0
SCALE
  5
55
102
{ACAD_REACTORS
330
47
102
}
330
47
100
AcDbScale
 70
     0
300
4:1
140
4.0
141
1.0
290
     0
  0
SCALE
  5
56
102
{ACAD_REACTORS
330
47
102
}
330
47
100
AcDbScale
 70
     0
300
8:1
140
8.0
141
1.0
290
     0
  0
SCALE
  5
57
102
{ACAD_REACTORS
330
47
102
}
330
47
100
AcDbScale
 70
     0
300
10:1
140
10.0
141
1.0
290
     0
  0
SCALE
  5
58
102
{ACAD_REACTORS
330
47
102
}
330
47
100
AcDbScale
 70
     0
300
100:1
140
100.0
141
1.0
290
     0
  0
SCALE
  5
59
102
{ACAD_REACTORS
330
47
102
}
330
47
100
AcDbScale
 70
     0
300
1/128" = 1'-0"
140
0.0078125
141
12.0
290
     0
  0
SCALE
  5
5A
102
{ACAD_REACTORS
330
47
102
}
330
47
100
AcDbScale
 70
     0
300
1/64" = 1'-0"
140
0.015625
141
12.0
290
     0
  0
SCALE
  5
5B
102
{ACAD_REACTORS
330
47
102
}
330
47
100
AcDbScale
 70
     0
300
1/32" = 1'-0"
140
0.03125
141
12.0
290
     0
  0
SCALE
  5
5C
102
{ACAD_REACTORS
330
47
102
}
330
47
100
AcDbScale
 70
     0
300
1/16" = 1'-0"
140
0.0625
141
12.0
290
     0
  0
SCALE
  5
5D
102
{ACAD_REACTORS
330
47
102
}
330
47
100
AcDbScale
 70
     0
300
3/32" = 1'-0"
140
0.09375
141
12.0
290
     0
  0
SCALE
  5
5E
102
{ACAD_REACTORS
330
47
102
}
330
47
100
AcDbScale
 70
     0
300
1/8" = 1'-0"
140
0.125
141
12.0
290
     0
  0
SCALE
  5
5F
102
{ACAD_REACTORS
330
47
102
}
330
47
100
AcDbScale
 70
     0
300
3/16" = 1'-0"
140
0.1875
141
12.0
290
     0
  0
SCALE
  5
60
102
{ACAD_REACTORS
330
47
102
}
330
47
100
AcDbScale
 70
     0
300
1/4" = 1'-0"
140
0.25
141
12.0
290
     0
  0
SCALE
  5
61
102
{ACAD_REACTORS
330
47
102
}
330
47
100
AcDbScale
 70
     0
300
3/8" = 1'-0"
140
0.375
141
12.0
290
     0
  0
SCALE
  5
62
102
{ACAD_REACTORS
330
47
102
}
330
47
100
AcDbScale
 70
     0
300
1/2" = 1'-0"
140
0.5
141
12.0
290
     0
  0
SCALE
  5
63
102
{ACAD_REACTORS
330
47
102
}
330
47
100
AcDbScale
 70
     0
300
3/4" = 1'-0"
140
0.75
141
12.0
290
     0
  0
SCALE
  5
64
102
{ACAD_REACTORS
330
47
102
}
330
47
100
AcDbScale
 70
     0
300
1" = 1'-0"
140
1.0
141
12.0
290
     0
  0
SCALE
  5
65
102
{ACAD_REACTORS
330
47
102
}
330
47
100
AcDbScale
 70
     0
300
1-1/2" = 1'-0"
140
1.5
141
12.0
290
     0
  0
SCALE
  5
66
102
{ACAD_REACTORS
330
47
102
}
330
47
100
AcDbScale
 70
     0
300
3" = 1'-0"
140
3.0
141
12.0
290
     0
  0
SCALE
  5
67
102
{ACAD_REACTORS
330
47
102
}
330
47
100
AcDbScale
 70
     0
300
6" = 1'-0"
140
6.0
141
12.0
290
     0
  0
SCALE
  5
68
102
{ACAD_REACTORS
330
47
102
}
330
47
100
AcDbScale
 70
     0
300
1'-0" = 1'-0"
140
12.0
141
12.0
290
     0
  0
ENDSEC
  0
EOF
