  0
SECTION
  2
HEADER
  9
$ACADVER
  1
AC1015
  9
$ACADMAINTVER
 70
     6
  9
$DWGCODEPAGE
  3
ANSI_949
  9
$INSBASE
 10
0.0
 20
0.0
 30
0.0
  9
$EXTMIN
 10
1.000000000000000E+20
 20
1.000000000000000E+20
 30
1.000000000000000E+20
  9
$EXTMAX
 10
-1.000000000000000E+20
 20
-1.000000000000000E+20
 30
-1.000000000000000E+20
  9
$LIMMIN
 10
0.0
 20
0.0
  9
$LIMMAX
 10
420.0
 20
297.0
  9
$ORTHOMODE
 70
     0
  9
$REGENMODE
 70
     1
  9
$FILLMODE
 70
     1
  9
$QTEXTMODE
 70
     0
  9
$MIRRTEXT
 70
     1
  9
$LTSCALE
 40
1.0
  9
$ATTMODE
 70
     1
  9
$TEXTSIZE
 40
3.5
  9
$TRACEWID
 40
1.0
  9
$TEXTSTYLE
  7
Standard
  9
$CLAYER
  8
0
  9
$CELTYPE
  6
ByLayer
  9
$CECOLOR
 62
   256
  9
$CELTSCALE
 40
1.0
  9
$DISPSILH
 70
     0
  9
$DIMSCALE
 40
1.0
  9
$DIMASZ
 40
3.302
  9
$DIMEXO
 40
1.0
  9
$DIMDLI
 40
3.75
  9
$DIMRND
 40
0.0
  9
$DIMDLE
 40
0.0
  9
$DIMEXE
 40
1.0
  9
$DIMTP
 40
0.0
  9
$DIMTM
 40
0.0
  9
$DIMTXT
 40
3.5
  9
$DIMCEN
 40
2.5
  9
$DIMTSZ
 40
0.0
  9
$DIMTOL
 70
     0
  9
$DIMLIM
 70
     0
  9
$DIMTIH
 70
     1
  9
$DIMTOH
 70
     1
  9
$DIMSE1
 70
     0
  9
$DIMSE2
 70
     0
  9
$DIMTAD
 70
     1
  9
$DIMZIN
 70
     0
  9
$DIMBLK
  1

  9
$DIMASO
 70
     1
  9
$DIMSHO
 70
     1
  9
$DIMPOST
  1

  9
$DIMAPOST
  1

  9
$DIMALT
 70
     0
  9
$DIMALTD
 70
     3
  9
$DIMALTF
 40
0.0393700787401575
  9
$DIMLFAC
 40
1.0
  9
$DIMTOFL
 70
     1
  9
$DIMTVP
 40
0.0
  9
$DIMTIX
 70
     0
  9
$DIMSOXD
 70
     0
  9
$DIMSAH
 70
     0
  9
$DIMBLK1
  1

  9
$DIMBLK2
  1

  9
$DIMSTYLE
  2
ISO-25
  9
$DIMCLRD
 70
     0
  9
$DIMCLRE
 70
     0
  9
$DIMCLRT
 70
     0
  9
$DIMTFAC
 40
1.0
  9
$DIMGAP
 40
1.524
  9
$DIMJUST
 70
     0
  9
$DIMSD1
 70
     0
  9
$DIMSD2
 70
     0
  9
$DIMTOLJ
 70
     0
  9
$DIMTZIN
 70
     0
  9
$DIMALTZ
 70
     0
  9
$DIMALTTZ
 70
     0
  9
$DIMUPT
 70
     0
  9
$DIMDEC
 70
     2
  9
$DIMTDEC
 70
     2
  9
$DIMALTU
 70
     2
  9
$DIMALTTD
 70
     3
  9
$DIMTXSTY
  7
Standard
  9
$DIMAUNIT
 70
     0
  9
$DIMADEC
 70
     2
  9
$DIMALTRND
 40
0.0
  9
$DIMAZIN
 70
     0
  9
$DIMDSEP
 70
    44
  9
$DIMATFIT
 70
     3
  9
$DIMFRAC
 70
     0
  9
$DIMLDRBLK
  1

  9
$DIMLUNIT
 70
     2
  9
$DIMLWD
 70
    -2
  9
$DIMLWE
 70
    -2
  9
$DIMTMOVE
 70
     0
  9
$LUNITS
 70
     2
  9
$LUPREC
 70
     2
  9
$SKETCHINC
 40
1.0
  9
$FILLETRAD
 40
10.0
  9
$AUNITS
 70
     0
  9
$AUPREC
 70
     2
  9
$MENU
  1
.
  9
$ELEVATION
 40
0.0
  9
$PELEVATION
 40
0.0
  9
$THICKNESS
 40
0.0
  9
$LIMCHECK
 70
     0
  9
$CHAMFERA
 40
0.0
  9
$CHAMFERB
 40
0.0
  9
$CHAMFERC
 40
0.0
  9
$CHAMFERD
 40
0.0
  9
$SKPOLY
 70
     0
  9
$TDCREATE
 40
2458311.494395209
  9
$TDUCREATE
 40
2458311.119395209
  9
$TDUPDATE
 40
2458320.650979039
  9
$TDUUPDATE
 40
2458320.275979039
  9
$TDINDWG
 40
0.0012903704
  9
$TDUSRTIMER
 40
2458320.274688924
  9
$USRTIMER
 70
     1
  9
$ANGBASE
 50
0.0
  9
$ANGDIR
 70
     0
  9
$PDMODE
 70
     0
  9
$PDSIZE
 40
-1.0
  9
$PLINEWID
 40
0.0
  9
$SPLFRAME
 70
     0
  9
$SPLINETYPE
 70
     6
  9
$SPLINESEGS
 70
     8
  9
$HANDSEED
  5
2E2
  9
$SURFTAB1
 70
     6
  9
$SURFTAB2
 70
     6
  9
$SURFTYPE
 70
     6
  9
$SURFU
 70
     6
  9
$SURFV
 70
     6
  9
$UCSBASE
  2

  9
$UCSNAME
  2

  9
$UCSORG
 10
0.0
 20
0.0
 30
0.0
  9
$UCSXDIR
 10
1.0
 20
0.0
 30
0.0
  9
$UCSYDIR
 10
0.0
 20
1.0
 30
0.0
  9
$UCSORTHOREF
  2

  9
$UCSORTHOVIEW
 70
     0
  9
$UCSORGTOP
 10
0.0
 20
0.0
 30
0.0
  9
$UCSORGBOTTOM
 10
0.0
 20
0.0
 30
0.0
  9
$UCSORGLEFT
 10
0.0
 20
0.0
 30
0.0
  9
$UCSORGRIGHT
 10
0.0
 20
0.0
 30
0.0
  9
$UCSORGFRONT
 10
0.0
 20
0.0
 30
0.0
  9
$UCSORGBACK
 10
0.0
 20
0.0
 30
0.0
  9
$PUCSBASE
  2

  9
$PUCSNAME
  2

  9
$PUCSORG
 10
0.0
 20
0.0
 30
0.0
  9
$PUCSXDIR
 10
1.0
 20
0.0
 30
0.0
  9
$PUCSYDIR
 10
0.0
 20
1.0
 30
0.0
  9
$PUCSORTHOREF
  2

  9
$PUCSORTHOVIEW
 70
     0
  9
$PUCSORGTOP
 10
0.0
 20
0.0
 30
0.0
  9
$PUCSORGBOTTOM
 10
0.0
 20
0.0
 30
0.0
  9
$PUCSORGLEFT
 10
0.0
 20
0.0
 30
0.0
  9
$PUCSORGRIGHT
 10
0.0
 20
0.0
 30
0.0
  9
$PUCSORGFRONT
 10
0.0
 20
0.0
 30
0.0
  9
$PUCSORGBACK
 10
0.0
 20
0.0
 30
0.0
  9
$USERI1
 70
     0
  9
$USERI2
 70
     0
  9
$USERI3
 70
     0
  9
$USERI4
 70
     0
  9
$USERI5
 70
     0
  9
$USERR1
 40
0.0
  9
$USERR2
 40
0.0
  9
$USERR3
 40
0.0
  9
$USERR4
 40
0.0
  9
$USERR5
 40
0.0
  9
$WORLDVIEW
 70
     1
  9
$SHADEDGE
 70
     3
  9
$SHADEDIF
 70
    70
  9
$TILEMODE
 70
     1
  9
$MAXACTVP
 70
    64
  9
$PINSBASE
 10
0.0
 20
0.0
 30
0.0
  9
$PLIMCHECK
 70
     0
  9
$PEXTMIN
 10
1.000000000000000E+20
 20
1.000000000000000E+20
 30
1.000000000000000E+20
  9
$PEXTMAX
 10
-1.000000000000000E+20
 20
-1.000000000000000E+20
 30
-1.000000000000000E+20
  9
$PLIMMIN
 10
0.0
 20
0.0
  9
$PLIMMAX
 10
0.0
 20
0.0
  9
$UNITMODE
 70
     0
  9
$VISRETAIN
 70
     1
  9
$PLINEGEN
 70
     0
  9
$PSLTSCALE
 70
     1
  9
$TREEDEPTH
 70
  3020
  9
$CMLSTYLE
  2
Standard
  9
$CMLJUST
 70
     0
  9
$CMLSCALE
 40
20.0
  9
$PROXYGRAPHICS
 70
     1
  9
$MEASUREMENT
 70
     1
  9
$CELWEIGHT
370
    -1
  9
$ENDCAPS
280
     0
  9
$JOINSTYLE
280
     0
  9
$LWDISPLAY
290
     1
  9
$INSUNITS
 70
     4
  9
$HYPERLINKBASE
  1

  9
$STYLESHEET
  1

  9
$XEDIT
290
     1
  9
$CEPSNTYPE
380
     0
  9
$PSTYLEMODE
290
     1
  9
$FINGERPRINTGUID
  2
{33B32859-E305-4FE5-9260-8E78DF3BA479}
  9
$VERSIONGUID
  2
{FAEB1C32-E019-11D5-929B-00C0DF256EC4}
  9
$EXTNAMES
290
     1
  9
$PSVPSCALE
 40
0.0
  9
$OLESTARTUP
290
     0
  0
ENDSEC
  0
SECTION
  2
CLASSES
  0
CLASS
  1
ACDBDICTIONARYWDFLT
  2
AcDbDictionaryWithDefault
  3
ObjectDBX Classes
 90
        0
280
     0
281
     0
  0
CLASS
  1
VISUALSTYLE
  2
AcDbVisualStyle
  3
ObjectDBX Classes
 90
     4095
280
     0
281
     0
  0
CLASS
  1
MATERIAL
  2
AcDbMaterial
  3
ObjectDBX Classes
 90
     1153
280
     0
281
     0
  0
CLASS
  1
SCALE
  2
AcDbScale
  3
ObjectDBX Classes
 90
     1153
280
     0
281
     0
  0
CLASS
  1
SUN
  2
AcDbSun
  3
SCENEOE
 90
     1153
280
     0
281
     0
  0
CLASS
  1
ACDBPLACEHOLDER
  2
AcDbPlaceHolder
  3
ObjectDBX Classes
 90
        0
280
     0
281
     0
  0
CLASS
  1
LAYOUT
  2
AcDbLayout
  3
ObjectDBX Classes
 90
        0
280
     0
281
     0
  0
CLASS
  1
TABLESTYLE
  2
AcDbTableStyle
  3
ObjectDBX Classes
 90
     4095
280
     0
281
     0
  0
CLASS
  1
MLEADERSTYLE
  2
AcDbMLeaderStyle
  3
ACDB_MLEADERSTYLE_CLASS
 90
     4095
280
     0
281
     0
  0
CLASS
  1
RASTERVARIABLES
  2
AcDbRasterVariables
  3
ISM
 90
        0
280
     0
281
     0
  0
ENDSEC
  0
SECTION
  2
TABLES
  0
TABLE
  2
VPORT
  5
8
330
0
100
AcDbSymbolTable
 70
     1
  0
VPORT
  5
29
330
8
100
AcDbSymbolTableRecord
100
AcDbViewportTableRecord
  2
*Active
 70
     0
 10
0.0
 20
0.0
 11
1.0
 21
1.0
 12
11.50343033310887
 22
8.946288613870067
 13
0.0
 23
0.0
 14
10.0
 24
10.0
 15
10.0
 25
10.0
 16
0.0
 26
0.0
 36
1.0
 17
0.0
 27
0.0
 37
0.0
 40
136.5144254070807
 41
1.970186335403727
 42
50.0
 43
0.0
 44
0.0
 50
0.0
 51
0.0
 71
    16
 72
  2000
 73
     1
 74
     3
 75
     0
 76
     0
 77
     0
 78
     0
281
     0
 65
     1
110
0.0
120
0.0
130
0.0
111
1.0
121
0.0
131
0.0
112
0.0
122
1.0
132
0.0
 79
     0
146
0.0
  0
ENDTAB
  0
TABLE
  2
LTYPE
  5
5
330
0
100
AcDbSymbolTable
 70
     6
  0
LTYPE
  5
14
330
5
100
AcDbSymbolTableRecord
100
AcDbLinetypeTableRecord
  2
ByBlock
 70
     0
  3

 72
    65
 73
     0
 40
0.0
  0
LTYPE
  5
15
330
5
100
AcDbSymbolTableRecord
100
AcDbLinetypeTableRecord
  2
ByLayer
 70
     0
  3

 72
    65
 73
     0
 40
0.0
  0
LTYPE
  5
16
330
5
100
AcDbSymbolTableRecord
100
AcDbLinetypeTableRecord
  2
Continuous
 70
     0
  3
Solid line
 72
    65
 73
     0
 40
0.0
  0
LTYPE
  5
6A
330
5
100
AcDbSymbolTableRecord
100
AcDbLinetypeTableRecord
  2
HIDDEN
 70
     0
  3
Hidden __ __ __ __ __ __ __ __ __ __ __ __ __ __
 72
    65
 73
     2
 40
1.905
 49
1.27
 74
     0
 49
-0.635
 74
     0
  0
LTYPE
  5
6B
330
5
100
AcDbSymbolTableRecord
100
AcDbLinetypeTableRecord
  2
PHANTOM
 70
     0
  3
Phantom ______  __  __  ______  __  __  ______
 72
    65
 73
     6
 40
12.7
 49
6.35
 74
     0
 49
-1.27
 74
     0
 49
1.27
 74
     0
 49
-1.27
 74
     0
 49
1.27
 74
     0
 49
-1.27
 74
     0
  0
LTYPE
  5
6C
330
5
100
AcDbSymbolTableRecord
100
AcDbLinetypeTableRecord
  2
CENTER
 70
     0
  3
Center ____ _ ____ _ ____ _ ____ _ ____ _ ____
 72
    65
 73
     4
 40
10.16
 49
6.35
 74
     0
 49
-1.27
 74
     0
 49
1.27
 74
     0
 49
-1.27
 74
     0
  0
LTYPE
  5
6D
330
5
100
AcDbSymbolTableRecord
100
AcDbLinetypeTableRecord
  2
CENTERX2
 70
     0
  3
Center (2x) ________  __  ________  __  _____
 72
    65
 73
     4
 40
20.32
 49
12.7
 74
     0
 49
-2.54
 74
     0
 49
2.54
 74
     0
 49
-2.54
 74
     0
  0
LTYPE
  5
6E
330
5
100
AcDbSymbolTableRecord
100
AcDbLinetypeTableRecord
  2
DOT2
 70
     0
  3
Dot (.5x) ........................................
 72
    65
 73
     2
 40
0.635
 49
0.0
 74
     0
 49
-0.635
 74
     0
  0
ENDTAB
  0
TABLE
  2
LAYER
  5
2
102
{ACAD_XDICTIONARY
360
225
102
}
330
0
100
AcDbSymbolTable
 70
    18
  0
LAYER
  5
10
330
2
100
AcDbSymbolTableRecord
100
AcDbLayerTableRecord
  2
0
 70
     0
 62
     7
  6
Continuous
370
    -3
390
F
  0
LAYER
  5
6F
330
2
100
AcDbSymbolTableRecord
100
AcDbLayerTableRecord
  2
FORMAT
 70
     0
 62
     2
  6
Continuous
370
    -3
390
F
  0
LAYER
  5
70
330
2
100
AcDbSymbolTableRecord
100
AcDbLayerTableRecord
  2
외형선
 70
     0
 62
     4
  6
Continuous
370
    30
390
F
  0
LAYER
  5
71
330
2
100
AcDbSymbolTableRecord
100
AcDbLayerTableRecord
  2
숨은선
 70
     0
 62
     2
  6
HIDDEN
370
    15
390
F
  0
LAYER
  5
72
330
2
100
AcDbSymbolTableRecord
100
AcDbLayerTableRecord
  2
중심선
 70
     0
 62
     1
  6
CENTERX2
370
    -3
390
F
  0
LAYER
  5
73
330
2
100
AcDbSymbolTableRecord
100
AcDbLayerTableRecord
  2
파단선
 70
     0
 62
     4
  6
Continuous
370
    -3
390
F
  0
LAYER
  5
74
330
2
100
AcDbSymbolTableRecord
100
AcDbLayerTableRecord
  2
해칭선
 70
     0
 62
   100
  6
Continuous
370
    -3
390
F
  0
LAYER
  5
75
330
2
100
AcDbSymbolTableRecord
100
AcDbLayerTableRecord
  2
가는실선
 70
     0
 62
     4
  6
Continuous
370
    -3
390
F
  0
LAYER
  5
76
330
2
100
AcDbSymbolTableRecord
100
AcDbLayerTableRecord
  2
치수_보조선
 70
     0
 62
     4
  6
Continuous
370
    -3
390
F
  0
LAYER
  5
77
330
2
100
AcDbSymbolTableRecord
100
AcDbLayerTableRecord
  2
치수문자_일반주서
 70
     0
 62
     7
  6
Continuous
370
    15
390
F
  0
LAYER
  5
78
330
2
100
AcDbSymbolTableRecord
100
AcDbLayerTableRecord
  2
개별주서
 70
     0
 62
   100
  6
Continuous
370
    30
390
F
  0
LAYER
  5
79
330
2
100
AcDbSymbolTableRecord
100
AcDbLayerTableRecord
  2
중간선
 70
     0
 62
     2
  6
Continuous
370
    15
390
F
  0
LAYER
  5
7A
330
2
100
AcDbSymbolTableRecord
100
AcDbLayerTableRecord
  2
윤곽선
 70
     0
 62
     3
  6
Continuous
370
    40
390
F
  0
LAYER
  5
7B
330
2
100
AcDbSymbolTableRecord
100
AcDbLayerTableRecord
  2
중심마크
 70
     0
 62
   100
  6
Continuous
370
    30
390
F
  0
LAYER
  5
7C
330
2
100
AcDbSymbolTableRecord
100
AcDbLayerTableRecord
  2
가상선
 70
     0
 62
     4
  6
PHANTOM
370
    -3
390
F
  0
LAYER
  5
7D
330
2
100
AcDbSymbolTableRecord
100
AcDbLayerTableRecord
  2
특수지정선
 70
     0
 62
     5
  6
CENTERX2
370
    60
390
F
  0
LAYER
  5
7E
330
2
100
AcDbSymbolTableRecord
100
AcDbLayerTableRecord
  2
참조1
 70
     0
 62
    -4
  6
Continuous
370
    -3
390
F
  0
LAYER
  5
16D
330
2
100
AcDbSymbolTableRecord
100
AcDbLayerTableRecord
  2
Defpoints
 70
     0
 62
     7
  6
Continuous
290
     0
370
    -3
390
F
  0
ENDTAB
  0
TABLE
  2
STYLE
  5
3
330
0
100
AcDbSymbolTable
 70
     2
  0
STYLE
  5
11
330
3
100
AcDbSymbolTableRecord
100
AcDbTextStyleTableRecord
  2
Standard
 70
     0
 40
0.0
 41
1.0
 50
0.0
 71
     0
 42
3.5
  3
txt
  4

  0
STYLE
  5
94
330
3
100
AcDbSymbolTableRecord
100
AcDbTextStyleTableRecord
  2
SLDTEXTSTYLE0
 70
     0
 40
0.0
 41
0.75
 50
0.0
 71
     0
 42
3.5
  3
TXT
  4

  0
ENDTAB
  0
TABLE
  2
VIEW
  5
6
330
0
100
AcDbSymbolTable
 70
     0
  0
ENDTAB
  0
TABLE
  2
UCS
  5
7
330
0
100
AcDbSymbolTable
 70
     0
  0
ENDTAB
  0
TABLE
  2
APPID
  5
9
330
0
100
AcDbSymbolTable
 70
     3
  0
APPID
  5
12
330
9
100
AcDbSymbolTableRecord
100
AcDbRegAppTableRecord
  2
ACAD
 70
     0
  0
APPID
  5
179
330
9
100
AcDbSymbolTableRecord
100
AcDbRegAppTableRecord
  2
PE_URL
 70
     0
  0
APPID
  5
17A
330
9
100
AcDbSymbolTableRecord
100
AcDbRegAppTableRecord
  2
ACAD_DSTYLE_DIMRADIAL_EXTENSION
 70
     0
  0
ENDTAB
  0
TABLE
  2
DIMSTYLE
  5
A
330
0
100
AcDbSymbolTable
 70
     4
100
AcDbDimStyleTable
  0
DIMSTYLE
105
27
330
A
100
AcDbSymbolTableRecord
100
AcDbDimStyleTableRecord
  2
ISO-25
 70
     0
 41
2.5
 42
0.625
 43
3.75
 44
1.25
 73
     0
 74
     0
 77
     1
 78
     8
140
2.5
141
2.5
143
0.03937007874016
147
0.625
171
     3
172
     1
178
     0
271
     2
272
     2
274
     3
278
    44
283
     0
284
     8
340
11
  0
DIMSTYLE
105
EB
102
{ACAD_REACTORS
330
EA
330
1D9
330
1E6
330
FF
330
114
330
127
102
}
330
A
100
AcDbSymbolTableRecord
100
AcDbDimStyleTableRecord
  2
SLDDIMSTYLE0
 70
     0
 41
3.302
 44
0.0
 45
0.000000001
 73
     0
 74
     0
 77
     1
 78
    12
 79
     3
140
3.5
143
0.0393700787401575
147
0.875
148
0.000000001
170
     1
172
     1
173
     1
178
     0
271
     2
272
     2
276
     2
284
    12
289
     0
340
94
  0
DIMSTYLE
105
100
102
{ACAD_REACTORS
330
21C
102
}
330
A
100
AcDbSymbolTableRecord
100
AcDbDimStyleTableRecord
  2
SLDDIMSTYLE1
 70
     0
 41
3.302
 44
0.0
 45
0.000000001
 73
     0
 74
     0
 77
     1
 78
     4
 79
     1
140
3.5
143
0.0393700787401575
147
0.875
148
0.000000001
170
     1
173
     1
178
     0
271
     2
272
     2
276
     2
284
    12
340
94
  0
DIMSTYLE
105
178
102
{ACAD_REACTORS
330
1F3
330
202
102
}
330
A
100
AcDbSymbolTableRecord
100
AcDbDimStyleTableRecord
  2
SLDDIMSTYLE2
 70
     0
 41
3.302
 44
0.0
 45
0.000000001
 73
     0
 74
     0
 77
     1
 78
    12
 79
     3
140
3.5
147
0.875
172
     1
173
     1
178
     0
271
     2
272
     2
276
     2
284
    12
289
     0
340
94
  0
ENDTAB
  0
TABLE
  2
BLOCK_RECORD
  5
1
330
0
100
AcDbSymbolTable
 70
    18
  0
BLOCK_RECORD
  5
1F
330
1
100
AcDbSymbolTableRecord
100
AcDbBlockTableRecord
  2
*Model_Space
340
22
  0
BLOCK_RECORD
  5
1B
330
1
100
AcDbSymbolTableRecord
100
AcDbBlockTableRecord
  2
*Paper_Space
340
1E
  0
BLOCK_RECORD
  5
23
330
1
100
AcDbSymbolTableRecord
100
AcDbBlockTableRecord
  2
*Paper_Space0
340
26
  0
BLOCK_RECORD
  5
7F
330
1
100
AcDbSymbolTableRecord
100
AcDbBlockTableRecord
  2
블럭10
340
0
102
{BLKREFS
331
E3
102
}
  0
BLOCK_RECORD
  5
EC
330
1
100
AcDbSymbolTableRecord
100
AcDbBlockTableRecord
  2
_D
340
0
  0
BLOCK_RECORD
  5
101
330
1
100
AcDbSymbolTableRecord
100
AcDbBlockTableRecord
  2
_D_1
340
0
  0
BLOCK_RECORD
  5
115
330
1
100
AcDbSymbolTableRecord
100
AcDbBlockTableRecord
  2
_D_2
340
0
  0
BLOCK_RECORD
  5
128
330
1
100
AcDbSymbolTableRecord
100
AcDbBlockTableRecord
  2
_D_3
340
0
  0
BLOCK_RECORD
  5
141
330
1
100
AcDbSymbolTableRecord
100
AcDbBlockTableRecord
  2
SW_DOWELSYMBOL_0
340
0
102
{BLKREFS
331
147
331
211
331
0
102
}
  0
BLOCK_RECORD
  5
203
330
1
100
AcDbSymbolTableRecord
100
AcDbBlockTableRecord
  2
_D_4
340
0
  0
BLOCK_RECORD
  5
21D
330
1
100
AcDbSymbolTableRecord
100
AcDbBlockTableRecord
  2
*D9
340
0
  0
BLOCK_RECORD
  5
229
330
1
100
AcDbSymbolTableRecord
100
AcDbBlockTableRecord
  2
*D10
340
0
  0
BLOCK_RECORD
  5
235
330
1
100
AcDbSymbolTableRecord
100
AcDbBlockTableRecord
  2
*D11
340
0
  0
BLOCK_RECORD
  5
241
330
1
100
AcDbSymbolTableRecord
100
AcDbBlockTableRecord
  2
*D12
340
0
  0
BLOCK_RECORD
  5
29C
330
1
100
AcDbSymbolTableRecord
100
AcDbBlockTableRecord
  2
*D13
340
0
  0
BLOCK_RECORD
  5
2A8
330
1
100
AcDbSymbolTableRecord
100
AcDbBlockTableRecord
  2
*D14
340
0
  0
BLOCK_RECORD
  5
2B4
330
1
100
AcDbSymbolTableRecord
100
AcDbBlockTableRecord
  2
*D15
340
0
  0
BLOCK_RECORD
  5
2C2
330
1
100
AcDbSymbolTableRecord
100
AcDbBlockTableRecord
  2
*D16
340
0
  0
BLOCK_RECORD
  5
2D0
330
1
100
AcDbSymbolTableRecord
100
AcDbBlockTableRecord
  2
*D17
340
0
  0
ENDTAB
  0
ENDSEC
  0
SECTION
  2
BLOCKS
  0
BLOCK
  5
20
330
1F
100
AcDbEntity
  8
0
100
AcDbBlockBegin
  2
*Model_Space
 70
     0
 10
0.0
 20
0.0
 30
0.0
  3
*Model_Space
  1
*Model_Space
  0
ENDBLK
  5
21
330
1F
100
AcDbEntity
  8
0
100
AcDbBlockEnd
  0
BLOCK
  5
1C
330
1B
100
AcDbEntity
 67
     1
  8
0
100
AcDbBlockBegin
  2
*Paper_Space
 70
     0
 10
0.0
 20
0.0
 30
0.0
  3
*Paper_Space
  1
*Paper_Space
  0
ENDBLK
  5
1D
330
1B
100
AcDbEntity
 67
     1
  8
0
100
AcDbBlockEnd
  0
BLOCK
  5
24
330
23
100
AcDbEntity
  8
0
100
AcDbBlockBegin
  2
*Paper_Space0
 70
     0
 10
0.0
 20
0.0
 30
0.0
  3
*Paper_Space0
  1
*Paper_Space0
  0
ENDBLK
  5
25
330
23
100
AcDbEntity
  8
0
100
AcDbBlockEnd
  0
BLOCK
  5
80
330
7F
100
AcDbEntity
  8
0
100
AcDbBlockBegin
  2
블럭10
 70
     2
 10
0.0
 20
0.0
 30
0.0
  3
블럭10
  1
블럭10
  0
ELLIPSE
  5
82
330
7F
100
AcDbEntity
  8
중심선
100
AcDbEllipse
 10
20.54032771741204
 20
12.0471743016438
 30
0.0
 11
6.600054785286829
 21
-1.261213355974178E-13
 31
0.0
210
0.0
220
0.0
230
1.0
 40
0.636358354079598
 41
0.9219305317359503
 42
6.513795318482858
  0
ELLIPSE
  5
83
330
7F
100
AcDbEntity
  8
중심선
100
AcDbEllipse
 10
20.54032771746488
 20
12.04717430159265
 30
0.0
 11
3.960054785062283
 21
1.540847449632565E-10
 31
0.0
210
0.0
220
0.0
230
1.0
 40
0.3939339440162632
 41
1.131841032648279
 42
5.62031148352944
  0
LINE
  5
84
330
7F
100
AcDbEntity
  8
중심선
100
AcDbLine
 10
2.268634060543552
 20
16.24717430164393
 30
0.0
 11
5.714909304380834
 21
16.24717430164393
 31
0.0
  0
LINE
  5
85
330
7F
100
AcDbEntity
  8
중심선
100
AcDbLine
 10
5.245725140726316
 20
7.84717430164391
 30
0.0
 11
8.692000384563599
 21
7.84717430164391
 31
0.0
  0
LINE
  5
86
330
7F
100
AcDbEntity
  8
중심선
100
AcDbLine
 10
15.74043728645272
 20
16.24717430164393
 30
0.0
 11
8.692000384563599
 21
7.84717430164391
 31
0.0
  0
LINE
  5
87
330
7F
100
AcDbEntity
  8
중심선
100
AcDbLine
 10
0.1404042013395286
 20
13.71084872107135
 30
0.0
 11
3.58671253028996
 21
13.71088815037384
 31
0.0
  0
LINE
  5
88
330
7F
100
AcDbEntity
  8
중심선
100
AcDbLine
 10
2.750260043222114
 20
10.84717430164391
 30
0.0
 11
6.196535287059397
 21
10.84717430164391
 31
0.0
  0
LINE
  5
89
330
7F
100
AcDbEntity
  8
중심선
100
AcDbLine
 10
12.29416204261559
 20
16.24717430164393
 30
0.0
 11
5.245725140726316
 21
7.84717430164391
 31
0.0
  0
LINE
  5
8A
330
7F
100
AcDbEntity
  8
중심선
100
AcDbLine
 10
10.72767329541681
 20
16.24717430164393
 30
0.0
 11
6.196535287059397
 21
10.84717430164391
 31
0.0
  0
LINE
  5
8B
330
7F
100
AcDbEntity
  8
중심선
100
AcDbLine
 10
7.28139805157953
 20
16.24717430164393
 30
0.0
 11
2.750260043222114
 21
10.84717430164391
 31
0.0
  0
LINE
  5
8C
330
7F
100
AcDbEntity
  8
중심선
100
AcDbLine
 10
5.714909304380834
 20
16.24717430164393
 30
0.0
 11
3.58671253028996
 21
13.71088815037384
 31
0.0
  0
LINE
  5
8D
330
7F
100
AcDbEntity
  8
중심선
100
AcDbLine
 10
2.268634060543552
 20
16.24717430164393
 30
0.0
 11
0.1404042013395286
 21
13.71084872107135
 31
0.0
  0
LINE
  5
8E
330
7F
100
AcDbEntity
  8
중심선
100
AcDbLine
 10
7.28139805157953
 20
16.24717430164393
 30
0.0
 11
10.72767329541681
 21
16.24717430164393
 31
0.0
  0
LINE
  5
8F
330
7F
100
AcDbEntity
  8
중심선
100
AcDbLine
 10
12.29416204261559
 20
16.24717430164393
 30
0.0
 11
15.74043728645272
 21
16.24717430164393
 31
0.0
  0
LINE
  5
90
330
7F
100
AcDbEntity
  8
중심선
100
AcDbLine
 10
19.22036997980202
 20
11.08717430171403
 30
0.0
 11
23.66174974927406
 21
11.08717430171406
 31
0.0
  0
LINE
  5
91
330
7F
100
AcDbEntity
  8
중심선
100
AcDbLine
 10
19.22039502424796
 20
13.00717430171391
 30
0.0
 11
19.22036997980202
 21
11.08717430171403
 31
0.0
  0
LINE
  5
92
330
7F
100
AcDbEntity
  8
중심선
100
AcDbLine
 10
19.22039502424796
 20
13.00717430171391
 30
0.0
 11
26.96566020931264
 21
13.00717430171391
 31
0.0
  0
LINE
  5
93
330
7F
100
AcDbEntity
  8
중심선
100
AcDbLine
 10
22.22332737316547
 20
13.45928029700563
 30
0.0
 11
24.52862924686651
 21
15.39360700705356
 31
0.0
  0
ATTDEF
  5
95
330
7F
100
AcDbEntity
  8
FORMAT
 62
     2
100
AcDbText
 10
4.408487351596664
 20
2.075366912832191
 30
0.0
 40
4.233333333333333
  1
E5026028
 41
0.75
  7
SLDTEXTSTYLE0
 11
4.408487351596664
 21
-0.0412997538344756
 31
0.0
100
AcDbAttributeDefinition
  3

  2
AUTOATTR0
 70
     0
 74
     1
  0
ENDBLK
  5
81
330
7F
100
AcDbEntity
  8
0
100
AcDbBlockEnd
  0
BLOCK
  5
ED
330
EC
100
AcDbEntity
  8
0
100
AcDbBlockBegin
  2
_D
 70
     0
 10
0.0
 20
0.0
 30
0.0
  3
_D
  1
_D
  0
LINE
  5
EF
330
EC
100
AcDbEntity
  8
치수문자_일반주서
 62
     0
370
    -2
100
AcDbLine
 10
-65.26250000000003
 20
5.556249999999981
 30
0.0
 11
-81.28388472004833
 21
5.55624999999992
 31
0.0
  0
LINE
  5
F0
330
EC
100
AcDbEntity
  8
치수문자_일반주서
 62
     0
370
    -2
100
AcDbLine
 10
-65.26250000000003
 20
-5.556250000000016
 30
0.0
 11
-81.28388472004829
 21
-5.556250000000077
 31
0.0
  0
LINE
  5
F1
330
EC
100
AcDbEntity
  8
치수문자_일반주서
 62
     0
370
    -2
100
AcDbLine
 10
-81.28388472004833
 20
5.55624999999992
 30
0.0
 11
-81.28388472004846
 21
39.28524999999992
 31
0.0
  0
LINE
  5
F2
330
EC
100
AcDbEntity
  8
치수문자_일반주서
 62
     0
370
    -2
100
AcDbLine
 10
-81.28388472004833
 20
5.55624999999992
 30
0.0
 11
-81.28388472004829
 21
-5.556250000000077
 31
0.0
  0
LINE
  5
F3
330
EC
100
AcDbEntity
  8
치수문자_일반주서
 62
     0
370
    -2
100
AcDbLine
 10
-81.28388472004835
 20
8.85824999999992
 30
0.0
 11
-81.28388472004836
 21
12.16024999999992
 31
0.0
  0
LINE
  5
F4
330
EC
100
AcDbEntity
  8
치수문자_일반주서
 62
     0
370
    -2
100
AcDbLine
 10
-81.28388472004828
 20
-8.858250000000076
 30
0.0
 11
-81.28388472004826
 21
-12.16025000000008
 31
0.0
  0
SOLID
  5
F5
330
EC
100
AcDbEntity
  8
치수문자_일반주서
 62
     0
100
AcDbTrace
 10
-81.83421805338168
 20
8.858249999999918
 30
0.0
 11
-80.73355138671502
 21
8.858249999999922
 31
0.0
 12
-81.28388472004833
 22
5.55624999999992
 32
0.0
 13
-81.28388472004833
 23
5.55624999999992
 33
0.0
  0
SOLID
  5
F6
330
EC
100
AcDbEntity
  8
치수문자_일반주서
 62
     0
100
AcDbTrace
 10
-80.73355138671495
 20
-8.858250000000075
 30
0.0
 11
-81.8342180533816
 21
-8.858250000000078
 31
0.0
 12
-81.28388472004829
 22
-5.556250000000077
 32
0.0
 13
-81.28388472004829
 23
-5.556250000000077
 33
0.0
  0
MTEXT
  5
F7
330
EC
100
AcDbEntity
  8
치수문자_일반주서
 62
     0
100
AcDbMText
 10
-85.6588847200484
 20
25.7227499999999
 30
0.0
 40
3.5
 41
0.0
 71
     2
 72
     1
  1
\A1;%%c11.11 [7/16]
  7
SLDTEXTSTYLE0
 11
-3.836451216702454E-15
 21
1.0
 31
0.0
 73
     1
 44
1.0
  0
POINT
  5
2DA
330
EC
100
AcDbEntity
  8
Defpoints
 62
     0
100
AcDbPoint
 10
-65.20000000000003
 20
5.556249999999981
 30
0.0
  0
POINT
  5
2DB
330
EC
100
AcDbEntity
  8
Defpoints
 62
     0
100
AcDbPoint
 10
-65.20000000000003
 20
-5.556250000000016
 30
0.0
  0
POINT
  5
2DC
330
EC
100
AcDbEntity
  8
Defpoints
 62
     0
100
AcDbPoint
 10
-81.28388472004829
 20
-5.556250000000077
 30
0.0
  0
ENDBLK
  5
EE
330
EC
100
AcDbEntity
  8
0
100
AcDbBlockEnd
  0
BLOCK
  5
102
330
101
100
AcDbEntity
  8
0
100
AcDbBlockBegin
  2
_D_1
 70
     0
 10
0.0
 20
0.0
 30
0.0
  3
_D_1
  1
_D_1
  0
LINE
  5
104
330
101
100
AcDbEntity
  8
치수문자_일반주서
 62
     0
370
    -2
100
AcDbLine
 10
86.19999999999999
 20
5.618749999999997
 30
0.0
 11
86.19999999999999
 21
18.72789567294265
 31
0.0
  0
LINE
  5
105
330
101
100
AcDbEntity
  8
치수문자_일반주서
 62
     0
370
    -2
100
AcDbLine
 10
9.999999999999996
 20
4.498386252974497
 30
0.0
 11
10.0
 21
18.72789567294265
 31
0.0
  0
LINE
  5
106
330
101
100
AcDbEntity
  8
치수문자_일반주서
 62
     0
370
    -2
100
AcDbLine
 10
82.898
 20
18.72789567294265
 30
0.0
 11
13.302
 21
18.72789567294265
 31
0.0
  0
SOLID
  5
107
330
101
100
AcDbEntity
  8
치수문자_일반주서
 62
     0
100
AcDbTrace
 10
82.898
 20
18.17756233960931
 30
0.0
 11
82.898
 21
19.27822900627598
 31
0.0
 12
86.19999999999999
 22
18.72789567294265
 32
0.0
 13
86.19999999999999
 23
18.72789567294265
 33
0.0
  0
SOLID
  5
108
330
101
100
AcDbEntity
  8
치수문자_일반주서
 62
     0
100
AcDbTrace
 10
13.302
 20
19.27822900627598
 30
0.0
 11
13.302
 21
18.17756233960931
 31
0.0
 12
10.0
 22
18.72789567294265
 32
0.0
 13
10.0
 23
18.72789567294265
 33
0.0
  0
MTEXT
  5
109
330
101
100
AcDbEntity
  8
치수문자_일반주서
 62
     0
100
AcDbMText
 10
48.09999999999998
 20
23.10289567294265
 30
0.0
 40
3.5
 41
0.0
 71
     2
 72
     1
  1
\A1;76.2 [3]
  7
SLDTEXTSTYLE0
 73
     1
 44
1.0
  0
POINT
  5
10A
330
101
100
AcDbEntity
  8
Defpoints
 62
     0
100
AcDbPoint
 10
86.19999999999999
 20
5.556249999999997
 30
0.0
  0
POINT
  5
10B
330
101
100
AcDbEntity
  8
Defpoints
 62
     0
100
AcDbPoint
 10
9.999999999999996
 20
4.435886252974497
 30
0.0
  0
POINT
  5
10C
330
101
100
AcDbEntity
  8
Defpoints
 62
     0
100
AcDbPoint
 10
9.999999999999996
 20
18.72789567294265
 30
0.0
  0
ENDBLK
  5
103
330
101
100
AcDbEntity
  8
0
100
AcDbBlockEnd
  0
BLOCK
  5
116
330
115
100
AcDbEntity
  8
0
100
AcDbBlockBegin
  2
_D_2
 70
     0
 10
0.0
 20
0.0
 30
0.0
  3
_D_2
  1
_D_2
  0
LINE
  5
118
330
115
100
AcDbEntity
  8
치수문자_일반주서
 62
     0
370
    -2
100
AcDbLine
 10
86.19999999999999
 20
5.618749999999997
 30
0.0
 11
86.2
 21
35.79808227005386
 31
0.0
  0
LINE
  5
119
330
115
100
AcDbEntity
  8
치수문자_일반주서
 62
     0
370
    -2
100
AcDbLine
 10
-66.20000000000003
 20
4.618749999999987
 30
0.0
 11
-66.20000000000002
 21
35.79808227005386
 31
0.0
  0
LINE
  5
11A
330
115
100
AcDbEntity
  8
치수문자_일반주서
 62
     0
370
    -2
100
AcDbLine
 10
82.898
 20
35.79808227005386
 30
0.0
 11
-62.89800000000002
 21
35.79808227005386
 31
0.0
  0
SOLID
  5
11B
330
115
100
AcDbEntity
  8
치수문자_일반주서
 62
     0
100
AcDbTrace
 10
82.898
 20
35.24774893672053
 30
0.0
 11
82.898
 21
36.3484156033872
 31
0.0
 12
86.2
 22
35.79808227005386
 32
0.0
 13
86.2
 23
35.79808227005386
 33
0.0
  0
SOLID
  5
11C
330
115
100
AcDbEntity
  8
치수문자_일반주서
 62
     0
100
AcDbTrace
 10
-62.89800000000002
 20
36.3484156033872
 30
0.0
 11
-62.89800000000002
 21
35.24774893672053
 31
0.0
 12
-66.20000000000002
 22
35.79808227005386
 32
0.0
 13
-66.20000000000002
 23
35.79808227005386
 33
0.0
  0
MTEXT
  5
11D
330
115
100
AcDbEntity
  8
치수문자_일반주서
 62
     0
100
AcDbMText
 10
9.999999999999972
 20
40.17308227005386
 30
0.0
 40
3.5
 41
0.0
 71
     2
 72
     1
  1
\A1;152.4 [6]
  7
SLDTEXTSTYLE0
 73
     1
 44
1.0
  0
POINT
  5
11E
330
115
100
AcDbEntity
  8
Defpoints
 62
     0
100
AcDbPoint
 10
86.19999999999999
 20
5.556249999999997
 30
0.0
  0
POINT
  5
11F
330
115
100
AcDbEntity
  8
Defpoints
 62
     0
100
AcDbPoint
 10
-66.20000000000003
 20
4.556249999999987
 30
0.0
  0
POINT
  5
120
330
115
100
AcDbEntity
  8
Defpoints
 62
     0
100
AcDbPoint
 10
-66.20000000000003
 20
35.79808227005386
 30
0.0
  0
ENDBLK
  5
117
330
115
100
AcDbEntity
  8
0
100
AcDbBlockEnd
  0
BLOCK
  5
129
330
128
100
AcDbEntity
  8
0
100
AcDbBlockBegin
  2
_D_3
 70
     0
 10
0.0
 20
0.0
 30
0.0
  3
_D_3
  1
_D_3
  0
LINE
  5
12B
330
128
100
AcDbEntity
  8
치수문자_일반주서
 62
     0
370
    -2
100
AcDbLine
 10
86.2625
 20
-5.556250000000004
 30
0.0
 11
104.9997997783002
 21
-5.556249999999931
 31
0.0
  0
LINE
  5
12C
330
128
100
AcDbEntity
  8
치수문자_일반주서
 62
     0
370
    -2
100
AcDbLine
 10
86.26249999999999
 20
5.556249999999997
 30
0.0
 11
104.9997997783001
 21
5.556250000000066
 31
0.0
  0
LINE
  5
12D
330
128
100
AcDbEntity
  8
치수문자_일반주서
 62
     0
370
    -2
100
AcDbLine
 10
104.9997997783001
 20
5.556250000000066
 30
0.0
 11
104.9997997783
 21
39.28525000000006
 31
0.0
  0
LINE
  5
12E
330
128
100
AcDbEntity
  8
치수문자_일반주서
 62
     0
370
    -2
100
AcDbLine
 10
104.9997997783002
 20
-5.556249999999931
 30
0.0
 11
104.9997997783001
 21
5.556250000000066
 31
0.0
  0
LINE
  5
12F
330
128
100
AcDbEntity
  8
치수문자_일반주서
 62
     0
370
    -2
100
AcDbLine
 10
104.9997997783002
 20
-8.85824999999993
 30
0.0
 11
104.9997997783002
 21
-12.16024999999993
 31
0.0
  0
LINE
  5
130
330
128
100
AcDbEntity
  8
치수문자_일반주서
 62
     0
370
    -2
100
AcDbLine
 10
104.9997997783001
 20
8.858250000000066
 30
0.0
 11
104.9997997783001
 21
12.16025000000007
 31
0.0
  0
SOLID
  5
131
330
128
100
AcDbEntity
  8
치수문자_일반주서
 62
     0
100
AcDbTrace
 10
105.5501331116335
 20
-8.858249999999929
 30
0.0
 11
104.4494664449668
 21
-8.858249999999932
 31
0.0
 12
104.9997997783002
 22
-5.556249999999931
 32
0.0
 13
104.9997997783002
 23
-5.556249999999931
 33
0.0
  0
SOLID
  5
132
330
128
100
AcDbEntity
  8
치수문자_일반주서
 62
     0
100
AcDbTrace
 10
104.4494664449668
 20
8.858250000000064
 30
0.0
 11
105.5501331116334
 21
8.858250000000067
 31
0.0
 12
104.9997997783001
 22
5.556250000000066
 32
0.0
 13
104.9997997783001
 23
5.556250000000066
 33
0.0
  0
MTEXT
  5
133
330
128
100
AcDbEntity
  8
치수문자_일반주서
 62
     0
100
AcDbMText
 10
100.6247997783
 20
25.72275000000005
 30
0.0
 40
3.5
 41
0.0
 71
     2
 72
     1
  1
\A1;%%c11.11 [7/16]
  7
SLDTEXTSTYLE0
 11
-3.836451216702453E-15
 21
1.0
 31
0.0
 73
     1
 44
1.0
  0
POINT
  5
134
330
128
100
AcDbEntity
  8
Defpoints
 62
     0
100
AcDbPoint
 10
86.2
 20
-5.556250000000004
 30
0.0
  0
POINT
  5
135
330
128
100
AcDbEntity
  8
Defpoints
 62
     0
100
AcDbPoint
 10
86.19999999999999
 20
5.556249999999997
 30
0.0
  0
POINT
  5
136
330
128
100
AcDbEntity
  8
Defpoints
 62
     0
100
AcDbPoint
 10
104.9997997783001
 20
5.556250000000067
 30
0.0
  0
ENDBLK
  5
12A
330
128
100
AcDbEntity
  8
0
100
AcDbBlockEnd
  0
BLOCK
  5
142
330
141
100
AcDbEntity
  8
0
100
AcDbBlockBegin
  2
SW_DOWELSYMBOL_0
 70
     0
 10
0.0
 20
0.0
 30
0.0
  3
SW_DOWELSYMBOL_0
  1
SW_DOWELSYMBOL_0
  0
CIRCLE
  5
144
330
141
100
AcDbEntity
  8
해칭선
 62
     0
100
AcDbCircle
 10
0.0
 20
0.0
 30
0.0
 40
2.999999999999996
  0
HATCH
  5
145
330
141
100
AcDbEntity
  8
0
  6
Continuous
 62
     0
370
     0
100
AcDbHatch
 10
0.0
 20
0.0
 30
0.0
210
0.0
220
0.0
230
1.0
  2
SOLID
 70
     1
 71
     0
 91
        1
 92
        0
 93
        3
 72
     2
 10
0.0
 20
0.0
 40
2.999999999999996
 50
0.0
 51
90.0
 73
     1
 72
     1
 10
0.0
 20
2.999999999999996
 11
0.0
 21
0.0
 72
     1
 10
0.0
 20
0.0
 11
2.999999999999996
 21
0.0
 97
        0
 75
     0
 76
     1
 98
        1
 10
0.0
 20
0.0
  0
HATCH
  5
146
330
141
100
AcDbEntity
  8
0
  6
Continuous
 62
     0
370
     0
100
AcDbHatch
 10
0.0
 20
0.0
 30
0.0
210
0.0
220
0.0
230
1.0
  2
SOLID
 70
     1
 71
     0
 91
        1
 92
        0
 93
        3
 72
     2
 10
0.0
 20
0.0
 40
2.999999999999996
 50
180.0
 51
270.0000000000008
 73
     1
 72
     1
 10
0.0
 20
-2.999999999999996
 11
0.0
 21
0.0
 72
     1
 10
0.0
 20
0.0
 11
-2.999999999999996
 21
0.0
 97
        0
 75
     0
 76
     1
 98
        1
 10
0.0
 20
0.0
  0
ENDBLK
  5
143
330
141
100
AcDbEntity
  8
0
100
AcDbBlockEnd
  0
BLOCK
  5
204
330
203
100
AcDbEntity
  8
0
100
AcDbBlockBegin
  2
_D_4
 70
     0
 10
0.0
 20
0.0
 30
0.0
  3
_D_4
  1
_D_4
  0
LINE
  5
205
330
203
100
AcDbEntity
  8
치수문자_일반주서
 62
     0
370
    -2
100
AcDbLine
 10
102.4375000000001
 20
36.22143424691529
 30
0.0
 11
117.3750000000001
 21
36.22143424691535
 31
0.0
  0
LINE
  5
206
330
203
100
AcDbEntity
  8
치수문자_일반주서
 62
     0
370
    -2
100
AcDbLine
 10
102.4375000000001
 20
22.22143424691529
 30
0.0
 11
117.3750000000001
 21
22.22143424691535
 31
0.0
  0
LINE
  5
207
330
203
100
AcDbEntity
  8
치수문자_일반주서
 62
     0
370
    -2
100
AcDbLine
 10
117.3750000000001
 20
36.22143424691535
 30
0.0
 11
117.3750000000001
 21
22.22143424691535
 31
0.0
  0
LINE
  5
208
330
203
100
AcDbEntity
  8
치수문자_일반주서
 62
     0
370
    -2
100
AcDbLine
 10
117.3750000000001
 20
39.52343424691535
 30
0.0
 11
117.375
 21
42.82543424691535
 31
0.0
  0
LINE
  5
209
330
203
100
AcDbEntity
  8
치수문자_일반주서
 62
     0
370
    -2
100
AcDbLine
 10
117.3750000000001
 20
18.91943424691535
 30
0.0
 11
117.3750000000001
 21
15.61743424691535
 31
0.0
  0
SOLID
  5
20A
330
203
100
AcDbEntity
  8
치수문자_일반주서
 62
     0
100
AcDbTrace
 10
116.8246666666667
 20
39.52343424691535
 30
0.0
 11
117.9253333333334
 21
39.52343424691535
 31
0.0
 12
117.3750000000001
 22
36.22143424691535
 32
0.0
 13
117.3750000000001
 23
36.22143424691535
 33
0.0
  0
SOLID
  5
20B
330
203
100
AcDbEntity
  8
치수문자_일반주서
 62
     0
100
AcDbTrace
 10
117.9253333333335
 20
18.91943424691535
 30
0.0
 11
116.8246666666668
 21
18.91943424691535
 31
0.0
 12
117.3750000000001
 22
22.22143424691535
 32
0.0
 13
117.3750000000001
 23
22.22143424691535
 33
0.0
  0
MTEXT
  5
20C
330
203
100
AcDbEntity
  8
치수문자_일반주서
 62
     0
100
AcDbMText
 10
113.0000000000001
 20
29.28713862862833
 30
0.0
 40
3.5
 41
0.0
 71
     2
 72
     1
  1
\A1;%%c14
  7
SLDTEXTSTYLE0
 11
-3.045183153257572E-15
 21
1.0
 31
0.0
 73
     1
 44
1.0
  0
POINT
  5
20D
330
203
100
AcDbEntity
  8
Defpoints
 62
     0
100
AcDbPoint
 10
102.3750000000001
 20
36.22143424691529
 30
0.0
  0
POINT
  5
20E
330
203
100
AcDbEntity
  8
Defpoints
 62
     0
100
AcDbPoint
 10
102.3750000000001
 20
22.22143424691529
 30
0.0
  0
POINT
  5
20F
330
203
100
AcDbEntity
  8
Defpoints
 62
     0
100
AcDbPoint
 10
117.3750000000001
 20
22.22143424691535
 30
0.0
  0
ENDBLK
  5
210
330
203
100
AcDbEntity
  8
0
100
AcDbBlockEnd
  0
BLOCK
  5
21E
330
21D
100
AcDbEntity
  8
0
100
AcDbBlockBegin
  2
*D9
 70
     1
 10
0.0
 20
0.0
 30
0.0
  3
*D9
  1
*D8
  0
LINE
  5
21F
330
21D
100
AcDbEntity
  8
치수문자_일반주서
 62
     0
370
    -2
100
AcDbLine
 10
103.8657751816695
 20
19.48229575403651
 30
0.0
 11
120.1921280501954
 21
-7.081888143622854
 31
0.0
  0
MTEXT
  5
220
330
21D
100
AcDbEntity
  8
치수문자_일반주서
 62
     0
100
AcDbMText
 10
115.6706384014277
 20
5.288158154535728
 30
0.0
 40
3.5
 41
0.0
 71
     5
 72
     1
  1
\A1;R.50 [R0.02]
  7
SLDTEXTSTYLE0
 11
0.5236126201129557
 21
-0.8519564684057781
 31
0.0
 73
     1
 44
1.0
  0
SOLID
  5
221
330
21D
100
AcDbEntity
  8
치수문자_일반주서
 62
     0
100
AcDbTrace
 10
104.3346352247821
 20
19.77045723263868
 30
0.0
 11
103.3969151385569
 21
19.19413427543435
 31
0.0
 12
102.1368063100565
 22
22.29545601271239
 32
0.0
 13
102.1368063100565
 23
22.29545601271239
 33
0.0
  0
LINE
  5
222
330
21D
100
AcDbEntity
  8
치수문자_일반주서
 62
     0
100
AcDbLine
 10
101.785
 20
22.72143424691529
 30
0.0
 11
101.965
 21
22.72143424691529
 31
0.0
  0
LINE
  5
223
330
21D
100
AcDbEntity
  8
치수문자_일반주서
 62
     0
100
AcDbLine
 10
101.875
 20
22.63143424691529
 30
0.0
 11
101.875
 21
22.81143424691529
 31
0.0
  0
POINT
  5
24F
330
21D
100
AcDbEntity
  8
Defpoints
 62
     0
100
AcDbPoint
 10
102.1368063100565
 20
22.29545601271239
 30
0.0
  0
POINT
  5
250
330
21D
100
AcDbEntity
  8
Defpoints
 62
     0
100
AcDbPoint
 10
101.875
 20
22.72143424691529
 30
0.0
  0
ENDBLK
  5
224
330
21D
100
AcDbEntity
  8
0
100
AcDbBlockEnd
  0
BLOCK
  5
22A
330
229
100
AcDbEntity
  8
0
100
AcDbBlockBegin
  2
*D10
 70
     1
 10
0.0
 20
0.0
 30
0.0
  3
*D10
  1
*D10
  0
LINE
  5
22C
330
229
100
AcDbEntity
  8
치수문자_일반주서
 62
     0
370
    -2
100
AcDbLine
 10
19.37500000000004
 20
35.78393424691529
 30
0.0
 11
19.37500000000004
 21
70.88391841499404
 31
0.0
  0
LINE
  5
22D
330
229
100
AcDbEntity
  8
치수문자_일반주서
 62
     0
370
    -2
100
AcDbLine
 10
102.3750000000001
 20
36.34643424691529
 30
0.0
 11
102.3750000000001
 21
70.88391841499404
 31
0.0
  0
LINE
  5
22E
330
229
100
AcDbEntity
  8
치수문자_일반주서
 62
     0
370
    -2
100
AcDbLine
 10
22.67700000000004
 20
70.88391841499404
 30
0.0
 11
99.07300000000006
 21
70.88391841499404
 31
0.0
  0
SOLID
  5
22F
330
229
100
AcDbEntity
  8
치수문자_일반주서
 62
     0
100
AcDbTrace
 10
22.67700000000004
 20
71.43425174832737
 30
0.0
 11
22.67700000000004
 21
70.33358508166071
 31
0.0
 12
19.37500000000004
 22
70.88391841499404
 32
0.0
 13
19.37500000000004
 23
70.88391841499404
 33
0.0
  0
SOLID
  5
230
330
229
100
AcDbEntity
  8
치수문자_일반주서
 62
     0
100
AcDbTrace
 10
99.07300000000006
 20
70.33358508166071
 30
0.0
 11
99.07300000000006
 21
71.43425174832737
 31
0.0
 12
102.3750000000001
 22
70.88391841499404
 32
0.0
 13
102.3750000000001
 23
70.88391841499404
 33
0.0
  0
MTEXT
  5
231
330
229
100
AcDbEntity
  8
치수문자_일반주서
 62
     0
100
AcDbMText
 10
60.87500000000005
 20
75.25891841499404
 30
0.0
 40
3.5
 41
0.0
 71
     2
 72
     1
  1
\A1;83 [3.27]
  7
SLDTEXTSTYLE0
 73
     1
 44
1.0
  0
POINT
  5
232
330
229
100
AcDbEntity
  8
Defpoints
 62
     0
100
AcDbPoint
 10
19.37500000000004
 20
35.72143424691529
 30
0.0
  0
POINT
  5
233
330
229
100
AcDbEntity
  8
Defpoints
 62
     0
100
AcDbPoint
 10
102.3750000000001
 20
36.28393424691529
 30
0.0
  0
POINT
  5
234
330
229
100
AcDbEntity
  8
Defpoints
 62
     0
100
AcDbPoint
 10
102.3750000000001
 20
70.88391841499404
 30
0.0
  0
ENDBLK
  5
22B
330
229
100
AcDbEntity
  8
0
100
AcDbBlockEnd
  0
BLOCK
  5
236
330
235
100
AcDbEntity
  8
0
100
AcDbBlockBegin
  2
*D11
 70
     1
 10
0.0
 20
0.0
 30
0.0
  3
*D11
  1
*D11
  0
LINE
  5
238
330
235
100
AcDbEntity
  8
치수문자_일반주서
 62
     0
370
    -2
100
AcDbLine
 10
76.37504186422882
 20
28.62038676313042
 30
0.0
 11
76.37504186422882
 21
61.90091383617725
 31
0.0
  0
LINE
  5
239
330
235
100
AcDbEntity
  8
치수문자_일반주서
 62
     0
370
    -2
100
AcDbLine
 10
102.3750000000001
 20
36.28393424691529
 30
0.0
 11
102.3750000000001
 21
61.90091383617725
 31
0.0
  0
LINE
  5
23A
330
235
100
AcDbEntity
  8
치수문자_일반주서
 62
     0
370
    -2
100
AcDbLine
 10
79.67704186422881
 20
61.90091383617725
 30
0.0
 11
99.07300000000006
 21
61.90091383617725
 31
0.0
  0
SOLID
  5
23B
330
235
100
AcDbEntity
  8
치수문자_일반주서
 62
     0
100
AcDbTrace
 10
79.67704186422881
 20
62.45124716951059
 30
0.0
 11
79.67704186422881
 21
61.35058050284392
 31
0.0
 12
76.37504186422882
 22
61.90091383617725
 32
0.0
 13
76.37504186422882
 23
61.90091383617725
 33
0.0
  0
SOLID
  5
23C
330
235
100
AcDbEntity
  8
치수문자_일반주서
 62
     0
100
AcDbTrace
 10
99.07300000000006
 20
61.35058050284392
 30
0.0
 11
99.07300000000006
 21
62.45124716951059
 31
0.0
 12
102.3750000000001
 22
61.90091383617725
 32
0.0
 13
102.3750000000001
 23
61.90091383617725
 33
0.0
  0
MTEXT
  5
23D
330
235
100
AcDbEntity
  8
치수문자_일반주서
 62
     0
100
AcDbMText
 10
89.42159572693208
 20
66.27591383617725
 30
0.0
 40
3.5
 41
0.0
 71
     2
 72
     1
  1
\A1;26 [1.02]
  7
SLDTEXTSTYLE0
 73
     1
 44
1.0
  0
POINT
  5
23E
330
235
100
AcDbEntity
  8
Defpoints
 62
     0
100
AcDbPoint
 10
76.37504186422882
 20
28.55788676313042
 30
0.0
  0
POINT
  5
23F
330
235
100
AcDbEntity
  8
Defpoints
 62
     0
100
AcDbPoint
 10
102.3750000000001
 20
36.22143424691529
 30
0.0
  0
POINT
  5
240
330
235
100
AcDbEntity
  8
Defpoints
 62
     0
100
AcDbPoint
 10
102.3750000000001
 20
61.90091383617725
 30
0.0
  0
ENDBLK
  5
237
330
235
100
AcDbEntity
  8
0
100
AcDbBlockEnd
  0
BLOCK
  5
242
330
241
100
AcDbEntity
  8
0
100
AcDbBlockBegin
  2
*D12
 70
     1
 10
0.0
 20
0.0
 30
0.0
  3
*D12
  1
*D12
  0
LINE
  5
244
330
241
100
AcDbEntity
  8
치수문자_일반주서
 62
     0
370
    -2
100
AcDbLine
 10
19.81250000000005
 20
36.22143424691529
 30
0.0
 11
4.374999999999983
 21
36.22143424691524
 31
0.0
  0
LINE
  5
245
330
241
100
AcDbEntity
  8
치수문자_일반주서
 62
     0
370
    -2
100
AcDbLine
 10
19.81250000000005
 20
22.22143424691529
 30
0.0
 11
4.375000000000032
 21
22.22143424691524
 31
0.0
  0
LINE
  5
246
330
241
100
AcDbEntity
  8
치수문자_일반주서
 62
     0
370
    -2
100
AcDbLine
 10
4.374999999999983
 20
36.22143424691524
 30
0.0
 11
4.375000000000032
 21
22.22143424691524
 31
0.0
  0
LINE
  5
247
330
241
100
AcDbEntity
  8
치수문자_일반주서
 62
     0
370
    -2
100
AcDbLine
 10
4.374999999999972
 20
39.52343424691524
 30
0.0
 11
4.37499999999996
 21
42.82543424691524
 31
0.0
  0
LINE
  5
248
330
241
100
AcDbEntity
  8
치수문자_일반주서
 62
     0
370
    -2
100
AcDbLine
 10
4.375000000000044
 20
18.91943424691524
 30
0.0
 11
4.375000000000055
 21
15.61743424691524
 31
0.0
  0
SOLID
  5
249
330
241
100
AcDbEntity
  8
치수문자_일반주서
 62
     0
100
AcDbTrace
 10
3.824666666666638
 20
39.52343424691524
 30
0.0
 11
4.925333333333305
 21
39.52343424691524
 31
0.0
 12
4.374999999999983
 22
36.22143424691524
 32
0.0
 13
4.374999999999983
 23
36.22143424691524
 33
0.0
  0
SOLID
  5
24A
330
241
100
AcDbEntity
  8
치수문자_일반주서
 62
     0
100
AcDbTrace
 10
4.925333333333377
 20
18.91943424691524
 30
0.0
 11
3.82466666666671
 21
18.91943424691523
 31
0.0
 12
4.375000000000032
 22
22.22143424691524
 32
0.0
 13
4.375000000000032
 23
22.22143424691524
 33
0.0
  0
MTEXT
  5
24B
330
241
100
AcDbEntity
  8
치수문자_일반주서
 62
     0
100
AcDbMText
 10
0.0000000000000071
 20
29.22143424691528
 30
0.0
 40
3.5
 41
0.0
 71
     2
 72
     1
  1
\A1;%%c14
  7
SLDTEXTSTYLE0
 11
-3.489272363107635E-15
 21
1.0
 31
0.0
 73
     1
 44
1.0
  0
POINT
  5
24C
330
241
100
AcDbEntity
  8
Defpoints
 62
     0
100
AcDbPoint
 10
19.87500000000005
 20
36.22143424691529
 30
0.0
  0
POINT
  5
24D
330
241
100
AcDbEntity
  8
Defpoints
 62
     0
100
AcDbPoint
 10
19.87500000000005
 20
22.22143424691529
 30
0.0
  0
POINT
  5
24E
330
241
100
AcDbEntity
  8
Defpoints
 62
     0
100
AcDbPoint
 10
4.375000000000043
 20
22.22143424691524
 30
0.0
  0
ENDBLK
  5
243
330
241
100
AcDbEntity
  8
0
100
AcDbBlockEnd
  0
BLOCK
  5
29D
330
29C
100
AcDbEntity
  8
0
100
AcDbBlockBegin
  2
*D13
 70
     1
 10
0.0
 20
0.0
 30
0.0
  3
*D13
  1
*D13
  0
LINE
  5
29F
330
29C
100
AcDbEntity
  8
치수문자_일반주서
 62
     0
370
    -2
100
AcDbLine
 10
-60.33848686547915
 20
112.1942708567931
 30
0.0
 11
-60.33848686547915
 21
147.2942550248719
 31
0.0
  0
LINE
  5
2A0
330
29C
100
AcDbEntity
  8
치수문자_일반주서
 62
     0
370
    -2
100
AcDbLine
 10
22.66151313452086
 20
112.7567708567931
 30
0.0
 11
22.66151313452086
 21
147.2942550248719
 31
0.0
  0
LINE
  5
2A1
330
29C
100
AcDbEntity
  8
치수문자_일반주서
 62
     0
370
    -2
100
AcDbLine
 10
-57.03648686547916
 20
147.2942550248719
 30
0.0
 11
19.35951313452086
 21
147.2942550248719
 31
0.0
  0
SOLID
  5
2A2
330
29C
100
AcDbEntity
  8
치수문자_일반주서
 62
     0
100
AcDbTrace
 10
-57.03648686547916
 20
147.8445883582052
 30
0.0
 11
-57.03648686547916
 21
146.7439216915386
 31
0.0
 12
-60.33848686547915
 22
147.2942550248719
 32
0.0
 13
-60.33848686547915
 23
147.2942550248719
 33
0.0
  0
SOLID
  5
2A3
330
29C
100
AcDbEntity
  8
치수문자_일반주서
 62
     0
100
AcDbTrace
 10
19.35951313452086
 20
146.7439216915386
 30
0.0
 11
19.35951313452086
 21
147.8445883582052
 31
0.0
 12
22.66151313452086
 22
147.2942550248719
 32
0.0
 13
22.66151313452086
 23
147.2942550248719
 33
0.0
  0
MTEXT
  5
2A4
330
29C
100
AcDbEntity
  8
치수문자_일반주서
 62
     0
100
AcDbMText
 10
-18.83848686547915
 20
151.6692550248719
 30
0.0
 40
3.5
 41
0.0
 71
     2
 72
     1
  1
\A1;83 [3.27]
  7
SLDTEXTSTYLE0
 73
     1
 44
1.0
  0
POINT
  5
2A5
330
29C
100
AcDbEntity
  8
Defpoints
 62
     0
100
AcDbPoint
 10
-60.33848686547915
 20
112.1317708567931
 30
0.0
  0
POINT
  5
2A6
330
29C
100
AcDbEntity
  8
Defpoints
 62
     0
100
AcDbPoint
 10
22.66151313452086
 20
112.6942708567931
 30
0.0
  0
POINT
  5
2A7
330
29C
100
AcDbEntity
  8
Defpoints
 62
     0
100
AcDbPoint
 10
22.66151313452086
 20
147.2942550248719
 30
0.0
  0
ENDBLK
  5
29E
330
29C
100
AcDbEntity
  8
0
100
AcDbBlockEnd
  0
BLOCK
  5
2A9
330
2A8
100
AcDbEntity
  8
0
100
AcDbBlockBegin
  2
*D14
 70
     1
 10
0.0
 20
0.0
 30
0.0
  3
*D14
  1
*D14
  0
LINE
  5
2AB
330
2A8
100
AcDbEntity
  8
치수문자_일반주서
 62
     0
370
    -2
100
AcDbLine
 10
-3.338445001250378
 20
105.0307233730083
 30
0.0
 11
-3.338445001250378
 21
138.3112504460551
 31
0.0
  0
LINE
  5
2AC
330
2A8
100
AcDbEntity
  8
치수문자_일반주서
 62
     0
370
    -2
100
AcDbLine
 10
22.66151313452086
 20
112.6942708567931
 30
0.0
 11
22.66151313452086
 21
138.3112504460551
 31
0.0
  0
LINE
  5
2AD
330
2A8
100
AcDbEntity
  8
치수문자_일반주서
 62
     0
370
    -2
100
AcDbLine
 10
-0.0364450012503781
 20
138.3112504460551
 30
0.0
 11
19.35951313452086
 21
138.3112504460551
 31
0.0
  0
SOLID
  5
2AE
330
2A8
100
AcDbEntity
  8
치수문자_일반주서
 62
     0
100
AcDbTrace
 10
-0.0364450012503781
 20
138.8615837793884
 30
0.0
 11
-0.0364450012503781
 21
137.7609171127218
 31
0.0
 12
-3.338445001250378
 22
138.3112504460551
 32
0.0
 13
-3.338445001250378
 23
138.3112504460551
 33
0.0
  0
SOLID
  5
2AF
330
2A8
100
AcDbEntity
  8
치수문자_일반주서
 62
     0
100
AcDbTrace
 10
19.35951313452086
 20
137.7609171127218
 30
0.0
 11
19.35951313452086
 21
138.8615837793884
 31
0.0
 12
22.66151313452086
 22
138.3112504460551
 32
0.0
 13
22.66151313452086
 23
138.3112504460551
 33
0.0
  0
MTEXT
  5
2B0
330
2A8
100
AcDbEntity
  8
치수문자_일반주서
 62
     0
100
AcDbMText
 10
9.708108861452885
 20
142.6862504460551
 30
0.0
 40
3.5
 41
0.0
 71
     2
 72
     1
  1
\A1;26 [1.02]
  7
SLDTEXTSTYLE0
 73
     1
 44
1.0
  0
POINT
  5
2B1
330
2A8
100
AcDbEntity
  8
Defpoints
 62
     0
100
AcDbPoint
 10
-3.338445001250378
 20
104.9682233730083
 30
0.0
  0
POINT
  5
2B2
330
2A8
100
AcDbEntity
  8
Defpoints
 62
     0
100
AcDbPoint
 10
22.66151313452086
 20
112.6317708567931
 30
0.0
  0
POINT
  5
2B3
330
2A8
100
AcDbEntity
  8
Defpoints
 62
     0
100
AcDbPoint
 10
22.66151313452086
 20
138.3112504460551
 30
0.0
  0
ENDBLK
  5
2AA
330
2A8
100
AcDbEntity
  8
0
100
AcDbBlockEnd
  0
BLOCK
  5
2B5
330
2B4
100
AcDbEntity
  8
0
100
AcDbBlockBegin
  2
*D15
 70
     1
 10
0.0
 20
0.0
 30
0.0
  3
*D15
  1
*D15
  0
LINE
  5
2B7
330
2B4
100
AcDbEntity
  8
치수문자_일반주서
 62
     0
370
    -2
100
AcDbLine
 10
-59.90098686547915
 20
112.6317708567931
 30
0.0
 11
-75.3384868654792
 21
112.6317708567931
 31
0.0
  0
LINE
  5
2B8
330
2B4
100
AcDbEntity
  8
치수문자_일반주서
 62
     0
370
    -2
100
AcDbLine
 10
-59.90098686547915
 20
98.63177085679314
 30
0.0
 11
-75.33848686547915
 21
98.63177085679308
 31
0.0
  0
LINE
  5
2B9
330
2B4
100
AcDbEntity
  8
치수문자_일반주서
 62
     0
370
    -2
100
AcDbLine
 10
-75.3384868654792
 20
112.6317708567931
 30
0.0
 11
-75.33848686547915
 21
98.63177085679308
 31
0.0
  0
LINE
  5
2BA
330
2B4
100
AcDbEntity
  8
치수문자_일반주서
 62
     0
370
    -2
100
AcDbLine
 10
-75.33848686547921
 20
115.9337708567931
 30
0.0
 11
-75.33848686547923
 21
119.2357708567931
 31
0.0
  0
LINE
  5
2BB
330
2B4
100
AcDbEntity
  8
치수문자_일반주서
 62
     0
370
    -2
100
AcDbLine
 10
-75.33848686547914
 20
95.32977085679308
 30
0.0
 11
-75.33848686547913
 21
92.02777085679307
 31
0.0
  0
SOLID
  5
2BC
330
2B4
100
AcDbEntity
  8
치수문자_일반주서
 62
     0
100
AcDbTrace
 10
-75.88882019881254
 20
115.9337708567931
 30
0.0
 11
-74.78815353214588
 21
115.9337708567931
 31
0.0
 12
-75.3384868654792
 22
112.6317708567931
 32
0.0
 13
-75.3384868654792
 23
112.6317708567931
 33
0.0
  0
SOLID
  5
2BD
330
2B4
100
AcDbEntity
  8
치수문자_일반주서
 62
     0
100
AcDbTrace
 10
-74.78815353214581
 20
95.32977085679308
 30
0.0
 11
-75.88882019881247
 21
95.32977085679308
 31
0.0
 12
-75.33848686547915
 22
98.63177085679308
 32
0.0
 13
-75.33848686547915
 23
98.63177085679308
 33
0.0
  0
MTEXT
  5
2BE
330
2B4
100
AcDbEntity
  8
치수문자_일반주서
 62
     0
100
AcDbMText
 10
-79.71348686547918
 20
105.6317708567931
 30
0.0
 40
3.5
 41
0.0
 71
     2
 72
     1
  1
\A1;%%c14
  7
SLDTEXTSTYLE0
 11
-3.045183153257572E-15
 21
1.0
 31
0.0
 73
     1
 44
1.0
  0
POINT
  5
2BF
330
2B4
100
AcDbEntity
  8
Defpoints
 62
     0
100
AcDbPoint
 10
-59.83848686547915
 20
112.6317708567931
 30
0.0
  0
POINT
  5
2C0
330
2B4
100
AcDbEntity
  8
Defpoints
 62
     0
100
AcDbPoint
 10
-59.83848686547915
 20
98.63177085679314
 30
0.0
  0
POINT
  5
2C1
330
2B4
100
AcDbEntity
  8
Defpoints
 62
     0
100
AcDbPoint
 10
-75.33848686547917
 20
98.63177085679308
 30
0.0
  0
ENDBLK
  5
2B6
330
2B4
100
AcDbEntity
  8
0
100
AcDbBlockEnd
  0
BLOCK
  5
2C3
330
2C2
100
AcDbEntity
  8
0
100
AcDbBlockBegin
  2
*D16
 70
     1
 10
0.0
 20
0.0
 30
0.0
  3
*D16
  1
*D16
  0
LINE
  5
2C5
330
2C2
100
AcDbEntity
  8
치수문자_일반주서
 62
     0
370
    -2
100
AcDbLine
 10
22.72401313452087
 20
112.6317708567931
 30
0.0
 11
37.66151313452087
 21
112.6317708567932
 31
0.0
  0
LINE
  5
2C6
330
2C2
100
AcDbEntity
  8
치수문자_일반주서
 62
     0
370
    -2
100
AcDbLine
 10
22.72401313452086
 20
98.63177085679314
 30
0.0
 11
37.66151313452092
 21
98.6317708567932
 31
0.0
  0
LINE
  5
2C7
330
2C2
100
AcDbEntity
  8
치수문자_일반주서
 62
     0
370
    -2
100
AcDbLine
 10
37.66151313452087
 20
112.6317708567932
 30
0.0
 11
37.66151313452092
 21
98.6317708567932
 31
0.0
  0
LINE
  5
2C8
330
2C2
100
AcDbEntity
  8
치수문자_일반주서
 62
     0
370
    -2
100
AcDbLine
 10
37.66151313452085
 20
115.9337708567932
 30
0.0
 11
37.66151313452084
 21
119.2357708567932
 31
0.0
  0
LINE
  5
2C9
330
2C2
100
AcDbEntity
  8
치수문자_일반주서
 62
     0
370
    -2
100
AcDbLine
 10
37.66151313452093
 20
95.32977085679319
 30
0.0
 11
37.66151313452094
 21
92.02777085679318
 31
0.0
  0
SOLID
  5
2CA
330
2C2
100
AcDbEntity
  8
치수문자_일반주서
 62
     0
100
AcDbTrace
 10
37.11117980118752
 20
115.9337708567932
 30
0.0
 11
38.21184646785419
 21
115.9337708567932
 31
0.0
 12
37.66151313452087
 22
112.6317708567932
 32
0.0
 13
37.66151313452087
 23
112.6317708567932
 33
0.0
  0
SOLID
  5
2CB
330
2C2
100
AcDbEntity
  8
치수문자_일반주서
 62
     0
100
AcDbTrace
 10
38.21184646785427
 20
95.32977085679319
 30
0.0
 11
37.1111798011876
 21
95.32977085679319
 31
0.0
 12
37.66151313452092
 22
98.6317708567932
 32
0.0
 13
37.66151313452092
 23
98.6317708567932
 33
0.0
  0
MTEXT
  5
2CC
330
2C2
100
AcDbEntity
  8
치수문자_일반주서
 62
     0
100
AcDbMText
 10
33.28651313452089
 20
105.6974752385062
 30
0.0
 40
3.5
 41
0.0
 71
     2
 72
     1
  1
\A1;%%c14
  7
SLDTEXTSTYLE0
 11
-3.552713678800501E-15
 21
1.0
 31
0.0
 73
     1
 44
1.0
  0
POINT
  5
2CD
330
2C2
100
AcDbEntity
  8
Defpoints
 62
     0
100
AcDbPoint
 10
22.66151313452087
 20
112.6317708567931
 30
0.0
  0
POINT
  5
2CE
330
2C2
100
AcDbEntity
  8
Defpoints
 62
     0
100
AcDbPoint
 10
22.66151313452086
 20
98.63177085679314
 30
0.0
  0
POINT
  5
2CF
330
2C2
100
AcDbEntity
  8
Defpoints
 62
     0
100
AcDbPoint
 10
37.66151313452092
 20
98.6317708567932
 30
0.0
  0
ENDBLK
  5
2C4
330
2C2
100
AcDbEntity
  8
0
100
AcDbBlockEnd
  0
BLOCK
  5
2D1
330
2D0
100
AcDbEntity
  8
0
100
AcDbBlockBegin
  2
*D17
 70
     1
 10
0.0
 20
0.0
 30
0.0
  3
*D17
  1
*D17
  0
LINE
  5
2D3
330
2D0
100
AcDbEntity
  8
치수문자_일반주서
 62
     0
370
    -2
100
AcDbLine
 10
24.15228831619031
 20
95.89263236391436
 30
0.0
 11
40.47864118471615
 21
69.32844846625498
 31
0.0
  0
MTEXT
  5
2D4
330
2D0
100
AcDbEntity
  8
치수문자_일반주서
 62
     0
100
AcDbMText
 10
35.95715153594848
 20
81.69849476441357
 30
0.0
 40
3.5
 41
0.0
 71
     5
 72
     1
  1
\A1;R.50 [R0.02]
  7
SLDTEXTSTYLE0
 11
0.5236126201129557
 21
-0.8519564684057781
 31
0.0
 73
     1
 44
1.0
  0
SOLID
  5
2D5
330
2D0
100
AcDbEntity
  8
치수문자_일반주서
 62
     0
100
AcDbTrace
 10
24.62114835930296
 20
96.18079384251652
 30
0.0
 11
23.68342827307767
 21
95.6044708853122
 31
0.0
 12
22.42331944457733
 22
98.70579262259024
 32
0.0
 13
22.42331944457733
 23
98.70579262259024
 33
0.0
  0
LINE
  5
2D6
330
2D0
100
AcDbEntity
  8
치수문자_일반주서
 62
     0
100
AcDbLine
 10
22.07151313452085
 20
99.13177085679314
 30
0.0
 11
22.25151313452085
 21
99.13177085679314
 31
0.0
  0
LINE
  5
2D7
330
2D0
100
AcDbEntity
  8
치수문자_일반주서
 62
     0
100
AcDbLine
 10
22.16151313452085
 20
99.04177085679314
 30
0.0
 11
22.16151313452085
 21
99.22177085679314
 31
0.0
  0
POINT
  5
2D8
330
2D0
100
AcDbEntity
  8
Defpoints
 62
     0
100
AcDbPoint
 10
22.42331944457733
 20
98.70579262259024
 30
0.0
  0
POINT
  5
2D9
330
2D0
100
AcDbEntity
  8
Defpoints
 62
     0
100
AcDbPoint
 10
22.16151313452085
 20
99.13177085679314
 30
0.0
  0
ENDBLK
  5
2D2
330
2D0
100
AcDbEntity
  8
0
100
AcDbBlockEnd
  0
ENDSEC
  0
SECTION
  2
ENTITIES
  0
LINE
  5
96
330
1F
100
AcDbEntity
  8
외형선
  6
Continuous
370
    15
100
AcDbLine
 10
7.970122134864679
 20
5.556249999999997
 30
0.0
 11
-65.20000000000003
 21
5.556249999999992
 31
0.0
  0
LINE
  5
97
330
1F
100
AcDbEntity
  8
외형선
  6
Continuous
370
    15
100
AcDbLine
 10
-65.20000000000003
 20
-5.556250000000008
 30
0.0
 11
7.970122134864679
 21
-5.556250000000004
 31
0.0
  0
LINE
  5
98
330
1F
100
AcDbEntity
  8
외형선
  6
Continuous
370
    15
100
AcDbLine
 10
-65.20000000000003
 20
5.556249999999987
 30
0.0
 11
-66.20000000000003
 21
4.556249999999986
 31
0.0
  0
LINE
  5
99
330
1F
100
AcDbEntity
  8
외형선
  6
Continuous
370
    15
100
AcDbLine
 10
-66.20000000000003
 20
-4.556250000000004
 30
0.0
 11
-65.20000000000003
 21
-5.556250000000003
 31
0.0
  0
LINE
  5
9A
330
1F
100
AcDbEntity
  8
외형선
  6
Continuous
370
    15
100
AcDbLine
 10
8.399733045903806
 20
1.490087838111889
 30
0.0
 11
8.325943684858498
 21
1.530589163759727
 31
0.0
  0
SPLINE
  5
9B
330
1F
100
AcDbEntity
  8
외형선
  6
Continuous
370
    15
100
AcDbSpline
210
0.0
220
0.0
230
1.0
 70
     8
 71
     3
 72
     9
 73
     5
 74
     0
 42
0.000000001
 43
0.00000001
 40
0.0
 40
0.0
 40
0.0
 40
0.0
 40
0.4996973500531311
 40
0.9999999999999999
 40
0.9999999999999999
 40
0.9999999999999999
 40
0.9999999999999999
 10
10.00000000000005
 20
2.087656809827847
 30
0.0
 10
9.943086421943656
 20
2.117423670797384
 30
0.0
 10
9.829190324535201
 20
2.176993450317674
 30
0.0
 10
9.715362800241346
 20
2.2374870272809
 30
0.0
 10
9.658414588200241
 20
2.267752124140367
 30
0.0
  0
SPLINE
  5
9C
330
1F
100
AcDbEntity
  8
외형선
  6
Continuous
370
    15
100
AcDbSpline
210
0.0
220
0.0
230
1.0
 70
     8
 71
     3
 72
    12
 73
     8
 74
     0
 42
0.000000001
 43
0.00000001
 40
0.0
 40
0.0
 40
0.0
 40
0.0
 40
0.0327750709545269
 40
0.0744576218722366
 40
0.2095131539261418
 40
0.7536902104095067
 40
1.0
 40
1.0
 40
1.0
 40
1.0
 10
8.487451533190274
 20
4.370630114469942
 30
0.0
 10
8.485166272837976
 20
4.371032742227738
 30
0.0
 10
8.479974673056937
 20
4.371947422332835
 30
0.0
 10
8.45563474086782
 20
4.385740696493736
 30
0.0
 10
8.36189073259666
 20
4.45669857672847
 30
0.0
 10
8.242039781598212
 20
4.56558905534999
 30
0.0
 10
8.155281406134272
 20
4.649478329767499
 30
0.0
 10
8.128248145161146
 20
4.675617600311092
 30
0.0
  0
SPLINE
  5
9D
330
1F
100
AcDbEntity
  8
외형선
  6
Continuous
370
    15
100
AcDbSpline
210
0.0
220
0.0
230
1.0
 70
     8
 71
     3
 72
     9
 73
     5
 74
     0
 42
0.000000001
 43
0.00000001
 40
0.0
 40
0.0
 40
0.0
 40
0.0
 40
0.5345781770555984
 40
1.0
 40
1.0
 40
1.0
 40
1.0
 10
9.524368899370492
 20
4.416457645709922
 30
0.0
 10
9.337887440553407
 20
4.406630894310366
 30
0.0
 10
8.989048922968943
 20
4.3882486411221
 30
0.0
 10
8.643215768580403
 20
4.372791062112777
 30
0.0
 10
8.482257471430275
 20
4.365596767511951
 30
0.0
  0
SPLINE
  5
9E
330
1F
100
AcDbEntity
  8
외형선
  6
Continuous
370
    15
100
AcDbSpline
210
0.0
220
0.0
230
1.0
 70
     8
 71
     3
 72
     9
 73
     5
 74
     0
 42
0.000000001
 43
0.00000001
 40
0.0
 40
0.0
 40
0.0
 40
0.0
 40
0.4997669909852046
 40
1.0
 40
1.0
 40
1.0
 40
1.0
 10
7.970168842415159
 20
-4.353829442196632
 30
0.0
 10
8.223923332792234
 20
-4.361500092923126
 30
0.0
 10
8.73166893215013
 20
-4.376848547032452
 30
0.0
 10
9.242149033596032
 20
-4.4023053960171
 30
0.0
 10
9.497508030784493
 20
-4.415039752184726
 30
0.0
  0
SPLINE
  5
9F
330
1F
100
AcDbEntity
  8
0
  6
Continuous
 62
     1
370
    15
100
AcDbSpline
210
0.0
220
0.0
230
1.0
 70
     8
 71
     3
 72
    11
 73
     7
 74
     0
 42
0.000000001
 43
0.00000001
 40
0.0
 40
0.0
 40
0.0
 40
0.0
 40
0.3122176372616489
 40
0.499072977266673
 40
0.6866559105167142
 40
1.0
 40
1.0
 40
1.0
 40
1.0
 10
71.80404802243748
 20
1.423911651015124
 30
0.0
 10
71.64372210653872
 20
1.499795807870912
 30
0.0
 10
71.38744468133505
 20
1.62109495170388
 30
0.0
 10
71.03554201298401
 20
1.796300744917598
 30
0.0
 10
70.6827064606928
 20
1.975146150677345
 30
0.0
 10
70.42541508772072
 20
2.110180229113428
 30
0.0
 10
70.2644720214914
 20
2.19464788295628
 30
0.0
  0
SPLINE
  5
A0
330
1F
100
AcDbEntity
  8
0
  6
Continuous
 62
     1
370
    15
100
AcDbSpline
210
0.0
220
0.0
230
1.0
 70
     8
 71
     3
 72
     9
 73
     5
 74
     0
 42
0.000000001
 43
0.00000001
 40
0.0
 40
0.0
 40
0.0
 40
0.0
 40
0.4791440887203224
 40
1.0
 40
1.0
 40
1.0
 40
1.0
 10
11.33683454247871
 20
1.423760808830424
 30
0.0
 10
11.123118730262
 20
1.525360290394833
 30
0.0
 10
10.67708210527203
 20
1.737403982378504
 30
0.0
 10
10.23188404261893
 20
1.967703792409059
 30
0.0
 10
9.999999999995802
 20
2.087656809830061
 30
0.0
  0
SPLINE
  5
A1
330
1F
100
AcDbEntity
  8
0
  6
Continuous
 62
     1
370
    15
100
AcDbSpline
210
0.0
220
0.0
230
1.0
 70
     8
 71
     3
 72
    11
 73
     7
 74
     0
 42
0.000000001
 43
0.00000001
 40
0.0
 40
0.0
 40
0.0
 40
0.0
 40
0.3123925589276183
 40
0.4991780445867443
 40
0.6867352684613983
 40
1.0
 40
1.0
 40
1.0
 40
1.0
 10
41.57056026692685
 20
1.423780633732424
 30
0.0
 10
41.41010484041762
 20
1.499724814157392
 30
0.0
 10
41.15371004560188
 20
1.621077472531889
 30
0.0
 10
40.80172740996044
 20
1.796324326100374
 30
0.0
 10
40.44895493051967
 20
1.975137736138512
 30
0.0
 10
40.19167117167985
 20
2.110167524969365
 30
0.0
 10
40.03073987309951
 20
2.194628819228934
 30
0.0
  0
LINE
  5
A2
330
1F
100
AcDbEntity
  8
0
  6
Continuous
 62
     1
370
    15
100
AcDbLine
 10
26.12850810773053
 20
-5.556250000000011
 30
0.0
 11
28.82233154813811
 21
-5.556250000000011
 31
0.0
  0
LINE
  5
A3
330
1F
100
AcDbEntity
  8
0
  6
Continuous
 62
     1
370
    15
100
AcDbLine
 10
59.05566205879393
 20
5.556250000000004
 30
0.0
 11
56.3614281074297
 21
5.556250000000004
 31
0.0
  0
LINE
  5
A4
330
1F
100
AcDbEntity
  8
0
  6
Continuous
 62
     1
370
    15
100
AcDbLine
 10
56.36142810742968
 20
-5.556250000000011
 30
0.0
 11
59.05566205879387
 21
-5.556250000000011
 31
0.0
  0
LINE
  5
A5
330
1F
100
AcDbEntity
  8
0
  6
Continuous
 62
     1
370
    15
100
AcDbLine
 10
28.82233154813811
 20
5.556250000000004
 30
0.0
 11
26.12850810773057
 21
5.556250000000004
 31
0.0
  0
SPLINE
  5
A6
330
1F
100
AcDbEntity
  8
0
  6
Continuous
 62
     1
370
    15
100
AcDbSpline
210
0.0
220
0.0
230
1.0
 70
     8
 71
     3
 72
    11
 73
     7
 74
     0
 42
0.000000001
 43
0.00000001
 40
0.0
 40
0.0
 40
0.0
 40
0.0
 40
0.292189705844676
 40
0.4998346708378978
 40
0.7126520409848469
 40
1.0
 40
1.0
 40
1.0
 40
1.0
 10
31.37820671174421
 20
-4.623579895882502
 30
0.0
 10
32.18998238168711
 20
-4.551204055685531
 30
0.0
 10
33.5786474053475
 20
-4.427394237824598
 30
0.0
 10
35.5690603518047
 20
-4.347785477050017
 30
0.0
 10
37.55054657307143
 20
-4.325250127966557
 30
0.0
 10
38.9375903611389
 20
-4.382385018565712
 30
0.0
 10
39.73445527425378
 20
-4.415209353330629
 30
0.0
  0
SPLINE
  5
A7
330
1F
100
AcDbEntity
  8
0
  6
Continuous
 62
     1
370
    15
100
AcDbSpline
210
0.0
220
0.0
230
1.0
 70
     8
 71
     3
 72
    16
 73
    12
 74
     0
 42
0.000000001
 43
0.00000001
 40
0.0
 40
0.0
 40
0.0
 40
0.0
 40
0.2286254813797061
 40
0.4093220165354018
 40
0.5424823537035373
 40
0.627998536403912
 40
0.7021958354171298
 40
0.7847885197910125
 40
0.8760990362430238
 40
0.9749954360864298
 40
1.0
 40
1.0
 40
1.0
 40
1.0
 10
69.96855332247966
 20
4.415226925426242
 30
0.0
 10
69.61805092172398
 20
4.398423409333056
 30
0.0
 10
68.99052529067004
 20
4.368339058933262
 30
0.0
 10
68.16124012866399
 20
4.347528559364486
 30
0.0
 10
67.55119117523506
 20
4.339904692622188
 30
0.0
 10
67.10530128405077
 20
4.338701084119466
 30
0.0
 10
66.73672329897848
 20
4.340291258358258
 30
0.0
 10
66.35874692878026
 20
4.344383200178682
 30
0.0
 10
65.9423648156038
 20
4.352623793850126
 30
0.0
 10
65.6144774591933
 20
4.359979749157924
 30
0.0
 10
65.42420786816638
 20
4.367723279799753
 30
0.0
 10
65.38580939243721
 20
4.369286008619441
 30
0.0
  0
SPLINE
  5
A8
330
1F
100
AcDbEntity
  8
0
  6
Continuous
 62
     1
370
    15
100
AcDbSpline
210
0.0
220
0.0
230
1.0
 70
     8
 71
     3
 72
    17
 73
    13
 74
     0
 42
0.000000001
 43
0.00000001
 40
0.0
 40
0.0
 40
0.0
 40
0.0
 40
0.1437314966123321
 40
0.2594346977358423
 40
0.3599106558639647
 40
0.4656851572100327
 40
0.569920825591991
 40
0.6558440326839544
 40
0.7027086396414058
 40
0.7756832120164503
 40
0.8747085874628178
 40
1.0
 40
1.0
 40
1.0
 40
1.0
 10
61.61257556271535
 20
-4.623519880953559
 30
0.0
 10
62.00453433840799
 20
-4.585944856340478
 30
0.0
 10
62.71201814601771
 20
-4.51812210779425
 30
0.0
 10
63.71864034125387
 20
-4.446714748452233
 30
0.0
 10
64.62855449706315
 20
-4.396861561667613
 30
0.0
 10
65.49739259577657
 20
-4.362384776713592
 30
0.0
 10
66.32131374004338
 20
-4.343560029033652
 30
0.0
 10
66.97963809637888
 20
-4.338364957394661
 30
0.0
 10
67.5511655577527
 20
-4.339903621050626
 30
0.0
 10
68.16125130564737
 20
-4.347529026894341
 30
0.0
 10
68.99052117690891
 20
-4.36833888685588
 30
0.0
 10
69.61804944744809
 20
-4.398423347664545
 30
0.0
 10
69.96855332247966
 20
-4.415226925426249
 30
0.0
  0
SPLINE
  5
A9
330
1F
100
AcDbEntity
  8
0
  6
Continuous
 62
     1
370
    15
100
AcDbSpline
210
0.0
220
0.0
230
1.0
 70
     8
 71
     3
 72
    10
 73
     6
 74
     0
 42
0.000000001
 43
0.00000001
 40
0.0
 40
0.0
 40
0.0
 40
0.0
 40
0.5226217210539399
 40
0.9096889570196103
 40
1.0
 40
1.0
 40
1.0
 40
1.0
 10
39.73445527425375
 20
4.41520935333062
 30
0.0
 10
38.93772456552511
 20
4.383807383314301
 30
0.0
 10
37.55091437710195
 20
4.329148297781273
 30
0.0
 10
36.0106309880997
 20
4.335163295292526
 30
0.0
 10
35.27797605824281
 20
4.367855902670421
 30
0.0
 10
35.13937144680934
 20
4.374040732605634
 30
0.0
  0
SPLINE
  5
AA
330
1F
100
AcDbEntity
  8
0
  6
Continuous
 62
     1
370
    15
100
AcDbSpline
210
0.0
220
0.0
230
1.0
 70
     8
 71
     3
 72
    13
 73
     9
 74
     0
 42
0.000000001
 43
0.00000001
 40
0.0
 40
0.0
 40
0.0
 40
0.0
 40
0.2623035974946068
 40
0.4582590214179135
 40
0.5879221768953083
 40
0.692360223236771
 40
0.7978224601881883
 40
1.0
 40
1.0
 40
1.0
 40
1.0
 10
44.19515839875944
 20
-4.179096527672864
 30
0.0
 10
44.56213909043304
 20
-4.123683605060426
 30
0.0
 10
45.20327483638511
 20
-4.026874137203985
 30
0.0
 10
46.02342592041896
 20
-3.926079886946544
 30
0.0
 10
46.62357996607841
 20
-3.861138392062923
 30
0.0
 10
47.09765869580819
 20
-3.816051022368601
 30
0.0
 10
47.67249394303742
 20
-3.764824757121593
 30
0.0
 10
48.10211428191441
 20
-3.744269312021801
 30
0.0
 10
48.38445613016675
 20
-3.730760495432028
 30
0.0
  0
SPLINE
  5
AB
330
1F
100
AcDbEntity
  8
0
  6
Continuous
 62
     1
370
    15
100
AcDbSpline
210
0.0
220
0.0
230
1.0
 70
     8
 71
     3
 72
    19
 73
    15
 74
     0
 42
0.000000001
 43
0.00000001
 40
0.0
 40
0.0
 40
0.0
 40
0.0
 40
0.1129335134911692
 40
0.1975502167452922
 40
0.2532667481784134
 40
0.2983448480321108
 40
0.344174004527599
 40
0.5266502783456155
 40
0.5960614290961084
 40
0.6640137695950618
 40
0.7250129321670106
 40
0.7881807036946564
 40
0.8794541226486854
 40
1.0
 40
1.0
 40
1.0
 40
1.0
 10
84.13469683731591
 20
3.800184223645071
 30
0.0
 10
83.76860220628018
 20
3.771500175281599
 30
0.0
 10
83.12820706160903
 20
3.721324281552943
 30
0.0
 10
82.30941937674561
 20
3.683692544205043
 30
0.0
 10
81.71057395022741
 20
3.665659232968718
 30
0.0
 10
81.2362921517298
 20
3.657768543831584
 30
0.0
 10
80.35196975383137
 20
3.653273100040432
 30
0.0
 10
79.38938471022766
 20
3.676834809886338
 30
0.0
 10
78.35467689091777
 20
3.734907815843262
 30
0.0
 10
77.71314811803231
 20
3.781941079509732
 30
0.0
 10
77.0920878735092
 20
3.83745637090477
 30
0.0
 10
76.39537295741883
 20
3.909813973587418
 30
0.0
 10
75.50672046598243
 20
4.016802859111202
 30
0.0
 10
74.8202403371842
 20
4.120170057360982
 30
0.0
 10
74.42956606503982
 20
4.17899609360843
 30
0.0
  0
SPLINE
  5
AC
330
1F
100
AcDbEntity
  8
0
  6
Continuous
 62
     1
370
    15
100
AcDbSpline
210
0.0
220
0.0
230
1.0
 70
     8
 71
     3
 72
    19
 73
    15
 74
     0
 42
0.000000001
 43
0.00000001
 40
0.0
 40
0.0
 40
0.0
 40
0.0
 40
0.1129153664318776
 40
0.1975299971766123
 40
0.2532590556195956
 40
0.2983469479999607
 40
0.3441827083618881
 40
0.5266838890623017
 40
0.596113343621232
 40
0.6640805723145862
 40
0.7250716580890058
 40
0.7882331548839773
 40
0.8794900348866513
 40
1.0
 40
1.0
 40
1.0
 40
1.0
 10
23.66724825709714
 20
3.800191796333151
 30
0.0
 10
23.30122036362831
 20
3.771511708731494
 30
0.0
 10
22.66090460282282
 20
3.721339816260168
 30
0.0
 10
21.84215425587058
 20
3.683703124919661
 30
0.0
 10
21.24323566162603
 20
3.665663408189542
 30
0.0
 10
20.76884966258958
 20
3.65776926141803
 30
0.0
 10
19.88439484202727
 20
3.653272014857575
 30
0.0
 10
18.92166272588711
 20
3.676839598597024
 30
0.0
 10
17.88675377470746
 20
3.73493175718846
 30
0.0
 10
17.2451300484618
 20
3.781980157450457
 30
0.0
 10
16.62407265153988
 20
3.837503074313297
 30
0.0
 10
15.92748105812275
 20
3.909854885080032
 30
0.0
 10
15.03902612579505
 20
4.016826590530322
 30
0.0
 10
14.35271993050076
 20
4.12016708353906
 30
0.0
 10
13.96216429084586
 20
4.178974963499953
 30
0.0
  0
SPLINE
  5
AD
330
1F
100
AcDbEntity
  8
0
  6
Continuous
 62
     1
370
    15
100
AcDbSpline
210
0.0
220
0.0
230
1.0
 70
     8
 71
     3
 72
    13
 73
     9
 74
     0
 42
0.000000001
 43
0.00000001
 40
0.0
 40
0.0
 40
0.0
 40
0.0
 40
0.2597615428059431
 40
0.4518689870011037
 40
0.597094734668633
 40
0.7473280047339573
 40
0.9023119711571107
 40
1.0
 40
1.0
 40
1.0
 40
1.0
 10
13.96216429084586
 20
-4.178974963499959
 30
0.0
 10
14.32546423640181
 20
-4.124088570150242
 30
0.0
 10
14.95744376887081
 20
-4.028610776573966
 30
0.0
 10
15.78793510565319
 20
-3.926119388952371
 30
0.0
 10
16.4612927732926
 20
-3.853419623087775
 30
0.0
 10
17.08685893765881
 20
-3.795429813421598
 30
0.0
 10
17.64730737225458
 20
-3.750953281619728
 30
0.0
 10
17.9988766084034
 20
-3.730693253122246
 30
0.0
 10
18.13480028148406
 20
-3.722860322345189
 30
0.0
  0
SPLINE
  5
AE
330
1F
100
AcDbEntity
  8
0
  6
Continuous
 62
     1
370
    15
100
AcDbSpline
210
0.0
220
0.0
230
1.0
 70
     8
 71
     3
 72
    14
 73
    10
 74
     0
 42
0.000000001
 43
0.00000001
 40
0.0
 40
0.0
 40
0.0
 40
0.0
 40
0.2644844800171798
 40
0.4619166810912584
 40
0.5968691731361617
 40
0.7224171243320634
 40
0.8534609995777664
 40
0.9868937221783216
 40
1.0
 40
1.0
 40
1.0
 40
1.0
 10
74.42956606503982
 20
-4.178996093608437
 30
0.0
 10
74.79912200499116
 20
-4.123202892809025
 30
0.0
 10
75.44454382047459
 20
-4.025761220091409
 30
0.0
 10
76.27533567299388
 20
-3.923775808091678
 30
0.0
 10
76.90747422244911
 20
-3.855992009986343
 30
0.0
 10
77.44879849118432
 20
-3.804718091428008
 30
0.0
 10
77.99034301495148
 20
-3.761261693932533
 30
0.0
 10
78.37618553846444
 20
-3.73374810191351
 30
0.0
 10
78.57986127084231
 20
-3.723142772486338
 30
0.0
 10
78.5980777915391
 20
-3.72219424415284
 30
0.0
  0
SPLINE
  5
AF
330
1F
100
AcDbEntity
  8
0
  6
Continuous
 62
     1
370
    15
100
AcDbSpline
210
0.0
220
0.0
230
1.0
 70
     8
 71
     3
 72
    20
 73
    16
 74
     0
 42
0.000000001
 43
0.00000001
 40
0.0
 40
0.0
 40
0.0
 40
0.0
 40
0.1128505777350969
 40
0.1973089119841993
 40
0.2548304924839996
 40
0.3088474300472026
 40
0.3654040964840206
 40
0.4225797466273767
 40
0.479454685911065
 40
0.5794621934183543
 40
0.6758513095924972
 40
0.7206310785640946
 40
0.7843584965707869
 40
0.8776339230216811
 40
1.0
 40
1.0
 40
1.0
 40
1.0
 10
53.90132545143109
 20
3.800218471185021
 30
0.0
 10
53.5338181093376
 20
3.771409808669091
 30
0.0
 10
52.89126514000424
 20
3.721040497578088
 30
0.0
 10
52.06486881786199
 20
3.683147495036926
 30
0.0
 10
51.43646782461226
 20
3.664507959548561
 30
0.0
 10
50.89561812479403
 20
3.656354651637533
 30
0.0
 10
50.3528832603013
 20
3.655795698141848
 30
0.0
 10
49.80085175326322
 20
3.663284031062465
 30
0.0
 10
49.10882436485402
 20
3.68292963929605
 30
0.0
 10
48.2891118149945
 20
3.722391602033688
 30
0.0
 10
47.50885771404864
 20
3.77916987962201
 30
0.0
 10
46.84615960897155
 20
3.838966592602286
 30
0.0
 10
46.19407998659794
 20
3.906085459765781
 30
0.0
 10
45.29097739259082
 20
4.014186025716292
 30
0.0
 10
44.5918686476592
 20
4.119395348330607
 30
0.0
 10
44.19515839875944
 20
4.179096527672857
 30
0.0
  0
SPLINE
  5
B0
330
1F
100
AcDbEntity
  8
외형선
  6
Continuous
370
    15
100
AcDbSpline
210
0.0
220
0.0
230
1.0
 70
     8
 71
     3
 72
    10
 73
     6
 74
     0
 42
0.000000001
 43
0.00000001
 40
0.0
 40
0.0
 40
0.0
 40
0.0
 40
0.5
 40
0.5
 40
1.0
 40
1.0
 40
1.0
 40
1.0
 10
9.99999999999965
 20
2.086610302892467
 30
0.0
 10
9.66121224154533
 20
2.267722436200649
 30
0.0
 10
9.321132059439982
 20
2.445181418974471
 30
0.0
 10
8.644052465095724
 20
2.789842992924972
 30
0.0
 10
8.30866168005188
 20
2.956800657695689
 30
0.0
 10
7.970250033530258
 20
3.118475087300542
 30
0.0
  0
LINE
  5
B1
330
1F
100
AcDbEntity
  8
외형선
  6
Continuous
370
    15
100
AcDbLine
 10
9.999999999999986
 20
2.086610302892288
 30
0.0
 11
9.999999999999982
 21
0.5832435089256158
 31
0.0
  0
SPLINE
  5
B2
330
1F
100
AcDbEntity
  8
외형선
  6
Continuous
370
    15
100
AcDbSpline
210
0.0
220
0.0
230
1.0
 70
     8
 71
     3
 72
    10
 73
     6
 74
     0
 42
0.000000001
 43
0.00000001
 40
0.0
 40
0.0
 40
0.0
 40
0.0
 40
0.5
 40
0.5
 40
1.0
 40
1.0
 40
1.0
 40
1.0
 10
9.99999999999965
 20
0.583243508925808
 30
0.0
 10
9.66119090142301
 20
0.7775917152640798
 30
0.0
 10
9.321089216609757
 20
0.9711005646679369
 30
0.0
 10
8.643967360942641
 20
1.353217654679549
 30
0.0
 10
8.308555513897343
 20
1.541535367265326
 30
0.0
 10
7.97012213486469
 20
1.727212306276071
 30
0.0
  0
LINE
  5
B3
330
1F
100
AcDbEntity
  8
외형선
  6
Continuous
370
    15
100
AcDbLine
 10
7.970122134864679
 20
-5.556250000000004
 30
0.0
 11
7.97012213486469
 21
1.727209575614011
 31
0.0
  0
LINE
  5
B4
330
1F
100
AcDbEntity
  8
외형선
  6
Continuous
370
    15
100
AcDbLine
 10
7.970122134864686
 20
3.11867216705437
 30
0.0
 11
7.970122134864679
 21
5.556249999999997
 31
0.0
  0
LINE
  5
B5
330
1F
100
AcDbEntity
  8
외형선
  6
Continuous
370
    15
100
AcDbLine
 10
-65.20000000000003
 20
5.556249999999987
 30
0.0
 11
-65.20000000000003
 21
-5.556250000000008
 31
0.0
  0
LINE
  5
B6
330
1F
100
AcDbEntity
  8
외형선
  6
Continuous
370
    15
100
AcDbLine
 10
-66.20000000000003
 20
4.556249999999987
 30
0.0
 11
-66.20000000000003
 21
-4.556250000000004
 31
0.0
  0
SPLINE
  5
B7
330
1F
100
AcDbEntity
  8
외형선
  6
Continuous
370
    15
100
AcDbSpline
210
0.0
220
0.0
230
1.0
 70
    24
 71
     3
 72
    10
 73
     6
 74
     0
 42
0.000000001
 43
0.00000001
 40
0.0
 40
0.0
 40
0.0
 40
0.0
 40
0.2480067601463892
 40
0.6560844254936874
 40
1.0
 40
1.0
 40
1.0
 40
1.0
 10
9.999999999999986
 20
0.5832435089256146
 30
0.0
 10
9.999999999999986
 20
0.570729546576883
 30
0.0
 10
9.999999999999986
 20
0.5376247401055958
 30
0.0
 10
9.999999999999986
 20
0.4243955888376977
 30
0.0
 10
9.999999999999986
 20
0.3039971372126929
 30
0.0
 10
9.999999999999986
 20
0.248934271663071
 30
0.0
  0
SPLINE
  5
B8
330
1F
100
AcDbEntity
  8
외형선
  6
Continuous
370
    15
100
AcDbSpline
210
0.0
220
0.0
230
1.0
 70
     8
 71
     3
 72
    10
 73
     6
 74
     0
 42
0.000000001
 43
0.00000001
 40
0.0
 40
0.0
 40
0.0
 40
0.0
 40
0.5
 40
0.5
 40
1.0
 40
1.0
 40
1.0
 40
1.0
 10
9.99999999918604
 20
0.24893427199048
 30
0.0
 10
9.661196042631685
 20
0.3854512338222476
 30
0.0
 10
9.321099539019823
 20
0.521677754683233
 30
0.0
 10
8.643987866456191
 20
0.7912813918642715
 30
0.0
 10
8.308581094446291
 20
0.9244517203776169
 30
0.0
 10
7.970152951980282
 20
1.05606121283405
 30
0.0
  0
LINE
  5
B9
330
1F
100
AcDbEntity
  8
외형선
  6
Continuous
370
    15
100
AcDbLine
 10
8.487467507415284
 20
4.335721358973813
 30
0.0
 11
8.48363594747672
 21
4.33490326511753
 31
0.0
  0
SPLINE
  5
BA
330
1F
100
AcDbEntity
  8
외형선
  6
Continuous
370
    15
100
AcDbSpline
210
0.0
220
0.0
230
1.0
 70
     8
 71
     3
 72
    15
 73
    11
 74
     0
 42
0.000000001
 43
0.00000001
 40
0.0
 40
0.0
 40
0.0
 40
0.0
 40
0.0958392324594169
 40
0.242579110876312
 40
0.3568958177008228
 40
0.4710012565946708
 40
0.5558446168200761
 40
0.7898452933264956
 40
0.9819846613846028
 40
0.9999999999999999
 40
0.9999999999999999
 40
0.9999999999999999
 40
0.9999999999999999
 10
8.127984550313863
 20
4.675358402892113
 30
0.0
 10
8.118805155011433
 20
4.684818187269052
 30
0.0
 10
8.095571146414908
 20
4.708761889908899
 30
0.0
 10
8.059959007349246
 20
4.74645773914407
 30
0.0
 10
8.027071581866501
 20
4.782075370330727
 30
0.0
 10
8.006032372020659
 20
4.80539659119262
 30
0.0
 10
7.985124989742369
 20
4.828938665073626
 30
0.0
 10
7.972923980445129
 20
4.843016371550266
 30
0.0
 10
7.970192911326361
 20
4.84591381428796
 30
0.0
 10
7.970127723073784
 20
4.845745772562455
 30
0.0
 10
7.970122134864683
 20
4.845731367324361
 30
0.0
  0
LINE
  5
BB
330
1F
100
AcDbEntity
  8
외형선
  6
Continuous
370
    15
100
AcDbLine
 10
9.999999999999996
 20
4.435886252974497
 30
0.0
 11
9.52336365804432
 21
4.404761375355933
 31
0.0
  0
SPLINE
  5
BC
330
1F
100
AcDbEntity
  8
외형선
  6
Continuous
370
    15
100
AcDbSpline
210
0.0
220
0.0
230
1.0
 70
    24
 71
     3
 72
    12
 73
     8
 74
     0
 42
0.000000001
 43
0.00000001
 40
0.0
 40
0.0
 40
0.0
 40
0.0
 40
0.2713848702280242
 40
0.4698574935905209
 40
0.6740858364760204
 40
0.85311619321917
 40
1.0
 40
1.0
 40
1.0
 40
1.0
 10
9.999999999999986
 20
4.435886252974497
 30
0.0
 10
9.999999999999986
 20
4.381870145144693
 30
0.0
 10
9.999999999999982
 20
4.288350292630064
 30
0.0
 10
9.999999999999986
 20
3.867293450228906
 30
0.0
 10
9.999999999999982
 20
3.362933899548035
 30
0.0
 10
9.999999999999986
 20
2.791311729657875
 30
0.0
 10
9.999999999999986
 20
2.365084734138225
 30
0.0
 10
9.999999999999986
 20
2.17299169044307
 30
0.0
  0
SPLINE
  5
BD
330
1F
100
AcDbEntity
  8
외형선
  6
Continuous
370
    15
100
AcDbSpline
210
0.0
220
0.0
230
1.0
 70
     8
 71
     3
 72
    10
 73
     6
 74
     0
 42
0.000000001
 43
0.00000001
 40
0.0
 40
0.0
 40
0.0
 40
0.0
 40
0.5
 40
0.5
 40
1.0
 40
1.0
 40
1.0
 40
1.0
 10
9.9999999999993
 20
-4.435886252974483
 30
0.0
 10
9.661198694658458
 20
-4.425880001796635
 30
0.0
 10
9.32110486245708
 20
-4.407607012487591
 30
0.0
 10
8.643998440263958
 20
-4.354843969828564
 30
0.0
 10
8.308594284919176
 20
-4.320443808078061
 30
0.0
 10
7.970168842415159
 20
-4.278009937081997
 30
0.0
  0
SPLINE
  5
BE
330
1F
100
AcDbEntity
  8
외형선
  6
Continuous
370
    15
100
AcDbSpline
210
0.0
220
0.0
230
1.0
 70
    24
 71
     3
 72
    14
 73
    10
 74
     0
 42
0.000000001
 43
0.00000001
 40
0.0
 40
0.0
 40
0.0
 40
0.0
 40
0.25
 40
0.25
 40
0.5
 40
0.5
 40
0.75
 40
0.75
 40
1.0
 40
1.0
 40
1.0
 40
1.0
 10
9.999999999999986
 20
0.2489342716625105
 30
0.0
 10
9.999999999999986
 20
-0.2377006968856739
 30
0.0
 10
9.999999999999986
 20
-0.73091743292136
 30
0.0
 10
9.999999999999986
 20
-1.682580490401925
 30
0.0
 10
9.999999999999986
 20
-2.140496558614283
 30
0.0
 10
9.999999999999986
 20
-2.973124234418559
 30
0.0
 10
9.999999999999986
 20
-3.347392183174124
 30
0.0
 10
9.999999999999986
 20
-3.980328878276384
 30
0.0
 10
9.999999999999986
 20
-4.238915039764193
 30
0.0
 10
9.999999999999986
 20
-4.435886252974504
 30
0.0
  0
SPLINE
  5
BF
330
1F
100
AcDbEntity
  8
0
  6
Continuous
 62
     1
370
    15
100
AcDbSpline
210
0.0
220
0.0
230
1.0
 70
     8
 71
     3
 72
    20
 73
    16
 74
     0
 42
0.000000001
 43
0.00000001
 40
0.0
 40
0.0
 40
0.0
 40
0.0
 40
0.0806904013703635
 40
0.1613812990296296
 40
0.2420726786161598
 40
0.3227645257446039
 40
0.4034568260065867
 40
0.482714421082265
 40
0.5619720472998524
 40
0.6412297049287886
 40
0.7204873942384041
 40
0.8011796672291466
 40
0.88187237980502
 40
0.9625655175150004
 40
1.0
 40
1.0
 40
1.0
 40
1.0
 10
86.19999999999999
 20
-5.272552704669752
 30
0.0
 10
85.4699057209768
 20
-5.113180082239039
 30
0.0
 10
84.00971267246209
 20
-4.794433857151181
 30
0.0
 10
81.81941321130685
 20
-3.996140477967928
 30
0.0
 10
79.62909767037463
 20
-3.011243275302297
 30
0.0
 10
77.4387690506615
 20
-1.865793271434032
 30
0.0
 10
75.26140290095117
 20
-0.6328306540112457
 30
0.0
 10
73.09704148600508
 20
0.6246570045240878
 30
0.0
 10
70.94565370390475
 20
1.843365543766941
 30
0.0
 10
68.79426513866683
 20
2.970658061259908
 30
0.0
 10
66.62990159652553
 20
3.954881309689814
 30
0.0
 10
64.45252884507637
 20
4.748614661137986
 30
0.0
 10
62.26217151696112
 20
5.286168087293428
 30
0.0
 10
60.46321395210255
 20
5.55254419864303
 30
0.0
 10
59.39437551013614
 20
5.528208019017523
 30
0.0
 10
59.05566205879393
 20
5.520495916729852
 30
0.0
  0
SPLINE
  5
C0
330
1F
100
AcDbEntity
  8
0
  6
Continuous
 62
     1
370
    15
100
AcDbSpline
210
0.0
220
0.0
230
1.0
 70
     8
 71
     3
 72
    18
 73
    14
 74
     0
 42
0.000000001
 43
0.00000001
 40
0.0
 40
0.0
 40
0.0
 40
0.0
 40
0.0460418592558537
 40
0.1316301880206414
 40
0.2172185420196877
 40
0.3028069215469017
 40
0.4024133886118392
 40
0.5020435083796003
 40
0.6016752668416533
 40
0.7012866397751567
 40
0.8008557298935852
 40
0.9004036744691238
 40
1.0
 40
1.0
 40
1.0
 40
1.0
 10
35.13937144680934
 20
-4.37404073260564
 30
0.0
 10
34.75359968499028
 20
-4.514469034839022
 30
0.0
 10
33.65070743949866
 20
-4.915942913721306
 30
0.0
 10
31.83070431163661
 20
-5.324389880596759
 30
0.0
 10
29.67930667467039
 20
-5.582278888415391
 30
0.0
 10
27.41063524766572
 20
-5.550096567325538
 30
0.0
 10
25.02354570436379
 20
-5.187477844833043
 30
0.0
 10
22.51881317720728
 20
-4.456737632395369
 30
0.0
 10
20.01398732117413
 20
-3.426410491582234
 30
0.0
 10
17.50977921722627
 20
-2.164734462998205
 30
0.0
 10
15.00651469689554
 20
-0.7600582063429715
 30
0.0
 10
12.50357899105081
 20
0.70613522561909
 30
0.0
 10
10.83466148165167
 20
1.626377421286038
 30
0.0
 10
9.999999999995802
 20
2.086610302894523
 30
0.0
  0
SPLINE
  5
C1
330
1F
100
AcDbEntity
  8
0
  6
Continuous
 62
     1
370
    15
100
AcDbSpline
210
0.0
220
0.0
230
1.0
 70
     8
 71
     3
 72
    13
 73
     9
 74
     0
 42
0.000000001
 43
0.00000001
 40
0.0
 40
0.0
 40
0.0
 40
0.0
 40
0.1692900013513103
 40
0.3386430861887014
 40
0.508036748265307
 40
0.6774483072269603
 40
0.846855005765529
 40
1.0
 40
1.0
 40
1.0
 40
1.0
 10
86.2
 20
-4.383727143895905
 30
0.0
 10
85.38548571151277
 20
-4.207573840978917
 30
0.0
 10
83.75615361749445
 20
-3.855201594148168
 30
0.0
 10
81.31162440936043
 20
-3.004066425166563
 30
0.0
 10
78.86643580585752
 20
-1.97967295626315
 30
0.0
 10
76.4209497414023
 20
-0.8248514755577827
 30
0.0
 10
74.0536535961324
 20
0.3505468801941103
 30
0.0
 10
72.50161110859952
 20
1.088626748828279
 30
0.0
 10
71.76471360308209
 20
1.439061236568183
 30
0.0
  0
SPLINE
  5
C2
330
1F
100
AcDbEntity
  8
0
  6
Continuous
 62
     1
370
    15
100
AcDbSpline
210
0.0
220
0.0
230
1.0
 70
     8
 71
     3
 72
    17
 73
    13
 74
     0
 42
0.000000001
 43
0.00000001
 40
0.0
 40
0.0
 40
0.0
 40
0.0
 40
0.0704009992562773
 40
0.1919991504008395
 40
0.3136380818533259
 40
0.4353015875277492
 40
0.5569733558156986
 40
0.6786370395701363
 40
0.8002763264170158
 40
0.9218750087461398
 40
0.993050509518306
 40
1.0
 40
1.0
 40
1.0
 40
1.0
 10
31.38676928774419
 20
-4.586256852469478
 30
0.0
 10
30.91514094562164
 20
-4.638246847996483
 30
0.0
 10
29.62890577923073
 20
-4.780035104924366
 30
0.0
 10
27.52772415784482
 20
-4.675102721394651
 30
0.0
 10
25.08297469757581
 20
-4.303351346715642
 30
0.0
 10
22.63766278968807
 20
-3.641882369245135
 30
0.0
 10
20.19216283422276
 20
-2.750092702419635
 30
0.0
 10
17.74683532056968
 20
-1.681326637630057
 30
0.0
 10
15.30212365173943
 20
-0.5031093132223661
 30
0.0
 10
13.19559748543677
 20
0.5341364135119133
 30
0.0
 10
11.85787320047732
 20
1.185012563456863
 30
0.0
 10
11.33473710562786
 20
1.423804711804593
 30
0.0
 10
11.28820232522739
 20
1.445046106336766
 30
0.0
  0
LINE
  5
C3
330
1F
100
AcDbEntity
  8
0
  6
Continuous
 62
     1
370
    15
100
AcDbLine
 10
86.19999999999999
 20
-5.27255270466976
 30
0.0
 11
86.19999999999999
 21
-4.383727143895904
 31
0.0
  0
SPLINE
  5
C4
330
1F
100
AcDbEntity
  8
0
  6
Continuous
 62
     1
370
    15
100
AcDbSpline
210
0.0
220
0.0
230
1.0
 70
     8
 71
     3
 72
    25
 73
    21
 74
     0
 42
0.000000001
 43
0.00000001
 40
0.0
 40
0.0
 40
0.0
 40
0.0
 40
0.0255247805385254
 40
0.0854302795490078
 40
0.1453360941749902
 40
0.2052422136726008
 40
0.2651486272829224
 40
0.3239883890697142
 40
0.3828281709967924
 40
0.4416679732653043
 40
0.5005077960763274
 40
0.560414192026221
 40
0.6203208719740135
 40
0.6802278251331079
 40
0.7401350407034043
 40
0.8000425078718264
 40
0.8588819943191652
 40
0.9177214979122122
 40
0.9765610188530831
 40
1.0
 40
1.0
 40
1.0
 40
1.0
 10
65.3858093924372
 20
-4.369286008619447
 30
0.0
 10
65.0747174425164
 20
-4.485594512063991
 30
0.0
 10
64.03350683515914
 20
-4.874873783170635
 30
0.0
 10
62.26217138951249
 20
-5.287784924202012
 30
0.0
 10
60.07179837425527
 20
-5.575452356362697
 30
0.0
 10
57.88141542542164
 20
-5.562174807280782
 30
0.0
 10
55.70401001461207
 20
-5.267311276356787
 30
0.0
 10
53.53964783526502
 20
-4.707319939019451
 30
0.0
 10
51.38827343245471
 20
-3.916680485331817
 30
0.0
 10
49.23689833780132
 20
-2.931050418211959
 30
0.0
 10
47.07253432880083
 20
-1.792757804825252
 30
0.0
 10
44.89512306160159
 20
-0.5560739252655228
 30
0.0
 10
42.70471543656207
 20
0.716680171662463
 30
0.0
 10
40.51429146393489
 20
1.952383083383366
 30
0.0
 10
38.32386159170652
 20
3.087714992530981
 30
0.0
 10
36.1464220969692
 20
4.056716677063473
 30
0.0
 10
33.98205951120922
 20
4.819322091814627
 30
0.0
 10
31.83069569846408
 20
5.320341234288805
 30
0.0
 10
30.11078808250046
 20
5.560489960983003
 30
0.0
 10
29.1079996088362
 20
5.531323787715956
 30
0.0
 10
28.82233154813811
 20
5.523015112083959
 30
0.0
  0
SPLINE
  5
C5
330
1F
100
AcDbEntity
  8
0
  6
Continuous
 62
     1
370
    15
100
AcDbSpline
210
0.0
220
0.0
230
1.0
 70
     8
 71
     3
 72
    16
 73
    12
 74
     0
 42
0.000000001
 43
0.00000001
 40
0.0
 40
0.0
 40
0.0
 40
0.0
 40
0.114928092261744
 40
0.2367999775293325
 40
0.358661376060328
 40
0.4804959595933523
 40
0.6022875149711695
 40
0.7240647841356426
 40
0.8458884747965298
 40
0.967743728739306
 40
1.0
 40
1.0
 40
1.0
 40
1.0
 10
61.61463818797461
 20
-4.615232593690932
 30
0.0
 10
60.84589238072603
 20
-4.669878185209666
 30
0.0
 10
59.26195423035942
 20
-4.782470977703277
 30
0.0
 10
56.86285871317938
 20
-4.573097215951059
 30
0.0
 10
54.41760368763052
 20
-4.090635644574255
 30
0.0
 10
51.9729574563577
 20
-3.338973335022923
 30
0.0
 10
49.52902886009024
 20
-2.3753270794531
 30
0.0
 10
47.08525058287301
 20
-1.256506336485512
 30
0.0
 10
44.6408366666561
 20
-0.065325824451109
 30
0.0
 10
42.79514703417613
 20
0.8595733052501178
 30
0.0
 10
41.764296422641
 20
1.326687568289063
 30
0.0
 10
41.54853451313405
 20
1.424456793260591
 30
0.0
  0
SPLINE
  5
C6
330
1F
100
AcDbEntity
  8
0
  6
Continuous
 62
     1
370
    15
100
AcDbSpline
210
0.0
220
0.0
230
1.0
 70
     8
 71
     3
 72
    14
 73
    10
 74
     0
 42
0.000000001
 43
0.00000001
 40
0.0
 40
0.0
 40
0.0
 40
0.0
 40
0.1552475787991831
 40
0.3104197466542015
 40
0.4656248637215097
 40
0.6208958890655649
 40
0.776198693820355
 40
0.9314989512521594
 40
1.0
 40
1.0
 40
1.0
 40
1.0
 10
10.00000000000099
 20
0.5832435089250346
 30
0.0
 10
10.83465690072935
 20
0.1002725164252052
 30
0.0
 10
12.50356527064619
 20
-0.8654348671795055
 30
0.0
 10
15.00648765033498
 20
-2.267326146666421
 30
0.0
 10
17.50973713143955
 20
-3.51196592923715
 30
0.0
 10
20.0139361352458
 20
-4.526744218419924
 30
0.0
 10
22.51873059707189
 20
-5.215098931819971
 30
0.0
 10
24.55702750200437
 20
-5.555105738565401
 30
0.0
 10
25.7602316714841
 20
-5.520530226074108
 30
0.0
 10
26.12850810773053
 20
-5.509947361715191
 30
0.0
  0
SPLINE
  5
C7
330
1F
100
AcDbEntity
  8
0
  6
Continuous
 62
     1
370
    15
100
AcDbSpline
210
0.0
220
0.0
230
1.0
 70
     8
 71
     3
 72
    25
 73
    21
 74
     0
 42
0.000000001
 43
0.00000001
 40
0.0
 40
0.0
 40
0.0
 40
0.0
 40
0.0240495229674113
 40
0.0819434867389469
 40
0.1398371448092549
 40
0.1977304868076462
 40
0.2556235023790153
 40
0.3124877017906463
 40
0.3693518777217474
 40
0.426216030364986
 40
0.4830801599131094
 40
0.5409731955335448
 40
0.5988658950131779
 40
0.6567582480285568
 40
0.7146502456153757
 40
0.7725422855904447
 40
0.8294066762254829
 40
0.8862710920442101
 40
0.9431355332384657
 40
1.0
 40
1.0
 40
1.0
 40
1.0
 10
48.3659542003477
 20
3.722751040488788
 30
0.0
 10
48.66925318046017
 20
3.857655393398537
 30
0.0
 10
49.70267808408342
 20
4.317312454732599
 30
0.0
 10
51.46622265937352
 20
4.887352329729139
 30
0.0
 10
53.65658427655828
 20
5.386298892053253
 30
0.0
 10
55.84693020620861
 20
5.595878149722256
 30
0.0
 10
58.02429529548544
 20
5.520336868181267
 30
0.0
 10
60.18866220314916
 20
5.165633631710089
 30
0.0
 10
62.34005820837646
 20
4.556204505060671
 30
0.0
 10
64.49145340376508
 20
3.719961897134034
 30
0.0
 10
66.65581811306927
 20
2.692478982888921
 30
0.0
 10
68.83317636034748
 20
1.521557757372513
 30
0.0
 10
71.02349260791301
 20
0.2651922301947869
 30
0.0
 10
73.21379534705152
 20
-1.004829221968579
 30
0.0
 10
75.40408509036965
 20
-2.223117842471599
 30
0.0
 10
77.5814138779734
 20
-3.31983839087536
 30
0.0
 10
79.74577806288764
 20
-4.243323215987989
 30
0.0
 10
81.89718455108165
 20
-4.944829991956159
 30
0.0
 10
84.04859178247193
 20
-5.420074557883557
 30
0.0
 10
85.48286382001157
 20
-5.507727474139275
 30
0.0
 10
86.2
 20
-5.556249999999996
 30
0.0
  0
SPLINE
  5
C8
330
1F
100
AcDbEntity
  8
0
  6
Continuous
 62
     1
370
    15
100
AcDbSpline
210
0.0
220
0.0
230
1.0
 70
     8
 71
     3
 72
    16
 73
    12
 74
     0
 42
0.000000001
 43
0.00000001
 40
0.0
 40
0.0
 40
0.0
 40
0.0
 40
0.0463775628924814
 40
0.1785502320297691
 40
0.310676539362853
 40
0.4428417323807287
 40
0.5750504008868025
 40
0.7072841853903917
 40
0.8395246177629087
 40
0.971753201080319
 40
1.0
 40
1.0
 40
1.0
 40
1.0
 10
72.3880206911801
 20
-0.5215012920953693
 30
0.0
 10
72.1021296185645
 20
-0.4083480345334312
 30
0.0
 10
71.001469856233
 20
0.0272837480043183
 30
0.0
 10
69.08639261033987
 20
0.8112434922492874
 30
0.0
 10
66.64263458863921
 20
1.750018668104608
 30
0.0
 10
64.19853049392411
 20
2.579294712750511
 30
0.0
 10
61.75368312196952
 20
3.240920222542127
 30
0.0
 10
59.30832192682423
 20
3.700236034670973
 30
0.0
 10
56.86283151525254
 20
3.901487030032911
 30
0.0
 10
55.0583729081528
 20
3.921621016985355
 30
0.0
 10
54.0691509258444
 20
3.800677174745535
 30
0.0
 10
53.89502855248303
 20
3.779388698315707
 30
0.0
  0
LINE
  5
C9
330
1F
100
AcDbEntity
  8
0
  6
Continuous
 62
     1
370
    15
100
AcDbLine
 10
11.92592799500946
 20
-0.5252341473326759
 30
0.0
 11
9.999999999187008
 21
0.24893427199009
 31
0.0
  0
SPLINE
  5
CA
330
1F
100
AcDbEntity
  8
외형선
  6
Continuous
370
    15
100
AcDbSpline
210
0.0
220
0.0
230
1.0
 70
    24
 71
     3
 72
    11
 73
     7
 74
     0
 42
0.000000001
 43
0.00000001
 40
0.0
 40
0.0
 40
0.0
 40
0.0
 40
0.1758312628761669
 40
0.4603992451869363
 40
0.7532197182627571
 40
1.0
 40
1.0
 40
1.0
 40
1.0
 10
9.999999999999986
 20
0.6139514749385842
 30
0.0
 10
9.999999999999986
 20
0.61451949152661
 30
0.0
 10
9.999999999999986
 20
0.616006794774639
 30
0.0
 10
9.999999999999982
 20
0.5466869264209935
 30
0.0
 10
9.999999999999986
 20
0.4260033222511616
 30
0.0
 10
9.999999999999986
 20
0.3045016724014785
 30
0.0
 10
9.999999999999986
 20
0.248934271663071
 30
0.0
  0
SPLINE
  5
CB
330
1F
100
AcDbEntity
  8
0
  6
Continuous
 62
     1
370
    15
100
AcDbSpline
210
0.0
220
0.0
230
1.0
 70
     8
 71
     3
 72
    25
 73
    21
 74
     0
 42
0.000000001
 43
0.00000001
 40
0.0
 40
0.0
 40
0.0
 40
0.0
 40
0.0491409160744879
 40
0.1146584860602552
 40
0.1801749814072725
 40
0.2456759273996517
 40
0.3029802853668419
 40
0.3602843916655047
 40
0.4175882359619468
 40
0.4748918079354271
 40
0.5321950972786597
 40
0.5884785329594184
 40
0.6447619482408016
 40
0.7010453433146261
 40
0.7573287183727805
 40
0.8146320251132293
 40
0.8719350395526365
 40
0.9292377514112441
 40
0.986540150424221
 40
1.0
 40
1.0
 40
1.0
 40
1.0
 10
18.1350236909662
 20
3.722949424236985
 30
0.0
 10
18.76126943090939
 20
3.986000665765911
 30
0.0
 10
20.22246295719059
 20
4.599767349811018
 30
0.0
 10
22.51874759781127
 20
5.223297802369104
 30
0.0
 10
25.02346590597081
 20
5.583735031252084
 30
0.0
 10
27.42354840457013
 20
5.560588185242786
 30
0.0
 10
29.71828506646433
 20
5.219203029735017
 30
0.0
 10
31.90874443117056
 20
4.623688256734989
 30
0.0
 10
34.09914899372129
 20
3.789786655978151
 30
0.0
 10
36.2895500184761
 20
2.760374720245922
 30
0.0
 10
38.46695430111109
 20
1.595504990457305
 30
0.0
 10
40.63132190653128
 20
0.3574453279606943
 30
0.0
 10
42.78270389909393
 20
-0.8910211869915865
 30
0.0
 10
44.93408523804311
 20
-2.095025254054355
 30
0.0
 10
47.09845074566874
 20
-3.20184063769967
 30
0.0
 10
49.27584966516071
 20
-4.151285589894878
 30
0.0
 10
51.4662222926188
 20
-4.898535437472191
 30
0.0
 10
53.65658407479199
 20
-5.36962668461219
 30
0.0
 10
55.28831772274538
 20
-5.579525854341746
 30
0.0
 10
56.18993030969211
 20
-5.538281283981857
 30
0.0
 10
56.3614281074297
 20
-5.530436059671815
 30
0.0
  0
SPLINE
  5
CC
330
1F
100
AcDbEntity
  8
0
  6
Continuous
 62
     1
370
    15
100
AcDbSpline
210
0.0
220
0.0
230
1.0
 70
     8
 71
     3
 72
    11
 73
     7
 74
     0
 42
0.000000001
 43
0.00000001
 40
0.0
 40
0.0
 40
0.0
 40
0.0
 40
0.1507404521129266
 40
0.433826841430869
 40
0.7169133570750319
 40
1.0
 40
1.0
 40
1.0
 40
1.0
 10
78.60017752036032
 20
3.723081655375551
 30
0.0
 10
78.98204434981638
 20
3.889943906053198
 30
0.0
 10
80.08104649653959
 20
4.370168836726083
 30
0.0
 10
81.8971844912008
 20
4.939007272253706
 30
0.0
 10
84.04859179744211
 20
5.421530238843403
 30
0.0
 10
85.48286382500164
 20
5.50821270119861
 30
0.0
 10
86.19999999999999
 20
5.556249999999989
 30
0.0
  0
SPLINE
  5
CD
330
1F
100
AcDbEntity
  8
0
  6
Continuous
 62
     1
370
    15
100
AcDbSpline
210
0.0
220
0.0
230
1.0
 70
    24
 71
     3
 72
    10
 73
     6
 74
     0
 42
0.000000001
 43
0.00000001
 40
0.0
 40
0.0
 40
0.0
 40
0.0
 40
0.5
 40
0.5
 40
1.0
 40
1.0
 40
1.0
 40
1.0
 10
86.19999999999999
 20
3.889374999999996
 30
0.0
 10
86.19999999999999
 20
4.125139226885636
 30
0.0
 10
86.20000000000002
 20
4.399119092642919
 30
0.0
 10
86.19999999999996
 20
4.973928113088756
 30
0.0
 10
86.2
 20
5.273289277671938
 30
0.0
 10
86.19999999999999
 20
5.556249999999989
 30
0.0
  0
LINE
  5
CE
330
1F
100
AcDbEntity
  8
0
  6
Continuous
 62
     1
370
    15
100
AcDbLine
 10
86.19999999999999
 20
3.889374999999996
 30
0.0
 11
84.13086410927825
 21
3.78371375307743
 31
0.0
  0
SPLINE
  5
CF
330
1F
100
AcDbEntity
  8
0
  6
Continuous
 62
     1
370
    15
100
AcDbSpline
210
0.0
220
0.0
230
1.0
 70
     8
 71
     3
 72
    15
 73
    11
 74
     0
 42
0.000000001
 43
0.00000001
 40
0.0
 40
0.0
 40
0.0
 40
0.0
 40
0.1309314484811617
 40
0.2630112923243631
 40
0.3950714217014485
 40
0.5270934591936624
 40
0.6590646728094669
 40
0.7910643093896129
 40
0.923110029590351
 40
0.9999999999999999
 40
0.9999999999999999
 40
0.9999999999999999
 40
0.9999999999999999
 10
42.17447806302471
 20
-0.533587230456851
 30
0.0
 10
41.36638334045051
 20
-0.2069149070117045
 30
0.0
 10
39.74310612347752
 20
0.4492949719179722
 30
0.0
 10
37.30476083800325
 20
1.415639863768052
 30
0.0
 10
34.85972794454785
 20
2.291620696262489
 30
0.0
 10
32.41542489847428
 20
3.020310442196521
 30
0.0
 10
29.97165026742523
 20
3.558059931765675
 30
0.0
 10
27.52763170075981
 20
3.856367875290454
 30
0.0
 10
25.42347037500369
 20
3.935526421234741
 30
0.0
 10
24.13394524060413
 20
3.814212941915192
 30
0.0
 10
23.65938989232056
 20
3.769568631467699
 30
0.0
  0
LINE
  5
D0
330
1F
100
AcDbEntity
  8
0
  6
Continuous
 62
     1
370
    15
100
AcDbLine
 10
86.2
 20
-5.556250000000004
 30
0.0
 11
86.19999999999999
 21
-5.27255270466976
 31
0.0
  0
SPLINE
  5
D1
330
1F
100
AcDbEntity
  8
0
  6
Continuous
 62
     1
370
    15
100
AcDbSpline
210
0.0
220
0.0
230
1.0
 70
     8
 71
     3
 72
     8
 73
     4
 74
     0
 42
0.000000001
 43
0.00000001
 40
0.0
 40
0.0
 40
0.0
 40
0.0
 40
1.0
 40
1.0
 40
1.0
 40
1.0
 10
82.7620570660244
 20
1.554184009603004
 30
0.0
 10
82.56465030753584
 20
1.788049069802613
 30
0.0
 10
82.38842183394398
 20
2.013159355233317
 30
0.0
 10
82.23844740875968
 20
2.227416623920561
 30
0.0
  0
LINE
  5
D2
330
1F
100
AcDbEntity
  8
0
  6
Continuous
 62
     1
370
    15
100
AcDbLine
 10
82.30866073328414
 20
2.286332598632785
 30
0.0
 11
86.19999999999999
 21
0.0000000000000057
 31
0.0
  0
LINE
  5
D3
330
1F
100
AcDbEntity
  8
0
  6
Continuous
 62
     1
370
    15
100
AcDbLine
 10
86.19999999999999
 20
0.0000000000000057
 30
0.0
 11
86.19999999999999
 21
-1.484868618877209
 31
0.0
  0
SPLINE
  5
D4
330
1F
100
AcDbEntity
  8
0
  6
Continuous
 62
     1
370
    15
100
AcDbSpline
210
0.0
220
0.0
230
1.0
 70
     8
 71
     3
 72
    12
 73
     8
 74
     0
 42
0.000000001
 43
0.00000001
 40
0.0
 40
0.0
 40
0.0
 40
0.0
 40
0.5
 40
0.5
 40
0.75
 40
0.75
 40
1.0
 40
1.0
 40
1.0
 40
1.0
 10
86.19999999999999
 20
-1.484868618877209
 30
0.0
 10
85.60488160121403
 20
-1.017005130037883
 30
0.0
 10
85.01970338050393
 20
-0.5299579483693566
 30
0.0
 10
84.15722957402339
 20
0.2301280174900796
 30
0.0
 10
83.87233159546149
 20
0.4884948343414534
 30
0.0
 10
83.30835424369747
 20
1.016457878328658
 30
0.0
 10
83.03081385777936
 20
1.284684048414727
 30
0.0
 10
82.7620570660244
 20
1.554184009603004
 30
0.0
  0
SPLINE
  5
D5
330
1F
100
AcDbEntity
  8
0
  6
Continuous
 62
     1
370
    15
100
AcDbSpline
210
0.0
220
0.0
230
1.0
 70
     8
 71
     3
 72
    13
 73
     9
 74
     0
 42
0.000000001
 43
0.00000001
 40
0.0
 40
0.0
 40
0.0
 40
0.0
 40
0.1133574744644615
 40
0.3043988933787742
 40
0.4954607782002283
 40
0.6865171037852252
 40
0.8775418689645801
 40
1.0
 40
1.0
 40
1.0
 40
1.0
 10
82.76205706602444
 20
1.55418400960299
 30
0.0
 10
82.27868578970146
 20
1.760058426071003
 30
0.0
 10
80.98068861484438
 20
2.31289311865681
 30
0.0
 10
78.86632253459955
 20
3.100673197590621
 30
0.0
 10
76.42096572986864
 20
3.821649647836204
 30
0.0
 10
73.97552733002804
 20
4.284247435242625
 30
0.0
 10
71.82287215004426
 20
4.487627442966605
 30
0.0
 10
70.48544241143377
 20
4.411784477128201
 30
0.0
 10
69.96299238893167
 20
4.382157381165711
 30
0.0
  0
SPLINE
  5
D6
330
1F
100
AcDbEntity
  8
0
  6
Continuous
 62
     1
370
    15
100
AcDbSpline
210
0.0
220
0.0
230
1.0
 70
     8
 71
     3
 72
    21
 73
    17
 74
     0
 42
0.000000001
 43
0.00000001
 40
0.0
 40
0.0
 40
0.0
 40
0.0
 40
0.0587510521277036
 40
0.130245841576542
 40
0.2017399714403722
 40
0.273223708165219
 40
0.3446873629776588
 40
0.4161242223002554
 40
0.487576064952481
 40
0.5590522037181489
 40
0.6305429825112098
 40
0.7020386822249066
 40
0.7735295625344815
 40
0.8450059038956375
 40
0.9164580493512785
 40
1.0
 40
1.0
 40
1.0
 40
1.0
 10
44.20539510793635
 20
-4.157506067753107
 30
0.0
 10
43.53552389079459
 20
-4.253680464693306
 30
0.0
 10
42.05047915942728
 20
-4.466890523304087
 30
0.0
 10
39.75020805040183
 20
-4.458930854053512
 30
0.0
 10
37.30476664242183
 20
-4.193153222658173
 30
0.0
 10
34.85972949785865
 20
-3.650483284758868
 30
0.0
 10
32.41542124895935
 20
-2.875695056294441
 30
0.0
 10
29.97166998277139
 20
-1.915591796519708
 30
0.0
 10
27.52765599401555
 20
-0.8328385518379445
 30
0.0
 10
25.08290787572312
 20
0.3033953649306408
 30
0.0
 10
22.637596632201
 20
1.420353480073281
 30
0.0
 10
20.19209067585775
 20
2.445739666163645
 30
0.0
 10
17.74678503323258
 20
3.315687341379391
 30
0.0
 10
15.30199097177463
 20
3.966839033476636
 30
0.0
 10
12.72010823236483
 20
4.409095004061048
 30
0.0
 10
10.95265747378898
 20
4.426503213282967
 30
0.0
 10
9.999999999999996
 20
4.435886252974497
 30
0.0
  0
SPLINE
  5
D7
330
1F
100
AcDbEntity
  8
0
  6
Continuous
 62
     1
370
    15
100
AcDbSpline
210
0.0
220
0.0
230
1.0
 70
    24
 71
     3
 72
    10
 73
     6
 74
     0
 42
0.000000001
 43
0.00000001
 40
0.0
 40
0.0
 40
0.0
 40
0.0
 40
0.5
 40
0.5
 40
1.0
 40
1.0
 40
1.0
 40
1.0
 10
86.19999999999999
 20
-4.383727143895904
 30
0.0
 10
86.2
 20
-4.047680280152394
 30
0.0
 10
86.19999999999996
 20
-3.623072182455318
 30
0.0
 10
86.19999999999997
 20
-2.635899219280966
 30
0.0
 10
86.2
 20
-2.074189480453839
 30
0.0
 10
86.19999999999999
 20
-1.484868618877387
 30
0.0
  0
SPLINE
  5
D8
330
1F
100
AcDbEntity
  8
외형선
  6
Continuous
370
    15
100
AcDbSpline
210
0.0
220
0.0
230
1.0
 70
    24
 71
     3
 72
    13
 73
     9
 74
     0
 42
0.000000001
 43
0.00000001
 40
0.0
 40
0.0
 40
0.0
 40
0.0
 40
0.1349712108073144
 40
0.2717051810310575
 40
0.4700905526707009
 40
0.6742291135274742
 40
0.8531807656774955
 40
1.0
 40
1.0
 40
1.0
 40
1.0
 10
9.999999999999986
 20
4.435886252974497
 30
0.0
 10
9.999999999999986
 20
4.416431802496048
 30
0.0
 10
9.999999999999986
 20
4.377268821312949
 30
0.0
 10
9.999999999999982
 20
4.19530476047197
 30
0.0
 10
9.999999999999986
 20
3.870163446489343
 30
0.0
 10
9.999999999999986
 20
3.362260320880612
 30
0.0
 10
9.999999999999982
 20
2.791437805584705
 30
0.0
 10
9.999999999999986
 20
2.365123902056108
 30
0.0
 10
9.999999999999986
 20
2.172991690443069
 30
0.0
  0
SPLINE
  5
D9
330
1F
100
AcDbEntity
  8
0
  6
Continuous
 62
     1
370
    15
100
AcDbSpline
210
0.0
220
0.0
230
1.0
 70
     8
 71
     3
 72
    23
 73
    19
 74
     0
 42
0.000000001
 43
0.00000001
 40
0.0
 40
0.0
 40
0.0
 40
0.0
 40
0.0133728310617917
 40
0.0838237062382227
 40
0.1542534025596551
 40
0.2246590371128534
 40
0.2950848526941412
 40
0.3655332316541274
 40
0.4359946455104203
 40
0.5064595096502581
 40
0.5769182245824238
 40
0.6473612173264464
 40
0.71777898255726
 40
0.7881883792197313
 40
0.858624991652569
 40
0.9290801075170961
 40
0.9995441693363677
 40
1.0
 40
1.0
 40
1.0
 40
1.0
 10
74.43953079953756
 20
-4.157028420533043
 30
0.0
 10
74.28482232928424
 20
-4.187783737803555
 30
0.0
 10
73.31507723169358
 20
-4.380564508624214
 30
0.0
 10
71.5305858208764
 20
-4.473562043603056
 30
0.0
 10
69.08637940732389
 20
-4.400681448628601
 30
0.0
 10
66.64265096453342
 20
-4.022035610993531
 30
0.0
 10
64.19854516851889
 20
-3.391555709893706
 30
0.0
 10
61.7536939388156
 20
-2.541706488225935
 30
0.0
 10
59.30833007425763
 20
-1.529086413389743
 30
0.0
 10
56.8628305536643
 20
-0.4181836938680271
 30
0.0
 10
54.41757411089078
 20
0.7195441476810319
 30
0.0
 10
51.97292850575275
 20
1.810812987189639
 30
0.0
 10
49.52899355311779
 20
2.786559798306126
 30
0.0
 10
47.08520223782187
 20
3.581077856238378
 30
0.0
 10
44.64079036401371
 20
4.15477330765448
 30
0.0
 10
42.19567901236231
 20
4.427754945239874
 30
0.0
 10
40.56011816036036
 20
4.505432011751772
 30
0.0
 10
39.73965527108356
 20
4.41488372601128
 30
0.0
 10
39.73438182621202
 20
4.414301735772226
 30
0.0
  0
SPLINE
  5
DA
330
1F
100
AcDbEntity
  8
0
  6
Continuous
 62
     1
370
    15
100
AcDbSpline
210
0.0
220
0.0
230
1.0
 70
     8
 71
     3
 72
     9
 73
     5
 74
     0
 42
0.000000001
 43
0.00000001
 40
0.0
 40
0.0
 40
0.0
 40
0.0
 40
0.2817432105694988
 40
1.0
 40
1.0
 40
1.0
 40
1.0
 10
13.97870200279662
 20
-4.142924365727461
 30
0.0
 10
13.60509082635372
 20
-4.210068012221719
 30
0.0
 10
12.27902097825439
 20
-4.448383059312072
 30
0.0
 10
10.95266452660333
 20
-4.441110103130879
 30
0.0
 10
10.0
 20
-4.435886252974505
 30
0.0
  0
SPLINE
  5
DB
330
1F
100
AcDbEntity
  8
0
  6
Continuous
 62
     1
370
    15
100
AcDbSpline
210
0.0
220
0.0
230
1.0
 70
    24
 71
     3
 72
     8
 73
     4
 74
     0
 42
0.000000001
 43
0.00000001
 40
0.0
 40
0.0
 40
0.0
 40
0.0
 40
1.0
 40
1.0
 40
1.0
 40
1.0
 10
82.81802406229171
 20
2.7137391801379
 30
0.0
 10
82.63462811240719
 20
2.559851706230375
 30
0.0
 10
82.44081162830919
 20
2.397220365908026
 30
0.0
 10
82.23844740875971
 20
2.227416623920579
 30
0.0
  0
SPLINE
  5
DC
330
1F
100
AcDbEntity
  8
0
  6
Continuous
 62
     1
370
    15
100
AcDbSpline
210
0.0
220
0.0
230
1.0
 70
     8
 71
     3
 72
    10
 73
     6
 74
     0
 42
0.000000001
 43
0.00000001
 40
0.0
 40
0.0
 40
0.0
 40
0.0
 40
0.5
 40
0.5
 40
1.0
 40
1.0
 40
1.0
 40
1.0
 10
86.19999999999999
 20
3.889375000000005
 30
0.0
 10
85.62845098516905
 20
3.734335233050988
 30
0.0
 10
85.06038855592163
 20
3.560336717280113
 30
0.0
 10
83.93189035214628
 20
3.170868788863509
 30
0.0
 10
83.37139613348957
 20
2.95597042672438
 30
0.0
 10
82.8180240623024
 20
2.713739180142877
 30
0.0
  0
SPLINE
  5
DD
330
1F
100
AcDbEntity
  8
외형선
  6
Continuous
370
    15
100
AcDbSpline
210
0.0
220
0.0
230
1.0
 70
    24
 71
     3
 72
    14
 73
    10
 74
     0
 42
0.000000001
 43
0.00000001
 40
0.0
 40
0.0
 40
0.0
 40
0.0
 40
0.25
 40
0.25
 40
0.5
 40
0.5
 40
0.75
 40
0.75
 40
1.0
 40
1.0
 40
1.0
 40
1.0
 10
9.999999999999986
 20
0.2489342716625105
 30
0.0
 10
9.999999999999986
 20
-0.2377006968856739
 30
0.0
 10
9.999999999999986
 20
-0.73091743292136
 30
0.0
 10
9.999999999999986
 20
-1.682580490401925
 30
0.0
 10
9.999999999999986
 20
-2.140496558614283
 30
0.0
 10
9.999999999999986
 20
-2.973124234418559
 30
0.0
 10
9.999999999999986
 20
-3.347392183174124
 30
0.0
 10
9.999999999999986
 20
-3.980328878276384
 30
0.0
 10
9.999999999999986
 20
-4.238915039764193
 30
0.0
 10
9.999999999999986
 20
-4.435886252974504
 30
0.0
  0
LINE
  5
DE
330
1F
100
AcDbEntity
  8
0
  6
Continuous
 62
     1
370
    15
100
AcDbLine
 10
86.19999999999999
 20
0.0000000000000057
 30
0.0
 11
86.19999999999999
 21
3.889375000000005
 31
0.0
  0
LINE
  5
DF
330
1F
100
AcDbEntity
  8
중심선
 62
     1
100
AcDbLine
 10
-69.20000000000003
 20
-0.000000000000009
 30
0.0
 11
89.2
 21
0.0000000000000104
 31
0.0
  0
LINE
  5
E0
330
1F
100
AcDbEntity
  8
참조1
100
AcDbLine
 10
14.84926131403116
 20
0.0010749287238892
 30
0.0
 11
14.84926131403117
 21
-39.99892507127611
 31
0.0
  0
LINE
  5
E1
330
1F
100
AcDbEntity
  8
참조1
100
AcDbLine
 10
14.84926131403117
 20
-39.99892507127611
 30
0.0
 11
-20.15080122126847
 21
-39.9989250712761
 31
0.0
  0
CIRCLE
  5
E2
330
1F
100
AcDbEntity
  8
해칭선
100
AcDbCircle
 10
0.0
 20
0.0
 30
0.0
 40
2.999999999999996
  0
INSERT
  5
E3
330
1F
100
AcDbEntity
  8
0
  6
Continuous
 62
     7
100
AcDbBlockReference
 66
     1
  2
블럭10
 10
-11.13141435586139
 20
-37.80111585218118
 30
0.0
  0
ATTRIB
  5
E4
330
E3
100
AcDbEntity
  8
FORMAT
 62
     2
100
AcDbText
 10
-20.31270964460267
 20
-35.725748939349
 30
0.0
 40
4.233333333333333
  1
E5026028 [ 2 FLUTE ]
 41
0.75
  7
SLDTEXTSTYLE0
 11
-20.31270964460267
 21
-37.84241560601566
 31
0.0
100
AcDbAttribute
  2
AUTOATTR0
 70
     0
 74
     1
  0
SEQEND
  5
E5
330
E3
100
AcDbEntity
  8
0
  6
Continuous
 62
     7
  0
HATCH
  5
E6
330
1F
100
AcDbEntity
  8
중심선
100
AcDbHatch
 10
0.0
 20
0.0
 30
0.0
210
0.0
220
0.0
230
1.0
  2
SOLID
 70
     1
 71
     0
 91
        1
 92
        0
 93
        4
 72
     1
 10
-5.416505051480557
 20
-21.55394155053725
 11
-8.862780295317839
 21
-21.55394155053725
 72
     1
 10
-8.862780295317839
 20
-21.55394155053725
 11
-10.99101015452186
 21
-24.09026713110985
 72
     1
 10
-10.99101015452186
 20
-24.09026713110985
 11
-7.54470182557143
 21
-24.09022770180736
 72
     1
 10
-7.54470182557143
 20
-24.09022770180736
 11
-5.416505051480557
 21
-21.55394155053725
 97
        0
 75
     0
 76
     1
 98
        1
 10
-12.04040273776735
 20
14.24498352073885
  0
HATCH
  5
E7
330
1F
100
AcDbEntity
  8
중심선
100
AcDbHatch
 10
0.0
 20
0.0
 30
0.0
210
0.0
220
0.0
230
1.0
  2
SOLID
 70
     1
 71
     0
 91
        1
 92
        0
 93
        4
 72
     1
 10
-0.4037410604445775
 20
-21.55394155053725
 11
-3.850016304281832
 21
-21.55394155053725
 72
     1
 10
-3.850016304281832
 20
-21.55394155053725
 11
-8.381154312639275
 21
-26.95394155053727
 72
     1
 10
-8.381154312639275
 20
-26.95394155053727
 11
-4.934879068801993
 21
-26.95394155053727
 72
     1
 10
-4.934879068801994
 20
-26.95394155053727
 11
-0.4037410604445775
 21
-21.55394155053725
 97
        0
 75
     0
 76
     1
 98
        1
 10
-12.04040273776735
 20
14.24498352073885
  0
HATCH
  5
E8
330
1F
100
AcDbEntity
  8
중심선
100
AcDbHatch
 10
0.0
 20
0.0
 30
0.0
210
0.0
220
0.0
230
1.0
  2
SOLID
 70
     1
 71
     0
 91
        1
 92
        0
 93
        4
 72
     1
 10
4.609022930591319
 20
-21.55394155053723
 11
1.162747686754201
 21
-21.55394155053723
 72
     1
 10
1.162747686754201
 20
-21.55394155053723
 11
-5.885689215135074
 21
-29.95394155053727
 72
     1
 10
-5.885689215135074
 20
-29.95394155053727
 11
-2.439413971297792
 21
-29.95394155053727
 72
     1
 10
-2.439413971297792
 20
-29.95394155053727
 11
4.609022930591319
 21
-21.55394155053723
 97
        0
 75
     0
 76
     1
 98
        1
 10
-12.04040273776735
 20
14.24498352073885
  0
HATCH
  5
E9
330
1F
100
AcDbEntity
  8
중심선
100
AcDbHatch
 10
0.0
 20
0.0
 30
0.0
210
0.0
220
0.0
230
1.0
  2
SOLID
 70
     1
 71
     0
 91
        1
 92
        0
 93
        6
 72
     3
 10
9.408913361603489
 20
-25.75394155058853
 11
3.960054785062283
 21
1.540882976769353E-10
 40
0.3939339440162628
 50
17.09539180608437
 51
320.0019657685075
 73
     0
 72
     1
 10
11.09191301730408
 20
-24.34183555517552
 11
13.39721489100515
 21
-22.40750884512763
 72
     3
 10
9.408913361550642
 20
-25.7539415505374
 11
6.600054785286829
 21
-1.278976924368180E-13
 40
0.636358354079598
 50
39.99873849337386
 51
368.4976242363725
 73
     1
 72
     1
 10
15.83424585345125
 20
-24.79394155046728
 11
8.088980668386565
 21
-24.79394155046728
 72
     1
 10
8.088980668386565
 20
-24.79394155046728
 11
8.088955623940631
 21
-26.71394155046717
 72
     1
 10
8.088955623940631
 20
-26.71394155046717
 11
12.53033539341267
 21
-26.71394155046714
 97
        0
 75
     0
 76
     1
 98
        1
 10
-12.04040273776735
 20
14.24498352073885
  0
DIMENSION
  5
EA
330
1F
100
AcDbEntity
  8
치수문자_일반주서
100
AcDbDimension
  2
_D
 10
-81.28388472004829
 20
-5.556250000000077
 30
0.0
 11
-81.2838847200484
 21
25.72274999999992
 31
0.0
 70
   160
  1
%%c<>
 71
     2
 42
11.1125
 52
-270.0
  3
SLDDIMSTYLE0
100
AcDbAlignedDimension
 13
-65.20000000000003
 23
5.556249999999981
 33
0.0
 14
-65.20000000000003
 24
-5.556250000000016
 34
0.0
 50
90.0000000000002
100
AcDbRotatedDimension
1001
ACAD
1000
DSTYLE
1002
{
1070
   171
1070
     6
1070
   273
1070
     5
1002
}
  0
DIMENSION
  5
FF
330
1F
100
AcDbEntity
  8
치수문자_일반주서
100
AcDbDimension
  2
_D_1
 10
10.0
 20
18.72789567294265
 30
0.0
 11
48.09999999999998
 21
18.72789567294265
 31
0.0
 70
   160
  1
<>
 71
     2
 42
76.19999999999999
  3
SLDDIMSTYLE0
100
AcDbAlignedDimension
 13
86.19999999999999
 23
5.556249999999997
 33
0.0
 14
9.999999999999996
 24
4.435886252974497
 34
0.0
 50
0.0000000000000027
100
AcDbRotatedDimension
1001
ACAD
1000
DSTYLE
1002
{
1070
   171
1070
     6
1070
   273
1070
     5
1002
}
  0
DIMENSION
  5
114
330
1F
100
AcDbEntity
  8
치수문자_일반주서
100
AcDbDimension
  2
_D_2
 10
-66.20000000000002
 20
35.79808227005386
 30
0.0
 11
9.999999999999972
 21
35.79808227005386
 31
0.0
 70
   160
  1
<>
 71
     2
 42
152.4
  3
SLDDIMSTYLE0
100
AcDbAlignedDimension
 13
86.19999999999999
 23
5.556249999999997
 33
0.0
 14
-66.20000000000003
 24
4.556249999999987
 34
0.0
 50
0.0000000000000027
100
AcDbRotatedDimension
1001
ACAD
1000
DSTYLE
1002
{
1070
   171
1070
     6
1070
   273
1070
     5
1002
}
  0
DIMENSION
  5
127
330
1F
100
AcDbEntity
  8
치수문자_일반주서
100
AcDbDimension
  2
_D_3
 10
104.9997997783001
 20
5.556250000000066
 30
0.0
 11
104.9997997783
 21
25.72275000000007
 31
0.0
 70
   160
  1
%%c<>
 71
     2
 42
11.1125
 52
-270.0
  3
SLDDIMSTYLE0
100
AcDbAlignedDimension
 13
86.2
 23
-5.556250000000004
 33
0.0
 14
86.19999999999999
 24
5.556249999999997
 34
0.0
 50
90.0000000000002
100
AcDbRotatedDimension
1001
ACAD
1000
DSTYLE
1002
{
1070
   171
1070
     6
1070
   273
1070
     5
1002
}
  0
LINE
  5
13A
330
1F
100
AcDbEntity
  8
참조1
100
AcDbLine
 10
77.82153940838579
 20
7.441074928723896
 30
0.0
 11
77.82153940838579
 21
-7.438925071276109
 31
0.0
  0
LINE
  5
13B
330
1F
100
AcDbEntity
  8
참조1
100
AcDbLine
 10
90.52153940838579
 20
5.441074928723896
 30
0.0
 11
77.82153940838579
 21
5.441074928723896
 31
0.0
  0
SOLID
  5
13C
330
1F
100
AcDbEntity
  8
참조1
100
AcDbTrace
 10
77.82153940838579
 20
5.441074928723896
 30
0.0
 11
84.17153940838578
 21
4.425074928723896
 31
0.0
 12
84.17153940838578
 22
6.457074928723896
 32
0.0
 13
84.17153940838578
 23
6.457074928723896
 33
0.0
  0
LINE
  5
13D
330
1F
100
AcDbEntity
  8
참조1
100
AcDbLine
 10
90.52153940838579
 20
-5.438925071276109
 30
0.0
 11
77.82153940838579
 21
-5.438925071276109
 31
0.0
  0
SOLID
  5
13E
330
1F
100
AcDbEntity
  8
참조1
100
AcDbTrace
 10
77.82153940838579
 20
-5.438925071276109
 30
0.0
 11
84.17153940838578
 21
-6.454925071276109
 31
0.0
 12
84.17153940838578
 22
-4.422925071276109
 32
0.0
 13
84.17153940838578
 23
-4.422925071276109
 33
0.0
  0
MTEXT
  5
13F
330
1F
100
AcDbEntity
  8
참조1
100
AcDbMText
 10
87.20588954101179
 20
11.01136670591222
 30
0.0
 40
3.5
 41
0.0
 71
     1
 72
     1
  1
A
  7
SLDTEXTSTYLE0
 73
     1
 44
1.0
  0
MTEXT
  5
140
330
1F
100
AcDbEntity
  8
참조1
100
AcDbMText
 10
87.20588954101179
 20
0.1313667059122192
 30
0.0
 40
3.5
 41
0.0
 71
     1
 72
     1
  1
A
  7
SLDTEXTSTYLE0
 73
     1
 44
1.0
  0
INSERT
  5
147
330
1F
100
AcDbEntity
  8
해칭선
100
AcDbBlockReference
  2
SW_DOWELSYMBOL_0
 10
0.0
 20
0.0
 30
0.0
  0
ENDSEC
  0
SECTION
  2
OBJECTS
  0
DICTIONARY
  5
C
330
0
100
AcDbDictionary
281
     1
  3
ACAD_GROUP
350
D
  3
ACAD_IMAGE_VARS
350
16B
  3
ACAD_LAYOUT
350
1A
  3
ACAD_MLINESTYLE
350
17
  3
ACAD_PLOTSETTINGS
350
19
  3
ACAD_PLOTSTYLENAME
350
E
  3
ACAD_SCALELIST
350
47
  3
APPDATA
350
169
  3
DWGPROPS
350
2E1
  0
DICTIONARY
  5
225
330
2
100
AcDbDictionary
280
     1
281
     1
  3
ACAD_LAYERSTATES
360
226
  0
DICTIONARY
  5
D
102
{ACAD_REACTORS
330
C
102
}
330
C
100
AcDbDictionary
281
     1
  0
RASTERVARIABLES
  5
16B
102
{ACAD_REACTORS
330
C
102
}
330
C
100
AcDbRasterVariables
 90
        0
 70
     1
 71
     1
 72
     1
  0
DICTIONARY
  5
1A
102
{ACAD_REACTORS
330
C
102
}
330
C
100
AcDbDictionary
281
     1
  3
Layout1
350
1E
  3
Layout2
350
26
  3
Model
350
22
  0
DICTIONARY
  5
17
102
{ACAD_REACTORS
330
C
102
}
330
C
100
AcDbDictionary
281
     1
  3
Standard
350
18
  0
DICTIONARY
  5
19
102
{ACAD_REACTORS
330
C
102
}
330
C
100
AcDbDictionary
281
     1
  0
ACDBDICTIONARYWDFLT
  5
E
102
{ACAD_REACTORS
330
C
102
}
330
C
100
AcDbDictionary
281
     1
  3
Normal
350
F
100
AcDbDictionaryWithDefault
340
F
  0
DICTIONARY
  5
47
102
{ACAD_REACTORS
330
C
102
}
330
C
100
AcDbDictionary
281
     1
  3
A0
350
48
  3
A1
350
49
  3
A2
350
4A
  3
A3
350
4B
  3
A4
350
4C
  3
A5
350
4D
  3
A6
350
4E
  3
A7
350
4F
  3
A8
350
50
  3
A9
350
51
  3
B0
350
52
  3
B1
350
53
  3
B2
350
54
  3
B3
350
55
  3
B4
350
56
  3
B5
350
57
  3
B6
350
58
  3
B7
350
59
  3
B8
350
5A
  3
B9
350
5B
  3
C0
350
5C
  3
C1
350
5D
  3
C2
350
5E
  3
C3
350
5F
  3
C4
350
60
  3
C5
350
61
  3
C6
350
62
  3
C7
350
63
  3
C8
350
64
  3
C9
350
65
  3
D0
350
66
  3
D1
350
67
  3
D2
350
68
  0
DICTIONARY
  5
169
102
{ACAD_REACTORS
330
C
102
}
330
C
100
AcDbDictionary
281
     1
  0
XRECORD
  5
2E1
102
{ACAD_REACTORS
330
C
102
}
330
C
100
AcDbXrecord
280
     1
  1
DWGPROPS COOKIE
  2

  3

  4

  6

  7

  8
12014074
  9

300
=
301
=
302
=
303
=
304
=
305
=
306
=
307
=
308
=
309
=
 40
0.0
 41
2458311.119395209
 42
2458320.275979039
  1

 90
        0
  0
DICTIONARY
  5
226
102
{ACAD_REACTORS
330
225
102
}
330
225
100
AcDbDictionary
281
     1
  0
LAYOUT
  5
1E
102
{ACAD_REACTORS
330
1A
102
}
330
1A
100
AcDbPlotSettings
  1

  2
none_device
  4

  6

 40
0.0
 41
0.0
 42
0.0
 43
0.0
 44
0.0
 45
0.0
 46
0.0
 47
0.0
 48
0.0
 49
0.0
140
0.0
141
0.0
142
1.0
143
1.0
 70
   688
 72
     1
 73
     0
 74
     5
  7

 75
    16
147
1.0
148
0.0
149
0.0
100
AcDbLayout
  1
Layout1
 70
     1
 71
     1
 10
0.0
 20
0.0
 11
420.0
 21
297.0
 12
0.0
 22
0.0
 32
0.0
 14
1.000000000000000E+20
 24
1.000000000000000E+20
 34
1.000000000000000E+20
 15
-1.000000000000000E+20
 25
-1.000000000000000E+20
 35
-1.000000000000000E+20
146
0.0
 13
0.0
 23
0.0
 33
0.0
 16
1.0
 26
0.0
 36
0.0
 17
0.0
 27
1.0
 37
0.0
 76
     0
330
1B
  0
LAYOUT
  5
26
102
{ACAD_REACTORS
330
1A
102
}
330
1A
100
AcDbPlotSettings
  1

  2
none_device
  4

  6

 40
0.0
 41
0.0
 42
0.0
 43
0.0
 44
0.0
 45
0.0
 46
0.0
 47
0.0
 48
0.0
 49
0.0
140
0.0
141
0.0
142
1.0
143
1.0
 70
   688
 72
     1
 73
     0
 74
     5
  7

 75
    16
147
1.0
148
0.0
149
0.0
100
AcDbLayout
  1
Layout2
 70
     1
 71
     2
 10
0.0
 20
0.0
 11
0.0
 21
0.0
 12
0.0
 22
0.0
 32
0.0
 14
0.0
 24
0.0
 34
0.0
 15
0.0
 25
0.0
 35
0.0
146
0.0
 13
0.0
 23
0.0
 33
0.0
 16
1.0
 26
0.0
 36
0.0
 17
0.0
 27
1.0
 37
0.0
 76
     0
330
23
  0
LAYOUT
  5
22
102
{ACAD_REACTORS
330
1A
102
}
330
1A
100
AcDbPlotSettings
  1

  2
none_device
  4
ANSI_A_(11.00_x_8.50_Inches)
  6

 40
6.35
 41
19.05
 42
6.35000508
 43
19.05000254
 44
279.4
 45
215.9
 46
83.83824355532478
 47
83.96282513970252
 48
0.0
 49
0.0
140
0.0
141
0.0
142
0.0412992536662167
143
1.0
 70
  1696
 72
     0
 73
     0
 74
     0
  7

 75
     0
147
0.0235690232323232
148
0.0
149
0.0
100
AcDbLayout
  1
Model
 70
     1
 71
     0
 10
0.0
 20
0.0
 11
420.0
 21
297.0
 12
0.0
 22
0.0
 32
0.0
 14
1.000000000000000E+20
 24
1.000000000000000E+20
 34
1.000000000000000E+20
 15
-1.000000000000000E+20
 25
-1.000000000000000E+20
 35
-1.000000000000000E+20
146
0.0
 13
0.0
 23
0.0
 33
0.0
 16
1.0
 26
0.0
 36
0.0
 17
0.0
 27
1.0
 37
0.0
 76
     0
330
1F
331
29
  0
MLINESTYLE
  5
18
102
{ACAD_REACTORS
330
17
102
}
330
17
100
AcDbMlineStyle
  2
Standard
 70
     0
  3

 62
   256
 51
90.0
 52
90.0
 71
     2
 49
0.5
 62
   256
  6
BYLAYER
 49
-0.5
 62
   256
  6
BYLAYER
  0
ACDBPLACEHOLDER
  5
F
102
{ACAD_REACTORS
330
E
102
}
330
E
  0
SCALE
  5
48
102
{ACAD_REACTORS
330
47
102
}
330
47
100
AcDbScale
 70
     0
300
1:1
140
1.0
141
1.0
290
     1
  0
SCALE
  5
49
102
{ACAD_REACTORS
330
47
102
}
330
47
100
AcDbScale
 70
     0
300
1:2
140
1.0
141
2.0
290
     0
  0
SCALE
  5
4A
102
{ACAD_REACTORS
330
47
102
}
330
47
100
AcDbScale
 70
     0
300
1:4
140
1.0
141
4.0
290
     0
  0
SCALE
  5
4B
102
{ACAD_REACTORS
330
47
102
}
330
47
100
AcDbScale
 70
     0
300
1:5
140
1.0
141
5.0
290
     0
  0
SCALE
  5
4C
102
{ACAD_REACTORS
330
47
102
}
330
47
100
AcDbScale
 70
     0
300
1:8
140
1.0
141
8.0
290
     0
  0
SCALE
  5
4D
102
{ACAD_REACTORS
330
47
102
}
330
47
100
AcDbScale
 70
     0
300
1:10
140
1.0
141
10.0
290
     0
  0
SCALE
  5
4E
102
{ACAD_REACTORS
330
47
102
}
330
47
100
AcDbScale
 70
     0
300
1:16
140
1.0
141
16.0
290
     0
  0
SCALE
  5
4F
102
{ACAD_REACTORS
330
47
102
}
330
47
100
AcDbScale
 70
     0
300
1:20
140
1.0
141
20.0
290
     0
  0
SCALE
  5
50
102
{ACAD_REACTORS
330
47
102
}
330
47
100
AcDbScale
 70
     0
300
1:30
140
1.0
141
30.0
290
     0
  0
SCALE
  5
51
102
{ACAD_REACTORS
330
47
102
}
330
47
100
AcDbScale
 70
     0
300
1:40
140
1.0
141
40.0
290
     0
  0
SCALE
  5
52
102
{ACAD_REACTORS
330
47
102
}
330
47
100
AcDbScale
 70
     0
300
1:50
140
1.0
141
50.0
290
     0
  0
SCALE
  5
53
102
{ACAD_REACTORS
330
47
102
}
330
47
100
AcDbScale
 70
     0
300
1:100
140
1.0
141
100.0
290
     0
  0
SCALE
  5
54
102
{ACAD_REACTORS
330
47
102
}
330
47
100
AcDbScale
 70
     0
300
2:1
140
2.0
141
1.0
290
     0
  0
SCALE
  5
55
102
{ACAD_REACTORS
330
47
102
}
330
47
100
AcDbScale
 70
     0
300
4:1
140
4.0
141
1.0
290
     0
  0
SCALE
  5
56
102
{ACAD_REACTORS
330
47
102
}
330
47
100
AcDbScale
 70
     0
300
8:1
140
8.0
141
1.0
290
     0
  0
SCALE
  5
57
102
{ACAD_REACTORS
330
47
102
}
330
47
100
AcDbScale
 70
     0
300
10:1
140
10.0
141
1.0
290
     0
  0
SCALE
  5
58
102
{ACAD_REACTORS
330
47
102
}
330
47
100
AcDbScale
 70
     0
300
100:1
140
100.0
141
1.0
290
     0
  0
SCALE
  5
59
102
{ACAD_REACTORS
330
47
102
}
330
47
100
AcDbScale
 70
     0
300
1/128" = 1'-0"
140
0.0078125
141
12.0
290
     0
  0
SCALE
  5
5A
102
{ACAD_REACTORS
330
47
102
}
330
47
100
AcDbScale
 70
     0
300
1/64" = 1'-0"
140
0.015625
141
12.0
290
     0
  0
SCALE
  5
5B
102
{ACAD_REACTORS
330
47
102
}
330
47
100
AcDbScale
 70
     0
300
1/32" = 1'-0"
140
0.03125
141
12.0
290
     0
  0
SCALE
  5
5C
102
{ACAD_REACTORS
330
47
102
}
330
47
100
AcDbScale
 70
     0
300
1/16" = 1'-0"
140
0.0625
141
12.0
290
     0
  0
SCALE
  5
5D
102
{ACAD_REACTORS
330
47
102
}
330
47
100
AcDbScale
 70
     0
300
3/32" = 1'-0"
140
0.09375
141
12.0
290
     0
  0
SCALE
  5
5E
102
{ACAD_REACTORS
330
47
102
}
330
47
100
AcDbScale
 70
     0
300
1/8" = 1'-0"
140
0.125
141
12.0
290
     0
  0
SCALE
  5
5F
102
{ACAD_REACTORS
330
47
102
}
330
47
100
AcDbScale
 70
     0
300
3/16" = 1'-0"
140
0.1875
141
12.0
290
     0
  0
SCALE
  5
60
102
{ACAD_REACTORS
330
47
102
}
330
47
100
AcDbScale
 70
     0
300
1/4" = 1'-0"
140
0.25
141
12.0
290
     0
  0
SCALE
  5
61
102
{ACAD_REACTORS
330
47
102
}
330
47
100
AcDbScale
 70
     0
300
3/8" = 1'-0"
140
0.375
141
12.0
290
     0
  0
SCALE
  5
62
102
{ACAD_REACTORS
330
47
102
}
330
47
100
AcDbScale
 70
     0
300
1/2" = 1'-0"
140
0.5
141
12.0
290
     0
  0
SCALE
  5
63
102
{ACAD_REACTORS
330
47
102
}
330
47
100
AcDbScale
 70
     0
300
3/4" = 1'-0"
140
0.75
141
12.0
290
     0
  0
SCALE
  5
64
102
{ACAD_REACTORS
330
47
102
}
330
47
100
AcDbScale
 70
     0
300
1" = 1'-0"
140
1.0
141
12.0
290
     0
  0
SCALE
  5
65
102
{ACAD_REACTORS
330
47
102
}
330
47
100
AcDbScale
 70
     0
300
1-1/2" = 1'-0"
140
1.5
141
12.0
290
     0
  0
SCALE
  5
66
102
{ACAD_REACTORS
330
47
102
}
330
47
100
AcDbScale
 70
     0
300
3" = 1'-0"
140
3.0
141
12.0
290
     0
  0
SCALE
  5
67
102
{ACAD_REACTORS
330
47
102
}
330
47
100
AcDbScale
 70
     0
300
6" = 1'-0"
140
6.0
141
12.0
290
     0
  0
SCALE
  5
68
102
{ACAD_REACTORS
330
47
102
}
330
47
100
AcDbScale
 70
     0
300
1'-0" = 1'-0"
140
12.0
141
12.0
290
     0
  0
ENDSEC
  0
EOF
