  0
SECTION
  2
HEADER
  9
$ACADVER
  1
AC1015
  9
$ACADMAINTVER
 70
     6
  9
$DWGCODEPAGE
  3
ANSI_949
  9
$INSBASE
 10
0.0
 20
0.0
 30
0.0
  9
$EXTMIN
 10
1.000000000000000E+20
 20
1.000000000000000E+20
 30
1.000000000000000E+20
  9
$EXTMAX
 10
-1.000000000000000E+20
 20
-1.000000000000000E+20
 30
-1.000000000000000E+20
  9
$LIMMIN
 10
0.0
 20
0.0
  9
$LIMMAX
 10
420.0
 20
297.0
  9
$ORTHOMODE
 70
     0
  9
$REGENMODE
 70
     1
  9
$FILLMODE
 70
     1
  9
$QTEXTMODE
 70
     0
  9
$MIRRTEXT
 70
     1
  9
$LTSCALE
 40
1.0
  9
$ATTMODE
 70
     1
  9
$TEXTSIZE
 40
3.5
  9
$TRACEWID
 40
1.0
  9
$TEXTSTYLE
  7
Standard
  9
$CLAYER
  8
0
  9
$CELTYPE
  6
ByLayer
  9
$CECOLOR
 62
   256
  9
$CELTSCALE
 40
1.0
  9
$DISPSILH
 70
     0
  9
$DIMSCALE
 40
1.0
  9
$DIMASZ
 40
3.302
  9
$DIMEXO
 40
1.0
  9
$DIMDLI
 40
3.75
  9
$DIMRND
 40
0.0
  9
$DIMDLE
 40
0.0
  9
$DIMEXE
 40
1.0
  9
$DIMTP
 40
0.0
  9
$DIMTM
 40
0.0
  9
$DIMTXT
 40
3.5
  9
$DIMCEN
 40
2.5
  9
$DIMTSZ
 40
0.0
  9
$DIMTOL
 70
     0
  9
$DIMLIM
 70
     0
  9
$DIMTIH
 70
     1
  9
$DIMTOH
 70
     1
  9
$DIMSE1
 70
     0
  9
$DIMSE2
 70
     0
  9
$DIMTAD
 70
     1
  9
$DIMZIN
 70
     0
  9
$DIMBLK
  1

  9
$DIMASO
 70
     1
  9
$DIMSHO
 70
     1
  9
$DIMPOST
  1

  9
$DIMAPOST
  1

  9
$DIMALT
 70
     0
  9
$DIMALTD
 70
     3
  9
$DIMALTF
 40
0.0393700787401575
  9
$DIMLFAC
 40
1.0
  9
$DIMTOFL
 70
     1
  9
$DIMTVP
 40
0.0
  9
$DIMTIX
 70
     0
  9
$DIMSOXD
 70
     0
  9
$DIMSAH
 70
     0
  9
$DIMBLK1
  1

  9
$DIMBLK2
  1

  9
$DIMSTYLE
  2
ISO-25
  9
$DIMCLRD
 70
     0
  9
$DIMCLRE
 70
     0
  9
$DIMCLRT
 70
     0
  9
$DIMTFAC
 40
1.0
  9
$DIMGAP
 40
1.524
  9
$DIMJUST
 70
     0
  9
$DIMSD1
 70
     0
  9
$DIMSD2
 70
     0
  9
$DIMTOLJ
 70
     0
  9
$DIMTZIN
 70
     0
  9
$DIMALTZ
 70
     0
  9
$DIMALTTZ
 70
     0
  9
$DIMUPT
 70
     0
  9
$DIMDEC
 70
     2
  9
$DIMTDEC
 70
     2
  9
$DIMALTU
 70
     2
  9
$DIMALTTD
 70
     3
  9
$DIMTXSTY
  7
Standard
  9
$DIMAUNIT
 70
     0
  9
$DIMADEC
 70
     2
  9
$DIMALTRND
 40
0.0
  9
$DIMAZIN
 70
     0
  9
$DIMDSEP
 70
    44
  9
$DIMATFIT
 70
     3
  9
$DIMFRAC
 70
     0
  9
$DIMLDRBLK
  1

  9
$DIMLUNIT
 70
     2
  9
$DIMLWD
 70
    -2
  9
$DIMLWE
 70
    -2
  9
$DIMTMOVE
 70
     0
  9
$LUNITS
 70
     2
  9
$LUPREC
 70
     2
  9
$SKETCHINC
 40
1.0
  9
$FILLETRAD
 40
10.0
  9
$AUNITS
 70
     0
  9
$AUPREC
 70
     2
  9
$MENU
  1
.
  9
$ELEVATION
 40
0.0
  9
$PELEVATION
 40
0.0
  9
$THICKNESS
 40
0.0
  9
$LIMCHECK
 70
     0
  9
$CHAMFERA
 40
0.0
  9
$CHAMFERB
 40
0.0
  9
$CHAMFERC
 40
0.0
  9
$CHAMFERD
 40
0.0
  9
$SKPOLY
 70
     0
  9
$TDCREATE
 40
2458311.494183241
  9
$TDUCREATE
 40
2458311.119183241
  9
$TDUPDATE
 40
2458320.649645301
  9
$TDUUPDATE
 40
2458320.274645301
  9
$TDINDWG
 40
0.0012693634
  9
$TDUSRTIMER
 40
2458320.273376192
  9
$USRTIMER
 70
     1
  9
$ANGBASE
 50
0.0
  9
$ANGDIR
 70
     0
  9
$PDMODE
 70
     0
  9
$PDSIZE
 40
-1.0
  9
$PLINEWID
 40
0.0
  9
$SPLFRAME
 70
     0
  9
$SPLINETYPE
 70
     6
  9
$SPLINESEGS
 70
     8
  9
$HANDSEED
  5
2DB
  9
$SURFTAB1
 70
     6
  9
$SURFTAB2
 70
     6
  9
$SURFTYPE
 70
     6
  9
$SURFU
 70
     6
  9
$SURFV
 70
     6
  9
$UCSBASE
  2

  9
$UCSNAME
  2

  9
$UCSORG
 10
0.0
 20
0.0
 30
0.0
  9
$UCSXDIR
 10
1.0
 20
0.0
 30
0.0
  9
$UCSYDIR
 10
0.0
 20
1.0
 30
0.0
  9
$UCSORTHOREF
  2

  9
$UCSORTHOVIEW
 70
     0
  9
$UCSORGTOP
 10
0.0
 20
0.0
 30
0.0
  9
$UCSORGBOTTOM
 10
0.0
 20
0.0
 30
0.0
  9
$UCSORGLEFT
 10
0.0
 20
0.0
 30
0.0
  9
$UCSORGRIGHT
 10
0.0
 20
0.0
 30
0.0
  9
$UCSORGFRONT
 10
0.0
 20
0.0
 30
0.0
  9
$UCSORGBACK
 10
0.0
 20
0.0
 30
0.0
  9
$PUCSBASE
  2

  9
$PUCSNAME
  2

  9
$PUCSORG
 10
0.0
 20
0.0
 30
0.0
  9
$PUCSXDIR
 10
1.0
 20
0.0
 30
0.0
  9
$PUCSYDIR
 10
0.0
 20
1.0
 30
0.0
  9
$PUCSORTHOREF
  2

  9
$PUCSORTHOVIEW
 70
     0
  9
$PUCSORGTOP
 10
0.0
 20
0.0
 30
0.0
  9
$PUCSORGBOTTOM
 10
0.0
 20
0.0
 30
0.0
  9
$PUCSORGLEFT
 10
0.0
 20
0.0
 30
0.0
  9
$PUCSORGRIGHT
 10
0.0
 20
0.0
 30
0.0
  9
$PUCSORGFRONT
 10
0.0
 20
0.0
 30
0.0
  9
$PUCSORGBACK
 10
0.0
 20
0.0
 30
0.0
  9
$USERI1
 70
     0
  9
$USERI2
 70
     0
  9
$USERI3
 70
     0
  9
$USERI4
 70
     0
  9
$USERI5
 70
     0
  9
$USERR1
 40
0.0
  9
$USERR2
 40
0.0
  9
$USERR3
 40
0.0
  9
$USERR4
 40
0.0
  9
$USERR5
 40
0.0
  9
$WORLDVIEW
 70
     1
  9
$SHADEDGE
 70
     3
  9
$SHADEDIF
 70
    70
  9
$TILEMODE
 70
     1
  9
$MAXACTVP
 70
    64
  9
$PINSBASE
 10
0.0
 20
0.0
 30
0.0
  9
$PLIMCHECK
 70
     0
  9
$PEXTMIN
 10
1.000000000000000E+20
 20
1.000000000000000E+20
 30
1.000000000000000E+20
  9
$PEXTMAX
 10
-1.000000000000000E+20
 20
-1.000000000000000E+20
 30
-1.000000000000000E+20
  9
$PLIMMIN
 10
0.0
 20
0.0
  9
$PLIMMAX
 10
0.0
 20
0.0
  9
$UNITMODE
 70
     0
  9
$VISRETAIN
 70
     1
  9
$PLINEGEN
 70
     0
  9
$PSLTSCALE
 70
     1
  9
$TREEDEPTH
 70
  3020
  9
$CMLSTYLE
  2
Standard
  9
$CMLJUST
 70
     0
  9
$CMLSCALE
 40
20.0
  9
$PROXYGRAPHICS
 70
     1
  9
$MEASUREMENT
 70
     1
  9
$CELWEIGHT
370
    -1
  9
$ENDCAPS
280
     0
  9
$JOINSTYLE
280
     0
  9
$LWDISPLAY
290
     1
  9
$INSUNITS
 70
     4
  9
$HYPERLINKBASE
  1

  9
$STYLESHEET
  1

  9
$XEDIT
290
     1
  9
$CEPSNTYPE
380
     0
  9
$PSTYLEMODE
290
     1
  9
$FINGERPRINTGUID
  2
{40754DAF-C0D9-4820-9B0A-D230297A9FB9}
  9
$VERSIONGUID
  2
{FAEB1C32-E019-11D5-929B-00C0DF256EC4}
  9
$EXTNAMES
290
     1
  9
$PSVPSCALE
 40
0.0
  9
$OLESTARTUP
290
     0
  0
ENDSEC
  0
SECTION
  2
CLASSES
  0
CLASS
  1
ACDBDICTIONARYWDFLT
  2
AcDbDictionaryWithDefault
  3
ObjectDBX Classes
 90
        0
280
     0
281
     0
  0
CLASS
  1
VISUALSTYLE
  2
AcDbVisualStyle
  3
ObjectDBX Classes
 90
     4095
280
     0
281
     0
  0
CLASS
  1
MATERIAL
  2
AcDbMaterial
  3
ObjectDBX Classes
 90
     1153
280
     0
281
     0
  0
CLASS
  1
SCALE
  2
AcDbScale
  3
ObjectDBX Classes
 90
     1153
280
     0
281
     0
  0
CLASS
  1
SUN
  2
AcDbSun
  3
SCENEOE
 90
     1153
280
     0
281
     0
  0
CLASS
  1
ACDBPLACEHOLDER
  2
AcDbPlaceHolder
  3
ObjectDBX Classes
 90
        0
280
     0
281
     0
  0
CLASS
  1
LAYOUT
  2
AcDbLayout
  3
ObjectDBX Classes
 90
        0
280
     0
281
     0
  0
CLASS
  1
TABLESTYLE
  2
AcDbTableStyle
  3
ObjectDBX Classes
 90
     4095
280
     0
281
     0
  0
CLASS
  1
MLEADERSTYLE
  2
AcDbMLeaderStyle
  3
ACDB_MLEADERSTYLE_CLASS
 90
     4095
280
     0
281
     0
  0
CLASS
  1
RASTERVARIABLES
  2
AcDbRasterVariables
  3
ISM
 90
        0
280
     0
281
     0
  0
ENDSEC
  0
SECTION
  2
TABLES
  0
TABLE
  2
VPORT
  5
8
330
0
100
AcDbSymbolTable
 70
     1
  0
VPORT
  5
29
330
8
100
AcDbSymbolTableRecord
100
AcDbViewportTableRecord
  2
*Active
 70
     0
 10
0.0
 20
0.0
 11
1.0
 21
1.0
 12
18.8064612760632
 22
13.52317164153378
 13
0.0
 23
0.0
 14
10.0
 24
10.0
 15
10.0
 25
10.0
 16
0.0
 26
0.0
 36
1.0
 17
0.0
 27
0.0
 37
0.0
 40
105.6117055057997
 41
1.970186335403727
 42
50.0
 43
0.0
 44
0.0
 50
0.0
 51
0.0
 71
    16
 72
  2000
 73
     1
 74
     3
 75
     0
 76
     0
 77
     0
 78
     0
281
     0
 65
     1
110
0.0
120
0.0
130
0.0
111
1.0
121
0.0
131
0.0
112
0.0
122
1.0
132
0.0
 79
     0
146
0.0
  0
ENDTAB
  0
TABLE
  2
LTYPE
  5
5
330
0
100
AcDbSymbolTable
 70
     6
  0
LTYPE
  5
14
330
5
100
AcDbSymbolTableRecord
100
AcDbLinetypeTableRecord
  2
ByBlock
 70
     0
  3

 72
    65
 73
     0
 40
0.0
  0
LTYPE
  5
15
330
5
100
AcDbSymbolTableRecord
100
AcDbLinetypeTableRecord
  2
ByLayer
 70
     0
  3

 72
    65
 73
     0
 40
0.0
  0
LTYPE
  5
16
330
5
100
AcDbSymbolTableRecord
100
AcDbLinetypeTableRecord
  2
Continuous
 70
     0
  3
Solid line
 72
    65
 73
     0
 40
0.0
  0
LTYPE
  5
6A
330
5
100
AcDbSymbolTableRecord
100
AcDbLinetypeTableRecord
  2
HIDDEN
 70
     0
  3
Hidden __ __ __ __ __ __ __ __ __ __ __ __ __ __
 72
    65
 73
     2
 40
1.905
 49
1.27
 74
     0
 49
-0.635
 74
     0
  0
LTYPE
  5
6B
330
5
100
AcDbSymbolTableRecord
100
AcDbLinetypeTableRecord
  2
PHANTOM
 70
     0
  3
Phantom ______  __  __  ______  __  __  ______
 72
    65
 73
     6
 40
12.7
 49
6.35
 74
     0
 49
-1.27
 74
     0
 49
1.27
 74
     0
 49
-1.27
 74
     0
 49
1.27
 74
     0
 49
-1.27
 74
     0
  0
LTYPE
  5
6C
330
5
100
AcDbSymbolTableRecord
100
AcDbLinetypeTableRecord
  2
CENTER
 70
     0
  3
Center ____ _ ____ _ ____ _ ____ _ ____ _ ____
 72
    65
 73
     4
 40
10.16
 49
6.35
 74
     0
 49
-1.27
 74
     0
 49
1.27
 74
     0
 49
-1.27
 74
     0
  0
LTYPE
  5
6D
330
5
100
AcDbSymbolTableRecord
100
AcDbLinetypeTableRecord
  2
CENTERX2
 70
     0
  3
Center (2x) ________  __  ________  __  _____
 72
    65
 73
     4
 40
20.32
 49
12.7
 74
     0
 49
-2.54
 74
     0
 49
2.54
 74
     0
 49
-2.54
 74
     0
  0
LTYPE
  5
6E
330
5
100
AcDbSymbolTableRecord
100
AcDbLinetypeTableRecord
  2
DOT2
 70
     0
  3
Dot (.5x) ........................................
 72
    65
 73
     2
 40
0.635
 49
0.0
 74
     0
 49
-0.635
 74
     0
  0
ENDTAB
  0
TABLE
  2
LAYER
  5
2
102
{ACAD_XDICTIONARY
360
21E
102
}
330
0
100
AcDbSymbolTable
 70
    18
  0
LAYER
  5
10
330
2
100
AcDbSymbolTableRecord
100
AcDbLayerTableRecord
  2
0
 70
     0
 62
     7
  6
Continuous
370
    -3
390
F
  0
LAYER
  5
6F
330
2
100
AcDbSymbolTableRecord
100
AcDbLayerTableRecord
  2
FORMAT
 70
     0
 62
     2
  6
Continuous
370
    -3
390
F
  0
LAYER
  5
70
330
2
100
AcDbSymbolTableRecord
100
AcDbLayerTableRecord
  2
외형선
 70
     0
 62
     4
  6
Continuous
370
    30
390
F
  0
LAYER
  5
71
330
2
100
AcDbSymbolTableRecord
100
AcDbLayerTableRecord
  2
숨은선
 70
     0
 62
     2
  6
HIDDEN
370
    15
390
F
  0
LAYER
  5
72
330
2
100
AcDbSymbolTableRecord
100
AcDbLayerTableRecord
  2
중심선
 70
     0
 62
     1
  6
CENTERX2
370
    -3
390
F
  0
LAYER
  5
73
330
2
100
AcDbSymbolTableRecord
100
AcDbLayerTableRecord
  2
파단선
 70
     0
 62
     4
  6
Continuous
370
    -3
390
F
  0
LAYER
  5
74
330
2
100
AcDbSymbolTableRecord
100
AcDbLayerTableRecord
  2
해칭선
 70
     0
 62
   100
  6
Continuous
370
    -3
390
F
  0
LAYER
  5
75
330
2
100
AcDbSymbolTableRecord
100
AcDbLayerTableRecord
  2
가는실선
 70
     0
 62
     4
  6
Continuous
370
    -3
390
F
  0
LAYER
  5
76
330
2
100
AcDbSymbolTableRecord
100
AcDbLayerTableRecord
  2
치수_보조선
 70
     0
 62
     4
  6
Continuous
370
    -3
390
F
  0
LAYER
  5
77
330
2
100
AcDbSymbolTableRecord
100
AcDbLayerTableRecord
  2
치수문자_일반주서
 70
     0
 62
     7
  6
Continuous
370
    15
390
F
  0
LAYER
  5
78
330
2
100
AcDbSymbolTableRecord
100
AcDbLayerTableRecord
  2
개별주서
 70
     0
 62
   100
  6
Continuous
370
    30
390
F
  0
LAYER
  5
79
330
2
100
AcDbSymbolTableRecord
100
AcDbLayerTableRecord
  2
중간선
 70
     0
 62
     2
  6
Continuous
370
    15
390
F
  0
LAYER
  5
7A
330
2
100
AcDbSymbolTableRecord
100
AcDbLayerTableRecord
  2
윤곽선
 70
     0
 62
     3
  6
Continuous
370
    40
390
F
  0
LAYER
  5
7B
330
2
100
AcDbSymbolTableRecord
100
AcDbLayerTableRecord
  2
중심마크
 70
     0
 62
   100
  6
Continuous
370
    30
390
F
  0
LAYER
  5
7C
330
2
100
AcDbSymbolTableRecord
100
AcDbLayerTableRecord
  2
가상선
 70
     0
 62
     4
  6
PHANTOM
370
    -3
390
F
  0
LAYER
  5
7D
330
2
100
AcDbSymbolTableRecord
100
AcDbLayerTableRecord
  2
특수지정선
 70
     0
 62
     5
  6
CENTERX2
370
    60
390
F
  0
LAYER
  5
7E
330
2
100
AcDbSymbolTableRecord
100
AcDbLayerTableRecord
  2
참조1
 70
     0
 62
    -4
  6
Continuous
370
    -3
390
F
  0
LAYER
  5
166
330
2
100
AcDbSymbolTableRecord
100
AcDbLayerTableRecord
  2
Defpoints
 70
     0
 62
     7
  6
Continuous
290
     0
370
    -3
390
F
  0
ENDTAB
  0
TABLE
  2
STYLE
  5
3
330
0
100
AcDbSymbolTable
 70
     2
  0
STYLE
  5
11
330
3
100
AcDbSymbolTableRecord
100
AcDbTextStyleTableRecord
  2
Standard
 70
     0
 40
0.0
 41
1.0
 50
0.0
 71
     0
 42
3.5
  3
txt
  4

  0
STYLE
  5
94
330
3
100
AcDbSymbolTableRecord
100
AcDbTextStyleTableRecord
  2
SLDTEXTSTYLE0
 70
     0
 40
0.0
 41
0.75
 50
0.0
 71
     0
 42
3.5
  3
TXT
  4

  0
ENDTAB
  0
TABLE
  2
VIEW
  5
6
330
0
100
AcDbSymbolTable
 70
     0
  0
ENDTAB
  0
TABLE
  2
UCS
  5
7
330
0
100
AcDbSymbolTable
 70
     0
  0
ENDTAB
  0
TABLE
  2
APPID
  5
9
330
0
100
AcDbSymbolTable
 70
     3
  0
APPID
  5
12
330
9
100
AcDbSymbolTableRecord
100
AcDbRegAppTableRecord
  2
ACAD
 70
     0
  0
APPID
  5
172
330
9
100
AcDbSymbolTableRecord
100
AcDbRegAppTableRecord
  2
PE_URL
 70
     0
  0
APPID
  5
173
330
9
100
AcDbSymbolTableRecord
100
AcDbRegAppTableRecord
  2
ACAD_DSTYLE_DIMRADIAL_EXTENSION
 70
     0
  0
ENDTAB
  0
TABLE
  2
DIMSTYLE
  5
A
330
0
100
AcDbSymbolTable
 70
     4
100
AcDbDimStyleTable
  0
DIMSTYLE
105
27
330
A
100
AcDbSymbolTableRecord
100
AcDbDimStyleTableRecord
  2
ISO-25
 70
     0
 41
2.5
 42
0.625
 43
3.75
 44
1.25
 73
     0
 74
     0
 77
     1
 78
     8
140
2.5
141
2.5
143
0.03937007874016
147
0.625
171
     3
172
     1
178
     0
271
     2
272
     2
274
     3
278
    44
283
     0
284
     8
340
11
  0
DIMSTYLE
105
E3
102
{ACAD_REACTORS
330
E2
330
1D2
330
1DF
330
F7
330
10C
330
120
102
}
330
A
100
AcDbSymbolTableRecord
100
AcDbDimStyleTableRecord
  2
SLDDIMSTYLE0
 70
     0
 41
3.302
 44
0.0
 45
0.000000001
 73
     0
 74
     0
 77
     1
 78
    12
 79
     3
140
3.5
143
0.0393700787401575
147
0.875
148
0.000000001
170
     1
172
     1
173
     1
178
     0
271
     2
272
     2
276
     2
284
    12
289
     0
340
94
  0
DIMSTYLE
105
F8
102
{ACAD_REACTORS
330
215
102
}
330
A
100
AcDbSymbolTableRecord
100
AcDbDimStyleTableRecord
  2
SLDDIMSTYLE1
 70
     0
 41
3.302
 44
0.0
 45
0.000000001
 73
     0
 74
     0
 77
     1
 78
    12
 79
     3
140
3.5
143
0.0393700787401575
147
0.875
148
0.000000001
170
     1
173
     1
178
     0
271
     2
272
     2
276
     2
284
    12
340
94
  0
DIMSTYLE
105
10D
102
{ACAD_REACTORS
330
1EC
330
1FB
102
}
330
A
100
AcDbSymbolTableRecord
100
AcDbDimStyleTableRecord
  2
SLDDIMSTYLE2
 70
     0
 41
3.302
 44
0.0
 45
0.000000001
 73
     0
 74
     0
 77
     1
 78
     4
 79
     1
140
3.5
143
0.0393700787401575
147
0.875
148
0.000000001
170
     1
173
     1
178
     0
271
     2
272
     2
276
     2
284
    12
340
94
  0
ENDTAB
  0
TABLE
  2
BLOCK_RECORD
  5
1
330
0
100
AcDbSymbolTable
 70
    18
  0
BLOCK_RECORD
  5
1F
330
1
100
AcDbSymbolTableRecord
100
AcDbBlockTableRecord
  2
*Model_Space
340
22
  0
BLOCK_RECORD
  5
1B
330
1
100
AcDbSymbolTableRecord
100
AcDbBlockTableRecord
  2
*Paper_Space
340
1E
  0
BLOCK_RECORD
  5
23
330
1
100
AcDbSymbolTableRecord
100
AcDbBlockTableRecord
  2
*Paper_Space0
340
26
  0
BLOCK_RECORD
  5
7F
330
1
100
AcDbSymbolTableRecord
100
AcDbBlockTableRecord
  2
블럭10
340
0
102
{BLKREFS
331
DB
102
}
  0
BLOCK_RECORD
  5
E4
330
1
100
AcDbSymbolTableRecord
100
AcDbBlockTableRecord
  2
_D
340
0
  0
BLOCK_RECORD
  5
F9
330
1
100
AcDbSymbolTableRecord
100
AcDbBlockTableRecord
  2
_D_1
340
0
  0
BLOCK_RECORD
  5
10E
330
1
100
AcDbSymbolTableRecord
100
AcDbBlockTableRecord
  2
_D_2
340
0
  0
BLOCK_RECORD
  5
121
330
1
100
AcDbSymbolTableRecord
100
AcDbBlockTableRecord
  2
_D_3
340
0
  0
BLOCK_RECORD
  5
13A
330
1
100
AcDbSymbolTableRecord
100
AcDbBlockTableRecord
  2
SW_DOWELSYMBOL_0
340
0
102
{BLKREFS
331
140
331
20A
331
0
102
}
  0
BLOCK_RECORD
  5
1FC
330
1
100
AcDbSymbolTableRecord
100
AcDbBlockTableRecord
  2
_D_4
340
0
  0
BLOCK_RECORD
  5
216
330
1
100
AcDbSymbolTableRecord
100
AcDbBlockTableRecord
  2
*D9
340
0
  0
BLOCK_RECORD
  5
222
330
1
100
AcDbSymbolTableRecord
100
AcDbBlockTableRecord
  2
*D10
340
0
  0
BLOCK_RECORD
  5
22E
330
1
100
AcDbSymbolTableRecord
100
AcDbBlockTableRecord
  2
*D11
340
0
  0
BLOCK_RECORD
  5
23A
330
1
100
AcDbSymbolTableRecord
100
AcDbBlockTableRecord
  2
*D12
340
0
  0
BLOCK_RECORD
  5
295
330
1
100
AcDbSymbolTableRecord
100
AcDbBlockTableRecord
  2
*D13
340
0
  0
BLOCK_RECORD
  5
2A1
330
1
100
AcDbSymbolTableRecord
100
AcDbBlockTableRecord
  2
*D14
340
0
  0
BLOCK_RECORD
  5
2AD
330
1
100
AcDbSymbolTableRecord
100
AcDbBlockTableRecord
  2
*D15
340
0
  0
BLOCK_RECORD
  5
2BB
330
1
100
AcDbSymbolTableRecord
100
AcDbBlockTableRecord
  2
*D16
340
0
  0
BLOCK_RECORD
  5
2C9
330
1
100
AcDbSymbolTableRecord
100
AcDbBlockTableRecord
  2
*D17
340
0
  0
ENDTAB
  0
ENDSEC
  0
SECTION
  2
BLOCKS
  0
BLOCK
  5
20
330
1F
100
AcDbEntity
  8
0
100
AcDbBlockBegin
  2
*Model_Space
 70
     0
 10
0.0
 20
0.0
 30
0.0
  3
*Model_Space
  1
*Model_Space
  0
ENDBLK
  5
21
330
1F
100
AcDbEntity
  8
0
100
AcDbBlockEnd
  0
BLOCK
  5
1C
330
1B
100
AcDbEntity
 67
     1
  8
0
100
AcDbBlockBegin
  2
*Paper_Space
 70
     0
 10
0.0
 20
0.0
 30
0.0
  3
*Paper_Space
  1
*Paper_Space
  0
ENDBLK
  5
1D
330
1B
100
AcDbEntity
 67
     1
  8
0
100
AcDbBlockEnd
  0
BLOCK
  5
24
330
23
100
AcDbEntity
  8
0
100
AcDbBlockBegin
  2
*Paper_Space0
 70
     0
 10
0.0
 20
0.0
 30
0.0
  3
*Paper_Space0
  1
*Paper_Space0
  0
ENDBLK
  5
25
330
23
100
AcDbEntity
  8
0
100
AcDbBlockEnd
  0
BLOCK
  5
80
330
7F
100
AcDbEntity
  8
0
100
AcDbBlockBegin
  2
블럭10
 70
     2
 10
0.0
 20
0.0
 30
0.0
  3
블럭10
  1
블럭10
  0
ELLIPSE
  5
82
330
7F
100
AcDbEntity
  8
중심선
100
AcDbEllipse
 10
20.54032771741204
 20
12.0471743016438
 30
0.0
 11
6.600054785286829
 21
-1.261213355974178E-13
 31
0.0
210
0.0
220
0.0
230
1.0
 40
0.636358354079598
 41
0.9219305317359503
 42
6.513795318482858
  0
ELLIPSE
  5
83
330
7F
100
AcDbEntity
  8
중심선
100
AcDbEllipse
 10
20.54032771746488
 20
12.04717430159265
 30
0.0
 11
3.960054785062283
 21
1.540847449632565E-10
 31
0.0
210
0.0
220
0.0
230
1.0
 40
0.3939339440162632
 41
1.131841032648279
 42
5.62031148352944
  0
LINE
  5
84
330
7F
100
AcDbEntity
  8
중심선
100
AcDbLine
 10
2.268634060543552
 20
16.24717430164393
 30
0.0
 11
5.714909304380834
 21
16.24717430164393
 31
0.0
  0
LINE
  5
85
330
7F
100
AcDbEntity
  8
중심선
100
AcDbLine
 10
5.245725140726316
 20
7.84717430164391
 30
0.0
 11
8.692000384563599
 21
7.84717430164391
 31
0.0
  0
LINE
  5
86
330
7F
100
AcDbEntity
  8
중심선
100
AcDbLine
 10
15.74043728645272
 20
16.24717430164393
 30
0.0
 11
8.692000384563599
 21
7.84717430164391
 31
0.0
  0
LINE
  5
87
330
7F
100
AcDbEntity
  8
중심선
100
AcDbLine
 10
0.1404042013395286
 20
13.71084872107135
 30
0.0
 11
3.58671253028996
 21
13.71088815037384
 31
0.0
  0
LINE
  5
88
330
7F
100
AcDbEntity
  8
중심선
100
AcDbLine
 10
2.750260043222114
 20
10.84717430164391
 30
0.0
 11
6.196535287059397
 21
10.84717430164391
 31
0.0
  0
LINE
  5
89
330
7F
100
AcDbEntity
  8
중심선
100
AcDbLine
 10
12.29416204261559
 20
16.24717430164393
 30
0.0
 11
5.245725140726316
 21
7.84717430164391
 31
0.0
  0
LINE
  5
8A
330
7F
100
AcDbEntity
  8
중심선
100
AcDbLine
 10
10.72767329541681
 20
16.24717430164393
 30
0.0
 11
6.196535287059397
 21
10.84717430164391
 31
0.0
  0
LINE
  5
8B
330
7F
100
AcDbEntity
  8
중심선
100
AcDbLine
 10
7.28139805157953
 20
16.24717430164393
 30
0.0
 11
2.750260043222114
 21
10.84717430164391
 31
0.0
  0
LINE
  5
8C
330
7F
100
AcDbEntity
  8
중심선
100
AcDbLine
 10
5.714909304380834
 20
16.24717430164393
 30
0.0
 11
3.58671253028996
 21
13.71088815037384
 31
0.0
  0
LINE
  5
8D
330
7F
100
AcDbEntity
  8
중심선
100
AcDbLine
 10
2.268634060543552
 20
16.24717430164393
 30
0.0
 11
0.1404042013395286
 21
13.71084872107135
 31
0.0
  0
LINE
  5
8E
330
7F
100
AcDbEntity
  8
중심선
100
AcDbLine
 10
7.28139805157953
 20
16.24717430164393
 30
0.0
 11
10.72767329541681
 21
16.24717430164393
 31
0.0
  0
LINE
  5
8F
330
7F
100
AcDbEntity
  8
중심선
100
AcDbLine
 10
12.29416204261559
 20
16.24717430164393
 30
0.0
 11
15.74043728645272
 21
16.24717430164393
 31
0.0
  0
LINE
  5
90
330
7F
100
AcDbEntity
  8
중심선
100
AcDbLine
 10
19.22036997980202
 20
11.08717430171403
 30
0.0
 11
23.66174974927406
 21
11.08717430171406
 31
0.0
  0
LINE
  5
91
330
7F
100
AcDbEntity
  8
중심선
100
AcDbLine
 10
19.22039502424796
 20
13.00717430171391
 30
0.0
 11
19.22036997980202
 21
11.08717430171403
 31
0.0
  0
LINE
  5
92
330
7F
100
AcDbEntity
  8
중심선
100
AcDbLine
 10
19.22039502424796
 20
13.00717430171391
 30
0.0
 11
26.96566020931264
 21
13.00717430171391
 31
0.0
  0
LINE
  5
93
330
7F
100
AcDbEntity
  8
중심선
100
AcDbLine
 10
22.22332737316547
 20
13.45928029700563
 30
0.0
 11
24.52862924686651
 21
15.39360700705356
 31
0.0
  0
ATTDEF
  5
95
330
7F
100
AcDbEntity
  8
FORMAT
 62
     2
100
AcDbText
 10
4.408487351596664
 20
2.075366912832191
 30
0.0
 40
4.233333333333333
  1
E5026024
 41
0.75
  7
SLDTEXTSTYLE0
 11
4.408487351596664
 21
-0.0412997538344756
 31
0.0
100
AcDbAttributeDefinition
  3

  2
AUTOATTR0
 70
     0
 74
     1
  0
ENDBLK
  5
81
330
7F
100
AcDbEntity
  8
0
100
AcDbBlockEnd
  0
BLOCK
  5
E5
330
E4
100
AcDbEntity
  8
0
100
AcDbBlockBegin
  2
_D
 70
     0
 10
0.0
 20
0.0
 30
0.0
  3
_D
  1
_D
  0
LINE
  5
E7
330
E4
100
AcDbEntity
  8
치수문자_일반주서
 62
     0
370
    -2
100
AcDbLine
 10
-46.21249999999998
 20
4.762500000000001
 30
0.0
 11
-61.95054818284603
 21
4.762499999999942
 31
0.0
  0
LINE
  5
E8
330
E4
100
AcDbEntity
  8
치수문자_일반주서
 62
     0
370
    -2
100
AcDbLine
 10
-46.21249999999998
 20
-4.762500000000005
 30
0.0
 11
-61.950548182846
 21
-4.762500000000063
 31
0.0
  0
LINE
  5
E9
330
E4
100
AcDbEntity
  8
치수문자_일반주서
 62
     0
370
    -2
100
AcDbLine
 10
-61.95054818284603
 20
4.762499999999942
 30
0.0
 11
-61.95054818284616
 21
37.83524999999995
 31
0.0
  0
LINE
  5
EA
330
E4
100
AcDbEntity
  8
치수문자_일반주서
 62
     0
370
    -2
100
AcDbLine
 10
-61.95054818284603
 20
4.762499999999942
 30
0.0
 11
-61.950548182846
 21
-4.762500000000063
 31
0.0
  0
LINE
  5
EB
330
E4
100
AcDbEntity
  8
치수문자_일반주서
 62
     0
370
    -2
100
AcDbLine
 10
-61.95054818284605
 20
8.064499999999942
 30
0.0
 11
-61.95054818284606
 21
11.36649999999994
 31
0.0
  0
LINE
  5
EC
330
E4
100
AcDbEntity
  8
치수문자_일반주서
 62
     0
370
    -2
100
AcDbLine
 10
-61.95054818284598
 20
-8.064500000000063
 30
0.0
 11
-61.95054818284597
 21
-11.36650000000006
 31
0.0
  0
SOLID
  5
ED
330
E4
100
AcDbEntity
  8
치수문자_일반주서
 62
     0
100
AcDbTrace
 10
-62.50088151617938
 20
8.06449999999994
 30
0.0
 11
-61.40021484951271
 21
8.064499999999944
 31
0.0
 12
-61.95054818284603
 22
4.762499999999942
 32
0.0
 13
-61.95054818284603
 23
4.762499999999942
 33
0.0
  0
SOLID
  5
EE
330
E4
100
AcDbEntity
  8
치수문자_일반주서
 62
     0
100
AcDbTrace
 10
-61.40021484951265
 20
-8.064500000000061
 30
0.0
 11
-62.50088151617932
 21
-8.064500000000065
 31
0.0
 12
-61.950548182846
 22
-4.762500000000063
 32
0.0
 13
-61.950548182846
 23
-4.762500000000063
 33
0.0
  0
MTEXT
  5
EF
330
E4
100
AcDbEntity
  8
치수문자_일반주서
 62
     0
100
AcDbMText
 10
-66.3255481828461
 20
24.71024999999993
 30
0.0
 40
3.5
 41
0.0
 71
     2
 72
     1
  1
\A1;%%c9.53 [3/8]
  7
SLDTEXTSTYLE0
 11
-3.729883127349605E-15
 21
1.0
 31
0.0
 73
     1
 44
1.0
  0
POINT
  5
2D3
330
E4
100
AcDbEntity
  8
Defpoints
 62
     0
100
AcDbPoint
 10
-46.14999999999998
 20
4.762500000000001
 30
0.0
  0
POINT
  5
2D4
330
E4
100
AcDbEntity
  8
Defpoints
 62
     0
100
AcDbPoint
 10
-46.14999999999998
 20
-4.762500000000005
 30
0.0
  0
POINT
  5
2D5
330
E4
100
AcDbEntity
  8
Defpoints
 62
     0
100
AcDbPoint
 10
-61.950548182846
 20
-4.762500000000063
 30
0.0
  0
ENDBLK
  5
E6
330
E4
100
AcDbEntity
  8
0
100
AcDbBlockEnd
  0
BLOCK
  5
FA
330
F9
100
AcDbEntity
  8
0
100
AcDbBlockBegin
  2
_D_1
 70
     0
 10
0.0
 20
0.0
 30
0.0
  3
_D_1
  1
_D_1
  0
LINE
  5
FC
330
F9
100
AcDbEntity
  8
치수문자_일반주서
 62
     0
370
    -2
100
AcDbLine
 10
54.44999999999975
 20
4.824999999999999
 30
0.0
 11
54.44999999999975
 21
17.93481653835412
 31
0.0
  0
LINE
  5
FD
330
F9
100
AcDbEntity
  8
치수문자_일반주서
 62
     0
370
    -2
100
AcDbLine
 10
10.0
 20
4.062683575057482
 30
0.0
 11
10.0
 21
17.93481653835412
 31
0.0
  0
LINE
  5
FE
330
F9
100
AcDbEntity
  8
치수문자_일반주서
 62
     0
370
    -2
100
AcDbLine
 10
51.14799999999975
 20
17.93481653835412
 30
0.0
 11
13.302
 21
17.93481653835412
 31
0.0
  0
SOLID
  5
FF
330
F9
100
AcDbEntity
  8
치수문자_일반주서
 62
     0
100
AcDbTrace
 10
51.14799999999975
 20
17.38448320502078
 30
0.0
 11
51.14799999999975
 21
18.48514987168745
 31
0.0
 12
54.44999999999975
 22
17.93481653835412
 32
0.0
 13
54.44999999999975
 23
17.93481653835412
 33
0.0
  0
SOLID
  5
100
330
F9
100
AcDbEntity
  8
치수문자_일반주서
 62
     0
100
AcDbTrace
 10
13.302
 20
18.48514987168745
 30
0.0
 11
13.302
 21
17.38448320502078
 31
0.0
 12
10.0
 22
17.93481653835412
 32
0.0
 13
10.0
 23
17.93481653835412
 33
0.0
  0
MTEXT
  5
101
330
F9
100
AcDbEntity
  8
치수문자_일반주서
 62
     0
100
AcDbMText
 10
32.22500000000001
 20
22.30981653835412
 30
0.0
 40
3.5
 41
0.0
 71
     2
 72
     1
  1
\A1;44.45 [1 3/4]
  7
SLDTEXTSTYLE0
 73
     1
 44
1.0
  0
POINT
  5
102
330
F9
100
AcDbEntity
  8
Defpoints
 62
     0
100
AcDbPoint
 10
54.44999999999975
 20
4.762499999999999
 30
0.0
  0
POINT
  5
103
330
F9
100
AcDbEntity
  8
Defpoints
 62
     0
100
AcDbPoint
 10
10.0
 20
4.000183575057482
 30
0.0
  0
POINT
  5
104
330
F9
100
AcDbEntity
  8
Defpoints
 62
     0
100
AcDbPoint
 10
10.0
 20
17.93481653835412
 30
0.0
  0
ENDBLK
  5
FB
330
F9
100
AcDbEntity
  8
0
100
AcDbBlockEnd
  0
BLOCK
  5
10F
330
10E
100
AcDbEntity
  8
0
100
AcDbBlockBegin
  2
_D_2
 70
     0
 10
0.0
 20
0.0
 30
0.0
  3
_D_2
  1
_D_2
  0
LINE
  5
111
330
10E
100
AcDbEntity
  8
치수문자_일반주서
 62
     0
370
    -2
100
AcDbLine
 10
54.44999999999973
 20
4.824999999999998
 30
0.0
 11
54.44999999999973
 21
35.04486045510103
 31
0.0
  0
LINE
  5
112
330
10E
100
AcDbEntity
  8
치수문자_일반주서
 62
     0
370
    -2
100
AcDbLine
 10
-47.14999999999998
 20
3.82499999999999
 30
0.0
 11
-47.14999999999998
 21
35.04486045510103
 31
0.0
  0
LINE
  5
113
330
10E
100
AcDbEntity
  8
치수문자_일반주서
 62
     0
370
    -2
100
AcDbLine
 10
51.14799999999973
 20
35.04486045510103
 30
0.0
 11
-43.84799999999998
 21
35.04486045510103
 31
0.0
  0
SOLID
  5
114
330
10E
100
AcDbEntity
  8
치수문자_일반주서
 62
     0
100
AcDbTrace
 10
51.14799999999973
 20
34.4945271217677
 30
0.0
 11
51.14799999999973
 21
35.59519378843436
 31
0.0
 12
54.44999999999973
 22
35.04486045510103
 32
0.0
 13
54.44999999999973
 23
35.04486045510103
 33
0.0
  0
SOLID
  5
115
330
10E
100
AcDbEntity
  8
치수문자_일반주서
 62
     0
100
AcDbTrace
 10
-43.84799999999998
 20
35.59519378843436
 30
0.0
 11
-43.84799999999998
 21
34.4945271217677
 31
0.0
 12
-47.14999999999998
 22
35.04486045510103
 32
0.0
 13
-47.14999999999998
 23
35.04486045510103
 33
0.0
  0
MTEXT
  5
116
330
10E
100
AcDbEntity
  8
치수문자_일반주서
 62
     0
100
AcDbMText
 10
3.649999999999869
 20
39.41986045510103
 30
0.0
 40
3.5
 41
0.0
 71
     2
 72
     1
  1
\A1;101.6 [4]
  7
SLDTEXTSTYLE0
 73
     1
 44
1.0
  0
POINT
  5
117
330
10E
100
AcDbEntity
  8
Defpoints
 62
     0
100
AcDbPoint
 10
54.44999999999973
 20
4.762499999999998
 30
0.0
  0
POINT
  5
118
330
10E
100
AcDbEntity
  8
Defpoints
 62
     0
100
AcDbPoint
 10
-47.14999999999998
 20
3.76249999999999
 30
0.0
  0
POINT
  5
119
330
10E
100
AcDbEntity
  8
Defpoints
 62
     0
100
AcDbPoint
 10
-47.14999999999998
 20
35.04486045510103
 30
0.0
  0
ENDBLK
  5
110
330
10E
100
AcDbEntity
  8
0
100
AcDbBlockEnd
  0
BLOCK
  5
122
330
121
100
AcDbEntity
  8
0
100
AcDbBlockBegin
  2
_D_3
 70
     0
 10
0.0
 20
0.0
 30
0.0
  3
_D_3
  1
_D_3
  0
LINE
  5
124
330
121
100
AcDbEntity
  8
치수문자_일반주서
 62
     0
370
    -2
100
AcDbLine
 10
54.51250000000002
 20
-4.762500000000001
 30
0.0
 11
72.85197033542629
 21
-4.762499999999935
 31
0.0
  0
LINE
  5
125
330
121
100
AcDbEntity
  8
치수문자_일반주서
 62
     0
370
    -2
100
AcDbLine
 10
54.51249999999975
 20
4.762499999999999
 30
0.0
 11
72.85197033542626
 21
4.762500000000067
 31
0.0
  0
LINE
  5
126
330
121
100
AcDbEntity
  8
치수문자_일반주서
 62
     0
370
    -2
100
AcDbLine
 10
72.85197033542626
 20
4.762500000000067
 30
0.0
 11
72.85197033542616
 21
37.83525000000007
 31
0.0
  0
LINE
  5
127
330
121
100
AcDbEntity
  8
치수문자_일반주서
 62
     0
370
    -2
100
AcDbLine
 10
72.85197033542629
 20
-4.762499999999935
 30
0.0
 11
72.85197033542626
 21
4.762500000000067
 31
0.0
  0
LINE
  5
128
330
121
100
AcDbEntity
  8
치수문자_일반주서
 62
     0
370
    -2
100
AcDbLine
 10
72.8519703354263
 20
-8.064499999999935
 30
0.0
 11
72.85197033542632
 21
-11.36649999999993
 31
0.0
  0
LINE
  5
129
330
121
100
AcDbEntity
  8
치수문자_일반주서
 62
     0
370
    -2
100
AcDbLine
 10
72.85197033542624
 20
8.064500000000066
 30
0.0
 11
72.85197033542623
 21
11.36650000000007
 31
0.0
  0
SOLID
  5
12A
330
121
100
AcDbEntity
  8
치수문자_일반주서
 62
     0
100
AcDbTrace
 10
73.40230366875963
 20
-8.064499999999933
 30
0.0
 11
72.30163700209297
 21
-8.064499999999937
 31
0.0
 12
72.85197033542629
 22
-4.762499999999935
 32
0.0
 13
72.85197033542629
 23
-4.762499999999935
 33
0.0
  0
SOLID
  5
12B
330
121
100
AcDbEntity
  8
치수문자_일반주서
 62
     0
100
AcDbTrace
 10
72.30163700209292
 20
8.064500000000065
 30
0.0
 11
73.40230366875957
 21
8.064500000000068
 31
0.0
 12
72.85197033542626
 22
4.762500000000067
 32
0.0
 13
72.85197033542626
 23
4.762500000000067
 33
0.0
  0
MTEXT
  5
12C
330
121
100
AcDbEntity
  8
치수문자_일반주서
 62
     0
100
AcDbMText
 10
68.4769703354262
 20
24.71025000000005
 30
0.0
 40
3.5
 41
0.0
 71
     2
 72
     1
  1
\A1;%%c9.53 [3/8]
  7
SLDTEXTSTYLE0
 11
-2.983906501879686E-15
 21
1.0
 31
0.0
 73
     1
 44
1.0
  0
POINT
  5
12D
330
121
100
AcDbEntity
  8
Defpoints
 62
     0
100
AcDbPoint
 10
54.45000000000002
 20
-4.762500000000001
 30
0.0
  0
POINT
  5
12E
330
121
100
AcDbEntity
  8
Defpoints
 62
     0
100
AcDbPoint
 10
54.44999999999975
 20
4.762499999999999
 30
0.0
  0
POINT
  5
12F
330
121
100
AcDbEntity
  8
Defpoints
 62
     0
100
AcDbPoint
 10
72.85197033542626
 20
4.762500000000068
 30
0.0
  0
ENDBLK
  5
123
330
121
100
AcDbEntity
  8
0
100
AcDbBlockEnd
  0
BLOCK
  5
13B
330
13A
100
AcDbEntity
  8
0
100
AcDbBlockBegin
  2
SW_DOWELSYMBOL_0
 70
     0
 10
0.0
 20
0.0
 30
0.0
  3
SW_DOWELSYMBOL_0
  1
SW_DOWELSYMBOL_0
  0
CIRCLE
  5
13D
330
13A
100
AcDbEntity
  8
해칭선
 62
     0
100
AcDbCircle
 10
0.0
 20
0.0
 30
0.0
 40
2.999999999999996
  0
HATCH
  5
13E
330
13A
100
AcDbEntity
  8
0
  6
Continuous
 62
     0
370
     0
100
AcDbHatch
 10
0.0
 20
0.0
 30
0.0
210
0.0
220
0.0
230
1.0
  2
SOLID
 70
     1
 71
     0
 91
        1
 92
        0
 93
        3
 72
     2
 10
0.0
 20
0.0
 40
2.999999999999996
 50
0.0
 51
90.0
 73
     1
 72
     1
 10
0.0
 20
2.999999999999996
 11
0.0
 21
0.0
 72
     1
 10
0.0
 20
0.0
 11
2.999999999999996
 21
0.0
 97
        0
 75
     0
 76
     1
 98
        1
 10
0.0
 20
0.0
  0
HATCH
  5
13F
330
13A
100
AcDbEntity
  8
0
  6
Continuous
 62
     0
370
     0
100
AcDbHatch
 10
0.0
 20
0.0
 30
0.0
210
0.0
220
0.0
230
1.0
  2
SOLID
 70
     1
 71
     0
 91
        1
 92
        0
 93
        3
 72
     2
 10
0.0
 20
0.0
 40
2.999999999999996
 50
180.0
 51
270.0000000000008
 73
     1
 72
     1
 10
0.0
 20
-2.999999999999996
 11
0.0
 21
0.0
 72
     1
 10
0.0
 20
0.0
 11
-2.999999999999996
 21
0.0
 97
        0
 75
     0
 76
     1
 98
        1
 10
0.0
 20
0.0
  0
ENDBLK
  5
13C
330
13A
100
AcDbEntity
  8
0
100
AcDbBlockEnd
  0
BLOCK
  5
1FD
330
1FC
100
AcDbEntity
  8
0
100
AcDbBlockBegin
  2
_D_4
 70
     0
 10
0.0
 20
0.0
 30
0.0
  3
_D_4
  1
_D_4
  0
LINE
  5
1FE
330
1FC
100
AcDbEntity
  8
치수문자_일반주서
 62
     0
370
    -2
100
AcDbLine
 10
102.4375000000001
 20
36.22143424691529
 30
0.0
 11
117.3750000000001
 21
36.22143424691535
 31
0.0
  0
LINE
  5
1FF
330
1FC
100
AcDbEntity
  8
치수문자_일반주서
 62
     0
370
    -2
100
AcDbLine
 10
102.4375000000001
 20
22.22143424691529
 30
0.0
 11
117.3750000000001
 21
22.22143424691535
 31
0.0
  0
LINE
  5
200
330
1FC
100
AcDbEntity
  8
치수문자_일반주서
 62
     0
370
    -2
100
AcDbLine
 10
117.3750000000001
 20
36.22143424691535
 30
0.0
 11
117.3750000000001
 21
22.22143424691535
 31
0.0
  0
LINE
  5
201
330
1FC
100
AcDbEntity
  8
치수문자_일반주서
 62
     0
370
    -2
100
AcDbLine
 10
117.3750000000001
 20
39.52343424691535
 30
0.0
 11
117.375
 21
42.82543424691535
 31
0.0
  0
LINE
  5
202
330
1FC
100
AcDbEntity
  8
치수문자_일반주서
 62
     0
370
    -2
100
AcDbLine
 10
117.3750000000001
 20
18.91943424691535
 30
0.0
 11
117.3750000000001
 21
15.61743424691535
 31
0.0
  0
SOLID
  5
203
330
1FC
100
AcDbEntity
  8
치수문자_일반주서
 62
     0
100
AcDbTrace
 10
116.8246666666667
 20
39.52343424691535
 30
0.0
 11
117.9253333333334
 21
39.52343424691535
 31
0.0
 12
117.3750000000001
 22
36.22143424691535
 32
0.0
 13
117.3750000000001
 23
36.22143424691535
 33
0.0
  0
SOLID
  5
204
330
1FC
100
AcDbEntity
  8
치수문자_일반주서
 62
     0
100
AcDbTrace
 10
117.9253333333335
 20
18.91943424691535
 30
0.0
 11
116.8246666666668
 21
18.91943424691535
 31
0.0
 12
117.3750000000001
 22
22.22143424691535
 32
0.0
 13
117.3750000000001
 23
22.22143424691535
 33
0.0
  0
MTEXT
  5
205
330
1FC
100
AcDbEntity
  8
치수문자_일반주서
 62
     0
100
AcDbMText
 10
113.0000000000001
 20
29.28713862862833
 30
0.0
 40
3.5
 41
0.0
 71
     2
 72
     1
  1
\A1;%%c14.00 [0.55]
  7
SLDTEXTSTYLE0
 11
-3.045183153257572E-15
 21
1.0
 31
0.0
 73
     1
 44
1.0
  0
POINT
  5
206
330
1FC
100
AcDbEntity
  8
Defpoints
 62
     0
100
AcDbPoint
 10
102.3750000000001
 20
36.22143424691529
 30
0.0
  0
POINT
  5
207
330
1FC
100
AcDbEntity
  8
Defpoints
 62
     0
100
AcDbPoint
 10
102.3750000000001
 20
22.22143424691529
 30
0.0
  0
POINT
  5
208
330
1FC
100
AcDbEntity
  8
Defpoints
 62
     0
100
AcDbPoint
 10
117.3750000000001
 20
22.22143424691535
 30
0.0
  0
ENDBLK
  5
209
330
1FC
100
AcDbEntity
  8
0
100
AcDbBlockEnd
  0
BLOCK
  5
217
330
216
100
AcDbEntity
  8
0
100
AcDbBlockBegin
  2
*D9
 70
     1
 10
0.0
 20
0.0
 30
0.0
  3
*D9
  1
*D8
  0
LINE
  5
218
330
216
100
AcDbEntity
  8
치수문자_일반주서
 62
     0
370
    -2
100
AcDbLine
 10
103.8657751816695
 20
19.48229575403651
 30
0.0
 11
119.6194267469468
 21
-6.150060756304035
 31
0.0
  0
MTEXT
  5
219
330
216
100
AcDbEntity
  8
치수문자_일반주서
 62
     0
100
AcDbMText
 10
115.6706384014277
 20
5.288158154535728
 30
0.0
 40
3.5
 41
0.0
 71
     5
 72
     1
  1
\A1;R.5 [R0.02]
  7
SLDTEXTSTYLE0
 11
0.5236126201129557
 21
-0.8519564684057781
 31
0.0
 73
     1
 44
1.0
  0
SOLID
  5
21A
330
216
100
AcDbEntity
  8
치수문자_일반주서
 62
     0
100
AcDbTrace
 10
104.3346352247821
 20
19.77045723263868
 30
0.0
 11
103.3969151385569
 21
19.19413427543435
 31
0.0
 12
102.1368063100565
 22
22.29545601271239
 32
0.0
 13
102.1368063100565
 23
22.29545601271239
 33
0.0
  0
LINE
  5
21B
330
216
100
AcDbEntity
  8
치수문자_일반주서
 62
     0
100
AcDbLine
 10
101.785
 20
22.72143424691529
 30
0.0
 11
101.965
 21
22.72143424691529
 31
0.0
  0
LINE
  5
21C
330
216
100
AcDbEntity
  8
치수문자_일반주서
 62
     0
100
AcDbLine
 10
101.875
 20
22.63143424691529
 30
0.0
 11
101.875
 21
22.81143424691529
 31
0.0
  0
POINT
  5
248
330
216
100
AcDbEntity
  8
Defpoints
 62
     0
100
AcDbPoint
 10
102.1368063100565
 20
22.29545601271239
 30
0.0
  0
POINT
  5
249
330
216
100
AcDbEntity
  8
Defpoints
 62
     0
100
AcDbPoint
 10
101.875
 20
22.72143424691529
 30
0.0
  0
ENDBLK
  5
21D
330
216
100
AcDbEntity
  8
0
100
AcDbBlockEnd
  0
BLOCK
  5
223
330
222
100
AcDbEntity
  8
0
100
AcDbBlockBegin
  2
*D10
 70
     1
 10
0.0
 20
0.0
 30
0.0
  3
*D10
  1
*D10
  0
LINE
  5
225
330
222
100
AcDbEntity
  8
치수문자_일반주서
 62
     0
370
    -2
100
AcDbLine
 10
19.37500000000004
 20
35.78393424691529
 30
0.0
 11
19.37500000000004
 21
70.88391841499404
 31
0.0
  0
LINE
  5
226
330
222
100
AcDbEntity
  8
치수문자_일반주서
 62
     0
370
    -2
100
AcDbLine
 10
102.3750000000001
 20
36.34643424691529
 30
0.0
 11
102.3750000000001
 21
70.88391841499404
 31
0.0
  0
LINE
  5
227
330
222
100
AcDbEntity
  8
치수문자_일반주서
 62
     0
370
    -2
100
AcDbLine
 10
22.67700000000004
 20
70.88391841499404
 30
0.0
 11
99.07300000000006
 21
70.88391841499404
 31
0.0
  0
SOLID
  5
228
330
222
100
AcDbEntity
  8
치수문자_일반주서
 62
     0
100
AcDbTrace
 10
22.67700000000004
 20
71.43425174832737
 30
0.0
 11
22.67700000000004
 21
70.33358508166071
 31
0.0
 12
19.37500000000004
 22
70.88391841499404
 32
0.0
 13
19.37500000000004
 23
70.88391841499404
 33
0.0
  0
SOLID
  5
229
330
222
100
AcDbEntity
  8
치수문자_일반주서
 62
     0
100
AcDbTrace
 10
99.07300000000006
 20
70.33358508166071
 30
0.0
 11
99.07300000000006
 21
71.43425174832737
 31
0.0
 12
102.3750000000001
 22
70.88391841499404
 32
0.0
 13
102.3750000000001
 23
70.88391841499404
 33
0.0
  0
MTEXT
  5
22A
330
222
100
AcDbEntity
  8
치수문자_일반주서
 62
     0
100
AcDbMText
 10
60.87500000000005
 20
75.25891841499404
 30
0.0
 40
3.5
 41
0.0
 71
     2
 72
     1
  1
\A1;83 [3.27]
  7
SLDTEXTSTYLE0
 73
     1
 44
1.0
  0
POINT
  5
22B
330
222
100
AcDbEntity
  8
Defpoints
 62
     0
100
AcDbPoint
 10
19.37500000000004
 20
35.72143424691529
 30
0.0
  0
POINT
  5
22C
330
222
100
AcDbEntity
  8
Defpoints
 62
     0
100
AcDbPoint
 10
102.3750000000001
 20
36.28393424691529
 30
0.0
  0
POINT
  5
22D
330
222
100
AcDbEntity
  8
Defpoints
 62
     0
100
AcDbPoint
 10
102.3750000000001
 20
70.88391841499404
 30
0.0
  0
ENDBLK
  5
224
330
222
100
AcDbEntity
  8
0
100
AcDbBlockEnd
  0
BLOCK
  5
22F
330
22E
100
AcDbEntity
  8
0
100
AcDbBlockBegin
  2
*D11
 70
     1
 10
0.0
 20
0.0
 30
0.0
  3
*D11
  1
*D11
  0
LINE
  5
231
330
22E
100
AcDbEntity
  8
치수문자_일반주서
 62
     0
370
    -2
100
AcDbLine
 10
76.37504186422882
 20
28.62038676313042
 30
0.0
 11
76.37504186422882
 21
61.90091383617725
 31
0.0
  0
LINE
  5
232
330
22E
100
AcDbEntity
  8
치수문자_일반주서
 62
     0
370
    -2
100
AcDbLine
 10
102.3750000000001
 20
36.28393424691529
 30
0.0
 11
102.3750000000001
 21
61.90091383617725
 31
0.0
  0
LINE
  5
233
330
22E
100
AcDbEntity
  8
치수문자_일반주서
 62
     0
370
    -2
100
AcDbLine
 10
79.67704186422881
 20
61.90091383617725
 30
0.0
 11
99.07300000000006
 21
61.90091383617725
 31
0.0
  0
SOLID
  5
234
330
22E
100
AcDbEntity
  8
치수문자_일반주서
 62
     0
100
AcDbTrace
 10
79.67704186422881
 20
62.45124716951059
 30
0.0
 11
79.67704186422881
 21
61.35058050284392
 31
0.0
 12
76.37504186422882
 22
61.90091383617725
 32
0.0
 13
76.37504186422882
 23
61.90091383617725
 33
0.0
  0
SOLID
  5
235
330
22E
100
AcDbEntity
  8
치수문자_일반주서
 62
     0
100
AcDbTrace
 10
99.07300000000006
 20
61.35058050284392
 30
0.0
 11
99.07300000000006
 21
62.45124716951059
 31
0.0
 12
102.3750000000001
 22
61.90091383617725
 32
0.0
 13
102.3750000000001
 23
61.90091383617725
 33
0.0
  0
MTEXT
  5
236
330
22E
100
AcDbEntity
  8
치수문자_일반주서
 62
     0
100
AcDbMText
 10
89.42159572693208
 20
66.27591383617725
 30
0.0
 40
3.5
 41
0.0
 71
     2
 72
     1
  1
\A1;26 [1.02]
  7
SLDTEXTSTYLE0
 73
     1
 44
1.0
  0
POINT
  5
237
330
22E
100
AcDbEntity
  8
Defpoints
 62
     0
100
AcDbPoint
 10
76.37504186422882
 20
28.55788676313042
 30
0.0
  0
POINT
  5
238
330
22E
100
AcDbEntity
  8
Defpoints
 62
     0
100
AcDbPoint
 10
102.3750000000001
 20
36.22143424691529
 30
0.0
  0
POINT
  5
239
330
22E
100
AcDbEntity
  8
Defpoints
 62
     0
100
AcDbPoint
 10
102.3750000000001
 20
61.90091383617725
 30
0.0
  0
ENDBLK
  5
230
330
22E
100
AcDbEntity
  8
0
100
AcDbBlockEnd
  0
BLOCK
  5
23B
330
23A
100
AcDbEntity
  8
0
100
AcDbBlockBegin
  2
*D12
 70
     1
 10
0.0
 20
0.0
 30
0.0
  3
*D12
  1
*D12
  0
LINE
  5
23D
330
23A
100
AcDbEntity
  8
치수문자_일반주서
 62
     0
370
    -2
100
AcDbLine
 10
19.81250000000005
 20
36.22143424691529
 30
0.0
 11
4.374999999999983
 21
36.22143424691524
 31
0.0
  0
LINE
  5
23E
330
23A
100
AcDbEntity
  8
치수문자_일반주서
 62
     0
370
    -2
100
AcDbLine
 10
19.81250000000005
 20
22.22143424691529
 30
0.0
 11
4.375000000000032
 21
22.22143424691524
 31
0.0
  0
LINE
  5
23F
330
23A
100
AcDbEntity
  8
치수문자_일반주서
 62
     0
370
    -2
100
AcDbLine
 10
4.374999999999983
 20
36.22143424691524
 30
0.0
 11
4.375000000000032
 21
22.22143424691524
 31
0.0
  0
LINE
  5
240
330
23A
100
AcDbEntity
  8
치수문자_일반주서
 62
     0
370
    -2
100
AcDbLine
 10
4.374999999999972
 20
39.52343424691524
 30
0.0
 11
4.37499999999996
 21
42.82543424691524
 31
0.0
  0
LINE
  5
241
330
23A
100
AcDbEntity
  8
치수문자_일반주서
 62
     0
370
    -2
100
AcDbLine
 10
4.375000000000044
 20
18.91943424691524
 30
0.0
 11
4.375000000000055
 21
15.61743424691524
 31
0.0
  0
SOLID
  5
242
330
23A
100
AcDbEntity
  8
치수문자_일반주서
 62
     0
100
AcDbTrace
 10
3.824666666666638
 20
39.52343424691524
 30
0.0
 11
4.925333333333305
 21
39.52343424691524
 31
0.0
 12
4.374999999999983
 22
36.22143424691524
 32
0.0
 13
4.374999999999983
 23
36.22143424691524
 33
0.0
  0
SOLID
  5
243
330
23A
100
AcDbEntity
  8
치수문자_일반주서
 62
     0
100
AcDbTrace
 10
4.925333333333377
 20
18.91943424691524
 30
0.0
 11
3.82466666666671
 21
18.91943424691523
 31
0.0
 12
4.375000000000032
 22
22.22143424691524
 32
0.0
 13
4.375000000000032
 23
22.22143424691524
 33
0.0
  0
MTEXT
  5
244
330
23A
100
AcDbEntity
  8
치수문자_일반주서
 62
     0
100
AcDbMText
 10
0.0000000000000071
 20
29.22143424691528
 30
0.0
 40
3.5
 41
0.0
 71
     2
 72
     1
  1
\A1;%%c14.00 [0.55]
  7
SLDTEXTSTYLE0
 11
-3.489272363107635E-15
 21
1.0
 31
0.0
 73
     1
 44
1.0
  0
POINT
  5
245
330
23A
100
AcDbEntity
  8
Defpoints
 62
     0
100
AcDbPoint
 10
19.87500000000005
 20
36.22143424691529
 30
0.0
  0
POINT
  5
246
330
23A
100
AcDbEntity
  8
Defpoints
 62
     0
100
AcDbPoint
 10
19.87500000000005
 20
22.22143424691529
 30
0.0
  0
POINT
  5
247
330
23A
100
AcDbEntity
  8
Defpoints
 62
     0
100
AcDbPoint
 10
4.375000000000043
 20
22.22143424691524
 30
0.0
  0
ENDBLK
  5
23C
330
23A
100
AcDbEntity
  8
0
100
AcDbBlockEnd
  0
BLOCK
  5
296
330
295
100
AcDbEntity
  8
0
100
AcDbBlockBegin
  2
*D13
 70
     1
 10
0.0
 20
0.0
 30
0.0
  3
*D13
  1
*D13
  0
LINE
  5
298
330
295
100
AcDbEntity
  8
치수문자_일반주서
 62
     0
370
    -2
100
AcDbLine
 10
-41.49813349402201
 20
101.6218889350553
 30
0.0
 11
-41.49813349402201
 21
136.721873103134
 31
0.0
  0
LINE
  5
299
330
295
100
AcDbEntity
  8
치수문자_일반주서
 62
     0
370
    -2
100
AcDbLine
 10
41.501866505978
 20
102.1843889350553
 30
0.0
 11
41.501866505978
 21
136.721873103134
 31
0.0
  0
LINE
  5
29A
330
295
100
AcDbEntity
  8
치수문자_일반주서
 62
     0
370
    -2
100
AcDbLine
 10
-38.19613349402201
 20
136.721873103134
 30
0.0
 11
38.199866505978
 21
136.721873103134
 31
0.0
  0
SOLID
  5
29B
330
295
100
AcDbEntity
  8
치수문자_일반주서
 62
     0
100
AcDbTrace
 10
-38.19613349402201
 20
137.2722064364673
 30
0.0
 11
-38.19613349402201
 21
136.1715397698007
 31
0.0
 12
-41.49813349402201
 22
136.721873103134
 32
0.0
 13
-41.49813349402201
 23
136.721873103134
 33
0.0
  0
SOLID
  5
29C
330
295
100
AcDbEntity
  8
치수문자_일반주서
 62
     0
100
AcDbTrace
 10
38.199866505978
 20
136.1715397698007
 30
0.0
 11
38.199866505978
 21
137.2722064364673
 31
0.0
 12
41.501866505978
 22
136.721873103134
 32
0.0
 13
41.501866505978
 23
136.721873103134
 33
0.0
  0
MTEXT
  5
29D
330
295
100
AcDbEntity
  8
치수문자_일반주서
 62
     0
100
AcDbMText
 10
0.0018665059779934
 20
141.096873103134
 30
0.0
 40
3.5
 41
0.0
 71
     2
 72
     1
  1
\A1;83 [3.27]
  7
SLDTEXTSTYLE0
 73
     1
 44
1.0
  0
POINT
  5
29E
330
295
100
AcDbEntity
  8
Defpoints
 62
     0
100
AcDbPoint
 10
-41.49813349402201
 20
101.5593889350553
 30
0.0
  0
POINT
  5
29F
330
295
100
AcDbEntity
  8
Defpoints
 62
     0
100
AcDbPoint
 10
41.501866505978
 20
102.1218889350553
 30
0.0
  0
POINT
  5
2A0
330
295
100
AcDbEntity
  8
Defpoints
 62
     0
100
AcDbPoint
 10
41.501866505978
 20
136.721873103134
 30
0.0
  0
ENDBLK
  5
297
330
295
100
AcDbEntity
  8
0
100
AcDbBlockEnd
  0
BLOCK
  5
2A2
330
2A1
100
AcDbEntity
  8
0
100
AcDbBlockBegin
  2
*D14
 70
     1
 10
0.0
 20
0.0
 30
0.0
  3
*D14
  1
*D14
  0
LINE
  5
2A4
330
2A1
100
AcDbEntity
  8
치수문자_일반주서
 62
     0
370
    -2
100
AcDbLine
 10
15.50190837020676
 20
94.4583414512704
 30
0.0
 11
15.50190837020676
 21
127.7388685243172
 31
0.0
  0
LINE
  5
2A5
330
2A1
100
AcDbEntity
  8
치수문자_일반주서
 62
     0
370
    -2
100
AcDbLine
 10
41.501866505978
 20
102.1218889350553
 30
0.0
 11
41.501866505978
 21
127.7388685243172
 31
0.0
  0
LINE
  5
2A6
330
2A1
100
AcDbEntity
  8
치수문자_일반주서
 62
     0
370
    -2
100
AcDbLine
 10
18.80390837020676
 20
127.7388685243172
 30
0.0
 11
38.199866505978
 21
127.7388685243172
 31
0.0
  0
SOLID
  5
2A7
330
2A1
100
AcDbEntity
  8
치수문자_일반주서
 62
     0
100
AcDbTrace
 10
18.80390837020676
 20
128.2892018576506
 30
0.0
 11
18.80390837020676
 21
127.1885351909839
 31
0.0
 12
15.50190837020676
 22
127.7388685243172
 32
0.0
 13
15.50190837020676
 23
127.7388685243172
 33
0.0
  0
SOLID
  5
2A8
330
2A1
100
AcDbEntity
  8
치수문자_일반주서
 62
     0
100
AcDbTrace
 10
38.199866505978
 20
127.1885351909839
 30
0.0
 11
38.199866505978
 21
128.2892018576506
 31
0.0
 12
41.501866505978
 22
127.7388685243172
 32
0.0
 13
41.501866505978
 23
127.7388685243172
 33
0.0
  0
MTEXT
  5
2A9
330
2A1
100
AcDbEntity
  8
치수문자_일반주서
 62
     0
100
AcDbMText
 10
28.54846223291003
 20
132.1138685243172
 30
0.0
 40
3.5
 41
0.0
 71
     2
 72
     1
  1
\A1;26 [1.02]
  7
SLDTEXTSTYLE0
 73
     1
 44
1.0
  0
POINT
  5
2AA
330
2A1
100
AcDbEntity
  8
Defpoints
 62
     0
100
AcDbPoint
 10
15.50190837020676
 20
94.3958414512704
 30
0.0
  0
POINT
  5
2AB
330
2A1
100
AcDbEntity
  8
Defpoints
 62
     0
100
AcDbPoint
 10
41.501866505978
 20
102.0593889350553
 30
0.0
  0
POINT
  5
2AC
330
2A1
100
AcDbEntity
  8
Defpoints
 62
     0
100
AcDbPoint
 10
41.501866505978
 20
127.7388685243172
 30
0.0
  0
ENDBLK
  5
2A3
330
2A1
100
AcDbEntity
  8
0
100
AcDbBlockEnd
  0
BLOCK
  5
2AE
330
2AD
100
AcDbEntity
  8
0
100
AcDbBlockBegin
  2
*D15
 70
     1
 10
0.0
 20
0.0
 30
0.0
  3
*D15
  1
*D15
  0
LINE
  5
2B0
330
2AD
100
AcDbEntity
  8
치수문자_일반주서
 62
     0
370
    -2
100
AcDbLine
 10
-41.06063349402201
 20
102.0593889350553
 30
0.0
 11
-56.49813349402207
 21
102.0593889350552
 31
0.0
  0
LINE
  5
2B1
330
2AD
100
AcDbEntity
  8
치수문자_일반주서
 62
     0
370
    -2
100
AcDbLine
 10
-41.06063349402201
 20
88.05938893505527
 30
0.0
 11
-56.49813349402202
 21
88.05938893505521
 31
0.0
  0
LINE
  5
2B2
330
2AD
100
AcDbEntity
  8
치수문자_일반주서
 62
     0
370
    -2
100
AcDbLine
 10
-56.49813349402207
 20
102.0593889350552
 30
0.0
 11
-56.49813349402202
 21
88.05938893505521
 31
0.0
  0
LINE
  5
2B3
330
2AD
100
AcDbEntity
  8
치수문자_일반주서
 62
     0
370
    -2
100
AcDbLine
 10
-56.49813349402208
 20
105.3613889350552
 30
0.0
 11
-56.4981334940221
 21
108.6633889350552
 31
0.0
  0
LINE
  5
2B4
330
2AD
100
AcDbEntity
  8
치수문자_일반주서
 62
     0
370
    -2
100
AcDbLine
 10
-56.49813349402201
 20
84.75738893505522
 30
0.0
 11
-56.49813349402199
 21
81.45538893505523
 31
0.0
  0
SOLID
  5
2B5
330
2AD
100
AcDbEntity
  8
치수문자_일반주서
 62
     0
100
AcDbTrace
 10
-57.04846682735542
 20
105.3613889350552
 30
0.0
 11
-55.94780016068875
 21
105.3613889350552
 31
0.0
 12
-56.49813349402207
 22
102.0593889350552
 32
0.0
 13
-56.49813349402207
 23
102.0593889350552
 33
0.0
  0
SOLID
  5
2B6
330
2AD
100
AcDbEntity
  8
치수문자_일반주서
 62
     0
100
AcDbTrace
 10
-55.94780016068867
 20
84.75738893505522
 30
0.0
 11
-57.04846682735534
 21
84.75738893505522
 31
0.0
 12
-56.49813349402202
 22
88.05938893505521
 32
0.0
 13
-56.49813349402202
 23
88.05938893505521
 33
0.0
  0
MTEXT
  5
2B7
330
2AD
100
AcDbEntity
  8
치수문자_일반주서
 62
     0
100
AcDbMText
 10
-60.87313349402205
 20
95.05938893505525
 30
0.0
 40
3.5
 41
0.0
 71
     2
 72
     1
  1
\A1;%%c14.00 [0.55]
  7
SLDTEXTSTYLE0
 11
-3.552713678800501E-15
 21
1.0
 31
0.0
 73
     1
 44
1.0
  0
POINT
  5
2B8
330
2AD
100
AcDbEntity
  8
Defpoints
 62
     0
100
AcDbPoint
 10
-40.99813349402201
 20
102.0593889350553
 30
0.0
  0
POINT
  5
2B9
330
2AD
100
AcDbEntity
  8
Defpoints
 62
     0
100
AcDbPoint
 10
-40.99813349402201
 20
88.05938893505527
 30
0.0
  0
POINT
  5
2BA
330
2AD
100
AcDbEntity
  8
Defpoints
 62
     0
100
AcDbPoint
 10
-56.49813349402203
 20
88.05938893505521
 30
0.0
  0
ENDBLK
  5
2AF
330
2AD
100
AcDbEntity
  8
0
100
AcDbBlockEnd
  0
BLOCK
  5
2BC
330
2BB
100
AcDbEntity
  8
0
100
AcDbBlockBegin
  2
*D16
 70
     1
 10
0.0
 20
0.0
 30
0.0
  3
*D16
  1
*D16
  0
LINE
  5
2BE
330
2BB
100
AcDbEntity
  8
치수문자_일반주서
 62
     0
370
    -2
100
AcDbLine
 10
41.56436650597801
 20
102.0593889350553
 30
0.0
 11
56.50186650597801
 21
102.0593889350553
 31
0.0
  0
LINE
  5
2BF
330
2BB
100
AcDbEntity
  8
치수문자_일반주서
 62
     0
370
    -2
100
AcDbLine
 10
41.564366505978
 20
88.05938893505527
 30
0.0
 11
56.50186650597806
 21
88.05938893505532
 31
0.0
  0
LINE
  5
2C0
330
2BB
100
AcDbEntity
  8
치수문자_일반주서
 62
     0
370
    -2
100
AcDbLine
 10
56.50186650597801
 20
102.0593889350553
 30
0.0
 11
56.50186650597806
 21
88.05938893505532
 31
0.0
  0
LINE
  5
2C1
330
2BB
100
AcDbEntity
  8
치수문자_일반주서
 62
     0
370
    -2
100
AcDbLine
 10
56.50186650597799
 20
105.3613889350553
 30
0.0
 11
56.50186650597798
 21
108.6633889350553
 31
0.0
  0
LINE
  5
2C2
330
2BB
100
AcDbEntity
  8
치수문자_일반주서
 62
     0
370
    -2
100
AcDbLine
 10
56.50186650597807
 20
84.75738893505533
 30
0.0
 11
56.50186650597809
 21
81.45538893505534
 31
0.0
  0
SOLID
  5
2C3
330
2BB
100
AcDbEntity
  8
치수문자_일반주서
 62
     0
100
AcDbTrace
 10
55.95153317264466
 20
105.3613889350553
 30
0.0
 11
57.05219983931133
 21
105.3613889350553
 31
0.0
 12
56.50186650597801
 22
102.0593889350553
 32
0.0
 13
56.50186650597801
 23
102.0593889350553
 33
0.0
  0
SOLID
  5
2C4
330
2BB
100
AcDbEntity
  8
치수문자_일반주서
 62
     0
100
AcDbTrace
 10
57.05219983931141
 20
84.75738893505533
 30
0.0
 11
55.95153317264474
 21
84.75738893505533
 31
0.0
 12
56.50186650597806
 22
88.05938893505532
 32
0.0
 13
56.50186650597806
 23
88.05938893505532
 33
0.0
  0
MTEXT
  5
2C5
330
2BB
100
AcDbEntity
  8
치수문자_일반주서
 62
     0
100
AcDbMText
 10
52.12686650597803
 20
95.1250933167683
 30
0.0
 40
3.5
 41
0.0
 71
     2
 72
     1
  1
\A1;%%c14.00 [0.55]
  7
SLDTEXTSTYLE0
 11
-3.552713678800501E-15
 21
1.0
 31
0.0
 73
     1
 44
1.0
  0
POINT
  5
2C6
330
2BB
100
AcDbEntity
  8
Defpoints
 62
     0
100
AcDbPoint
 10
41.50186650597801
 20
102.0593889350553
 30
0.0
  0
POINT
  5
2C7
330
2BB
100
AcDbEntity
  8
Defpoints
 62
     0
100
AcDbPoint
 10
41.501866505978
 20
88.05938893505527
 30
0.0
  0
POINT
  5
2C8
330
2BB
100
AcDbEntity
  8
Defpoints
 62
     0
100
AcDbPoint
 10
56.50186650597806
 20
88.05938893505532
 30
0.0
  0
ENDBLK
  5
2BD
330
2BB
100
AcDbEntity
  8
0
100
AcDbBlockEnd
  0
BLOCK
  5
2CA
330
2C9
100
AcDbEntity
  8
0
100
AcDbBlockBegin
  2
*D17
 70
     1
 10
0.0
 20
0.0
 30
0.0
  3
*D17
  1
*D17
  0
LINE
  5
2CC
330
2C9
100
AcDbEntity
  8
치수문자_일반주서
 62
     0
370
    -2
100
AcDbLine
 10
42.99264168764745
 20
85.32025044217649
 30
0.0
 11
58.74629325292474
 21
59.68789393183593
 31
0.0
  0
MTEXT
  5
2CD
330
2C9
100
AcDbEntity
  8
치수문자_일반주서
 62
     0
100
AcDbMText
 10
54.79750490740562
 20
71.1261128426757
 30
0.0
 40
3.5
 41
0.0
 71
     5
 72
     1
  1
\A1;R.5 [R0.02]
  7
SLDTEXTSTYLE0
 11
0.5236126201129557
 21
-0.8519564684057781
 31
0.0
 73
     1
 44
1.0
  0
SOLID
  5
2CE
330
2C9
100
AcDbEntity
  8
치수문자_일반주서
 62
     0
100
AcDbTrace
 10
43.4615017307601
 20
85.60841192077865
 30
0.0
 11
42.5237816445348
 21
85.03208896357432
 31
0.0
 12
41.26367281603447
 22
88.13341070085237
 32
0.0
 13
41.26367281603447
 23
88.13341070085237
 33
0.0
  0
LINE
  5
2CF
330
2C9
100
AcDbEntity
  8
치수문자_일반주서
 62
     0
100
AcDbLine
 10
40.91186650597798
 20
88.55938893505527
 30
0.0
 11
41.09186650597799
 21
88.55938893505527
 31
0.0
  0
LINE
  5
2D0
330
2C9
100
AcDbEntity
  8
치수문자_일반주서
 62
     0
100
AcDbLine
 10
41.00186650597799
 20
88.46938893505526
 30
0.0
 11
41.00186650597799
 21
88.64938893505527
 31
0.0
  0
POINT
  5
2D1
330
2C9
100
AcDbEntity
  8
Defpoints
 62
     0
100
AcDbPoint
 10
41.26367281603447
 20
88.13341070085237
 30
0.0
  0
POINT
  5
2D2
330
2C9
100
AcDbEntity
  8
Defpoints
 62
     0
100
AcDbPoint
 10
41.00186650597799
 20
88.55938893505527
 30
0.0
  0
ENDBLK
  5
2CB
330
2C9
100
AcDbEntity
  8
0
100
AcDbBlockEnd
  0
ENDSEC
  0
SECTION
  2
ENTITIES
  0
LINE
  5
96
330
1F
100
AcDbEntity
  8
외형선
  6
Continuous
370
    15
100
AcDbLine
 10
8.479899010159816
 20
4.762499999999998
 30
0.0
 11
-46.14999999999999
 21
4.762499999999994
 31
0.0
  0
LINE
  5
97
330
1F
100
AcDbEntity
  8
외형선
  6
Continuous
370
    15
100
AcDbLine
 10
-46.14999999999999
 20
-4.762500000000005
 30
0.0
 11
8.479899010159816
 21
-4.762500000000001
 31
0.0
  0
LINE
  5
98
330
1F
100
AcDbEntity
  8
외형선
  6
Continuous
370
    15
100
AcDbLine
 10
-46.14999999999999
 20
4.76249999999999
 30
0.0
 11
-47.14999999999998
 21
3.76249999999999
 31
0.0
  0
LINE
  5
99
330
1F
100
AcDbEntity
  8
외형선
  6
Continuous
370
    15
100
AcDbLine
 10
-47.14999999999998
 20
-3.762500000000002
 30
0.0
 11
-46.14999999999999
 21
-4.762500000000001
 31
0.0
  0
SPLINE
  5
9A
330
1F
100
AcDbEntity
  8
외형선
  6
Continuous
370
    15
100
AcDbSpline
210
0.0
220
0.0
230
1.0
 70
     8
 71
     3
 72
    18
 73
    14
 74
     0
 42
0.000000001
 43
0.00000001
 40
0.0
 40
0.0
 40
0.0
 40
0.0
 40
0.2688493483761493
 40
0.4907527553820902
 40
0.5771295636416864
 40
0.6502681221087013
 40
0.7128413887117984
 40
0.7660339552761802
 40
0.8109406556039616
 40
0.8498280465155342
 40
0.8860854254849978
 40
0.9226835410302068
 40
1.0
 40
1.0
 40
1.0
 40
1.0
 10
8.490168166798968
 20
-4.276072598589978
 30
0.0
 10
8.498167199966865
 20
-4.275784408842935
 30
0.0
 10
8.512768490954734
 20
-4.275258352472376
 30
0.0
 10
8.567825220069226
 20
-4.211284665101856
 30
0.0
 10
8.637672946930039
 20
-4.130755703558206
 30
0.0
 10
8.691673293649608
 20
-4.07043307635446
 30
0.0
 10
8.746478566462988
 20
-4.011772865435169
 30
0.0
 10
8.798179290681349
 20
-3.959027641969588
 30
0.0
 10
8.843991133161715
 20
-3.91476492159997
 30
0.0
 10
8.881850958317695
 20
-3.88054307448992
 30
0.0
 10
8.909817624410689
 20
-3.85737362918316
 30
0.0
 10
8.935179204093531
 20
-3.838831953724329
 30
0.0
 10
8.94083443943765
 20
-3.837049213521682
 30
0.0
 10
8.94467277859056
 20
-3.835839226473768
 30
0.0
  0
SPLINE
  5
9B
330
1F
100
AcDbEntity
  8
외형선
  6
Continuous
370
    15
100
AcDbSpline
210
0.0
220
0.0
230
1.0
 70
     8
 71
     3
 72
     9
 73
     5
 74
     0
 42
0.000000001
 43
0.00000001
 40
0.0
 40
0.0
 40
0.0
 40
0.0
 40
0.5614850241535279
 40
1.0
 40
1.0
 40
1.0
 40
1.0
 10
8.923155562853562
 20
-3.837360549074007
 30
0.0
 10
9.125959231886283
 20
-3.823582089532095
 30
0.0
 10
9.48715082259426
 20
-3.799042771564205
 30
0.0
 10
9.843663744613687
 20
-3.780836569483404
 30
0.0
 10
10.00000000000199
 20
-3.772852877217686
 30
0.0
  0
SPLINE
  5
9C
330
1F
100
AcDbEntity
  8
0
  6
Continuous
 62
     1
370
    15
100
AcDbSpline
210
0.0
220
0.0
230
1.0
 70
     8
 71
     3
 72
     9
 73
     5
 74
     0
 42
0.000000001
 43
0.00000001
 40
0.0
 40
0.0
 40
0.0
 40
0.0
 40
0.4432328067185867
 40
1.0
 40
1.0
 40
1.0
 40
1.0
 10
42.11091323328533
 20
1.220355223581737
 30
0.0
 10
41.9159244157719
 20
1.313199775686408
 30
0.0
 10
41.47600026178839
 20
1.522671075412691
 30
0.0
 10
41.03617672848853
 20
1.752818207773148
 30
0.0
 10
40.79129741431404
 20
1.880956580699246
 30
0.0
  0
SPLINE
  5
9D
330
1F
100
AcDbEntity
  8
0
  6
Continuous
 62
     1
370
    15
100
AcDbSpline
210
0.0
220
0.0
230
1.0
 70
     8
 71
     3
 72
     9
 73
     5
 74
     0
 42
0.000000001
 43
0.00000001
 40
0.0
 40
0.0
 40
0.0
 40
0.0
 40
0.4370938065840483
 40
1.0
 40
1.0
 40
1.0
 40
1.0
 10
16.19608827196318
 20
1.220433042947904
 30
0.0
 10
16.00377212196725
 20
1.311981029319351
 30
0.0
 10
15.5637838469127
 20
1.521428029007835
 30
0.0
 10
15.12386324420619
 20
1.751605329641927
 30
0.0
 10
14.87622921233142
 20
1.881173557752622
 30
0.0
  0
LINE
  5
9E
330
1F
100
AcDbEntity
  8
0
  6
Continuous
 62
     1
370
    15
100
AcDbLine
 10
31.18375955688188
 20
4.762500000000003
 30
0.0
 11
28.87496690314715
 21
4.762500000000003
 31
0.0
  0
LINE
  5
9F
330
1F
100
AcDbEntity
  8
0
  6
Continuous
 62
     1
370
    15
100
AcDbLine
 10
28.87496690314716
 20
-4.762500000000006
 30
0.0
 11
31.18375955688191
 21
-4.762500000000006
 31
0.0
  0
SPLINE
  5
A0
330
1F
100
AcDbEntity
  8
0
  6
Continuous
 62
     1
370
    15
100
AcDbSpline
210
0.0
220
0.0
230
1.0
 70
     8
 71
     3
 72
    20
 73
    16
 74
     0
 42
0.000000001
 43
0.00000001
 40
0.0
 40
0.0
 40
0.0
 40
0.0
 40
0.0899466949496093
 40
0.1602141286338859
 40
0.2112116497456337
 40
0.2830682331053201
 40
0.355664534945588
 40
0.42889673617709
 40
0.4994617278964488
 40
0.6042944676031545
 40
0.7157372114456436
 40
0.7587340237839195
 40
0.8173749104522265
 40
0.8975994347251608
 40
1.0
 40
1.0
 40
1.0
 40
1.0
 10
33.3745701908346
 20
-3.9630664536214
 30
0.0
 10
33.58999045320246
 20
-3.942253080263471
 30
0.0
 10
33.97369960054451
 20
-3.905180050750375
 30
0.0
 10
34.47835065005015
 20
-3.863594174307054
 30
0.0
 10
34.93928348277724
 20
-3.829560492562289
 30
0.0
 10
35.40362498263391
 20
-3.799558053642873
 30
0.0
 10
35.92342013303127
 20
-3.771437510609563
 30
0.0
 10
36.44060284028795
 20
-3.749335914882496
 30
0.0
 10
37.03150995441663
 20
-3.730845860972521
 30
0.0
 10
37.7125911012302
 20
-3.718704292196404
 30
0.0
 10
38.33717299878943
 20
-3.718631123202502
 30
0.0
 10
38.84587167440644
 20
-3.724768154987431
 30
0.0
 10
39.27987882842595
 20
-3.733583819687815
 30
0.0
 10
39.85549567649183
 20
-3.75115721535503
 30
0.0
 10
40.2921936628026
 20
-3.772498957255672
 30
0.0
 10
40.5370566263929
 20
-3.784465584842206
 30
0.0
  0
SPLINE
  5
A1
330
1F
100
AcDbEntity
  8
0
  6
Continuous
 62
     1
370
    15
100
AcDbSpline
210
0.0
220
0.0
230
1.0
 70
     8
 71
     3
 72
    10
 73
     6
 74
     0
 42
0.000000001
 43
0.00000001
 40
0.0
 40
0.0
 40
0.0
 40
0.0
 40
0.4910955720916017
 40
0.7040548075125478
 40
1.0
 40
1.0
 40
1.0
 40
1.0
 10
14.62231922928135
 20
3.78446137713425
 30
0.0
 10
13.97775593949998
 20
3.757951189588288
 30
0.0
 10
13.0536835008423
 20
3.719945094541858
 30
0.0
 10
11.74171170140526
 20
3.715685543271099
 30
0.0
 10
11.07395624386519
 20
3.739592460266504
 30
0.0
 10
10.68563378766559
 20
3.753495143685994
 30
0.0
  0
SPLINE
  5
A2
330
1F
100
AcDbEntity
  8
0
  6
Continuous
 62
     1
370
    15
100
AcDbSpline
210
0.0
220
0.0
230
1.0
 70
     8
 71
     3
 72
    17
 73
    13
 74
     0
 42
0.000000001
 43
0.00000001
 40
0.0
 40
0.0
 40
0.0
 40
0.0
 40
0.1399148464092776
 40
0.2451641851480582
 40
0.3154668330197318
 40
0.3736389951066362
 40
0.4332511871386517
 40
0.4931899895002608
 40
0.5777417769237138
 40
0.6692373445662487
 40
0.8083125950152849
 40
1.0
 40
1.0
 40
1.0
 40
1.0
 10
9.999999999999948
 20
-3.772852877217786
 30
0.0
 10
10.21628880519975
 20
-3.763205192317574
 30
0.0
 10
10.59527838382063
 20
-3.746300147085944
 30
0.0
 10
11.08250374879548
 20
-3.732552520288078
 30
0.0
 10
11.44472103255848
 20
-3.725254491853598
 30
0.0
 10
11.73250104388986
 20
-3.721425594141643
 30
0.0
 10
11.99463162025947
 20
-3.719239056566223
 30
0.0
 10
12.29033477551633
 20
-3.717359443203524
 30
0.0
 10
12.6590746441484
 20
-3.719368999333634
 30
0.0
 10
13.15520140167605
 20
-3.728624562232885
 30
0.0
 10
13.81295992577277
 20
-3.745476837931316
 30
0.0
 10
14.32536456060827
 20
-3.770157914046604
 30
0.0
 10
14.62231922928135
 20
-3.784461377134254
 30
0.0
  0
SPLINE
  5
A3
330
1F
100
AcDbEntity
  8
0
  6
Continuous
 62
     1
370
    15
100
AcDbSpline
210
0.0
220
0.0
230
1.0
 70
     8
 71
     3
 72
    16
 73
    12
 74
     0
 42
0.000000001
 43
0.00000001
 40
0.0
 40
0.0
 40
0.0
 40
0.0
 40
0.1717645257724997
 40
0.2973894980938732
 40
0.3805564115566872
 40
0.4536075084104234
 40
0.5263008793190259
 40
0.6650770009491732
 40
0.8081936748110458
 40
0.9579524584663686
 40
1.0
 40
1.0
 40
1.0
 40
1.0
 10
40.5370566263929
 20
3.784465584842203
 30
0.0
 10
40.31138820151774
 20
3.773350095375618
 30
0.0
 10
39.92067062285925
 20
3.754104970000232
 30
0.0
 10
39.42224100298385
 20
3.737751360633191
 30
0.0
 10
39.05566738822043
 20
3.728830344320549
 30
0.0
 10
38.75759550643335
 20
3.72361372425452
 30
0.0
 10
38.38549338470349
 20
3.719456768168243
 30
0.0
 10
37.92157098349941
 20
3.718416533180232
 30
0.0
 10
37.35719418535191
 20
3.724808301318129
 30
0.0
 10
36.91901805140844
 20
3.733481478939702
 30
0.0
 10
36.66814450073869
 20
3.743049073513797
 30
0.0
 10
36.61314831627458
 20
3.745146469571174
 30
0.0
  0
SPLINE
  5
A4
330
1F
100
AcDbEntity
  8
0
  6
Continuous
 62
     1
370
    15
100
AcDbSpline
210
0.0
220
0.0
230
1.0
 70
     8
 71
     3
 72
    14
 73
    10
 74
     0
 42
0.000000001
 43
0.00000001
 40
0.0
 40
0.0
 40
0.0
 40
0.0
 40
0.1878448949613024
 40
0.330817981964581
 40
0.4702615213524903
 40
0.636487943596984
 40
0.7984067742875772
 40
0.9473835995818346
 40
0.9999999999999999
 40
0.9999999999999999
 40
0.9999999999999999
 40
0.9999999999999999
 10
44.36085589783323
 20
-3.582028177552909
 30
0.0
 10
44.57891738920506
 20
-3.548640429816881
 30
0.0
 10
44.96295051682708
 20
-3.489840496336384
 30
0.0
 10
45.52446755501785
 20
-3.414606220469937
 30
0.0
 10
46.06366905393421
 20
-3.349743474893532
 30
0.0
 10
46.61720462199192
 20
-3.291365676983465
 30
0.0
 10
47.18280784942802
 20
-3.241291707711514
 30
0.0
 10
47.61573147289764
 20
-3.208731364075806
 30
0.0
 10
47.85396647300774
 20
-3.195454269350166
 30
0.0
 10
47.91614647987613
 20
-3.191988910184425
 30
0.0
  0
SPLINE
  5
A5
330
1F
100
AcDbEntity
  8
0
  6
Continuous
 62
     1
370
    15
100
AcDbSpline
210
0.0
220
0.0
230
1.0
 70
     8
 71
     3
 72
    26
 73
    22
 74
     0
 42
0.000000001
 43
0.00000001
 40
0.0
 40
0.0
 40
0.0
 40
0.0
 40
0.0786044970967037
 40
0.1376723856215282
 40
0.1767303060023244
 40
0.2046328904531124
 40
0.2329538642791597
 40
0.2618385399526932
 40
0.2928405487741111
 40
0.3605058684078749
 40
0.43585353652127
 40
0.5077414349806637
 40
0.5800079489530783
 40
0.642160848277629
 40
0.7028408422285556
 40
0.732036299713868
 40
0.7602696859070791
 40
0.7955382831858401
 40
0.8473531876459467
 40
0.9153621511026774
 40
1.0
 40
1.0
 40
1.0
 40
1.0
 10
26.76522607133894
 20
3.257313222888808
 30
0.0
 10
26.54609034755367
 20
3.239603436193844
 30
0.0
 10
26.16228358098531
 20
3.20858550880803
 30
0.0
 10
25.67112995169742
 20
3.180037923971313
 30
0.0
 10
25.32250783079447
 20
3.163645807902711
 30
0.0
 10
25.06051023558645
 20
3.153587935793338
 30
0.0
 10
24.82547693666356
 20
3.146186776189634
 30
0.0
 10
24.58126855057884
 20
3.140299138020564
 30
0.0
 10
24.22735829780372
 20
3.134514084009111
 30
0.0
 10
23.74472254035392
 20
3.13274997775677
 30
0.0
 10
23.14888293206736
 20
3.141471316460335
 30
0.0
 10
22.53893098627912
 20
3.162048347584295
 30
0.0
 10
21.96620711993451
 20
3.191739936606753
 30
0.0
 10
21.42737649556189
 20
3.228666202019725
 30
0.0
 10
21.00584093683568
 20
3.264123405214629
 30
0.0
 10
20.67847739066469
 20
3.29509724777545
 30
0.0
 10
20.42150079075103
 20
3.32112083039614
 30
0.0
 10
20.10207252124512
 20
3.355797654710817
 30
0.0
 10
19.67238550516641
 20
3.406815319927839
 30
0.0
 10
19.10582641040637
 20
3.481564782197561
 30
0.0
 10
18.68155116964065
 20
3.546182804218048
 30
0.0
 10
18.44630391380202
 20
3.58201146188519
 30
0.0
  0
SPLINE
  5
A6
330
1F
100
AcDbEntity
  8
0
  6
Continuous
 62
     1
370
    15
100
AcDbSpline
210
0.0
220
0.0
230
1.0
 70
     8
 71
     3
 72
    15
 73
    11
 74
     0
 42
0.000000001
 43
0.00000001
 40
0.0
 40
0.0
 40
0.0
 40
0.0
 40
0.1761874440954403
 40
0.3040687489300903
 40
0.3886396297372061
 40
0.4727166151628419
 40
0.5676915827577694
 40
0.6714067991160767
 40
0.8429312961705999
 40
1.0
 40
1.0
 40
1.0
 40
1.0
 10
18.44630391380202
 20
-3.582011461885194
 30
0.0
 10
18.65464672642193
 20
-3.550177157406441
 30
0.0
 10
19.01421002394951
 20
-3.495236709262641
 30
0.0
 10
19.47307417159395
 20
-3.432911326791201
 30
0.0
 10
19.82606634062322
 20
-3.388487123645036
 30
0.0
 10
20.1396566122397
 20
-3.351691790412663
 30
0.0
 10
20.47515657509832
 20
-3.315248839203842
 30
0.0
 10
20.91368871505096
 20
-3.272062060748782
 30
0.0
 10
21.42549591271529
 20
-3.227820982332541
 30
0.0
 10
21.81479195976565
 20
-3.203316605177379
 30
0.0
 10
22.00087683721177
 20
-3.19160342685368
 30
0.0
  0
SPLINE
  5
A7
330
1F
100
AcDbEntity
  8
0
  6
Continuous
 62
     1
370
    15
100
AcDbSpline
210
0.0
220
0.0
230
1.0
 70
     8
 71
     3
 72
    25
 73
    21
 74
     0
 42
0.000000001
 43
0.00000001
 40
0.0
 40
0.0
 40
0.0
 40
0.0
 40
0.0736632827884471
 40
0.1330784417056861
 40
0.1885804629272181
 40
0.2217991391698852
 40
0.2514938462208092
 40
0.2811830178686476
 40
0.3115923520773999
 40
0.3438842617301922
 40
0.4275759522280241
 40
0.5227127109966695
 40
0.6078274727842535
 40
0.681034417028714
 40
0.7476500790590846
 40
0.775996267438719
 40
0.8088508014724685
 40
0.8571095766603465
 40
0.9206570454318838
 40
1.0
 40
1.0
 40
1.0
 40
1.0
 10
52.67984234345201
 20
3.25730958503313
 30
0.0
 10
52.47399734066202
 20
3.240607235541393
 30
0.0
 10
52.10212235536083
 20
3.210433143930958
 30
0.0
 10
51.5772035378026
 20
3.179254997625514
 30
0.0
 10
51.16557754272256
 20
3.160285287172141
 30
0.0
 10
50.84179156380857
 20
3.149118719249117
 30
0.0
 10
50.58754059389314
 20
3.142284894126906
 30
0.0
 10
50.33917378152439
 20
3.13751809219758
 30
0.0
 10
50.08262750198958
 20
3.134578904684442
 30
0.0
 10
49.6765231426119
 20
3.133200992681358
 30
0.0
 10
49.09089827622543
 20
3.13989863824946
 30
0.0
 10
48.35944310983113
 20
3.165219978519962
 30
0.0
 10
47.65610101445613
 20
3.205341637703253
 30
0.0
 10
47.03261499817646
 20
3.253373837135614
 30
0.0
 10
46.56552938267369
 20
3.29733379354316
 30
0.0
 10
46.21437598578424
 20
3.334137706514875
 30
0.0
 10
45.91348258784201
 20
3.367733982962918
 30
0.0
 10
45.51213571225999
 20
3.416396984999575
 30
0.0
 10
44.9810302552367
 20
3.487396745590146
 30
0.0
 10
44.58227387890804
 20
3.54824235528973
 30
0.0
 10
44.36085589783323
 20
3.582028177552905
 30
0.0
  0
SPLINE
  5
A8
330
1F
100
AcDbEntity
  8
외형선
  6
Continuous
370
    15
100
AcDbSpline
210
0.0
220
0.0
230
1.0
 70
     8
 71
     3
 72
     8
 73
     4
 74
     0
 42
0.000000001
 43
0.00000001
 40
0.0
 40
0.0
 40
0.0
 40
0.0
 40
1.0
 40
1.0
 40
1.0
 40
1.0
 10
9.999999999991958
 20
-4.000183575060017
 30
0.0
 10
9.496604059200923
 20
-4.158520410262602
 30
0.0
 10
8.985575090825602
 20
-4.294938764044389
 30
0.0
 10
8.479793309680776
 20
-4.405887865998522
 30
0.0
  0
LINE
  5
A9
330
1F
100
AcDbEntity
  8
외형선
  6
Continuous
370
    15
100
AcDbLine
 10
8.479899010159816
 20
4.40596535597528
 30
0.0
 11
8.479899010159816
 21
4.762499999999998
 31
0.0
  0
SPLINE
  5
AA
330
1F
100
AcDbEntity
  8
외형선
  6
Continuous
370
    15
100
AcDbSpline
210
0.0
220
0.0
230
1.0
 70
     8
 71
     3
 72
     8
 73
     4
 74
     0
 42
0.000000001
 43
0.00000001
 40
0.0
 40
0.0
 40
0.0
 40
0.0
 40
1.0
 40
1.0
 40
1.0
 40
1.0
 10
9.999999999991958
 20
4.000183575060014
 30
0.0
 10
9.496604059200923
 20
4.158520410262597
 30
0.0
 10
8.985575090825602
 20
4.294938764044384
 30
0.0
 10
8.479793309680776
 20
4.405887865998517
 30
0.0
  0
LINE
  5
AB
330
1F
100
AcDbEntity
  8
외형선
  6
Continuous
370
    15
100
AcDbLine
 10
10.0
 20
4.000183575057481
 30
0.0
 11
10.0
 21
3.130794160604976
 31
0.0
  0
SPLINE
  5
AC
330
1F
100
AcDbEntity
  8
외형선
  6
Continuous
370
    15
100
AcDbSpline
210
0.0
220
0.0
230
1.0
 70
     8
 71
     3
 72
     8
 73
     4
 74
     0
 42
0.000000001
 43
0.00000001
 40
0.0
 40
0.0
 40
0.0
 40
0.0
 40
1.0
 40
1.0
 40
1.0
 40
1.0
 10
8.479899010159816
 20
3.735098210552527
 30
0.0
 10
8.985646288594637
 20
3.553810880070312
 30
0.0
 10
9.496639126472942
 20
3.350638647971482
 30
0.0
 10
10.0
 20
3.130794160604975
 30
0.0
  0
LINE
  5
AD
330
1F
100
AcDbEntity
  8
외형선
  6
Continuous
370
    15
100
AcDbLine
 10
8.479899010159816
 20
-4.762500000000001
 30
0.0
 11
8.479899010159816
 21
3.735096022960514
 31
0.0
  0
LINE
  5
AE
330
1F
100
AcDbEntity
  8
외형선
  6
Continuous
370
    15
100
AcDbLine
 10
-46.14999999999999
 20
4.76249999999999
 30
0.0
 11
-46.14999999999999
 21
-4.762500000000005
 31
0.0
  0
LINE
  5
AF
330
1F
100
AcDbEntity
  8
외형선
  6
Continuous
370
    15
100
AcDbLine
 10
-47.14999999999998
 20
3.76249999999999
 30
0.0
 11
-47.14999999999998
 21
-3.762500000000006
 31
0.0
  0
SPLINE
  5
B0
330
1F
100
AcDbEntity
  8
외형선
  6
Continuous
370
    15
100
AcDbSpline
210
0.0
220
0.0
230
1.0
 70
     8
 71
     3
 72
    12
 73
     8
 74
     0
 42
0.000000001
 43
0.00000001
 40
0.0
 40
0.0
 40
0.0
 40
0.0
 40
0.5
 40
0.5
 40
0.75
 40
0.75
 40
1.0
 40
1.0
 40
1.0
 40
1.0
 10
8.479899010159965
 20
2.989772005612625
 30
0.0
 10
8.479899109796603
 20
2.877490811462857
 30
0.0
 10
8.52329647883132
 20
2.759188066025663
 30
0.0
 10
8.62119052341528
 20
2.60314600815685
 30
0.0
 10
8.659655978591168
 20
2.555150804528799
 30
0.0
 10
8.749758954193222
 20
2.474022112996976
 30
0.0
 10
8.802032749464564
 20
2.440636398936245
 30
0.0
 10
8.859852390145413
 20
2.424625630244405
 30
0.0
  0
SPLINE
  5
B1
330
1F
100
AcDbEntity
  8
외형선
  6
Continuous
370
    15
100
AcDbSpline
210
0.0
220
0.0
230
1.0
 70
    24
 71
     3
 72
    10
 73
     6
 74
     0
 42
0.000000001
 43
0.00000001
 40
0.0
 40
0.0
 40
0.0
 40
0.0
 40
0.5
 40
0.5
 40
1.0
 40
1.0
 40
1.0
 40
1.0
 10
10.0
 20
3.130794160604976
 30
0.0
 10
10.0
 20
3.029119111409672
 30
0.0
 10
10.0
 20
2.879818381455557
 30
0.0
 10
10.0
 20
2.516605381473968
 30
0.0
 10
10.0
 20
2.303912880722862
 30
0.0
 10
10.0
 20
2.086440066163672
 30
0.0
  0
SPLINE
  5
B2
330
1F
100
AcDbEntity
  8
외형선
  6
Continuous
370
    15
100
AcDbSpline
210
0.0
220
0.0
230
1.0
 70
     8
 71
     3
 72
     8
 73
     4
 74
     0
 42
0.000000001
 43
0.00000001
 40
0.0
 40
0.0
 40
0.0
 40
0.0
 40
1.0
 40
1.0
 40
1.0
 40
1.0
 10
9.999999999999993
 20
2.086440066163674
 30
0.0
 10
9.622432988417417
 20
2.20591437826674
 30
0.0
 10
9.240574820145472
 20
2.319200229969569
 30
0.0
 10
8.859852390145413
 20
2.424625630244405
 30
0.0
  0
SPLINE
  5
B3
330
1F
100
AcDbEntity
  8
외형선
  6
Continuous
370
    15
100
AcDbSpline
210
0.0
220
0.0
230
1.0
 70
     8
 71
     3
 72
     8
 73
     4
 74
     0
 42
0.000000001
 43
0.00000001
 40
0.0
 40
0.0
 40
0.0
 40
0.0
 40
1.0
 40
1.0
 40
1.0
 40
1.0
 10
10.00000000000001
 20
-2.971572944362329
 30
0.0
 10
9.670905263926244
 20
-2.876072620527788
 30
0.0
 10
9.338552249430794
 20
-2.773082172409894
 30
0.0
 10
9.006529524671038
 20
-2.663656244972916
 30
0.0
  0
SPLINE
  5
B4
330
1F
100
AcDbEntity
  8
외형선
  6
Continuous
370
    15
100
AcDbSpline
210
0.0
220
0.0
230
1.0
 70
     8
 71
     3
 72
    15
 73
    11
 74
     0
 42
0.000000001
 43
0.00000001
 40
0.0
 40
0.0
 40
0.0
 40
0.0
 40
0.426087692510993
 40
0.5512696046134044
 40
0.656088845465089
 40
0.7747208583342675
 40
0.8678637076937233
 40
0.9357364342307896
 40
0.9789085456005558
 40
1.0
 40
1.0
 40
1.0
 40
1.0
 10
8.758295995158193
 20
-2.975491553199684
 30
0.0
 10
8.791277596730827
 20
-2.929029080623145
 30
0.0
 10
8.83394898756898
 20
-2.868916222784688
 30
0.0
 10
8.88577334973617
 20
-2.79850942342282
 30
0.0
 10
8.913649314664802
 20
-2.761341492716412
 30
0.0
 10
8.939622383841032
 20
-2.728206936221087
 30
0.0
 10
8.963363616084843
 20
-2.699140858619015
 30
0.0
 10
8.982259324325897
 20
-2.67994679808604
 30
0.0
 10
8.994973947030081
 20
-2.6663056124422
 30
0.0
 10
9.00367268790634
 20
-2.664314072556754
 30
0.0
 10
9.006527635252134
 20
-2.663660444452308
 30
0.0
  0
SPLINE
  5
B5
330
1F
100
AcDbEntity
  8
외형선
  6
Continuous
370
    15
100
AcDbSpline
210
0.0
220
0.0
230
1.0
 70
    24
 71
     3
 72
    14
 73
    10
 74
     0
 42
0.000000001
 43
0.00000001
 40
0.0
 40
0.0
 40
0.0
 40
0.0
 40
0.2500000000000001
 40
0.2500000000000001
 40
0.5
 40
0.5
 40
0.75
 40
0.75
 40
1.0
 40
1.0
 40
1.0
 40
1.0
 10
9.999999999999993
 20
2.086440066163674
 30
0.0
 10
9.999999999999996
 20
1.708726736495603
 30
0.0
 10
9.999999999999993
 20
1.295848311424204
 30
0.0
 10
9.999999999999993
 20
0.4308805457483831
 30
0.0
 10
9.999999999999993
 20
-0.0208645483156038
 30
0.0
 10
9.999999999999993
 20
-0.9198192884159947
 30
0.0
 10
9.999999999999993
 20
-1.366549933783175
 30
0.0
 10
9.999999999999996
 20
-2.212411029723391
 30
0.0
 10
9.999999999999993
 20
-2.611224070104588
 30
0.0
 10
9.999999999999993
 20
-2.971572944362325
 30
0.0
  0
SPLINE
  5
B6
330
1F
100
AcDbEntity
  8
외형선
  6
Continuous
370
    15
100
AcDbSpline
210
0.0
220
0.0
230
1.0
 70
     8
 71
     3
 72
    14
 73
    10
 74
     0
 42
0.000000001
 43
0.00000001
 40
0.0
 40
0.0
 40
0.0
 40
0.0
 40
0.25
 40
0.25
 40
0.5
 40
0.5
 40
0.75
 40
0.75
 40
1.0
 40
1.0
 40
1.0
 40
1.0
 10
8.758303118489497
 20
-2.975495855917365
 30
0.0
 10
8.729312857913218
 20
-3.016531972161861
 30
0.0
 10
8.698806553678654
 20
-3.056717530005962
 30
0.0
 10
8.631695751238373
 20
-3.133758678283567
 30
0.0
 10
8.59375813621418
 20
-3.171633001232068
 30
0.0
 10
8.527763017080003
 20
-3.211716829498751
 30
0.0
 10
8.50563315367432
 20
-3.20845383379223
 30
0.0
 10
8.483030666481284
 20
-3.17786911512111
 30
0.0
 10
8.47989901015982
 20
-3.152078461294678
 30
0.0
 10
8.47989901015982
 20
-3.124384463676342
 30
0.0
  0
LINE
  5
B7
330
1F
100
AcDbEntity
  8
외형선
  6
Continuous
370
    15
100
AcDbLine
 10
8.945566781904223
 20
-3.822417673579341
 30
0.0
 11
8.944706080083861
 21
-3.818729604092086
 31
0.0
  0
SPLINE
  5
B8
330
1F
100
AcDbEntity
  8
외형선
  6
Continuous
370
    15
100
AcDbSpline
210
0.0
220
0.0
230
1.0
 70
    24
 71
     3
 72
    11
 73
     7
 74
     0
 42
0.000000001
 43
0.00000001
 40
0.0
 40
0.0
 40
0.0
 40
0.0
 40
0.2014848370268326
 40
0.4056011188752039
 40
0.7017505275841798
 40
1.0
 40
1.0
 40
1.0
 40
1.0
 10
10.00000000000199
 20
-2.971572944363486
 30
0.0
 10
10.00000000000116
 20
-3.071108510432952
 30
0.0
 10
9.999999999999467
 20
-3.271479603173176
 30
0.0
 10
10.00000000000021
 20
-3.52829111170296
 30
0.0
 10
9.999999999999938
 20
-3.732085314462096
 30
0.0
 10
9.99999999999998
 20
-3.75816860286402
 30
0.0
 10
10.0
 20
-3.771256324344959
 30
0.0
  0
SPLINE
  5
B9
330
1F
100
AcDbEntity
  8
외형선
  6
Continuous
370
    15
100
AcDbSpline
210
0.0
220
0.0
230
1.0
 70
    24
 71
     3
 72
    10
 73
     6
 74
     0
 42
0.000000001
 43
0.00000001
 40
0.0
 40
0.0
 40
0.0
 40
0.0
 40
0.2859213633589445
 40
0.70958617732584
 40
0.9999999999999999
 40
0.9999999999999999
 40
0.9999999999999999
 40
0.9999999999999999
 10
10.0
 20
-3.772852877217784
 30
0.0
 10
10.0
 20
-3.795645562954212
 30
0.0
 10
10.0
 20
-3.852211377249092
 30
0.0
 10
10.0
 20
-3.927655793627905
 30
0.0
 10
10.0
 20
-3.979214706583774
 30
0.0
 10
10.0
 20
-4.000183575047438
 30
0.0
  0
SPLINE
  5
BA
330
1F
100
AcDbEntity
  8
0
  6
Continuous
 62
     1
370
    15
100
AcDbSpline
210
0.0
220
0.0
230
1.0
 70
     8
 71
     3
 72
    20
 73
    16
 74
     0
 42
0.000000001
 43
0.00000001
 40
0.0
 40
0.0
 40
0.0
 40
0.0
 40
0.08231116393974
 40
0.1646251322785221
 40
0.2469416987868038
 40
0.3292606564788115
 40
0.4115817976718537
 40
0.4939049140460679
 40
0.5762297967045648
 40
0.6585562362339386
 40
0.7408840227650995
 40
0.8232129460343953
 40
0.9055427954449784
 40
0.9878733601283869
 40
1.0
 40
1.0
 40
1.0
 40
1.0
 10
54.45000000000002
 20
-4.519330889716929
 30
0.0
 10
53.81166196713232
 20
-4.379508783428283
 30
0.0
 10
52.53496415277279
 20
-4.099859807013836
 30
0.0
 10
50.61986963903857
 20
-3.395365031826789
 30
0.0
 10
48.70470361685656
 20
-2.526047427946497
 30
0.0
 10
46.7894705877861
 20
-1.516474627170465
 30
0.0
 10
44.87417668661952
 20
-0.4267575504974372
 30
0.0
 10
42.95882763476628
 20
0.6862443490374862
 30
0.0
 10
41.04342928460795
 20
1.762207113568657
 30
0.0
 10
39.12798747832855
 20
2.744083121218791
 30
0.0
 10
37.2125080577017
 20
3.576922303759793
 30
0.0
 10
35.2969969555469
 20
4.224286179644549
 30
0.0
 10
33.38145980948727
 20
4.620590083373927
 30
0.0
 10
32.01037782150964
 20
4.791679173274179
 30
0.0
 10
31.27780853832333
 20
4.751568379612645
 30
0.0
 10
31.18375955688188
 20
4.74641886082274
 30
0.0
  0
LINE
  5
BB
330
1F
100
AcDbEntity
  8
0
  6
Continuous
 62
     1
370
    15
100
AcDbLine
 10
10.71170775980183
 20
-3.744113827593334
 30
0.0
 11
9.999999999988868
 21
-4.000183575060992
 31
0.0
  0
SPLINE
  5
BC
330
1F
100
AcDbEntity
  8
외형선
  6
Continuous
370
    15
100
AcDbSpline
210
0.0
220
0.0
230
1.0
 70
    24
 71
     3
 72
    10
 73
     6
 74
     0
 42
0.000000001
 43
0.00000001
 40
0.0
 40
0.0
 40
0.0
 40
0.0
 40
0.2859213633589222
 40
0.7095861773257873
 40
1.0
 40
1.0
 40
1.0
 40
1.0
 10
10.0
 20
-3.772852877217783
 30
0.0
 10
9.999999999999996
 20
-3.795645562954212
 30
0.0
 10
9.999999999999996
 20
-3.852211377249092
 30
0.0
 10
10.0
 20
-3.927655793627908
 30
0.0
 10
10.0
 20
-3.979214706583786
 30
0.0
 10
10.0
 20
-4.000183575047455
 30
0.0
  0
SPLINE
  5
BD
330
1F
100
AcDbEntity
  8
0
  6
Continuous
 62
     1
370
    15
100
AcDbSpline
210
0.0
220
0.0
230
1.0
 70
     8
 71
     3
 72
    14
 73
    10
 74
     0
 42
0.000000001
 43
0.00000001
 40
0.0
 40
0.0
 40
0.0
 40
0.0
 40
0.154993227989647
 40
0.3099919726297282
 40
0.4649958283016569
 40
0.6200043878844187
 40
0.7750172428723858
 40
0.930033983494018
 40
1.0
 40
1.0
 40
1.0
 40
1.0
 10
54.45
 20
-3.757480409053632
 30
0.0
 10
53.81166175828868
 20
-3.62133349820743
 30
0.0
 10
52.53496255458992
 20
-3.3490348306587
 30
0.0
 10
50.61986832990296
 20
-2.70674959825132
 30
0.0
 10
48.70470234813494
 20
-1.933936378122409
 30
0.0
 10
46.78946951210051
 20
-1.052415659348112
 30
0.0
 10
44.87417544474189
 20
-0.1192544871059884
 30
0.0
 10
43.30913059913964
 20
0.6603383061629958
 30
0.0
 10
42.38251570859495
 20
1.087492042876617
 30
0.0
 10
42.09435339093891
 20
1.220329980214833
 30
0.0
  0
LINE
  5
BE
330
1F
100
AcDbEntity
  8
0
  6
Continuous
 62
     1
370
    15
100
AcDbLine
 10
54.44999999999973
 20
-4.519330889716931
 30
0.0
 11
54.45
 21
-3.757480409053632
 31
0.0
  0
SPLINE
  5
BF
330
1F
100
AcDbEntity
  8
0
  6
Continuous
 62
     1
370
    15
100
AcDbSpline
210
0.0
220
0.0
230
1.0
 70
     8
 71
     3
 72
    22
 73
    18
 74
     0
 42
0.000000001
 43
0.00000001
 40
0.0
 40
0.0
 40
0.0
 40
0.0
 40
0.049484504919802
 40
0.1214547890211228
 40
0.1934256983924863
 40
0.2653970485155517
 40
0.3373686547426186
 40
0.4093403323508029
 40
0.4813118965962643
 40
0.5532831627684441
 40
0.625253946244284
 40
0.6876987878422822
 40
0.7501425497804118
 40
0.8125899021948058
 40
0.8750455062739134
 40
0.9375140026668358
 40
1.0
 40
1.0
 40
1.0
 40
1.0
 10
36.61406446145561
 20
-3.744842077370553
 30
0.0
 10
36.17504428386295
 20
-3.899477580002472
 30
0.0
 10
35.09751298124712
 20
-4.279015020616925
 30
0.0
 10
33.38145982517439
 20
-4.631056074390752
 30
0.0
 10
31.46590294935316
 20
-4.803950585154547
 30
0.0
 10
29.55033208469304
 20
-4.711340396575874
 30
0.0
 10
27.63475208044617
 20
-4.367882500014065
 30
0.0
 10
25.71917355372801
 20
-3.789415812253869
 30
0.0
 10
23.80358457980516
 20
-3.007692093823215
 30
0.0
 10
21.88805763729745
 20
-2.064470270943095
 30
0.0
 10
20.05686431186382
 20
-1.056994740651452
 30
0.0
 10
18.3108307081957
 20
-0.0496751517228442
 30
0.0
 10
16.64913021408357
 20
0.9106885723264853
 30
0.0
 10
14.9873532472801
 20
1.835065957371367
 30
0.0
 10
13.32530062377802
 20
2.682118699014074
 30
0.0
 10
11.66284766413554
 20
3.432318446461065
 30
0.0
 10
10.55433430694757
 20
3.810877525387466
 30
0.0
 10
9.999999999988868
 20
4.000183575060988
 30
0.0
  0
SPLINE
  5
C0
330
1F
100
AcDbEntity
  8
0
  6
Continuous
 62
     1
370
    15
100
AcDbSpline
210
0.0
220
0.0
230
1.0
 70
     8
 71
     3
 72
    16
 73
    12
 74
     0
 42
0.000000001
 43
0.00000001
 40
0.0
 40
0.0
 40
0.0
 40
0.0
 40
0.1109378465007824
 40
0.2222696043258135
 40
0.3336017760458866
 40
0.4449340631265788
 40
0.5562661669992619
 40
0.6675977891496301
 40
0.7789286312061934
 40
0.8902583950286775
 40
1.0
 40
1.0
 40
1.0
 40
1.0
 10
33.37469955062856
 20
-3.962674329342925
 30
0.0
 10
32.73843533367186
 20
-4.005993383484347
 30
0.0
 10
31.46364769166869
 20
-4.092785306416745
 30
0.0
 10
29.55033174081914
 20
-3.946651634413331
 30
0.0
 10
27.63475267272259
 20
-3.603914357887647
 30
0.0
 10
25.71917127341747
 20
-3.063571818385898
 30
0.0
 10
23.80359351383795
 20
-2.359983571046098
 30
0.0
 10
21.88802524684176
 20
-1.529071388212728
 30
0.0
 10
19.97247248033663
 20
-0.6174701638012561
 30
0.0
 10
18.06604140042642
 20
0.3276553572318843
 30
0.0
 10
16.79813075404452
 20
0.9325604256592501
 30
0.0
 10
16.16872971467268
 20
1.232840165304877
 30
0.0
  0
SPLINE
  5
C1
330
1F
100
AcDbEntity
  8
0
  6
Continuous
 62
     1
370
    15
100
AcDbSpline
210
0.0
220
0.0
230
1.0
 70
     8
 71
     3
 72
    31
 73
    27
 74
     0
 42
0.000000001
 43
0.00000001
 40
0.0
 40
0.0
 40
0.0
 40
0.0
 40
0.0191559360234765
 40
0.0616469923042585
 40
0.1038414066715242
 40
0.1463278397973033
 40
0.1885223890728518
 40
0.2310101150046346
 40
0.2732005245801198
 40
0.3156827645224245
 40
0.3578733754376814
 40
0.4003573212052512
 40
0.4425477241364481
 40
0.4850298628090501
 40
0.5272204407608674
 40
0.5697043074636613
 40
0.6118947029854929
 40
0.6543767676423313
 40
0.6965673077624328
 40
0.7390510457348944
 40
0.781241433286121
 40
0.8237234513678476
 40
0.8669817726765261
 40
0.9105560913792623
 40
0.9551061395350936
 40
1.0
 40
1.0
 40
1.0
 40
1.0
 10
22.00115341184109
 20
3.191722191635373
 30
0.0
 10
22.20840204904716
 20
3.282586172431393
 30
0.0
 10
22.87536267823554
 20
3.575001594888518
 30
0.0
 10
23.99831333392396
 20
3.969542227482477
 30
0.0
 10
25.37354248295912
 20
4.361149201275367
 30
0.0
 10
26.74599523111631
 20
4.625972253248921
 30
0.0
 10
28.12188500435448
 20
4.764654527927376
 30
0.0
 10
29.49390171061966
 20
4.771117709746792
 30
0.0
 10
30.86899961190757
 20
4.645245381847078
 30
0.0
 10
32.24145062830191
 20
4.391457145713647
 30
0.0
 10
33.61709158321167
 20
4.015693357981323
 30
0.0
 10
34.98901653661196
 20
3.52922017606646
 30
0.0
 10
36.36407901328299
 20
2.943706806040466
 30
0.0
 10
37.73665437917735
 20
2.2790854625281
 30
0.0
 10
39.11215938953431
 20
1.549604945166822
 30
0.0
 10
40.48408330838413
 20
0.7781545411004227
 30
0.0
 10
41.85916584329188
 20
-0.0165600674074947
 30
0.0
 10
43.23183235894088
 20
-0.8077564802950489
 30
0.0
 10
44.60721847059953
 20
-1.579134004192026
 30
0.0
 10
45.97913991086372
 20
-2.305651104199939
 30
0.0
 10
47.35426298306682
 20
-2.969741886630341
 30
0.0
 10
48.73852888091875
 20
-3.554015175525467
 30
0.0
 10
50.1371983086709
 20
-4.044886904799986
 30
0.0
 10
51.55802865753466
 20
-4.42225013929398
 30
0.0
 10
52.99665611190601
 20
-4.681257604357565
 30
0.0
 10
53.96431218365669
 20
-4.732669865493199
 30
0.0
 10
54.45000000000002
 20
-4.762500000000001
 30
0.0
  0
SPLINE
  5
C2
330
1F
100
AcDbEntity
  8
0
  6
Continuous
 62
     1
370
    15
100
AcDbSpline
210
0.0
220
0.0
230
1.0
 70
     8
 71
     3
 72
    16
 73
    12
 74
     0
 42
0.000000001
 43
0.00000001
 40
0.0
 40
0.0
 40
0.0
 40
0.0
 40
0.0993318828653136
 40
0.2201041675168247
 40
0.3408786013832023
 40
0.4616548490362445
 40
0.5824325745062587
 40
0.7032114413821252
 40
0.8239911129116351
 40
0.944771252102042
 40
0.9999999999999999
 40
0.9999999999999999
 40
0.9999999999999999
 40
0.9999999999999999
 10
42.61885690070345
 20
-0.452298968363893
 30
0.0
 10
42.09372601809017
 20
-0.2408948963662178
 30
0.0
 10
40.93011678789279
 20
0.2275439969124638
 30
0.0
 10
39.12801282800399
 20
0.9517957253299909
 30
0.0
 10
37.21253710051566
 20
1.668228745834875
 30
0.0
 10
35.29702951292822
 20
2.295908529552828
 30
0.0
 10
33.38149610605063
 20
2.799489203120285
 30
0.0
 10
31.46594272045345
 20
3.155474927667809
 30
0.0
 10
29.55037526286008
 20
3.332259489449225
 30
0.0
 10
27.98134945808615
 20
3.360551140026686
 30
0.0
 10
27.05084693065458
 20
3.264991919172375
 30
0.0
 10
26.75887025631694
 20
3.235006978041315
 30
0.0
  0
SPLINE
  5
C3
330
1F
100
AcDbEntity
  8
0
  6
Continuous
 62
     1
370
    15
100
AcDbSpline
210
0.0
220
0.0
230
1.0
 70
     8
 71
     3
 72
    21
 73
    17
 74
     0
 42
0.000000001
 43
0.00000001
 40
0.0
 40
0.0
 40
0.0
 40
0.0
 40
0.0792532346705496
 40
0.1591649024700835
 40
0.231787556890414
 40
0.3049143296694571
 40
0.3775125911053093
 40
0.4506153916847226
 40
0.5231606114007417
 40
0.596208165045084
 40
0.6687535187899383
 40
0.7418026392335659
 40
0.814341783395929
 40
0.8873829558750627
 40
0.9599223319669716
 40
1.0
 40
1.0
 40
1.0
 40
1.0
 10
10.0
 20
3.130794160604977
 30
0.0
 10
10.49872187871912
 20
2.904016990317492
 30
0.0
 10
11.50030900025428
 20
2.448578592865408
 30
0.0
 10
12.95865085942311
 20
1.679314343804054
 30
0.0
 10
14.37805885316035
 20
0.8874757934510312
 30
0.0
 10
15.75176256486693
 20
0.0953033628854927
 30
0.0
 10
17.12906698124626
 20
-0.6996698246771351
 30
0.0
 10
18.50197522005189
 20
-1.474660187811351
 30
0.0
 10
19.87761213146064
 20
-2.210340049080482
 30
0.0
 10
21.25007327776816
 20
-2.882505649521817
 30
0.0
 10
22.62616189751961
 20
-3.475896241206823
 30
0.0
 10
23.99831838479743
 20
-3.972357709723968
 30
0.0
 10
25.37354361424522
 20
-4.361376245236585
 30
0.0
 10
26.74598557071456
 20
-4.622210893030481
 30
0.0
 10
27.91444844090318
 20
-4.755689076579112
 30
0.0
 10
28.62286033360474
 20
-4.748562272763508
 30
0.0
 10
28.87496690314716
 20
-4.746026016554
 30
0.0
  0
SPLINE
  5
C4
330
1F
100
AcDbEntity
  8
0
  6
Continuous
 62
     1
370
    15
100
AcDbSpline
210
0.0
220
0.0
230
1.0
 70
     8
 71
     3
 72
    12
 73
     8
 74
     0
 42
0.000000001
 43
0.00000001
 40
0.0
 40
0.0
 40
0.0
 40
0.0
 40
0.1242490238582273
 40
0.3391585929772795
 40
0.5556380534315765
 40
0.7769649880826907
 40
0.9999999999999999
 40
0.9999999999999999
 40
0.9999999999999999
 40
0.9999999999999999
 10
47.91832144565478
 20
3.192903505729897
 30
0.0
 10
48.18890168538735
 20
3.309629671859663
 30
0.0
 10
48.92749592577242
 20
3.628253360311137
 30
0.0
 10
50.1372031738226
 20
4.042288671658147
 30
0.0
 10
51.5580273239414
 20
4.422962344474353
 30
0.0
 10
52.99665645140358
 20
4.68107629575492
 30
0.0
 10
53.96431229711217
 20
4.7326092746172
 30
0.0
 10
54.44999999999973
 20
4.762499999999998
 30
0.0
  0
SPLINE
  5
C5
330
1F
100
AcDbEntity
  8
0
  6
Continuous
 62
     1
370
    15
100
AcDbSpline
210
0.0
220
0.0
230
1.0
 70
    24
 71
     3
 72
    10
 73
     6
 74
     0
 42
0.000000001
 43
0.00000001
 40
0.0
 40
0.0
 40
0.0
 40
0.0
 40
0.4999999999999996
 40
0.4999999999999996
 40
1.0
 40
1.0
 40
1.0
 40
1.0
 10
54.45
 20
3.333749999999998
 30
0.0
 10
54.45000000000002
 20
3.53583362304483
 30
0.0
 10
54.45000000000002
 20
3.770673507979644
 30
0.0
 10
54.45
 20
4.263366954076074
 30
0.0
 10
54.45
 20
4.519962238004513
 30
0.0
 10
54.44999999999973
 20
4.762499999999998
 30
0.0
  0
LINE
  5
C6
330
1F
100
AcDbEntity
  8
0
  6
Continuous
 62
     1
370
    15
100
AcDbLine
 10
54.45
 20
3.333749999999998
 30
0.0
 11
52.67830011014732
 21
3.250987847226555
 31
0.0
  0
SPLINE
  5
C7
330
1F
100
AcDbEntity
  8
0
  6
Continuous
 62
     1
370
    15
100
AcDbSpline
210
0.0
220
0.0
230
1.0
 70
     8
 71
     3
 72
    11
 73
     7
 74
     0
 42
0.000000001
 43
0.00000001
 40
0.0
 40
0.0
 40
0.0
 40
0.0
 40
0.0826952083707379
 40
0.3688005371855865
 40
0.6844701280197908
 40
1.0
 40
1.0
 40
1.0
 40
1.0
 10
16.69513840183427
 20
-0.4472630239264769
 30
0.0
 10
16.51059005337207
 20
-0.3742956065725606
 30
0.0
 10
15.68754925825807
 20
-0.0488786537967142
 30
0.0
 10
14.1600886599366
 20
0.5753652473757699
 30
0.0
 10
12.11277252225411
 20
1.380076577896508
 30
0.0
 10
10.70415357269431
 20
1.851020318583142
 30
0.0
 10
10.0
 20
2.086440066163672
 30
0.0
  0
SPLINE
  5
C8
330
1F
100
AcDbEntity
  8
외형선
  6
Continuous
370
    15
100
AcDbSpline
210
0.0
220
0.0
230
1.0
 70
    24
 71
     3
 72
    10
 73
     6
 74
     0
 42
0.000000001
 43
0.00000001
 40
0.0
 40
0.0
 40
0.0
 40
0.0
 40
0.5
 40
0.5
 40
1.0
 40
1.0
 40
1.0
 40
1.0
 10
10.0
 20
3.130794160604976
 30
0.0
 10
10.0
 20
3.029119111409673
 30
0.0
 10
10.0
 20
2.879818381455559
 30
0.0
 10
10.0
 20
2.51660538147397
 30
0.0
 10
10.0
 20
2.303912880722863
 30
0.0
 10
10.0
 20
2.086440066163672
 30
0.0
  0
LINE
  5
C9
330
1F
100
AcDbEntity
  8
0
  6
Continuous
 62
     1
370
    15
100
AcDbLine
 10
54.45000000000002
 20
-4.762500000000001
 30
0.0
 11
54.44999999999995
 21
-4.519330889716911
 31
0.0
  0
SPLINE
  5
CA
330
1F
100
AcDbEntity
  8
0
  6
Continuous
 62
     1
370
    15
100
AcDbSpline
210
0.0
220
0.0
230
1.0
 70
     8
 71
     3
 72
     8
 73
     4
 74
     0
 42
0.000000001
 43
0.00000001
 40
0.0
 40
0.0
 40
0.0
 40
0.0
 40
1.0
 40
1.0
 40
1.0
 40
1.0
 10
51.50319177087808
 20
1.332157722516855
 30
0.0
 10
51.33341672496226
 20
1.53328787448072
 30
0.0
 10
51.18247175025959
 20
1.726224115458079
 30
0.0
 10
51.05438349322802
 20
1.909214249067018
 30
0.0
  0
LINE
  5
CB
330
1F
100
AcDbEntity
  8
0
  6
Continuous
 62
     1
370
    15
100
AcDbLine
 10
51.11456634281501
 20
1.959713655970956
 30
0.0
 11
54.45
 21
0.0000000000000035
 31
0.0
  0
LINE
  5
CC
330
1F
100
AcDbEntity
  8
0
  6
Continuous
 62
     1
370
    15
100
AcDbLine
 10
54.45
 20
0.0000000000000035
 30
0.0
 11
54.45
 21
-1.272744530466181
 31
0.0
  0
SPLINE
  5
CD
330
1F
100
AcDbEntity
  8
0
  6
Continuous
 62
     1
370
    15
100
AcDbSpline
210
0.0
220
0.0
230
1.0
 70
     8
 71
     3
 72
    12
 73
     8
 74
     0
 42
0.000000001
 43
0.00000001
 40
0.0
 40
0.0
 40
0.0
 40
0.0
 40
0.5
 40
0.5
 40
0.75
 40
0.75
 40
1.0
 40
1.0
 40
1.0
 40
1.0
 10
54.45000000000002
 20
-1.272744530466185
 30
0.0
 10
53.93989851532633
 20
-0.8717186828896262
 30
0.0
 10
53.43831718328909
 20
-0.4542496700308923
 30
0.0
 10
52.6990539205915
 20
0.1972525864200516
 30
0.0
 10
52.45485565325278
 20
0.4187098580069533
 30
0.0
 10
51.97144649459787
 20
0.8712496099959854
 30
0.0
 10
51.73355473523949
 20
1.101157755784044
 30
0.0
 10
51.50319177087809
 20
1.332157722516852
 30
0.0
  0
SPLINE
  5
CE
330
1F
100
AcDbEntity
  8
0
  6
Continuous
 62
     1
370
    15
100
AcDbSpline
210
0.0
220
0.0
230
1.0
 70
     8
 71
     3
 72
    23
 73
    19
 74
     0
 42
0.000000001
 43
0.00000001
 40
0.0
 40
0.0
 40
0.0
 40
0.0
 40
0.0474133138709161
 40
0.1117976641917018
 40
0.1761833042998555
 40
0.2405700603542112
 40
0.3049577581825072
 40
0.3693462233328755
 40
0.433735281125511
 40
0.4981247567044834
 40
0.5625144750896628
 40
0.6269042612287207
 40
0.6912939400491803
 40
0.7556833365104796
 40
0.820072275656011
 40
0.8844605826651091
 40
0.9488480829049555
 40
1.0
 40
1.0
 40
1.0
 40
1.0
 10
44.36937103390206
 20
-3.561821676399399
 30
0.0
 10
43.89919987092678
 20
-3.633464262173933
 30
0.0
 10
42.79056532295908
 20
-3.802393052261303
 30
0.0
 10
41.04344768106979
 20
-3.834543832755209
 30
0.0
 10
39.12800899903809
 20
-3.688525933956464
 30
0.0
 10
37.21253250470276
 20
-3.337943290189164
 30
0.0
 10
35.29702433578697
 20
-2.809952878787607
 30
0.0
 10
33.38149029757435
 20
-2.130658290425619
 30
0.0
 10
31.46593629486319
 20
-1.337119314342351
 30
0.0
 10
29.55036821404857
 20
-0.4717734092028947
 30
0.0
 10
27.63479195209962
 20
0.4188969261691522
 30
0.0
 10
25.7192134078164
 20
1.287052745495598
 30
0.0
 10
23.80363847705397
 20
2.086240031141893
 30
0.0
 10
21.88807306978953
 20
2.772998314069443
 30
0.0
 10
19.97252303584749
 20
3.312562213342683
 30
0.0
 10
18.05699443415046
 20
3.668139964018308
 30
0.0
 10
16.27273397776899
 20
3.837419270445942
 30
0.0
 10
15.12698580872717
 20
3.789057539522796
 30
0.0
 10
14.61973714237157
 20
3.767646705819323
 30
0.0
  0
SPLINE
  5
CF
330
1F
100
AcDbEntity
  8
외형선
  6
Continuous
370
    15
100
AcDbSpline
210
0.0
220
0.0
230
1.0
 70
    24
 71
     3
 72
    11
 73
     7
 74
     0
 42
0.000000001
 43
0.00000001
 40
0.0
 40
0.0
 40
0.0
 40
0.0
 40
0.2017978095891538
 40
0.4062311515036038
 40
0.7028405781506102
 40
1.0
 40
1.0
 40
1.0
 40
1.0
 10
10.00000000000199
 20
-2.971572944363486
 30
0.0
 10
10.00000000000116
 20
-3.071109582084381
 30
0.0
 10
9.999999999999464
 20
-3.271482832123509
 30
0.0
 10
10.00000000000021
 20
-3.528275532166083
 30
0.0
 10
9.999999999999938
 20
-3.731778035728553
 30
0.0
 10
9.99999999999998
 20
-3.757843092050237
 30
0.0
 10
10.0
 20
-3.770887691959171
 30
0.0
  0
SPLINE
  5
D0
330
1F
100
AcDbEntity
  8
0
  6
Continuous
 62
     1
370
    15
100
AcDbSpline
210
0.0
220
0.0
230
1.0
 70
     8
 71
     3
 72
    14
 73
    10
 74
     0
 42
0.000000001
 43
0.00000001
 40
0.0
 40
0.0
 40
0.0
 40
0.0
 40
0.1275395421048441
 40
0.2551810131491347
 40
0.4297829857034364
 40
0.6043898638962174
 40
0.7790011797825758
 40
0.9536164641044668
 40
0.9999999999999999
 40
0.9999999999999999
 40
0.9999999999999999
 40
0.9999999999999999
 10
51.50319177087806
 20
1.332157722516862
 30
0.0
 10
51.03700036863948
 20
1.530330355833887
 30
0.0
 10
50.10424498641565
 20
1.92683400100692
 30
0.0
 10
48.53310918282591
 20
2.520793801130692
 30
0.0
 10
46.78945469373478
 20
3.078381203023979
 30
0.0
 10
44.87419623053138
 20
3.528592785180283
 30
0.0
 10
42.95884106822675
 20
3.77402627881422
 30
0.0
 10
41.51232962085938
 20
3.850678976956989
 30
0.0
 10
40.70426414735915
 20
3.779462955782545
 30
0.0
 10
40.53466625602579
 20
3.764516039454069
 30
0.0
  0
SPLINE
  5
D1
330
1F
100
AcDbEntity
  8
0
  6
Continuous
 62
     1
370
    15
100
AcDbSpline
210
0.0
220
0.0
230
1.0
 70
     8
 71
     3
 72
    12
 73
     8
 74
     0
 42
0.000000001
 43
0.00000001
 40
0.0
 40
0.0
 40
0.0
 40
0.0
 40
0.0469105156098033
 40
0.2735073479749815
 40
0.5001007273671322
 40
0.7501042493372121
 40
1.0
 40
1.0
 40
1.0
 40
1.0
 10
18.45353871483827
 20
-3.56520590896439
 30
0.0
 10
18.32135483362683
 20
-3.590869377104322
 30
0.0
 10
17.55066914993278
 20
-3.740497813704289
 30
0.0
 10
16.14147962062406
 20
-3.825804625021874
 30
0.0
 10
14.1600982809619
 20
-3.792386019067278
 30
0.0
 10
12.11275008681098
 20
-3.525168949489472
 30
0.0
 10
10.70414880401029
 20
-3.156078422482337
 30
0.0
 10
10.00000000000001
 20
-2.971572944362328
 30
0.0
  0
SPLINE
  5
D2
330
1F
100
AcDbEntity
  8
0
  6
Continuous
 62
     1
370
    15
100
AcDbSpline
210
0.0
220
0.0
230
1.0
 70
    24
 71
     3
 72
    10
 73
     6
 74
     0
 42
0.000000001
 43
0.00000001
 40
0.0
 40
0.0
 40
0.0
 40
0.0
 40
0.5
 40
0.5
 40
1.0
 40
1.0
 40
1.0
 40
1.0
 10
54.45
 20
-3.75748040905363
 30
0.0
 10
54.45000000000002
 20
-3.469440240130622
 30
0.0
 10
54.45000000000002
 20
-3.105490442104558
 30
0.0
 10
54.45
 20
-2.259342187955115
 30
0.0
 10
54.44999999999999
 20
-1.777876697531864
 30
0.0
 10
54.45
 20
-1.272744530466337
 30
0.0
  0
SPLINE
  5
D3
330
1F
100
AcDbEntity
  8
0
  6
Continuous
 62
     1
370
    15
100
AcDbSpline
210
0.0
220
0.0
230
1.0
 70
    24
 71
     3
 72
     8
 73
     4
 74
     0
 42
0.000000001
 43
0.00000001
 40
0.0
 40
0.0
 40
0.0
 40
0.0
 40
1.0
 40
1.0
 40
1.0
 40
1.0
 10
51.55116348196438
 20
2.32606215440393
 30
0.0
 10
51.39396695349191
 20
2.194158605340334
 30
0.0
 10
51.22783853855077
 20
2.054760313635457
 30
0.0
 10
51.05438349322264
 20
1.909214249074785
 30
0.0
  0
SPLINE
  5
D4
330
1F
100
AcDbEntity
  8
외형선
  6
Continuous
370
    15
100
AcDbSpline
210
0.0
220
0.0
230
1.0
 70
    24
 71
     3
 72
    14
 73
    10
 74
     0
 42
0.000000001
 43
0.00000001
 40
0.0
 40
0.0
 40
0.0
 40
0.0
 40
0.25
 40
0.25
 40
0.5
 40
0.5
 40
0.75
 40
0.75
 40
1.0
 40
1.0
 40
1.0
 40
1.0
 10
9.999999999999993
 20
2.086440066163674
 30
0.0
 10
9.999999999999993
 20
1.708726736495602
 30
0.0
 10
9.999999999999993
 20
1.295848311424204
 30
0.0
 10
9.999999999999993
 20
0.4308805457483813
 30
0.0
 10
9.999999999999993
 20
-0.0208645483156056
 30
0.0
 10
9.999999999999993
 20
-0.9198192884159972
 30
0.0
 10
9.999999999999993
 20
-1.366549933783179
 30
0.0
 10
9.999999999999993
 20
-2.212411029723397
 30
0.0
 10
9.999999999999993
 20
-2.611224070104587
 30
0.0
 10
9.999999999999993
 20
-2.971572944362325
 30
0.0
  0
SPLINE
  5
D5
330
1F
100
AcDbEntity
  8
0
  6
Continuous
 62
     1
370
    15
100
AcDbSpline
210
0.0
220
0.0
230
1.0
 70
     8
 71
     3
 72
    10
 73
     6
 74
     0
 42
0.000000001
 43
0.00000001
 40
0.0
 40
0.0
 40
0.0
 40
0.0
 40
0.5
 40
0.5
 40
1.0
 40
1.0
 40
1.0
 40
1.0
 10
54.45
 20
3.333750000000003
 30
0.0
 10
53.96010084443064
 20
3.200858771186558
 30
0.0
 10
53.47319019078998
 20
3.051717186240091
 30
0.0
 10
52.50590601612539
 20
2.71788753331157
 30
0.0
 10
52.02548240013391
 20
2.533688937192314
 30
0.0
 10
51.55116348197348
 20
2.326062154408164
 30
0.0
  0
LINE
  5
D6
330
1F
100
AcDbEntity
  8
0
  6
Continuous
 62
     1
370
    15
100
AcDbLine
 10
54.45
 20
0.0000000000000035
 30
0.0
 11
54.45
 21
3.333750000000003
 31
0.0
  0
LINE
  5
D7
330
1F
100
AcDbEntity
  8
중심선
 62
     1
100
AcDbLine
 10
-50.14999999999999
 20
-0.0000000000000068
 30
0.0
 11
57.45000000000002
 21
0.0000000000000064
 31
0.0
  0
LINE
  5
D8
330
1F
100
AcDbEntity
  8
참조1
100
AcDbLine
 10
8.499261314031184
 20
0.0010749287238892
 30
0.0
 11
8.499261314031186
 21
-39.99892507127611
 31
0.0
  0
LINE
  5
D9
330
1F
100
AcDbEntity
  8
참조1
100
AcDbLine
 10
8.499261314031186
 20
-39.99892507127611
 30
0.0
 11
-20.15080122126847
 21
-39.9989250712761
 31
0.0
  0
CIRCLE
  5
DA
330
1F
100
AcDbEntity
  8
해칭선
100
AcDbCircle
 10
0.0
 20
0.0
 30
0.0
 40
2.999999999999996
  0
INSERT
  5
DB
330
1F
100
AcDbEntity
  8
0
  6
Continuous
 62
     7
100
AcDbBlockReference
 66
     1
  2
블럭10
 10
-15.04999588747359
 20
-31.22663345593095
 30
0.0
  0
ATTRIB
  5
DC
330
DB
100
AcDbEntity
  8
FORMAT
 62
     2
100
AcDbText
 10
-24.23129117621487
 20
-29.15126654309876
 30
0.0
 40
4.233333333333333
  1
E5026024 [ 2 FLUTE ]
 41
0.75
  7
SLDTEXTSTYLE0
 11
-24.23129117621487
 21
-31.26793320976543
 31
0.0
100
AcDbAttribute
  2
AUTOATTR0
 70
     0
 74
     1
  0
SEQEND
  5
DD
330
DB
100
AcDbEntity
  8
0
  6
Continuous
 62
     7
  0
HATCH
  5
DE
330
1F
100
AcDbEntity
  8
중심선
100
AcDbHatch
 10
0.0
 20
0.0
 30
0.0
210
0.0
220
0.0
230
1.0
  2
SOLID
 70
     1
 71
     0
 91
        1
 92
        0
 93
        4
 72
     1
 10
-9.335086583092734
 20
-14.97945915428701
 11
-12.78136182693002
 21
-14.97945915428701
 72
     1
 10
-12.78136182693002
 20
-14.97945915428701
 11
-14.90959168613404
 21
-17.51578473485961
 72
     1
 10
-14.90959168613404
 20
-17.51578473485961
 11
-11.46328335718361
 21
-17.51574530555713
 72
     1
 10
-11.46328335718361
 20
-17.51574530555713
 11
-9.335086583092734
 21
-14.97945915428701
 97
        0
 75
     0
 76
     1
 98
        1
 10
-9.608984269379562
 20
20.81946591698909
  0
HATCH
  5
DF
330
1F
100
AcDbEntity
  8
중심선
100
AcDbHatch
 10
0.0
 20
0.0
 30
0.0
210
0.0
220
0.0
230
1.0
  2
SOLID
 70
     1
 71
     0
 91
        1
 92
        0
 93
        4
 72
     1
 10
-4.322322592056782
 20
-14.97945915428699
 11
-7.768597835894037
 21
-14.97945915428704
 72
     1
 10
-7.768597835894037
 20
-14.97945915428704
 11
-12.29973584425145
 21
-20.37945915428703
 72
     1
 10
-12.29973584425145
 20
-20.37945915428703
 11
-8.85346060041417
 21
-20.37945915428703
 72
     1
 10
-8.85346060041417
 20
-20.37945915428703
 11
-4.322322592056781
 21
-14.97945915428699
 97
        0
 75
     0
 76
     1
 98
        1
 10
-9.608984269379562
 20
20.81946591698909
  0
HATCH
  5
E0
330
1F
100
AcDbEntity
  8
중심선
100
AcDbHatch
 10
0.0
 20
0.0
 30
0.0
210
0.0
220
0.0
230
1.0
  2
SOLID
 70
     1
 71
     0
 91
        1
 92
        0
 93
        4
 72
     1
 10
0.6904413989791411
 20
-14.97945915428699
 11
-2.755833844857975
 21
-14.97945915428699
 72
     1
 10
-2.755833844857975
 20
-14.97945915428699
 11
-9.804270746747251
 21
-23.37945915428703
 72
     1
 10
-9.804270746747251
 20
-23.37945915428703
 11
-6.35799550290997
 21
-23.37945915428703
 72
     1
 10
-6.35799550290997
 20
-23.37945915428703
 11
0.6904413989791411
 21
-14.97945915428699
 97
        0
 75
     0
 76
     1
 98
        1
 10
-9.608984269379562
 20
20.81946591698909
  0
HATCH
  5
E1
330
1F
100
AcDbEntity
  8
중심선
100
AcDbHatch
 10
0.0
 20
0.0
 30
0.0
210
0.0
220
0.0
230
1.0
  2
SOLID
 70
     1
 71
     0
 91
        1
 92
        0
 93
        6
 72
     3
 10
5.490331829991312
 20
-19.17945915433829
 11
3.960054785062283
 21
1.540882976769353E-10
 40
0.3939339440162628
 50
17.09539180608437
 51
320.0019657685079
 73
     0
 72
     1
 10
7.173331485691907
 20
-17.76735315892532
 11
9.478633359392973
 21
-15.83302644887737
 72
     3
 10
5.490331829938466
 20
-19.17945915428717
 11
6.600054785286829
 21
-1.278976924368180E-13
 40
0.636358354079598
 50
39.99873849337413
 51
368.4976242363725
 73
     1
 72
     1
 10
11.91566432183907
 20
-18.21945915421704
 11
4.170399136774389
 21
-18.21945915421704
 72
     1
 10
4.170399136774389
 20
-18.21945915421704
 11
4.170374092328455
 21
-20.13945915421693
 72
     1
 10
4.170374092328455
 20
-20.13945915421693
 11
8.61175386180049
 21
-20.1394591542169
 97
        0
 75
     0
 76
     1
 98
        1
 10
-9.608984269379562
 20
20.81946591698909
  0
DIMENSION
  5
E2
330
1F
100
AcDbEntity
  8
치수문자_일반주서
100
AcDbDimension
  2
_D
 10
-61.950548182846
 20
-4.762500000000063
 30
0.0
 11
-61.95054818284611
 21
24.71024999999995
 31
0.0
 70
   160
  1
%%c<>
 71
     2
 42
9.525000000000006
 52
-270.0
  3
SLDDIMSTYLE0
100
AcDbAlignedDimension
 13
-46.14999999999998
 23
4.762500000000001
 33
0.0
 14
-46.14999999999998
 24
-4.762500000000005
 34
0.0
 50
90.0000000000002
100
AcDbRotatedDimension
1001
ACAD
1000
DSTYLE
1002
{
1070
   171
1070
     6
1070
   273
1070
     5
1002
}
  0
DIMENSION
  5
F7
330
1F
100
AcDbEntity
  8
치수문자_일반주서
100
AcDbDimension
  2
_D_1
 10
10.0
 20
17.93481653835412
 30
0.0
 11
32.22500000000001
 21
17.93481653835412
 31
0.0
 70
   160
  1
<>
 71
     2
 42
44.44999999999975
  3
SLDDIMSTYLE0
100
AcDbAlignedDimension
 13
54.44999999999975
 23
4.762499999999999
 33
0.0
 14
10.0
 24
4.000183575057482
 34
0.0
 50
0.0000000000000046
100
AcDbRotatedDimension
1001
ACAD
1000
DSTYLE
1002
{
1070
   171
1070
     6
1070
   273
1070
     5
1002
}
  0
DIMENSION
  5
10C
330
1F
100
AcDbEntity
  8
치수문자_일반주서
100
AcDbDimension
  2
_D_2
 10
-47.14999999999998
 20
35.04486045510103
 30
0.0
 11
3.649999999999869
 21
35.04486045510103
 31
0.0
 70
   160
  1
<>
 71
     2
 42
101.5999999999997
  3
SLDDIMSTYLE0
100
AcDbAlignedDimension
 13
54.44999999999973
 23
4.762499999999998
 33
0.0
 14
-47.14999999999998
 24
3.76249999999999
 34
0.0
 50
0.000000000000004
100
AcDbRotatedDimension
1001
ACAD
1000
DSTYLE
1002
{
1070
   171
1070
     6
1070
   273
1070
     5
1002
}
  0
DIMENSION
  5
120
330
1F
100
AcDbEntity
  8
치수문자_일반주서
100
AcDbDimension
  2
_D_3
 10
72.85197033542626
 20
4.762500000000067
 30
0.0
 11
72.8519703354262
 21
24.71025000000007
 31
0.0
 70
   160
  1
%%c<>
 71
     2
 42
9.525
 52
-270.0
  3
SLDDIMSTYLE0
100
AcDbAlignedDimension
 13
54.45000000000002
 23
-4.762500000000001
 33
0.0
 14
54.44999999999975
 24
4.762499999999999
 34
0.0
 50
90.0000000000002
100
AcDbRotatedDimension
1001
ACAD
1000
DSTYLE
1002
{
1070
   171
1070
     6
1070
   273
1070
     5
1002
}
  0
LINE
  5
133
330
1F
100
AcDbEntity
  8
참조1
100
AcDbLine
 10
77.82153940838579
 20
7.441074928723896
 30
0.0
 11
77.82153940838579
 21
-7.438925071276109
 31
0.0
  0
LINE
  5
134
330
1F
100
AcDbEntity
  8
참조1
100
AcDbLine
 10
90.52153940838579
 20
5.441074928723896
 30
0.0
 11
77.82153940838579
 21
5.441074928723896
 31
0.0
  0
SOLID
  5
135
330
1F
100
AcDbEntity
  8
참조1
100
AcDbTrace
 10
77.82153940838579
 20
5.441074928723896
 30
0.0
 11
84.17153940838578
 21
4.425074928723896
 31
0.0
 12
84.17153940838578
 22
6.457074928723896
 32
0.0
 13
84.17153940838578
 23
6.457074928723896
 33
0.0
  0
LINE
  5
136
330
1F
100
AcDbEntity
  8
참조1
100
AcDbLine
 10
90.52153940838579
 20
-5.438925071276109
 30
0.0
 11
77.82153940838579
 21
-5.438925071276109
 31
0.0
  0
SOLID
  5
137
330
1F
100
AcDbEntity
  8
참조1
100
AcDbTrace
 10
77.82153940838579
 20
-5.438925071276109
 30
0.0
 11
84.17153940838578
 21
-6.454925071276109
 31
0.0
 12
84.17153940838578
 22
-4.422925071276109
 32
0.0
 13
84.17153940838578
 23
-4.422925071276109
 33
0.0
  0
MTEXT
  5
138
330
1F
100
AcDbEntity
  8
참조1
100
AcDbMText
 10
87.20588954101179
 20
11.01136670591222
 30
0.0
 40
3.5
 41
0.0
 71
     1
 72
     1
  1
A
  7
SLDTEXTSTYLE0
 73
     1
 44
1.0
  0
MTEXT
  5
139
330
1F
100
AcDbEntity
  8
참조1
100
AcDbMText
 10
87.20588954101179
 20
0.1313667059122192
 30
0.0
 40
3.5
 41
0.0
 71
     1
 72
     1
  1
A
  7
SLDTEXTSTYLE0
 73
     1
 44
1.0
  0
INSERT
  5
140
330
1F
100
AcDbEntity
  8
해칭선
100
AcDbBlockReference
  2
SW_DOWELSYMBOL_0
 10
0.0
 20
0.0
 30
0.0
  0
ENDSEC
  0
SECTION
  2
OBJECTS
  0
DICTIONARY
  5
C
330
0
100
AcDbDictionary
281
     1
  3
ACAD_GROUP
350
D
  3
ACAD_IMAGE_VARS
350
164
  3
ACAD_LAYOUT
350
1A
  3
ACAD_MLINESTYLE
350
17
  3
ACAD_PLOTSETTINGS
350
19
  3
ACAD_PLOTSTYLENAME
350
E
  3
ACAD_SCALELIST
350
47
  3
APPDATA
350
162
  3
DWGPROPS
350
2DA
  0
DICTIONARY
  5
21E
330
2
100
AcDbDictionary
280
     1
281
     1
  3
ACAD_LAYERSTATES
360
21F
  0
DICTIONARY
  5
D
102
{ACAD_REACTORS
330
C
102
}
330
C
100
AcDbDictionary
281
     1
  0
RASTERVARIABLES
  5
164
102
{ACAD_REACTORS
330
C
102
}
330
C
100
AcDbRasterVariables
 90
        0
 70
     1
 71
     1
 72
     1
  0
DICTIONARY
  5
1A
102
{ACAD_REACTORS
330
C
102
}
330
C
100
AcDbDictionary
281
     1
  3
Layout1
350
1E
  3
Layout2
350
26
  3
Model
350
22
  0
DICTIONARY
  5
17
102
{ACAD_REACTORS
330
C
102
}
330
C
100
AcDbDictionary
281
     1
  3
Standard
350
18
  0
DICTIONARY
  5
19
102
{ACAD_REACTORS
330
C
102
}
330
C
100
AcDbDictionary
281
     1
  0
ACDBDICTIONARYWDFLT
  5
E
102
{ACAD_REACTORS
330
C
102
}
330
C
100
AcDbDictionary
281
     1
  3
Normal
350
F
100
AcDbDictionaryWithDefault
340
F
  0
DICTIONARY
  5
47
102
{ACAD_REACTORS
330
C
102
}
330
C
100
AcDbDictionary
281
     1
  3
A0
350
48
  3
A1
350
49
  3
A2
350
4A
  3
A3
350
4B
  3
A4
350
4C
  3
A5
350
4D
  3
A6
350
4E
  3
A7
350
4F
  3
A8
350
50
  3
A9
350
51
  3
B0
350
52
  3
B1
350
53
  3
B2
350
54
  3
B3
350
55
  3
B4
350
56
  3
B5
350
57
  3
B6
350
58
  3
B7
350
59
  3
B8
350
5A
  3
B9
350
5B
  3
C0
350
5C
  3
C1
350
5D
  3
C2
350
5E
  3
C3
350
5F
  3
C4
350
60
  3
C5
350
61
  3
C6
350
62
  3
C7
350
63
  3
C8
350
64
  3
C9
350
65
  3
D0
350
66
  3
D1
350
67
  3
D2
350
68
  0
DICTIONARY
  5
162
102
{ACAD_REACTORS
330
C
102
}
330
C
100
AcDbDictionary
281
     1
  0
XRECORD
  5
2DA
102
{ACAD_REACTORS
330
C
102
}
330
C
100
AcDbXrecord
280
     1
  1
DWGPROPS COOKIE
  2

  3

  4

  6

  7

  8
12014074
  9

300
=
301
=
302
=
303
=
304
=
305
=
306
=
307
=
308
=
309
=
 40
0.0
 41
2458311.119183241
 42
2458320.274645301
  1

 90
        0
  0
DICTIONARY
  5
21F
102
{ACAD_REACTORS
330
21E
102
}
330
21E
100
AcDbDictionary
281
     1
  0
LAYOUT
  5
1E
102
{ACAD_REACTORS
330
1A
102
}
330
1A
100
AcDbPlotSettings
  1

  2
none_device
  4

  6

 40
0.0
 41
0.0
 42
0.0
 43
0.0
 44
0.0
 45
0.0
 46
0.0
 47
0.0
 48
0.0
 49
0.0
140
0.0
141
0.0
142
1.0
143
1.0
 70
   688
 72
     1
 73
     0
 74
     5
  7

 75
    16
147
1.0
148
0.0
149
0.0
100
AcDbLayout
  1
Layout1
 70
     1
 71
     1
 10
0.0
 20
0.0
 11
420.0
 21
297.0
 12
0.0
 22
0.0
 32
0.0
 14
1.000000000000000E+20
 24
1.000000000000000E+20
 34
1.000000000000000E+20
 15
-1.000000000000000E+20
 25
-1.000000000000000E+20
 35
-1.000000000000000E+20
146
0.0
 13
0.0
 23
0.0
 33
0.0
 16
1.0
 26
0.0
 36
0.0
 17
0.0
 27
1.0
 37
0.0
 76
     0
330
1B
  0
LAYOUT
  5
26
102
{ACAD_REACTORS
330
1A
102
}
330
1A
100
AcDbPlotSettings
  1

  2
none_device
  4

  6

 40
0.0
 41
0.0
 42
0.0
 43
0.0
 44
0.0
 45
0.0
 46
0.0
 47
0.0
 48
0.0
 49
0.0
140
0.0
141
0.0
142
1.0
143
1.0
 70
   688
 72
     1
 73
     0
 74
     5
  7

 75
    16
147
1.0
148
0.0
149
0.0
100
AcDbLayout
  1
Layout2
 70
     1
 71
     2
 10
0.0
 20
0.0
 11
0.0
 21
0.0
 12
0.0
 22
0.0
 32
0.0
 14
0.0
 24
0.0
 34
0.0
 15
0.0
 25
0.0
 35
0.0
146
0.0
 13
0.0
 23
0.0
 33
0.0
 16
1.0
 26
0.0
 36
0.0
 17
0.0
 27
1.0
 37
0.0
 76
     0
330
23
  0
LAYOUT
  5
22
102
{ACAD_REACTORS
330
1A
102
}
330
1A
100
AcDbPlotSettings
  1

  2
none_device
  4
ANSI_A_(11.00_x_8.50_Inches)
  6

 40
6.35
 41
19.05
 42
6.35000508
 43
19.05000254
 44
279.4
 45
215.9
 46
96.10586279586023
 47
88.33087842743245
 48
0.0
 49
0.0
140
0.0
141
0.0
142
0.0606567446846061
143
1.0
 70
  1696
 72
     0
 73
     0
 74
     0
  7

 75
     0
147
0.0235690232323232
148
0.0
149
0.0
100
AcDbLayout
  1
Model
 70
     1
 71
     0
 10
0.0
 20
0.0
 11
420.0
 21
297.0
 12
0.0
 22
0.0
 32
0.0
 14
1.000000000000000E+20
 24
1.000000000000000E+20
 34
1.000000000000000E+20
 15
-1.000000000000000E+20
 25
-1.000000000000000E+20
 35
-1.000000000000000E+20
146
0.0
 13
0.0
 23
0.0
 33
0.0
 16
1.0
 26
0.0
 36
0.0
 17
0.0
 27
1.0
 37
0.0
 76
     0
330
1F
331
29
  0
MLINESTYLE
  5
18
102
{ACAD_REACTORS
330
17
102
}
330
17
100
AcDbMlineStyle
  2
Standard
 70
     0
  3

 62
   256
 51
90.0
 52
90.0
 71
     2
 49
0.5
 62
   256
  6
BYLAYER
 49
-0.5
 62
   256
  6
BYLAYER
  0
ACDBPLACEHOLDER
  5
F
102
{ACAD_REACTORS
330
E
102
}
330
E
  0
SCALE
  5
48
102
{ACAD_REACTORS
330
47
102
}
330
47
100
AcDbScale
 70
     0
300
1:1
140
1.0
141
1.0
290
     1
  0
SCALE
  5
49
102
{ACAD_REACTORS
330
47
102
}
330
47
100
AcDbScale
 70
     0
300
1:2
140
1.0
141
2.0
290
     0
  0
SCALE
  5
4A
102
{ACAD_REACTORS
330
47
102
}
330
47
100
AcDbScale
 70
     0
300
1:4
140
1.0
141
4.0
290
     0
  0
SCALE
  5
4B
102
{ACAD_REACTORS
330
47
102
}
330
47
100
AcDbScale
 70
     0
300
1:5
140
1.0
141
5.0
290
     0
  0
SCALE
  5
4C
102
{ACAD_REACTORS
330
47
102
}
330
47
100
AcDbScale
 70
     0
300
1:8
140
1.0
141
8.0
290
     0
  0
SCALE
  5
4D
102
{ACAD_REACTORS
330
47
102
}
330
47
100
AcDbScale
 70
     0
300
1:10
140
1.0
141
10.0
290
     0
  0
SCALE
  5
4E
102
{ACAD_REACTORS
330
47
102
}
330
47
100
AcDbScale
 70
     0
300
1:16
140
1.0
141
16.0
290
     0
  0
SCALE
  5
4F
102
{ACAD_REACTORS
330
47
102
}
330
47
100
AcDbScale
 70
     0
300
1:20
140
1.0
141
20.0
290
     0
  0
SCALE
  5
50
102
{ACAD_REACTORS
330
47
102
}
330
47
100
AcDbScale
 70
     0
300
1:30
140
1.0
141
30.0
290
     0
  0
SCALE
  5
51
102
{ACAD_REACTORS
330
47
102
}
330
47
100
AcDbScale
 70
     0
300
1:40
140
1.0
141
40.0
290
     0
  0
SCALE
  5
52
102
{ACAD_REACTORS
330
47
102
}
330
47
100
AcDbScale
 70
     0
300
1:50
140
1.0
141
50.0
290
     0
  0
SCALE
  5
53
102
{ACAD_REACTORS
330
47
102
}
330
47
100
AcDbScale
 70
     0
300
1:100
140
1.0
141
100.0
290
     0
  0
SCALE
  5
54
102
{ACAD_REACTORS
330
47
102
}
330
47
100
AcDbScale
 70
     0
300
2:1
140
2.0
141
1.0
290
     0
  0
SCALE
  5
55
102
{ACAD_REACTORS
330
47
102
}
330
47
100
AcDbScale
 70
     0
300
4:1
140
4.0
141
1.0
290
     0
  0
SCALE
  5
56
102
{ACAD_REACTORS
330
47
102
}
330
47
100
AcDbScale
 70
     0
300
8:1
140
8.0
141
1.0
290
     0
  0
SCALE
  5
57
102
{ACAD_REACTORS
330
47
102
}
330
47
100
AcDbScale
 70
     0
300
10:1
140
10.0
141
1.0
290
     0
  0
SCALE
  5
58
102
{ACAD_REACTORS
330
47
102
}
330
47
100
AcDbScale
 70
     0
300
100:1
140
100.0
141
1.0
290
     0
  0
SCALE
  5
59
102
{ACAD_REACTORS
330
47
102
}
330
47
100
AcDbScale
 70
     0
300
1/128" = 1'-0"
140
0.0078125
141
12.0
290
     0
  0
SCALE
  5
5A
102
{ACAD_REACTORS
330
47
102
}
330
47
100
AcDbScale
 70
     0
300
1/64" = 1'-0"
140
0.015625
141
12.0
290
     0
  0
SCALE
  5
5B
102
{ACAD_REACTORS
330
47
102
}
330
47
100
AcDbScale
 70
     0
300
1/32" = 1'-0"
140
0.03125
141
12.0
290
     0
  0
SCALE
  5
5C
102
{ACAD_REACTORS
330
47
102
}
330
47
100
AcDbScale
 70
     0
300
1/16" = 1'-0"
140
0.0625
141
12.0
290
     0
  0
SCALE
  5
5D
102
{ACAD_REACTORS
330
47
102
}
330
47
100
AcDbScale
 70
     0
300
3/32" = 1'-0"
140
0.09375
141
12.0
290
     0
  0
SCALE
  5
5E
102
{ACAD_REACTORS
330
47
102
}
330
47
100
AcDbScale
 70
     0
300
1/8" = 1'-0"
140
0.125
141
12.0
290
     0
  0
SCALE
  5
5F
102
{ACAD_REACTORS
330
47
102
}
330
47
100
AcDbScale
 70
     0
300
3/16" = 1'-0"
140
0.1875
141
12.0
290
     0
  0
SCALE
  5
60
102
{ACAD_REACTORS
330
47
102
}
330
47
100
AcDbScale
 70
     0
300
1/4" = 1'-0"
140
0.25
141
12.0
290
     0
  0
SCALE
  5
61
102
{ACAD_REACTORS
330
47
102
}
330
47
100
AcDbScale
 70
     0
300
3/8" = 1'-0"
140
0.375
141
12.0
290
     0
  0
SCALE
  5
62
102
{ACAD_REACTORS
330
47
102
}
330
47
100
AcDbScale
 70
     0
300
1/2" = 1'-0"
140
0.5
141
12.0
290
     0
  0
SCALE
  5
63
102
{ACAD_REACTORS
330
47
102
}
330
47
100
AcDbScale
 70
     0
300
3/4" = 1'-0"
140
0.75
141
12.0
290
     0
  0
SCALE
  5
64
102
{ACAD_REACTORS
330
47
102
}
330
47
100
AcDbScale
 70
     0
300
1" = 1'-0"
140
1.0
141
12.0
290
     0
  0
SCALE
  5
65
102
{ACAD_REACTORS
330
47
102
}
330
47
100
AcDbScale
 70
     0
300
1-1/2" = 1'-0"
140
1.5
141
12.0
290
     0
  0
SCALE
  5
66
102
{ACAD_REACTORS
330
47
102
}
330
47
100
AcDbScale
 70
     0
300
3" = 1'-0"
140
3.0
141
12.0
290
     0
  0
SCALE
  5
67
102
{ACAD_REACTORS
330
47
102
}
330
47
100
AcDbScale
 70
     0
300
6" = 1'-0"
140
6.0
141
12.0
290
     0
  0
SCALE
  5
68
102
{ACAD_REACTORS
330
47
102
}
330
47
100
AcDbScale
 70
     0
300
1'-0" = 1'-0"
140
12.0
141
12.0
290
     0
  0
ENDSEC
  0
EOF
