  0
SECTION
  2
HEADER
  9
$ACADVER
  1
AC1015
  9
$ACADMAINTVER
 70
     6
  9
$DWGCODEPAGE
  3
ANSI_949
  9
$INSBASE
 10
0.0
 20
0.0
 30
0.0
  9
$EXTMIN
 10
1.000000000000000E+20
 20
1.000000000000000E+20
 30
1.000000000000000E+20
  9
$EXTMAX
 10
-1.000000000000000E+20
 20
-1.000000000000000E+20
 30
-1.000000000000000E+20
  9
$LIMMIN
 10
0.0
 20
0.0
  9
$LIMMAX
 10
420.0
 20
297.0
  9
$ORTHOMODE
 70
     1
  9
$REGENMODE
 70
     1
  9
$FILLMODE
 70
     1
  9
$QTEXTMODE
 70
     0
  9
$MIRRTEXT
 70
     1
  9
$LTSCALE
 40
1.0
  9
$ATTMODE
 70
     1
  9
$TEXTSIZE
 40
3.5
  9
$TRACEWID
 40
1.0
  9
$TEXTSTYLE
  7
Standard
  9
$CLAYER
  8
0
  9
$CELTYPE
  6
ByLayer
  9
$CECOLOR
 62
   256
  9
$CELTSCALE
 40
1.0
  9
$DISPSILH
 70
     0
  9
$DIMSCALE
 40
1.0
  9
$DIMASZ
 40
3.302
  9
$DIMEXO
 40
1.0
  9
$DIMDLI
 40
3.75
  9
$DIMRND
 40
0.0
  9
$DIMDLE
 40
0.0
  9
$DIMEXE
 40
1.0
  9
$DIMTP
 40
0.0
  9
$DIMTM
 40
0.0
  9
$DIMTXT
 40
3.5
  9
$DIMCEN
 40
2.5
  9
$DIMTSZ
 40
0.0
  9
$DIMTOL
 70
     0
  9
$DIMLIM
 70
     0
  9
$DIMTIH
 70
     1
  9
$DIMTOH
 70
     1
  9
$DIMSE1
 70
     0
  9
$DIMSE2
 70
     0
  9
$DIMTAD
 70
     1
  9
$DIMZIN
 70
     0
  9
$DIMBLK
  1

  9
$DIMASO
 70
     1
  9
$DIMSHO
 70
     1
  9
$DIMPOST
  1

  9
$DIMAPOST
  1

  9
$DIMALT
 70
     0
  9
$DIMALTD
 70
     3
  9
$DIMALTF
 40
0.0393700787401575
  9
$DIMLFAC
 40
1.0
  9
$DIMTOFL
 70
     1
  9
$DIMTVP
 40
0.0
  9
$DIMTIX
 70
     0
  9
$DIMSOXD
 70
     0
  9
$DIMSAH
 70
     0
  9
$DIMBLK1
  1

  9
$DIMBLK2
  1

  9
$DIMSTYLE
  2
ISO-25
  9
$DIMCLRD
 70
     0
  9
$DIMCLRE
 70
     0
  9
$DIMCLRT
 70
     0
  9
$DIMTFAC
 40
1.0
  9
$DIMGAP
 40
1.524
  9
$DIMJUST
 70
     0
  9
$DIMSD1
 70
     0
  9
$DIMSD2
 70
     0
  9
$DIMTOLJ
 70
     0
  9
$DIMTZIN
 70
     0
  9
$DIMALTZ
 70
     0
  9
$DIMALTTZ
 70
     0
  9
$DIMUPT
 70
     0
  9
$DIMDEC
 70
     2
  9
$DIMTDEC
 70
     2
  9
$DIMALTU
 70
     2
  9
$DIMALTTD
 70
     3
  9
$DIMTXSTY
  7
Standard
  9
$DIMAUNIT
 70
     0
  9
$DIMADEC
 70
     2
  9
$DIMALTRND
 40
0.0
  9
$DIMAZIN
 70
     0
  9
$DIMDSEP
 70
    44
  9
$DIMATFIT
 70
     3
  9
$DIMFRAC
 70
     0
  9
$DIMLDRBLK
  1

  9
$DIMLUNIT
 70
     2
  9
$DIMLWD
 70
    -2
  9
$DIMLWE
 70
    -2
  9
$DIMTMOVE
 70
     0
  9
$LUNITS
 70
     2
  9
$LUPREC
 70
     2
  9
$SKETCHINC
 40
1.0
  9
$FILLETRAD
 40
10.0
  9
$AUNITS
 70
     0
  9
$AUPREC
 70
     2
  9
$MENU
  1
.
  9
$ELEVATION
 40
0.0
  9
$PELEVATION
 40
0.0
  9
$THICKNESS
 40
0.0
  9
$LIMCHECK
 70
     0
  9
$CHAMFERA
 40
0.0
  9
$CHAMFERB
 40
0.0
  9
$CHAMFERC
 40
0.0
  9
$CHAMFERD
 40
0.0
  9
$SKPOLY
 70
     0
  9
$TDCREATE
 40
2458311.493971632
  9
$TDUCREATE
 40
2458311.118971632
  9
$TDUPDATE
 40
2458320.648251759
  9
$TDUUPDATE
 40
2458320.273251759
  9
$TDINDWG
 40
0.0016783102
  9
$TDUSRTIMER
 40
2458320.271573658
  9
$USRTIMER
 70
     1
  9
$ANGBASE
 50
0.0
  9
$ANGDIR
 70
     0
  9
$PDMODE
 70
     0
  9
$PDSIZE
 40
-1.0
  9
$PLINEWID
 40
0.0
  9
$SPLFRAME
 70
     0
  9
$SPLINETYPE
 70
     6
  9
$SPLINESEGS
 70
     8
  9
$HANDSEED
  5
2DE
  9
$SURFTAB1
 70
     6
  9
$SURFTAB2
 70
     6
  9
$SURFTYPE
 70
     6
  9
$SURFU
 70
     6
  9
$SURFV
 70
     6
  9
$UCSBASE
  2

  9
$UCSNAME
  2

  9
$UCSORG
 10
0.0
 20
0.0
 30
0.0
  9
$UCSXDIR
 10
1.0
 20
0.0
 30
0.0
  9
$UCSYDIR
 10
0.0
 20
1.0
 30
0.0
  9
$UCSORTHOREF
  2

  9
$UCSORTHOVIEW
 70
     0
  9
$UCSORGTOP
 10
0.0
 20
0.0
 30
0.0
  9
$UCSORGBOTTOM
 10
0.0
 20
0.0
 30
0.0
  9
$UCSORGLEFT
 10
0.0
 20
0.0
 30
0.0
  9
$UCSORGRIGHT
 10
0.0
 20
0.0
 30
0.0
  9
$UCSORGFRONT
 10
0.0
 20
0.0
 30
0.0
  9
$UCSORGBACK
 10
0.0
 20
0.0
 30
0.0
  9
$PUCSBASE
  2

  9
$PUCSNAME
  2

  9
$PUCSORG
 10
0.0
 20
0.0
 30
0.0
  9
$PUCSXDIR
 10
1.0
 20
0.0
 30
0.0
  9
$PUCSYDIR
 10
0.0
 20
1.0
 30
0.0
  9
$PUCSORTHOREF
  2

  9
$PUCSORTHOVIEW
 70
     0
  9
$PUCSORGTOP
 10
0.0
 20
0.0
 30
0.0
  9
$PUCSORGBOTTOM
 10
0.0
 20
0.0
 30
0.0
  9
$PUCSORGLEFT
 10
0.0
 20
0.0
 30
0.0
  9
$PUCSORGRIGHT
 10
0.0
 20
0.0
 30
0.0
  9
$PUCSORGFRONT
 10
0.0
 20
0.0
 30
0.0
  9
$PUCSORGBACK
 10
0.0
 20
0.0
 30
0.0
  9
$USERI1
 70
     0
  9
$USERI2
 70
     0
  9
$USERI3
 70
     0
  9
$USERI4
 70
     0
  9
$USERI5
 70
     0
  9
$USERR1
 40
0.0
  9
$USERR2
 40
0.0
  9
$USERR3
 40
0.0
  9
$USERR4
 40
0.0
  9
$USERR5
 40
0.0
  9
$WORLDVIEW
 70
     1
  9
$SHADEDGE
 70
     3
  9
$SHADEDIF
 70
    70
  9
$TILEMODE
 70
     1
  9
$MAXACTVP
 70
    64
  9
$PINSBASE
 10
0.0
 20
0.0
 30
0.0
  9
$PLIMCHECK
 70
     0
  9
$PEXTMIN
 10
1.000000000000000E+20
 20
1.000000000000000E+20
 30
1.000000000000000E+20
  9
$PEXTMAX
 10
-1.000000000000000E+20
 20
-1.000000000000000E+20
 30
-1.000000000000000E+20
  9
$PLIMMIN
 10
0.0
 20
0.0
  9
$PLIMMAX
 10
0.0
 20
0.0
  9
$UNITMODE
 70
     0
  9
$VISRETAIN
 70
     1
  9
$PLINEGEN
 70
     0
  9
$PSLTSCALE
 70
     1
  9
$TREEDEPTH
 70
  3020
  9
$CMLSTYLE
  2
Standard
  9
$CMLJUST
 70
     0
  9
$CMLSCALE
 40
20.0
  9
$PROXYGRAPHICS
 70
     1
  9
$MEASUREMENT
 70
     1
  9
$CELWEIGHT
370
    -1
  9
$ENDCAPS
280
     0
  9
$JOINSTYLE
280
     0
  9
$LWDISPLAY
290
     1
  9
$INSUNITS
 70
     4
  9
$HYPERLINKBASE
  1

  9
$STYLESHEET
  1

  9
$XEDIT
290
     1
  9
$CEPSNTYPE
380
     0
  9
$PSTYLEMODE
290
     1
  9
$FINGERPRINTGUID
  2
{7CE53DF5-C824-4C53-BBFA-D16AD088A0E6}
  9
$VERSIONGUID
  2
{FAEB1C32-E019-11D5-929B-00C0DF256EC4}
  9
$EXTNAMES
290
     1
  9
$PSVPSCALE
 40
0.0
  9
$OLESTARTUP
290
     0
  0
ENDSEC
  0
SECTION
  2
CLASSES
  0
CLASS
  1
ACDBDICTIONARYWDFLT
  2
AcDbDictionaryWithDefault
  3
ObjectDBX Classes
 90
        0
280
     0
281
     0
  0
CLASS
  1
VISUALSTYLE
  2
AcDbVisualStyle
  3
ObjectDBX Classes
 90
     4095
280
     0
281
     0
  0
CLASS
  1
MATERIAL
  2
AcDbMaterial
  3
ObjectDBX Classes
 90
     1153
280
     0
281
     0
  0
CLASS
  1
SCALE
  2
AcDbScale
  3
ObjectDBX Classes
 90
     1153
280
     0
281
     0
  0
CLASS
  1
SUN
  2
AcDbSun
  3
SCENEOE
 90
     1153
280
     0
281
     0
  0
CLASS
  1
ACDBPLACEHOLDER
  2
AcDbPlaceHolder
  3
ObjectDBX Classes
 90
        0
280
     0
281
     0
  0
CLASS
  1
LAYOUT
  2
AcDbLayout
  3
ObjectDBX Classes
 90
        0
280
     0
281
     0
  0
CLASS
  1
TABLESTYLE
  2
AcDbTableStyle
  3
ObjectDBX Classes
 90
     4095
280
     0
281
     0
  0
CLASS
  1
MLEADERSTYLE
  2
AcDbMLeaderStyle
  3
ACDB_MLEADERSTYLE_CLASS
 90
     4095
280
     0
281
     0
  0
CLASS
  1
RASTERVARIABLES
  2
AcDbRasterVariables
  3
ISM
 90
        0
280
     0
281
     0
  0
ENDSEC
  0
SECTION
  2
TABLES
  0
TABLE
  2
VPORT
  5
8
330
0
100
AcDbSymbolTable
 70
     1
  0
VPORT
  5
29
330
8
100
AcDbSymbolTableRecord
100
AcDbViewportTableRecord
  2
*Active
 70
     0
 10
0.0
 20
0.0
 11
1.0
 21
1.0
 12
16.31617833076839
 22
-3.814555488851489
 13
0.0
 23
0.0
 14
10.0
 24
10.0
 15
10.0
 25
10.0
 16
0.0
 26
0.0
 36
1.0
 17
0.0
 27
0.0
 37
0.0
 40
123.8955678748778
 41
1.970186335403727
 42
50.0
 43
0.0
 44
0.0
 50
0.0
 51
0.0
 71
    16
 72
  2000
 73
     1
 74
     3
 75
     0
 76
     0
 77
     0
 78
     0
281
     0
 65
     1
110
0.0
120
0.0
130
0.0
111
1.0
121
0.0
131
0.0
112
0.0
122
1.0
132
0.0
 79
     0
146
0.0
  0
ENDTAB
  0
TABLE
  2
LTYPE
  5
5
330
0
100
AcDbSymbolTable
 70
     6
  0
LTYPE
  5
14
330
5
100
AcDbSymbolTableRecord
100
AcDbLinetypeTableRecord
  2
ByBlock
 70
     0
  3

 72
    65
 73
     0
 40
0.0
  0
LTYPE
  5
15
330
5
100
AcDbSymbolTableRecord
100
AcDbLinetypeTableRecord
  2
ByLayer
 70
     0
  3

 72
    65
 73
     0
 40
0.0
  0
LTYPE
  5
16
330
5
100
AcDbSymbolTableRecord
100
AcDbLinetypeTableRecord
  2
Continuous
 70
     0
  3
Solid line
 72
    65
 73
     0
 40
0.0
  0
LTYPE
  5
6A
330
5
100
AcDbSymbolTableRecord
100
AcDbLinetypeTableRecord
  2
HIDDEN
 70
     0
  3
Hidden __ __ __ __ __ __ __ __ __ __ __ __ __ __
 72
    65
 73
     2
 40
1.905
 49
1.27
 74
     0
 49
-0.635
 74
     0
  0
LTYPE
  5
6B
330
5
100
AcDbSymbolTableRecord
100
AcDbLinetypeTableRecord
  2
PHANTOM
 70
     0
  3
Phantom ______  __  __  ______  __  __  ______
 72
    65
 73
     6
 40
12.7
 49
6.35
 74
     0
 49
-1.27
 74
     0
 49
1.27
 74
     0
 49
-1.27
 74
     0
 49
1.27
 74
     0
 49
-1.27
 74
     0
  0
LTYPE
  5
6C
330
5
100
AcDbSymbolTableRecord
100
AcDbLinetypeTableRecord
  2
CENTER
 70
     0
  3
Center ____ _ ____ _ ____ _ ____ _ ____ _ ____
 72
    65
 73
     4
 40
10.16
 49
6.35
 74
     0
 49
-1.27
 74
     0
 49
1.27
 74
     0
 49
-1.27
 74
     0
  0
LTYPE
  5
6D
330
5
100
AcDbSymbolTableRecord
100
AcDbLinetypeTableRecord
  2
CENTERX2
 70
     0
  3
Center (2x) ________  __  ________  __  _____
 72
    65
 73
     4
 40
20.32
 49
12.7
 74
     0
 49
-2.54
 74
     0
 49
2.54
 74
     0
 49
-2.54
 74
     0
  0
LTYPE
  5
6E
330
5
100
AcDbSymbolTableRecord
100
AcDbLinetypeTableRecord
  2
DOT2
 70
     0
  3
Dot (.5x) ........................................
 72
    65
 73
     2
 40
0.635
 49
0.0
 74
     0
 49
-0.635
 74
     0
  0
ENDTAB
  0
TABLE
  2
LAYER
  5
2
102
{ACAD_XDICTIONARY
360
221
102
}
330
0
100
AcDbSymbolTable
 70
    18
  0
LAYER
  5
10
330
2
100
AcDbSymbolTableRecord
100
AcDbLayerTableRecord
  2
0
 70
     0
 62
     7
  6
Continuous
370
    -3
390
F
  0
LAYER
  5
6F
330
2
100
AcDbSymbolTableRecord
100
AcDbLayerTableRecord
  2
FORMAT
 70
     0
 62
     2
  6
Continuous
370
    -3
390
F
  0
LAYER
  5
70
330
2
100
AcDbSymbolTableRecord
100
AcDbLayerTableRecord
  2
외형선
 70
     0
 62
     4
  6
Continuous
370
    30
390
F
  0
LAYER
  5
71
330
2
100
AcDbSymbolTableRecord
100
AcDbLayerTableRecord
  2
숨은선
 70
     0
 62
     2
  6
HIDDEN
370
    15
390
F
  0
LAYER
  5
72
330
2
100
AcDbSymbolTableRecord
100
AcDbLayerTableRecord
  2
중심선
 70
     0
 62
     1
  6
CENTERX2
370
    -3
390
F
  0
LAYER
  5
73
330
2
100
AcDbSymbolTableRecord
100
AcDbLayerTableRecord
  2
파단선
 70
     0
 62
     4
  6
Continuous
370
    -3
390
F
  0
LAYER
  5
74
330
2
100
AcDbSymbolTableRecord
100
AcDbLayerTableRecord
  2
해칭선
 70
     0
 62
   100
  6
Continuous
370
    -3
390
F
  0
LAYER
  5
75
330
2
100
AcDbSymbolTableRecord
100
AcDbLayerTableRecord
  2
가는실선
 70
     0
 62
     4
  6
Continuous
370
    -3
390
F
  0
LAYER
  5
76
330
2
100
AcDbSymbolTableRecord
100
AcDbLayerTableRecord
  2
치수_보조선
 70
     0
 62
     4
  6
Continuous
370
    -3
390
F
  0
LAYER
  5
77
330
2
100
AcDbSymbolTableRecord
100
AcDbLayerTableRecord
  2
치수문자_일반주서
 70
     0
 62
     7
  6
Continuous
370
    15
390
F
  0
LAYER
  5
78
330
2
100
AcDbSymbolTableRecord
100
AcDbLayerTableRecord
  2
개별주서
 70
     0
 62
   100
  6
Continuous
370
    30
390
F
  0
LAYER
  5
79
330
2
100
AcDbSymbolTableRecord
100
AcDbLayerTableRecord
  2
중간선
 70
     0
 62
     2
  6
Continuous
370
    15
390
F
  0
LAYER
  5
7A
330
2
100
AcDbSymbolTableRecord
100
AcDbLayerTableRecord
  2
윤곽선
 70
     0
 62
     3
  6
Continuous
370
    40
390
F
  0
LAYER
  5
7B
330
2
100
AcDbSymbolTableRecord
100
AcDbLayerTableRecord
  2
중심마크
 70
     0
 62
   100
  6
Continuous
370
    30
390
F
  0
LAYER
  5
7C
330
2
100
AcDbSymbolTableRecord
100
AcDbLayerTableRecord
  2
가상선
 70
     0
 62
     4
  6
PHANTOM
370
    -3
390
F
  0
LAYER
  5
7D
330
2
100
AcDbSymbolTableRecord
100
AcDbLayerTableRecord
  2
특수지정선
 70
     0
 62
     5
  6
CENTERX2
370
    60
390
F
  0
LAYER
  5
7E
330
2
100
AcDbSymbolTableRecord
100
AcDbLayerTableRecord
  2
참조1
 70
     0
 62
    -4
  6
Continuous
370
    -3
390
F
  0
LAYER
  5
169
330
2
100
AcDbSymbolTableRecord
100
AcDbLayerTableRecord
  2
Defpoints
 70
     0
 62
     7
  6
Continuous
290
     0
370
    -3
390
F
  0
ENDTAB
  0
TABLE
  2
STYLE
  5
3
330
0
100
AcDbSymbolTable
 70
     2
  0
STYLE
  5
11
330
3
100
AcDbSymbolTableRecord
100
AcDbTextStyleTableRecord
  2
Standard
 70
     0
 40
0.0
 41
1.0
 50
0.0
 71
     0
 42
3.5
  3
txt
  4

  0
STYLE
  5
94
330
3
100
AcDbSymbolTableRecord
100
AcDbTextStyleTableRecord
  2
SLDTEXTSTYLE0
 70
     0
 40
0.0
 41
0.75
 50
0.0
 71
     0
 42
3.5
  3
TXT
  4

  0
ENDTAB
  0
TABLE
  2
VIEW
  5
6
330
0
100
AcDbSymbolTable
 70
     0
  0
ENDTAB
  0
TABLE
  2
UCS
  5
7
330
0
100
AcDbSymbolTable
 70
     0
  0
ENDTAB
  0
TABLE
  2
APPID
  5
9
330
0
100
AcDbSymbolTable
 70
     3
  0
APPID
  5
12
330
9
100
AcDbSymbolTableRecord
100
AcDbRegAppTableRecord
  2
ACAD
 70
     0
  0
APPID
  5
175
330
9
100
AcDbSymbolTableRecord
100
AcDbRegAppTableRecord
  2
PE_URL
 70
     0
  0
APPID
  5
176
330
9
100
AcDbSymbolTableRecord
100
AcDbRegAppTableRecord
  2
ACAD_DSTYLE_DIMRADIAL_EXTENSION
 70
     0
  0
ENDTAB
  0
TABLE
  2
DIMSTYLE
  5
A
330
0
100
AcDbSymbolTable
 70
     4
100
AcDbDimStyleTable
  0
DIMSTYLE
105
27
330
A
100
AcDbSymbolTableRecord
100
AcDbDimStyleTableRecord
  2
ISO-25
 70
     0
 41
2.5
 42
0.625
 43
3.75
 44
1.25
 73
     0
 74
     0
 77
     1
 78
     8
140
2.5
141
2.5
143
0.03937007874016
147
0.625
171
     3
172
     1
178
     0
271
     2
272
     2
274
     3
278
    44
283
     0
284
     8
340
11
  0
DIMSTYLE
105
E6
102
{ACAD_REACTORS
330
E5
330
1D5
330
1E2
330
FA
330
10F
330
123
102
}
330
A
100
AcDbSymbolTableRecord
100
AcDbDimStyleTableRecord
  2
SLDDIMSTYLE0
 70
     0
 41
3.302
 44
0.0
 45
0.000000001
 73
     0
 74
     0
 77
     1
 78
    12
 79
     3
140
3.5
143
0.0393700787401575
147
0.875
148
0.000000001
170
     1
172
     1
173
     1
178
     0
271
     2
272
     2
276
     2
284
    12
289
     0
340
94
  0
DIMSTYLE
105
FB
102
{ACAD_REACTORS
330
218
102
}
330
A
100
AcDbSymbolTableRecord
100
AcDbDimStyleTableRecord
  2
SLDDIMSTYLE1
 70
     0
 41
3.302
 44
0.0
 45
0.000000001
 73
     0
 74
     0
 77
     1
 78
    12
 79
     3
140
3.5
143
0.0393700787401575
147
0.875
148
0.000000001
170
     1
173
     1
178
     0
271
     2
272
     2
276
     2
284
    12
340
94
  0
DIMSTYLE
105
110
102
{ACAD_REACTORS
330
1EF
330
1FE
102
}
330
A
100
AcDbSymbolTableRecord
100
AcDbDimStyleTableRecord
  2
SLDDIMSTYLE2
 70
     0
 41
3.302
 44
0.0
 45
0.000000001
 73
     0
 74
     0
 77
     1
 78
     4
 79
     1
140
3.5
143
0.0393700787401575
147
0.875
148
0.000000001
170
     1
173
     1
178
     0
271
     2
272
     2
276
     2
284
    12
340
94
  0
ENDTAB
  0
TABLE
  2
BLOCK_RECORD
  5
1
330
0
100
AcDbSymbolTable
 70
    18
  0
BLOCK_RECORD
  5
1F
330
1
100
AcDbSymbolTableRecord
100
AcDbBlockTableRecord
  2
*Model_Space
340
22
  0
BLOCK_RECORD
  5
1B
330
1
100
AcDbSymbolTableRecord
100
AcDbBlockTableRecord
  2
*Paper_Space
340
1E
  0
BLOCK_RECORD
  5
23
330
1
100
AcDbSymbolTableRecord
100
AcDbBlockTableRecord
  2
*Paper_Space0
340
26
  0
BLOCK_RECORD
  5
7F
330
1
100
AcDbSymbolTableRecord
100
AcDbBlockTableRecord
  2
블럭10
340
0
102
{BLKREFS
331
DE
102
}
  0
BLOCK_RECORD
  5
E7
330
1
100
AcDbSymbolTableRecord
100
AcDbBlockTableRecord
  2
_D
340
0
  0
BLOCK_RECORD
  5
FC
330
1
100
AcDbSymbolTableRecord
100
AcDbBlockTableRecord
  2
_D_1
340
0
  0
BLOCK_RECORD
  5
111
330
1
100
AcDbSymbolTableRecord
100
AcDbBlockTableRecord
  2
_D_2
340
0
  0
BLOCK_RECORD
  5
124
330
1
100
AcDbSymbolTableRecord
100
AcDbBlockTableRecord
  2
_D_3
340
0
  0
BLOCK_RECORD
  5
13D
330
1
100
AcDbSymbolTableRecord
100
AcDbBlockTableRecord
  2
SW_DOWELSYMBOL_0
340
0
102
{BLKREFS
331
143
331
20D
331
0
102
}
  0
BLOCK_RECORD
  5
1FF
330
1
100
AcDbSymbolTableRecord
100
AcDbBlockTableRecord
  2
_D_4
340
0
  0
BLOCK_RECORD
  5
219
330
1
100
AcDbSymbolTableRecord
100
AcDbBlockTableRecord
  2
*D9
340
0
  0
BLOCK_RECORD
  5
225
330
1
100
AcDbSymbolTableRecord
100
AcDbBlockTableRecord
  2
*D10
340
0
  0
BLOCK_RECORD
  5
231
330
1
100
AcDbSymbolTableRecord
100
AcDbBlockTableRecord
  2
*D11
340
0
  0
BLOCK_RECORD
  5
23D
330
1
100
AcDbSymbolTableRecord
100
AcDbBlockTableRecord
  2
*D12
340
0
  0
BLOCK_RECORD
  5
298
330
1
100
AcDbSymbolTableRecord
100
AcDbBlockTableRecord
  2
*D13
340
0
  0
BLOCK_RECORD
  5
2A4
330
1
100
AcDbSymbolTableRecord
100
AcDbBlockTableRecord
  2
*D14
340
0
  0
BLOCK_RECORD
  5
2B0
330
1
100
AcDbSymbolTableRecord
100
AcDbBlockTableRecord
  2
*D15
340
0
  0
BLOCK_RECORD
  5
2BE
330
1
100
AcDbSymbolTableRecord
100
AcDbBlockTableRecord
  2
*D16
340
0
  0
BLOCK_RECORD
  5
2CC
330
1
100
AcDbSymbolTableRecord
100
AcDbBlockTableRecord
  2
*D17
340
0
  0
ENDTAB
  0
ENDSEC
  0
SECTION
  2
BLOCKS
  0
BLOCK
  5
20
330
1F
100
AcDbEntity
  8
0
100
AcDbBlockBegin
  2
*Model_Space
 70
     0
 10
0.0
 20
0.0
 30
0.0
  3
*Model_Space
  1
*Model_Space
  0
ENDBLK
  5
21
330
1F
100
AcDbEntity
  8
0
100
AcDbBlockEnd
  0
BLOCK
  5
1C
330
1B
100
AcDbEntity
 67
     1
  8
0
100
AcDbBlockBegin
  2
*Paper_Space
 70
     0
 10
0.0
 20
0.0
 30
0.0
  3
*Paper_Space
  1
*Paper_Space
  0
ENDBLK
  5
1D
330
1B
100
AcDbEntity
 67
     1
  8
0
100
AcDbBlockEnd
  0
BLOCK
  5
24
330
23
100
AcDbEntity
  8
0
100
AcDbBlockBegin
  2
*Paper_Space0
 70
     0
 10
0.0
 20
0.0
 30
0.0
  3
*Paper_Space0
  1
*Paper_Space0
  0
ENDBLK
  5
25
330
23
100
AcDbEntity
  8
0
100
AcDbBlockEnd
  0
BLOCK
  5
80
330
7F
100
AcDbEntity
  8
0
100
AcDbBlockBegin
  2
블럭10
 70
     2
 10
0.0
 20
0.0
 30
0.0
  3
블럭10
  1
블럭10
  0
ELLIPSE
  5
82
330
7F
100
AcDbEntity
  8
중심선
100
AcDbEllipse
 10
20.54032771741204
 20
12.0471743016438
 30
0.0
 11
6.600054785286829
 21
-1.261213355974178E-13
 31
0.0
210
0.0
220
0.0
230
1.0
 40
0.636358354079598
 41
0.9219305317359503
 42
6.513795318482858
  0
ELLIPSE
  5
83
330
7F
100
AcDbEntity
  8
중심선
100
AcDbEllipse
 10
20.54032771746488
 20
12.04717430159265
 30
0.0
 11
3.960054785062283
 21
1.540847449632565E-10
 31
0.0
210
0.0
220
0.0
230
1.0
 40
0.3939339440162632
 41
1.131841032648279
 42
5.62031148352944
  0
LINE
  5
84
330
7F
100
AcDbEntity
  8
중심선
100
AcDbLine
 10
2.268634060543552
 20
16.24717430164393
 30
0.0
 11
5.714909304380834
 21
16.24717430164393
 31
0.0
  0
LINE
  5
85
330
7F
100
AcDbEntity
  8
중심선
100
AcDbLine
 10
5.245725140726316
 20
7.84717430164391
 30
0.0
 11
8.692000384563599
 21
7.84717430164391
 31
0.0
  0
LINE
  5
86
330
7F
100
AcDbEntity
  8
중심선
100
AcDbLine
 10
15.74043728645272
 20
16.24717430164393
 30
0.0
 11
8.692000384563599
 21
7.84717430164391
 31
0.0
  0
LINE
  5
87
330
7F
100
AcDbEntity
  8
중심선
100
AcDbLine
 10
0.1404042013395286
 20
13.71084872107135
 30
0.0
 11
3.58671253028996
 21
13.71088815037384
 31
0.0
  0
LINE
  5
88
330
7F
100
AcDbEntity
  8
중심선
100
AcDbLine
 10
2.750260043222114
 20
10.84717430164391
 30
0.0
 11
6.196535287059397
 21
10.84717430164391
 31
0.0
  0
LINE
  5
89
330
7F
100
AcDbEntity
  8
중심선
100
AcDbLine
 10
12.29416204261559
 20
16.24717430164393
 30
0.0
 11
5.245725140726316
 21
7.84717430164391
 31
0.0
  0
LINE
  5
8A
330
7F
100
AcDbEntity
  8
중심선
100
AcDbLine
 10
10.72767329541681
 20
16.24717430164393
 30
0.0
 11
6.196535287059397
 21
10.84717430164391
 31
0.0
  0
LINE
  5
8B
330
7F
100
AcDbEntity
  8
중심선
100
AcDbLine
 10
7.28139805157953
 20
16.24717430164393
 30
0.0
 11
2.750260043222114
 21
10.84717430164391
 31
0.0
  0
LINE
  5
8C
330
7F
100
AcDbEntity
  8
중심선
100
AcDbLine
 10
5.714909304380834
 20
16.24717430164393
 30
0.0
 11
3.58671253028996
 21
13.71088815037384
 31
0.0
  0
LINE
  5
8D
330
7F
100
AcDbEntity
  8
중심선
100
AcDbLine
 10
2.268634060543552
 20
16.24717430164393
 30
0.0
 11
0.1404042013395286
 21
13.71084872107135
 31
0.0
  0
LINE
  5
8E
330
7F
100
AcDbEntity
  8
중심선
100
AcDbLine
 10
7.28139805157953
 20
16.24717430164393
 30
0.0
 11
10.72767329541681
 21
16.24717430164393
 31
0.0
  0
LINE
  5
8F
330
7F
100
AcDbEntity
  8
중심선
100
AcDbLine
 10
12.29416204261559
 20
16.24717430164393
 30
0.0
 11
15.74043728645272
 21
16.24717430164393
 31
0.0
  0
LINE
  5
90
330
7F
100
AcDbEntity
  8
중심선
100
AcDbLine
 10
19.22036997980202
 20
11.08717430171403
 30
0.0
 11
23.66174974927406
 21
11.08717430171406
 31
0.0
  0
LINE
  5
91
330
7F
100
AcDbEntity
  8
중심선
100
AcDbLine
 10
19.22039502424796
 20
13.00717430171391
 30
0.0
 11
19.22036997980202
 21
11.08717430171403
 31
0.0
  0
LINE
  5
92
330
7F
100
AcDbEntity
  8
중심선
100
AcDbLine
 10
19.22039502424796
 20
13.00717430171391
 30
0.0
 11
26.96566020931264
 21
13.00717430171391
 31
0.0
  0
LINE
  5
93
330
7F
100
AcDbEntity
  8
중심선
100
AcDbLine
 10
22.22332737316547
 20
13.45928029700563
 30
0.0
 11
24.52862924686651
 21
15.39360700705356
 31
0.0
  0
ATTDEF
  5
95
330
7F
100
AcDbEntity
  8
FORMAT
 62
     2
100
AcDbText
 10
4.408487351596664
 20
2.075366912832191
 30
0.0
 40
4.233333333333333
  1
E5026020
 41
0.75
  7
SLDTEXTSTYLE0
 11
4.408487351596664
 21
-0.0412997538344756
 31
0.0
100
AcDbAttributeDefinition
  3

  2
AUTOATTR0
 70
     0
 74
     1
  0
ENDBLK
  5
81
330
7F
100
AcDbEntity
  8
0
100
AcDbBlockEnd
  0
BLOCK
  5
E8
330
E7
100
AcDbEntity
  8
0
100
AcDbBlockBegin
  2
_D
 70
     0
 10
0.0
 20
0.0
 30
0.0
  3
_D
  1
_D
  0
LINE
  5
EA
330
E7
100
AcDbEntity
  8
치수문자_일반주서
 62
     0
370
    -2
100
AcDbLine
 10
-49.57749999999999
 20
3.96874999999999
 30
0.0
 11
-62.14389882847262
 21
3.968749999999943
 31
0.0
  0
LINE
  5
EB
330
E7
100
AcDbEntity
  8
치수문자_일반주서
 62
     0
370
    -2
100
AcDbLine
 10
-49.57749999999999
 20
-3.968749999999996
 30
0.0
 11
-62.14389882847259
 21
-3.968750000000043
 31
0.0
  0
LINE
  5
EC
330
E7
100
AcDbEntity
  8
치수문자_일반주서
 62
     0
370
    -2
100
AcDbLine
 10
-62.14389882847262
 20
3.968749999999943
 30
0.0
 11
-62.14389882847274
 21
38.57274999999994
 31
0.0
  0
LINE
  5
ED
330
E7
100
AcDbEntity
  8
치수문자_일반주서
 62
     0
370
    -2
100
AcDbLine
 10
-62.14389882847262
 20
3.968749999999943
 30
0.0
 11
-62.14389882847259
 21
-3.968750000000043
 31
0.0
  0
LINE
  5
EE
330
E7
100
AcDbEntity
  8
치수문자_일반주서
 62
     0
370
    -2
100
AcDbLine
 10
-62.14389882847263
 20
7.270749999999943
 30
0.0
 11
-62.14389882847264
 21
10.57274999999994
 31
0.0
  0
LINE
  5
EF
330
E7
100
AcDbEntity
  8
치수문자_일반주서
 62
     0
370
    -2
100
AcDbLine
 10
-62.14389882847257
 20
-7.270750000000042
 30
0.0
 11
-62.14389882847256
 21
-10.57275000000004
 31
0.0
  0
SOLID
  5
F0
330
E7
100
AcDbEntity
  8
치수문자_일반주서
 62
     0
100
AcDbTrace
 10
-62.69423216180596
 20
7.270749999999941
 30
0.0
 11
-61.59356549513929
 21
7.270749999999945
 31
0.0
 12
-62.14389882847262
 22
3.968749999999943
 32
0.0
 13
-62.14389882847262
 23
3.968749999999943
 33
0.0
  0
SOLID
  5
F1
330
E7
100
AcDbEntity
  8
치수문자_일반주서
 62
     0
100
AcDbTrace
 10
-61.59356549513924
 20
-7.27075000000004
 30
0.0
 11
-62.69423216180591
 21
-7.270750000000044
 31
0.0
 12
-62.14389882847259
 22
-3.968750000000043
 32
0.0
 13
-62.14389882847259
 23
-3.968750000000043
 33
0.0
  0
MTEXT
  5
F2
330
E7
100
AcDbEntity
  8
치수문자_일반주서
 62
     0
100
AcDbMText
 10
-66.51889882847269
 20
24.57274999999993
 30
0.0
 40
3.5
 41
0.0
 71
     2
 72
     1
  1
\A1;%%c7.94 [5/16]
  7
SLDTEXTSTYLE0
 11
-3.580687802255629E-15
 21
1.0
 31
0.0
 73
     1
 44
1.0
  0
POINT
  5
2D6
330
E7
100
AcDbEntity
  8
Defpoints
 62
     0
100
AcDbPoint
 10
-49.51499999999999
 20
3.96874999999999
 30
0.0
  0
POINT
  5
2D7
330
E7
100
AcDbEntity
  8
Defpoints
 62
     0
100
AcDbPoint
 10
-49.51499999999999
 20
-3.968749999999996
 30
0.0
  0
POINT
  5
2D8
330
E7
100
AcDbEntity
  8
Defpoints
 62
     0
100
AcDbPoint
 10
-62.14389882847259
 20
-3.968750000000043
 30
0.0
  0
ENDBLK
  5
E9
330
E7
100
AcDbEntity
  8
0
100
AcDbBlockEnd
  0
BLOCK
  5
FD
330
FC
100
AcDbEntity
  8
0
100
AcDbBlockBegin
  2
_D_1
 70
     0
 10
0.0
 20
0.0
 30
0.0
  3
_D_1
  1
_D_1
  0
LINE
  5
FF
330
FC
100
AcDbEntity
  8
치수문자_일반주서
 62
     0
370
    -2
100
AcDbLine
 10
51.27500000000001
 20
4.030703059813666
 30
0.0
 11
51.27500000000001
 21
17.14173740376559
 31
0.0
  0
LINE
  5
100
330
FC
100
AcDbEntity
  8
치수문자_일반주서
 62
     0
370
    -2
100
AcDbLine
 10
10.0
 20
4.031249999999997
 30
0.0
 11
10.0
 21
17.14173740376559
 31
0.0
  0
LINE
  5
101
330
FC
100
AcDbEntity
  8
치수문자_일반주서
 62
     0
370
    -2
100
AcDbLine
 10
47.97300000000001
 20
17.14173740376559
 30
0.0
 11
13.302
 21
17.14173740376559
 31
0.0
  0
SOLID
  5
102
330
FC
100
AcDbEntity
  8
치수문자_일반주서
 62
     0
100
AcDbTrace
 10
47.97300000000001
 20
16.59140407043225
 30
0.0
 11
47.97300000000001
 21
17.69207073709892
 31
0.0
 12
51.27500000000001
 22
17.14173740376559
 32
0.0
 13
51.27500000000001
 23
17.14173740376559
 33
0.0
  0
SOLID
  5
103
330
FC
100
AcDbEntity
  8
치수문자_일반주서
 62
     0
100
AcDbTrace
 10
13.302
 20
17.69207073709892
 30
0.0
 11
13.302
 21
16.59140407043225
 31
0.0
 12
10.0
 22
17.14173740376559
 32
0.0
 13
10.0
 23
17.14173740376559
 33
0.0
  0
MTEXT
  5
104
330
FC
100
AcDbEntity
  8
치수문자_일반주서
 62
     0
100
AcDbMText
 10
30.63750000000001
 20
21.51673740376559
 30
0.0
 40
3.5
 41
0.0
 71
     2
 72
     1
  1
\A1;41.28 [1 5/8]
  7
SLDTEXTSTYLE0
 73
     1
 44
1.0
  0
POINT
  5
105
330
FC
100
AcDbEntity
  8
Defpoints
 62
     0
100
AcDbPoint
 10
51.27500000000001
 20
3.968203059813666
 30
0.0
  0
POINT
  5
106
330
FC
100
AcDbEntity
  8
Defpoints
 62
     0
100
AcDbPoint
 10
10.0
 20
3.968749999999997
 30
0.0
  0
POINT
  5
107
330
FC
100
AcDbEntity
  8
Defpoints
 62
     0
100
AcDbPoint
 10
10.0
 20
17.14173740376559
 30
0.0
  0
ENDBLK
  5
FE
330
FC
100
AcDbEntity
  8
0
100
AcDbBlockEnd
  0
BLOCK
  5
112
330
111
100
AcDbEntity
  8
0
100
AcDbBlockBegin
  2
_D_2
 70
     0
 10
0.0
 20
0.0
 30
0.0
  3
_D_2
  1
_D_2
  0
LINE
  5
114
330
111
100
AcDbEntity
  8
치수문자_일반주서
 62
     0
370
    -2
100
AcDbLine
 10
51.27499999999999
 20
4.030703059813666
 30
0.0
 11
51.27499999999999
 21
34.29163864014821
 31
0.0
  0
LINE
  5
115
330
111
100
AcDbEntity
  8
치수문자_일반주서
 62
     0
370
    -2
100
AcDbLine
 10
-50.325
 20
3.22124999999999
 30
0.0
 11
-50.325
 21
34.29163864014821
 31
0.0
  0
LINE
  5
116
330
111
100
AcDbEntity
  8
치수문자_일반주서
 62
     0
370
    -2
100
AcDbLine
 10
47.97299999999999
 20
34.29163864014821
 30
0.0
 11
-47.023
 21
34.29163864014821
 31
0.0
  0
SOLID
  5
117
330
111
100
AcDbEntity
  8
치수문자_일반주서
 62
     0
100
AcDbTrace
 10
47.97299999999999
 20
33.74130530681487
 30
0.0
 11
47.97299999999999
 21
34.84197197348154
 31
0.0
 12
51.27499999999999
 22
34.29163864014821
 32
0.0
 13
51.27499999999999
 23
34.29163864014821
 33
0.0
  0
SOLID
  5
118
330
111
100
AcDbEntity
  8
치수문자_일반주서
 62
     0
100
AcDbTrace
 10
-47.023
 20
34.84197197348154
 30
0.0
 11
-47.023
 21
33.74130530681487
 31
0.0
 12
-50.325
 22
34.29163864014821
 32
0.0
 13
-50.325
 23
34.29163864014821
 33
0.0
  0
MTEXT
  5
119
330
111
100
AcDbEntity
  8
치수문자_일반주서
 62
     0
100
AcDbMText
 10
0.4749999999998575
 20
38.66663864014821
 30
0.0
 40
3.5
 41
0.0
 71
     2
 72
     1
  1
\A1;101.6 [4]
  7
SLDTEXTSTYLE0
 73
     1
 44
1.0
  0
POINT
  5
11A
330
111
100
AcDbEntity
  8
Defpoints
 62
     0
100
AcDbPoint
 10
51.27499999999999
 20
3.968203059813666
 30
0.0
  0
POINT
  5
11B
330
111
100
AcDbEntity
  8
Defpoints
 62
     0
100
AcDbPoint
 10
-50.325
 20
3.15874999999999
 30
0.0
  0
POINT
  5
11C
330
111
100
AcDbEntity
  8
Defpoints
 62
     0
100
AcDbPoint
 10
-50.325
 20
34.29163864014821
 30
0.0
  0
ENDBLK
  5
113
330
111
100
AcDbEntity
  8
0
100
AcDbBlockEnd
  0
BLOCK
  5
125
330
124
100
AcDbEntity
  8
0
100
AcDbBlockBegin
  2
_D_3
 70
     0
 10
0.0
 20
0.0
 30
0.0
  3
_D_3
  1
_D_3
  0
LINE
  5
127
330
124
100
AcDbEntity
  8
치수문자_일반주서
 62
     0
370
    -2
100
AcDbLine
 10
51.33750000000001
 20
-3.968750000000003
 30
0.0
 11
66.28889942703928
 21
-3.968749999999947
 31
0.0
  0
LINE
  5
128
330
124
100
AcDbEntity
  8
치수문자_일반주서
 62
     0
370
    -2
100
AcDbLine
 10
51.33750000000001
 20
3.968203059813666
 30
0.0
 11
66.28889942703925
 21
3.968203059813725
 31
0.0
  0
LINE
  5
129
330
124
100
AcDbEntity
  8
치수문자_일반주서
 62
     0
370
    -2
100
AcDbLine
 10
66.28889942703925
 20
3.968203059813725
 30
0.0
 11
66.28889942703913
 21
38.57220305981372
 31
0.0
  0
LINE
  5
12A
330
124
100
AcDbEntity
  8
치수문자_일반주서
 62
     0
370
    -2
100
AcDbLine
 10
66.28889942703928
 20
-3.968749999999947
 30
0.0
 11
66.28889942703925
 21
3.968203059813725
 31
0.0
  0
LINE
  5
12B
330
124
100
AcDbEntity
  8
치수문자_일반주서
 62
     0
370
    -2
100
AcDbLine
 10
66.2888994270393
 20
-7.270749999999946
 30
0.0
 11
66.28889942703931
 21
-10.57274999999995
 31
0.0
  0
LINE
  5
12C
330
124
100
AcDbEntity
  8
치수문자_일반주서
 62
     0
370
    -2
100
AcDbLine
 10
66.28889942703924
 20
7.270203059813724
 30
0.0
 11
66.28889942703923
 21
10.57220305981372
 31
0.0
  0
SOLID
  5
12D
330
124
100
AcDbEntity
  8
치수문자_일반주서
 62
     0
100
AcDbTrace
 10
66.83923276037262
 20
-7.270749999999945
 30
0.0
 11
65.73856609370597
 21
-7.270749999999948
 31
0.0
 12
66.28889942703928
 22
-3.968749999999947
 32
0.0
 13
66.28889942703928
 23
-3.968749999999947
 33
0.0
  0
SOLID
  5
12E
330
124
100
AcDbEntity
  8
치수문자_일반주서
 62
     0
100
AcDbTrace
 10
65.73856609370591
 20
7.270203059813722
 30
0.0
 11
66.83923276037257
 21
7.270203059813726
 31
0.0
 12
66.28889942703925
 22
3.968203059813725
 32
0.0
 13
66.28889942703925
 23
3.968203059813725
 33
0.0
  0
MTEXT
  5
12F
330
124
100
AcDbEntity
  8
치수문자_일반주서
 62
     0
100
AcDbMText
 10
61.91389942703918
 20
24.57220305981371
 30
0.0
 40
3.5
 41
0.0
 71
     2
 72
     1
  1
\A1;%%c7.94 [5/16]
  7
SLDTEXTSTYLE0
 11
-3.580934549595440E-15
 21
1.0
 31
0.0
 73
     1
 44
1.0
  0
POINT
  5
130
330
124
100
AcDbEntity
  8
Defpoints
 62
     0
100
AcDbPoint
 10
51.27500000000001
 20
-3.968750000000003
 30
0.0
  0
POINT
  5
131
330
124
100
AcDbEntity
  8
Defpoints
 62
     0
100
AcDbPoint
 10
51.27500000000001
 20
3.968203059813666
 30
0.0
  0
POINT
  5
132
330
124
100
AcDbEntity
  8
Defpoints
 62
     0
100
AcDbPoint
 10
66.28889942703925
 20
3.968203059813722
 30
0.0
  0
ENDBLK
  5
126
330
124
100
AcDbEntity
  8
0
100
AcDbBlockEnd
  0
BLOCK
  5
13E
330
13D
100
AcDbEntity
  8
0
100
AcDbBlockBegin
  2
SW_DOWELSYMBOL_0
 70
     0
 10
0.0
 20
0.0
 30
0.0
  3
SW_DOWELSYMBOL_0
  1
SW_DOWELSYMBOL_0
  0
CIRCLE
  5
140
330
13D
100
AcDbEntity
  8
해칭선
 62
     0
100
AcDbCircle
 10
0.0
 20
0.0
 30
0.0
 40
2.999999999999996
  0
HATCH
  5
141
330
13D
100
AcDbEntity
  8
0
  6
Continuous
 62
     0
370
     0
100
AcDbHatch
 10
0.0
 20
0.0
 30
0.0
210
0.0
220
0.0
230
1.0
  2
SOLID
 70
     1
 71
     0
 91
        1
 92
        0
 93
        3
 72
     2
 10
0.0
 20
0.0
 40
2.999999999999996
 50
0.0
 51
90.0
 73
     1
 72
     1
 10
0.0
 20
2.999999999999996
 11
0.0
 21
0.0
 72
     1
 10
0.0
 20
0.0
 11
2.999999999999996
 21
0.0
 97
        0
 75
     0
 76
     1
 98
        1
 10
0.0
 20
0.0
  0
HATCH
  5
142
330
13D
100
AcDbEntity
  8
0
  6
Continuous
 62
     0
370
     0
100
AcDbHatch
 10
0.0
 20
0.0
 30
0.0
210
0.0
220
0.0
230
1.0
  2
SOLID
 70
     1
 71
     0
 91
        1
 92
        0
 93
        3
 72
     2
 10
0.0
 20
0.0
 40
2.999999999999996
 50
180.0
 51
270.0000000000008
 73
     1
 72
     1
 10
0.0
 20
-2.999999999999996
 11
0.0
 21
0.0
 72
     1
 10
0.0
 20
0.0
 11
-2.999999999999996
 21
0.0
 97
        0
 75
     0
 76
     1
 98
        1
 10
0.0
 20
0.0
  0
ENDBLK
  5
13F
330
13D
100
AcDbEntity
  8
0
100
AcDbBlockEnd
  0
BLOCK
  5
200
330
1FF
100
AcDbEntity
  8
0
100
AcDbBlockBegin
  2
_D_4
 70
     0
 10
0.0
 20
0.0
 30
0.0
  3
_D_4
  1
_D_4
  0
LINE
  5
201
330
1FF
100
AcDbEntity
  8
치수문자_일반주서
 62
     0
370
    -2
100
AcDbLine
 10
102.4375000000001
 20
36.22143424691529
 30
0.0
 11
117.3750000000001
 21
36.22143424691535
 31
0.0
  0
LINE
  5
202
330
1FF
100
AcDbEntity
  8
치수문자_일반주서
 62
     0
370
    -2
100
AcDbLine
 10
102.4375000000001
 20
22.22143424691529
 30
0.0
 11
117.3750000000001
 21
22.22143424691535
 31
0.0
  0
LINE
  5
203
330
1FF
100
AcDbEntity
  8
치수문자_일반주서
 62
     0
370
    -2
100
AcDbLine
 10
117.3750000000001
 20
36.22143424691535
 30
0.0
 11
117.3750000000001
 21
22.22143424691535
 31
0.0
  0
LINE
  5
204
330
1FF
100
AcDbEntity
  8
치수문자_일반주서
 62
     0
370
    -2
100
AcDbLine
 10
117.3750000000001
 20
39.52343424691535
 30
0.0
 11
117.375
 21
42.82543424691535
 31
0.0
  0
LINE
  5
205
330
1FF
100
AcDbEntity
  8
치수문자_일반주서
 62
     0
370
    -2
100
AcDbLine
 10
117.3750000000001
 20
18.91943424691535
 30
0.0
 11
117.3750000000001
 21
15.61743424691535
 31
0.0
  0
SOLID
  5
206
330
1FF
100
AcDbEntity
  8
치수문자_일반주서
 62
     0
100
AcDbTrace
 10
116.8246666666667
 20
39.52343424691535
 30
0.0
 11
117.9253333333334
 21
39.52343424691535
 31
0.0
 12
117.3750000000001
 22
36.22143424691535
 32
0.0
 13
117.3750000000001
 23
36.22143424691535
 33
0.0
  0
SOLID
  5
207
330
1FF
100
AcDbEntity
  8
치수문자_일반주서
 62
     0
100
AcDbTrace
 10
117.9253333333335
 20
18.91943424691535
 30
0.0
 11
116.8246666666668
 21
18.91943424691535
 31
0.0
 12
117.3750000000001
 22
22.22143424691535
 32
0.0
 13
117.3750000000001
 23
22.22143424691535
 33
0.0
  0
MTEXT
  5
208
330
1FF
100
AcDbEntity
  8
치수문자_일반주서
 62
     0
100
AcDbMText
 10
113.0000000000001
 20
29.28713862862833
 30
0.0
 40
3.5
 41
0.0
 71
     2
 72
     1
  1
\A1;%%c14.00 [0.55]
  7
SLDTEXTSTYLE0
 11
-3.045183153257572E-15
 21
1.0
 31
0.0
 73
     1
 44
1.0
  0
POINT
  5
209
330
1FF
100
AcDbEntity
  8
Defpoints
 62
     0
100
AcDbPoint
 10
102.3750000000001
 20
36.22143424691529
 30
0.0
  0
POINT
  5
20A
330
1FF
100
AcDbEntity
  8
Defpoints
 62
     0
100
AcDbPoint
 10
102.3750000000001
 20
22.22143424691529
 30
0.0
  0
POINT
  5
20B
330
1FF
100
AcDbEntity
  8
Defpoints
 62
     0
100
AcDbPoint
 10
117.3750000000001
 20
22.22143424691535
 30
0.0
  0
ENDBLK
  5
20C
330
1FF
100
AcDbEntity
  8
0
100
AcDbBlockEnd
  0
BLOCK
  5
21A
330
219
100
AcDbEntity
  8
0
100
AcDbBlockBegin
  2
*D9
 70
     1
 10
0.0
 20
0.0
 30
0.0
  3
*D9
  1
*D8
  0
LINE
  5
21B
330
219
100
AcDbEntity
  8
치수문자_일반주서
 62
     0
370
    -2
100
AcDbLine
 10
103.8657751816695
 20
19.48229575403651
 30
0.0
 11
119.6194267469468
 21
-6.150060756304035
 31
0.0
  0
MTEXT
  5
21C
330
219
100
AcDbEntity
  8
치수문자_일반주서
 62
     0
100
AcDbMText
 10
115.6706384014277
 20
5.288158154535728
 30
0.0
 40
3.5
 41
0.0
 71
     5
 72
     1
  1
\A1;R.5 [R0.02]
  7
SLDTEXTSTYLE0
 11
0.5236126201129557
 21
-0.8519564684057781
 31
0.0
 73
     1
 44
1.0
  0
SOLID
  5
21D
330
219
100
AcDbEntity
  8
치수문자_일반주서
 62
     0
100
AcDbTrace
 10
104.3346352247821
 20
19.77045723263868
 30
0.0
 11
103.3969151385569
 21
19.19413427543435
 31
0.0
 12
102.1368063100565
 22
22.29545601271239
 32
0.0
 13
102.1368063100565
 23
22.29545601271239
 33
0.0
  0
LINE
  5
21E
330
219
100
AcDbEntity
  8
치수문자_일반주서
 62
     0
100
AcDbLine
 10
101.785
 20
22.72143424691529
 30
0.0
 11
101.965
 21
22.72143424691529
 31
0.0
  0
LINE
  5
21F
330
219
100
AcDbEntity
  8
치수문자_일반주서
 62
     0
100
AcDbLine
 10
101.875
 20
22.63143424691529
 30
0.0
 11
101.875
 21
22.81143424691529
 31
0.0
  0
POINT
  5
24B
330
219
100
AcDbEntity
  8
Defpoints
 62
     0
100
AcDbPoint
 10
102.1368063100565
 20
22.29545601271239
 30
0.0
  0
POINT
  5
24C
330
219
100
AcDbEntity
  8
Defpoints
 62
     0
100
AcDbPoint
 10
101.875
 20
22.72143424691529
 30
0.0
  0
ENDBLK
  5
220
330
219
100
AcDbEntity
  8
0
100
AcDbBlockEnd
  0
BLOCK
  5
226
330
225
100
AcDbEntity
  8
0
100
AcDbBlockBegin
  2
*D10
 70
     1
 10
0.0
 20
0.0
 30
0.0
  3
*D10
  1
*D10
  0
LINE
  5
228
330
225
100
AcDbEntity
  8
치수문자_일반주서
 62
     0
370
    -2
100
AcDbLine
 10
19.37500000000004
 20
35.78393424691529
 30
0.0
 11
19.37500000000004
 21
70.88391841499404
 31
0.0
  0
LINE
  5
229
330
225
100
AcDbEntity
  8
치수문자_일반주서
 62
     0
370
    -2
100
AcDbLine
 10
102.3750000000001
 20
36.34643424691529
 30
0.0
 11
102.3750000000001
 21
70.88391841499404
 31
0.0
  0
LINE
  5
22A
330
225
100
AcDbEntity
  8
치수문자_일반주서
 62
     0
370
    -2
100
AcDbLine
 10
22.67700000000004
 20
70.88391841499404
 30
0.0
 11
99.07300000000006
 21
70.88391841499404
 31
0.0
  0
SOLID
  5
22B
330
225
100
AcDbEntity
  8
치수문자_일반주서
 62
     0
100
AcDbTrace
 10
22.67700000000004
 20
71.43425174832737
 30
0.0
 11
22.67700000000004
 21
70.33358508166071
 31
0.0
 12
19.37500000000004
 22
70.88391841499404
 32
0.0
 13
19.37500000000004
 23
70.88391841499404
 33
0.0
  0
SOLID
  5
22C
330
225
100
AcDbEntity
  8
치수문자_일반주서
 62
     0
100
AcDbTrace
 10
99.07300000000006
 20
70.33358508166071
 30
0.0
 11
99.07300000000006
 21
71.43425174832737
 31
0.0
 12
102.3750000000001
 22
70.88391841499404
 32
0.0
 13
102.3750000000001
 23
70.88391841499404
 33
0.0
  0
MTEXT
  5
22D
330
225
100
AcDbEntity
  8
치수문자_일반주서
 62
     0
100
AcDbMText
 10
60.87500000000005
 20
75.25891841499404
 30
0.0
 40
3.5
 41
0.0
 71
     2
 72
     1
  1
\A1;83 [3.27]
  7
SLDTEXTSTYLE0
 73
     1
 44
1.0
  0
POINT
  5
22E
330
225
100
AcDbEntity
  8
Defpoints
 62
     0
100
AcDbPoint
 10
19.37500000000004
 20
35.72143424691529
 30
0.0
  0
POINT
  5
22F
330
225
100
AcDbEntity
  8
Defpoints
 62
     0
100
AcDbPoint
 10
102.3750000000001
 20
36.28393424691529
 30
0.0
  0
POINT
  5
230
330
225
100
AcDbEntity
  8
Defpoints
 62
     0
100
AcDbPoint
 10
102.3750000000001
 20
70.88391841499404
 30
0.0
  0
ENDBLK
  5
227
330
225
100
AcDbEntity
  8
0
100
AcDbBlockEnd
  0
BLOCK
  5
232
330
231
100
AcDbEntity
  8
0
100
AcDbBlockBegin
  2
*D11
 70
     1
 10
0.0
 20
0.0
 30
0.0
  3
*D11
  1
*D11
  0
LINE
  5
234
330
231
100
AcDbEntity
  8
치수문자_일반주서
 62
     0
370
    -2
100
AcDbLine
 10
76.37504186422882
 20
28.62038676313042
 30
0.0
 11
76.37504186422882
 21
61.90091383617725
 31
0.0
  0
LINE
  5
235
330
231
100
AcDbEntity
  8
치수문자_일반주서
 62
     0
370
    -2
100
AcDbLine
 10
102.3750000000001
 20
36.28393424691529
 30
0.0
 11
102.3750000000001
 21
61.90091383617725
 31
0.0
  0
LINE
  5
236
330
231
100
AcDbEntity
  8
치수문자_일반주서
 62
     0
370
    -2
100
AcDbLine
 10
79.67704186422881
 20
61.90091383617725
 30
0.0
 11
99.07300000000006
 21
61.90091383617725
 31
0.0
  0
SOLID
  5
237
330
231
100
AcDbEntity
  8
치수문자_일반주서
 62
     0
100
AcDbTrace
 10
79.67704186422881
 20
62.45124716951059
 30
0.0
 11
79.67704186422881
 21
61.35058050284392
 31
0.0
 12
76.37504186422882
 22
61.90091383617725
 32
0.0
 13
76.37504186422882
 23
61.90091383617725
 33
0.0
  0
SOLID
  5
238
330
231
100
AcDbEntity
  8
치수문자_일반주서
 62
     0
100
AcDbTrace
 10
99.07300000000006
 20
61.35058050284392
 30
0.0
 11
99.07300000000006
 21
62.45124716951059
 31
0.0
 12
102.3750000000001
 22
61.90091383617725
 32
0.0
 13
102.3750000000001
 23
61.90091383617725
 33
0.0
  0
MTEXT
  5
239
330
231
100
AcDbEntity
  8
치수문자_일반주서
 62
     0
100
AcDbMText
 10
89.42159572693208
 20
66.27591383617725
 30
0.0
 40
3.5
 41
0.0
 71
     2
 72
     1
  1
\A1;26 [1.02]
  7
SLDTEXTSTYLE0
 73
     1
 44
1.0
  0
POINT
  5
23A
330
231
100
AcDbEntity
  8
Defpoints
 62
     0
100
AcDbPoint
 10
76.37504186422882
 20
28.55788676313042
 30
0.0
  0
POINT
  5
23B
330
231
100
AcDbEntity
  8
Defpoints
 62
     0
100
AcDbPoint
 10
102.3750000000001
 20
36.22143424691529
 30
0.0
  0
POINT
  5
23C
330
231
100
AcDbEntity
  8
Defpoints
 62
     0
100
AcDbPoint
 10
102.3750000000001
 20
61.90091383617725
 30
0.0
  0
ENDBLK
  5
233
330
231
100
AcDbEntity
  8
0
100
AcDbBlockEnd
  0
BLOCK
  5
23E
330
23D
100
AcDbEntity
  8
0
100
AcDbBlockBegin
  2
*D12
 70
     1
 10
0.0
 20
0.0
 30
0.0
  3
*D12
  1
*D12
  0
LINE
  5
240
330
23D
100
AcDbEntity
  8
치수문자_일반주서
 62
     0
370
    -2
100
AcDbLine
 10
19.81250000000005
 20
36.22143424691529
 30
0.0
 11
4.374999999999983
 21
36.22143424691524
 31
0.0
  0
LINE
  5
241
330
23D
100
AcDbEntity
  8
치수문자_일반주서
 62
     0
370
    -2
100
AcDbLine
 10
19.81250000000005
 20
22.22143424691529
 30
0.0
 11
4.375000000000032
 21
22.22143424691524
 31
0.0
  0
LINE
  5
242
330
23D
100
AcDbEntity
  8
치수문자_일반주서
 62
     0
370
    -2
100
AcDbLine
 10
4.374999999999983
 20
36.22143424691524
 30
0.0
 11
4.375000000000032
 21
22.22143424691524
 31
0.0
  0
LINE
  5
243
330
23D
100
AcDbEntity
  8
치수문자_일반주서
 62
     0
370
    -2
100
AcDbLine
 10
4.374999999999972
 20
39.52343424691524
 30
0.0
 11
4.37499999999996
 21
42.82543424691524
 31
0.0
  0
LINE
  5
244
330
23D
100
AcDbEntity
  8
치수문자_일반주서
 62
     0
370
    -2
100
AcDbLine
 10
4.375000000000044
 20
18.91943424691524
 30
0.0
 11
4.375000000000055
 21
15.61743424691524
 31
0.0
  0
SOLID
  5
245
330
23D
100
AcDbEntity
  8
치수문자_일반주서
 62
     0
100
AcDbTrace
 10
3.824666666666638
 20
39.52343424691524
 30
0.0
 11
4.925333333333305
 21
39.52343424691524
 31
0.0
 12
4.374999999999983
 22
36.22143424691524
 32
0.0
 13
4.374999999999983
 23
36.22143424691524
 33
0.0
  0
SOLID
  5
246
330
23D
100
AcDbEntity
  8
치수문자_일반주서
 62
     0
100
AcDbTrace
 10
4.925333333333377
 20
18.91943424691524
 30
0.0
 11
3.82466666666671
 21
18.91943424691523
 31
0.0
 12
4.375000000000032
 22
22.22143424691524
 32
0.0
 13
4.375000000000032
 23
22.22143424691524
 33
0.0
  0
MTEXT
  5
247
330
23D
100
AcDbEntity
  8
치수문자_일반주서
 62
     0
100
AcDbMText
 10
0.0000000000000071
 20
29.22143424691528
 30
0.0
 40
3.5
 41
0.0
 71
     2
 72
     1
  1
\A1;%%c14.00 [0.55]
  7
SLDTEXTSTYLE0
 11
-3.489272363107635E-15
 21
1.0
 31
0.0
 73
     1
 44
1.0
  0
POINT
  5
248
330
23D
100
AcDbEntity
  8
Defpoints
 62
     0
100
AcDbPoint
 10
19.87500000000005
 20
36.22143424691529
 30
0.0
  0
POINT
  5
249
330
23D
100
AcDbEntity
  8
Defpoints
 62
     0
100
AcDbPoint
 10
19.87500000000005
 20
22.22143424691529
 30
0.0
  0
POINT
  5
24A
330
23D
100
AcDbEntity
  8
Defpoints
 62
     0
100
AcDbPoint
 10
4.375000000000043
 20
22.22143424691524
 30
0.0
  0
ENDBLK
  5
23F
330
23D
100
AcDbEntity
  8
0
100
AcDbBlockEnd
  0
BLOCK
  5
299
330
298
100
AcDbEntity
  8
0
100
AcDbBlockBegin
  2
*D13
 70
     1
 10
0.0
 20
0.0
 30
0.0
  3
*D13
  1
*D13
  0
LINE
  5
29B
330
298
100
AcDbEntity
  8
치수문자_일반주서
 62
     0
370
    -2
100
AcDbLine
 10
-35.04200038571065
 20
97.25389697724503
 30
0.0
 11
-35.04200038571065
 21
132.3538811453238
 31
0.0
  0
LINE
  5
29C
330
298
100
AcDbEntity
  8
치수문자_일반주서
 62
     0
370
    -2
100
AcDbLine
 10
47.95799961428936
 20
97.81639697724505
 30
0.0
 11
47.95799961428936
 21
132.3538811453238
 31
0.0
  0
LINE
  5
29D
330
298
100
AcDbEntity
  8
치수문자_일반주서
 62
     0
370
    -2
100
AcDbLine
 10
-31.74000038571065
 20
132.3538811453238
 30
0.0
 11
44.65599961428936
 21
132.3538811453238
 31
0.0
  0
SOLID
  5
29E
330
298
100
AcDbEntity
  8
치수문자_일반주서
 62
     0
100
AcDbTrace
 10
-31.74000038571065
 20
132.9042144786571
 30
0.0
 11
-31.74000038571065
 21
131.8035478119905
 31
0.0
 12
-35.04200038571065
 22
132.3538811453238
 32
0.0
 13
-35.04200038571065
 23
132.3538811453238
 33
0.0
  0
SOLID
  5
29F
330
298
100
AcDbEntity
  8
치수문자_일반주서
 62
     0
100
AcDbTrace
 10
44.65599961428936
 20
131.8035478119905
 30
0.0
 11
44.65599961428936
 21
132.9042144786571
 31
0.0
 12
47.95799961428936
 22
132.3538811453238
 32
0.0
 13
47.95799961428936
 23
132.3538811453238
 33
0.0
  0
MTEXT
  5
2A0
330
298
100
AcDbEntity
  8
치수문자_일반주서
 62
     0
100
AcDbMText
 10
6.457999614289356
 20
136.7288811453238
 30
0.0
 40
3.5
 41
0.0
 71
     2
 72
     1
  1
\A1;83 [3.27]
  7
SLDTEXTSTYLE0
 73
     1
 44
1.0
  0
POINT
  5
2A1
330
298
100
AcDbEntity
  8
Defpoints
 62
     0
100
AcDbPoint
 10
-35.04200038571065
 20
97.19139697724503
 30
0.0
  0
POINT
  5
2A2
330
298
100
AcDbEntity
  8
Defpoints
 62
     0
100
AcDbPoint
 10
47.95799961428936
 20
97.75389697724505
 30
0.0
  0
POINT
  5
2A3
330
298
100
AcDbEntity
  8
Defpoints
 62
     0
100
AcDbPoint
 10
47.95799961428936
 20
132.3538811453238
 30
0.0
  0
ENDBLK
  5
29A
330
298
100
AcDbEntity
  8
0
100
AcDbBlockEnd
  0
BLOCK
  5
2A5
330
2A4
100
AcDbEntity
  8
0
100
AcDbBlockBegin
  2
*D14
 70
     1
 10
0.0
 20
0.0
 30
0.0
  3
*D14
  1
*D14
  0
LINE
  5
2A7
330
2A4
100
AcDbEntity
  8
치수문자_일반주서
 62
     0
370
    -2
100
AcDbLine
 10
21.95804147851813
 20
90.09034949346018
 30
0.0
 11
21.95804147851813
 21
123.370876566507
 31
0.0
  0
LINE
  5
2A8
330
2A4
100
AcDbEntity
  8
치수문자_일반주서
 62
     0
370
    -2
100
AcDbLine
 10
47.95799961428936
 20
97.75389697724505
 30
0.0
 11
47.95799961428936
 21
123.370876566507
 31
0.0
  0
LINE
  5
2A9
330
2A4
100
AcDbEntity
  8
치수문자_일반주서
 62
     0
370
    -2
100
AcDbLine
 10
25.26004147851813
 20
123.370876566507
 30
0.0
 11
44.65599961428936
 21
123.370876566507
 31
0.0
  0
SOLID
  5
2AA
330
2A4
100
AcDbEntity
  8
치수문자_일반주서
 62
     0
100
AcDbTrace
 10
25.26004147851813
 20
123.9212098998403
 30
0.0
 11
25.26004147851813
 21
122.8205432331737
 31
0.0
 12
21.95804147851813
 22
123.370876566507
 32
0.0
 13
21.95804147851813
 23
123.370876566507
 33
0.0
  0
SOLID
  5
2AB
330
2A4
100
AcDbEntity
  8
치수문자_일반주서
 62
     0
100
AcDbTrace
 10
44.65599961428936
 20
122.8205432331737
 30
0.0
 11
44.65599961428936
 21
123.9212098998403
 31
0.0
 12
47.95799961428936
 22
123.370876566507
 32
0.0
 13
47.95799961428936
 23
123.370876566507
 33
0.0
  0
MTEXT
  5
2AC
330
2A4
100
AcDbEntity
  8
치수문자_일반주서
 62
     0
100
AcDbMText
 10
35.00459534122139
 20
127.745876566507
 30
0.0
 40
3.5
 41
0.0
 71
     2
 72
     1
  1
\A1;26 [1.02]
  7
SLDTEXTSTYLE0
 73
     1
 44
1.0
  0
POINT
  5
2AD
330
2A4
100
AcDbEntity
  8
Defpoints
 62
     0
100
AcDbPoint
 10
21.95804147851813
 20
90.02784949346018
 30
0.0
  0
POINT
  5
2AE
330
2A4
100
AcDbEntity
  8
Defpoints
 62
     0
100
AcDbPoint
 10
47.95799961428936
 20
97.69139697724505
 30
0.0
  0
POINT
  5
2AF
330
2A4
100
AcDbEntity
  8
Defpoints
 62
     0
100
AcDbPoint
 10
47.95799961428936
 20
123.370876566507
 30
0.0
  0
ENDBLK
  5
2A6
330
2A4
100
AcDbEntity
  8
0
100
AcDbBlockEnd
  0
BLOCK
  5
2B1
330
2B0
100
AcDbEntity
  8
0
100
AcDbBlockBegin
  2
*D15
 70
     1
 10
0.0
 20
0.0
 30
0.0
  3
*D15
  1
*D15
  0
LINE
  5
2B3
330
2B0
100
AcDbEntity
  8
치수문자_일반주서
 62
     0
370
    -2
100
AcDbLine
 10
-34.60450038571064
 20
97.69139697724505
 30
0.0
 11
-50.04200038571071
 21
97.69139697724499
 31
0.0
  0
LINE
  5
2B4
330
2B0
100
AcDbEntity
  8
치수문자_일반주서
 62
     0
370
    -2
100
AcDbLine
 10
-34.60450038571064
 20
83.69139697724505
 30
0.0
 11
-50.04200038571066
 21
83.69139697724499
 31
0.0
  0
LINE
  5
2B5
330
2B0
100
AcDbEntity
  8
치수문자_일반주서
 62
     0
370
    -2
100
AcDbLine
 10
-50.04200038571071
 20
97.69139697724499
 30
0.0
 11
-50.04200038571066
 21
83.69139697724499
 31
0.0
  0
LINE
  5
2B6
330
2B0
100
AcDbEntity
  8
치수문자_일반주서
 62
     0
370
    -2
100
AcDbLine
 10
-50.04200038571072
 20
100.993396977245
 30
0.0
 11
-50.04200038571074
 21
104.295396977245
 31
0.0
  0
LINE
  5
2B7
330
2B0
100
AcDbEntity
  8
치수문자_일반주서
 62
     0
370
    -2
100
AcDbLine
 10
-50.04200038571064
 20
80.38939697724499
 30
0.0
 11
-50.04200038571063
 21
77.08739697724499
 31
0.0
  0
SOLID
  5
2B8
330
2B0
100
AcDbEntity
  8
치수문자_일반주서
 62
     0
100
AcDbTrace
 10
-50.59233371904406
 20
100.993396977245
 30
0.0
 11
-49.49166705237739
 21
100.993396977245
 31
0.0
 12
-50.04200038571071
 22
97.69139697724499
 32
0.0
 13
-50.04200038571071
 23
97.69139697724499
 33
0.0
  0
SOLID
  5
2B9
330
2B0
100
AcDbEntity
  8
치수문자_일반주서
 62
     0
100
AcDbTrace
 10
-49.49166705237731
 20
80.38939697724499
 30
0.0
 11
-50.59233371904398
 21
80.38939697724499
 31
0.0
 12
-50.04200038571066
 22
83.69139697724499
 32
0.0
 13
-50.04200038571066
 23
83.69139697724499
 33
0.0
  0
MTEXT
  5
2BA
330
2B0
100
AcDbEntity
  8
치수문자_일반주서
 62
     0
100
AcDbMText
 10
-54.41700038571069
 20
90.69139697724503
 30
0.0
 40
3.5
 41
0.0
 71
     2
 72
     1
  1
\A1;%%c14.00 [0.55]
  7
SLDTEXTSTYLE0
 11
-3.552713678800501E-15
 21
1.0
 31
0.0
 73
     1
 44
1.0
  0
POINT
  5
2BB
330
2B0
100
AcDbEntity
  8
Defpoints
 62
     0
100
AcDbPoint
 10
-34.54200038571064
 20
97.69139697724505
 30
0.0
  0
POINT
  5
2BC
330
2B0
100
AcDbEntity
  8
Defpoints
 62
     0
100
AcDbPoint
 10
-34.54200038571064
 20
83.69139697724505
 30
0.0
  0
POINT
  5
2BD
330
2B0
100
AcDbEntity
  8
Defpoints
 62
     0
100
AcDbPoint
 10
-50.04200038571067
 20
83.69139697724499
 30
0.0
  0
ENDBLK
  5
2B2
330
2B0
100
AcDbEntity
  8
0
100
AcDbBlockEnd
  0
BLOCK
  5
2BF
330
2BE
100
AcDbEntity
  8
0
100
AcDbBlockBegin
  2
*D16
 70
     1
 10
0.0
 20
0.0
 30
0.0
  3
*D16
  1
*D16
  0
LINE
  5
2C1
330
2BE
100
AcDbEntity
  8
치수문자_일반주서
 62
     0
370
    -2
100
AcDbLine
 10
48.02049961428938
 20
97.69139697724505
 30
0.0
 11
62.95799961428937
 21
97.6913969772451
 31
0.0
  0
LINE
  5
2C2
330
2BE
100
AcDbEntity
  8
치수문자_일반주서
 62
     0
370
    -2
100
AcDbLine
 10
48.02049961428936
 20
83.69139697724505
 30
0.0
 11
62.95799961428942
 21
83.6913969772451
 31
0.0
  0
LINE
  5
2C3
330
2BE
100
AcDbEntity
  8
치수문자_일반주서
 62
     0
370
    -2
100
AcDbLine
 10
62.95799961428937
 20
97.6913969772451
 30
0.0
 11
62.95799961428942
 21
83.6913969772451
 31
0.0
  0
LINE
  5
2C4
330
2BE
100
AcDbEntity
  8
치수문자_일반주서
 62
     0
370
    -2
100
AcDbLine
 10
62.95799961428936
 20
100.9933969772451
 30
0.0
 11
62.95799961428934
 21
104.2953969772451
 31
0.0
  0
LINE
  5
2C5
330
2BE
100
AcDbEntity
  8
치수문자_일반주서
 62
     0
370
    -2
100
AcDbLine
 10
62.95799961428943
 20
80.3893969772451
 30
0.0
 11
62.95799961428945
 21
77.0873969772451
 31
0.0
  0
SOLID
  5
2C6
330
2BE
100
AcDbEntity
  8
치수문자_일반주서
 62
     0
100
AcDbTrace
 10
62.40766628095602
 20
100.9933969772451
 30
0.0
 11
63.50833294762269
 21
100.9933969772451
 31
0.0
 12
62.95799961428937
 22
97.6913969772451
 32
0.0
 13
62.95799961428937
 23
97.6913969772451
 33
0.0
  0
SOLID
  5
2C7
330
2BE
100
AcDbEntity
  8
치수문자_일반주서
 62
     0
100
AcDbTrace
 10
63.50833294762277
 20
80.3893969772451
 30
0.0
 11
62.4076662809561
 21
80.3893969772451
 31
0.0
 12
62.95799961428942
 22
83.6913969772451
 32
0.0
 13
62.95799961428942
 23
83.6913969772451
 33
0.0
  0
MTEXT
  5
2C8
330
2BE
100
AcDbEntity
  8
치수문자_일반주서
 62
     0
100
AcDbMText
 10
58.58299961428939
 20
90.75710135895808
 30
0.0
 40
3.5
 41
0.0
 71
     2
 72
     1
  1
\A1;%%c14.00 [0.55]
  7
SLDTEXTSTYLE0
 11
-3.552713678800501E-15
 21
1.0
 31
0.0
 73
     1
 44
1.0
  0
POINT
  5
2C9
330
2BE
100
AcDbEntity
  8
Defpoints
 62
     0
100
AcDbPoint
 10
47.95799961428938
 20
97.69139697724505
 30
0.0
  0
POINT
  5
2CA
330
2BE
100
AcDbEntity
  8
Defpoints
 62
     0
100
AcDbPoint
 10
47.95799961428936
 20
83.69139697724505
 30
0.0
  0
POINT
  5
2CB
330
2BE
100
AcDbEntity
  8
Defpoints
 62
     0
100
AcDbPoint
 10
62.95799961428942
 20
83.6913969772451
 30
0.0
  0
ENDBLK
  5
2C0
330
2BE
100
AcDbEntity
  8
0
100
AcDbBlockEnd
  0
BLOCK
  5
2CD
330
2CC
100
AcDbEntity
  8
0
100
AcDbBlockBegin
  2
*D17
 70
     1
 10
0.0
 20
0.0
 30
0.0
  3
*D17
  1
*D17
  0
LINE
  5
2CF
330
2CC
100
AcDbEntity
  8
치수문자_일반주서
 62
     0
370
    -2
100
AcDbLine
 10
49.44877479595881
 20
80.95225848436627
 30
0.0
 11
65.2024263612361
 21
55.31990197402571
 31
0.0
  0
MTEXT
  5
2D0
330
2CC
100
AcDbEntity
  8
치수문자_일반주서
 62
     0
100
AcDbMText
 10
61.25363801571699
 20
66.75812088486548
 30
0.0
 40
3.5
 41
0.0
 71
     5
 72
     1
  1
\A1;R.5 [R0.02]
  7
SLDTEXTSTYLE0
 11
0.5236126201129557
 21
-0.8519564684057781
 31
0.0
 73
     1
 44
1.0
  0
SOLID
  5
2D1
330
2CC
100
AcDbEntity
  8
치수문자_일반주서
 62
     0
100
AcDbTrace
 10
49.91763483907146
 20
81.24041996296843
 30
0.0
 11
48.97991475284616
 21
80.6640970057641
 31
0.0
 12
47.71980592434583
 22
83.76541874304215
 32
0.0
 13
47.71980592434583
 23
83.76541874304215
 33
0.0
  0
LINE
  5
2D2
330
2CC
100
AcDbEntity
  8
치수문자_일반주서
 62
     0
100
AcDbLine
 10
47.36799961428935
 20
84.19139697724505
 30
0.0
 11
47.54799961428935
 21
84.19139697724505
 31
0.0
  0
LINE
  5
2D3
330
2CC
100
AcDbEntity
  8
치수문자_일반주서
 62
     0
100
AcDbLine
 10
47.45799961428935
 20
84.10139697724505
 30
0.0
 11
47.45799961428935
 21
84.28139697724505
 31
0.0
  0
POINT
  5
2D4
330
2CC
100
AcDbEntity
  8
Defpoints
 62
     0
100
AcDbPoint
 10
47.71980592434583
 20
83.76541874304215
 30
0.0
  0
POINT
  5
2D5
330
2CC
100
AcDbEntity
  8
Defpoints
 62
     0
100
AcDbPoint
 10
47.45799961428935
 20
84.19139697724505
 30
0.0
  0
ENDBLK
  5
2CE
330
2CC
100
AcDbEntity
  8
0
100
AcDbBlockEnd
  0
ENDSEC
  0
SECTION
  2
ENTITIES
  0
LINE
  5
96
330
1F
100
AcDbEntity
  8
외형선
  6
Continuous
370
    15
100
AcDbLine
 10
10.0
 20
3.968749999999997
 30
0.0
 11
-49.515
 21
3.968749999999994
 31
0.0
  0
LINE
  5
97
330
1F
100
AcDbEntity
  8
외형선
  6
Continuous
370
    15
100
AcDbLine
 10
-49.515
 20
-3.968750000000006
 30
0.0
 11
10.0
 21
-3.968750000000003
 31
0.0
  0
LINE
  5
98
330
1F
100
AcDbEntity
  8
외형선
  6
Continuous
370
    15
100
AcDbLine
 10
-49.515
 20
3.96874999999999
 30
0.0
 11
-50.325
 21
3.15874999999999
 31
0.0
  0
LINE
  5
99
330
1F
100
AcDbEntity
  8
외형선
  6
Continuous
370
    15
100
AcDbLine
 10
-50.325
 20
-3.158750000000003
 30
0.0
 11
-49.515
 21
-3.968750000000003
 31
0.0
  0
LINE
  5
9A
330
1F
100
AcDbEntity
  8
0
  6
Continuous
 62
     1
370
    15
100
AcDbLine
 10
39.92921335864344
 20
1.548201358957851
 30
0.0
 11
39.89091622635975
 21
1.567859061147181
 31
0.0
  0
SPLINE
  5
9B
330
1F
100
AcDbEntity
  8
0
  6
Continuous
 62
     1
370
    15
100
AcDbSpline
210
0.0
220
0.0
230
1.0
 70
     8
 71
     3
 72
     9
 73
     5
 74
     0
 42
0.000000001
 43
0.00000001
 40
0.0
 40
0.0
 40
0.0
 40
0.0
 40
0.4526457601933551
 40
1.0
 40
1.0
 40
1.0
 40
1.0
 10
40.99363663309283
 20
1.016982035648651
 30
0.0
 10
40.83303637004667
 20
1.093227117165079
 30
0.0
 10
40.47823295163498
 20
1.261670275638184
 30
0.0
 10
40.1234211193682
 20
1.446845121803643
 30
0.0
 10
39.92921335864344
 20
1.548201358957851
 30
0.0
  0
LINE
  5
9C
330
1F
100
AcDbEntity
  8
0
  6
Continuous
 62
     1
370
    15
100
AcDbLine
 10
18.33465242415873
 20
1.547688731856006
 30
0.0
 11
18.2957066696421
 21
1.567678976755665
 31
0.0
  0
SPLINE
  5
9D
330
1F
100
AcDbEntity
  8
0
  6
Continuous
 62
     1
370
    15
100
AcDbSpline
210
0.0
220
0.0
230
1.0
 70
     8
 71
     3
 72
     9
 73
     5
 74
     0
 42
0.000000001
 43
0.00000001
 40
0.0
 40
0.0
 40
0.0
 40
0.0
 40
0.4532034147591072
 40
1.0
 40
1.0
 40
1.0
 40
1.0
 10
19.39848102052802
 20
1.01679804051469
 30
0.0
 10
19.23774614734229
 20
1.09310400317723
 30
0.0
 10
18.88308228570486
 20
1.261474232035942
 30
0.0
 10
18.52852379573979
 20
1.44651116743588
 30
0.0
 10
18.33465242415873
 20
1.547688731856006
 30
0.0
  0
LINE
  5
9E
330
1F
100
AcDbEntity
  8
0
  6
Continuous
 62
     1
370
    15
100
AcDbLine
 10
10.0
 20
-3.968750000000006
 30
0.0
 11
10.28875006929466
 21
-3.968750000000006
 31
0.0
  0
LINE
  5
9F
330
1F
100
AcDbEntity
  8
0
  6
Continuous
 62
     1
370
    15
100
AcDbLine
 10
31.884973469694
 20
3.96875
 30
0.0
 11
29.96204157075056
 21
3.96875
 31
0.0
  0
LINE
  5
A0
330
1F
100
AcDbEntity
  8
0
  6
Continuous
 62
     1
370
    15
100
AcDbLine
 10
29.96204157075059
 20
-3.968750000000006
 30
0.0
 11
31.88497346969399
 21
-3.968750000000006
 31
0.0
  0
LINE
  5
A1
330
1F
100
AcDbEntity
  8
0
  6
Continuous
 62
     1
370
    15
100
AcDbLine
 10
10.28875006929466
 20
3.96875
 30
0.0
 11
10.0
 21
3.96875
 31
0.0
  0
SPLINE
  5
A2
330
1F
100
AcDbEntity
  8
0
  6
Continuous
 62
     1
370
    15
100
AcDbSpline
210
0.0
220
0.0
230
1.0
 70
     8
 71
     3
 72
    20
 73
    16
 74
     0
 42
0.000000001
 43
0.00000001
 40
0.0
 40
0.0
 40
0.0
 40
0.0
 40
0.1199006125861043
 40
0.2038999767102037
 40
0.2632544659983555
 40
0.31651134079695
 40
0.3723831663043161
 40
0.4315523611128205
 40
0.4938485115874236
 40
0.6114463497326889
 40
0.7273896911673393
 40
0.7703682851721371
 40
0.8217432285935019
 40
0.8984042812899239
 40
1.0
 40
1.0
 40
1.0
 40
1.0
 10
33.7113929595629
 20
-3.302566406513716
 30
0.0
 10
33.95031441918715
 20
-3.279799834821395
 30
0.0
 10
34.35661826536619
 20
-3.241083573597113
 30
0.0
 10
34.87984462688512
 20
-3.200740133420316
 30
0.0
 10
35.27097551699514
 20
-3.174564215260046
 30
0.0
 10
35.60626653629951
 20
-3.155040345019109
 30
0.0
 10
35.94117780884956
 20
-3.138294697834725
 30
0.0
 10
36.29395785371844
 20
-3.123729621853759
 30
0.0
 10
36.76956672186905
 20
-3.108639912468956
 30
0.0
 10
37.3582084705137
 20
-3.09844291370767
 30
0.0
 10
37.90921787223819
 20
-3.099161933582224
 30
0.0
 10
38.32460345814242
 20
-3.104947264303805
 30
0.0
 10
38.6631354536021
 20
-3.112201225700972
 30
0.0
 10
39.12121914987837
 20
-3.126249012491765
 30
0.0
 10
39.47764614578573
 20
-3.143748377411947
 30
0.0
 10
39.68078825663605
 20
-3.153721970796411
 30
0.0
  0
SPLINE
  5
A3
330
1F
100
AcDbEntity
  8
0
  6
Continuous
 62
     1
370
    15
100
AcDbSpline
210
0.0
220
0.0
230
1.0
 70
     8
 71
     3
 72
    15
 73
    11
 74
     0
 42
0.000000001
 43
0.00000001
 40
0.0
 40
0.0
 40
0.0
 40
0.0
 40
0.199723558296578
 40
0.3407828668634719
 40
0.4620464529060756
 40
0.5808537568801228
 40
0.6943824361211612
 40
0.812200642484781
 40
0.9120457675062618
 40
1.0
 40
1.0
 40
1.0
 40
1.0
 10
18.08521916197772
 20
3.153720876307602
 30
0.0
 10
17.87006517064887
 20
3.143215234763379
 30
0.0
 10
17.50295377624199
 20
3.125289744780049
 30
0.0
 10
17.00246228272773
 20
3.11043721251801
 30
0.0
 10
16.58946239782207
 20
3.102396925533188
 30
0.0
 10
16.2076628928201
 20
3.099029285361553
 30
0.0
 10
15.82920823877886
 20
3.099487239259801
 30
0.0
 10
15.47124583088018
 20
3.103603736514159
 30
0.0
 10
15.14092043543723
 20
3.110171631046424
 30
0.0
 10
14.93802558381638
 20
3.116562451986959
 30
0.0
 10
14.84300150499441
 20
3.119555538642137
 30
0.0
  0
SPLINE
  5
A4
330
1F
100
AcDbEntity
  8
0
  6
Continuous
 62
     1
370
    15
100
AcDbSpline
210
0.0
220
0.0
230
1.0
 70
     8
 71
     3
 72
    21
 73
    17
 74
     0
 42
0.000000001
 43
0.00000001
 40
0.0
 40
0.0
 40
0.0
 40
0.0
 40
0.109238173102022
 40
0.185317889291678
 40
0.2437601643682125
 40
0.3057499813397476
 40
0.36885852825982
 40
0.4312011098484022
 40
0.4901448450587893
 40
0.5470589144202076
 40
0.6053891321312722
 40
0.664291266250046
 40
0.7206730434614663
 40
0.7798292191086679
 40
0.8716774543328444
 40
1.0
 40
1.0
 40
1.0
 40
1.0
 10
12.11610849937196
 20
-3.302540025340997
 30
0.0
 10
12.33405772826918
 20
-3.281688130952545
 30
0.0
 10
12.70379927488272
 20
-3.246313783816658
 30
0.0
 10
13.18826889148948
 20
-3.207926669998119
 30
0.0
 10
13.57811212813155
 20
-3.180706139324257
 30
0.0
 10
13.94338558768696
 20
-3.158600302010474
 30
0.0
 10
14.3163966470564
 20
-3.139543642295569
 30
0.0
 10
14.68324500881921
 20
-3.124289877041083
 30
0.0
 10
15.03764532984665
 20
-3.112922807404983
 30
0.0
 10
15.38424908104545
 20
-3.105047087033399
 30
0.0
 10
15.73075342786369
 20
-3.100336040085047
 30
0.0
 10
16.07621887777537
 20
-3.098861452757237
 30
0.0
 10
16.42312988682514
 20
-3.100563435805769
 30
0.0
 10
16.83558698740817
 20
-3.106524929086142
 30
0.0
 10
17.391079597237
 20
-3.120481232724278
 30
0.0
 10
17.82962242824551
 20
-3.141481342989125
 30
0.0
 10
18.08521916197772
 20
-3.153720876307608
 30
0.0
  0
SPLINE
  5
A5
330
1F
100
AcDbEntity
  8
0
  6
Continuous
 62
     1
370
    15
100
AcDbSpline
210
0.0
220
0.0
230
1.0
 70
     8
 71
     3
 72
    13
 73
     9
 74
     0
 42
0.000000001
 43
0.00000001
 40
0.0
 40
0.0
 40
0.0
 40
0.0
 40
0.2288826625707787
 40
0.3831763142608023
 40
0.4845630023850372
 40
0.588461649335741
 40
0.9266401335538816
 40
1.0
 40
1.0
 40
1.0
 40
1.0
 10
39.68078825663605
 20
3.153721970796405
 30
0.0
 10
39.43081156464403
 20
3.141695698490181
 30
0.0
 10
39.01232138101561
 20
3.121562313790628
 30
0.0
 10
38.48508863644308
 20
3.10777879460942
 30
0.0
 10
38.0979772907459
 20
3.10142882181334
 30
0.0
 10
37.50826936826358
 20
3.097394316752367
 30
0.0
 10
36.94726899962284
 20
3.101827064357701
 30
0.0
 10
36.50010790718169
 20
3.118167518524366
 30
0.0
 10
36.42039801387907
 20
3.121080329768811
 30
0.0
  0
SPLINE
  5
A6
330
1F
100
AcDbEntity
  8
0
  6
Continuous
 62
     1
370
    15
100
AcDbSpline
210
0.0
220
0.0
230
1.0
 70
     8
 71
     3
 72
    15
 73
    11
 74
     0
 42
0.000000001
 43
0.00000001
 40
0.0
 40
0.0
 40
0.0
 40
0.0
 40
0.2109965907636504
 40
0.3681921455358395
 40
0.4713597415382963
 40
0.5567379748046356
 40
0.6415337458382809
 40
0.7271627327255604
 40
0.9378922921816917
 40
1.0
 40
1.0
 40
1.0
 40
1.0
 10
42.86759590995479
 20
-2.985028850726213
 30
0.0
 10
43.07648520454352
 20
-2.953142739644938
 30
0.0
 10
43.44100008734672
 20
-2.897501008139617
 30
0.0
 10
43.90649167524853
 20
-2.837100865161819
 30
0.0
 10
44.24503925806806
 20
-2.796942526847796
 30
0.0
 10
44.51228376124452
 20
-2.767685105450885
 30
0.0
 10
44.76365644158632
 20
-2.742083667372466
 30
0.0
 10
45.13933844541371
 20
-2.70772046999148
 30
0.0
 10
45.49256009591188
 20
-2.678206319676516
 30
0.0
 10
45.76122790032591
 20
-2.664710291055668
 30
0.0
 10
45.82238648640698
 20
-2.661638102968371
 30
0.0
  0
SPLINE
  5
A7
330
1F
100
AcDbEntity
  8
0
  6
Continuous
 62
     1
370
    15
100
AcDbSpline
210
0.0
220
0.0
230
1.0
 70
     8
 71
     3
 72
    23
 73
    19
 74
     0
 42
0.000000001
 43
0.00000001
 40
0.0
 40
0.0
 40
0.0
 40
0.0
 40
0.1000737331522
 40
0.1728953175393569
 40
0.2183676404485956
 40
0.2557785713414421
 40
0.2942793593824484
 40
0.3331939952889978
 40
0.421348434013215
 40
0.5206659651406076
 40
0.5808706452404773
 40
0.641859517843551
 40
0.7018048173796112
 40
0.7597823047253623
 40
0.8133054887817069
 40
0.8607956052113951
 40
0.9190681575313049
 40
1.0
 40
1.0
 40
1.0
 40
1.0
 10
28.20393173789423
 20
2.71442372029804
 30
0.0
 10
27.97107160010958
 20
2.695931339756488
 30
0.0
 10
27.56876395956912
 20
2.663982436631954
 30
0.0
 10
27.06236074744147
 20
2.638330365121198
 30
0.0
 10
26.70563344666486
 20
2.625085388702666
 30
0.0
 10
26.42815995179217
 20
2.61770445999844
 30
0.0
 10
26.16359209805647
 20
2.613184349902741
 30
0.0
 10
25.78071555403969
 20
2.61051728115446
 30
0.0
 10
25.25743457795029
 20
2.615374568061224
 30
0.0
 10
24.68536908457267
 20
2.63451153180391
 30
0.0
 10
24.17597185104642
 20
2.661863529396042
 30
0.0
 10
23.75758027674431
 20
2.690540657815872
 30
0.0
 10
23.34289836342188
 20
2.725097349474596
 30
0.0
 10
22.94354187519589
 20
2.764325733104483
 30
0.0
 10
22.57345842381981
 20
2.805368705798315
 30
0.0
 10
22.20307072046295
 20
2.850679960963491
 30
0.0
 10
21.77426969838622
 20
2.907972939738377
 30
0.0
 10
21.45677940667472
 20
2.956685009729035
 30
0.0
 10
21.27219418353464
 20
2.98500564989844
 30
0.0
  0
SPLINE
  5
A8
330
1F
100
AcDbEntity
  8
0
  6
Continuous
 62
     1
370
    15
100
AcDbSpline
210
0.0
220
0.0
230
1.0
 70
     8
 71
     3
 72
    14
 73
    10
 74
     0
 42
0.000000001
 43
0.00000001
 40
0.0
 40
0.0
 40
0.0
 40
0.0
 40
0.2124535465347948
 40
0.356652610483115
 40
0.4894941372204646
 40
0.6399069210455226
 40
0.7986446182711978
 40
0.9617890163757827
 40
0.9999999999999999
 40
0.9999999999999999
 40
0.9999999999999999
 40
0.9999999999999999
 10
21.27219418353464
 20
-2.985005649898445
 30
0.0
 10
21.47887565166968
 20
-2.953403401123947
 30
0.0
 10
21.82583848825747
 20
-2.900351688378282
 30
0.0
 10
22.30730558651711
 20
-2.837301698976102
 30
0.0
 10
22.73176796381889
 20
-2.787081190615122
 30
0.0
 10
23.17140481448946
 20
-2.740841487957017
 30
0.0
 10
23.63946160599235
 20
-2.69985402167206
 30
0.0
 10
23.99448083571379
 20
-2.672924154779233
 30
0.0
 10
24.19298192689692
 20
-2.66235422612962
 30
0.0
 10
24.23065125502446
 20
-2.660348382694637
 30
0.0
  0
SPLINE
  5
A9
330
1F
100
AcDbEntity
  8
0
  6
Continuous
 62
     1
370
    15
100
AcDbSpline
210
0.0
220
0.0
230
1.0
 70
     8
 71
     3
 72
    21
 73
    17
 74
     0
 42
0.000000001
 43
0.00000001
 40
0.0
 40
0.0
 40
0.0
 40
0.0
 40
0.0866130018046825
 40
0.1479302727490114
 40
0.189680116611187
 40
0.231867830356592
 40
0.2761522869171288
 40
0.3800212321961303
 40
0.4962185193509208
 40
0.5868861375311234
 40
0.6644790776549753
 40
0.7376997963990267
 40
0.7802495219004644
 40
0.8253789840343287
 40
0.8967151001968945
 40
1.0
 40
1.0
 40
1.0
 40
1.0
 10
49.8258947554272
 20
2.716680597706978
 30
0.0
 10
49.62469758553445
 20
2.70033379673145
 30
0.0
 10
49.28106381694994
 20
2.672414354193981
 30
0.0
 10
48.84064793151859
 20
2.647456814319047
 30
0.0
 10
48.50207905079546
 20
2.632251194811703
 30
0.0
 10
48.20408903243917
 20
2.62211951496036
 30
0.0
 10
47.76304046596536
 20
2.611935981055069
 30
0.0
 10
47.15017763236133
 20
2.609618322275747
 30
0.0
 10
46.42991563347194
 20
2.627215454126432
 30
0.0
 10
45.77080881870127
 20
2.660936153687555
 30
0.0
 10
45.21094023130486
 20
2.701092329645847
 30
0.0
 10
44.76212454209296
 20
2.741694607566942
 30
0.0
 10
44.39058343536782
 20
2.780602721857229
 30
0.0
 10
44.02539889818507
 20
2.822381769567354
 30
0.0
 10
43.51507223133076
 20
2.88672881511951
 30
0.0
 10
43.1082332018714
 20
2.948495229985558
 30
0.0
 10
42.86759590995477
 20
2.985028850726207
 30
0.0
  0
SPLINE
  5
AA
330
1F
100
AcDbEntity
  8
외형선
  6
Continuous
370
    15
100
AcDbSpline
210
0.0
220
0.0
230
1.0
 70
     8
 71
     3
 72
    10
 73
     6
 74
     0
 42
0.000000001
 43
0.00000001
 40
0.0
 40
0.0
 40
0.0
 40
0.0
 40
0.5
 40
0.5
 40
1.0
 40
1.0
 40
1.0
 40
1.0
 10
10.00000000001212
 20
-3.96523566598831
 30
0.0
 10
9.747044539173034
 20
-3.959084455658206
 30
0.0
 10
9.495879156078487
 20
-3.944899822759871
 30
0.0
 10
8.98816621815871
 20
-3.900412494221065
 30
0.0
 10
8.733307191588917
 20
-3.870111603105193
 30
0.0
 10
8.479779086845856
 20
-3.832041150156757
 30
0.0
  0
LINE
  5
AB
330
1F
100
AcDbEntity
  8
외형선
  6
Continuous
370
    15
100
AcDbLine
 10
10.0
 20
-3.96523566598801
 30
0.0
 11
10.0
 21
-3.968750000000003
 31
0.0
  0
LINE
  5
AC
330
1F
100
AcDbEntity
  8
외형선
  6
Continuous
370
    15
100
AcDbLine
 10
10.0
 20
3.968749999999997
 30
0.0
 11
10.0
 21
3.857127586688437
 31
0.0
  0
SPLINE
  5
AD
330
1F
100
AcDbEntity
  8
외형선
  6
Continuous
370
    15
100
AcDbSpline
210
0.0
220
0.0
230
1.0
 70
     8
 71
     3
 72
    10
 73
     6
 74
     0
 42
0.000000001
 43
0.00000001
 40
0.0
 40
0.0
 40
0.0
 40
0.0
 40
0.5
 40
0.5
 40
1.0
 40
1.0
 40
1.0
 40
1.0
 10
8.479892097320619
 20
3.968203129193164
 30
0.0
 10
8.733401761820433
 20
3.96577451996225
 30
0.0
 10
8.988241804888004
 20
3.955228517760018
 30
0.0
 10
9.495916726059257
 20
3.918074041254136
 30
0.0
 10
9.747063331684696
 20
3.891554914673586
 30
0.0
 10
10.00000000000001
 20
3.857127586688598
 30
0.0
  0
LINE
  5
AE
330
1F
100
AcDbEntity
  8
외형선
  6
Continuous
370
    15
100
AcDbLine
 10
8.479892097320583
 20
-3.831996888686855
 30
0.0
 11
8.479892097320619
 21
3.968203059813666
 31
0.0
  0
LINE
  5
AF
330
1F
100
AcDbEntity
  8
외형선
  6
Continuous
370
    15
100
AcDbLine
 10
-49.515
 20
3.96874999999999
 30
0.0
 11
-49.515
 21
-3.968750000000006
 31
0.0
  0
LINE
  5
B0
330
1F
100
AcDbEntity
  8
외형선
  6
Continuous
370
    15
100
AcDbLine
 10
-50.325
 20
3.15874999999999
 30
0.0
 11
-50.325
 21
-3.158750000000005
 31
0.0
  0
SPLINE
  5
B1
330
1F
100
AcDbEntity
  8
외형선
  6
Continuous
370
    15
100
AcDbSpline
210
0.0
220
0.0
230
1.0
 70
     8
 71
     3
 72
    14
 73
    10
 74
     0
 42
0.000000001
 43
0.00000001
 40
0.0
 40
0.0
 40
0.0
 40
0.0
 40
0.25
 40
0.25
 40
0.5
 40
0.5
 40
0.75
 40
0.75
 40
1.0
 40
1.0
 40
1.0
 40
1.0
 10
8.754982486989611
 20
-0.7240768005807501
 30
0.0
 10
8.725972291147322
 20
-0.7619447674717713
 30
0.0
 10
8.695523149045309
 20
-0.7963617073922791
 30
0.0
 10
8.629081225560139
 20
-0.8511370864004548
 30
0.0
 10
8.591964094668272
 20
-0.8714906044729851
 30
0.0
 10
8.527342810762983
 20
-0.8619525789368349
 30
0.0
 10
8.505500934542408
 20
-0.8298364668229461
 30
0.0
 10
8.48304891025137
 20
-0.7506415449612817
 30
0.0
 10
8.479892097320525
 20
-0.7030354495753558
 30
0.0
 10
8.479892097320525
 20
-0.6564549425870054
 30
0.0
  0
SPLINE
  5
B2
330
1F
100
AcDbEntity
  8
외형선
  6
Continuous
370
    15
100
AcDbSpline
210
0.0
220
0.0
230
1.0
 70
     8
 71
     3
 72
    18
 73
    14
 74
     0
 42
0.000000001
 43
0.00000001
 40
0.0
 40
0.0
 40
0.0
 40
0.0
 40
0.0159659069804676
 40
0.044721417465248
 40
0.0869972169557562
 40
0.1429809336811944
 40
0.2500866351603331
 40
0.5000720929498174
 40
0.7500723695908352
 40
0.8501047674910349
 40
0.9243239324137675
 40
0.9739012519930508
 40
1.0
 40
1.0
 40
1.0
 40
1.0
 10
8.929728081509351
 20
-3.261609158895478
 30
0.0
 10
8.926486994368688
 20
-3.262311494463827
 30
0.0
 10
8.917408524148597
 20
-3.264278776509958
 30
0.0
 10
8.90204278936147
 20
-3.275256812011492
 30
0.0
 10
8.880274758338984
 20
-3.291124597169008
 30
0.0
 10
8.84636744774233
 20
-3.319449722704659
 30
0.0
 10
8.7800314841783
 20
-3.378640953539355
 30
0.0
 10
8.686272022648845
 20
-3.470901871303104
 30
0.0
 10
8.597378220381568
 20
-3.56646406604026
 30
0.0
 10
8.536969000214606
 20
-3.637222308113501
 30
0.0
 10
8.507428437525963
 20
-3.67640067881949
 30
0.0
 10
8.487090457757597
 20
-3.703149788749358
 30
0.0
 10
8.481738935295862
 20
-3.719473731498525
 30
0.0
 10
8.47989333151864
 20
-3.725103443531393
 30
0.0
  0
SPLINE
  5
B3
330
1F
100
AcDbEntity
  8
외형선
  6
Continuous
370
    15
100
AcDbSpline
210
0.0
220
0.0
230
1.0
 70
     8
 71
     3
 72
    16
 73
    12
 74
     0
 42
0.000000001
 43
0.00000001
 40
0.0
 40
0.0
 40
0.0
 40
0.0
 40
0.2486337389722594
 40
0.4385856850375021
 40
0.5970536412583971
 40
0.7197954675138614
 40
0.8157595496801789
 40
0.8912355888306335
 40
0.9464343763498879
 40
0.9818991427854377
 40
1.0
 40
1.0
 40
1.0
 40
1.0
 10
8.754978555620053
 20
-0.7240736285711978
 30
0.0
 10
8.774624749559095
 20
-0.6984092930251226
 30
0.0
 10
8.809280301387073
 20
-0.6531378418011854
 30
0.0
 10
8.85675529222917
 20
-0.5911538615323905
 30
0.0
 10
8.894608503907548
 20
-0.5423176097309066
 30
0.0
 10
8.925372236252732
 20
-0.5033557411596555
 30
0.0
 10
8.950130758435474
 20
-0.4736121457404192
 30
0.0
 10
8.96995167211853
 20
-0.450919078560739
 30
0.0
 10
8.985745529081868
 20
-0.4361967356232501
 30
0.0
 10
8.99669260883361
 20
-0.4256494492086156
 30
0.0
 10
9.004022330430002
 20
-0.4249760599577524
 30
0.0
 10
9.006499184707021
 20
-0.4247485087439494
 30
0.0
  0
SPLINE
  5
B4
330
1F
100
AcDbEntity
  8
외형선
  6
Continuous
370
    15
100
AcDbSpline
210
0.0
220
0.0
230
1.0
 70
     8
 71
     3
 72
    14
 73
    10
 74
     0
 42
0.000000001
 43
0.00000001
 40
0.0
 40
0.0
 40
0.0
 40
0.0
 40
0.2500000000000001
 40
0.2500000000000001
 40
0.5
 40
0.5
 40
0.75
 40
0.75
 40
1.0
 40
1.0
 40
1.0
 40
1.0
 10
8.479892097320747
 20
3.231815640104291
 30
0.0
 10
8.479892097320642
 20
3.171062717202214
 30
0.0
 10
8.491979578020883
 20
3.113706319124495
 30
0.0
 10
8.530716041242991
 20
3.008007617083432
 30
0.0
 10
8.557155340963334
 20
2.960324639946515
 30
0.0
 10
8.622519146381643
 20
2.875377537362847
 30
0.0
 10
8.660317146542726
 20
2.839229964022051
 30
0.0
 10
8.750935960283103
 20
2.782500020639069
 30
0.0
 10
8.80272317083731
 20
2.763033108910116
 30
0.0
 10
8.859823960053122
 20
2.760439584368992
 30
0.0
  0
SPLINE
  5
B5
330
1F
100
AcDbEntity
  8
외형선
  6
Continuous
370
    15
100
AcDbSpline
210
0.0
220
0.0
230
1.0
 70
     8
 71
     3
 72
    10
 73
     6
 74
     0
 42
0.000000001
 43
0.00000001
 40
0.0
 40
0.0
 40
0.0
 40
0.0
 40
0.5
 40
0.5
 40
1.0
 40
1.0
 40
1.0
 40
1.0
 10
10.0
 20
2.670814316978673
 30
0.0
 10
9.810125290697073
 20
2.691958644699161
 30
0.0
 10
9.62178366200715
 20
2.709992921853711
 30
0.0
 10
9.24164844828757
 20
2.739917536591694
 30
0.0
 10
9.050689441598882
 20
2.751770451818626
 30
0.0
 10
8.859823960053122
 20
2.760439584368991
 30
0.0
  0
SPLINE
  5
B6
330
1F
100
AcDbEntity
  8
외형선
  6
Continuous
370
    15
100
AcDbSpline
210
0.0
220
0.0
230
1.0
 70
     8
 71
     3
 72
     8
 73
     4
 74
     0
 42
0.000000001
 43
0.00000001
 40
0.0
 40
0.0
 40
0.0
 40
0.0
 40
1.0
 40
1.0
 40
1.0
 40
1.0
 10
10.00000000000002
 20
-0.8739154396840636
 30
0.0
 10
9.668887725025359
 20
-0.7267315696627695
 30
0.0
 10
9.339309976086676
 20
-0.5767298534814703
 30
0.0
 10
9.006498727096238
 20
-0.4247495517912013
 30
0.0
  0
SPLINE
  5
B7
330
1F
100
AcDbEntity
  8
외형선
  6
Continuous
370
    15
100
AcDbSpline
210
0.0
220
0.0
230
1.0
 70
    24
 71
     3
 72
    14
 73
    10
 74
     0
 42
0.000000001
 43
0.00000001
 40
0.0
 40
0.0
 40
0.0
 40
0.0
 40
0.25
 40
0.25
 40
0.5
 40
0.5
 40
0.75
 40
0.75
 40
1.0
 40
1.0
 40
1.0
 40
1.0
 10
9.999999999999991
 20
2.670814316978674
 30
0.0
 10
9.999999999999991
 20
2.504307078868214
 30
0.0
 10
9.999999999999988
 20
2.294498656627862
 30
0.0
 10
9.999999999999988
 20
1.796368962557124
 30
0.0
 10
9.999999999999988
 20
1.508137178312533
 30
0.0
 10
9.999999999999988
 20
0.8781365020597267
 30
0.0
 10
9.999999999999988
 20
0.5367033007510269
 30
0.0
 10
9.999999999999988
 20
-0.1641409820555987
 30
0.0
 10
9.999999999999991
 20
-0.523177852389875
 30
0.0
 10
9.999999999999991
 20
-0.8739154396840492
 30
0.0
  0
SPLINE
  5
B8
330
1F
100
AcDbEntity
  8
외형선
  6
Continuous
370
    15
100
AcDbSpline
210
0.0
220
0.0
230
1.0
 70
     8
 71
     3
 72
     8
 73
     4
 74
     0
 42
0.000000001
 43
0.00000001
 40
0.0
 40
0.0
 40
0.0
 40
0.0
 40
1.0
 40
1.0
 40
1.0
 40
1.0
 10
10.00000000001354
 20
-3.355768185135265
 30
0.0
 10
9.643429923028114
 20
-3.337862706054783
 30
0.0
 10
9.288173542325604
 20
-3.3064166477251
 30
0.0
 10
8.929727258191237
 20
-3.261609055976587
 30
0.0
  0
SPLINE
  5
B9
330
1F
100
AcDbEntity
  8
외형선
  6
Continuous
370
    15
100
AcDbSpline
210
0.0
220
0.0
230
1.0
 70
    24
 71
     3
 72
    14
 73
    10
 74
     0
 42
0.000000001
 43
0.00000001
 40
0.0
 40
0.0
 40
0.0
 40
0.0
 40
0.2499999999999998
 40
0.2499999999999998
 40
0.4999999999999997
 40
0.4999999999999997
 40
0.7499999999999998
 40
0.7499999999999998
 40
1.0
 40
1.0
 40
1.0
 40
1.0
 10
9.999999999999993
 20
-0.873915439684051
 30
0.0
 10
9.999999999999993
 20
-1.156460640567733
 30
0.0
 10
9.999999999999996
 20
-1.433199238846204
 30
0.0
 10
9.999999999999993
 20
-1.953333330202625
 30
0.0
 10
9.999999999999993
 20
-2.196552634869805
 30
0.0
 10
9.999999999999993
 20
-2.630317893188912
 30
0.0
 10
9.999999999999993
 20
-2.820738588601658
 30
0.0
 10
9.999999999999993
 20
-3.137112729007419
 30
0.0
 10
9.999999999999996
 20
-3.263050434688668
 30
0.0
 10
9.999999999999993
 20
-3.355768185134584
 30
0.0
  0
SPLINE
  5
BA
330
1F
100
AcDbEntity
  8
외형선
  6
Continuous
370
    15
100
AcDbSpline
210
0.0
220
0.0
230
1.0
 70
    24
 71
     3
 72
     8
 73
     4
 74
     0
 42
0.000000001
 43
0.00000001
 40
0.0
 40
0.0
 40
0.0
 40
0.0
 40
1.0
 40
1.0
 40
1.0
 40
1.0
 10
10.00000000000004
 20
-3.355768185134587
 30
0.0
 10
10.00000000000004
 20
-3.562556311599759
 30
0.0
 10
10.00000000000004
 20
-3.767033944968287
 30
0.0
 10
10.00000000000004
 20
-3.965235665979808
 30
0.0
  0
SPLINE
  5
BB
330
1F
100
AcDbEntity
  8
외형선
  6
Continuous
370
    15
100
AcDbSpline
210
0.0
220
0.0
230
1.0
 70
    24
 71
     3
 72
    10
 73
     6
 74
     0
 42
0.000000001
 43
0.00000001
 40
0.0
 40
0.0
 40
0.0
 40
0.0
 40
0.5
 40
0.5
 40
1.0
 40
1.0
 40
1.0
 40
1.0
 10
10.00000000000001
 20
3.857127586688597
 30
0.0
 10
10.00000000000001
 20
3.680043099373079
 30
0.0
 10
10.00000000000001
 20
3.477793703185651
 30
0.0
 10
10.00000000000001
 20
3.066941661804649
 30
0.0
 10
10.00000000000001
 20
2.859474205651107
 30
0.0
 10
10.0
 20
2.670814316978673
 30
0.0
  0
SPLINE
  5
BC
330
1F
100
AcDbEntity
  8
0
  6
Continuous
 62
     1
370
    15
100
AcDbSpline
210
0.0
220
0.0
230
1.0
 70
     8
 71
     3
 72
    25
 73
    21
 74
     0
 42
0.000000001
 43
0.00000001
 40
0.0
 40
0.0
 40
0.0
 40
0.0
 40
0.0624017685998666
 40
0.1253196527010523
 40
0.1825169631111163
 40
0.2401109373655627
 40
0.2972710666986667
 40
0.354828672193534
 40
0.4119885315847449
 40
0.4695433207028109
 40
0.5266847605479354
 40
0.5842226461606513
 40
0.6413639319318679
 40
0.6989010069268409
 40
0.7560423890428958
 40
0.8135785482536695
 40
0.870714571992555
 40
0.9282477071359282
 40
0.9853834119396602
 40
1.0
 40
1.0
 40
1.0
 40
1.0
 10
10.0
 20
3.857127586688601
 30
0.0
 10
10.41536090500256
 20
3.788525636731464
 30
0.0
 10
11.24951810164051
 20
3.650754340562437
 30
0.0
 10
12.4641051018937
 20
3.299884786058892
 30
0.0
 10
13.64606284385892
 20
2.867890251066441
 30
0.0
 10
14.79032355118575
 20
2.368894406068447
 30
0.0
 10
15.93732851993588
 20
1.804477883238955
 30
0.0
 10
17.08051771430893
 20
1.189936032390456
 30
0.0
 10
18.22664463204034
 20
0.541542822933731
 30
0.0
 10
19.37081316128529
 20
-0.1189034104727349
 30
0.0
 10
20.51643516985683
 20
-0.7792875869486382
 30
0.0
 10
21.65938775624417
 20
-1.416407912199156
 30
0.0
 10
22.80597915443493
 20
-2.014143310292131
 30
0.0
 10
23.94901105901694
 20
-2.556374248742592
 30
0.0
 10
25.09445355479372
 20
-3.029219851596858
 30
0.0
 10
26.23826178774737
 20
-3.415576498282464
 30
0.0
 10
27.38407069535689
 20
-3.711343104197896
 30
0.0
 10
28.52674048969515
 20
-3.895198148885747
 30
0.0
 10
29.38728492614733
 20
-3.976825097550901
 30
0.0
 10
29.86477295942678
 20
-3.961412252608477
 30
0.0
 10
29.96204157075059
 20
-3.958272517327987
 30
0.0
  0
SPLINE
  5
BD
330
1F
100
AcDbEntity
  8
0
  6
Continuous
 62
     1
370
    15
100
AcDbSpline
210
0.0
220
0.0
230
1.0
 70
     8
 71
     3
 72
    12
 73
     8
 74
     0
 42
0.000000001
 43
0.00000001
 40
0.0
 40
0.0
 40
0.0
 40
0.0
 40
0.1871923910911846
 40
0.3871604257386265
 40
0.5883915847724241
 40
0.7935131984284183
 40
0.9999999999999999
 40
0.9999999999999999
 40
0.9999999999999999
 40
0.9999999999999999
 10
45.82019001743849
 20
2.660755798809796
 30
0.0
 10
46.16045304806897
 20
2.8024215327373
 30
0.0
 10
46.86420163012453
 20
3.095421507470411
 30
0.0
 10
47.93435050293066
 20
3.443741945162258
 30
0.0
 10
49.03704766893894
 20
3.719863942121172
 30
0.0
 10
50.15080585321232
 20
3.908047710580921
 30
0.0
 10
50.89944094792065
 20
3.946237463975996
 30
0.0
 10
51.27499999999999
 20
3.968203059813666
 30
0.0
  0
SPLINE
  5
BE
330
1F
100
AcDbEntity
  8
0
  6
Continuous
 62
     1
370
    15
100
AcDbSpline
210
0.0
220
0.0
230
1.0
 70
    24
 71
     3
 72
    10
 73
     6
 74
     0
 42
0.000000001
 43
0.00000001
 40
0.0
 40
0.0
 40
0.0
 40
0.0
 40
0.5
 40
0.5
 40
1.0
 40
1.0
 40
1.0
 40
1.0
 10
51.27500000000001
 20
2.778124999999997
 30
0.0
 10
51.27500000000001
 20
2.946528019204024
 30
0.0
 10
51.27500000000001
 20
3.142227923316369
 30
0.0
 10
51.27500000000001
 20
3.552805795063394
 30
0.0
 10
51.27499999999999
 20
3.766635198337093
 30
0.0
 10
51.27499999999999
 20
3.968203059813666
 30
0.0
  0
LINE
  5
BF
330
1F
100
AcDbEntity
  8
0
  6
Continuous
 62
     1
370
    15
100
AcDbLine
 10
51.27500000000001
 20
2.778124999999997
 30
0.0
 11
49.82256980329851
 21
2.702410149874185
 31
0.0
  0
SPLINE
  5
C0
330
1F
100
AcDbEntity
  8
0
  6
Continuous
 62
     1
370
    15
100
AcDbSpline
210
0.0
220
0.0
230
1.0
 70
     8
 71
     3
 72
    13
 73
     9
 74
     0
 42
0.000000001
 43
0.00000001
 40
0.0
 40
0.0
 40
0.0
 40
0.0
 40
0.0640474097635182
 40
0.2458727767885045
 40
0.4277058544238331
 40
0.6095413024171547
 40
0.8048010172947849
 40
1.0
 40
1.0
 40
1.0
 40
1.0
 10
19.80866087038612
 20
-0.3698308290293379
 30
0.0
 10
19.59926156929181
 20
-0.2869485867090739
 30
0.0
 10
18.79539474926382
 20
0.0312295744528585
 30
0.0
 10
17.39702398774957
 20
0.6032992364349594
 30
0.0
 10
15.61352703896722
 20
1.286266735525582
 30
0.0
 10
13.78616994916462
 20
1.896206776027863
 30
0.0
 10
11.91485264819486
 20
2.397580911511926
 30
0.0
 10
10.63821802656832
 20
2.579745959842202
 30
0.0
 10
10.0
 20
2.670814316978674
 30
0.0
  0
SPLINE
  5
C1
330
1F
100
AcDbEntity
  8
외형선
  6
Continuous
370
    15
100
AcDbSpline
210
0.0
220
0.0
230
1.0
 70
    24
 71
     3
 72
    10
 73
     6
 74
     0
 42
0.000000001
 43
0.00000001
 40
0.0
 40
0.0
 40
0.0
 40
0.0
 40
0.5
 40
0.5
 40
1.0
 40
1.0
 40
1.0
 40
1.0
 10
10.00000000000001
 20
3.857127586688595
 30
0.0
 10
10.00000000000001
 20
3.680043099373076
 30
0.0
 10
10.00000000000001
 20
3.477793703185651
 30
0.0
 10
10.00000000000001
 20
3.06694166180465
 30
0.0
 10
10.00000000000001
 20
2.859474205651106
 30
0.0
 10
10.00000000000001
 20
2.670814316978673
 30
0.0
  0
SPLINE
  5
C2
330
1F
100
AcDbEntity
  8
0
  6
Continuous
 62
     1
370
    15
100
AcDbSpline
210
0.0
220
0.0
230
1.0
 70
     8
 71
     3
 72
    31
 73
    27
 74
     0
 42
0.000000001
 43
0.00000001
 40
0.0
 40
0.0
 40
0.0
 40
0.0
 40
0.031886358498397
 40
0.074352866460553
 40
0.1165240409066043
 40
0.1589883168535529
 40
0.2011592558987289
 40
0.2436215827400437
 40
0.2857926571256676
 40
0.3282556952800127
 40
0.3704268337143787
 40
0.4128907690535987
 40
0.4550617727532667
 40
0.4975238867484801
 40
0.539694984935912
 40
0.5821587186061239
 40
0.6243296769386139
 40
0.6667925423497415
 40
0.708963597506573
 40
0.7514260342558903
 40
0.7935954549946185
 40
0.8360580252062291
 40
0.8763912530653306
 40
0.916979251061965
 40
0.9583519474381639
 40
0.9999999999999999
 40
0.9999999999999999
 40
0.9999999999999999
 40
0.9999999999999999
 10
24.22980974917067
 20
2.660002891669913
 30
0.0
 10
24.51717068649886
 20
2.781759567378935
 30
0.0
 10
25.18724122466383
 20
3.065672760230006
 30
0.0
 10
26.23826694258837
 20
3.414434005342641
 30
0.0
 10
27.38406519706905
 20
3.710294060333034
 30
0.0
 10
28.52675739580248
 20
3.900574395121644
 30
0.0
 10
29.6728649343569
 20
3.98357572529725
 30
0.0
 10
30.81629217246121
 20
3.956475994420579
 30
0.0
 10
31.96157847956556
 20
3.819552133518242
 30
0.0
 10
33.10475297407838
 20
3.57741140969763
 30
0.0
 10
34.25110024664781
 20
3.236367569770428
 30
0.0
 10
35.39382205278963
 20
2.805702713835662
 30
0.0
 10
36.53938453627488
 20
2.296431674475533
 30
0.0
 10
37.68322257536396
 20
1.726283402518947
 30
0.0
 10
38.82865243034321
 20
1.105519446774904
 30
0.0
 10
39.97144720405794
 20
0.4554387926433807
 30
0.0
 10
41.11790417823048
 20
-0.2068684291797284
 30
0.0
 10
42.26089138063919
 20
-0.8634647473922971
 30
0.0
 10
43.406198317741
 20
-1.49804463202795
 30
0.0
 10
44.54984306538567
 20
-2.088256929410804
 30
0.0
 10
45.69568112453702
 20
-2.622790953328577
 30
0.0
 10
46.82174670478628
 20
-3.077494403994281
 30
0.0
 10
47.93435527651351
 20
-3.444826869121844
 30
0.0
 10
49.0370463653078
 20
-3.71956765719447
 30
0.0
 10
50.1508061842664
 20
-3.908122951444687
 30
0.0
 10
50.89944105851575
 20
-3.946262599658795
 30
0.0
 10
51.27500000000001
 20
-3.968750000000003
 30
0.0
  0
SPLINE
  5
C3
330
1F
100
AcDbEntity
  8
0
  6
Continuous
 62
     1
370
    15
100
AcDbSpline
210
0.0
220
0.0
230
1.0
 70
     8
 71
     3
 72
    15
 73
    11
 74
     0
 42
0.000000001
 43
0.00000001
 40
0.0
 40
0.0
 40
0.0
 40
0.0
 40
0.0627542012765765
 40
0.1978383393985112
 40
0.3329217411208926
 40
0.4680004379139892
 40
0.6030704685321252
 40
0.7381278851331867
 40
0.8731687593540174
 40
0.9999999999999999
 40
0.9999999999999999
 40
0.9999999999999999
 40
0.9999999999999999
 10
41.40540761067714
 20
-0.3705716216721713
 30
0.0
 10
41.12922602213727
 20
-0.260711869330485
 30
0.0
 10
40.2585383910676
 20
0.0856310133431484
 30
0.0
 10
38.7933420300253
 20
0.6822126172188848
 30
0.0
 10
37.00984632498486
 20
1.357477888853025
 30
0.0
 10
35.22641877536741
 20
1.943039619870061
 30
0.0
 10
33.44311729778819
 20
2.399273427679252
 30
0.0
 10
31.66000014696479
 20
2.69101335031454
 30
0.0
 10
29.91316074550124
 20
2.815217159897902
 30
0.0
 10
28.76071665241749
 20
2.743669976968548
 30
0.0
 10
28.20255904111441
 20
2.70901787977878
 30
0.0
  0
SPLINE
  5
C4
330
1F
100
AcDbEntity
  8
0
  6
Continuous
 62
     1
370
    15
100
AcDbSpline
210
0.0
220
0.0
230
1.0
 70
     8
 71
     3
 72
    20
 73
    16
 74
     0
 42
0.000000001
 43
0.00000001
 40
0.0
 40
0.0
 40
0.0
 40
0.0
 40
0.0788542620842854
 40
0.1576917655016055
 40
0.236515662388101
 40
0.3153291289794248
 40
0.3941353600316421
 40
0.4729375631722401
 40
0.5517389532024501
 40
0.630542746372393
 40
0.7093521546507253
 40
0.788170380010519
 40
0.867000608752984
 40
0.9458460058904108
 40
1.0
 40
1.0
 40
1.0
 40
1.0
 10
51.27500000000001
 20
-3.766109074764108
 30
0.0
 10
50.76529227068671
 20
-3.655320709087428
 30
0.0
 10
49.74598513876131
 20
-3.433767523263187
 30
0.0
 10
48.21725199552378
 20
-2.882647387433947
 30
0.0
 10
46.68882973640832
 20
-2.202952755330381
 30
0.0
 10
45.16065152141583
 20
-1.41127914679106
 30
0.0
 10
43.63264119382096
 20
-0.551123115440564
 30
0.0
 10
42.10472465819706
 20
0.3364087586129735
 30
0.0
 10
40.57682700506656
 20
1.207272148109412
 30
0.0
 10
39.04887347030252
 20
2.018880225418688
 30
0.0
 10
37.52078931029627
 20
2.730603768964154
 30
0.0
 10
35.99250018067941
 20
3.309892680013994
 30
0.0
 10
34.46393158238484
 20
3.718954705508772
 30
0.0
 10
33.09472776207899
 20
3.945727733330076
 30
0.0
 10
32.23502338569759
 20
3.947107440466618
 30
0.0
 10
31.88497346969399
 20
3.947669222377382
 30
0.0
  0
SPLINE
  5
C5
330
1F
100
AcDbEntity
  8
0
  6
Continuous
 62
     1
370
    15
100
AcDbSpline
210
0.0
220
0.0
230
1.0
 70
     8
 71
     3
 72
    11
 73
     7
 74
     0
 42
0.000000001
 43
0.00000001
 40
0.0
 40
0.0
 40
0.0
 40
0.0
 40
0.0519389383673264
 40
0.3679764658022474
 40
0.6840213762899724
 40
1.0
 40
1.0
 40
1.0
 40
1.0
 10
14.84255334117063
 20
-3.119729028641171
 30
0.0
 10
14.75871697404667
 20
-3.152722871279307
 30
0.0
 10
14.16475392725134
 20
-3.386477314262963
 30
0.0
 10
13.06058280856837
 20
-3.669953399990434
 30
0.0
 10
11.53019672127728
 20
-3.947630844478543
 30
0.0
 10
10.51002990865313
 20
-3.959367802476652
 30
0.0
 10
10.00000000000931
 20
-3.965235665988243
 30
0.0
  0
SPLINE
  5
C6
330
1F
100
AcDbEntity
  8
외형선
  6
Continuous
370
    15
100
AcDbSpline
210
0.0
220
0.0
230
1.0
 70
    24
 71
     3
 72
     8
 73
     4
 74
     0
 42
0.000000001
 43
0.00000001
 40
0.0
 40
0.0
 40
0.0
 40
0.0
 40
1.0
 40
1.0
 40
1.0
 40
1.0
 10
10.00000000000004
 20
-3.355768185134587
 30
0.0
 10
10.00000000000004
 20
-3.56255631159976
 30
0.0
 10
10.00000000000004
 20
-3.767033944968288
 30
0.0
 10
10.00000000000004
 20
-3.965235665979809
 30
0.0
  0
SPLINE
  5
C7
330
1F
100
AcDbEntity
  8
0
  6
Continuous
 62
     1
370
    15
100
AcDbSpline
210
0.0
220
0.0
230
1.0
 70
     8
 71
     3
 72
    13
 73
     9
 74
     0
 42
0.000000001
 43
0.00000001
 40
0.0
 40
0.0
 40
0.0
 40
0.0
 40
0.1729853115462484
 40
0.3459987905864708
 40
0.5190356560800409
 40
0.6920910912893963
 40
0.8651602510605299
 40
1.0
 40
1.0
 40
1.0
 40
1.0
 10
51.27500000000001
 20
-3.13123367421136
 30
0.0
 10
50.68087553781422
 20
-3.002329435087456
 30
0.0
 10
49.4925298711409
 20
-2.744499967142047
 30
0.0
 10
47.70982612805173
 20
-2.1181825065986
 30
0.0
 10
45.92684945477397
 20
-1.364628022652341
 30
0.0
 10
44.14365189814201
 20
-0.5177035825166894
 30
0.0
 10
42.49163415693245
 20
0.3048708540806062
 30
0.0
 10
41.43401860754778
 20
0.8038551147745372
 30
0.0
 10
40.97086664565524
 20
1.022370755385489
 30
0.0
  0
SPLINE
  5
C8
330
1F
100
AcDbEntity
  8
0
  6
Continuous
 62
     1
370
    15
100
AcDbSpline
210
0.0
220
0.0
230
1.0
 70
     8
 71
     3
 72
     9
 73
     5
 74
     0
 42
0.000000001
 43
0.00000001
 40
0.0
 40
0.0
 40
0.0
 40
0.0
 40
0.0965185844389658
 40
1.0
 40
1.0
 40
1.0
 40
1.0
 10
12.11919310841152
 20
-3.290219539468464
 30
0.0
 10
12.0510097258987
 20
-3.301002684075684
 30
0.0
 10
11.34458222378446
 20
-3.412723599481759
 30
0.0
 10
10.63820168715703
 20
-3.382801891877179
 30
0.0
 10
10.0000000000001
 20
-3.35576818513459
 30
0.0
  0
LINE
  5
C9
330
1F
100
AcDbEntity
  8
0
  6
Continuous
 62
     1
370
    15
100
AcDbLine
 10
51.27499999999972
 20
-3.766109074764112
 30
0.0
 11
51.27500000000001
 21
-3.13123367421136
 31
0.0
  0
SPLINE
  5
CA
330
1F
100
AcDbEntity
  8
0
  6
Continuous
 62
     1
370
    15
100
AcDbSpline
210
0.0
220
0.0
230
1.0
 70
     8
 71
     3
 72
    25
 73
    21
 74
     0
 42
0.000000001
 43
0.00000001
 40
0.0
 40
0.0
 40
0.0
 40
0.0
 40
0.0164547605288852
 40
0.074943677002823
 40
0.1334438478267748
 40
0.1919539949736038
 40
0.2504543043466214
 40
0.3089433333099707
 40
0.3674234299785192
 40
0.4258969583088015
 40
0.48436629393196
 40
0.5428338199425748
 40
0.6013019226592355
 40
0.659772987372893
 40
0.7183016498188481
 40
0.776837843158398
 40
0.8353838524776747
 40
0.8939419458295503
 40
0.9525014071755968
 40
1.0
 40
1.0
 40
1.0
 40
1.0
 10
36.42258573999459
 20
-3.120260093851114
 30
0.0
 10
36.27924754959005
 20
-3.175424524460134
 30
0.0
 10
35.62640966568462
 20
-3.426672499922901
 30
0.0
 10
34.46392914621589
 20
-3.716358385782498
 30
0.0
 10
32.93504514201047
 20
-3.956999842297385
 30
0.0
 10
31.4059732882405
 20
-3.991352258499291
 30
0.0
 10
29.877083801112
 20
-3.832242961053912
 30
0.0
 10
28.34851112649591
 20
-3.483626107487582
 30
0.0
 10
26.82021944075789
 20
-2.963748267766378
 30
0.0
 10
25.29213336957004
 20
-2.297939746264911
 30
0.0
 10
23.76417878853698
 20
-1.519053435581722
 30
0.0
 10
22.23628097022908
 20
-0.6654041981398996
 30
0.0
 10
20.70836487756393
 20
0.2210076352847825
 30
0.0
 10
19.17990149053404
 20
1.096790409374715
 30
0.0
 10
17.6508142171174
 20
1.918941365884765
 30
0.0
 10
16.12103466736759
 20
2.646327533225111
 30
0.0
 10
14.59095120073469
 20
3.244774481879308
 30
0.0
 10
13.06058716577622
 20
3.677410038093043
 30
0.0
 10
11.62644929928043
 20
3.93293854524878
 30
0.0
 10
10.70253112202071
 20
3.947302727307314
 30
0.0
 10
10.28875006929466
 20
3.953735793048435
 30
0.0
  0
SPLINE
  5
CB
330
1F
100
AcDbEntity
  8
0
  6
Continuous
 62
     1
370
    15
100
AcDbSpline
210
0.0
220
0.0
230
1.0
 70
     8
 71
     3
 72
    16
 73
    12
 74
     0
 42
0.000000001
 43
0.00000001
 40
0.0
 40
0.0
 40
0.0
 40
0.0
 40
0.0189527385637149
 40
0.1432332679909817
 40
0.2674991736911073
 40
0.3917470052904055
 40
0.5159765994743969
 40
0.6402192262902962
 40
0.764480810645869
 40
0.8887579087639484
 40
1.0
 40
1.0
 40
1.0
 40
1.0
 10
33.71496050227634
 20
-3.288036880864276
 30
0.0
 10
33.62431660188906
 20
-3.301642596798866
 30
0.0
 10
32.93928514681602
 20
-3.404466320669527
 30
0.0
 10
31.65995716976566
 20
-3.383810449968513
 30
0.0
 10
29.8770750930382
 20
-3.205300158404142
 30
0.0
 10
28.09447290106021
 20
-2.791812525686223
 30
0.0
 10
26.31204279433279
 20
-2.197131351732949
 30
0.0
 10
24.52950041076345
 20
-1.453603451504644
 30
0.0
 10
22.74668974892836
 20
-0.6148055440201095
 30
0.0
 10
21.02602351328318
 20
0.2402435497507378
 30
0.0
 10
19.89962399474323
 20
0.7757108506316983
 30
0.0
 10
19.36759499806875
 20
1.028626557848051
 30
0.0
  0
LINE
  5
CC
330
1F
100
AcDbEntity
  8
0
  6
Continuous
 62
     1
370
    15
100
AcDbLine
 10
51.27500000000001
 20
-3.968750000000003
 30
0.0
 11
51.27499999999966
 21
-3.766109074764091
 31
0.0
  0
SPLINE
  5
CD
330
1F
100
AcDbEntity
  8
0
  6
Continuous
 62
     1
370
    15
100
AcDbSpline
210
0.0
220
0.0
230
1.0
 70
     8
 71
     3
 72
     8
 73
     4
 74
     0
 42
0.000000001
 43
0.00000001
 40
0.0
 40
0.0
 40
0.0
 40
0.0
 40
1.0
 40
1.0
 40
1.0
 40
1.0
 10
48.81905668758519
 20
1.110410216782191
 30
0.0
 10
48.67803207403826
 20
1.277501323937341
 30
0.0
 10
48.55227381134812
 20
1.438197945001311
 30
0.0
 10
48.44532467218539
 20
1.591016149021976
 30
0.0
  0
LINE
  5
CE
330
1F
100
AcDbEntity
  8
0
  6
Continuous
 62
     1
370
    15
100
AcDbLine
 10
48.49547195234584
 20
1.63309471330913
 30
0.0
 11
51.27500000000001
 21
0.0000000000000023
 31
0.0
  0
LINE
  5
CF
330
1F
100
AcDbEntity
  8
0
  6
Continuous
 62
     1
370
    15
100
AcDbLine
 10
51.27500000000001
 20
0.0000000000000023
 30
0.0
 11
51.27500000000001
 21
-1.060620442055151
 31
0.0
  0
SPLINE
  5
D0
330
1F
100
AcDbEntity
  8
0
  6
Continuous
 62
     1
370
    15
100
AcDbSpline
210
0.0
220
0.0
230
1.0
 70
     8
 71
     3
 72
    10
 73
     6
 74
     0
 42
0.000000001
 43
0.00000001
 40
0.0
 40
0.0
 40
0.0
 40
0.0
 40
0.5
 40
0.5
 40
1.0
 40
1.0
 40
1.0
 40
1.0
 10
51.27500000000001
 20
-1.060620442055155
 30
0.0
 10
50.84986456289096
 20
-0.7263914625887526
 30
0.0
 10
50.43183223809925
 20
-0.3784565810898675
 30
0.0
 10
49.61033386371288
 20
0.3455197261817948
 30
0.0
 10
49.2030344003592
 20
0.725359725585106
 30
0.0
 10
48.81905668758559
 20
1.110410216781609
 30
0.0
  0
SPLINE
  5
D1
330
1F
100
AcDbEntity
  8
0
  6
Continuous
 62
     1
370
    15
100
AcDbSpline
210
0.0
220
0.0
230
1.0
 70
     8
 71
     3
 72
    22
 73
    18
 74
     0
 42
0.000000001
 43
0.00000001
 40
0.0
 40
0.0
 40
0.0
 40
0.0
 40
0.0208928686871738
 40
0.0928156637349058
 40
0.1647401354298087
 40
0.2366642251745305
 40
0.3085858749602907
 40
0.38050303053669
 40
0.4524136445691424
 40
0.5243156797735686
 40
0.5962071120181063
 40
0.6680878421720567
 40
0.7399762129938079
 40
0.8118757063746492
 40
0.8837843020734052
 40
0.955699965903206
 40
1.0
 40
1.0
 40
1.0
 40
1.0
 10
42.87841476319626
 20
-2.962973791911593
 30
0.0
 10
42.70572189376372
 20
-2.996146167879973
 30
0.0
 10
41.93854130508244
 20
-3.143513010570142
 30
0.0
 10
40.57684532762647
 20
-3.201234131468323
 30
0.0
 10
38.7933382254573
 20
-3.117438714252899
 30
0.0
 10
37.00984072020329
 20
-2.810342907612278
 30
0.0
 10
35.22641199779346
 20
-2.319130618232825
 30
0.0
 10
33.44310943483777
 20
-1.671694108230715
 30
0.0
 10
31.65999025963754
 20
-0.9127152539129558
 30
0.0
 10
29.87711291319325
 20
-0.0926177351150357
 30
0.0
 10
28.0945136298361
 20
0.733563261801372
 30
0.0
 10
26.31208284705102
 20
1.51091052599683
 30
0.0
 10
24.52954305504776
 20
2.186479755321919
 30
0.0
 10
22.74673633072257
 20
2.718205359201136
 30
0.0
 10
20.96367360676358
 20
3.059121815848362
 30
0.0
 10
19.40871545248692
 20
3.20712883329155
 30
0.0
 10
18.44811373341671
 20
3.150123210041815
 30
0.0
 10
18.0819438470118
 20
3.128393348252684
 30
0.0
  0
SPLINE
  5
D2
330
1F
100
AcDbEntity
  8
외형선
  6
Continuous
370
    15
100
AcDbSpline
210
0.0
220
0.0
230
1.0
 70
    24
 71
     3
 72
    14
 73
    10
 74
     0
 42
0.000000001
 43
0.00000001
 40
0.0
 40
0.0
 40
0.0
 40
0.0
 40
0.2500000000000001
 40
0.2500000000000001
 40
0.5000000000000002
 40
0.5000000000000002
 40
0.7500000000000002
 40
0.7500000000000002
 40
1.0
 40
1.0
 40
1.0
 40
1.0
 10
10.0
 20
-0.8739154396840555
 30
0.0
 10
10.0
 20
-1.156460640567737
 30
0.0
 10
10.0
 20
-1.433199238846207
 30
0.0
 10
10.0
 20
-1.953333330202628
 30
0.0
 10
10.0
 20
-2.196552634869807
 30
0.0
 10
10.0
 20
-2.630317893188914
 30
0.0
 10
10.0
 20
-2.82073858860166
 30
0.0
 10
10.0
 20
-3.137112729007422
 30
0.0
 10
10.0
 20
-3.263050434688668
 30
0.0
 10
10.0
 20
-3.355768185134584
 30
0.0
  0
SPLINE
  5
D3
330
1F
100
AcDbEntity
  8
0
  6
Continuous
 62
     1
370
    15
100
AcDbSpline
210
0.0
220
0.0
230
1.0
 70
     8
 71
     3
 72
    13
 73
     9
 74
     0
 42
0.000000001
 43
0.00000001
 40
0.0
 40
0.0
 40
0.0
 40
0.0
 40
0.1581831974148411
 40
0.3164019017450884
 40
0.5114435924864889
 40
0.706500967567112
 40
0.9015684662936775
 40
1.0
 40
1.0
 40
1.0
 40
1.0
 10
48.81905668758466
 20
1.110410216782523
 30
0.0
 10
48.33709231786689
 20
1.314307703185005
 30
0.0
 10
47.37305539331192
 20
1.722148444256886
 30
0.0
 10
45.81479763747255
 20
2.284811532029145
 30
0.0
 10
44.14363488478355
 20
2.767065406613349
 30
0.0
 10
42.36031458068089
 20
3.084222666238126
 30
0.0
 10
40.87136943707912
 20
3.211028472984817
 30
0.0
 10
39.97689251777157
 20
3.148111620206534
 30
0.0
 10
39.6769094673931
 20
3.127011031684637
 30
0.0
  0
SPLINE
  5
D4
330
1F
100
AcDbEntity
  8
0
  6
Continuous
 62
     1
370
    15
100
AcDbSpline
210
0.0
220
0.0
230
1.0
 70
     8
 71
     3
 72
    14
 73
    10
 74
     0
 42
0.000000001
 43
0.00000001
 40
0.0
 40
0.0
 40
0.0
 40
0.0
 40
0.0279559939741731
 40
0.186067179905204
 40
0.3441894094209256
 40
0.5023181693796812
 40
0.6604489365826678
 40
0.8302501872413071
 40
1.0
 40
1.0
 40
1.0
 40
1.0
 10
21.2790295074679
 20
-2.969713855421905
 30
0.0
 10
21.17392927025635
 20
-2.990791017395543
 30
0.0
 10
20.47441185143774
 20
-3.131074639307285
 30
0.0
 10
19.18041073094981
 20
-3.196681074004902
 30
0.0
 10
17.39701553616894
 20
-3.139097113109665
 30
0.0
 10
15.61351259867513
 20
-2.854088438763144
 30
0.0
 10
13.78618224267501
 20
-2.370021576201298
 30
0.0
 10
11.91483450611906
 20
-1.7044208290963
 30
0.0
 10
10.63821370447684
 20
-1.150722609949145
 30
0.0
 10
10.00000000000002
 20
-0.8739154396840619
 30
0.0
  0
SPLINE
  5
D5
330
1F
100
AcDbEntity
  8
0
  6
Continuous
 62
     1
370
    15
100
AcDbSpline
210
0.0
220
0.0
230
1.0
 70
    24
 71
     3
 72
    10
 73
     6
 74
     0
 42
0.000000001
 43
0.00000001
 40
0.0
 40
0.0
 40
0.0
 40
0.0
 40
0.5
 40
0.5
 40
1.0
 40
1.0
 40
1.0
 40
1.0
 10
51.27500000000001
 20
-3.13123367421136
 30
0.0
 10
51.27500000000001
 20
-2.891200200108854
 30
0.0
 10
51.27500000000001
 20
-2.587908701753801
 30
0.0
 10
51.27499999999999
 20
-1.882785156629264
 30
0.0
 10
51.27500000000001
 20
-1.481563914609889
 30
0.0
 10
51.27500000000001
 20
-1.060620442055283
 30
0.0
  0
SPLINE
  5
D6
330
1F
100
AcDbEntity
  8
0
  6
Continuous
 62
     1
370
    15
100
AcDbSpline
210
0.0
220
0.0
230
1.0
 70
    24
 71
     3
 72
     8
 73
     4
 74
     0
 42
0.000000001
 43
0.00000001
 40
0.0
 40
0.0
 40
0.0
 40
0.0
 40
1.0
 40
1.0
 40
1.0
 40
1.0
 10
48.85941137504132
 20
1.938476148661921
 30
0.0
 10
48.72844732515208
 20
1.828584262702382
 30
0.0
 10
48.58997707856489
 20
1.712393929863892
 30
0.0
 10
48.44532467218548
 20
1.591016149022021
 30
0.0
  0
SPLINE
  5
D7
330
1F
100
AcDbEntity
  8
0
  6
Continuous
 62
     1
370
    15
100
AcDbSpline
210
0.0
220
0.0
230
1.0
 70
     8
 71
     3
 72
    10
 73
     6
 74
     0
 42
0.000000001
 43
0.00000001
 40
0.0
 40
0.0
 40
0.0
 40
0.0
 40
0.5
 40
0.5
 40
1.0
 40
1.0
 40
1.0
 40
1.0
 10
51.27500000000001
 20
2.778125000000002
 30
0.0
 10
50.86677549858078
 20
2.667364671135013
 30
0.0
 10
50.46103188369823
 20
2.54311438777992
 30
0.0
 10
49.65500353444129
 20
2.264930863572456
 30
0.0
 10
49.25465765575152
 20
2.111487272308525
 30
0.0
 10
48.85941137504807
 20
1.938476148666197
 30
0.0
  0
SPLINE
  5
D8
330
1F
100
AcDbEntity
  8
외형선
  6
Continuous
370
    15
100
AcDbSpline
210
0.0
220
0.0
230
1.0
 70
    24
 71
     3
 72
    14
 73
    10
 74
     0
 42
0.000000001
 43
0.00000001
 40
0.0
 40
0.0
 40
0.0
 40
0.0
 40
0.2499999999999998
 40
0.2499999999999998
 40
0.4999999999999999
 40
0.4999999999999999
 40
0.75
 40
0.75
 40
1.0
 40
1.0
 40
1.0
 40
1.0
 10
9.999999999999993
 20
2.670814316978673
 30
0.0
 10
9.999999999999993
 20
2.504307078868213
 30
0.0
 10
9.999999999999993
 20
2.294498656627861
 30
0.0
 10
9.999999999999991
 20
1.796368962557125
 30
0.0
 10
9.999999999999991
 20
1.508137178312534
 30
0.0
 10
9.999999999999991
 20
0.8781365020597285
 30
0.0
 10
9.999999999999991
 20
0.5367033007510291
 30
0.0
 10
9.999999999999993
 20
-0.1641409820555954
 30
0.0
 10
9.999999999999993
 20
-0.5231778523898774
 30
0.0
 10
9.999999999999993
 20
-0.8739154396840512
 30
0.0
  0
LINE
  5
D9
330
1F
100
AcDbEntity
  8
0
  6
Continuous
 62
     1
370
    15
100
AcDbLine
 10
51.27500000000001
 20
0.0000000000000023
 30
0.0
 11
51.27500000000001
 21
2.778125000000002
 31
0.0
  0
LINE
  5
DA
330
1F
100
AcDbEntity
  8
중심선
 62
     1
100
AcDbLine
 10
-53.325
 20
-0.0000000000000077
 30
0.0
 11
54.27499999999999
 21
0.0000000000000055
 31
0.0
  0
LINE
  5
DB
330
1F
100
AcDbEntity
  8
참조1
100
AcDbLine
 10
5.324261314031159
 20
0.0010749287238892
 30
0.0
 11
5.324261314031165
 21
-39.99892507127611
 31
0.0
  0
LINE
  5
DC
330
1F
100
AcDbEntity
  8
참조1
100
AcDbLine
 10
5.324261314031165
 20
-39.99892507127611
 30
0.0
 11
-20.15080122126847
 21
-39.9989250712761
 31
0.0
  0
CIRCLE
  5
DD
330
1F
100
AcDbEntity
  8
해칭선
100
AcDbCircle
 10
0.0
 20
0.0
 30
0.0
 40
2.999999999999996
  0
INSERT
  5
DE
330
1F
100
AcDbEntity
  8
0
  6
Continuous
 62
     7
100
AcDbBlockReference
 66
     1
  2
블럭10
 10
-13.9402729321252
 20
-52.04717430164393
 30
0.0
  0
ATTRIB
  5
DF
330
DE
100
AcDbEntity
  8
FORMAT
 62
     2
100
AcDbText
 10
-23.12156822086648
 20
-49.97180738881175
 30
0.0
 40
4.233333333333333
  1
E5026020 [ 2 FLUTE ]
 41
0.75
  7
SLDTEXTSTYLE0
 11
-23.12156822086648
 21
-52.08847405547841
 31
0.0
100
AcDbAttribute
  2
AUTOATTR0
 70
     0
 74
     1
  0
SEQEND
  5
E0
330
DE
100
AcDbEntity
  8
0
  6
Continuous
 62
     7
  0
HATCH
  5
E1
330
1F
100
AcDbEntity
  8
중심선
100
AcDbHatch
 10
0.0
 20
0.0
 30
0.0
210
0.0
220
0.0
230
1.0
  2
SOLID
 70
     1
 71
     0
 91
        1
 92
        0
 93
        4
 72
     1
 10
-8.225363627744365
 20
-35.8
 11
-11.67163887158165
 21
-35.8
 72
     1
 10
-11.67163887158165
 20
-35.8
 11
-13.7998687307857
 21
-38.3363255805726
 72
     1
 10
-13.7998687307857
 20
-38.3363255805726
 11
-10.35356040183524
 21
-38.33628615127011
 72
     1
 10
-10.35356040183524
 20
-38.33628615127011
 11
-8.225363627744365
 21
-35.8
 97
        0
 75
     0
 76
     1
 98
        1
 10
-5.324261314031155
 20
-0.0010749287238958
  0
HATCH
  5
E2
330
1F
100
AcDbEntity
  8
중심선
100
AcDbHatch
 10
0.0
 20
0.0
 30
0.0
210
0.0
220
0.0
230
1.0
  2
SOLID
 70
     1
 71
     0
 91
        1
 92
        0
 93
        4
 72
     1
 10
-3.212599636708414
 20
-35.8
 11
-6.658874880545669
 21
-35.8
 72
     1
 10
-6.658874880545669
 20
-35.8
 11
-11.19001288890308
 21
-41.20000000000002
 72
     1
 10
-11.19001288890308
 20
-41.20000000000002
 11
-7.743737645065802
 21
-41.20000000000002
 72
     1
 10
-7.743737645065803
 20
-41.20000000000002
 11
-3.212599636708415
 21
-35.8
 97
        0
 75
     0
 76
     1
 98
        1
 10
-5.324261314031155
 20
-0.0010749287238958
  0
HATCH
  5
E3
330
1F
100
AcDbEntity
  8
중심선
100
AcDbHatch
 10
0.0
 20
0.0
 30
0.0
210
0.0
220
0.0
230
1.0
  2
SOLID
 70
     1
 71
     0
 91
        1
 92
        0
 93
        4
 72
     1
 10
1.800164354327482
 20
-35.8
 11
-1.646110889509635
 21
-35.80000000000003
 72
     1
 10
-1.646110889509635
 20
-35.80000000000003
 11
-8.694547791398882
 21
-44.20000000000002
 72
     1
 10
-8.694547791398882
 20
-44.20000000000002
 11
-5.248272547561601
 21
-44.20000000000002
 72
     1
 10
-5.248272547561601
 20
-44.20000000000002
 11
1.800164354327482
 21
-35.8
 97
        0
 75
     0
 76
     1
 98
        1
 10
-5.324261314031155
 20
-0.0010749287238958
  0
HATCH
  5
E4
330
1F
100
AcDbEntity
  8
중심선
100
AcDbHatch
 10
0.0
 20
0.0
 30
0.0
210
0.0
220
0.0
230
1.0
  2
SOLID
 70
     1
 71
     0
 91
        1
 92
        0
 93
        6
 72
     3
 10
6.60005478533968
 20
-40.00000000005127
 11
3.960054785062283
 21
1.540882976769353E-10
 40
0.3939339440162628
 50
17.09539180608437
 51
320.0019657685081
 73
     0
 72
     1
 10
8.283054441040276
 20
-38.5878940046383
 11
10.58835631474134
 21
-36.65356729459035
 72
     3
 10
6.600054785286833
 20
-40.00000000000015
 11
6.600054785286829
 21
-1.278976924368180E-13
 40
0.636358354079598
 50
39.99873849337411
 51
368.4976242363725
 73
     1
 72
     1
 10
13.02538727718744
 20
-39.03999999993002
 11
5.280122092122784
 21
-39.03999999993002
 72
     1
 10
5.280122092122784
 20
-39.03999999993002
 11
5.280097047676822
 21
-40.95999999992991
 72
     1
 10
5.280097047676822
 20
-40.95999999992991
 11
9.72147681714886
 21
-40.95999999992988
 97
        0
 75
     0
 76
     1
 98
        1
 10
-5.324261314031155
 20
-0.0010749287238958
  0
DIMENSION
  5
E5
330
1F
100
AcDbEntity
  8
치수문자_일반주서
100
AcDbDimension
  2
_D
 10
-62.14389882847259
 20
-3.968750000000043
 30
0.0
 11
-62.14389882847269
 21
24.57274999999995
 31
0.0
 70
   160
  1
%%c<>
 71
     2
 42
7.937499999999986
 52
-270.0
  3
SLDDIMSTYLE0
100
AcDbAlignedDimension
 13
-49.51499999999999
 23
3.96874999999999
 33
0.0
 14
-49.51499999999999
 24
-3.968749999999996
 34
0.0
 50
90.0000000000002
100
AcDbRotatedDimension
1001
ACAD
1000
DSTYLE
1002
{
1070
   171
1070
     6
1070
   273
1070
     5
1002
}
  0
DIMENSION
  5
FA
330
1F
100
AcDbEntity
  8
치수문자_일반주서
100
AcDbDimension
  2
_D_1
 10
10.0
 20
17.14173740376559
 30
0.0
 11
30.63750000000001
 21
17.14173740376559
 31
0.0
 70
   160
  1
<>
 71
     2
 42
41.27500000000001
  3
SLDDIMSTYLE0
100
AcDbAlignedDimension
 13
51.27500000000001
 23
3.968203059813666
 33
0.0
 14
10.0
 24
3.968749999999997
 34
0.0
 50
0.0000000000000049
100
AcDbRotatedDimension
1001
ACAD
1000
DSTYLE
1002
{
1070
   171
1070
     6
1070
   273
1070
     5
1002
}
  0
DIMENSION
  5
10F
330
1F
100
AcDbEntity
  8
치수문자_일반주서
100
AcDbDimension
  2
_D_2
 10
-50.325
 20
34.29163864014821
 30
0.0
 11
0.4749999999998575
 21
34.29163864014821
 31
0.0
 70
   160
  1
<>
 71
     2
 42
101.6
  3
SLDDIMSTYLE0
100
AcDbAlignedDimension
 13
51.27499999999999
 23
3.968203059813666
 33
0.0
 14
-50.325
 24
3.15874999999999
 34
0.0
100
AcDbRotatedDimension
1001
ACAD
1000
DSTYLE
1002
{
1070
   171
1070
     6
1070
   273
1070
     5
1002
}
  0
DIMENSION
  5
123
330
1F
100
AcDbEntity
  8
치수문자_일반주서
100
AcDbDimension
  2
_D_3
 10
66.28889942703925
 20
3.968203059813725
 30
0.0
 11
66.28889942703918
 21
24.57220305981372
 31
0.0
 70
   160
  1
%%c<>
 71
     2
 42
7.936953059813669
 52
-270.0
  3
SLDDIMSTYLE0
100
AcDbAlignedDimension
 13
51.27500000000001
 23
-3.968750000000003
 33
0.0
 14
51.27500000000001
 24
3.968203059813666
 34
0.0
 50
90.0000000000002
100
AcDbRotatedDimension
1001
ACAD
1000
DSTYLE
1002
{
1070
   171
1070
     6
1070
   273
1070
     5
1002
}
  0
LINE
  5
136
330
1F
100
AcDbEntity
  8
참조1
100
AcDbLine
 10
77.82153940838579
 20
7.441074928723896
 30
0.0
 11
77.82153940838579
 21
-7.438925071276109
 31
0.0
  0
LINE
  5
137
330
1F
100
AcDbEntity
  8
참조1
100
AcDbLine
 10
90.52153940838579
 20
5.441074928723896
 30
0.0
 11
77.82153940838579
 21
5.441074928723896
 31
0.0
  0
SOLID
  5
138
330
1F
100
AcDbEntity
  8
참조1
100
AcDbTrace
 10
77.82153940838579
 20
5.441074928723896
 30
0.0
 11
84.17153940838578
 21
4.425074928723896
 31
0.0
 12
84.17153940838578
 22
6.457074928723896
 32
0.0
 13
84.17153940838578
 23
6.457074928723896
 33
0.0
  0
LINE
  5
139
330
1F
100
AcDbEntity
  8
참조1
100
AcDbLine
 10
90.52153940838579
 20
-5.438925071276109
 30
0.0
 11
77.82153940838579
 21
-5.438925071276109
 31
0.0
  0
SOLID
  5
13A
330
1F
100
AcDbEntity
  8
참조1
100
AcDbTrace
 10
77.82153940838579
 20
-5.438925071276109
 30
0.0
 11
84.17153940838578
 21
-6.454925071276109
 31
0.0
 12
84.17153940838578
 22
-4.422925071276109
 32
0.0
 13
84.17153940838578
 23
-4.422925071276109
 33
0.0
  0
MTEXT
  5
13B
330
1F
100
AcDbEntity
  8
참조1
100
AcDbMText
 10
87.20588954101179
 20
11.01136670591222
 30
0.0
 40
3.5
 41
0.0
 71
     1
 72
     1
  1
A
  7
SLDTEXTSTYLE0
 73
     1
 44
1.0
  0
MTEXT
  5
13C
330
1F
100
AcDbEntity
  8
참조1
100
AcDbMText
 10
87.20588954101179
 20
0.1313667059122192
 30
0.0
 40
3.5
 41
0.0
 71
     1
 72
     1
  1
A
  7
SLDTEXTSTYLE0
 73
     1
 44
1.0
  0
INSERT
  5
143
330
1F
100
AcDbEntity
  8
해칭선
100
AcDbBlockReference
  2
SW_DOWELSYMBOL_0
 10
0.0
 20
0.0
 30
0.0
  0
ENDSEC
  0
SECTION
  2
OBJECTS
  0
DICTIONARY
  5
C
330
0
100
AcDbDictionary
281
     1
  3
ACAD_GROUP
350
D
  3
ACAD_IMAGE_VARS
350
167
  3
ACAD_LAYOUT
350
1A
  3
ACAD_MLINESTYLE
350
17
  3
ACAD_PLOTSETTINGS
350
19
  3
ACAD_PLOTSTYLENAME
350
E
  3
ACAD_SCALELIST
350
47
  3
APPDATA
350
165
  3
DWGPROPS
350
2DD
  0
DICTIONARY
  5
221
330
2
100
AcDbDictionary
280
     1
281
     1
  3
ACAD_LAYERSTATES
360
222
  0
DICTIONARY
  5
D
102
{ACAD_REACTORS
330
C
102
}
330
C
100
AcDbDictionary
281
     1
  0
RASTERVARIABLES
  5
167
102
{ACAD_REACTORS
330
C
102
}
330
C
100
AcDbRasterVariables
 90
        0
 70
     1
 71
     1
 72
     1
  0
DICTIONARY
  5
1A
102
{ACAD_REACTORS
330
C
102
}
330
C
100
AcDbDictionary
281
     1
  3
Layout1
350
1E
  3
Layout2
350
26
  3
Model
350
22
  0
DICTIONARY
  5
17
102
{ACAD_REACTORS
330
C
102
}
330
C
100
AcDbDictionary
281
     1
  3
Standard
350
18
  0
DICTIONARY
  5
19
102
{ACAD_REACTORS
330
C
102
}
330
C
100
AcDbDictionary
281
     1
  0
ACDBDICTIONARYWDFLT
  5
E
102
{ACAD_REACTORS
330
C
102
}
330
C
100
AcDbDictionary
281
     1
  3
Normal
350
F
100
AcDbDictionaryWithDefault
340
F
  0
DICTIONARY
  5
47
102
{ACAD_REACTORS
330
C
102
}
330
C
100
AcDbDictionary
281
     1
  3
A0
350
48
  3
A1
350
49
  3
A2
350
4A
  3
A3
350
4B
  3
A4
350
4C
  3
A5
350
4D
  3
A6
350
4E
  3
A7
350
4F
  3
A8
350
50
  3
A9
350
51
  3
B0
350
52
  3
B1
350
53
  3
B2
350
54
  3
B3
350
55
  3
B4
350
56
  3
B5
350
57
  3
B6
350
58
  3
B7
350
59
  3
B8
350
5A
  3
B9
350
5B
  3
C0
350
5C
  3
C1
350
5D
  3
C2
350
5E
  3
C3
350
5F
  3
C4
350
60
  3
C5
350
61
  3
C6
350
62
  3
C7
350
63
  3
C8
350
64
  3
C9
350
65
  3
D0
350
66
  3
D1
350
67
  3
D2
350
68
  0
DICTIONARY
  5
165
102
{ACAD_REACTORS
330
C
102
}
330
C
100
AcDbDictionary
281
     1
  0
XRECORD
  5
2DD
102
{ACAD_REACTORS
330
C
102
}
330
C
100
AcDbXrecord
280
     1
  1
DWGPROPS COOKIE
  2

  3

  4

  6

  7

  8
12014074
  9

300
=
301
=
302
=
303
=
304
=
305
=
306
=
307
=
308
=
309
=
 40
0.0
 41
2458311.118971632
 42
2458320.273251759
  1

 90
        0
  0
DICTIONARY
  5
222
102
{ACAD_REACTORS
330
221
102
}
330
221
100
AcDbDictionary
281
     1
  0
LAYOUT
  5
1E
102
{ACAD_REACTORS
330
1A
102
}
330
1A
100
AcDbPlotSettings
  1

  2
none_device
  4

  6

 40
0.0
 41
0.0
 42
0.0
 43
0.0
 44
0.0
 45
0.0
 46
0.0
 47
0.0
 48
0.0
 49
0.0
140
0.0
141
0.0
142
1.0
143
1.0
 70
   688
 72
     1
 73
     0
 74
     5
  7

 75
    16
147
1.0
148
0.0
149
0.0
100
AcDbLayout
  1
Layout1
 70
     1
 71
     1
 10
0.0
 20
0.0
 11
420.0
 21
297.0
 12
0.0
 22
0.0
 32
0.0
 14
1.000000000000000E+20
 24
1.000000000000000E+20
 34
1.000000000000000E+20
 15
-1.000000000000000E+20
 25
-1.000000000000000E+20
 35
-1.000000000000000E+20
146
0.0
 13
0.0
 23
0.0
 33
0.0
 16
1.0
 26
0.0
 36
0.0
 17
0.0
 27
1.0
 37
0.0
 76
     0
330
1B
  0
LAYOUT
  5
26
102
{ACAD_REACTORS
330
1A
102
}
330
1A
100
AcDbPlotSettings
  1

  2
none_device
  4

  6

 40
0.0
 41
0.0
 42
0.0
 43
0.0
 44
0.0
 45
0.0
 46
0.0
 47
0.0
 48
0.0
 49
0.0
140
0.0
141
0.0
142
1.0
143
1.0
 70
   688
 72
     1
 73
     0
 74
     5
  7

 75
    16
147
1.0
148
0.0
149
0.0
100
AcDbLayout
  1
Layout2
 70
     1
 71
     2
 10
0.0
 20
0.0
 11
0.0
 21
0.0
 12
0.0
 22
0.0
 32
0.0
 14
0.0
 24
0.0
 34
0.0
 15
0.0
 25
0.0
 35
0.0
146
0.0
 13
0.0
 23
0.0
 33
0.0
 16
1.0
 26
0.0
 36
0.0
 17
0.0
 27
1.0
 37
0.0
 76
     0
330
23
  0
LAYOUT
  5
22
102
{ACAD_REACTORS
330
1A
102
}
330
1A
100
AcDbPlotSettings
  1

  2
none_device
  4
ANSI_A_(11.00_x_8.50_Inches)
  6

 40
6.35
 41
19.05
 42
6.35000508
 43
19.05000254
 44
279.4
 45
215.9
 46
103.1845720418876
 47
93.31364224940394
 48
0.0
 49
0.0
140
0.0
141
0.0
142
0.0617382540607552
143
1.0
 70
  1696
 72
     0
 73
     0
 74
     0
  7

 75
     0
147
0.0235690232323232
148
0.0
149
0.0
100
AcDbLayout
  1
Model
 70
     1
 71
     0
 10
0.0
 20
0.0
 11
420.0
 21
297.0
 12
0.0
 22
0.0
 32
0.0
 14
1.000000000000000E+20
 24
1.000000000000000E+20
 34
1.000000000000000E+20
 15
-1.000000000000000E+20
 25
-1.000000000000000E+20
 35
-1.000000000000000E+20
146
0.0
 13
0.0
 23
0.0
 33
0.0
 16
1.0
 26
0.0
 36
0.0
 17
0.0
 27
1.0
 37
0.0
 76
     0
330
1F
331
29
  0
MLINESTYLE
  5
18
102
{ACAD_REACTORS
330
17
102
}
330
17
100
AcDbMlineStyle
  2
Standard
 70
     0
  3

 62
   256
 51
90.0
 52
90.0
 71
     2
 49
0.5
 62
   256
  6
BYLAYER
 49
-0.5
 62
   256
  6
BYLAYER
  0
ACDBPLACEHOLDER
  5
F
102
{ACAD_REACTORS
330
E
102
}
330
E
  0
SCALE
  5
48
102
{ACAD_REACTORS
330
47
102
}
330
47
100
AcDbScale
 70
     0
300
1:1
140
1.0
141
1.0
290
     1
  0
SCALE
  5
49
102
{ACAD_REACTORS
330
47
102
}
330
47
100
AcDbScale
 70
     0
300
1:2
140
1.0
141
2.0
290
     0
  0
SCALE
  5
4A
102
{ACAD_REACTORS
330
47
102
}
330
47
100
AcDbScale
 70
     0
300
1:4
140
1.0
141
4.0
290
     0
  0
SCALE
  5
4B
102
{ACAD_REACTORS
330
47
102
}
330
47
100
AcDbScale
 70
     0
300
1:5
140
1.0
141
5.0
290
     0
  0
SCALE
  5
4C
102
{ACAD_REACTORS
330
47
102
}
330
47
100
AcDbScale
 70
     0
300
1:8
140
1.0
141
8.0
290
     0
  0
SCALE
  5
4D
102
{ACAD_REACTORS
330
47
102
}
330
47
100
AcDbScale
 70
     0
300
1:10
140
1.0
141
10.0
290
     0
  0
SCALE
  5
4E
102
{ACAD_REACTORS
330
47
102
}
330
47
100
AcDbScale
 70
     0
300
1:16
140
1.0
141
16.0
290
     0
  0
SCALE
  5
4F
102
{ACAD_REACTORS
330
47
102
}
330
47
100
AcDbScale
 70
     0
300
1:20
140
1.0
141
20.0
290
     0
  0
SCALE
  5
50
102
{ACAD_REACTORS
330
47
102
}
330
47
100
AcDbScale
 70
     0
300
1:30
140
1.0
141
30.0
290
     0
  0
SCALE
  5
51
102
{ACAD_REACTORS
330
47
102
}
330
47
100
AcDbScale
 70
     0
300
1:40
140
1.0
141
40.0
290
     0
  0
SCALE
  5
52
102
{ACAD_REACTORS
330
47
102
}
330
47
100
AcDbScale
 70
     0
300
1:50
140
1.0
141
50.0
290
     0
  0
SCALE
  5
53
102
{ACAD_REACTORS
330
47
102
}
330
47
100
AcDbScale
 70
     0
300
1:100
140
1.0
141
100.0
290
     0
  0
SCALE
  5
54
102
{ACAD_REACTORS
330
47
102
}
330
47
100
AcDbScale
 70
     0
300
2:1
140
2.0
141
1.0
290
     0
  0
SCALE
  5
55
102
{ACAD_REACTORS
330
47
102
}
330
47
100
AcDbScale
 70
     0
300
4:1
140
4.0
141
1.0
290
     0
  0
SCALE
  5
56
102
{ACAD_REACTORS
330
47
102
}
330
47
100
AcDbScale
 70
     0
300
8:1
140
8.0
141
1.0
290
     0
  0
SCALE
  5
57
102
{ACAD_REACTORS
330
47
102
}
330
47
100
AcDbScale
 70
     0
300
10:1
140
10.0
141
1.0
290
     0
  0
SCALE
  5
58
102
{ACAD_REACTORS
330
47
102
}
330
47
100
AcDbScale
 70
     0
300
100:1
140
100.0
141
1.0
290
     0
  0
SCALE
  5
59
102
{ACAD_REACTORS
330
47
102
}
330
47
100
AcDbScale
 70
     0
300
1/128" = 1'-0"
140
0.0078125
141
12.0
290
     0
  0
SCALE
  5
5A
102
{ACAD_REACTORS
330
47
102
}
330
47
100
AcDbScale
 70
     0
300
1/64" = 1'-0"
140
0.015625
141
12.0
290
     0
  0
SCALE
  5
5B
102
{ACAD_REACTORS
330
47
102
}
330
47
100
AcDbScale
 70
     0
300
1/32" = 1'-0"
140
0.03125
141
12.0
290
     0
  0
SCALE
  5
5C
102
{ACAD_REACTORS
330
47
102
}
330
47
100
AcDbScale
 70
     0
300
1/16" = 1'-0"
140
0.0625
141
12.0
290
     0
  0
SCALE
  5
5D
102
{ACAD_REACTORS
330
47
102
}
330
47
100
AcDbScale
 70
     0
300
3/32" = 1'-0"
140
0.09375
141
12.0
290
     0
  0
SCALE
  5
5E
102
{ACAD_REACTORS
330
47
102
}
330
47
100
AcDbScale
 70
     0
300
1/8" = 1'-0"
140
0.125
141
12.0
290
     0
  0
SCALE
  5
5F
102
{ACAD_REACTORS
330
47
102
}
330
47
100
AcDbScale
 70
     0
300
3/16" = 1'-0"
140
0.1875
141
12.0
290
     0
  0
SCALE
  5
60
102
{ACAD_REACTORS
330
47
102
}
330
47
100
AcDbScale
 70
     0
300
1/4" = 1'-0"
140
0.25
141
12.0
290
     0
  0
SCALE
  5
61
102
{ACAD_REACTORS
330
47
102
}
330
47
100
AcDbScale
 70
     0
300
3/8" = 1'-0"
140
0.375
141
12.0
290
     0
  0
SCALE
  5
62
102
{ACAD_REACTORS
330
47
102
}
330
47
100
AcDbScale
 70
     0
300
1/2" = 1'-0"
140
0.5
141
12.0
290
     0
  0
SCALE
  5
63
102
{ACAD_REACTORS
330
47
102
}
330
47
100
AcDbScale
 70
     0
300
3/4" = 1'-0"
140
0.75
141
12.0
290
     0
  0
SCALE
  5
64
102
{ACAD_REACTORS
330
47
102
}
330
47
100
AcDbScale
 70
     0
300
1" = 1'-0"
140
1.0
141
12.0
290
     0
  0
SCALE
  5
65
102
{ACAD_REACTORS
330
47
102
}
330
47
100
AcDbScale
 70
     0
300
1-1/2" = 1'-0"
140
1.5
141
12.0
290
     0
  0
SCALE
  5
66
102
{ACAD_REACTORS
330
47
102
}
330
47
100
AcDbScale
 70
     0
300
3" = 1'-0"
140
3.0
141
12.0
290
     0
  0
SCALE
  5
67
102
{ACAD_REACTORS
330
47
102
}
330
47
100
AcDbScale
 70
     0
300
6" = 1'-0"
140
6.0
141
12.0
290
     0
  0
SCALE
  5
68
102
{ACAD_REACTORS
330
47
102
}
330
47
100
AcDbScale
 70
     0
300
1'-0" = 1'-0"
140
12.0
141
12.0
290
     0
  0
ENDSEC
  0
EOF
