  0
SECTION
  2
HEADER
  9
$ACADVER
  1
AC1015
  9
$ACADMAINTVER
 70
     6
  9
$DWGCODEPAGE
  3
ANSI_949
  9
$INSBASE
 10
0.0
 20
0.0
 30
0.0
  9
$EXTMIN
 10
1.000000000000000E+20
 20
1.000000000000000E+20
 30
1.000000000000000E+20
  9
$EXTMAX
 10
-1.000000000000000E+20
 20
-1.000000000000000E+20
 30
-1.000000000000000E+20
  9
$LIMMIN
 10
0.0
 20
0.0
  9
$LIMMAX
 10
420.0
 20
297.0
  9
$ORTHOMODE
 70
     1
  9
$REGENMODE
 70
     1
  9
$FILLMODE
 70
     1
  9
$QTEXTMODE
 70
     0
  9
$MIRRTEXT
 70
     1
  9
$LTSCALE
 40
1.0
  9
$ATTMODE
 70
     1
  9
$TEXTSIZE
 40
3.5
  9
$TRACEWID
 40
1.0
  9
$TEXTSTYLE
  7
Standard
  9
$CLAYER
  8
0
  9
$CELTYPE
  6
ByLayer
  9
$CECOLOR
 62
   256
  9
$CELTSCALE
 40
1.0
  9
$DISPSILH
 70
     0
  9
$DIMSCALE
 40
1.0
  9
$DIMASZ
 40
3.302
  9
$DIMEXO
 40
1.0
  9
$DIMDLI
 40
3.75
  9
$DIMRND
 40
0.0
  9
$DIMDLE
 40
0.0
  9
$DIMEXE
 40
1.0
  9
$DIMTP
 40
0.0
  9
$DIMTM
 40
0.0
  9
$DIMTXT
 40
3.5
  9
$DIMCEN
 40
2.5
  9
$DIMTSZ
 40
0.0
  9
$DIMTOL
 70
     0
  9
$DIMLIM
 70
     0
  9
$DIMTIH
 70
     1
  9
$DIMTOH
 70
     1
  9
$DIMSE1
 70
     0
  9
$DIMSE2
 70
     0
  9
$DIMTAD
 70
     1
  9
$DIMZIN
 70
     0
  9
$DIMBLK
  1

  9
$DIMASO
 70
     1
  9
$DIMSHO
 70
     1
  9
$DIMPOST
  1

  9
$DIMAPOST
  1

  9
$DIMALT
 70
     0
  9
$DIMALTD
 70
     3
  9
$DIMALTF
 40
0.0393700787401575
  9
$DIMLFAC
 40
1.0
  9
$DIMTOFL
 70
     1
  9
$DIMTVP
 40
0.0
  9
$DIMTIX
 70
     0
  9
$DIMSOXD
 70
     0
  9
$DIMSAH
 70
     0
  9
$DIMBLK1
  1

  9
$DIMBLK2
  1

  9
$DIMSTYLE
  2
ISO-25
  9
$DIMCLRD
 70
     0
  9
$DIMCLRE
 70
     0
  9
$DIMCLRT
 70
     0
  9
$DIMTFAC
 40
1.0
  9
$DIMGAP
 40
1.524
  9
$DIMJUST
 70
     0
  9
$DIMSD1
 70
     0
  9
$DIMSD2
 70
     0
  9
$DIMTOLJ
 70
     0
  9
$DIMTZIN
 70
     0
  9
$DIMALTZ
 70
     0
  9
$DIMALTTZ
 70
     0
  9
$DIMUPT
 70
     0
  9
$DIMDEC
 70
     2
  9
$DIMTDEC
 70
     2
  9
$DIMALTU
 70
     2
  9
$DIMALTTD
 70
     3
  9
$DIMTXSTY
  7
Standard
  9
$DIMAUNIT
 70
     0
  9
$DIMADEC
 70
     2
  9
$DIMALTRND
 40
0.0
  9
$DIMAZIN
 70
     0
  9
$DIMDSEP
 70
    44
  9
$DIMATFIT
 70
     3
  9
$DIMFRAC
 70
     0
  9
$DIMLDRBLK
  1

  9
$DIMLUNIT
 70
     2
  9
$DIMLWD
 70
    -2
  9
$DIMLWE
 70
    -2
  9
$DIMTMOVE
 70
     0
  9
$LUNITS
 70
     2
  9
$LUPREC
 70
     2
  9
$SKETCHINC
 40
1.0
  9
$FILLETRAD
 40
10.0
  9
$AUNITS
 70
     0
  9
$AUPREC
 70
     2
  9
$MENU
  1
.
  9
$ELEVATION
 40
0.0
  9
$PELEVATION
 40
0.0
  9
$THICKNESS
 40
0.0
  9
$LIMCHECK
 70
     0
  9
$CHAMFERA
 40
0.0
  9
$CHAMFERB
 40
0.0
  9
$CHAMFERC
 40
0.0
  9
$CHAMFERD
 40
0.0
  9
$SKPOLY
 70
     0
  9
$TDCREATE
 40
2458311.493759838
  9
$TDUCREATE
 40
2458311.118759838
  9
$TDUPDATE
 40
2458320.646459595
  9
$TDUUPDATE
 40
2458320.271459595
  9
$TDINDWG
 40
0.0041230787
  9
$TDUSRTIMER
 40
2458320.267336724
  9
$USRTIMER
 70
     1
  9
$ANGBASE
 50
0.0
  9
$ANGDIR
 70
     0
  9
$PDMODE
 70
     0
  9
$PDSIZE
 40
-1.0
  9
$PLINEWID
 40
0.0
  9
$SPLFRAME
 70
     0
  9
$SPLINETYPE
 70
     6
  9
$SPLINESEGS
 70
     8
  9
$HANDSEED
  5
2E6
  9
$SURFTAB1
 70
     6
  9
$SURFTAB2
 70
     6
  9
$SURFTYPE
 70
     6
  9
$SURFU
 70
     6
  9
$SURFV
 70
     6
  9
$UCSBASE
  2

  9
$UCSNAME
  2

  9
$UCSORG
 10
0.0
 20
0.0
 30
0.0
  9
$UCSXDIR
 10
1.0
 20
0.0
 30
0.0
  9
$UCSYDIR
 10
0.0
 20
1.0
 30
0.0
  9
$UCSORTHOREF
  2

  9
$UCSORTHOVIEW
 70
     0
  9
$UCSORGTOP
 10
0.0
 20
0.0
 30
0.0
  9
$UCSORGBOTTOM
 10
0.0
 20
0.0
 30
0.0
  9
$UCSORGLEFT
 10
0.0
 20
0.0
 30
0.0
  9
$UCSORGRIGHT
 10
0.0
 20
0.0
 30
0.0
  9
$UCSORGFRONT
 10
0.0
 20
0.0
 30
0.0
  9
$UCSORGBACK
 10
0.0
 20
0.0
 30
0.0
  9
$PUCSBASE
  2

  9
$PUCSNAME
  2

  9
$PUCSORG
 10
0.0
 20
0.0
 30
0.0
  9
$PUCSXDIR
 10
1.0
 20
0.0
 30
0.0
  9
$PUCSYDIR
 10
0.0
 20
1.0
 30
0.0
  9
$PUCSORTHOREF
  2

  9
$PUCSORTHOVIEW
 70
     0
  9
$PUCSORGTOP
 10
0.0
 20
0.0
 30
0.0
  9
$PUCSORGBOTTOM
 10
0.0
 20
0.0
 30
0.0
  9
$PUCSORGLEFT
 10
0.0
 20
0.0
 30
0.0
  9
$PUCSORGRIGHT
 10
0.0
 20
0.0
 30
0.0
  9
$PUCSORGFRONT
 10
0.0
 20
0.0
 30
0.0
  9
$PUCSORGBACK
 10
0.0
 20
0.0
 30
0.0
  9
$USERI1
 70
     0
  9
$USERI2
 70
     0
  9
$USERI3
 70
     0
  9
$USERI4
 70
     0
  9
$USERI5
 70
     0
  9
$USERR1
 40
0.0
  9
$USERR2
 40
0.0
  9
$USERR3
 40
0.0
  9
$USERR4
 40
0.0
  9
$USERR5
 40
0.0
  9
$WORLDVIEW
 70
     1
  9
$SHADEDGE
 70
     3
  9
$SHADEDIF
 70
    70
  9
$TILEMODE
 70
     1
  9
$MAXACTVP
 70
    64
  9
$PINSBASE
 10
0.0
 20
0.0
 30
0.0
  9
$PLIMCHECK
 70
     0
  9
$PEXTMIN
 10
1.000000000000000E+20
 20
1.000000000000000E+20
 30
1.000000000000000E+20
  9
$PEXTMAX
 10
-1.000000000000000E+20
 20
-1.000000000000000E+20
 30
-1.000000000000000E+20
  9
$PLIMMIN
 10
0.0
 20
0.0
  9
$PLIMMAX
 10
0.0
 20
0.0
  9
$UNITMODE
 70
     0
  9
$VISRETAIN
 70
     1
  9
$PLINEGEN
 70
     0
  9
$PSLTSCALE
 70
     1
  9
$TREEDEPTH
 70
  3020
  9
$CMLSTYLE
  2
Standard
  9
$CMLJUST
 70
     0
  9
$CMLSCALE
 40
20.0
  9
$PROXYGRAPHICS
 70
     1
  9
$MEASUREMENT
 70
     1
  9
$CELWEIGHT
370
    -1
  9
$ENDCAPS
280
     0
  9
$JOINSTYLE
280
     0
  9
$LWDISPLAY
290
     1
  9
$INSUNITS
 70
     4
  9
$HYPERLINKBASE
  1

  9
$STYLESHEET
  1

  9
$XEDIT
290
     1
  9
$CEPSNTYPE
380
     0
  9
$PSTYLEMODE
290
     1
  9
$FINGERPRINTGUID
  2
{07819DFE-80B6-47C9-8CED-8D442759E261}
  9
$VERSIONGUID
  2
{FAEB1C32-E019-11D5-929B-00C0DF256EC4}
  9
$EXTNAMES
290
     1
  9
$PSVPSCALE
 40
0.0
  9
$OLESTARTUP
290
     0
  0
ENDSEC
  0
SECTION
  2
CLASSES
  0
CLASS
  1
ACDBDICTIONARYWDFLT
  2
AcDbDictionaryWithDefault
  3
ObjectDBX Classes
 90
        0
280
     0
281
     0
  0
CLASS
  1
VISUALSTYLE
  2
AcDbVisualStyle
  3
ObjectDBX Classes
 90
     4095
280
     0
281
     0
  0
CLASS
  1
MATERIAL
  2
AcDbMaterial
  3
ObjectDBX Classes
 90
     1153
280
     0
281
     0
  0
CLASS
  1
SCALE
  2
AcDbScale
  3
ObjectDBX Classes
 90
     1153
280
     0
281
     0
  0
CLASS
  1
SUN
  2
AcDbSun
  3
SCENEOE
 90
     1153
280
     0
281
     0
  0
CLASS
  1
ACDBPLACEHOLDER
  2
AcDbPlaceHolder
  3
ObjectDBX Classes
 90
        0
280
     0
281
     0
  0
CLASS
  1
LAYOUT
  2
AcDbLayout
  3
ObjectDBX Classes
 90
        0
280
     0
281
     0
  0
CLASS
  1
TABLESTYLE
  2
AcDbTableStyle
  3
ObjectDBX Classes
 90
     4095
280
     0
281
     0
  0
CLASS
  1
MLEADERSTYLE
  2
AcDbMLeaderStyle
  3
ACDB_MLEADERSTYLE_CLASS
 90
     4095
280
     0
281
     0
  0
CLASS
  1
RASTERVARIABLES
  2
AcDbRasterVariables
  3
ISM
 90
        0
280
     0
281
     0
  0
ENDSEC
  0
SECTION
  2
TABLES
  0
TABLE
  2
VPORT
  5
8
330
0
100
AcDbSymbolTable
 70
     1
  0
VPORT
  5
29
330
8
100
AcDbSymbolTableRecord
100
AcDbViewportTableRecord
  2
*Active
 70
     0
 10
0.0
 20
0.0
 11
1.0
 21
1.0
 12
1.054336328416923
 22
2.983528789223342
 13
0.0
 23
0.0
 14
10.0
 24
10.0
 15
10.0
 25
10.0
 16
0.0
 26
0.0
 36
1.0
 17
0.0
 27
0.0
 37
0.0
 40
98.34816804865031
 41
1.970186335403727
 42
50.0
 43
0.0
 44
0.0
 50
0.0
 51
0.0
 71
    16
 72
  2000
 73
     1
 74
     3
 75
     0
 76
     0
 77
     0
 78
     0
281
     0
 65
     1
110
0.0
120
0.0
130
0.0
111
1.0
121
0.0
131
0.0
112
0.0
122
1.0
132
0.0
 79
     0
146
0.0
  0
ENDTAB
  0
TABLE
  2
LTYPE
  5
5
330
0
100
AcDbSymbolTable
 70
     6
  0
LTYPE
  5
14
330
5
100
AcDbSymbolTableRecord
100
AcDbLinetypeTableRecord
  2
ByBlock
 70
     0
  3

 72
    65
 73
     0
 40
0.0
  0
LTYPE
  5
15
330
5
100
AcDbSymbolTableRecord
100
AcDbLinetypeTableRecord
  2
ByLayer
 70
     0
  3

 72
    65
 73
     0
 40
0.0
  0
LTYPE
  5
16
330
5
100
AcDbSymbolTableRecord
100
AcDbLinetypeTableRecord
  2
Continuous
 70
     0
  3
Solid line
 72
    65
 73
     0
 40
0.0
  0
LTYPE
  5
6A
330
5
100
AcDbSymbolTableRecord
100
AcDbLinetypeTableRecord
  2
HIDDEN
 70
     0
  3
Hidden __ __ __ __ __ __ __ __ __ __ __ __ __ __
 72
    65
 73
     2
 40
1.905
 49
1.27
 74
     0
 49
-0.635
 74
     0
  0
LTYPE
  5
6B
330
5
100
AcDbSymbolTableRecord
100
AcDbLinetypeTableRecord
  2
PHANTOM
 70
     0
  3
Phantom ______  __  __  ______  __  __  ______
 72
    65
 73
     6
 40
12.7
 49
6.35
 74
     0
 49
-1.27
 74
     0
 49
1.27
 74
     0
 49
-1.27
 74
     0
 49
1.27
 74
     0
 49
-1.27
 74
     0
  0
LTYPE
  5
6C
330
5
100
AcDbSymbolTableRecord
100
AcDbLinetypeTableRecord
  2
CENTER
 70
     0
  3
Center ____ _ ____ _ ____ _ ____ _ ____ _ ____
 72
    65
 73
     4
 40
10.16
 49
6.35
 74
     0
 49
-1.27
 74
     0
 49
1.27
 74
     0
 49
-1.27
 74
     0
  0
LTYPE
  5
6D
330
5
100
AcDbSymbolTableRecord
100
AcDbLinetypeTableRecord
  2
CENTERX2
 70
     0
  3
Center (2x) ________  __  ________  __  _____
 72
    65
 73
     4
 40
20.32
 49
12.7
 74
     0
 49
-2.54
 74
     0
 49
2.54
 74
     0
 49
-2.54
 74
     0
  0
LTYPE
  5
6E
330
5
100
AcDbSymbolTableRecord
100
AcDbLinetypeTableRecord
  2
DOT2
 70
     0
  3
Dot (.5x) ........................................
 72
    65
 73
     2
 40
0.635
 49
0.0
 74
     0
 49
-0.635
 74
     0
  0
ENDTAB
  0
TABLE
  2
LAYER
  5
2
102
{ACAD_XDICTIONARY
360
228
102
}
330
0
100
AcDbSymbolTable
 70
    18
  0
LAYER
  5
10
330
2
100
AcDbSymbolTableRecord
100
AcDbLayerTableRecord
  2
0
 70
     0
 62
     7
  6
Continuous
370
    -3
390
F
  0
LAYER
  5
6F
330
2
100
AcDbSymbolTableRecord
100
AcDbLayerTableRecord
  2
FORMAT
 70
     0
 62
     2
  6
Continuous
370
    -3
390
F
  0
LAYER
  5
70
330
2
100
AcDbSymbolTableRecord
100
AcDbLayerTableRecord
  2
외형선
 70
     0
 62
     4
  6
Continuous
370
    30
390
F
  0
LAYER
  5
71
330
2
100
AcDbSymbolTableRecord
100
AcDbLayerTableRecord
  2
숨은선
 70
     0
 62
     2
  6
HIDDEN
370
    15
390
F
  0
LAYER
  5
72
330
2
100
AcDbSymbolTableRecord
100
AcDbLayerTableRecord
  2
중심선
 70
     0
 62
     1
  6
CENTERX2
370
    -3
390
F
  0
LAYER
  5
73
330
2
100
AcDbSymbolTableRecord
100
AcDbLayerTableRecord
  2
파단선
 70
     0
 62
     4
  6
Continuous
370
    -3
390
F
  0
LAYER
  5
74
330
2
100
AcDbSymbolTableRecord
100
AcDbLayerTableRecord
  2
해칭선
 70
     0
 62
   100
  6
Continuous
370
    -3
390
F
  0
LAYER
  5
75
330
2
100
AcDbSymbolTableRecord
100
AcDbLayerTableRecord
  2
가는실선
 70
     0
 62
     4
  6
Continuous
370
    -3
390
F
  0
LAYER
  5
76
330
2
100
AcDbSymbolTableRecord
100
AcDbLayerTableRecord
  2
치수_보조선
 70
     0
 62
     4
  6
Continuous
370
    -3
390
F
  0
LAYER
  5
77
330
2
100
AcDbSymbolTableRecord
100
AcDbLayerTableRecord
  2
치수문자_일반주서
 70
     0
 62
     7
  6
Continuous
370
    15
390
F
  0
LAYER
  5
78
330
2
100
AcDbSymbolTableRecord
100
AcDbLayerTableRecord
  2
개별주서
 70
     0
 62
   100
  6
Continuous
370
    30
390
F
  0
LAYER
  5
79
330
2
100
AcDbSymbolTableRecord
100
AcDbLayerTableRecord
  2
중간선
 70
     0
 62
     2
  6
Continuous
370
    15
390
F
  0
LAYER
  5
7A
330
2
100
AcDbSymbolTableRecord
100
AcDbLayerTableRecord
  2
윤곽선
 70
     0
 62
     3
  6
Continuous
370
    40
390
F
  0
LAYER
  5
7B
330
2
100
AcDbSymbolTableRecord
100
AcDbLayerTableRecord
  2
중심마크
 70
     0
 62
   100
  6
Continuous
370
    30
390
F
  0
LAYER
  5
7C
330
2
100
AcDbSymbolTableRecord
100
AcDbLayerTableRecord
  2
가상선
 70
     0
 62
     4
  6
PHANTOM
370
    -3
390
F
  0
LAYER
  5
7D
330
2
100
AcDbSymbolTableRecord
100
AcDbLayerTableRecord
  2
특수지정선
 70
     0
 62
     5
  6
CENTERX2
370
    60
390
F
  0
LAYER
  5
7E
330
2
100
AcDbSymbolTableRecord
100
AcDbLayerTableRecord
  2
참조1
 70
     0
 62
    -4
  6
Continuous
370
    -3
390
F
  0
LAYER
  5
170
330
2
100
AcDbSymbolTableRecord
100
AcDbLayerTableRecord
  2
Defpoints
 70
     0
 62
     7
  6
Continuous
290
     0
370
    -3
390
F
  0
ENDTAB
  0
TABLE
  2
STYLE
  5
3
330
0
100
AcDbSymbolTable
 70
     2
  0
STYLE
  5
11
330
3
100
AcDbSymbolTableRecord
100
AcDbTextStyleTableRecord
  2
Standard
 70
     0
 40
0.0
 41
1.0
 50
0.0
 71
     0
 42
3.5
  3
txt
  4

  0
STYLE
  5
94
330
3
100
AcDbSymbolTableRecord
100
AcDbTextStyleTableRecord
  2
SLDTEXTSTYLE0
 70
     0
 40
0.0
 41
0.75
 50
0.0
 71
     0
 42
3.5
  3
TXT
  4

  0
ENDTAB
  0
TABLE
  2
VIEW
  5
6
330
0
100
AcDbSymbolTable
 70
     0
  0
ENDTAB
  0
TABLE
  2
UCS
  5
7
330
0
100
AcDbSymbolTable
 70
     0
  0
ENDTAB
  0
TABLE
  2
APPID
  5
9
330
0
100
AcDbSymbolTable
 70
     3
  0
APPID
  5
12
330
9
100
AcDbSymbolTableRecord
100
AcDbRegAppTableRecord
  2
ACAD
 70
     0
  0
APPID
  5
17C
330
9
100
AcDbSymbolTableRecord
100
AcDbRegAppTableRecord
  2
PE_URL
 70
     0
  0
APPID
  5
17D
330
9
100
AcDbSymbolTableRecord
100
AcDbRegAppTableRecord
  2
ACAD_DSTYLE_DIMRADIAL_EXTENSION
 70
     0
  0
ENDTAB
  0
TABLE
  2
DIMSTYLE
  5
A
330
0
100
AcDbSymbolTable
 70
     4
100
AcDbDimStyleTable
  0
DIMSTYLE
105
27
330
A
100
AcDbSymbolTableRecord
100
AcDbDimStyleTableRecord
  2
ISO-25
 70
     0
 41
2.5
 42
0.625
 43
3.75
 44
1.25
 73
     0
 74
     0
 77
     1
 78
     8
140
2.5
141
2.5
143
0.03937007874016
147
0.625
171
     3
172
     1
178
     0
271
     2
272
     2
274
     3
278
    44
283
     0
284
     8
340
11
  0
DIMSTYLE
105
ED
102
{ACAD_REACTORS
330
EC
330
129
330
1DC
330
1E9
330
101
330
116
102
}
330
A
100
AcDbSymbolTableRecord
100
AcDbDimStyleTableRecord
  2
SLDDIMSTYLE0
 70
     0
 41
3.302
 44
0.0
 45
0.000000001
 73
     0
 74
     0
 77
     1
 78
    12
 79
     3
140
3.5
143
0.0393700787401575
147
0.875
148
0.000000001
170
     1
172
     1
173
     1
178
     0
271
     2
272
     2
276
     2
284
    12
289
     0
340
94
  0
DIMSTYLE
105
102
102
{ACAD_REACTORS
330
21F
102
}
330
A
100
AcDbSymbolTableRecord
100
AcDbDimStyleTableRecord
  2
SLDDIMSTYLE1
 70
     0
 41
3.302
 44
0.0
 45
0.000000001
 73
     0
 74
     0
 77
     1
 78
     4
 79
     1
140
3.5
143
0.0393700787401575
147
0.875
148
0.000000001
170
     1
173
     1
178
     0
271
     2
272
     2
276
     2
284
    12
340
94
  0
DIMSTYLE
105
17B
102
{ACAD_REACTORS
330
1F6
330
205
102
}
330
A
100
AcDbSymbolTableRecord
100
AcDbDimStyleTableRecord
  2
SLDDIMSTYLE2
 70
     0
 41
3.302
 44
0.0
 45
0.000000001
 73
     0
 74
     0
 77
     1
 78
    12
 79
     3
140
3.5
147
0.875
172
     1
173
     1
178
     0
271
     2
272
     2
276
     2
284
    12
289
     0
340
94
  0
ENDTAB
  0
TABLE
  2
BLOCK_RECORD
  5
1
330
0
100
AcDbSymbolTable
 70
    18
  0
BLOCK_RECORD
  5
1F
330
1
100
AcDbSymbolTableRecord
100
AcDbBlockTableRecord
  2
*Model_Space
340
22
  0
BLOCK_RECORD
  5
1B
330
1
100
AcDbSymbolTableRecord
100
AcDbBlockTableRecord
  2
*Paper_Space
340
1E
  0
BLOCK_RECORD
  5
23
330
1
100
AcDbSymbolTableRecord
100
AcDbBlockTableRecord
  2
*Paper_Space0
340
26
  0
BLOCK_RECORD
  5
7F
330
1
100
AcDbSymbolTableRecord
100
AcDbBlockTableRecord
  2
블럭10
340
0
102
{BLKREFS
331
E5
102
}
  0
BLOCK_RECORD
  5
EE
330
1
100
AcDbSymbolTableRecord
100
AcDbBlockTableRecord
  2
_D
340
0
  0
BLOCK_RECORD
  5
103
330
1
100
AcDbSymbolTableRecord
100
AcDbBlockTableRecord
  2
_D_1
340
0
  0
BLOCK_RECORD
  5
117
330
1
100
AcDbSymbolTableRecord
100
AcDbBlockTableRecord
  2
_D_2
340
0
  0
BLOCK_RECORD
  5
12A
330
1
100
AcDbSymbolTableRecord
100
AcDbBlockTableRecord
  2
_D_3
340
0
  0
BLOCK_RECORD
  5
144
330
1
100
AcDbSymbolTableRecord
100
AcDbBlockTableRecord
  2
SW_DOWELSYMBOL_0
340
0
102
{BLKREFS
331
14A
331
214
331
0
102
}
  0
BLOCK_RECORD
  5
206
330
1
100
AcDbSymbolTableRecord
100
AcDbBlockTableRecord
  2
_D_4
340
0
  0
BLOCK_RECORD
  5
220
330
1
100
AcDbSymbolTableRecord
100
AcDbBlockTableRecord
  2
*D9
340
0
  0
BLOCK_RECORD
  5
22C
330
1
100
AcDbSymbolTableRecord
100
AcDbBlockTableRecord
  2
*D10
340
0
  0
BLOCK_RECORD
  5
238
330
1
100
AcDbSymbolTableRecord
100
AcDbBlockTableRecord
  2
*D11
340
0
  0
BLOCK_RECORD
  5
244
330
1
100
AcDbSymbolTableRecord
100
AcDbBlockTableRecord
  2
*D12
340
0
  0
BLOCK_RECORD
  5
29F
330
1
100
AcDbSymbolTableRecord
100
AcDbBlockTableRecord
  2
*D13
340
0
  0
BLOCK_RECORD
  5
2AB
330
1
100
AcDbSymbolTableRecord
100
AcDbBlockTableRecord
  2
*D14
340
0
  0
BLOCK_RECORD
  5
2B7
330
1
100
AcDbSymbolTableRecord
100
AcDbBlockTableRecord
  2
*D15
340
0
  0
BLOCK_RECORD
  5
2C5
330
1
100
AcDbSymbolTableRecord
100
AcDbBlockTableRecord
  2
*D16
340
0
  0
BLOCK_RECORD
  5
2D3
330
1
100
AcDbSymbolTableRecord
100
AcDbBlockTableRecord
  2
*D17
340
0
  0
ENDTAB
  0
ENDSEC
  0
SECTION
  2
BLOCKS
  0
BLOCK
  5
20
330
1F
100
AcDbEntity
  8
0
100
AcDbBlockBegin
  2
*Model_Space
 70
     0
 10
0.0
 20
0.0
 30
0.0
  3
*Model_Space
  1
*Model_Space
  0
ENDBLK
  5
21
330
1F
100
AcDbEntity
  8
0
100
AcDbBlockEnd
  0
BLOCK
  5
1C
330
1B
100
AcDbEntity
 67
     1
  8
0
100
AcDbBlockBegin
  2
*Paper_Space
 70
     0
 10
0.0
 20
0.0
 30
0.0
  3
*Paper_Space
  1
*Paper_Space
  0
ENDBLK
  5
1D
330
1B
100
AcDbEntity
 67
     1
  8
0
100
AcDbBlockEnd
  0
BLOCK
  5
24
330
23
100
AcDbEntity
  8
0
100
AcDbBlockBegin
  2
*Paper_Space0
 70
     0
 10
0.0
 20
0.0
 30
0.0
  3
*Paper_Space0
  1
*Paper_Space0
  0
ENDBLK
  5
25
330
23
100
AcDbEntity
  8
0
100
AcDbBlockEnd
  0
BLOCK
  5
80
330
7F
100
AcDbEntity
  8
0
100
AcDbBlockBegin
  2
블럭10
 70
     2
 10
0.0
 20
0.0
 30
0.0
  3
블럭10
  1
블럭10
  0
ELLIPSE
  5
82
330
7F
100
AcDbEntity
  8
중심선
100
AcDbEllipse
 10
20.54032771741204
 20
12.0471743016438
 30
0.0
 11
6.600054785286829
 21
-1.261213355974178E-13
 31
0.0
210
0.0
220
0.0
230
1.0
 40
0.636358354079598
 41
0.9219305317359503
 42
6.513795318482858
  0
ELLIPSE
  5
83
330
7F
100
AcDbEntity
  8
중심선
100
AcDbEllipse
 10
20.54032771746488
 20
12.04717430159265
 30
0.0
 11
3.960054785062283
 21
1.540847449632565E-10
 31
0.0
210
0.0
220
0.0
230
1.0
 40
0.3939339440162632
 41
1.131841032648279
 42
5.62031148352944
  0
LINE
  5
84
330
7F
100
AcDbEntity
  8
중심선
100
AcDbLine
 10
2.268634060543552
 20
16.24717430164393
 30
0.0
 11
5.714909304380834
 21
16.24717430164393
 31
0.0
  0
LINE
  5
85
330
7F
100
AcDbEntity
  8
중심선
100
AcDbLine
 10
5.245725140726316
 20
7.84717430164391
 30
0.0
 11
8.692000384563599
 21
7.84717430164391
 31
0.0
  0
LINE
  5
86
330
7F
100
AcDbEntity
  8
중심선
100
AcDbLine
 10
15.74043728645272
 20
16.24717430164393
 30
0.0
 11
8.692000384563599
 21
7.84717430164391
 31
0.0
  0
LINE
  5
87
330
7F
100
AcDbEntity
  8
중심선
100
AcDbLine
 10
0.1404042013395286
 20
13.71084872107135
 30
0.0
 11
3.58671253028996
 21
13.71088815037384
 31
0.0
  0
LINE
  5
88
330
7F
100
AcDbEntity
  8
중심선
100
AcDbLine
 10
2.750260043222114
 20
10.84717430164391
 30
0.0
 11
6.196535287059397
 21
10.84717430164391
 31
0.0
  0
LINE
  5
89
330
7F
100
AcDbEntity
  8
중심선
100
AcDbLine
 10
12.29416204261559
 20
16.24717430164393
 30
0.0
 11
5.245725140726316
 21
7.84717430164391
 31
0.0
  0
LINE
  5
8A
330
7F
100
AcDbEntity
  8
중심선
100
AcDbLine
 10
10.72767329541681
 20
16.24717430164393
 30
0.0
 11
6.196535287059397
 21
10.84717430164391
 31
0.0
  0
LINE
  5
8B
330
7F
100
AcDbEntity
  8
중심선
100
AcDbLine
 10
7.28139805157953
 20
16.24717430164393
 30
0.0
 11
2.750260043222114
 21
10.84717430164391
 31
0.0
  0
LINE
  5
8C
330
7F
100
AcDbEntity
  8
중심선
100
AcDbLine
 10
5.714909304380834
 20
16.24717430164393
 30
0.0
 11
3.58671253028996
 21
13.71088815037384
 31
0.0
  0
LINE
  5
8D
330
7F
100
AcDbEntity
  8
중심선
100
AcDbLine
 10
2.268634060543552
 20
16.24717430164393
 30
0.0
 11
0.1404042013395286
 21
13.71084872107135
 31
0.0
  0
LINE
  5
8E
330
7F
100
AcDbEntity
  8
중심선
100
AcDbLine
 10
7.28139805157953
 20
16.24717430164393
 30
0.0
 11
10.72767329541681
 21
16.24717430164393
 31
0.0
  0
LINE
  5
8F
330
7F
100
AcDbEntity
  8
중심선
100
AcDbLine
 10
12.29416204261559
 20
16.24717430164393
 30
0.0
 11
15.74043728645272
 21
16.24717430164393
 31
0.0
  0
LINE
  5
90
330
7F
100
AcDbEntity
  8
중심선
100
AcDbLine
 10
19.22036997980202
 20
11.08717430171403
 30
0.0
 11
23.66174974927406
 21
11.08717430171406
 31
0.0
  0
LINE
  5
91
330
7F
100
AcDbEntity
  8
중심선
100
AcDbLine
 10
19.22039502424796
 20
13.00717430171391
 30
0.0
 11
19.22036997980202
 21
11.08717430171403
 31
0.0
  0
LINE
  5
92
330
7F
100
AcDbEntity
  8
중심선
100
AcDbLine
 10
19.22039502424796
 20
13.00717430171391
 30
0.0
 11
26.96566020931264
 21
13.00717430171391
 31
0.0
  0
LINE
  5
93
330
7F
100
AcDbEntity
  8
중심선
100
AcDbLine
 10
22.22332737316547
 20
13.45928029700563
 30
0.0
 11
24.52862924686651
 21
15.39360700705356
 31
0.0
  0
ATTDEF
  5
95
330
7F
100
AcDbEntity
  8
FORMAT
 62
     2
100
AcDbText
 10
4.408487351596664
 20
2.075366912832191
 30
0.0
 40
4.233333333333333
  1
E5026016
 41
0.75
  7
SLDTEXTSTYLE0
 11
4.408487351596664
 21
-0.0412997538344756
 31
0.0
100
AcDbAttributeDefinition
  3

  2
AUTOATTR0
 70
     0
 74
     1
  0
ENDBLK
  5
81
330
7F
100
AcDbEntity
  8
0
100
AcDbBlockEnd
  0
BLOCK
  5
EF
330
EE
100
AcDbEntity
  8
0
100
AcDbBlockBegin
  2
_D
 70
     0
 10
0.0
 20
0.0
 30
0.0
  3
_D
  1
_D
  0
LINE
  5
F1
330
EE
100
AcDbEntity
  8
치수문자_일반주서
 62
     0
370
    -2
100
AcDbLine
 10
-52.7525
 20
3.174999999999982
 30
0.0
 11
-64.59266836804649
 21
3.174999999999937
 31
0.0
  0
LINE
  5
F2
330
EE
100
AcDbEntity
  8
치수문자_일반주서
 62
     0
370
    -2
100
AcDbLine
 10
-52.7525
 20
-3.175000000000013
 30
0.0
 11
-64.59266836804646
 21
-3.175000000000058
 31
0.0
  0
LINE
  5
F3
330
EE
100
AcDbEntity
  8
치수문자_일반주서
 62
     0
370
    -2
100
AcDbLine
 10
-64.59266836804649
 20
3.174999999999937
 30
0.0
 11
-64.59266836804663
 21
35.81024999999994
 31
0.0
  0
LINE
  5
F4
330
EE
100
AcDbEntity
  8
치수문자_일반주서
 62
     0
370
    -2
100
AcDbLine
 10
-64.59266836804649
 20
3.174999999999937
 30
0.0
 11
-64.59266836804646
 21
-3.175000000000058
 31
0.0
  0
LINE
  5
F5
330
EE
100
AcDbEntity
  8
치수문자_일반주서
 62
     0
370
    -2
100
AcDbLine
 10
-64.5926683680465
 20
6.476999999999936
 30
0.0
 11
-64.59266836804652
 21
9.778999999999936
 31
0.0
  0
LINE
  5
F6
330
EE
100
AcDbEntity
  8
치수문자_일반주서
 62
     0
370
    -2
100
AcDbLine
 10
-64.59266836804645
 20
-6.477000000000057
 30
0.0
 11
-64.59266836804643
 21
-9.779000000000057
 31
0.0
  0
SOLID
  5
F7
330
EE
100
AcDbEntity
  8
치수문자_일반주서
 62
     0
100
AcDbTrace
 10
-65.14300170137983
 20
6.476999999999934
 30
0.0
 11
-64.04233503471318
 21
6.476999999999939
 31
0.0
 12
-64.59266836804649
 22
3.174999999999937
 32
0.0
 13
-64.59266836804649
 23
3.174999999999937
 33
0.0
  0
SOLID
  5
F8
330
EE
100
AcDbEntity
  8
치수문자_일반주서
 62
     0
100
AcDbTrace
 10
-64.04233503471312
 20
-6.477000000000054
 30
0.0
 11
-65.14300170137977
 21
-6.47700000000006
 31
0.0
 12
-64.59266836804646
 22
-3.175000000000058
 32
0.0
 13
-64.59266836804646
 23
-3.175000000000058
 33
0.0
  0
MTEXT
  5
F9
330
EE
100
AcDbEntity
  8
치수문자_일반주서
 62
     0
100
AcDbMText
 10
-68.96766836804657
 20
23.12274999999992
 30
0.0
 40
3.5
 41
0.0
 71
     2
 72
     1
  1
\A1;%%c6.35 [1/4]
  7
SLDTEXTSTYLE0
 11
-4.475859752819533E-15
 21
1.0
 31
0.0
 73
     1
 44
1.0
  0
POINT
  5
2DD
330
EE
100
AcDbEntity
  8
Defpoints
 62
     0
100
AcDbPoint
 10
-52.69
 20
3.174999999999982
 30
0.0
  0
POINT
  5
2DE
330
EE
100
AcDbEntity
  8
Defpoints
 62
     0
100
AcDbPoint
 10
-52.69
 20
-3.175000000000012
 30
0.0
  0
POINT
  5
2DF
330
EE
100
AcDbEntity
  8
Defpoints
 62
     0
100
AcDbPoint
 10
-64.59266836804649
 20
-3.175000000000057
 30
0.0
  0
ENDBLK
  5
F0
330
EE
100
AcDbEntity
  8
0
100
AcDbBlockEnd
  0
BLOCK
  5
104
330
103
100
AcDbEntity
  8
0
100
AcDbBlockBegin
  2
_D_1
 70
     0
 10
0.0
 20
0.0
 30
0.0
  3
_D_1
  1
_D_1
  0
LINE
  5
106
330
103
100
AcDbEntity
  8
치수문자_일반주서
 62
     0
370
    -2
100
AcDbLine
 10
48.09999999999972
 20
3.237499999999999
 30
0.0
 11
48.09999999999972
 21
16.34865826917705
 31
0.0
  0
LINE
  5
107
330
103
100
AcDbEntity
  8
치수문자_일반주서
 62
     0
370
    -2
100
AcDbLine
 10
10.0
 20
2.157116011873486
 30
0.0
 11
10.0
 21
16.34865826917705
 31
0.0
  0
LINE
  5
108
330
103
100
AcDbEntity
  8
치수문자_일반주서
 62
     0
370
    -2
100
AcDbLine
 10
44.79799999999972
 20
16.34865826917705
 30
0.0
 11
13.302
 21
16.34865826917705
 31
0.0
  0
SOLID
  5
109
330
103
100
AcDbEntity
  8
치수문자_일반주서
 62
     0
100
AcDbTrace
 10
44.79799999999972
 20
15.79832493584372
 30
0.0
 11
44.79799999999972
 21
16.89899160251039
 31
0.0
 12
48.09999999999972
 22
16.34865826917705
 32
0.0
 13
48.09999999999972
 23
16.34865826917705
 33
0.0
  0
SOLID
  5
10A
330
103
100
AcDbEntity
  8
치수문자_일반주서
 62
     0
100
AcDbTrace
 10
13.302
 20
16.89899160251039
 30
0.0
 11
13.302
 21
15.79832493584372
 31
0.0
 12
10.0
 22
16.34865826917705
 32
0.0
 13
10.0
 23
16.34865826917705
 33
0.0
  0
MTEXT
  5
10B
330
103
100
AcDbEntity
  8
치수문자_일반주서
 62
     0
100
AcDbMText
 10
29.05000000000001
 20
20.72365826917705
 30
0.0
 40
3.5
 41
0.0
 71
     2
 72
     1
  1
\A1;38.1 [1 1/2]
  7
SLDTEXTSTYLE0
 73
     1
 44
1.0
  0
POINT
  5
10C
330
103
100
AcDbEntity
  8
Defpoints
 62
     0
100
AcDbPoint
 10
48.09999999999972
 20
3.174999999999999
 30
0.0
  0
POINT
  5
10D
330
103
100
AcDbEntity
  8
Defpoints
 62
     0
100
AcDbPoint
 10
10.0
 20
2.094616011873486
 30
0.0
  0
POINT
  5
10E
330
103
100
AcDbEntity
  8
Defpoints
 62
     0
100
AcDbPoint
 10
10.0
 20
16.34865826917705
 30
0.0
  0
ENDBLK
  5
105
330
103
100
AcDbEntity
  8
0
100
AcDbBlockEnd
  0
BLOCK
  5
118
330
117
100
AcDbEntity
  8
0
100
AcDbBlockBegin
  2
_D_2
 70
     0
 10
0.0
 20
0.0
 30
0.0
  3
_D_2
  1
_D_2
  0
LINE
  5
11A
330
117
100
AcDbEntity
  8
치수문자_일반주서
 62
     0
370
    -2
100
AcDbLine
 10
48.09999999999972
 20
3.237499999999999
 30
0.0
 11
48.09999999999972
 21
33.53841682519539
 31
0.0
  0
LINE
  5
11B
330
117
100
AcDbEntity
  8
치수문자_일반주서
 62
     0
370
    -2
100
AcDbLine
 10
-53.5
 20
2.427499999999992
 30
0.0
 11
-53.5
 21
33.53841682519539
 31
0.0
  0
LINE
  5
11C
330
117
100
AcDbEntity
  8
치수문자_일반주서
 62
     0
370
    -2
100
AcDbLine
 10
44.79799999999972
 20
33.53841682519539
 30
0.0
 11
-50.198
 21
33.53841682519539
 31
0.0
  0
SOLID
  5
11D
330
117
100
AcDbEntity
  8
치수문자_일반주서
 62
     0
100
AcDbTrace
 10
44.79799999999972
 20
32.98808349186206
 30
0.0
 11
44.79799999999972
 21
34.08875015852873
 31
0.0
 12
48.09999999999972
 22
33.53841682519539
 32
0.0
 13
48.09999999999972
 23
33.53841682519539
 33
0.0
  0
SOLID
  5
11E
330
117
100
AcDbEntity
  8
치수문자_일반주서
 62
     0
100
AcDbTrace
 10
-50.198
 20
34.08875015852873
 30
0.0
 11
-50.198
 21
32.98808349186206
 31
0.0
 12
-53.5
 22
33.53841682519539
 32
0.0
 13
-53.5
 23
33.53841682519539
 33
0.0
  0
MTEXT
  5
11F
330
117
100
AcDbEntity
  8
치수문자_일반주서
 62
     0
100
AcDbMText
 10
-2.700000000000139
 20
37.91341682519539
 30
0.0
 40
3.5
 41
0.0
 71
     2
 72
     1
  1
\A1;101.6 [4]
  7
SLDTEXTSTYLE0
 73
     1
 44
1.0
  0
POINT
  5
120
330
117
100
AcDbEntity
  8
Defpoints
 62
     0
100
AcDbPoint
 10
48.09999999999972
 20
3.174999999999999
 30
0.0
  0
POINT
  5
121
330
117
100
AcDbEntity
  8
Defpoints
 62
     0
100
AcDbPoint
 10
-53.5
 20
2.364999999999992
 30
0.0
  0
POINT
  5
122
330
117
100
AcDbEntity
  8
Defpoints
 62
     0
100
AcDbPoint
 10
-53.5
 20
33.53841682519539
 30
0.0
  0
ENDBLK
  5
119
330
117
100
AcDbEntity
  8
0
100
AcDbBlockEnd
  0
BLOCK
  5
12B
330
12A
100
AcDbEntity
  8
0
100
AcDbBlockBegin
  2
_D_3
 70
     0
 10
0.0
 20
0.0
 30
0.0
  3
_D_3
  1
_D_3
  0
LINE
  5
12D
330
12A
100
AcDbEntity
  8
치수문자_일반주서
 62
     0
370
    -2
100
AcDbLine
 10
48.16250000000002
 20
-3.175000000000001
 30
0.0
 11
63.12358211361462
 21
-3.174999999999944
 31
0.0
  0
LINE
  5
12E
330
12A
100
AcDbEntity
  8
치수문자_일반주서
 62
     0
370
    -2
100
AcDbLine
 10
48.16249999999972
 20
3.174999999999999
 30
0.0
 11
63.1235821136146
 21
3.175000000000058
 31
0.0
  0
LINE
  5
12F
330
12A
100
AcDbEntity
  8
치수문자_일반주서
 62
     0
370
    -2
100
AcDbLine
 10
63.1235821136146
 20
3.175000000000058
 30
0.0
 11
63.12358211361449
 21
35.80756653835418
 31
0.0
  0
LINE
  5
130
330
12A
100
AcDbEntity
  8
치수문자_일반주서
 62
     0
370
    -2
100
AcDbLine
 10
63.12358211361462
 20
-3.174999999999944
 30
0.0
 11
63.1235821136146
 21
3.175000000000058
 31
0.0
  0
LINE
  5
131
330
12A
100
AcDbEntity
  8
치수문자_일반주서
 62
     0
370
    -2
100
AcDbLine
 10
63.12358211361463
 20
-6.476999999999943
 30
0.0
 11
63.12358211361465
 21
-9.778999999999943
 31
0.0
  0
LINE
  5
132
330
12A
100
AcDbEntity
  8
치수문자_일반주서
 62
     0
370
    -2
100
AcDbLine
 10
63.12358211361458
 20
6.477000000000057
 30
0.0
 11
63.12358211361457
 21
9.779000000000057
 31
0.0
  0
SOLID
  5
133
330
12A
100
AcDbEntity
  8
치수문자_일반주서
 62
     0
100
AcDbTrace
 10
63.67391544694797
 20
-6.476999999999942
 30
0.0
 11
62.5732487802813
 21
-6.476999999999945
 31
0.0
 12
63.12358211361462
 22
-3.174999999999944
 32
0.0
 13
63.12358211361462
 23
-3.174999999999944
 33
0.0
  0
SOLID
  5
134
330
12A
100
AcDbEntity
  8
치수문자_일반주서
 62
     0
100
AcDbTrace
 10
62.57324878028125
 20
6.477000000000055
 30
0.0
 11
63.67391544694792
 21
6.477000000000059
 31
0.0
 12
63.1235821136146
 22
3.175000000000058
 32
0.0
 13
63.1235821136146
 23
3.175000000000058
 33
0.0
  0
MTEXT
  5
135
330
12A
100
AcDbEntity
  8
치수문자_일반주서
 62
     0
100
AcDbMText
 10
58.74858211361453
 20
23.12006653835416
 30
0.0
 40
3.5
 41
0.0
 71
     2
 72
     1
  1
\A1;%%c6.35 [1/4]
  7
SLDTEXTSTYLE0
 11
-3.356894814614646E-15
 21
1.0
 31
0.0
 73
     1
 44
1.0
  0
POINT
  5
136
330
12A
100
AcDbEntity
  8
Defpoints
 62
     0
100
AcDbPoint
 10
48.10000000000002
 20
-3.175000000000001
 30
0.0
  0
POINT
  5
137
330
12A
100
AcDbEntity
  8
Defpoints
 62
     0
100
AcDbPoint
 10
48.09999999999972
 20
3.174999999999999
 30
0.0
  0
POINT
  5
138
330
12A
100
AcDbEntity
  8
Defpoints
 62
     0
100
AcDbPoint
 10
63.1235821136146
 20
3.175000000000055
 30
0.0
  0
ENDBLK
  5
12C
330
12A
100
AcDbEntity
  8
0
100
AcDbBlockEnd
  0
BLOCK
  5
145
330
144
100
AcDbEntity
  8
0
100
AcDbBlockBegin
  2
SW_DOWELSYMBOL_0
 70
     0
 10
0.0
 20
0.0
 30
0.0
  3
SW_DOWELSYMBOL_0
  1
SW_DOWELSYMBOL_0
  0
CIRCLE
  5
147
330
144
100
AcDbEntity
  8
해칭선
 62
     0
100
AcDbCircle
 10
0.0
 20
0.0
 30
0.0
 40
2.999999999999996
  0
HATCH
  5
148
330
144
100
AcDbEntity
  8
0
  6
Continuous
 62
     0
370
     0
100
AcDbHatch
 10
0.0
 20
0.0
 30
0.0
210
0.0
220
0.0
230
1.0
  2
SOLID
 70
     1
 71
     0
 91
        1
 92
        0
 93
        3
 72
     2
 10
0.0
 20
0.0
 40
2.999999999999996
 50
0.0
 51
90.0
 73
     1
 72
     1
 10
0.0
 20
2.999999999999996
 11
0.0
 21
0.0
 72
     1
 10
0.0
 20
0.0
 11
2.999999999999996
 21
0.0
 97
        0
 75
     0
 76
     1
 98
        1
 10
0.0
 20
0.0
  0
HATCH
  5
149
330
144
100
AcDbEntity
  8
0
  6
Continuous
 62
     0
370
     0
100
AcDbHatch
 10
0.0
 20
0.0
 30
0.0
210
0.0
220
0.0
230
1.0
  2
SOLID
 70
     1
 71
     0
 91
        1
 92
        0
 93
        3
 72
     2
 10
0.0
 20
0.0
 40
2.999999999999996
 50
180.0
 51
270.0000000000008
 73
     1
 72
     1
 10
0.0
 20
-2.999999999999996
 11
0.0
 21
0.0
 72
     1
 10
0.0
 20
0.0
 11
-2.999999999999996
 21
0.0
 97
        0
 75
     0
 76
     1
 98
        1
 10
0.0
 20
0.0
  0
ENDBLK
  5
146
330
144
100
AcDbEntity
  8
0
100
AcDbBlockEnd
  0
BLOCK
  5
207
330
206
100
AcDbEntity
  8
0
100
AcDbBlockBegin
  2
_D_4
 70
     0
 10
0.0
 20
0.0
 30
0.0
  3
_D_4
  1
_D_4
  0
LINE
  5
208
330
206
100
AcDbEntity
  8
치수문자_일반주서
 62
     0
370
    -2
100
AcDbLine
 10
102.4375000000001
 20
36.22143424691529
 30
0.0
 11
117.3750000000001
 21
36.22143424691535
 31
0.0
  0
LINE
  5
209
330
206
100
AcDbEntity
  8
치수문자_일반주서
 62
     0
370
    -2
100
AcDbLine
 10
102.4375000000001
 20
22.22143424691529
 30
0.0
 11
117.3750000000001
 21
22.22143424691535
 31
0.0
  0
LINE
  5
20A
330
206
100
AcDbEntity
  8
치수문자_일반주서
 62
     0
370
    -2
100
AcDbLine
 10
117.3750000000001
 20
36.22143424691535
 30
0.0
 11
117.3750000000001
 21
22.22143424691535
 31
0.0
  0
LINE
  5
20B
330
206
100
AcDbEntity
  8
치수문자_일반주서
 62
     0
370
    -2
100
AcDbLine
 10
117.3750000000001
 20
39.52343424691535
 30
0.0
 11
117.375
 21
42.82543424691535
 31
0.0
  0
LINE
  5
20C
330
206
100
AcDbEntity
  8
치수문자_일반주서
 62
     0
370
    -2
100
AcDbLine
 10
117.3750000000001
 20
18.91943424691535
 30
0.0
 11
117.3750000000001
 21
15.61743424691535
 31
0.0
  0
SOLID
  5
20D
330
206
100
AcDbEntity
  8
치수문자_일반주서
 62
     0
100
AcDbTrace
 10
116.8246666666667
 20
39.52343424691535
 30
0.0
 11
117.9253333333334
 21
39.52343424691535
 31
0.0
 12
117.3750000000001
 22
36.22143424691535
 32
0.0
 13
117.3750000000001
 23
36.22143424691535
 33
0.0
  0
SOLID
  5
20E
330
206
100
AcDbEntity
  8
치수문자_일반주서
 62
     0
100
AcDbTrace
 10
117.9253333333335
 20
18.91943424691535
 30
0.0
 11
116.8246666666668
 21
18.91943424691535
 31
0.0
 12
117.3750000000001
 22
22.22143424691535
 32
0.0
 13
117.3750000000001
 23
22.22143424691535
 33
0.0
  0
MTEXT
  5
20F
330
206
100
AcDbEntity
  8
치수문자_일반주서
 62
     0
100
AcDbMText
 10
113.0000000000001
 20
29.28713862862833
 30
0.0
 40
3.5
 41
0.0
 71
     2
 72
     1
  1
\A1;%%c14
  7
SLDTEXTSTYLE0
 11
-3.045183153257572E-15
 21
1.0
 31
0.0
 73
     1
 44
1.0
  0
POINT
  5
210
330
206
100
AcDbEntity
  8
Defpoints
 62
     0
100
AcDbPoint
 10
102.3750000000001
 20
36.22143424691529
 30
0.0
  0
POINT
  5
211
330
206
100
AcDbEntity
  8
Defpoints
 62
     0
100
AcDbPoint
 10
102.3750000000001
 20
22.22143424691529
 30
0.0
  0
POINT
  5
212
330
206
100
AcDbEntity
  8
Defpoints
 62
     0
100
AcDbPoint
 10
117.3750000000001
 20
22.22143424691535
 30
0.0
  0
ENDBLK
  5
213
330
206
100
AcDbEntity
  8
0
100
AcDbBlockEnd
  0
BLOCK
  5
221
330
220
100
AcDbEntity
  8
0
100
AcDbBlockBegin
  2
*D9
 70
     1
 10
0.0
 20
0.0
 30
0.0
  3
*D9
  1
*D8
  0
LINE
  5
222
330
220
100
AcDbEntity
  8
치수문자_일반주서
 62
     0
370
    -2
100
AcDbLine
 10
103.8657751816695
 20
19.48229575403651
 30
0.0
 11
120.1921280501954
 21
-7.081888143622854
 31
0.0
  0
MTEXT
  5
223
330
220
100
AcDbEntity
  8
치수문자_일반주서
 62
     0
100
AcDbMText
 10
115.6706384014277
 20
5.288158154535728
 30
0.0
 40
3.5
 41
0.0
 71
     5
 72
     1
  1
\A1;R.50 [R0.02]
  7
SLDTEXTSTYLE0
 11
0.5236126201129557
 21
-0.8519564684057781
 31
0.0
 73
     1
 44
1.0
  0
SOLID
  5
224
330
220
100
AcDbEntity
  8
치수문자_일반주서
 62
     0
100
AcDbTrace
 10
104.3346352247821
 20
19.77045723263868
 30
0.0
 11
103.3969151385569
 21
19.19413427543435
 31
0.0
 12
102.1368063100565
 22
22.29545601271239
 32
0.0
 13
102.1368063100565
 23
22.29545601271239
 33
0.0
  0
LINE
  5
225
330
220
100
AcDbEntity
  8
치수문자_일반주서
 62
     0
100
AcDbLine
 10
101.785
 20
22.72143424691529
 30
0.0
 11
101.965
 21
22.72143424691529
 31
0.0
  0
LINE
  5
226
330
220
100
AcDbEntity
  8
치수문자_일반주서
 62
     0
100
AcDbLine
 10
101.875
 20
22.63143424691529
 30
0.0
 11
101.875
 21
22.81143424691529
 31
0.0
  0
POINT
  5
252
330
220
100
AcDbEntity
  8
Defpoints
 62
     0
100
AcDbPoint
 10
102.1368063100565
 20
22.29545601271239
 30
0.0
  0
POINT
  5
253
330
220
100
AcDbEntity
  8
Defpoints
 62
     0
100
AcDbPoint
 10
101.875
 20
22.72143424691529
 30
0.0
  0
ENDBLK
  5
227
330
220
100
AcDbEntity
  8
0
100
AcDbBlockEnd
  0
BLOCK
  5
22D
330
22C
100
AcDbEntity
  8
0
100
AcDbBlockBegin
  2
*D10
 70
     1
 10
0.0
 20
0.0
 30
0.0
  3
*D10
  1
*D10
  0
LINE
  5
22F
330
22C
100
AcDbEntity
  8
치수문자_일반주서
 62
     0
370
    -2
100
AcDbLine
 10
19.37500000000004
 20
35.78393424691529
 30
0.0
 11
19.37500000000004
 21
70.88391841499404
 31
0.0
  0
LINE
  5
230
330
22C
100
AcDbEntity
  8
치수문자_일반주서
 62
     0
370
    -2
100
AcDbLine
 10
102.3750000000001
 20
36.34643424691529
 30
0.0
 11
102.3750000000001
 21
70.88391841499404
 31
0.0
  0
LINE
  5
231
330
22C
100
AcDbEntity
  8
치수문자_일반주서
 62
     0
370
    -2
100
AcDbLine
 10
22.67700000000004
 20
70.88391841499404
 30
0.0
 11
99.07300000000006
 21
70.88391841499404
 31
0.0
  0
SOLID
  5
232
330
22C
100
AcDbEntity
  8
치수문자_일반주서
 62
     0
100
AcDbTrace
 10
22.67700000000004
 20
71.43425174832737
 30
0.0
 11
22.67700000000004
 21
70.33358508166071
 31
0.0
 12
19.37500000000004
 22
70.88391841499404
 32
0.0
 13
19.37500000000004
 23
70.88391841499404
 33
0.0
  0
SOLID
  5
233
330
22C
100
AcDbEntity
  8
치수문자_일반주서
 62
     0
100
AcDbTrace
 10
99.07300000000006
 20
70.33358508166071
 30
0.0
 11
99.07300000000006
 21
71.43425174832737
 31
0.0
 12
102.3750000000001
 22
70.88391841499404
 32
0.0
 13
102.3750000000001
 23
70.88391841499404
 33
0.0
  0
MTEXT
  5
234
330
22C
100
AcDbEntity
  8
치수문자_일반주서
 62
     0
100
AcDbMText
 10
60.87500000000005
 20
75.25891841499404
 30
0.0
 40
3.5
 41
0.0
 71
     2
 72
     1
  1
\A1;83 [3.27]
  7
SLDTEXTSTYLE0
 73
     1
 44
1.0
  0
POINT
  5
235
330
22C
100
AcDbEntity
  8
Defpoints
 62
     0
100
AcDbPoint
 10
19.37500000000004
 20
35.72143424691529
 30
0.0
  0
POINT
  5
236
330
22C
100
AcDbEntity
  8
Defpoints
 62
     0
100
AcDbPoint
 10
102.3750000000001
 20
36.28393424691529
 30
0.0
  0
POINT
  5
237
330
22C
100
AcDbEntity
  8
Defpoints
 62
     0
100
AcDbPoint
 10
102.3750000000001
 20
70.88391841499404
 30
0.0
  0
ENDBLK
  5
22E
330
22C
100
AcDbEntity
  8
0
100
AcDbBlockEnd
  0
BLOCK
  5
239
330
238
100
AcDbEntity
  8
0
100
AcDbBlockBegin
  2
*D11
 70
     1
 10
0.0
 20
0.0
 30
0.0
  3
*D11
  1
*D11
  0
LINE
  5
23B
330
238
100
AcDbEntity
  8
치수문자_일반주서
 62
     0
370
    -2
100
AcDbLine
 10
76.37504186422882
 20
28.62038676313042
 30
0.0
 11
76.37504186422882
 21
61.90091383617725
 31
0.0
  0
LINE
  5
23C
330
238
100
AcDbEntity
  8
치수문자_일반주서
 62
     0
370
    -2
100
AcDbLine
 10
102.3750000000001
 20
36.28393424691529
 30
0.0
 11
102.3750000000001
 21
61.90091383617725
 31
0.0
  0
LINE
  5
23D
330
238
100
AcDbEntity
  8
치수문자_일반주서
 62
     0
370
    -2
100
AcDbLine
 10
79.67704186422881
 20
61.90091383617725
 30
0.0
 11
99.07300000000006
 21
61.90091383617725
 31
0.0
  0
SOLID
  5
23E
330
238
100
AcDbEntity
  8
치수문자_일반주서
 62
     0
100
AcDbTrace
 10
79.67704186422881
 20
62.45124716951059
 30
0.0
 11
79.67704186422881
 21
61.35058050284392
 31
0.0
 12
76.37504186422882
 22
61.90091383617725
 32
0.0
 13
76.37504186422882
 23
61.90091383617725
 33
0.0
  0
SOLID
  5
23F
330
238
100
AcDbEntity
  8
치수문자_일반주서
 62
     0
100
AcDbTrace
 10
99.07300000000006
 20
61.35058050284392
 30
0.0
 11
99.07300000000006
 21
62.45124716951059
 31
0.0
 12
102.3750000000001
 22
61.90091383617725
 32
0.0
 13
102.3750000000001
 23
61.90091383617725
 33
0.0
  0
MTEXT
  5
240
330
238
100
AcDbEntity
  8
치수문자_일반주서
 62
     0
100
AcDbMText
 10
89.42159572693208
 20
66.27591383617725
 30
0.0
 40
3.5
 41
0.0
 71
     2
 72
     1
  1
\A1;26 [1.02]
  7
SLDTEXTSTYLE0
 73
     1
 44
1.0
  0
POINT
  5
241
330
238
100
AcDbEntity
  8
Defpoints
 62
     0
100
AcDbPoint
 10
76.37504186422882
 20
28.55788676313042
 30
0.0
  0
POINT
  5
242
330
238
100
AcDbEntity
  8
Defpoints
 62
     0
100
AcDbPoint
 10
102.3750000000001
 20
36.22143424691529
 30
0.0
  0
POINT
  5
243
330
238
100
AcDbEntity
  8
Defpoints
 62
     0
100
AcDbPoint
 10
102.3750000000001
 20
61.90091383617725
 30
0.0
  0
ENDBLK
  5
23A
330
238
100
AcDbEntity
  8
0
100
AcDbBlockEnd
  0
BLOCK
  5
245
330
244
100
AcDbEntity
  8
0
100
AcDbBlockBegin
  2
*D12
 70
     1
 10
0.0
 20
0.0
 30
0.0
  3
*D12
  1
*D12
  0
LINE
  5
247
330
244
100
AcDbEntity
  8
치수문자_일반주서
 62
     0
370
    -2
100
AcDbLine
 10
19.81250000000005
 20
36.22143424691529
 30
0.0
 11
4.374999999999983
 21
36.22143424691524
 31
0.0
  0
LINE
  5
248
330
244
100
AcDbEntity
  8
치수문자_일반주서
 62
     0
370
    -2
100
AcDbLine
 10
19.81250000000005
 20
22.22143424691529
 30
0.0
 11
4.375000000000032
 21
22.22143424691524
 31
0.0
  0
LINE
  5
249
330
244
100
AcDbEntity
  8
치수문자_일반주서
 62
     0
370
    -2
100
AcDbLine
 10
4.374999999999983
 20
36.22143424691524
 30
0.0
 11
4.375000000000032
 21
22.22143424691524
 31
0.0
  0
LINE
  5
24A
330
244
100
AcDbEntity
  8
치수문자_일반주서
 62
     0
370
    -2
100
AcDbLine
 10
4.374999999999972
 20
39.52343424691524
 30
0.0
 11
4.37499999999996
 21
42.82543424691524
 31
0.0
  0
LINE
  5
24B
330
244
100
AcDbEntity
  8
치수문자_일반주서
 62
     0
370
    -2
100
AcDbLine
 10
4.375000000000044
 20
18.91943424691524
 30
0.0
 11
4.375000000000055
 21
15.61743424691524
 31
0.0
  0
SOLID
  5
24C
330
244
100
AcDbEntity
  8
치수문자_일반주서
 62
     0
100
AcDbTrace
 10
3.824666666666638
 20
39.52343424691524
 30
0.0
 11
4.925333333333305
 21
39.52343424691524
 31
0.0
 12
4.374999999999983
 22
36.22143424691524
 32
0.0
 13
4.374999999999983
 23
36.22143424691524
 33
0.0
  0
SOLID
  5
24D
330
244
100
AcDbEntity
  8
치수문자_일반주서
 62
     0
100
AcDbTrace
 10
4.925333333333377
 20
18.91943424691524
 30
0.0
 11
3.82466666666671
 21
18.91943424691523
 31
0.0
 12
4.375000000000032
 22
22.22143424691524
 32
0.0
 13
4.375000000000032
 23
22.22143424691524
 33
0.0
  0
MTEXT
  5
24E
330
244
100
AcDbEntity
  8
치수문자_일반주서
 62
     0
100
AcDbMText
 10
0.0000000000000071
 20
29.22143424691528
 30
0.0
 40
3.5
 41
0.0
 71
     2
 72
     1
  1
\A1;%%c14
  7
SLDTEXTSTYLE0
 11
-3.489272363107635E-15
 21
1.0
 31
0.0
 73
     1
 44
1.0
  0
POINT
  5
24F
330
244
100
AcDbEntity
  8
Defpoints
 62
     0
100
AcDbPoint
 10
19.87500000000005
 20
36.22143424691529
 30
0.0
  0
POINT
  5
250
330
244
100
AcDbEntity
  8
Defpoints
 62
     0
100
AcDbPoint
 10
19.87500000000005
 20
22.22143424691529
 30
0.0
  0
POINT
  5
251
330
244
100
AcDbEntity
  8
Defpoints
 62
     0
100
AcDbPoint
 10
4.375000000000043
 20
22.22143424691524
 30
0.0
  0
ENDBLK
  5
246
330
244
100
AcDbEntity
  8
0
100
AcDbBlockEnd
  0
BLOCK
  5
2A0
330
29F
100
AcDbEntity
  8
0
100
AcDbBlockBegin
  2
*D13
 70
     1
 10
0.0
 20
0.0
 30
0.0
  3
*D13
  1
*D13
  0
LINE
  5
2A2
330
29F
100
AcDbEntity
  8
치수문자_일반주서
 62
     0
370
    -2
100
AcDbLine
 10
-51.62060558020156
 20
101.7895524357751
 30
0.0
 11
-51.62060558020156
 21
136.8895366038539
 31
0.0
  0
LINE
  5
2A3
330
29F
100
AcDbEntity
  8
치수문자_일반주서
 62
     0
370
    -2
100
AcDbLine
 10
31.37939441979846
 20
102.3520524357751
 30
0.0
 11
31.37939441979846
 21
136.8895366038539
 31
0.0
  0
LINE
  5
2A4
330
29F
100
AcDbEntity
  8
치수문자_일반주서
 62
     0
370
    -2
100
AcDbLine
 10
-48.31860558020156
 20
136.8895366038539
 30
0.0
 11
28.07739441979846
 21
136.8895366038539
 31
0.0
  0
SOLID
  5
2A5
330
29F
100
AcDbEntity
  8
치수문자_일반주서
 62
     0
100
AcDbTrace
 10
-48.31860558020156
 20
137.4398699371872
 30
0.0
 11
-48.31860558020156
 21
136.3392032705206
 31
0.0
 12
-51.62060558020156
 22
136.8895366038539
 32
0.0
 13
-51.62060558020156
 23
136.8895366038539
 33
0.0
  0
SOLID
  5
2A6
330
29F
100
AcDbEntity
  8
치수문자_일반주서
 62
     0
100
AcDbTrace
 10
28.07739441979846
 20
136.3392032705206
 30
0.0
 11
28.07739441979846
 21
137.4398699371872
 31
0.0
 12
31.37939441979846
 22
136.8895366038539
 32
0.0
 13
31.37939441979846
 23
136.8895366038539
 33
0.0
  0
MTEXT
  5
2A7
330
29F
100
AcDbEntity
  8
치수문자_일반주서
 62
     0
100
AcDbMText
 10
-10.12060558020155
 20
141.2645366038539
 30
0.0
 40
3.5
 41
0.0
 71
     2
 72
     1
  1
\A1;83 [3.27]
  7
SLDTEXTSTYLE0
 73
     1
 44
1.0
  0
POINT
  5
2A8
330
29F
100
AcDbEntity
  8
Defpoints
 62
     0
100
AcDbPoint
 10
-51.62060558020156
 20
101.7270524357751
 30
0.0
  0
POINT
  5
2A9
330
29F
100
AcDbEntity
  8
Defpoints
 62
     0
100
AcDbPoint
 10
31.37939441979846
 20
102.2895524357751
 30
0.0
  0
POINT
  5
2AA
330
29F
100
AcDbEntity
  8
Defpoints
 62
     0
100
AcDbPoint
 10
31.37939441979846
 20
136.8895366038539
 30
0.0
  0
ENDBLK
  5
2A1
330
29F
100
AcDbEntity
  8
0
100
AcDbBlockEnd
  0
BLOCK
  5
2AC
330
2AB
100
AcDbEntity
  8
0
100
AcDbBlockBegin
  2
*D14
 70
     1
 10
0.0
 20
0.0
 30
0.0
  3
*D14
  1
*D14
  0
LINE
  5
2AE
330
2AB
100
AcDbEntity
  8
치수문자_일반주서
 62
     0
370
    -2
100
AcDbLine
 10
5.379436284027221
 20
94.62600495199027
 30
0.0
 11
5.379436284027221
 21
127.9065320250371
 31
0.0
  0
LINE
  5
2AF
330
2AB
100
AcDbEntity
  8
치수문자_일반주서
 62
     0
370
    -2
100
AcDbLine
 10
31.37939441979846
 20
102.2895524357751
 30
0.0
 11
31.37939441979846
 21
127.9065320250371
 31
0.0
  0
LINE
  5
2B0
330
2AB
100
AcDbEntity
  8
치수문자_일반주서
 62
     0
370
    -2
100
AcDbLine
 10
8.681436284027221
 20
127.9065320250371
 30
0.0
 11
28.07739441979846
 21
127.9065320250371
 31
0.0
  0
SOLID
  5
2B1
330
2AB
100
AcDbEntity
  8
치수문자_일반주서
 62
     0
100
AcDbTrace
 10
8.681436284027221
 20
128.4568653583704
 30
0.0
 11
8.681436284027221
 21
127.3561986917038
 31
0.0
 12
5.379436284027221
 22
127.9065320250371
 32
0.0
 13
5.379436284027221
 23
127.9065320250371
 33
0.0
  0
SOLID
  5
2B2
330
2AB
100
AcDbEntity
  8
치수문자_일반주서
 62
     0
100
AcDbTrace
 10
28.07739441979846
 20
127.3561986917038
 30
0.0
 11
28.07739441979846
 21
128.4568653583704
 31
0.0
 12
31.37939441979846
 22
127.9065320250371
 32
0.0
 13
31.37939441979846
 23
127.9065320250371
 33
0.0
  0
MTEXT
  5
2B3
330
2AB
100
AcDbEntity
  8
치수문자_일반주서
 62
     0
100
AcDbMText
 10
18.42599014673048
 20
132.2815320250371
 30
0.0
 40
3.5
 41
0.0
 71
     2
 72
     1
  1
\A1;26 [1.02]
  7
SLDTEXTSTYLE0
 73
     1
 44
1.0
  0
POINT
  5
2B4
330
2AB
100
AcDbEntity
  8
Defpoints
 62
     0
100
AcDbPoint
 10
5.379436284027221
 20
94.56350495199027
 30
0.0
  0
POINT
  5
2B5
330
2AB
100
AcDbEntity
  8
Defpoints
 62
     0
100
AcDbPoint
 10
31.37939441979846
 20
102.2270524357751
 30
0.0
  0
POINT
  5
2B6
330
2AB
100
AcDbEntity
  8
Defpoints
 62
     0
100
AcDbPoint
 10
31.37939441979846
 20
127.9065320250371
 30
0.0
  0
ENDBLK
  5
2AD
330
2AB
100
AcDbEntity
  8
0
100
AcDbBlockEnd
  0
BLOCK
  5
2B8
330
2B7
100
AcDbEntity
  8
0
100
AcDbBlockBegin
  2
*D15
 70
     1
 10
0.0
 20
0.0
 30
0.0
  3
*D15
  1
*D15
  0
LINE
  5
2BA
330
2B7
100
AcDbEntity
  8
치수문자_일반주서
 62
     0
370
    -2
100
AcDbLine
 10
-51.18310558020155
 20
102.2270524357751
 30
0.0
 11
-66.6206055802016
 21
102.2270524357751
 31
0.0
  0
LINE
  5
2BB
330
2B7
100
AcDbEntity
  8
치수문자_일반주서
 62
     0
370
    -2
100
AcDbLine
 10
-51.18310558020155
 20
88.22705243577514
 30
0.0
 11
-66.62060558020156
 21
88.22705243577508
 31
0.0
  0
LINE
  5
2BC
330
2B7
100
AcDbEntity
  8
치수문자_일반주서
 62
     0
370
    -2
100
AcDbLine
 10
-66.6206055802016
 20
102.2270524357751
 30
0.0
 11
-66.62060558020156
 21
88.22705243577508
 31
0.0
  0
LINE
  5
2BD
330
2B7
100
AcDbEntity
  8
치수문자_일반주서
 62
     0
370
    -2
100
AcDbLine
 10
-66.62060558020161
 20
105.5290524357751
 30
0.0
 11
-66.62060558020163
 21
108.8310524357751
 31
0.0
  0
LINE
  5
2BE
330
2B7
100
AcDbEntity
  8
치수문자_일반주서
 62
     0
370
    -2
100
AcDbLine
 10
-66.62060558020154
 20
84.92505243577507
 30
0.0
 11
-66.62060558020153
 21
81.62305243577507
 31
0.0
  0
SOLID
  5
2BF
330
2B7
100
AcDbEntity
  8
치수문자_일반주서
 62
     0
100
AcDbTrace
 10
-67.17093891353494
 20
105.5290524357751
 30
0.0
 11
-66.07027224686829
 21
105.5290524357751
 31
0.0
 12
-66.6206055802016
 22
102.2270524357751
 32
0.0
 13
-66.6206055802016
 23
102.2270524357751
 33
0.0
  0
SOLID
  5
2C0
330
2B7
100
AcDbEntity
  8
치수문자_일반주서
 62
     0
100
AcDbTrace
 10
-66.07027224686821
 20
84.92505243577507
 30
0.0
 11
-67.17093891353487
 21
84.92505243577507
 31
0.0
 12
-66.62060558020156
 22
88.22705243577508
 32
0.0
 13
-66.62060558020156
 23
88.22705243577508
 33
0.0
  0
MTEXT
  5
2C1
330
2B7
100
AcDbEntity
  8
치수문자_일반주서
 62
     0
100
AcDbMText
 10
-70.99560558020158
 20
95.22705243577512
 30
0.0
 40
3.5
 41
0.0
 71
     2
 72
     1
  1
\A1;%%c14
  7
SLDTEXTSTYLE0
 11
-3.045183153257572E-15
 21
1.0
 31
0.0
 73
     1
 44
1.0
  0
POINT
  5
2C2
330
2B7
100
AcDbEntity
  8
Defpoints
 62
     0
100
AcDbPoint
 10
-51.12060558020155
 20
102.2270524357751
 30
0.0
  0
POINT
  5
2C3
330
2B7
100
AcDbEntity
  8
Defpoints
 62
     0
100
AcDbPoint
 10
-51.12060558020155
 20
88.22705243577514
 30
0.0
  0
POINT
  5
2C4
330
2B7
100
AcDbEntity
  8
Defpoints
 62
     0
100
AcDbPoint
 10
-66.62060558020157
 20
88.22705243577508
 30
0.0
  0
ENDBLK
  5
2B9
330
2B7
100
AcDbEntity
  8
0
100
AcDbBlockEnd
  0
BLOCK
  5
2C6
330
2C5
100
AcDbEntity
  8
0
100
AcDbBlockBegin
  2
*D16
 70
     1
 10
0.0
 20
0.0
 30
0.0
  3
*D16
  1
*D16
  0
LINE
  5
2C8
330
2C5
100
AcDbEntity
  8
치수문자_일반주서
 62
     0
370
    -2
100
AcDbLine
 10
31.44189441979847
 20
102.2270524357751
 30
0.0
 11
46.37939441979847
 21
102.2270524357752
 31
0.0
  0
LINE
  5
2C9
330
2C5
100
AcDbEntity
  8
치수문자_일반주서
 62
     0
370
    -2
100
AcDbLine
 10
31.44189441979846
 20
88.22705243577514
 30
0.0
 11
46.37939441979852
 21
88.22705243577519
 31
0.0
  0
LINE
  5
2CA
330
2C5
100
AcDbEntity
  8
치수문자_일반주서
 62
     0
370
    -2
100
AcDbLine
 10
46.37939441979847
 20
102.2270524357752
 30
0.0
 11
46.37939441979852
 21
88.22705243577519
 31
0.0
  0
LINE
  5
2CB
330
2C5
100
AcDbEntity
  8
치수문자_일반주서
 62
     0
370
    -2
100
AcDbLine
 10
46.37939441979845
 20
105.5290524357752
 30
0.0
 11
46.37939441979844
 21
108.8310524357752
 31
0.0
  0
LINE
  5
2CC
330
2C5
100
AcDbEntity
  8
치수문자_일반주서
 62
     0
370
    -2
100
AcDbLine
 10
46.37939441979853
 20
84.92505243577519
 30
0.0
 11
46.37939441979854
 21
81.62305243577518
 31
0.0
  0
SOLID
  5
2CD
330
2C5
100
AcDbEntity
  8
치수문자_일반주서
 62
     0
100
AcDbTrace
 10
45.82906108646512
 20
105.5290524357752
 30
0.0
 11
46.92972775313179
 21
105.5290524357752
 31
0.0
 12
46.37939441979847
 22
102.2270524357752
 32
0.0
 13
46.37939441979847
 23
102.2270524357752
 33
0.0
  0
SOLID
  5
2CE
330
2C5
100
AcDbEntity
  8
치수문자_일반주서
 62
     0
100
AcDbTrace
 10
46.92972775313186
 20
84.92505243577519
 30
0.0
 11
45.8290610864652
 21
84.92505243577519
 31
0.0
 12
46.37939441979852
 22
88.22705243577519
 32
0.0
 13
46.37939441979852
 23
88.22705243577519
 33
0.0
  0
MTEXT
  5
2CF
330
2C5
100
AcDbEntity
  8
치수문자_일반주서
 62
     0
100
AcDbMText
 10
42.00439441979849
 20
95.29275681748817
 30
0.0
 40
3.5
 41
0.0
 71
     2
 72
     1
  1
\A1;%%c14
  7
SLDTEXTSTYLE0
 11
-3.552713678800501E-15
 21
1.0
 31
0.0
 73
     1
 44
1.0
  0
POINT
  5
2D0
330
2C5
100
AcDbEntity
  8
Defpoints
 62
     0
100
AcDbPoint
 10
31.37939441979847
 20
102.2270524357751
 30
0.0
  0
POINT
  5
2D1
330
2C5
100
AcDbEntity
  8
Defpoints
 62
     0
100
AcDbPoint
 10
31.37939441979846
 20
88.22705243577514
 30
0.0
  0
POINT
  5
2D2
330
2C5
100
AcDbEntity
  8
Defpoints
 62
     0
100
AcDbPoint
 10
46.37939441979852
 20
88.22705243577519
 30
0.0
  0
ENDBLK
  5
2C7
330
2C5
100
AcDbEntity
  8
0
100
AcDbBlockEnd
  0
BLOCK
  5
2D4
330
2D3
100
AcDbEntity
  8
0
100
AcDbBlockBegin
  2
*D17
 70
     1
 10
0.0
 20
0.0
 30
0.0
  3
*D17
  1
*D17
  0
LINE
  5
2D6
330
2D3
100
AcDbEntity
  8
치수문자_일반주서
 62
     0
370
    -2
100
AcDbLine
 10
32.87016960146791
 20
85.48791394289636
 30
0.0
 11
49.19652246999375
 21
58.92373004523698
 31
0.0
  0
MTEXT
  5
2D7
330
2D3
100
AcDbEntity
  8
치수문자_일반주서
 62
     0
100
AcDbMText
 10
44.67503282122608
 20
71.29377634339556
 30
0.0
 40
3.5
 41
0.0
 71
     5
 72
     1
  1
\A1;R.50 [R0.02]
  7
SLDTEXTSTYLE0
 11
0.5236126201129557
 21
-0.8519564684057781
 31
0.0
 73
     1
 44
1.0
  0
SOLID
  5
2D8
330
2D3
100
AcDbEntity
  8
치수문자_일반주서
 62
     0
100
AcDbTrace
 10
33.33902964458056
 20
85.77607542149852
 30
0.0
 11
32.40130955835526
 21
85.19975246429419
 31
0.0
 12
31.14120072985493
 22
88.30107420157223
 32
0.0
 13
31.14120072985493
 23
88.30107420157223
 33
0.0
  0
LINE
  5
2D9
330
2D3
100
AcDbEntity
  8
치수문자_일반주서
 62
     0
100
AcDbLine
 10
30.78939441979844
 20
88.72705243577514
 30
0.0
 11
30.96939441979844
 21
88.72705243577514
 31
0.0
  0
LINE
  5
2DA
330
2D3
100
AcDbEntity
  8
치수문자_일반주서
 62
     0
100
AcDbLine
 10
30.87939441979844
 20
88.63705243577513
 30
0.0
 11
30.87939441979844
 21
88.81705243577514
 31
0.0
  0
POINT
  5
2DB
330
2D3
100
AcDbEntity
  8
Defpoints
 62
     0
100
AcDbPoint
 10
31.14120072985493
 20
88.30107420157223
 30
0.0
  0
POINT
  5
2DC
330
2D3
100
AcDbEntity
  8
Defpoints
 62
     0
100
AcDbPoint
 10
30.87939441979844
 20
88.72705243577514
 30
0.0
  0
ENDBLK
  5
2D5
330
2D3
100
AcDbEntity
  8
0
100
AcDbBlockEnd
  0
ENDSEC
  0
SECTION
  2
ENTITIES
  0
LINE
  5
96
330
1F
100
AcDbEntity
  8
외형선
  6
Continuous
370
    15
100
AcDbLine
 10
8.479988758622376
 20
3.174999999999999
 30
0.0
 11
-52.69
 21
3.174999999999995
 31
0.0
  0
LINE
  5
97
330
1F
100
AcDbEntity
  8
외형선
  6
Continuous
370
    15
100
AcDbLine
 10
-52.69
 20
-3.175000000000005
 30
0.0
 11
8.479988758622376
 21
-3.175000000000001
 31
0.0
  0
LINE
  5
98
330
1F
100
AcDbEntity
  8
외형선
  6
Continuous
370
    15
100
AcDbLine
 10
-52.69
 20
3.174999999999992
 30
0.0
 11
-53.5
 21
2.364999999999991
 31
0.0
  0
LINE
  5
99
330
1F
100
AcDbEntity
  8
외형선
  6
Continuous
370
    15
100
AcDbLine
 10
-53.5
 20
-2.365000000000002
 30
0.0
 11
-52.69
 21
-3.175000000000002
 31
0.0
  0
SPLINE
  5
9A
330
1F
100
AcDbEntity
  8
외형선
  6
Continuous
370
    15
100
AcDbSpline
210
0.0
220
0.0
230
1.0
 70
     8
 71
     3
 72
     9
 73
     5
 74
     0
 42
0.000000001
 43
0.00000001
 40
0.0
 40
0.0
 40
0.0
 40
0.0
 40
0.5266829075167146
 40
1.0
 40
1.0
 40
1.0
 40
1.0
 10
10.0
 20
2.094615815040518
 30
0.0
 10
9.789931684974952
 20
2.100693479828673
 30
0.0
 10
9.391080095096116
 20
2.112232993834948
 30
0.0
 10
8.992254519706309
 20
2.140957729655171
 30
0.0
 10
8.80348355795483
 20
2.15455363809595
 30
0.0
  0
SPLINE
  5
9B
330
1F
100
AcDbEntity
  8
외형선
  6
Continuous
370
    15
100
AcDbSpline
210
0.0
220
0.0
230
1.0
 70
     8
 71
     3
 72
     9
 73
     5
 74
     0
 42
0.000000001
 43
0.00000001
 40
0.0
 40
0.0
 40
0.0
 40
0.0
 40
0.645687140500067
 40
1.0
 40
1.0
 40
1.0
 40
1.0
 10
8.479985919607575
 20
-2.180754118361258
 30
0.0
 10
8.63887792169021
 20
-2.167192540161173
 30
0.0
 10
8.884959951385852
 20
-2.14618921308611
 30
0.0
 10
9.130759032303345
 20
-2.131316229955124
 30
0.0
 10
9.217848807525678
 20
-2.126046540772689
 30
0.0
  0
ARC
  5
9C
330
1F
100
AcDbEntity
  8
외형선
  6
Continuous
370
    15
100
AcDbCircle
 10
8.829988748742554
 20
2.50279293247854
 30
0.0
 40
0.3499999901353557
100
AcDbArc
 50
180.1143879804785
 51
265.7770721765215
  0
LINE
  5
9D
330
1F
100
AcDbEntity
  8
0
  6
Continuous
 62
     1
370
    15
100
AcDbLine
 10
21.75688386934871
 20
1.233971054250716
 30
0.0
 11
21.71781895790165
 21
1.254118207177258
 31
0.0
  0
SPLINE
  5
9E
330
1F
100
AcDbEntity
  8
0
  6
Continuous
 62
     1
370
    15
100
AcDbSpline
210
0.0
220
0.0
230
1.0
 70
     8
 71
     3
 72
     9
 73
     5
 74
     0
 42
0.000000001
 43
0.00000001
 40
0.0
 40
0.0
 40
0.0
 40
0.0
 40
0.4956308561839342
 40
1.0
 40
1.0
 40
1.0
 40
1.0
 10
22.59717422113049
 20
0.8135666120743678
 30
0.0
 10
22.45834855740962
 20
0.8797721207104612
 30
0.0
 10
22.17824964510673
 20
1.013350383262226
 30
0.0
 10
21.8981549771922
 20
1.160003664403616
 30
0.0
 10
21.75688386934871
 20
1.233971054250716
 30
0.0
  0
LINE
  5
9F
330
1F
100
AcDbEntity
  8
0
  6
Continuous
 62
     1
370
    15
100
AcDbLine
 10
39.03415647769569
 20
1.233534191108617
 30
0.0
 11
38.99423024269829
 21
1.254132851288689
 31
0.0
  0
SPLINE
  5
A0
330
1F
100
AcDbEntity
  8
0
  6
Continuous
 62
     1
370
    15
100
AcDbSpline
210
0.0
220
0.0
230
1.0
 70
     8
 71
     3
 72
     9
 73
     5
 74
     0
 42
0.000000001
 43
0.00000001
 40
0.0
 40
0.0
 40
0.0
 40
0.0
 40
0.503390538090603
 40
1.0
 40
1.0
 40
1.0
 40
1.0
 10
39.8736049007973
 20
0.8135704742485116
 30
0.0
 10
39.73275146826263
 20
0.8807640484901951
 30
0.0
 10
39.45294201242955
 20
1.014246045383807
 30
0.0
 10
39.17311915590453
 20
1.160769337736268
 30
0.0
 10
39.03415647769569
 20
1.233534191108617
 30
0.0
  0
LINE
  5
A1
330
1F
100
AcDbEntity
  8
0
  6
Continuous
 62
     1
370
    15
100
AcDbLine
 10
38.14963717147225
 20
0.8768131985950873
 30
0.0
 11
38.08359718714178
 21
0.9129876147550491
 31
0.0
  0
LINE
  5
A2
330
1F
100
AcDbEntity
  8
0
  6
Continuous
 62
     1
370
    15
100
AcDbLine
 10
20.87374766680547
 20
0.8765184070905113
 30
0.0
 11
20.80726256929519
 21
0.9129296760526069
 31
0.0
  0
LINE
  5
A3
330
1F
100
AcDbEntity
  8
0
  6
Continuous
 62
     1
370
    15
100
AcDbLine
 10
13.77369253549787
 20
-3.175000000000004
 30
0.0
 11
15.31244760212334
 21
-3.175000000000004
 31
0.0
  0
LINE
  5
A4
330
1F
100
AcDbEntity
  8
0
  6
Continuous
 62
     1
370
    15
100
AcDbLine
 10
32.58741815761236
 20
3.175000000000002
 30
0.0
 11
31.04921321120037
 21
3.175000000000002
 31
0.0
  0
LINE
  5
A5
330
1F
100
AcDbEntity
  8
0
  6
Continuous
 62
     1
370
    15
100
AcDbLine
 10
31.04921321120034
 20
-3.175000000000004
 30
0.0
 11
32.58741815761236
 21
-3.175000000000004
 31
0.0
  0
LINE
  5
A6
330
1F
100
AcDbEntity
  8
0
  6
Continuous
 62
     1
370
    15
100
AcDbLine
 10
15.31244760212331
 20
3.175000000000002
 30
0.0
 11
13.77369253549789
 21
3.175000000000002
 31
0.0
  0
SPLINE
  5
A7
330
1F
100
AcDbEntity
  8
0
  6
Continuous
 62
     1
370
    15
100
AcDbSpline
210
0.0
220
0.0
230
1.0
 70
     8
 71
     3
 72
    17
 73
    13
 74
     0
 42
0.000000001
 43
0.00000001
 40
0.0
 40
0.0
 40
0.0
 40
0.0
 40
0.1256831799035576
 40
0.2137557819301108
 40
0.2896943767460172
 40
0.3708009161956447
 40
0.4524518715190302
 40
0.6521226317047081
 40
0.6980914039228436
 40
0.765075618940924
 40
0.865352283207176
 40
1.0
 40
1.0
 40
1.0
 40
1.0
 10
34.04856156319639
 20
-2.642053370525586
 30
0.0
 10
34.24939781330508
 20
-2.622958264800578
 30
0.0
 10
34.5909702473797
 20
-2.590482246462887
 30
0.0
 10
35.05129049894344
 20
-2.555724627001667
 30
0.0
 10
35.44019979683456
 20
-2.530554015898016
 30
0.0
 10
35.82053588083927
 20
-2.510765082188688
 30
0.0
 10
36.39764448515987
 20
-2.487897653972106
 30
0.0
 10
36.9185262212501
 20
-2.478740093443104
 30
0.0
 10
37.41644669632399
 20
-2.47981981460796
 30
0.0
 10
37.75567560463193
 20
-2.483670139777681
 30
0.0
 10
38.2357388986393
 20
-2.495014755473246
 30
0.0
 10
38.61041389030052
 20
-2.512795523100565
 30
0.0
 10
38.82516015009324
 20
-2.522986631205433
 30
0.0
  0
SPLINE
  5
A8
330
1F
100
AcDbEntity
  8
0
  6
Continuous
 62
     1
370
    15
100
AcDbSpline
210
0.0
220
0.0
230
1.0
 70
     8
 71
     3
 72
    16
 73
    12
 74
     0
 42
0.000000001
 43
0.00000001
 40
0.0
 40
0.0
 40
0.0
 40
0.0
 40
0.2288523828355508
 40
0.3898197629488721
 40
0.4913311102633349
 40
0.5835565580230008
 40
0.6769264254358904
 40
0.7707060012481366
 40
0.8641467713920595
 40
0.9578671646766042
 40
1.0
 40
1.0
 40
1.0
 40
1.0
 10
21.54873587601941
 20
2.52298741199762
 30
0.0
 10
21.34772356892445
 20
2.513372758782659
 30
0.0
 10
21.00532569248256
 20
2.496995468799254
 30
0.0
 10
20.57503970127443
 20
2.485786703285076
 30
0.0
 10
20.26400865227897
 20
2.480984099380118
 30
0.0
 10
20.01219953255245
 20
2.479286755552557
 30
0.0
 10
19.7671851248159
 20
2.479628991775421
 30
0.0
 10
19.52113094809726
 20
2.481939711041286
 30
0.0
 10
19.27489681952988
 20
2.486516820323827
 30
0.0
 10
19.07385622057338
 20
2.491266000457699
 30
0.0
 10
18.95471358661958
 20
2.495801465196528
 30
0.0
 10
18.91776329086431
 20
2.497208071361977
 30
0.0
  0
SPLINE
  5
A9
330
1F
100
AcDbEntity
  8
0
  6
Continuous
 62
     1
370
    15
100
AcDbSpline
210
0.0
220
0.0
230
1.0
 70
     8
 71
     3
 72
    17
 73
    13
 74
     0
 42
0.000000001
 43
0.00000001
 40
0.0
 40
0.0
 40
0.0
 40
0.0
 40
0.1276465847489119
 40
0.2162903615518973
 40
0.2922665061497836
 40
0.3733848162472458
 40
0.4550278282449028
 40
0.6547054189697613
 40
0.7006679237832046
 40
0.7673019717098932
 40
0.8667169521793036
 40
1.0
 40
1.0
 40
1.0
 40
1.0
 10
16.7720999259844
 20
-2.642055639994902
 30
0.0
 10
16.97614806417966
 20
-2.62266948869055
 30
0.0
 10
17.32189680215849
 20
-2.589820684447444
 30
0.0
 10
17.7862095582194
 20
-2.554914291020446
 30
0.0
 10
18.17594097730601
 20
-2.52984840913913
 30
0.0
 10
18.55638047073987
 20
-2.51020418848655
 30
0.0
 10
19.13349792474037
 20
-2.487565164897063
 30
0.0
 10
19.65438474370169
 20
-2.478624275738143
 30
0.0
 10
20.15175667689971
 20
-2.479906480133633
 30
0.0
 10
20.48905482355152
 20
-2.483863478223256
 30
0.0
 10
20.9650331779596
 20
-2.495254186480317
 30
0.0
 10
21.33616293250737
 20
-2.512887521418236
 30
0.0
 10
21.54873587601941
 20
-2.522987411997622
 30
0.0
  0
SPLINE
  5
AA
330
1F
100
AcDbEntity
  8
0
  6
Continuous
 62
     1
370
    15
100
AcDbSpline
210
0.0
220
0.0
230
1.0
 70
     8
 71
     3
 72
    16
 73
    12
 74
     0
 42
0.000000001
 43
0.00000001
 40
0.0
 40
0.0
 40
0.0
 40
0.0
 40
0.2284941894611164
 40
0.3892082370393528
 40
0.4905565862985855
 40
0.5826340024483284
 40
0.6758575572993224
 40
0.7694918383963708
 40
0.8627871480578796
 40
0.9563608322439274
 40
1.0
 40
1.0
 40
1.0
 40
1.0
 10
38.82516015009324
 20
2.522986631205431
 30
0.0
 10
38.62415165394395
 20
2.51337222716595
 30
0.0
 10
38.2817614925105
 20
2.496995420144222
 30
0.0
 10
37.85148895732314
 20
2.485786986156992
 30
0.0
 10
37.54047416771888
 20
2.480984428145051
 30
0.0
 10
37.28867784067755
 20
2.47928694312251
 30
0.0
 10
37.04367003954273
 20
2.47962855027416
 30
0.0
 10
36.79761818450221
 20
2.48193979625915
 30
0.0
 10
36.55138676249423
 20
2.48651293945248
 30
0.0
 10
36.3489685841497
 20
2.491305084731249
 30
0.0
 10
36.22844739637956
 20
2.495897161470884
 30
0.0
 10
36.19011684456304
 20
2.497357625300281
 30
0.0
  0
SPLINE
  5
AB
330
1F
100
AcDbEntity
  8
0
  6
Continuous
 62
     1
370
    15
100
AcDbSpline
210
0.0
220
0.0
230
1.0
 70
     8
 71
     3
 72
    12
 73
     8
 74
     0
 42
0.000000001
 43
0.00000001
 40
0.0
 40
0.0
 40
0.0
 40
0.0
 40
0.3099802423466252
 40
0.5167581155153036
 40
0.6423499095175634
 40
0.7626536503754687
 40
1.0
 40
1.0
 40
1.0
 40
1.0
 10
41.37284352318301
 20
-2.38806732663451
 30
0.0
 10
41.61876944418466
 20
-2.351362716028742
 30
0.0
 10
42.02874465593085
 20
-2.290173637448211
 30
0.0
 10
42.53596165279582
 20
-2.229802105051569
 30
0.0
 10
42.8942086700044
 20
-2.193246914490539
 30
0.0
 10
43.27669473569335
 20
-2.157760933652372
 30
0.0
 10
43.5596594544117
 20
-2.142435486584886
 30
0.0
 10
43.74744255540222
 20
-2.132265102137549
 30
0.0
  0
SPLINE
  5
AC
330
1F
100
AcDbEntity
  8
0
  6
Continuous
 62
     1
370
    15
100
AcDbSpline
210
0.0
220
0.0
230
1.0
 70
     8
 71
     3
 72
    21
 73
    17
 74
     0
 42
0.000000001
 43
0.00000001
 40
0.0
 40
0.0
 40
0.0
 40
0.0
 40
0.111086535288105
 40
0.1909199620315119
 40
0.242824990054985
 40
0.2922281806917857
 40
0.3433259020230906
 40
0.3950304396013369
 40
0.4468389294940163
 40
0.4986146962667046
 40
0.6113120508956633
 40
0.7162345300236186
 40
0.7566973247354054
 40
0.8110282639433923
 40
0.8919152092618559
 40
1.0
 40
1.0
 40
1.0
 40
1.0
 10
29.64298633512685
 20
2.171549243171186
 30
0.0
 10
29.43619807029558
 20
2.155270574506911
 30
0.0
 10
29.0807993933294
 20
2.127293081147824
 30
0.0
 10
28.63063483327722
 20
2.106230850977941
 30
0.0
 10
28.29936185372193
 20
2.095715962114427
 30
0.0
 10
28.01922872412089
 20
2.090424788427707
 30
0.0
 10
27.73793748907631
 20
2.088735856626056
 30
0.0
 10
27.4520526185361
 20
2.090830060869913
 30
0.0
 10
27.16480672139683
 20
2.09672827611706
 30
0.0
 10
26.76476908109277
 20
2.110196232077295
 30
0.0
 10
26.26719844128206
 20
2.137627889824326
 30
0.0
 10
25.79180066961283
 20
2.176334173547794
 30
0.0
 10
25.42150399293898
 20
2.212905273910324
 30
0.0
 10
25.09654137896699
 20
2.248849648005647
 30
0.0
 10
24.64705378177317
 20
2.305115606515198
 30
0.0
 10
24.29675511454399
 20
2.357885851404782
 30
0.0
 10
24.09639733124049
 20
2.388068464927382
 30
0.0
  0
SPLINE
  5
AD
330
1F
100
AcDbEntity
  8
0
  6
Continuous
 62
     1
370
    15
100
AcDbSpline
210
0.0
220
0.0
230
1.0
 70
     8
 71
     3
 72
    12
 73
     8
 74
     0
 42
0.000000001
 43
0.00000001
 40
0.0
 40
0.0
 40
0.0
 40
0.0
 40
0.3081065914198469
 40
0.5145466884408072
 40
0.6409192944352354
 40
0.7614790558586046
 40
0.9999999999999999
 40
0.9999999999999999
 40
0.9999999999999999
 40
0.9999999999999999
 10
24.09639733124049
 20
-2.388068464927384
 30
0.0
 10
24.34267025549046
 20
-2.351314494009989
 30
0.0
 10
24.75395297762081
 20
-2.289934327050739
 30
0.0
 10
25.26407906788156
 20
-2.22926697121341
 30
0.0
 10
25.62666564158245
 20
-2.192366859814567
 30
0.0
 10
26.01349279821822
 20
-2.156672949551663
 30
0.0
 10
26.29919769696116
 20
-2.14136486822303
 30
0.0
 10
26.48897843744067
 20
-2.13119640760982
 30
0.0
  0
SPLINE
  5
AE
330
1F
100
AcDbEntity
  8
0
  6
Continuous
 62
     1
370
    15
100
AcDbSpline
210
0.0
220
0.0
230
1.0
 70
     8
 71
     3
 72
    18
 73
    14
 74
     0
 42
0.000000001
 43
0.00000001
 40
0.0
 40
0.0
 40
0.0
 40
0.0
 40
0.12388625389952
 40
0.2075140463335413
 40
0.2626274357326702
 40
0.3187651952562005
 40
0.5008330765636527
 40
0.6134390618483212
 40
0.7177254479778985
 40
0.7576338774985136
 40
0.8114403276808151
 40
0.8920180173490991
 40
1.0
 40
1.0
 40
1.0
 40
1.0
 10
46.91942853125811
 20
2.171549523137966
 30
0.0
 10
46.68881339615621
 20
2.153597198294862
 30
0.0
 10
46.30252453581527
 20
2.123526391792727
 30
0.0
 10
45.81649388250815
 20
2.102671658691724
 30
0.0
 10
45.46051267820154
 20
2.092970615996825
 30
0.0
 10
44.91958202226449
 20
2.085950848569408
 30
0.0
 10
44.26971563497651
 20
2.09740024660733
 30
0.0
 10
43.53278884211409
 20
2.138365798493828
 30
0.0
 10
43.05794133084092
 20
2.177284864910563
 30
0.0
 10
42.69179944956792
 20
2.213568536659845
 30
0.0
 10
42.37000364070732
 20
2.249220410902804
 30
0.0
 10
41.9224822200444
 20
2.305263774851631
 30
0.0
 10
41.57298766898518
 20
2.35791543551839
 30
0.0
 10
41.37284352318301
 20
2.388067326634508
 30
0.0
  0
SPLINE
  5
AF
330
1F
100
AcDbEntity
  8
0
  6
Continuous
 62
     1
370
    15
100
AcDbSpline
210
0.0
220
0.0
230
1.0
 70
     8
 71
     3
 72
     9
 73
     5
 74
     0
 42
0.000000001
 43
0.00000001
 40
0.0
 40
0.0
 40
0.0
 40
0.0
 40
0.4959340260559702
 40
0.9999999999999999
 40
0.9999999999999999
 40
0.9999999999999999
 40
0.9999999999999999
 10
12.36651221349127
 20
2.171546214498884
 30
0.0
 10
11.97362431717803
 20
2.142794456607896
 30
0.0
 10
11.18140624850108
 20
2.084819491430284
 30
0.0
 10
10.39593123013926
 20
2.09133284962086
 30
0.0
 10
10.0
 20
2.09461601186084
 30
0.0
  0
LINE
  5
B0
330
1F
100
AcDbEntity
  8
외형선
  6
Continuous
370
    15
100
AcDbLine
 10
10.0
 20
-1.805340226256861
 30
0.0
 11
10.0
 21
-2.456444997324039
 31
0.0
  0
SPLINE
  5
B1
330
1F
100
AcDbEntity
  8
외형선
  6
Continuous
370
    15
100
AcDbSpline
210
0.0
220
0.0
230
1.0
 70
     8
 71
     3
 72
     8
 73
     4
 74
     0
 42
0.000000001
 43
0.00000001
 40
0.0
 40
0.0
 40
0.0
 40
0.0
 40
1.0
 40
1.0
 40
1.0
 40
1.0
 10
10.0
 20
-2.456444997324036
 30
0.0
 10
9.491301606526505
 20
-2.270889260545337
 30
0.0
 10
8.988711294611816
 20
-2.054702969799587
 30
0.0
 10
8.479988758622376
 20
-1.814357670827565
 30
0.0
  0
LINE
  5
B2
330
1F
100
AcDbEntity
  8
외형선
  6
Continuous
370
    15
100
AcDbLine
 10
8.479988758622376
 20
-3.175000000000001
 30
0.0
 11
8.479988758622376
 21
-1.814361636997545
 31
0.0
  0
LINE
  5
B3
330
1F
100
AcDbEntity
  8
외형선
  6
Continuous
370
    15
100
AcDbLine
 10
9.220884646865919
 20
2.127328948371122
 30
0.0
 11
10.0
 21
2.456444997324034
 31
0.0
  0
LINE
  5
B4
330
1F
100
AcDbEntity
  8
외형선
  6
Continuous
370
    15
100
AcDbLine
 10
8.479988758622376
 20
-0.9244643525405796
 30
0.0
 11
8.479988758622376
 21
3.174999999999999
 31
0.0
  0
SPLINE
  5
B5
330
1F
100
AcDbEntity
  8
외형선
  6
Continuous
370
    15
100
AcDbSpline
210
0.0
220
0.0
230
1.0
 70
     8
 71
     3
 72
     9
 73
     5
 74
     0
 42
0.000000001
 43
0.00000001
 40
0.0
 40
0.0
 40
0.0
 40
0.0
 40
0.5988352990525181
 40
0.9999999999999999
 40
0.9999999999999999
 40
0.9999999999999999
 40
0.9999999999999999
 10
8.488328598684417
 20
-1.028738622999691
 30
0.0
 10
8.485929991377493
 20
-1.008055067369283
 30
0.0
 10
8.481924537272294
 20
-0.9735154273996054
 30
0.0
 10
8.480542987588226
 20
-0.9385080690032556
 30
0.0
 10
8.479988758622376
 20
-0.9244643525412226
 30
0.0
  0
SPLINE
  5
B6
330
1F
100
AcDbEntity
  8
외형선
  6
Continuous
370
    15
100
AcDbSpline
210
0.0
220
0.0
230
1.0
 70
     8
 71
     3
 72
     8
 73
     4
 74
     0
 42
0.000000001
 43
0.00000001
 40
0.0
 40
0.0
 40
0.0
 40
0.0
 40
1.0
 40
1.0
 40
1.0
 40
1.0
 10
10.0
 20
-1.805340226256865
 30
0.0
 10
9.49408140676947
 20
-1.565738145677168
 30
0.0
 10
8.994276197305247
 20
-1.304302435940984
 30
0.0
 10
8.488328598684417
 20
-1.028738622999693
 30
0.0
  0
LINE
  5
B7
330
1F
100
AcDbEntity
  8
외형선
  6
Continuous
370
    15
100
AcDbLine
 10
-52.69
 20
3.174999999999992
 30
0.0
 11
-52.69
 21
-3.175000000000004
 31
0.0
  0
LINE
  5
B8
330
1F
100
AcDbEntity
  8
외형선
  6
Continuous
370
    15
100
AcDbLine
 10
-53.5
 20
2.364999999999992
 30
0.0
 11
-53.5
 21
-2.365000000000004
 31
0.0
  0
SPLINE
  5
B9
330
1F
100
AcDbEntity
  8
외형선
  6
Continuous
370
    15
100
AcDbSpline
210
0.0
220
0.0
230
1.0
 70
     8
 71
     3
 72
    17
 73
    13
 74
     0
 42
0.000000001
 43
0.00000001
 40
0.0
 40
0.0
 40
0.0
 40
0.0
 40
0.0162452615394158
 40
0.0450876791065694
 40
0.0872671684769216
 40
0.1429815798687203
 40
0.2500786385149308
 40
0.500067996175962
 40
0.6287449212392924
 40
0.7501015395903988
 40
0.900566612221259
 40
1.0
 40
1.0
 40
1.0
 40
1.0
 10
8.930136485032559
 20
-0.9250019059708735
 30
0.0
 10
8.926943583236277
 20
-0.9241898815949252
 30
0.0
 10
8.918081889550377
 20
-0.9219361601389402
 30
0.0
 10
8.90310764476488
 20
-0.9225998065261902
 30
0.0
 10
8.882034600872593
 20
-0.9237674845993128
 30
0.0
 10
8.849191006875689
 20
-0.9276889709899071
 30
0.0
 10
8.784870238057195
 20
-0.9376151063611066
 30
0.0
 10
8.71215439577156
 20
-0.9530880065768336
 30
0.0
 10
8.639255548354692
 20
-0.9715601450888967
 30
0.0
 10
8.582613361234735
 20
-0.9885923068767891
 30
0.0
 10
8.530513582034915
 20
-1.005267987925634
 30
0.0
 10
8.500336080478435
 20
-1.022057970285926
 30
0.0
 10
8.488328598681464
 20
-1.028738622996202
 30
0.0
  0
SPLINE
  5
BA
330
1F
100
AcDbEntity
  8
외형선
  6
Continuous
370
    15
100
AcDbSpline
210
0.0
220
0.0
230
1.0
 70
     8
 71
     3
 72
    14
 73
    10
 74
     0
 42
0.000000001
 43
0.00000001
 40
0.0
 40
0.0
 40
0.0
 40
0.0
 40
0.2499999999999997
 40
0.2499999999999997
 40
0.4999999999999994
 40
0.4999999999999994
 40
0.7499999999999991
 40
0.7499999999999991
 40
1.0
 40
1.0
 40
1.0
 40
1.0
 10
8.750015607933037
 20
1.798418074334706
 30
0.0
 10
8.72092188352752
 20
1.791413795419311
 30
0.0
 10
8.690423656556497
 20
1.788930704569406
 30
0.0
 10
8.624052011397902
 20
1.802826951516166
 30
0.0
 10
8.588563522159527
 20
1.819891688273604
 30
0.0
 10
8.526524066865964
 20
1.888877417959047
 30
0.0
 10
8.505276450288658
 20
1.937626695332388
 30
0.0
 10
8.48314610712728
 20
2.028407070816223
 30
0.0
 10
8.47998875862238
 20
2.072420024771447
 30
0.0
 10
8.47998875862238
 20
2.112695598146209
 30
0.0
  0
SPLINE
  5
BB
330
1F
100
AcDbEntity
  8
외형선
  6
Continuous
370
    15
100
AcDbSpline
210
0.0
220
0.0
230
1.0
 70
     8
 71
     3
 72
    16
 73
    12
 74
     0
 42
0.000000001
 43
0.00000001
 40
0.0
 40
0.0
 40
0.0
 40
0.0
 40
0.2994637790068556
 40
0.4552848139431052
 40
0.6113818108718867
 40
0.7280453042998114
 40
0.8209400017270071
 40
0.8940430318191095
 40
0.9475789058154298
 40
0.9821076435346929
 40
1.0
 40
1.0
 40
1.0
 40
1.0
 10
8.750015207052597
 20
1.798418254035493
 30
0.0
 10
8.774428896321455
 20
1.804562005624601
 30
0.0
 10
8.811545845868073
 20
1.813902556954167
 30
0.0
 10
8.861451936444444
 20
1.828509116335439
 30
0.0
 10
8.896725726997595
 20
1.839281941006937
 30
0.0
 10
8.927163671075363
 20
1.848908644255937
 30
0.0
 10
8.951402842176929
 20
1.856301143471168
 30
0.0
 10
8.970984449443382
 20
1.862025421830545
 30
0.0
 10
8.986575490351466
 20
1.865427012727602
 30
0.0
 10
8.997487490237193
 20
1.867950127807535
 30
0.0
 10
9.004709545546298
 20
1.867201686631722
 30
0.0
 10
9.007174575893577
 20
1.866946228852383
 30
0.0
  0
SPLINE
  5
BC
330
1F
100
AcDbEntity
  8
외형선
  6
Continuous
370
    15
100
AcDbSpline
210
0.0
220
0.0
230
1.0
 70
    24
 71
     3
 72
     8
 73
     4
 74
     0
 42
0.000000001
 43
0.00000001
 40
0.0
 40
0.0
 40
0.0
 40
0.0
 40
1.0
 40
1.0
 40
1.0
 40
1.0
 10
10.00000000000001
 20
-1.39794512402162
 30
0.0
 10
10.00000000000001
 20
-1.524940097816905
 30
0.0
 10
10.00000000000001
 20
-1.661572182028267
 30
0.0
 10
10.00000000000001
 20
-1.805340226246131
 30
0.0
  0
SPLINE
  5
BD
330
1F
100
AcDbEntity
  8
외형선
  6
Continuous
370
    15
100
AcDbSpline
210
0.0
220
0.0
230
1.0
 70
     8
 71
     3
 72
    10
 73
     6
 74
     0
 42
0.000000001
 43
0.00000001
 40
0.0
 40
0.0
 40
0.0
 40
0.0
 40
0.5
 40
0.5
 40
1.0
 40
1.0
 40
1.0
 40
1.0
 10
10.0
 20
-1.397945124021617
 30
0.0
 10
9.820773719094284
 20
-1.322921389044021
 30
0.0
 10
9.641425067321507
 20
-1.245661060528719
 30
0.0
 10
9.28502600956757
 20
-1.087787638616754
 30
0.0
 10
9.108587766046982
 20
-1.007276267687454
 30
0.0
 10
8.930136860819534
 20
-0.9250001567105263
 30
0.0
  0
SPLINE
  5
BE
330
1F
100
AcDbEntity
  8
외형선
  6
Continuous
370
    15
100
AcDbSpline
210
0.0
220
0.0
230
1.0
 70
     8
 71
     3
 72
    10
 73
     6
 74
     0
 42
0.000000001
 43
0.00000001
 40
0.0
 40
0.0
 40
0.0
 40
0.0
 40
0.5
 40
0.5
 40
1.0
 40
1.0
 40
1.0
 40
1.0
 10
10.0
 20
1.527135031508092
 30
0.0
 10
9.833679458342045
 20
1.588347521994879
 30
0.0
 10
9.667253244810603
 20
1.647484853235336
 30
0.0
 10
9.336223395917507
 20
1.760906884227902
 30
0.0
 10
9.172480020437588
 20
1.815106854177963
 30
0.0
 10
9.007170353491452
 20
1.866942997651929
 30
0.0
  0
SPLINE
  5
BF
330
1F
100
AcDbEntity
  8
외형선
  6
Continuous
370
    15
100
AcDbSpline
210
0.0
220
0.0
230
1.0
 70
    24
 71
     3
 72
    10
 73
     6
 74
     0
 42
0.000000001
 43
0.00000001
 40
0.0
 40
0.0
 40
0.0
 40
0.0
 40
0.5
 40
0.5
 40
1.0
 40
1.0
 40
1.0
 40
1.0
 10
10.00000000000001
 20
1.527135031508089
 30
0.0
 10
10.00000000000001
 20
1.10440299512325
 30
0.0
 10
10.00000000000001
 20
0.6065738429033773
 30
0.0
 10
10.00000000000001
 20
-0.4158866166007273
 30
0.0
 10
10.00000000000001
 20
-0.936116854359404
 30
0.0
 10
10.00000000000001
 20
-1.397945124021619
 30
0.0
  0
SPLINE
  5
C0
330
1F
100
AcDbEntity
  8
외형선
  6
Continuous
370
    15
100
AcDbSpline
210
0.0
220
0.0
230
1.0
 70
    24
 71
     3
 72
    11
 73
     7
 74
     0
 42
0.000000001
 43
0.00000001
 40
0.0
 40
0.0
 40
0.0
 40
0.0
 40
0.124899603848046
 40
0.4214147600657315
 40
0.7066588226794042
 40
1.0
 40
1.0
 40
1.0
 40
1.0
 10
10.0
 20
2.082766246843011
 30
0.0
 10
10.0
 20
2.085445707910242
 30
0.0
 10
10.0
 20
2.094486284565128
 30
0.0
 10
9.999999999999996
 20
2.004210678389102
 30
0.0
 10
10.0
 20
1.824094648807201
 30
0.0
 10
10.0
 20
1.627040805701113
 30
0.0
 10
10.0
 20
1.527135031508093
 30
0.0
  0
SPLINE
  5
C1
330
1F
100
AcDbEntity
  8
외형선
  6
Continuous
370
    15
100
AcDbSpline
210
0.0
220
0.0
230
1.0
 70
    24
 71
     3
 72
    10
 73
     6
 74
     0
 42
0.000000001
 43
0.00000001
 40
0.0
 40
0.0
 40
0.0
 40
0.0
 40
0.2305685250947241
 40
0.8264802037356228
 40
1.0
 40
1.0
 40
1.0
 40
1.0
 10
10.0
 20
2.456444997324034
 30
0.0
 10
10.0
 20
2.431613472688142
 30
0.0
 10
9.999999999999996
 20
2.342604083693235
 30
0.0
 10
10.0
 20
2.238074061862938
 30
0.0
 10
10.0
 20
2.170214173499765
 30
0.0
 10
10.0
 20
2.15491062225792
 30
0.0
  0
SPLINE
  5
C2
330
1F
100
AcDbEntity
  8
0
  6
Continuous
 62
     1
370
    15
100
AcDbSpline
210
0.0
220
0.0
230
1.0
 70
     8
 71
     3
 72
    23
 73
    19
 74
     0
 42
0.000000001
 43
0.00000001
 40
0.0
 40
0.0
 40
0.0
 40
0.0
 40
0.0396349032426258
 40
0.1074071561579826
 40
0.1751788370614264
 40
0.2429499755186893
 40
0.3107206011478299
 40
0.3784907436164059
 40
0.446260432638643
 40
0.5140296979725867
 40
0.5817985694172514
 40
0.6495670768097566
 40
0.7173352500224575
 40
0.7851031189600678
 40
0.8528707135567747
 40
0.9198010529417521
 40
0.9867308298929361
 40
1.0
 40
1.0
 40
1.0
 40
1.0
 10
36.19146647827978
 20
-2.496897648511821
 30
0.0
 10
35.91561662449249
 20
-2.59643405262511
 30
0.0
 10
35.16808740408496
 20
-2.86616908981078
 30
0.0
 10
33.94888561911587
 20
-3.107671487938644
 30
0.0
 10
32.53386448076321
 20
-3.211338665089905
 30
0.0
 10
31.11885704687822
 20
-3.096061630761866
 30
0.0
 10
29.70386242748837
 20
-2.778942819629542
 30
0.0
 10
28.28887992134666
 20
-2.278315984571856
 30
0.0
 10
26.87390876618869
 20
-1.627825145202723
 30
0.0
 10
25.45894824778161
 20
-0.8701259870282537
 30
0.0
 10
24.04399751391632
 20
-0.0551241402737528
 30
0.0
 10
22.6290562098322
 20
0.7634149780636242
 30
0.0
 10
21.21412212299146
 20
1.532035734306492
 30
0.0
 10
19.79919996894843
 20
2.198488793683504
 30
0.0
 10
18.39009396767987
 20
2.722865259565146
 30
0.0
 10
16.98688102561733
 20
3.050427222339787
 30
0.0
 10
15.96293560340044
 20
3.194406919843305
 30
0.0
 10
15.404793914463
 20
3.163812219035917
 30
0.0
 10
15.31244760212331
 20
3.158750228769471
 30
0.0
  0
SPLINE
  5
C3
330
1F
100
AcDbEntity
  8
0
  6
Continuous
 62
     1
370
    15
100
AcDbSpline
210
0.0
220
0.0
230
1.0
 70
     8
 71
     3
 72
    15
 73
    11
 74
     0
 42
0.000000001
 43
0.00000001
 40
0.0
 40
0.0
 40
0.0
 40
0.0
 40
0.0710378137329576
 40
0.2150130708731671
 40
0.3589964861072364
 40
0.5029524132369698
 40
0.6468454045961893
 40
0.7906561596291698
 40
0.93452553374368
 40
1.0
 40
1.0
 40
1.0
 40
1.0
 10
34.05836924552622
 20
-2.611532912821223
 30
0.0
 10
33.78675010526968
 20
-2.644740898922831
 30
0.0
 10
32.964629288404
 20
-2.74525287548874
 30
0.0
 10
31.59188162238568
 20
-2.652228770108034
 30
0.0
 10
29.94031189198013
 20
-2.349332058057136
 30
0.0
 10
28.28910225562207
 20
-1.824195854184155
 30
0.0
 10
26.63864559876092
 20
-1.138240362669672
 30
0.0
 10
24.98874540039529
 20
-0.3535269607557373
 30
0.0
 10
23.63851119630812
 20
0.3268583538374193
 30
0.0
 10
22.83804503398429
 20
0.694339823939153
 30
0.0
 10
22.5876909053815
 20
0.809273480794678
 30
0.0
  0
SPLINE
  5
C4
330
1F
100
AcDbEntity
  8
0
  6
Continuous
 62
     1
370
    15
100
AcDbSpline
210
0.0
220
0.0
230
1.0
 70
     8
 71
     3
 72
    18
 73
    14
 74
     0
 42
0.000000001
 43
0.00000001
 40
0.0
 40
0.0
 40
0.0
 40
0.0
 40
0.0912279903382807
 40
0.1824548564048734
 40
0.2736806371920137
 40
0.364905371795835
 40
0.4561290994127284
 40
0.547351859335679
 40
0.6385736909505799
 40
0.7297946337325282
 40
0.8210147272421059
 40
0.912234011121638
 40
1.0
 40
1.0
 40
1.0
 40
1.0
 10
48.10000000000001
 20
-3.012887259811285
 30
0.0
 10
47.62826735554681
 20
-2.907680080552132
 30
0.0
 10
46.68480788015943
 20
-2.697267018581656
 30
0.0
 10
45.26963162567489
 20
-2.150877780235363
 30
0.0
 10
43.85447530485678
 20
-1.477106985240759
 30
0.0
 10
42.43933851828267
 20
-0.7022540756287593
 30
0.0
 10
41.02422044994263
 20
0.1177907255204521
 30
0.0
 10
39.6091203916765
 20
0.9304347438977364
 30
0.0
 10
38.19403760926102
 20
1.681421087005052
 30
0.0
 10
36.77897135406145
 20
2.322892380136151
 30
0.0
 10
35.36392095076545
 20
2.80700117712566
 30
0.0
 10
33.96673781872779
 20
3.118747215469107
 30
0.0
 10
33.04123926906502
 20
3.153936201302776
 30
0.0
 10
32.58741815761236
 20
3.171191230678831
 30
0.0
  0
SPLINE
  5
C5
330
1F
100
AcDbEntity
  8
0
  6
Continuous
 62
     1
370
    15
100
AcDbSpline
210
0.0
220
0.0
230
1.0
 70
     8
 71
     3
 72
    14
 73
    10
 74
     0
 42
0.000000001
 43
0.00000001
 40
0.0
 40
0.0
 40
0.0
 40
0.0
 40
0.059934318183302
 40
0.2166140591870509
 40
0.373292483568445
 40
0.5299699404088428
 40
0.6866467790624972
 40
0.8433233490580628
 40
1.0
 40
1.0
 40
1.0
 40
1.0
 10
18.91883540972799
 20
-2.496816366759027
 30
0.0
 10
18.74064862221236
 20
-2.564520722000688
 30
0.0
 10
18.09664758061857
 20
-2.809217177355113
 30
0.0
 10
16.98688190392015
 20
-3.055115422304306
 30
0.0
 10
15.58948823287803
 20
-3.206903509982922
 30
0.0
 10
14.19211068436357
 20
-3.142971053703659
 30
0.0
 10
12.7947381932139
 20
-2.877695994389722
 30
0.0
 10
11.39736904417732
 20
-2.435168895846877
 30
0.0
 10
10.46578976160581
 20
-2.015283152274281
 30
0.0
 10
9.999999999995834
 20
-1.805340226254893
 30
0.0
  0
SPLINE
  5
C6
330
1F
100
AcDbEntity
  8
외형선
  6
Continuous
370
    15
100
AcDbSpline
210
0.0
220
0.0
230
1.0
 70
    24
 71
     3
 72
     8
 73
     4
 74
     0
 42
0.000000001
 43
0.00000001
 40
0.0
 40
0.0
 40
0.0
 40
0.0
 40
1.0
 40
1.0
 40
1.0
 40
1.0
 10
10.00000000000001
 20
-1.39794512402162
 30
0.0
 10
10.00000000000001
 20
-1.524940097816905
 30
0.0
 10
10.00000000000001
 20
-1.661572182028266
 30
0.0
 10
10.00000000000001
 20
-1.80534022624613
 30
0.0
  0
SPLINE
  5
C7
330
1F
100
AcDbEntity
  8
0
  6
Continuous
 62
     1
370
    15
100
AcDbSpline
210
0.0
220
0.0
230
1.0
 70
     8
 71
     3
 72
    12
 73
     8
 74
     0
 42
0.000000001
 43
0.00000001
 40
0.0
 40
0.0
 40
0.0
 40
0.0
 40
0.2002106891255246
 40
0.4005401702446713
 40
0.6009394639896951
 40
0.8013590877424233
 40
1.0
 40
1.0
 40
1.0
 40
1.0
 10
48.10000000000001
 20
-2.504986939369087
 30
0.0
 10
47.55009857991656
 20
-2.382662763949471
 30
0.0
 10
46.44996946403349
 20
-2.137941833905155
 30
0.0
 10
44.79922033417782
 20
-1.519392824657944
 30
0.0
 10
43.14782838651242
 20
-0.7823653131268896
 30
0.0
 10
41.50103935881684
 20
0.0319187931948923
 30
0.0
 10
40.40481315149877
 20
0.5581556861501262
 30
0.0
 10
39.85914312348905
 20
0.820101348643601
 30
0.0
  0
SPLINE
  5
C8
330
1F
100
AcDbEntity
  8
0
  6
Continuous
 62
     1
370
    15
100
AcDbSpline
210
0.0
220
0.0
230
1.0
 70
     8
 71
     3
 72
    12
 73
     8
 74
     0
 42
0.000000001
 43
0.00000001
 40
0.0
 40
0.0
 40
0.0
 40
0.0
 40
0.0058738656620548
 40
0.2495502957718445
 40
0.4931100635554418
 40
0.7464745565788704
 40
1.0
 40
1.0
 40
1.0
 40
1.0
 10
16.77283909188354
 20
-2.63925648003043
 30
0.0
 10
16.75957780207647
 20
-2.641489345856038
 30
0.0
 10
16.19617390691266
 20
-2.736352313322089
 30
0.0
 10
15.08297532831434
 20
-2.708715280399979
 30
0.0
 10
13.41127390447011
 20
-2.521577576568544
 30
0.0
 10
11.71695872916504
 20
-2.077508796020786
 30
0.0
 10
10.572440714211
 20
-1.62451429376528
 30
0.0
 10
10.0
 20
-1.397945124021617
 30
0.0
  0
LINE
  5
C9
330
1F
100
AcDbEntity
  8
0
  6
Continuous
 62
     1
370
    15
100
AcDbLine
 10
48.09999999999972
 20
-3.012887259811289
 30
0.0
 11
48.10000000000001
 21
-2.504986939369087
 31
0.0
  0
SPLINE
  5
CA
330
1F
100
AcDbEntity
  8
0
  6
Continuous
 62
     1
370
    15
100
AcDbSpline
210
0.0
220
0.0
230
1.0
 70
     8
 71
     3
 72
    10
 73
     6
 74
     0
 42
0.000000001
 43
0.00000001
 40
0.0
 40
0.0
 40
0.0
 40
0.0
 40
0.3702926783965509
 40
0.740585165467618
 40
1.0
 40
1.0
 40
1.0
 40
1.0
 10
10.0
 20
-2.456444997324042
 30
0.0
 10
10.46579025334602
 20
-2.610066847907299
 30
0.0
 10
11.39737051937018
 20
-2.91731046969937
 30
0.0
 10
12.65526765459098
 20
-3.148276848354037
 30
0.0
 10
13.44737516345272
 20
-3.152002318057063
 30
0.0
 10
13.77369253549787
 20
-3.153537066143055
 30
0.0
  0
SPLINE
  5
CB
330
1F
100
AcDbEntity
  8
0
  6
Continuous
 62
     1
370
    15
100
AcDbSpline
210
0.0
220
0.0
230
1.0
 70
     8
 71
     3
 72
    23
 73
    19
 74
     0
 42
0.000000001
 43
0.00000001
 40
0.0
 40
0.0
 40
0.0
 40
0.0
 40
0.0180730610731724
 40
0.0835309251162342
 40
0.1489892271454083
 40
0.2144479958627586
 40
0.2799072599252725
 40
0.3453670479421231
 40
0.4108273884719386
 40
0.4762883100200877
 40
0.5417498410359682
 40
0.6072120099103138
 40
0.672674844972511
 40
0.7381383744879266
 40
0.8036026266552516
 40
0.8690676296038532
 40
0.9345334113911523
 40
1.0
 40
1.0
 40
1.0
 40
1.0
 10
26.48323640427568
 20
2.128631834869066
 30
0.0
 10
26.613461725183
 20
2.188061765945399
 30
0.0
 10
27.21534324845714
 20
2.462737821224662
 30
0.0
 10
28.28888587673924
 20
2.807816224150238
 30
0.0
 10
29.70386785951674
 20
3.116433734311487
 30
0.0
 10
31.11886207794839
 20
3.209500467280439
 30
0.0
 10
32.53386910742577
 20
3.094021847461531
 30
0.0
 10
33.94888973446881
 20
2.774079902995336
 30
0.0
 10
35.36392468730149
 20
2.271681162600219
 30
0.0
 10
36.77897470799994
 20
1.619652644701733
 30
0.0
 10
38.19404053288655
 20
0.8609855963224861
 30
0.0
 10
39.60912289836548
 20
0.0456410216597581
 30
0.0
 10
41.02422253674943
 20
-0.7727884674099594
 30
0.0
 10
42.43934018668283
 20
-1.540048381814825
 30
0.0
 10
43.85447655518786
 20
-2.206981766974756
 30
0.0
 10
45.2696324586293
 20
-2.724576710324845
 30
0.0
 10
46.68480829637133
 20
-3.07776466366672
 30
0.0
 10
47.62826749421949
 20
-3.140799117316273
 30
0.0
 10
48.10000000000002
 20
-3.175000000000001
 30
0.0
  0
SPLINE
  5
CC
330
1F
100
AcDbEntity
  8
0
  6
Continuous
 62
     1
370
    15
100
AcDbSpline
210
0.0
220
0.0
230
1.0
 70
     8
 71
     3
 72
    15
 73
    11
 74
     0
 42
0.000000001
 43
0.00000001
 40
0.0
 40
0.0
 40
0.0
 40
0.0
 40
0.0344940581436186
 40
0.1906556546196579
 40
0.3467181506292716
 40
0.5028181918431861
 40
0.6590074996824264
 40
0.8152462289381261
 40
0.9714941755239669
 40
1.0
 40
1.0
 40
1.0
 40
1.0
 10
40.20935962102027
 20
-0.2981857014698244
 30
0.0
 10
40.08781541895782
 20
-0.2505954369747145
 30
0.0
 10
39.41601596547056
 20
0.0124456060089856
 30
0.0
 10
38.19435948190801
 20
0.5169369772292105
 30
0.0
 10
36.54437827116679
 20
1.141323462823328
 30
0.0
 10
34.89422934081293
 20
1.665358163913702
 30
0.0
 10
33.24334227328659
 20
2.044197309061202
 30
0.0
 10
31.59188974908223
 20
2.223383393405639
 30
0.0
 10
30.39032909704629
 20
2.255404963437941
 30
0.0
 10
29.7393321173863
 20
2.170013564553549
 30
0.0
 10
29.6388892115124
 20
2.156838449294082
 30
0.0
  0
SPLINE
  5
CD
330
1F
100
AcDbEntity
  8
0
  6
Continuous
 62
     1
370
    15
100
AcDbSpline
210
0.0
220
0.0
230
1.0
 70
     8
 71
     3
 72
    22
 73
    18
 74
     0
 42
0.000000001
 43
0.00000001
 40
0.0
 40
0.0
 40
0.0
 40
0.0
 40
0.0663872430954098
 40
0.1327744518893814
 40
0.1991617745011653
 40
0.2655493590179002
 40
0.3319373534528411
 40
0.3983259057036346
 40
0.4655448451530086
 40
0.5327640567214209
 40
0.5999835701022376
 40
0.6672034149595888
 40
0.7344236209255063
 40
0.8016442175970708
 40
0.8688652345335627
 40
0.9360867012536263
 40
1.0
 40
1.0
 40
1.0
 40
1.0
 10
10.0
 20
2.45644499732404
 30
0.0
 10
10.46579025114653
 20
2.611491638878052
 30
0.0
 10
11.39737051277175
 20
2.921584841875462
 30
0.0
 10
12.79474116104839
 20
3.156788514251829
 30
0.0
 10
14.19211502779538
 20
3.200553567660414
 30
0.0
 10
15.58949441297813
 20
3.035704745983907
 30
0.0
 10
16.98688819492639
 20
2.676677713574418
 30
0.0
 10
18.39010222540688
 20
2.14328889808947
 30
0.0
 10
19.79920836521949
 20
1.467913455629495
 30
0.0
 10
21.21413011470913
 20
0.6930713759507029
 30
0.0
 10
22.62906377396758
 20
-0.127375371169497
 30
0.0
 10
24.04400465588616
 20
-0.9395258031784226
 30
0.0
 10
25.45895496928063
 20
-1.689493707504271
 30
0.0
 10
26.87391505558385
 20
-2.329437855707258
 30
0.0
 10
28.28888582426839
 20
-2.811485588913538
 30
0.0
 10
29.68065259367904
 20
-3.12015936039308
 30
0.0
 10
30.60076362543708
 20
-3.153738644303901
 30
0.0
 10
31.04921321120034
 20
-3.170104729961261
 30
0.0
  0
SPLINE
  5
CE
330
1F
100
AcDbEntity
  8
0
  6
Continuous
 62
     1
370
    15
100
AcDbSpline
210
0.0
220
0.0
230
1.0
 70
     8
 71
     3
 72
    11
 73
     7
 74
     0
 42
0.000000001
 43
0.00000001
 40
0.0
 40
0.0
 40
0.0
 40
0.0
 40
0.0258432104813949
 40
0.3505582309124006
 40
0.675277114485729
 40
1.0
 40
1.0
 40
1.0
 40
1.0
 10
43.74184345364058
 20
2.129658643530858
 30
0.0
 10
43.77938619832094
 20
2.147257637443503
 30
0.0
 10
44.28864638363028
 20
2.385984639891456
 30
0.0
 10
45.26963267429224
 20
2.715763963408559
 30
0.0
 10
46.68480824245455
 20
3.079967892995539
 30
0.0
 10
47.62826747624715
 20
3.141533530109555
 30
0.0
 10
48.09999999999972
 20
3.174999999999999
 30
0.0
  0
SPLINE
  5
CF
330
1F
100
AcDbEntity
  8
0
  6
Continuous
 62
     1
370
    15
100
AcDbSpline
210
0.0
220
0.0
230
1.0
 70
    24
 71
     3
 72
    10
 73
     6
 74
     0
 42
0.000000001
 43
0.00000001
 40
0.0
 40
0.0
 40
0.0
 40
0.0
 40
0.5
 40
0.5
 40
1.0
 40
1.0
 40
1.0
 40
1.0
 10
48.10000000000001
 20
2.222499999999998
 30
0.0
 10
48.10000000000001
 20
2.35722241536322
 30
0.0
 10
48.09999999999999
 20
2.513782338653096
 30
0.0
 10
48.09999999999999
 20
2.842244636050717
 30
0.0
 10
48.10000000000001
 20
3.013308158669678
 30
0.0
 10
48.09999999999972
 20
3.174999999999999
 30
0.0
  0
LINE
  5
D0
330
1F
100
AcDbEntity
  8
0
  6
Continuous
 62
     1
370
    15
100
AcDbLine
 10
48.10000000000001
 20
2.222499999999998
 30
0.0
 11
46.91455621831629
 21
2.151112927727313
 31
0.0
  0
SPLINE
  5
D1
330
1F
100
AcDbEntity
  8
0
  6
Continuous
 62
     1
370
    15
100
AcDbSpline
210
0.0
220
0.0
230
1.0
 70
     8
 71
     3
 72
    14
 73
    10
 74
     0
 42
0.000000001
 43
0.00000001
 40
0.0
 40
0.0
 40
0.0
 40
0.0
 40
0.1182308166736646
 40
0.2743815561306361
 40
0.4305342262385197
 40
0.5891255577295824
 40
0.7476117770467566
 40
0.9060505378104192
 40
1.0
 40
1.0
 40
1.0
 40
1.0
 10
22.93812023649323
 20
-0.3014230515972931
 30
0.0
 10
22.52128214253935
 20
-0.1336521740150052
 30
0.0
 10
21.55391434375908
 20
0.2556983841519866
 30
0.0
 10
20.03594142889306
 20
0.8601037005422041
 30
0.0
 10
18.37568898818862
 20
1.440510846676632
 30
0.0
 10
16.70718215417714
 20
1.896005234323914
 30
0.0
 10
15.03076423092145
 20
2.169924205517272
 30
0.0
 10
13.5823347173577
 20
2.262202749376994
 30
0.0
 10
12.69248778272132
 20
2.177917428643849
 30
0.0
 10
12.36124950241685
 20
2.146542903871264
 30
0.0
  0
SPLINE
  5
D2
330
1F
100
AcDbEntity
  8
외형선
  6
Continuous
370
    15
100
AcDbSpline
210
0.0
220
0.0
230
1.0
 70
    24
 71
     3
 72
    10
 73
     6
 74
     0
 42
0.000000001
 43
0.00000001
 40
0.0
 40
0.0
 40
0.0
 40
0.0
 40
0.2305685251053631
 40
0.8264802037519258
 40
1.0
 40
1.0
 40
1.0
 40
1.0
 10
10.0
 20
2.456444997324037
 30
0.0
 10
10.0
 20
2.431613472687023
 30
0.0
 10
9.999999999999996
 20
2.342604083690446
 30
0.0
 10
10.0
 20
2.238074061860222
 30
0.0
 10
10.0
 20
2.170214173498264
 30
0.0
 10
10.0
 20
2.15491062225792
 30
0.0
  0
LINE
  5
D3
330
1F
100
AcDbEntity
  8
0
  6
Continuous
 62
     1
370
    15
100
AcDbLine
 10
48.10000000000002
 20
-3.175000000000001
 30
0.0
 11
48.10000000000051
 21
-3.012887259811268
 31
0.0
  0
SPLINE
  5
D4
330
1F
100
AcDbEntity
  8
0
  6
Continuous
 62
     1
370
    15
100
AcDbSpline
210
0.0
220
0.0
230
1.0
 70
     8
 71
     3
 72
     8
 73
     4
 74
     0
 42
0.000000001
 43
0.00000001
 40
0.0
 40
0.0
 40
0.0
 40
0.0
 40
1.0
 40
1.0
 40
1.0
 40
1.0
 10
46.13492473302121
 20
0.8886594965445096
 30
0.0
 10
46.02226898477528
 20
1.022151308112349
 30
0.0
 10
45.92176042916725
 20
1.150592603091037
 30
0.0
 10
45.83624464654555
 20
1.272800256195242
 30
0.0
  0
LINE
  5
D5
330
1F
100
AcDbEntity
  8
0
  6
Continuous
 62
     1
370
    15
100
AcDbLine
 10
45.87637756187667
 20
1.306475770647306
 30
0.0
 11
48.10000000000001
 21
0.0000000000000037
 31
0.0
  0
LINE
  5
D6
330
1F
100
AcDbEntity
  8
0
  6
Continuous
 62
     1
370
    15
100
AcDbLine
 10
48.10000000000001
 20
0.0000000000000037
 30
0.0
 11
48.10000000000001
 21
-0.8484963536441189
 31
0.0
  0
SPLINE
  5
D7
330
1F
100
AcDbEntity
  8
0
  6
Continuous
 62
     1
370
    15
100
AcDbSpline
210
0.0
220
0.0
230
1.0
 70
     8
 71
     3
 72
    10
 73
     6
 74
     0
 42
0.000000001
 43
0.00000001
 40
0.0
 40
0.0
 40
0.0
 40
0.0
 40
0.5
 40
0.5
 40
1.0
 40
1.0
 40
1.0
 40
1.0
 10
48.09999999999999
 20
-0.848496353644114
 30
0.0
 10
47.75983158573148
 20
-0.581065157566496
 30
0.0
 10
47.42534861431271
 20
-0.3026650804837908
 30
0.0
 10
46.76803715757762
 20
0.2766199837601214
 30
0.0
 10
46.44214858915169
 20
0.5805576266455381
 30
0.0
 10
46.1349247330273
 20
0.8886594965384006
 30
0.0
  0
SPLINE
  5
D8
330
1F
100
AcDbEntity
  8
0
  6
Continuous
 62
     1
370
    15
100
AcDbSpline
210
0.0
220
0.0
230
1.0
 70
     8
 71
     3
 72
    21
 73
    17
 74
     0
 42
0.000000001
 43
0.00000001
 40
0.0
 40
0.0
 40
0.0
 40
0.0
 40
0.0001617013786519
 40
0.080266363764515
 40
0.1603516496468464
 40
0.2435620319209156
 40
0.3267919121145263
 40
0.4100681489389537
 40
0.493370050076419
 40
0.5766767376443874
 40
0.6599672990825985
 40
0.7432209385773557
 40
0.8264263326674386
 40
0.9096661147948667
 40
0.9929485323117355
 40
1.0
 40
1.0
 40
1.0
 40
1.0
 10
41.37293696462365
 20
-2.387859609724971
 30
0.0
 10
41.37186837278969
 20
-2.38809178260319
 30
0.0
 10
40.84143392890505
 20
-2.503339239704122
 30
0.0
 10
39.78178710830707
 20
-2.556462708341992
 30
0.0
 10
38.17337285718428
 20
-2.510795069333452
 30
0.0
 10
36.54437911852095
 20
-2.222848282185355
 30
0.0
 10
34.89424312238835
 20
-1.73901094066396
 30
0.0
 10
33.24334865210943
 20
-1.097933379629786
 30
0.0
 10
31.59188791490731
 20
-0.3590060581934747
 30
0.0
 10
29.94031649252806
 20
0.4120541911019261
 30
0.0
 10
28.28911132356419
 20
1.146623706904446
 30
0.0
 10
26.63865648845151
 20
1.776868569253359
 30
0.0
 10
24.98874791056223
 20
2.254693925345119
 30
0.0
 10
23.33848569344894
 20
2.507159295767944
 30
0.0
 10
22.19139903452773
 20
2.587927612658381
 30
0.0
 10
21.59439223464268
 20
2.519581297986356
 30
0.0
 10
21.54778985338227
 20
2.514246181175789
 30
0.0
  0
SPLINE
  5
D9
330
1F
100
AcDbEntity
  8
외형선
  6
Continuous
370
    15
100
AcDbSpline
210
0.0
220
0.0
230
1.0
 70
    24
 71
     3
 72
    10
 73
     6
 74
     0
 42
0.000000001
 43
0.00000001
 40
0.0
 40
0.0
 40
0.0
 40
0.0
 40
0.5
 40
0.5
 40
1.0
 40
1.0
 40
1.0
 40
1.0
 10
10.00000000000001
 20
1.527135031508089
 30
0.0
 10
10.00000000000001
 20
1.10440299512325
 30
0.0
 10
10.00000000000001
 20
0.6065738429033773
 30
0.0
 10
10.00000000000001
 20
-0.4158866166007273
 30
0.0
 10
10.00000000000001
 20
-0.936116854359404
 30
0.0
 10
10.00000000000001
 20
-1.397945124021619
 30
0.0
  0
SPLINE
  5
DA
330
1F
100
AcDbEntity
  8
0
  6
Continuous
 62
     1
370
    15
100
AcDbSpline
210
0.0
220
0.0
230
1.0
 70
     8
 71
     3
 72
    12
 73
     8
 74
     0
 42
0.000000001
 43
0.00000001
 40
0.0
 40
0.0
 40
0.0
 40
0.0
 40
0.2171626540680322
 40
0.4343313373593901
 40
0.651486462195125
 40
0.8686084891706571
 40
1.0
 40
1.0
 40
1.0
 40
1.0
 10
46.13492473302892
 20
0.8886594965411824
 30
0.0
 10
45.60545813475515
 20
1.110384016516889
 30
0.0
 10
44.54651023829351
 20
1.55383921234558
 30
0.0
 10
42.95810093078411
 20
2.07284889644868
 30
0.0
 10
41.36980828052987
 20
2.416503229236738
 30
0.0
 10
39.99066806971413
 20
2.56922704071081
 30
0.0
 10
39.14100537810053
 20
2.517258042762506
 30
0.0
 10
38.82067789398155
 20
2.497665446160023
 30
0.0
  0
SPLINE
  5
DB
330
1F
100
AcDbEntity
  8
0
  6
Continuous
 62
     1
370
    15
100
AcDbSpline
210
0.0
220
0.0
230
1.0
 70
     8
 71
     3
 72
    16
 73
    12
 74
     0
 42
0.000000001
 43
0.00000001
 40
0.0
 40
0.0
 40
0.0
 40
0.0
 40
0.0546863627440278
 40
0.1717030475134237
 40
0.2887505008762581
 40
0.405799363603971
 40
0.5246764513260437
 40
0.6434767983729484
 40
0.7622424966685195
 40
0.8810958534924587
 40
1.0
 40
1.0
 40
1.0
 40
1.0
 10
24.11034600046012
 20
-2.359415526219028
 30
0.0
 10
23.85315030263284
 20
-2.405830077355262
 30
0.0
 10
23.04561286718495
 20
-2.551561471420766
 30
0.0
 10
21.68745788340893
 20
-2.560451075636049
 30
0.0
 10
20.0359427351328
 20
-2.385975895213361
 30
0.0
 10
18.37568696805045
 20
-1.984189842037748
 30
0.0
 10
16.70716441756309
 20
-1.402759170334911
 30
0.0
 10
15.03075888337558
 20
-0.6872095499896362
 30
0.0
 10
13.35457753851648
 20
0.0890211719431696
 30
0.0
 10
11.67765376825219
 20
0.8668967598638524
 30
0.0
 10
10.55929755705225
 20
1.307024267659762
 30
0.0
 10
10.0
 20
1.527135031508092
 30
0.0
  0
SPLINE
  5
DC
330
1F
100
AcDbEntity
  8
0
  6
Continuous
 62
     1
370
    15
100
AcDbSpline
210
0.0
220
0.0
230
1.0
 70
    24
 71
     3
 72
    10
 73
     6
 74
     0
 42
0.000000001
 43
0.00000001
 40
0.0
 40
0.0
 40
0.0
 40
0.0
 40
0.4999999999999998
 40
0.4999999999999998
 40
1.0
 40
1.0
 40
1.0
 40
1.0
 10
48.10000000000001
 20
-2.504986939369086
 30
0.0
 10
48.10000000000001
 20
-2.31296016008708
 30
0.0
 10
48.10000000000001
 20
-2.070326961403037
 30
0.0
 10
48.10000000000001
 20
-1.506228125303405
 30
0.0
 10
48.10000000000001
 20
-1.185251131687903
 30
0.0
 10
48.09999999999999
 20
-0.8484963536442163
 30
0.0
  0
SPLINE
  5
DD
330
1F
100
AcDbEntity
  8
0
  6
Continuous
 62
     1
370
    15
100
AcDbSpline
210
0.0
220
0.0
230
1.0
 70
    24
 71
     3
 72
     8
 73
     4
 74
     0
 42
0.000000001
 43
0.00000001
 40
0.0
 40
0.0
 40
0.0
 40
0.0
 40
1.0
 40
1.0
 40
1.0
 40
1.0
 10
46.16764952997059
 20
1.550881971644892
 30
0.0
 10
46.06285635986843
 20
1.462950061262264
 30
0.0
 10
45.95203778886604
 20
1.369962239208869
 30
0.0
 10
45.83624464654577
 20
1.272800256195072
 30
0.0
  0
SPLINE
  5
DE
330
1F
100
AcDbEntity
  8
0
  6
Continuous
 62
     1
370
    15
100
AcDbSpline
210
0.0
220
0.0
230
1.0
 70
     8
 71
     3
 72
     8
 73
     4
 74
     0
 42
0.000000001
 43
0.00000001
 40
0.0
 40
0.0
 40
0.0
 40
0.0
 40
1.0
 40
1.0
 40
1.0
 40
1.0
 10
48.10000000000001
 20
2.222500000000003
 30
0.0
 10
47.44689482156929
 20
2.045248916505192
 30
0.0
 10
46.8000145968539
 20
1.827618470578637
 30
0.0
 10
46.16764952996895
 20
1.550881971645807
 30
0.0
  0
SPLINE
  5
DF
330
1F
100
AcDbEntity
  8
외형선
  6
Continuous
370
    15
100
AcDbSpline
210
0.0
220
0.0
230
1.0
 70
    24
 71
     3
 72
    11
 73
     7
 74
     0
 42
0.000000001
 43
0.00000001
 40
0.0
 40
0.0
 40
0.0
 40
0.0
 40
0.1304323581301278
 40
0.4250728203041592
 40
0.7085134494880173
 40
1.0
 40
1.0
 40
1.0
 40
1.0
 10
10.0
 20
2.082638117247164
 30
0.0
 10
10.0
 20
2.085519258453499
 30
0.0
 10
9.999999999999996
 20
2.094908759922524
 30
0.0
 10
10.0
 20
2.004341058610417
 30
0.0
 10
10.0
 20
1.824061516093482
 30
0.0
 10
10.0
 20
1.627029658901271
 30
0.0
 10
10.0
 20
1.527135031508093
 30
0.0
  0
LINE
  5
E0
330
1F
100
AcDbEntity
  8
0
  6
Continuous
 62
     1
370
    15
100
AcDbLine
 10
48.10000000000001
 20
0.0000000000000037
 30
0.0
 11
48.10000000000001
 21
2.222500000000003
 31
0.0
  0
LINE
  5
E1
330
1F
100
AcDbEntity
  8
중심선
 62
     1
100
AcDbLine
 10
-56.5
 20
-0.0000000000000059
 30
0.0
 11
51.09999999999999
 21
0.0000000000000073
 31
0.0
  0
LINE
  5
E2
330
1F
100
AcDbEntity
  8
참조1
100
AcDbLine
 10
2.149261314031165
 20
0.0010749287238892
 30
0.0
 11
2.149261314031167
 21
-39.99892507127611
 31
0.0
  0
LINE
  5
E3
330
1F
100
AcDbEntity
  8
참조1
100
AcDbLine
 10
2.149261314031167
 20
-39.99892507127611
 30
0.0
 11
-20.15080122126847
 21
-39.9989250712761
 31
0.0
  0
CIRCLE
  5
E4
330
1F
100
AcDbEntity
  8
해칭선
100
AcDbCircle
 10
0.0
 20
0.0
 30
0.0
 40
2.999999999999996
  0
INSERT
  5
E5
330
1F
100
AcDbEntity
  8
0
  6
Continuous
 62
     7
100
AcDbBlockReference
 66
     1
  2
블럭10
 10
-16.64027293212521
 20
-29.08033818294581
 30
0.0
  0
ATTRIB
  5
E6
330
E5
100
AcDbEntity
  8
FORMAT
 62
     2
100
AcDbText
 10
-25.82156822086649
 20
-27.00497127011362
 30
0.0
 40
4.233333333333333
  1
E5026016 [ 2 FLUTE ]
 41
0.75
  7
SLDTEXTSTYLE0
 11
-25.82156822086649
 21
-29.12163793678029
 31
0.0
100
AcDbAttribute
  2
AUTOATTR0
 70
     0
 74
     1
  0
SEQEND
  5
E7
330
E5
100
AcDbEntity
  8
0
  6
Continuous
 62
     7
  0
HATCH
  5
E8
330
1F
100
AcDbEntity
  8
중심선
100
AcDbHatch
 10
0.0
 20
0.0
 30
0.0
210
0.0
220
0.0
230
1.0
  2
SOLID
 70
     1
 71
     0
 91
        1
 92
        0
 93
        4
 72
     1
 10
-10.92536362774436
 20
-12.83316388130187
 11
-14.37163887158164
 21
-12.83316388130187
 72
     1
 10
-14.37163887158164
 20
-12.83316388130187
 11
-16.49986873078566
 21
-15.36948946187447
 72
     1
 10
-16.49986873078566
 20
-15.36948946187447
 11
-13.05356040183523
 21
-15.36945003257198
 72
     1
 10
-13.05356040183523
 20
-15.36945003257198
 11
-10.92536362774436
 21
-12.83316388130187
 97
        0
 75
     0
 76
     1
 98
        1
 10
-4.849261314031164
 20
22.96576118997423
  0
HATCH
  5
E9
330
1F
100
AcDbEntity
  8
중심선
100
AcDbHatch
 10
0.0
 20
0.0
 30
0.0
210
0.0
220
0.0
230
1.0
  2
SOLID
 70
     1
 71
     0
 91
        1
 92
        0
 93
        4
 72
     1
 10
-5.912599636708407
 20
-12.83316388130187
 11
-9.35887488054569
 21
-12.83316388130187
 72
     1
 10
-9.35887488054569
 20
-12.83316388130187
 11
-13.89001288890308
 21
-18.23316388130189
 72
     1
 10
-13.89001288890308
 20
-18.23316388130189
 11
-10.4437376450658
 21
-18.23316388130189
 72
     1
 10
-10.4437376450658
 20
-18.23316388130189
 11
-5.912599636708407
 21
-12.83316388130187
 97
        0
 75
     0
 76
     1
 98
        1
 10
-4.849261314031164
 20
22.96576118997423
  0
HATCH
  5
EA
330
1F
100
AcDbEntity
  8
중심선
100
AcDbHatch
 10
0.0
 20
0.0
 30
0.0
210
0.0
220
0.0
230
1.0
  2
SOLID
 70
     1
 71
     0
 91
        1
 92
        0
 93
        4
 72
     1
 10
-0.8998356456725114
 20
-12.83316388130187
 11
-4.346110889509627
 21
-12.8331638813019
 72
     1
 10
-4.346110889509627
 20
-12.8331638813019
 11
-11.39454779139888
 21
-21.23316388130189
 72
     1
 10
-11.39454779139888
 20
-21.23316388130189
 11
-7.948272547561594
 21
-21.23316388130189
 72
     1
 10
-7.948272547561594
 20
-21.23316388130189
 11
-0.8998356456725114
 21
-12.83316388130187
 97
        0
 75
     0
 76
     1
 98
        1
 10
-4.849261314031164
 20
22.96576118997423
  0
HATCH
  5
EB
330
1F
100
AcDbEntity
  8
중심선
100
AcDbHatch
 10
0.0
 20
0.0
 30
0.0
210
0.0
220
0.0
230
1.0
  2
SOLID
 70
     1
 71
     0
 91
        1
 92
        0
 93
        6
 72
     3
 10
3.900054785339687
 20
-17.03316388135315
 11
3.960054785062283
 21
1.540882976769353E-10
 40
0.3939339440162628
 50
17.09539180608439
 51
320.0019657685075
 73
     0
 72
     1
 10
5.583054441040284
 20
-15.62105788594015
 11
7.888356314741349
 21
-13.68673117589223
 72
     3
 10
3.900054785286841
 20
-17.03316388130202
 11
6.600054785286829
 21
-1.278976924368180E-13
 40
0.636358354079598
 50
39.99873849337413
 51
368.4976242363725
 73
     1
 72
     1
 10
10.32538727718745
 20
-16.0731638812319
 11
2.580122092122791
 21
-16.0731638812319
 72
     1
 10
2.580122092122791
 20
-16.0731638812319
 11
2.58009704767683
 21
-17.99316388123179
 72
     1
 10
2.58009704767683
 20
-17.99316388123179
 11
7.021476817148868
 21
-17.99316388123176
 97
        0
 75
     0
 76
     1
 98
        1
 10
-4.849261314031164
 20
22.96576118997423
  0
DIMENSION
  5
EC
330
1F
100
AcDbEntity
  8
치수문자_일반주서
100
AcDbDimension
  2
_D
 10
-64.59266836804646
 20
-3.175000000000058
 30
0.0
 11
-64.59266836804657
 21
23.12274999999994
 31
0.0
 70
   160
  1
%%c<>
 71
     2
 42
6.349999999999994
 52
-270.0
  3
SLDDIMSTYLE0
100
AcDbAlignedDimension
 13
-52.69
 23
3.174999999999982
 33
0.0
 14
-52.69
 24
-3.175000000000012
 34
0.0
 50
90.0000000000002
100
AcDbRotatedDimension
1001
ACAD
1000
DSTYLE
1002
{
1070
   171
1070
     6
1070
   273
1070
     5
1002
}
  0
DIMENSION
  5
101
330
1F
100
AcDbEntity
  8
치수문자_일반주서
100
AcDbDimension
  2
_D_1
 10
10.0
 20
16.34865826917705
 30
0.0
 11
29.05000000000001
 21
16.34865826917705
 31
0.0
 70
   160
  1
<>
 71
     2
 42
38.09999999999972
  3
SLDDIMSTYLE0
100
AcDbAlignedDimension
 13
48.09999999999972
 23
3.174999999999999
 33
0.0
 14
10.0
 24
2.094616011873486
 34
0.0
100
AcDbRotatedDimension
1001
ACAD
1000
DSTYLE
1002
{
1070
   171
1070
     6
1070
   273
1070
     5
1002
}
  0
DIMENSION
  5
116
330
1F
100
AcDbEntity
  8
치수문자_일반주서
100
AcDbDimension
  2
_D_2
 10
-53.5
 20
33.53841682519539
 30
0.0
 11
-2.700000000000139
 21
33.53841682519539
 31
0.0
 70
   160
  1
<>
 71
     2
 42
101.5999999999997
  3
SLDDIMSTYLE0
100
AcDbAlignedDimension
 13
48.09999999999972
 23
3.174999999999999
 33
0.0
 14
-53.5
 24
2.364999999999992
 34
0.0
 50
0.000000000000004
100
AcDbRotatedDimension
1001
ACAD
1000
DSTYLE
1002
{
1070
   171
1070
     6
1070
   273
1070
     5
1002
}
  0
DIMENSION
  5
129
330
1F
100
AcDbEntity
  8
치수문자_일반주서
100
AcDbDimension
  2
_D_3
 10
63.1235821136146
 20
3.175000000000058
 30
0.0
 11
63.12358211361453
 21
23.12006653835418
 31
0.0
 70
   160
  1
%%c<>
 71
     2
 42
6.35
 52
-270.0
  3
SLDDIMSTYLE0
100
AcDbAlignedDimension
 13
48.10000000000002
 23
-3.175000000000001
 33
0.0
 14
48.09999999999972
 24
3.174999999999999
 34
0.0
 50
90.0000000000002
100
AcDbRotatedDimension
1001
ACAD
1000
DSTYLE
1002
{
1070
   171
1070
     6
1070
   273
1070
     5
1002
}
  0
LINE
  5
13D
330
1F
100
AcDbEntity
  8
참조1
100
AcDbLine
 10
77.82153940838579
 20
7.441074928723896
 30
0.0
 11
77.82153940838579
 21
-7.438925071276109
 31
0.0
  0
LINE
  5
13E
330
1F
100
AcDbEntity
  8
참조1
100
AcDbLine
 10
90.52153940838579
 20
5.441074928723896
 30
0.0
 11
77.82153940838579
 21
5.441074928723896
 31
0.0
  0
SOLID
  5
13F
330
1F
100
AcDbEntity
  8
참조1
100
AcDbTrace
 10
77.82153940838579
 20
5.441074928723896
 30
0.0
 11
84.17153940838578
 21
4.425074928723896
 31
0.0
 12
84.17153940838578
 22
6.457074928723896
 32
0.0
 13
84.17153940838578
 23
6.457074928723896
 33
0.0
  0
LINE
  5
140
330
1F
100
AcDbEntity
  8
참조1
100
AcDbLine
 10
90.52153940838579
 20
-5.438925071276109
 30
0.0
 11
77.82153940838579
 21
-5.438925071276109
 31
0.0
  0
SOLID
  5
141
330
1F
100
AcDbEntity
  8
참조1
100
AcDbTrace
 10
77.82153940838579
 20
-5.438925071276109
 30
0.0
 11
84.17153940838578
 21
-6.454925071276109
 31
0.0
 12
84.17153940838578
 22
-4.422925071276109
 32
0.0
 13
84.17153940838578
 23
-4.422925071276109
 33
0.0
  0
MTEXT
  5
142
330
1F
100
AcDbEntity
  8
참조1
100
AcDbMText
 10
87.20588954101179
 20
11.01136670591222
 30
0.0
 40
3.5
 41
0.0
 71
     1
 72
     1
  1
A
  7
SLDTEXTSTYLE0
 73
     1
 44
1.0
  0
MTEXT
  5
143
330
1F
100
AcDbEntity
  8
참조1
100
AcDbMText
 10
87.20588954101179
 20
0.1313667059122192
 30
0.0
 40
3.5
 41
0.0
 71
     1
 72
     1
  1
A
  7
SLDTEXTSTYLE0
 73
     1
 44
1.0
  0
INSERT
  5
14A
330
1F
100
AcDbEntity
  8
해칭선
100
AcDbBlockReference
  2
SW_DOWELSYMBOL_0
 10
0.0
 20
0.0
 30
0.0
  0
ENDSEC
  0
SECTION
  2
OBJECTS
  0
DICTIONARY
  5
C
330
0
100
AcDbDictionary
281
     1
  3
ACAD_GROUP
350
D
  3
ACAD_IMAGE_VARS
350
16E
  3
ACAD_LAYOUT
350
1A
  3
ACAD_MLINESTYLE
350
17
  3
ACAD_PLOTSETTINGS
350
19
  3
ACAD_PLOTSTYLENAME
350
E
  3
ACAD_SCALELIST
350
47
  3
APPDATA
350
16C
  3
DWGPROPS
350
2E5
  0
DICTIONARY
  5
228
330
2
100
AcDbDictionary
280
     1
281
     1
  3
ACAD_LAYERSTATES
360
229
  0
DICTIONARY
  5
D
102
{ACAD_REACTORS
330
C
102
}
330
C
100
AcDbDictionary
281
     1
  0
RASTERVARIABLES
  5
16E
102
{ACAD_REACTORS
330
C
102
}
330
C
100
AcDbRasterVariables
 90
        0
 70
     1
 71
     1
 72
     1
  0
DICTIONARY
  5
1A
102
{ACAD_REACTORS
330
C
102
}
330
C
100
AcDbDictionary
281
     1
  3
Layout1
350
1E
  3
Layout2
350
26
  3
Model
350
22
  0
DICTIONARY
  5
17
102
{ACAD_REACTORS
330
C
102
}
330
C
100
AcDbDictionary
281
     1
  3
Standard
350
18
  0
DICTIONARY
  5
19
102
{ACAD_REACTORS
330
C
102
}
330
C
100
AcDbDictionary
281
     1
  0
ACDBDICTIONARYWDFLT
  5
E
102
{ACAD_REACTORS
330
C
102
}
330
C
100
AcDbDictionary
281
     1
  3
Normal
350
F
100
AcDbDictionaryWithDefault
340
F
  0
DICTIONARY
  5
47
102
{ACAD_REACTORS
330
C
102
}
330
C
100
AcDbDictionary
281
     1
  3
A0
350
48
  3
A1
350
49
  3
A2
350
4A
  3
A3
350
4B
  3
A4
350
4C
  3
A5
350
4D
  3
A6
350
4E
  3
A7
350
4F
  3
A8
350
50
  3
A9
350
51
  3
B0
350
52
  3
B1
350
53
  3
B2
350
54
  3
B3
350
55
  3
B4
350
56
  3
B5
350
57
  3
B6
350
58
  3
B7
350
59
  3
B8
350
5A
  3
B9
350
5B
  3
C0
350
5C
  3
C1
350
5D
  3
C2
350
5E
  3
C3
350
5F
  3
C4
350
60
  3
C5
350
61
  3
C6
350
62
  3
C7
350
63
  3
C8
350
64
  3
C9
350
65
  3
D0
350
66
  3
D1
350
67
  3
D2
350
68
  0
DICTIONARY
  5
16C
102
{ACAD_REACTORS
330
C
102
}
330
C
100
AcDbDictionary
281
     1
  0
XRECORD
  5
2E5
102
{ACAD_REACTORS
330
C
102
}
330
C
100
AcDbXrecord
280
     1
  1
DWGPROPS COOKIE
  2

  3

  4

  6

  7

  8
12014074
  9

300
=
301
=
302
=
303
=
304
=
305
=
306
=
307
=
308
=
309
=
 40
0.0
 41
2458311.118759838
 42
2458320.271459595
  1

 90
        0
  0
DICTIONARY
  5
229
102
{ACAD_REACTORS
330
228
102
}
330
228
100
AcDbDictionary
281
     1
  0
LAYOUT
  5
1E
102
{ACAD_REACTORS
330
1A
102
}
330
1A
100
AcDbPlotSettings
  1

  2
none_device
  4

  6

 40
0.0
 41
0.0
 42
0.0
 43
0.0
 44
0.0
 45
0.0
 46
0.0
 47
0.0
 48
0.0
 49
0.0
140
0.0
141
0.0
142
1.0
143
1.0
 70
   688
 72
     1
 73
     0
 74
     5
  7

 75
    16
147
1.0
148
0.0
149
0.0
100
AcDbLayout
  1
Layout1
 70
     1
 71
     1
 10
0.0
 20
0.0
 11
420.0
 21
297.0
 12
0.0
 22
0.0
 32
0.0
 14
1.000000000000000E+20
 24
1.000000000000000E+20
 34
1.000000000000000E+20
 15
-1.000000000000000E+20
 25
-1.000000000000000E+20
 35
-1.000000000000000E+20
146
0.0
 13
0.0
 23
0.0
 33
0.0
 16
1.0
 26
0.0
 36
0.0
 17
0.0
 27
1.0
 37
0.0
 76
     0
330
1B
  0
LAYOUT
  5
26
102
{ACAD_REACTORS
330
1A
102
}
330
1A
100
AcDbPlotSettings
  1

  2
none_device
  4

  6

 40
0.0
 41
0.0
 42
0.0
 43
0.0
 44
0.0
 45
0.0
 46
0.0
 47
0.0
 48
0.0
 49
0.0
140
0.0
141
0.0
142
1.0
143
1.0
 70
   688
 72
     1
 73
     0
 74
     5
  7

 75
    16
147
1.0
148
0.0
149
0.0
100
AcDbLayout
  1
Layout2
 70
     1
 71
     2
 10
0.0
 20
0.0
 11
0.0
 21
0.0
 12
0.0
 22
0.0
 32
0.0
 14
0.0
 24
0.0
 34
0.0
 15
0.0
 25
0.0
 35
0.0
146
0.0
 13
0.0
 23
0.0
 33
0.0
 16
1.0
 26
0.0
 36
0.0
 17
0.0
 27
1.0
 37
0.0
 76
     0
330
23
  0
LAYOUT
  5
22
102
{ACAD_REACTORS
330
1A
102
}
330
1A
100
AcDbPlotSettings
  1

  2
none_device
  4
ANSI_A_(11.00_x_8.50_Inches)
  6

 40
6.35
 41
19.05
 42
6.35000508
 43
19.05000254
 44
279.4
 45
215.9
 46
110.3433799222398
 47
94.00066433320023
 48
0.0
 49
0.0
140
0.0
141
0.0
142
0.0629280442420038
143
1.0
 70
  1696
 72
     0
 73
     0
 74
     0
  7

 75
     0
147
0.0235690232323232
148
0.0
149
0.0
100
AcDbLayout
  1
Model
 70
     1
 71
     0
 10
0.0
 20
0.0
 11
420.0
 21
297.0
 12
0.0
 22
0.0
 32
0.0
 14
1.000000000000000E+20
 24
1.000000000000000E+20
 34
1.000000000000000E+20
 15
-1.000000000000000E+20
 25
-1.000000000000000E+20
 35
-1.000000000000000E+20
146
0.0
 13
0.0
 23
0.0
 33
0.0
 16
1.0
 26
0.0
 36
0.0
 17
0.0
 27
1.0
 37
0.0
 76
     0
330
1F
331
29
  0
MLINESTYLE
  5
18
102
{ACAD_REACTORS
330
17
102
}
330
17
100
AcDbMlineStyle
  2
Standard
 70
     0
  3

 62
   256
 51
90.0
 52
90.0
 71
     2
 49
0.5
 62
   256
  6
BYLAYER
 49
-0.5
 62
   256
  6
BYLAYER
  0
ACDBPLACEHOLDER
  5
F
102
{ACAD_REACTORS
330
E
102
}
330
E
  0
SCALE
  5
48
102
{ACAD_REACTORS
330
47
102
}
330
47
100
AcDbScale
 70
     0
300
1:1
140
1.0
141
1.0
290
     1
  0
SCALE
  5
49
102
{ACAD_REACTORS
330
47
102
}
330
47
100
AcDbScale
 70
     0
300
1:2
140
1.0
141
2.0
290
     0
  0
SCALE
  5
4A
102
{ACAD_REACTORS
330
47
102
}
330
47
100
AcDbScale
 70
     0
300
1:4
140
1.0
141
4.0
290
     0
  0
SCALE
  5
4B
102
{ACAD_REACTORS
330
47
102
}
330
47
100
AcDbScale
 70
     0
300
1:5
140
1.0
141
5.0
290
     0
  0
SCALE
  5
4C
102
{ACAD_REACTORS
330
47
102
}
330
47
100
AcDbScale
 70
     0
300
1:8
140
1.0
141
8.0
290
     0
  0
SCALE
  5
4D
102
{ACAD_REACTORS
330
47
102
}
330
47
100
AcDbScale
 70
     0
300
1:10
140
1.0
141
10.0
290
     0
  0
SCALE
  5
4E
102
{ACAD_REACTORS
330
47
102
}
330
47
100
AcDbScale
 70
     0
300
1:16
140
1.0
141
16.0
290
     0
  0
SCALE
  5
4F
102
{ACAD_REACTORS
330
47
102
}
330
47
100
AcDbScale
 70
     0
300
1:20
140
1.0
141
20.0
290
     0
  0
SCALE
  5
50
102
{ACAD_REACTORS
330
47
102
}
330
47
100
AcDbScale
 70
     0
300
1:30
140
1.0
141
30.0
290
     0
  0
SCALE
  5
51
102
{ACAD_REACTORS
330
47
102
}
330
47
100
AcDbScale
 70
     0
300
1:40
140
1.0
141
40.0
290
     0
  0
SCALE
  5
52
102
{ACAD_REACTORS
330
47
102
}
330
47
100
AcDbScale
 70
     0
300
1:50
140
1.0
141
50.0
290
     0
  0
SCALE
  5
53
102
{ACAD_REACTORS
330
47
102
}
330
47
100
AcDbScale
 70
     0
300
1:100
140
1.0
141
100.0
290
     0
  0
SCALE
  5
54
102
{ACAD_REACTORS
330
47
102
}
330
47
100
AcDbScale
 70
     0
300
2:1
140
2.0
141
1.0
290
     0
  0
SCALE
  5
55
102
{ACAD_REACTORS
330
47
102
}
330
47
100
AcDbScale
 70
     0
300
4:1
140
4.0
141
1.0
290
     0
  0
SCALE
  5
56
102
{ACAD_REACTORS
330
47
102
}
330
47
100
AcDbScale
 70
     0
300
8:1
140
8.0
141
1.0
290
     0
  0
SCALE
  5
57
102
{ACAD_REACTORS
330
47
102
}
330
47
100
AcDbScale
 70
     0
300
10:1
140
10.0
141
1.0
290
     0
  0
SCALE
  5
58
102
{ACAD_REACTORS
330
47
102
}
330
47
100
AcDbScale
 70
     0
300
100:1
140
100.0
141
1.0
290
     0
  0
SCALE
  5
59
102
{ACAD_REACTORS
330
47
102
}
330
47
100
AcDbScale
 70
     0
300
1/128" = 1'-0"
140
0.0078125
141
12.0
290
     0
  0
SCALE
  5
5A
102
{ACAD_REACTORS
330
47
102
}
330
47
100
AcDbScale
 70
     0
300
1/64" = 1'-0"
140
0.015625
141
12.0
290
     0
  0
SCALE
  5
5B
102
{ACAD_REACTORS
330
47
102
}
330
47
100
AcDbScale
 70
     0
300
1/32" = 1'-0"
140
0.03125
141
12.0
290
     0
  0
SCALE
  5
5C
102
{ACAD_REACTORS
330
47
102
}
330
47
100
AcDbScale
 70
     0
300
1/16" = 1'-0"
140
0.0625
141
12.0
290
     0
  0
SCALE
  5
5D
102
{ACAD_REACTORS
330
47
102
}
330
47
100
AcDbScale
 70
     0
300
3/32" = 1'-0"
140
0.09375
141
12.0
290
     0
  0
SCALE
  5
5E
102
{ACAD_REACTORS
330
47
102
}
330
47
100
AcDbScale
 70
     0
300
1/8" = 1'-0"
140
0.125
141
12.0
290
     0
  0
SCALE
  5
5F
102
{ACAD_REACTORS
330
47
102
}
330
47
100
AcDbScale
 70
     0
300
3/16" = 1'-0"
140
0.1875
141
12.0
290
     0
  0
SCALE
  5
60
102
{ACAD_REACTORS
330
47
102
}
330
47
100
AcDbScale
 70
     0
300
1/4" = 1'-0"
140
0.25
141
12.0
290
     0
  0
SCALE
  5
61
102
{ACAD_REACTORS
330
47
102
}
330
47
100
AcDbScale
 70
     0
300
3/8" = 1'-0"
140
0.375
141
12.0
290
     0
  0
SCALE
  5
62
102
{ACAD_REACTORS
330
47
102
}
330
47
100
AcDbScale
 70
     0
300
1/2" = 1'-0"
140
0.5
141
12.0
290
     0
  0
SCALE
  5
63
102
{ACAD_REACTORS
330
47
102
}
330
47
100
AcDbScale
 70
     0
300
3/4" = 1'-0"
140
0.75
141
12.0
290
     0
  0
SCALE
  5
64
102
{ACAD_REACTORS
330
47
102
}
330
47
100
AcDbScale
 70
     0
300
1" = 1'-0"
140
1.0
141
12.0
290
     0
  0
SCALE
  5
65
102
{ACAD_REACTORS
330
47
102
}
330
47
100
AcDbScale
 70
     0
300
1-1/2" = 1'-0"
140
1.5
141
12.0
290
     0
  0
SCALE
  5
66
102
{ACAD_REACTORS
330
47
102
}
330
47
100
AcDbScale
 70
     0
300
3" = 1'-0"
140
3.0
141
12.0
290
     0
  0
SCALE
  5
67
102
{ACAD_REACTORS
330
47
102
}
330
47
100
AcDbScale
 70
     0
300
6" = 1'-0"
140
6.0
141
12.0
290
     0
  0
SCALE
  5
68
102
{ACAD_REACTORS
330
47
102
}
330
47
100
AcDbScale
 70
     0
300
1'-0" = 1'-0"
140
12.0
141
12.0
290
     0
  0
ENDSEC
  0
EOF
