  0
SECTION
  2
HEADER
  9
$ACADVER
  1
AC1015
  9
$ACADMAINTVER
 70
     6
  9
$DWGCODEPAGE
  3
ANSI_949
  9
$INSBASE
 10
0.0
 20
0.0
 30
0.0
  9
$EXTMIN
 10
1.000000000000000E+20
 20
1.000000000000000E+20
 30
1.000000000000000E+20
  9
$EXTMAX
 10
-1.000000000000000E+20
 20
-1.000000000000000E+20
 30
-1.000000000000000E+20
  9
$LIMMIN
 10
0.0
 20
0.0
  9
$LIMMAX
 10
420.0
 20
297.0
  9
$ORTHOMODE
 70
     0
  9
$REGENMODE
 70
     1
  9
$FILLMODE
 70
     1
  9
$QTEXTMODE
 70
     0
  9
$MIRRTEXT
 70
     1
  9
$LTSCALE
 40
1.0
  9
$ATTMODE
 70
     1
  9
$TEXTSIZE
 40
3.5
  9
$TRACEWID
 40
1.0
  9
$TEXTSTYLE
  7
Standard
  9
$CLAYER
  8
0
  9
$CELTYPE
  6
ByLayer
  9
$CECOLOR
 62
   256
  9
$CELTSCALE
 40
1.0
  9
$DISPSILH
 70
     0
  9
$DIMSCALE
 40
1.0
  9
$DIMASZ
 40
3.302
  9
$DIMEXO
 40
1.0
  9
$DIMDLI
 40
3.75
  9
$DIMRND
 40
0.0
  9
$DIMDLE
 40
0.0
  9
$DIMEXE
 40
1.0
  9
$DIMTP
 40
0.0
  9
$DIMTM
 40
0.0
  9
$DIMTXT
 40
3.5
  9
$DIMCEN
 40
2.5
  9
$DIMTSZ
 40
0.0
  9
$DIMTOL
 70
     0
  9
$DIMLIM
 70
     0
  9
$DIMTIH
 70
     1
  9
$DIMTOH
 70
     1
  9
$DIMSE1
 70
     0
  9
$DIMSE2
 70
     0
  9
$DIMTAD
 70
     1
  9
$DIMZIN
 70
     0
  9
$DIMBLK
  1

  9
$DIMASO
 70
     1
  9
$DIMSHO
 70
     1
  9
$DIMPOST
  1

  9
$DIMAPOST
  1

  9
$DIMALT
 70
     0
  9
$DIMALTD
 70
     3
  9
$DIMALTF
 40
0.0393700787401575
  9
$DIMLFAC
 40
1.0
  9
$DIMTOFL
 70
     1
  9
$DIMTVP
 40
0.0
  9
$DIMTIX
 70
     0
  9
$DIMSOXD
 70
     0
  9
$DIMSAH
 70
     0
  9
$DIMBLK1
  1

  9
$DIMBLK2
  1

  9
$DIMSTYLE
  2
ISO-25
  9
$DIMCLRD
 70
     0
  9
$DIMCLRE
 70
     0
  9
$DIMCLRT
 70
     0
  9
$DIMTFAC
 40
1.0
  9
$DIMGAP
 40
1.524
  9
$DIMJUST
 70
     0
  9
$DIMSD1
 70
     0
  9
$DIMSD2
 70
     0
  9
$DIMTOLJ
 70
     0
  9
$DIMTZIN
 70
     0
  9
$DIMALTZ
 70
     0
  9
$DIMALTTZ
 70
     0
  9
$DIMUPT
 70
     0
  9
$DIMDEC
 70
     2
  9
$DIMTDEC
 70
     2
  9
$DIMALTU
 70
     2
  9
$DIMALTTD
 70
     3
  9
$DIMTXSTY
  7
Standard
  9
$DIMAUNIT
 70
     0
  9
$DIMADEC
 70
     2
  9
$DIMALTRND
 40
0.0
  9
$DIMAZIN
 70
     0
  9
$DIMDSEP
 70
    44
  9
$DIMATFIT
 70
     3
  9
$DIMFRAC
 70
     0
  9
$DIMLDRBLK
  1

  9
$DIMLUNIT
 70
     2
  9
$DIMLWD
 70
    -2
  9
$DIMLWE
 70
    -2
  9
$DIMTMOVE
 70
     0
  9
$LUNITS
 70
     2
  9
$LUPREC
 70
     2
  9
$SKETCHINC
 40
1.0
  9
$FILLETRAD
 40
10.0
  9
$AUNITS
 70
     0
  9
$AUPREC
 70
     2
  9
$MENU
  1
.
  9
$ELEVATION
 40
0.0
  9
$PELEVATION
 40
0.0
  9
$THICKNESS
 40
0.0
  9
$LIMCHECK
 70
     0
  9
$CHAMFERA
 40
0.0
  9
$CHAMFERB
 40
0.0
  9
$CHAMFERC
 40
0.0
  9
$CHAMFERD
 40
0.0
  9
$SKPOLY
 70
     0
  9
$TDCREATE
 40
2458311.493547685
  9
$TDUCREATE
 40
2458311.118547685
  9
$TDUPDATE
 40
2458320.642291423
  9
$TDUUPDATE
 40
2458320.267291423
  9
$TDINDWG
 40
0.0011421065
  9
$TDUSRTIMER
 40
2458320.26614956
  9
$USRTIMER
 70
     1
  9
$ANGBASE
 50
0.0
  9
$ANGDIR
 70
     0
  9
$PDMODE
 70
     0
  9
$PDSIZE
 40
-1.0
  9
$PLINEWID
 40
0.0
  9
$SPLFRAME
 70
     0
  9
$SPLINETYPE
 70
     6
  9
$SPLINESEGS
 70
     8
  9
$HANDSEED
  5
2E5
  9
$SURFTAB1
 70
     6
  9
$SURFTAB2
 70
     6
  9
$SURFTYPE
 70
     6
  9
$SURFU
 70
     6
  9
$SURFV
 70
     6
  9
$UCSBASE
  2

  9
$UCSNAME
  2

  9
$UCSORG
 10
0.0
 20
0.0
 30
0.0
  9
$UCSXDIR
 10
1.0
 20
0.0
 30
0.0
  9
$UCSYDIR
 10
0.0
 20
1.0
 30
0.0
  9
$UCSORTHOREF
  2

  9
$UCSORTHOVIEW
 70
     0
  9
$UCSORGTOP
 10
0.0
 20
0.0
 30
0.0
  9
$UCSORGBOTTOM
 10
0.0
 20
0.0
 30
0.0
  9
$UCSORGLEFT
 10
0.0
 20
0.0
 30
0.0
  9
$UCSORGRIGHT
 10
0.0
 20
0.0
 30
0.0
  9
$UCSORGFRONT
 10
0.0
 20
0.0
 30
0.0
  9
$UCSORGBACK
 10
0.0
 20
0.0
 30
0.0
  9
$PUCSBASE
  2

  9
$PUCSNAME
  2

  9
$PUCSORG
 10
0.0
 20
0.0
 30
0.0
  9
$PUCSXDIR
 10
1.0
 20
0.0
 30
0.0
  9
$PUCSYDIR
 10
0.0
 20
1.0
 30
0.0
  9
$PUCSORTHOREF
  2

  9
$PUCSORTHOVIEW
 70
     0
  9
$PUCSORGTOP
 10
0.0
 20
0.0
 30
0.0
  9
$PUCSORGBOTTOM
 10
0.0
 20
0.0
 30
0.0
  9
$PUCSORGLEFT
 10
0.0
 20
0.0
 30
0.0
  9
$PUCSORGRIGHT
 10
0.0
 20
0.0
 30
0.0
  9
$PUCSORGFRONT
 10
0.0
 20
0.0
 30
0.0
  9
$PUCSORGBACK
 10
0.0
 20
0.0
 30
0.0
  9
$USERI1
 70
     0
  9
$USERI2
 70
     0
  9
$USERI3
 70
     0
  9
$USERI4
 70
     0
  9
$USERI5
 70
     0
  9
$USERR1
 40
0.0
  9
$USERR2
 40
0.0
  9
$USERR3
 40
0.0
  9
$USERR4
 40
0.0
  9
$USERR5
 40
0.0
  9
$WORLDVIEW
 70
     1
  9
$SHADEDGE
 70
     3
  9
$SHADEDIF
 70
    70
  9
$TILEMODE
 70
     1
  9
$MAXACTVP
 70
    64
  9
$PINSBASE
 10
0.0
 20
0.0
 30
0.0
  9
$PLIMCHECK
 70
     0
  9
$PEXTMIN
 10
1.000000000000000E+20
 20
1.000000000000000E+20
 30
1.000000000000000E+20
  9
$PEXTMAX
 10
-1.000000000000000E+20
 20
-1.000000000000000E+20
 30
-1.000000000000000E+20
  9
$PLIMMIN
 10
0.0
 20
0.0
  9
$PLIMMAX
 10
0.0
 20
0.0
  9
$UNITMODE
 70
     0
  9
$VISRETAIN
 70
     1
  9
$PLINEGEN
 70
     0
  9
$PSLTSCALE
 70
     1
  9
$TREEDEPTH
 70
  3020
  9
$CMLSTYLE
  2
Standard
  9
$CMLJUST
 70
     0
  9
$CMLSCALE
 40
20.0
  9
$PROXYGRAPHICS
 70
     1
  9
$MEASUREMENT
 70
     1
  9
$CELWEIGHT
370
    -1
  9
$ENDCAPS
280
     0
  9
$JOINSTYLE
280
     0
  9
$LWDISPLAY
290
     1
  9
$INSUNITS
 70
     4
  9
$HYPERLINKBASE
  1

  9
$STYLESHEET
  1

  9
$XEDIT
290
     1
  9
$CEPSNTYPE
380
     0
  9
$PSTYLEMODE
290
     1
  9
$FINGERPRINTGUID
  2
{7340A47D-0775-423F-84F0-6B67F64C1087}
  9
$VERSIONGUID
  2
{FAEB1C32-E019-11D5-929B-00C0DF256EC4}
  9
$EXTNAMES
290
     1
  9
$PSVPSCALE
 40
0.0
  9
$OLESTARTUP
290
     0
  0
ENDSEC
  0
SECTION
  2
CLASSES
  0
CLASS
  1
ACDBDICTIONARYWDFLT
  2
AcDbDictionaryWithDefault
  3
ObjectDBX Classes
 90
        0
280
     0
281
     0
  0
CLASS
  1
VISUALSTYLE
  2
AcDbVisualStyle
  3
ObjectDBX Classes
 90
     4095
280
     0
281
     0
  0
CLASS
  1
MATERIAL
  2
AcDbMaterial
  3
ObjectDBX Classes
 90
     1153
280
     0
281
     0
  0
CLASS
  1
SCALE
  2
AcDbScale
  3
ObjectDBX Classes
 90
     1153
280
     0
281
     0
  0
CLASS
  1
SUN
  2
AcDbSun
  3
SCENEOE
 90
     1153
280
     0
281
     0
  0
CLASS
  1
ACDBPLACEHOLDER
  2
AcDbPlaceHolder
  3
ObjectDBX Classes
 90
        0
280
     0
281
     0
  0
CLASS
  1
LAYOUT
  2
AcDbLayout
  3
ObjectDBX Classes
 90
        0
280
     0
281
     0
  0
CLASS
  1
TABLESTYLE
  2
AcDbTableStyle
  3
ObjectDBX Classes
 90
     4095
280
     0
281
     0
  0
CLASS
  1
MLEADERSTYLE
  2
AcDbMLeaderStyle
  3
ACDB_MLEADERSTYLE_CLASS
 90
     4095
280
     0
281
     0
  0
CLASS
  1
RASTERVARIABLES
  2
AcDbRasterVariables
  3
ISM
 90
        0
280
     0
281
     0
  0
ENDSEC
  0
SECTION
  2
TABLES
  0
TABLE
  2
VPORT
  5
8
330
0
100
AcDbSymbolTable
 70
     1
  0
VPORT
  5
29
330
8
100
AcDbSymbolTableRecord
100
AcDbViewportTableRecord
  2
*Active
 70
     0
 10
0.0
 20
0.0
 11
1.0
 21
1.0
 12
6.486554451713999
 22
2.424557066193394
 13
0.0
 23
0.0
 14
10.0
 24
10.0
 15
10.0
 25
10.0
 16
0.0
 26
0.0
 36
1.0
 17
0.0
 27
0.0
 37
0.0
 40
78.06390543791915
 41
1.970186335403727
 42
50.0
 43
0.0
 44
0.0
 50
0.0
 51
0.0
 71
    16
 72
  2000
 73
     1
 74
     3
 75
     0
 76
     0
 77
     0
 78
     0
281
     0
 65
     1
110
0.0
120
0.0
130
0.0
111
1.0
121
0.0
131
0.0
112
0.0
122
1.0
132
0.0
 79
     0
146
0.0
  0
ENDTAB
  0
TABLE
  2
LTYPE
  5
5
330
0
100
AcDbSymbolTable
 70
     6
  0
LTYPE
  5
14
330
5
100
AcDbSymbolTableRecord
100
AcDbLinetypeTableRecord
  2
ByBlock
 70
     0
  3

 72
    65
 73
     0
 40
0.0
  0
LTYPE
  5
15
330
5
100
AcDbSymbolTableRecord
100
AcDbLinetypeTableRecord
  2
ByLayer
 70
     0
  3

 72
    65
 73
     0
 40
0.0
  0
LTYPE
  5
16
330
5
100
AcDbSymbolTableRecord
100
AcDbLinetypeTableRecord
  2
Continuous
 70
     0
  3
Solid line
 72
    65
 73
     0
 40
0.0
  0
LTYPE
  5
6A
330
5
100
AcDbSymbolTableRecord
100
AcDbLinetypeTableRecord
  2
HIDDEN
 70
     0
  3
Hidden __ __ __ __ __ __ __ __ __ __ __ __ __ __
 72
    65
 73
     2
 40
1.905
 49
1.27
 74
     0
 49
-0.635
 74
     0
  0
LTYPE
  5
6B
330
5
100
AcDbSymbolTableRecord
100
AcDbLinetypeTableRecord
  2
PHANTOM
 70
     0
  3
Phantom ______  __  __  ______  __  __  ______
 72
    65
 73
     6
 40
12.7
 49
6.35
 74
     0
 49
-1.27
 74
     0
 49
1.27
 74
     0
 49
-1.27
 74
     0
 49
1.27
 74
     0
 49
-1.27
 74
     0
  0
LTYPE
  5
6C
330
5
100
AcDbSymbolTableRecord
100
AcDbLinetypeTableRecord
  2
CENTER
 70
     0
  3
Center ____ _ ____ _ ____ _ ____ _ ____ _ ____
 72
    65
 73
     4
 40
10.16
 49
6.35
 74
     0
 49
-1.27
 74
     0
 49
1.27
 74
     0
 49
-1.27
 74
     0
  0
LTYPE
  5
6D
330
5
100
AcDbSymbolTableRecord
100
AcDbLinetypeTableRecord
  2
CENTERX2
 70
     0
  3
Center (2x) ________  __  ________  __  _____
 72
    65
 73
     4
 40
20.32
 49
12.7
 74
     0
 49
-2.54
 74
     0
 49
2.54
 74
     0
 49
-2.54
 74
     0
  0
LTYPE
  5
6E
330
5
100
AcDbSymbolTableRecord
100
AcDbLinetypeTableRecord
  2
DOT2
 70
     0
  3
Dot (.5x) ........................................
 72
    65
 73
     2
 40
0.635
 49
0.0
 74
     0
 49
-0.635
 74
     0
  0
ENDTAB
  0
TABLE
  2
LAYER
  5
2
102
{ACAD_XDICTIONARY
360
22A
102
}
330
0
100
AcDbSymbolTable
 70
    18
  0
LAYER
  5
10
330
2
100
AcDbSymbolTableRecord
100
AcDbLayerTableRecord
  2
0
 70
     0
 62
     7
  6
Continuous
370
    -3
390
F
  0
LAYER
  5
6F
330
2
100
AcDbSymbolTableRecord
100
AcDbLayerTableRecord
  2
FORMAT
 70
     0
 62
     2
  6
Continuous
370
    -3
390
F
  0
LAYER
  5
70
330
2
100
AcDbSymbolTableRecord
100
AcDbLayerTableRecord
  2
외형선
 70
     0
 62
     4
  6
Continuous
370
    30
390
F
  0
LAYER
  5
71
330
2
100
AcDbSymbolTableRecord
100
AcDbLayerTableRecord
  2
숨은선
 70
     0
 62
     2
  6
HIDDEN
370
    15
390
F
  0
LAYER
  5
72
330
2
100
AcDbSymbolTableRecord
100
AcDbLayerTableRecord
  2
중심선
 70
     0
 62
     1
  6
CENTERX2
370
    -3
390
F
  0
LAYER
  5
73
330
2
100
AcDbSymbolTableRecord
100
AcDbLayerTableRecord
  2
파단선
 70
     0
 62
     4
  6
Continuous
370
    -3
390
F
  0
LAYER
  5
74
330
2
100
AcDbSymbolTableRecord
100
AcDbLayerTableRecord
  2
해칭선
 70
     0
 62
   100
  6
Continuous
370
    -3
390
F
  0
LAYER
  5
75
330
2
100
AcDbSymbolTableRecord
100
AcDbLayerTableRecord
  2
가는실선
 70
     0
 62
     4
  6
Continuous
370
    -3
390
F
  0
LAYER
  5
76
330
2
100
AcDbSymbolTableRecord
100
AcDbLayerTableRecord
  2
치수_보조선
 70
     0
 62
     4
  6
Continuous
370
    -3
390
F
  0
LAYER
  5
77
330
2
100
AcDbSymbolTableRecord
100
AcDbLayerTableRecord
  2
치수문자_일반주서
 70
     0
 62
     7
  6
Continuous
370
    15
390
F
  0
LAYER
  5
78
330
2
100
AcDbSymbolTableRecord
100
AcDbLayerTableRecord
  2
개별주서
 70
     0
 62
   100
  6
Continuous
370
    30
390
F
  0
LAYER
  5
79
330
2
100
AcDbSymbolTableRecord
100
AcDbLayerTableRecord
  2
중간선
 70
     0
 62
     2
  6
Continuous
370
    15
390
F
  0
LAYER
  5
7A
330
2
100
AcDbSymbolTableRecord
100
AcDbLayerTableRecord
  2
윤곽선
 70
     0
 62
     3
  6
Continuous
370
    40
390
F
  0
LAYER
  5
7B
330
2
100
AcDbSymbolTableRecord
100
AcDbLayerTableRecord
  2
중심마크
 70
     0
 62
   100
  6
Continuous
370
    30
390
F
  0
LAYER
  5
7C
330
2
100
AcDbSymbolTableRecord
100
AcDbLayerTableRecord
  2
가상선
 70
     0
 62
     4
  6
PHANTOM
370
    -3
390
F
  0
LAYER
  5
7D
330
2
100
AcDbSymbolTableRecord
100
AcDbLayerTableRecord
  2
특수지정선
 70
     0
 62
     5
  6
CENTERX2
370
    60
390
F
  0
LAYER
  5
7E
330
2
100
AcDbSymbolTableRecord
100
AcDbLayerTableRecord
  2
참조1
 70
     0
 62
    -4
  6
Continuous
370
    -3
390
F
  0
LAYER
  5
172
330
2
100
AcDbSymbolTableRecord
100
AcDbLayerTableRecord
  2
Defpoints
 70
     0
 62
     7
  6
Continuous
290
     0
370
    -3
390
F
  0
ENDTAB
  0
TABLE
  2
STYLE
  5
3
330
0
100
AcDbSymbolTable
 70
     2
  0
STYLE
  5
11
330
3
100
AcDbSymbolTableRecord
100
AcDbTextStyleTableRecord
  2
Standard
 70
     0
 40
0.0
 41
1.0
 50
0.0
 71
     0
 42
3.5
  3
txt
  4

  0
STYLE
  5
94
330
3
100
AcDbSymbolTableRecord
100
AcDbTextStyleTableRecord
  2
SLDTEXTSTYLE0
 70
     0
 40
0.0
 41
0.75
 50
0.0
 71
     0
 42
3.5
  3
TXT
  4

  0
ENDTAB
  0
TABLE
  2
VIEW
  5
6
330
0
100
AcDbSymbolTable
 70
     0
  0
ENDTAB
  0
TABLE
  2
UCS
  5
7
330
0
100
AcDbSymbolTable
 70
     0
  0
ENDTAB
  0
TABLE
  2
APPID
  5
9
330
0
100
AcDbSymbolTable
 70
     3
  0
APPID
  5
12
330
9
100
AcDbSymbolTableRecord
100
AcDbRegAppTableRecord
  2
ACAD
 70
     0
  0
APPID
  5
17E
330
9
100
AcDbSymbolTableRecord
100
AcDbRegAppTableRecord
  2
PE_URL
 70
     0
  0
APPID
  5
17F
330
9
100
AcDbSymbolTableRecord
100
AcDbRegAppTableRecord
  2
ACAD_DSTYLE_DIMRADIAL_EXTENSION
 70
     0
  0
ENDTAB
  0
TABLE
  2
DIMSTYLE
  5
A
330
0
100
AcDbSymbolTable
 70
     4
100
AcDbDimStyleTable
  0
DIMSTYLE
105
27
330
A
100
AcDbSymbolTableRecord
100
AcDbDimStyleTableRecord
  2
ISO-25
 70
     0
 41
2.5
 42
0.625
 43
3.75
 44
1.25
 73
     0
 74
     0
 77
     1
 78
     8
140
2.5
141
2.5
143
0.03937007874016
147
0.625
171
     3
172
     1
178
     0
271
     2
272
     2
274
     3
278
    44
283
     0
284
     8
340
11
  0
DIMSTYLE
105
EE
102
{ACAD_REACTORS
330
ED
330
12B
330
1DE
330
1EB
330
102
330
117
102
}
330
A
100
AcDbSymbolTableRecord
100
AcDbDimStyleTableRecord
  2
SLDDIMSTYLE0
 70
     0
 41
3.302
 44
0.0
 45
0.000000001
 73
     0
 74
     0
 77
     1
 78
    12
 79
     3
140
3.5
143
0.0393700787401575
147
0.875
148
0.000000001
170
     1
172
     1
173
     1
178
     0
271
     2
272
     2
276
     2
284
    12
289
     0
340
94
  0
DIMSTYLE
105
103
102
{ACAD_REACTORS
330
221
102
}
330
A
100
AcDbSymbolTableRecord
100
AcDbDimStyleTableRecord
  2
SLDDIMSTYLE1
 70
     0
 41
3.302
 44
0.0
 45
0.000000001
 73
     0
 74
     0
 77
     1
 78
    12
 79
     3
140
3.5
143
0.0393700787401575
147
0.875
148
0.000000001
170
     1
173
     1
178
     0
271
     2
272
     2
276
     2
284
    12
340
94
  0
DIMSTYLE
105
118
102
{ACAD_REACTORS
330
1F8
330
207
102
}
330
A
100
AcDbSymbolTableRecord
100
AcDbDimStyleTableRecord
  2
SLDDIMSTYLE2
 70
     0
 41
3.302
 44
0.0
 45
0.000000001
 73
     0
 74
     0
 77
     1
 78
     4
 79
     1
140
3.5
143
0.0393700787401575
147
0.875
148
0.000000001
170
     1
173
     1
178
     0
271
     2
272
     2
276
     2
284
    12
340
94
  0
ENDTAB
  0
TABLE
  2
BLOCK_RECORD
  5
1
330
0
100
AcDbSymbolTable
 70
    18
  0
BLOCK_RECORD
  5
1F
330
1
100
AcDbSymbolTableRecord
100
AcDbBlockTableRecord
  2
*Model_Space
340
22
  0
BLOCK_RECORD
  5
1B
330
1
100
AcDbSymbolTableRecord
100
AcDbBlockTableRecord
  2
*Paper_Space
340
1E
  0
BLOCK_RECORD
  5
23
330
1
100
AcDbSymbolTableRecord
100
AcDbBlockTableRecord
  2
*Paper_Space0
340
26
  0
BLOCK_RECORD
  5
7F
330
1
100
AcDbSymbolTableRecord
100
AcDbBlockTableRecord
  2
블럭10
340
0
102
{BLKREFS
331
E6
102
}
  0
BLOCK_RECORD
  5
EF
330
1
100
AcDbSymbolTableRecord
100
AcDbBlockTableRecord
  2
_D
340
0
  0
BLOCK_RECORD
  5
104
330
1
100
AcDbSymbolTableRecord
100
AcDbBlockTableRecord
  2
_D_1
340
0
  0
BLOCK_RECORD
  5
119
330
1
100
AcDbSymbolTableRecord
100
AcDbBlockTableRecord
  2
_D_2
340
0
  0
BLOCK_RECORD
  5
12C
330
1
100
AcDbSymbolTableRecord
100
AcDbBlockTableRecord
  2
_D_3
340
0
  0
BLOCK_RECORD
  5
146
330
1
100
AcDbSymbolTableRecord
100
AcDbBlockTableRecord
  2
SW_DOWELSYMBOL_0
340
0
102
{BLKREFS
331
14C
331
216
331
0
102
}
  0
BLOCK_RECORD
  5
208
330
1
100
AcDbSymbolTableRecord
100
AcDbBlockTableRecord
  2
_D_4
340
0
  0
BLOCK_RECORD
  5
222
330
1
100
AcDbSymbolTableRecord
100
AcDbBlockTableRecord
  2
*D9
340
0
  0
BLOCK_RECORD
  5
22E
330
1
100
AcDbSymbolTableRecord
100
AcDbBlockTableRecord
  2
*D10
340
0
  0
BLOCK_RECORD
  5
23A
330
1
100
AcDbSymbolTableRecord
100
AcDbBlockTableRecord
  2
*D11
340
0
  0
BLOCK_RECORD
  5
246
330
1
100
AcDbSymbolTableRecord
100
AcDbBlockTableRecord
  2
*D12
340
0
  0
BLOCK_RECORD
  5
2A1
330
1
100
AcDbSymbolTableRecord
100
AcDbBlockTableRecord
  2
*D13
340
0
  0
BLOCK_RECORD
  5
2AD
330
1
100
AcDbSymbolTableRecord
100
AcDbBlockTableRecord
  2
*D14
340
0
  0
BLOCK_RECORD
  5
2B9
330
1
100
AcDbSymbolTableRecord
100
AcDbBlockTableRecord
  2
*D15
340
0
  0
BLOCK_RECORD
  5
2C7
330
1
100
AcDbSymbolTableRecord
100
AcDbBlockTableRecord
  2
*D16
340
0
  0
BLOCK_RECORD
  5
2D5
330
1
100
AcDbSymbolTableRecord
100
AcDbBlockTableRecord
  2
*D17
340
0
  0
ENDTAB
  0
ENDSEC
  0
SECTION
  2
BLOCKS
  0
BLOCK
  5
20
330
1F
100
AcDbEntity
  8
0
100
AcDbBlockBegin
  2
*Model_Space
 70
     0
 10
0.0
 20
0.0
 30
0.0
  3
*Model_Space
  1
*Model_Space
  0
ENDBLK
  5
21
330
1F
100
AcDbEntity
  8
0
100
AcDbBlockEnd
  0
BLOCK
  5
1C
330
1B
100
AcDbEntity
 67
     1
  8
0
100
AcDbBlockBegin
  2
*Paper_Space
 70
     0
 10
0.0
 20
0.0
 30
0.0
  3
*Paper_Space
  1
*Paper_Space
  0
ENDBLK
  5
1D
330
1B
100
AcDbEntity
 67
     1
  8
0
100
AcDbBlockEnd
  0
BLOCK
  5
24
330
23
100
AcDbEntity
  8
0
100
AcDbBlockBegin
  2
*Paper_Space0
 70
     0
 10
0.0
 20
0.0
 30
0.0
  3
*Paper_Space0
  1
*Paper_Space0
  0
ENDBLK
  5
25
330
23
100
AcDbEntity
  8
0
100
AcDbBlockEnd
  0
BLOCK
  5
80
330
7F
100
AcDbEntity
  8
0
100
AcDbBlockBegin
  2
블럭10
 70
     2
 10
0.0
 20
0.0
 30
0.0
  3
블럭10
  1
블럭10
  0
ELLIPSE
  5
82
330
7F
100
AcDbEntity
  8
중심선
100
AcDbEllipse
 10
20.54032771741204
 20
12.0471743016438
 30
0.0
 11
6.600054785286829
 21
-1.261213355974178E-13
 31
0.0
210
0.0
220
0.0
230
1.0
 40
0.636358354079598
 41
0.9219305317359503
 42
6.513795318482858
  0
ELLIPSE
  5
83
330
7F
100
AcDbEntity
  8
중심선
100
AcDbEllipse
 10
20.54032771746488
 20
12.04717430159265
 30
0.0
 11
3.960054785062283
 21
1.540847449632565E-10
 31
0.0
210
0.0
220
0.0
230
1.0
 40
0.3939339440162632
 41
1.131841032648279
 42
5.62031148352944
  0
LINE
  5
84
330
7F
100
AcDbEntity
  8
중심선
100
AcDbLine
 10
2.268634060543552
 20
16.24717430164393
 30
0.0
 11
5.714909304380834
 21
16.24717430164393
 31
0.0
  0
LINE
  5
85
330
7F
100
AcDbEntity
  8
중심선
100
AcDbLine
 10
5.245725140726316
 20
7.84717430164391
 30
0.0
 11
8.692000384563599
 21
7.84717430164391
 31
0.0
  0
LINE
  5
86
330
7F
100
AcDbEntity
  8
중심선
100
AcDbLine
 10
15.74043728645272
 20
16.24717430164393
 30
0.0
 11
8.692000384563599
 21
7.84717430164391
 31
0.0
  0
LINE
  5
87
330
7F
100
AcDbEntity
  8
중심선
100
AcDbLine
 10
0.1404042013395286
 20
13.71084872107135
 30
0.0
 11
3.58671253028996
 21
13.71088815037384
 31
0.0
  0
LINE
  5
88
330
7F
100
AcDbEntity
  8
중심선
100
AcDbLine
 10
2.750260043222114
 20
10.84717430164391
 30
0.0
 11
6.196535287059397
 21
10.84717430164391
 31
0.0
  0
LINE
  5
89
330
7F
100
AcDbEntity
  8
중심선
100
AcDbLine
 10
12.29416204261559
 20
16.24717430164393
 30
0.0
 11
5.245725140726316
 21
7.84717430164391
 31
0.0
  0
LINE
  5
8A
330
7F
100
AcDbEntity
  8
중심선
100
AcDbLine
 10
10.72767329541681
 20
16.24717430164393
 30
0.0
 11
6.196535287059397
 21
10.84717430164391
 31
0.0
  0
LINE
  5
8B
330
7F
100
AcDbEntity
  8
중심선
100
AcDbLine
 10
7.28139805157953
 20
16.24717430164393
 30
0.0
 11
2.750260043222114
 21
10.84717430164391
 31
0.0
  0
LINE
  5
8C
330
7F
100
AcDbEntity
  8
중심선
100
AcDbLine
 10
5.714909304380834
 20
16.24717430164393
 30
0.0
 11
3.58671253028996
 21
13.71088815037384
 31
0.0
  0
LINE
  5
8D
330
7F
100
AcDbEntity
  8
중심선
100
AcDbLine
 10
2.268634060543552
 20
16.24717430164393
 30
0.0
 11
0.1404042013395286
 21
13.71084872107135
 31
0.0
  0
LINE
  5
8E
330
7F
100
AcDbEntity
  8
중심선
100
AcDbLine
 10
7.28139805157953
 20
16.24717430164393
 30
0.0
 11
10.72767329541681
 21
16.24717430164393
 31
0.0
  0
LINE
  5
8F
330
7F
100
AcDbEntity
  8
중심선
100
AcDbLine
 10
12.29416204261559
 20
16.24717430164393
 30
0.0
 11
15.74043728645272
 21
16.24717430164393
 31
0.0
  0
LINE
  5
90
330
7F
100
AcDbEntity
  8
중심선
100
AcDbLine
 10
19.22036997980202
 20
11.08717430171403
 30
0.0
 11
23.66174974927406
 21
11.08717430171406
 31
0.0
  0
LINE
  5
91
330
7F
100
AcDbEntity
  8
중심선
100
AcDbLine
 10
19.22039502424796
 20
13.00717430171391
 30
0.0
 11
19.22036997980202
 21
11.08717430171403
 31
0.0
  0
LINE
  5
92
330
7F
100
AcDbEntity
  8
중심선
100
AcDbLine
 10
19.22039502424796
 20
13.00717430171391
 30
0.0
 11
26.96566020931264
 21
13.00717430171391
 31
0.0
  0
LINE
  5
93
330
7F
100
AcDbEntity
  8
중심선
100
AcDbLine
 10
22.22332737316547
 20
13.45928029700563
 30
0.0
 11
24.52862924686651
 21
15.39360700705356
 31
0.0
  0
ATTDEF
  5
95
330
7F
100
AcDbEntity
  8
FORMAT
 62
     2
100
AcDbText
 10
4.408487351596664
 20
2.075366912832191
 30
0.0
 40
4.233333333333333
  1
E5026012
 41
0.75
  7
SLDTEXTSTYLE0
 11
4.408487351596664
 21
-0.0412997538344756
 31
0.0
100
AcDbAttributeDefinition
  3

  2
AUTOATTR0
 70
     0
 74
     1
  0
ENDBLK
  5
81
330
7F
100
AcDbEntity
  8
0
100
AcDbBlockEnd
  0
BLOCK
  5
F0
330
EF
100
AcDbEntity
  8
0
100
AcDbBlockBegin
  2
_D
 70
     0
 10
0.0
 20
0.0
 30
0.0
  3
_D
  1
_D
  0
LINE
  5
F2
330
EF
100
AcDbEntity
  8
치수문자_일반주서
 62
     0
370
    -2
100
AcDbLine
 10
-37.25749999999419
 20
2.381250000000001
 30
0.0
 11
-48.436199442427
 21
2.381249999999959
 31
0.0
  0
LINE
  5
F3
330
EF
100
AcDbEntity
  8
치수문자_일반주서
 62
     0
370
    -2
100
AcDbLine
 10
-37.25749999999419
 20
-2.381250000000001
 30
0.0
 11
-48.43619944242699
 21
-2.381250000000044
 31
0.0
  0
LINE
  5
F4
330
EF
100
AcDbEntity
  8
치수문자_일반주서
 62
     0
370
    -2
100
AcDbLine
 10
-48.436199442427
 20
2.381249999999959
 30
0.0
 11
-48.43619944242711
 21
36.98524999999997
 31
0.0
  0
LINE
  5
F5
330
EF
100
AcDbEntity
  8
치수문자_일반주서
 62
     0
370
    -2
100
AcDbLine
 10
-48.436199442427
 20
2.381249999999959
 30
0.0
 11
-48.43619944242699
 21
-2.381250000000044
 31
0.0
  0
LINE
  5
F6
330
EF
100
AcDbEntity
  8
치수문자_일반주서
 62
     0
370
    -2
100
AcDbLine
 10
-48.43619944242701
 20
5.683249999999958
 30
0.0
 11
-48.43619944242702
 21
8.985249999999958
 31
0.0
  0
LINE
  5
F7
330
EF
100
AcDbEntity
  8
치수문자_일반주서
 62
     0
370
    -2
100
AcDbLine
 10
-48.43619944242698
 20
-5.683250000000044
 30
0.0
 11
-48.43619944242698
 21
-8.985250000000043
 31
0.0
  0
SOLID
  5
F8
330
EF
100
AcDbEntity
  8
치수문자_일반주서
 62
     0
100
AcDbTrace
 10
-48.98653277576035
 20
5.683249999999957
 30
0.0
 11
-47.88586610909368
 21
5.68324999999996
 31
0.0
 12
-48.436199442427
 22
2.381249999999959
 32
0.0
 13
-48.436199442427
 23
2.381249999999959
 33
0.0
  0
SOLID
  5
F9
330
EF
100
AcDbEntity
  8
치수문자_일반주서
 62
     0
100
AcDbTrace
 10
-47.88586610909365
 20
-5.683250000000042
 30
0.0
 11
-48.98653277576032
 21
-5.683250000000045
 31
0.0
 12
-48.43619944242699
 22
-2.381250000000044
 32
0.0
 13
-48.43619944242699
 23
-2.381250000000044
 33
0.0
  0
MTEXT
  5
FA
330
EF
100
AcDbEntity
  8
치수문자_일반주서
 62
     0
100
AcDbMText
 10
-52.81119944242707
 20
22.98524999999995
 30
0.0
 40
3.5
 41
0.0
 71
     2
 72
     1
  1
\A1;%%c4.76 [3/16]
  7
SLDTEXTSTYLE0
 11
-2.983906501879683E-15
 21
1.0
 31
0.0
 73
     1
 44
1.0
  0
POINT
  5
2DF
330
EF
100
AcDbEntity
  8
Defpoints
 62
     0
100
AcDbPoint
 10
-37.19499999999419
 20
2.381250000000002
 30
0.0
  0
POINT
  5
2E0
330
EF
100
AcDbEntity
  8
Defpoints
 62
     0
100
AcDbPoint
 10
-37.19499999999419
 20
-2.381250000000001
 30
0.0
  0
POINT
  5
2E1
330
EF
100
AcDbEntity
  8
Defpoints
 62
     0
100
AcDbPoint
 10
-48.436199442427
 20
-2.381250000000043
 30
0.0
  0
ENDBLK
  5
F1
330
EF
100
AcDbEntity
  8
0
100
AcDbBlockEnd
  0
BLOCK
  5
105
330
104
100
AcDbEntity
  8
0
100
AcDbBlockBegin
  2
_D_1
 70
     0
 10
0.0
 20
0.0
 30
0.0
  3
_D_1
  1
_D_1
  0
LINE
  5
107
330
104
100
AcDbEntity
  8
치수문자_일반주서
 62
     0
370
    -2
100
AcDbLine
 10
38.57500000000582
 20
2.441737403765593
 30
0.0
 11
38.57500000000582
 21
15.55557913458853
 31
0.0
  0
LINE
  5
108
330
104
100
AcDbEntity
  8
치수문자_일반주서
 62
     0
370
    -2
100
AcDbLine
 10
10.0000000000058
 20
1.633475941355518
 30
0.0
 11
10.0000000000058
 21
15.55557913458853
 31
0.0
  0
LINE
  5
109
330
104
100
AcDbEntity
  8
치수문자_일반주서
 62
     0
370
    -2
100
AcDbLine
 10
35.27300000000582
 20
15.55557913458853
 30
0.0
 11
13.3020000000058
 21
15.55557913458853
 31
0.0
  0
SOLID
  5
10A
330
104
100
AcDbEntity
  8
치수문자_일반주서
 62
     0
100
AcDbTrace
 10
35.27300000000582
 20
15.00524580125519
 30
0.0
 11
35.27300000000582
 21
16.10591246792186
 31
0.0
 12
38.57500000000582
 22
15.55557913458853
 32
0.0
 13
38.57500000000582
 23
15.55557913458853
 33
0.0
  0
SOLID
  5
10B
330
104
100
AcDbEntity
  8
치수문자_일반주서
 62
     0
100
AcDbTrace
 10
13.3020000000058
 20
16.10591246792186
 30
0.0
 11
13.3020000000058
 21
15.00524580125519
 31
0.0
 12
10.0000000000058
 22
15.55557913458853
 32
0.0
 13
10.0000000000058
 23
15.55557913458853
 33
0.0
  0
MTEXT
  5
10C
330
104
100
AcDbEntity
  8
치수문자_일반주서
 62
     0
100
AcDbMText
 10
24.28750000000581
 20
19.93057913458853
 30
0.0
 40
3.5
 41
0.0
 71
     2
 72
     1
  1
\A1;28.58 [1 1/8]
  7
SLDTEXTSTYLE0
 73
     1
 44
1.0
  0
POINT
  5
10D
330
104
100
AcDbEntity
  8
Defpoints
 62
     0
100
AcDbPoint
 10
38.57500000000582
 20
2.379237403765593
 30
0.0
  0
POINT
  5
10E
330
104
100
AcDbEntity
  8
Defpoints
 62
     0
100
AcDbPoint
 10
10.0000000000058
 20
1.570975941355518
 30
0.0
  0
POINT
  5
10F
330
104
100
AcDbEntity
  8
Defpoints
 62
     0
100
AcDbPoint
 10
10.0000000000058
 20
15.55557913458853
 30
0.0
  0
ENDBLK
  5
106
330
104
100
AcDbEntity
  8
0
100
AcDbBlockEnd
  0
BLOCK
  5
11A
330
119
100
AcDbEntity
  8
0
100
AcDbBlockBegin
  2
_D_2
 70
     0
 10
0.0
 20
0.0
 30
0.0
  3
_D_2
  1
_D_2
  0
LINE
  5
11C
330
119
100
AcDbEntity
  8
치수문자_일반주서
 62
     0
370
    -2
100
AcDbLine
 10
38.57500000000582
 20
2.322165444858467
 30
0.0
 11
38.57500000000582
 21
32.78519501024257
 31
0.0
  0
LINE
  5
11D
330
119
100
AcDbEntity
  8
치수문자_일반주서
 62
     0
370
    -2
100
AcDbLine
 10
-37.62499999999419
 20
2.013749999999995
 30
0.0
 11
-37.62499999999419
 21
32.78519501024257
 31
0.0
  0
LINE
  5
11E
330
119
100
AcDbEntity
  8
치수문자_일반주서
 62
     0
370
    -2
100
AcDbLine
 10
35.27300000000582
 20
32.78519501024257
 30
0.0
 11
-34.3229999999942
 21
32.78519501024257
 31
0.0
  0
SOLID
  5
11F
330
119
100
AcDbEntity
  8
치수문자_일반주서
 62
     0
100
AcDbTrace
 10
35.27300000000582
 20
32.23486167690923
 30
0.0
 11
35.27300000000582
 21
33.3355283435759
 31
0.0
 12
38.57500000000582
 22
32.78519501024257
 32
0.0
 13
38.57500000000582
 23
32.78519501024257
 33
0.0
  0
SOLID
  5
120
330
119
100
AcDbEntity
  8
치수문자_일반주서
 62
     0
100
AcDbTrace
 10
-34.3229999999942
 20
33.3355283435759
 30
0.0
 11
-34.3229999999942
 21
32.23486167690923
 31
0.0
 12
-37.62499999999419
 22
32.78519501024257
 32
0.0
 13
-37.62499999999419
 23
32.78519501024257
 33
0.0
  0
MTEXT
  5
121
330
119
100
AcDbEntity
  8
치수문자_일반주서
 62
     0
100
AcDbMText
 10
0.4750000000058039
 20
37.16019501024257
 30
0.0
 40
3.5
 41
0.0
 71
     2
 72
     1
  1
\A1;76.2 [3]
  7
SLDTEXTSTYLE0
 73
     1
 44
1.0
  0
POINT
  5
122
330
119
100
AcDbEntity
  8
Defpoints
 62
     0
100
AcDbPoint
 10
38.57500000000582
 20
2.259665444858467
 30
0.0
  0
POINT
  5
123
330
119
100
AcDbEntity
  8
Defpoints
 62
     0
100
AcDbPoint
 10
-37.62499999999419
 20
1.951249999999995
 30
0.0
  0
POINT
  5
124
330
119
100
AcDbEntity
  8
Defpoints
 62
     0
100
AcDbPoint
 10
-37.62499999999419
 20
32.78519501024257
 30
0.0
  0
ENDBLK
  5
11B
330
119
100
AcDbEntity
  8
0
100
AcDbBlockEnd
  0
BLOCK
  5
12D
330
12C
100
AcDbEntity
  8
0
100
AcDbBlockBegin
  2
_D_3
 70
     0
 10
0.0
 20
0.0
 30
0.0
  3
_D_3
  1
_D_3
  0
LINE
  5
12F
330
12C
100
AcDbEntity
  8
치수문자_일반주서
 62
     0
370
    -2
100
AcDbLine
 10
38.63750000000582
 20
-2.379237403765592
 30
0.0
 11
50.18799073517488
 21
-2.379237403765551
 31
0.0
  0
LINE
  5
130
330
12C
100
AcDbEntity
  8
치수문자_일반주서
 62
     0
370
    -2
100
AcDbLine
 10
38.63750000000582
 20
2.379237403765594
 30
0.0
 11
50.18799073517486
 21
2.379237403765636
 31
0.0
  0
LINE
  5
131
330
12C
100
AcDbEntity
  8
치수문자_일반주서
 62
     0
370
    -2
100
AcDbLine
 10
50.18799073517486
 20
2.379237403765636
 30
0.0
 11
50.18799073517476
 21
36.98323740376563
 31
0.0
  0
LINE
  5
132
330
12C
100
AcDbEntity
  8
치수문자_일반주서
 62
     0
370
    -2
100
AcDbLine
 10
50.18799073517488
 20
-2.379237403765551
 30
0.0
 11
50.18799073517486
 21
2.379237403765636
 31
0.0
  0
LINE
  5
133
330
12C
100
AcDbEntity
  8
치수문자_일반주서
 62
     0
370
    -2
100
AcDbLine
 10
50.18799073517489
 20
-5.68123740376555
 30
0.0
 11
50.18799073517489
 21
-8.98323740376555
 31
0.0
  0
LINE
  5
134
330
12C
100
AcDbEntity
  8
치수문자_일반주서
 62
     0
370
    -2
100
AcDbLine
 10
50.18799073517486
 20
5.681237403765635
 30
0.0
 11
50.18799073517485
 21
8.983237403765635
 31
0.0
  0
SOLID
  5
135
330
12C
100
AcDbEntity
  8
치수문자_일반주서
 62
     0
100
AcDbTrace
 10
50.73832406850822
 20
-5.681237403765548
 30
0.0
 11
49.63765740184155
 21
-5.681237403765552
 31
0.0
 12
50.18799073517488
 22
-2.379237403765551
 32
0.0
 13
50.18799073517488
 23
-2.379237403765551
 33
0.0
  0
SOLID
  5
136
330
12C
100
AcDbEntity
  8
치수문자_일반주서
 62
     0
100
AcDbTrace
 10
49.63765740184152
 20
5.681237403765634
 30
0.0
 11
50.73832406850819
 21
5.681237403765637
 31
0.0
 12
50.18799073517486
 22
2.379237403765636
 32
0.0
 13
50.18799073517486
 23
2.379237403765636
 33
0.0
  0
MTEXT
  5
137
330
12C
100
AcDbEntity
  8
치수문자_일반주서
 62
     0
100
AcDbMText
 10
45.8129907351748
 20
22.98323740376562
 30
0.0
 40
3.5
 41
0.0
 71
     2
 72
     1
  1
\A1;%%c4.76 [3/16]
  7
SLDTEXTSTYLE0
 11
-2.986430587529988E-15
 21
1.0
 31
0.0
 73
     1
 44
1.0
  0
POINT
  5
138
330
12C
100
AcDbEntity
  8
Defpoints
 62
     0
100
AcDbPoint
 10
38.57500000000582
 20
-2.379237403765592
 30
0.0
  0
POINT
  5
139
330
12C
100
AcDbEntity
  8
Defpoints
 62
     0
100
AcDbPoint
 10
38.57500000000582
 20
2.379237403765593
 30
0.0
  0
POINT
  5
13A
330
12C
100
AcDbEntity
  8
Defpoints
 62
     0
100
AcDbPoint
 10
50.18799073517486
 20
2.379237403765637
 30
0.0
  0
ENDBLK
  5
12E
330
12C
100
AcDbEntity
  8
0
100
AcDbBlockEnd
  0
BLOCK
  5
147
330
146
100
AcDbEntity
  8
0
100
AcDbBlockBegin
  2
SW_DOWELSYMBOL_0
 70
     0
 10
0.0
 20
0.0
 30
0.0
  3
SW_DOWELSYMBOL_0
  1
SW_DOWELSYMBOL_0
  0
CIRCLE
  5
149
330
146
100
AcDbEntity
  8
해칭선
 62
     0
100
AcDbCircle
 10
0.0
 20
0.0
 30
0.0
 40
2.999999999999996
  0
HATCH
  5
14A
330
146
100
AcDbEntity
  8
0
  6
Continuous
 62
     0
370
     0
100
AcDbHatch
 10
0.0
 20
0.0
 30
0.0
210
0.0
220
0.0
230
1.0
  2
SOLID
 70
     1
 71
     0
 91
        1
 92
        0
 93
        3
 72
     2
 10
0.0
 20
0.0
 40
2.999999999999996
 50
0.0
 51
90.0
 73
     1
 72
     1
 10
0.0
 20
2.999999999999996
 11
0.0
 21
0.0
 72
     1
 10
0.0
 20
0.0
 11
2.999999999999996
 21
0.0
 97
        0
 75
     0
 76
     1
 98
        1
 10
0.0
 20
0.0
  0
HATCH
  5
14B
330
146
100
AcDbEntity
  8
0
  6
Continuous
 62
     0
370
     0
100
AcDbHatch
 10
0.0
 20
0.0
 30
0.0
210
0.0
220
0.0
230
1.0
  2
SOLID
 70
     1
 71
     0
 91
        1
 92
        0
 93
        3
 72
     2
 10
0.0
 20
0.0
 40
2.999999999999996
 50
180.0
 51
270.0000000000008
 73
     1
 72
     1
 10
0.0
 20
-2.999999999999996
 11
0.0
 21
0.0
 72
     1
 10
0.0
 20
0.0
 11
-2.999999999999996
 21
0.0
 97
        0
 75
     0
 76
     1
 98
        1
 10
0.0
 20
0.0
  0
ENDBLK
  5
148
330
146
100
AcDbEntity
  8
0
100
AcDbBlockEnd
  0
BLOCK
  5
209
330
208
100
AcDbEntity
  8
0
100
AcDbBlockBegin
  2
_D_4
 70
     0
 10
0.0
 20
0.0
 30
0.0
  3
_D_4
  1
_D_4
  0
LINE
  5
20A
330
208
100
AcDbEntity
  8
치수문자_일반주서
 62
     0
370
    -2
100
AcDbLine
 10
102.4375000000001
 20
36.22143424691529
 30
0.0
 11
117.3750000000001
 21
36.22143424691535
 31
0.0
  0
LINE
  5
20B
330
208
100
AcDbEntity
  8
치수문자_일반주서
 62
     0
370
    -2
100
AcDbLine
 10
102.4375000000001
 20
22.22143424691529
 30
0.0
 11
117.3750000000001
 21
22.22143424691535
 31
0.0
  0
LINE
  5
20C
330
208
100
AcDbEntity
  8
치수문자_일반주서
 62
     0
370
    -2
100
AcDbLine
 10
117.3750000000001
 20
36.22143424691535
 30
0.0
 11
117.3750000000001
 21
22.22143424691535
 31
0.0
  0
LINE
  5
20D
330
208
100
AcDbEntity
  8
치수문자_일반주서
 62
     0
370
    -2
100
AcDbLine
 10
117.3750000000001
 20
39.52343424691535
 30
0.0
 11
117.375
 21
42.82543424691535
 31
0.0
  0
LINE
  5
20E
330
208
100
AcDbEntity
  8
치수문자_일반주서
 62
     0
370
    -2
100
AcDbLine
 10
117.3750000000001
 20
18.91943424691535
 30
0.0
 11
117.3750000000001
 21
15.61743424691535
 31
0.0
  0
SOLID
  5
20F
330
208
100
AcDbEntity
  8
치수문자_일반주서
 62
     0
100
AcDbTrace
 10
116.8246666666667
 20
39.52343424691535
 30
0.0
 11
117.9253333333334
 21
39.52343424691535
 31
0.0
 12
117.3750000000001
 22
36.22143424691535
 32
0.0
 13
117.3750000000001
 23
36.22143424691535
 33
0.0
  0
SOLID
  5
210
330
208
100
AcDbEntity
  8
치수문자_일반주서
 62
     0
100
AcDbTrace
 10
117.9253333333335
 20
18.91943424691535
 30
0.0
 11
116.8246666666668
 21
18.91943424691535
 31
0.0
 12
117.3750000000001
 22
22.22143424691535
 32
0.0
 13
117.3750000000001
 23
22.22143424691535
 33
0.0
  0
MTEXT
  5
211
330
208
100
AcDbEntity
  8
치수문자_일반주서
 62
     0
100
AcDbMText
 10
113.0000000000001
 20
29.28713862862833
 30
0.0
 40
3.5
 41
0.0
 71
     2
 72
     1
  1
\A1;%%c14.00 [0.55]
  7
SLDTEXTSTYLE0
 11
-3.045183153257572E-15
 21
1.0
 31
0.0
 73
     1
 44
1.0
  0
POINT
  5
212
330
208
100
AcDbEntity
  8
Defpoints
 62
     0
100
AcDbPoint
 10
102.3750000000001
 20
36.22143424691529
 30
0.0
  0
POINT
  5
213
330
208
100
AcDbEntity
  8
Defpoints
 62
     0
100
AcDbPoint
 10
102.3750000000001
 20
22.22143424691529
 30
0.0
  0
POINT
  5
214
330
208
100
AcDbEntity
  8
Defpoints
 62
     0
100
AcDbPoint
 10
117.3750000000001
 20
22.22143424691535
 30
0.0
  0
ENDBLK
  5
215
330
208
100
AcDbEntity
  8
0
100
AcDbBlockEnd
  0
BLOCK
  5
223
330
222
100
AcDbEntity
  8
0
100
AcDbBlockBegin
  2
*D9
 70
     1
 10
0.0
 20
0.0
 30
0.0
  3
*D9
  1
*D8
  0
LINE
  5
224
330
222
100
AcDbEntity
  8
치수문자_일반주서
 62
     0
370
    -2
100
AcDbLine
 10
103.8657751816695
 20
19.48229575403651
 30
0.0
 11
119.6194267469468
 21
-6.150060756304035
 31
0.0
  0
MTEXT
  5
225
330
222
100
AcDbEntity
  8
치수문자_일반주서
 62
     0
100
AcDbMText
 10
115.6706384014277
 20
5.288158154535728
 30
0.0
 40
3.5
 41
0.0
 71
     5
 72
     1
  1
\A1;R.5 [R0.02]
  7
SLDTEXTSTYLE0
 11
0.5236126201129557
 21
-0.8519564684057781
 31
0.0
 73
     1
 44
1.0
  0
SOLID
  5
226
330
222
100
AcDbEntity
  8
치수문자_일반주서
 62
     0
100
AcDbTrace
 10
104.3346352247821
 20
19.77045723263868
 30
0.0
 11
103.3969151385569
 21
19.19413427543435
 31
0.0
 12
102.1368063100565
 22
22.29545601271239
 32
0.0
 13
102.1368063100565
 23
22.29545601271239
 33
0.0
  0
LINE
  5
227
330
222
100
AcDbEntity
  8
치수문자_일반주서
 62
     0
100
AcDbLine
 10
101.785
 20
22.72143424691529
 30
0.0
 11
101.965
 21
22.72143424691529
 31
0.0
  0
LINE
  5
228
330
222
100
AcDbEntity
  8
치수문자_일반주서
 62
     0
100
AcDbLine
 10
101.875
 20
22.63143424691529
 30
0.0
 11
101.875
 21
22.81143424691529
 31
0.0
  0
POINT
  5
254
330
222
100
AcDbEntity
  8
Defpoints
 62
     0
100
AcDbPoint
 10
102.1368063100565
 20
22.29545601271239
 30
0.0
  0
POINT
  5
255
330
222
100
AcDbEntity
  8
Defpoints
 62
     0
100
AcDbPoint
 10
101.875
 20
22.72143424691529
 30
0.0
  0
ENDBLK
  5
229
330
222
100
AcDbEntity
  8
0
100
AcDbBlockEnd
  0
BLOCK
  5
22F
330
22E
100
AcDbEntity
  8
0
100
AcDbBlockBegin
  2
*D10
 70
     1
 10
0.0
 20
0.0
 30
0.0
  3
*D10
  1
*D10
  0
LINE
  5
231
330
22E
100
AcDbEntity
  8
치수문자_일반주서
 62
     0
370
    -2
100
AcDbLine
 10
19.37500000000004
 20
35.78393424691529
 30
0.0
 11
19.37500000000004
 21
70.88391841499404
 31
0.0
  0
LINE
  5
232
330
22E
100
AcDbEntity
  8
치수문자_일반주서
 62
     0
370
    -2
100
AcDbLine
 10
102.3750000000001
 20
36.34643424691529
 30
0.0
 11
102.3750000000001
 21
70.88391841499404
 31
0.0
  0
LINE
  5
233
330
22E
100
AcDbEntity
  8
치수문자_일반주서
 62
     0
370
    -2
100
AcDbLine
 10
22.67700000000004
 20
70.88391841499404
 30
0.0
 11
99.07300000000006
 21
70.88391841499404
 31
0.0
  0
SOLID
  5
234
330
22E
100
AcDbEntity
  8
치수문자_일반주서
 62
     0
100
AcDbTrace
 10
22.67700000000004
 20
71.43425174832737
 30
0.0
 11
22.67700000000004
 21
70.33358508166071
 31
0.0
 12
19.37500000000004
 22
70.88391841499404
 32
0.0
 13
19.37500000000004
 23
70.88391841499404
 33
0.0
  0
SOLID
  5
235
330
22E
100
AcDbEntity
  8
치수문자_일반주서
 62
     0
100
AcDbTrace
 10
99.07300000000006
 20
70.33358508166071
 30
0.0
 11
99.07300000000006
 21
71.43425174832737
 31
0.0
 12
102.3750000000001
 22
70.88391841499404
 32
0.0
 13
102.3750000000001
 23
70.88391841499404
 33
0.0
  0
MTEXT
  5
236
330
22E
100
AcDbEntity
  8
치수문자_일반주서
 62
     0
100
AcDbMText
 10
60.87500000000005
 20
75.25891841499404
 30
0.0
 40
3.5
 41
0.0
 71
     2
 72
     1
  1
\A1;83 [3.27]
  7
SLDTEXTSTYLE0
 73
     1
 44
1.0
  0
POINT
  5
237
330
22E
100
AcDbEntity
  8
Defpoints
 62
     0
100
AcDbPoint
 10
19.37500000000004
 20
35.72143424691529
 30
0.0
  0
POINT
  5
238
330
22E
100
AcDbEntity
  8
Defpoints
 62
     0
100
AcDbPoint
 10
102.3750000000001
 20
36.28393424691529
 30
0.0
  0
POINT
  5
239
330
22E
100
AcDbEntity
  8
Defpoints
 62
     0
100
AcDbPoint
 10
102.3750000000001
 20
70.88391841499404
 30
0.0
  0
ENDBLK
  5
230
330
22E
100
AcDbEntity
  8
0
100
AcDbBlockEnd
  0
BLOCK
  5
23B
330
23A
100
AcDbEntity
  8
0
100
AcDbBlockBegin
  2
*D11
 70
     1
 10
0.0
 20
0.0
 30
0.0
  3
*D11
  1
*D11
  0
LINE
  5
23D
330
23A
100
AcDbEntity
  8
치수문자_일반주서
 62
     0
370
    -2
100
AcDbLine
 10
76.37504186422882
 20
28.62038676313042
 30
0.0
 11
76.37504186422882
 21
61.90091383617725
 31
0.0
  0
LINE
  5
23E
330
23A
100
AcDbEntity
  8
치수문자_일반주서
 62
     0
370
    -2
100
AcDbLine
 10
102.3750000000001
 20
36.28393424691529
 30
0.0
 11
102.3750000000001
 21
61.90091383617725
 31
0.0
  0
LINE
  5
23F
330
23A
100
AcDbEntity
  8
치수문자_일반주서
 62
     0
370
    -2
100
AcDbLine
 10
79.67704186422881
 20
61.90091383617725
 30
0.0
 11
99.07300000000006
 21
61.90091383617725
 31
0.0
  0
SOLID
  5
240
330
23A
100
AcDbEntity
  8
치수문자_일반주서
 62
     0
100
AcDbTrace
 10
79.67704186422881
 20
62.45124716951059
 30
0.0
 11
79.67704186422881
 21
61.35058050284392
 31
0.0
 12
76.37504186422882
 22
61.90091383617725
 32
0.0
 13
76.37504186422882
 23
61.90091383617725
 33
0.0
  0
SOLID
  5
241
330
23A
100
AcDbEntity
  8
치수문자_일반주서
 62
     0
100
AcDbTrace
 10
99.07300000000006
 20
61.35058050284392
 30
0.0
 11
99.07300000000006
 21
62.45124716951059
 31
0.0
 12
102.3750000000001
 22
61.90091383617725
 32
0.0
 13
102.3750000000001
 23
61.90091383617725
 33
0.0
  0
MTEXT
  5
242
330
23A
100
AcDbEntity
  8
치수문자_일반주서
 62
     0
100
AcDbMText
 10
89.42159572693208
 20
66.27591383617725
 30
0.0
 40
3.5
 41
0.0
 71
     2
 72
     1
  1
\A1;26 [1.02]
  7
SLDTEXTSTYLE0
 73
     1
 44
1.0
  0
POINT
  5
243
330
23A
100
AcDbEntity
  8
Defpoints
 62
     0
100
AcDbPoint
 10
76.37504186422882
 20
28.55788676313042
 30
0.0
  0
POINT
  5
244
330
23A
100
AcDbEntity
  8
Defpoints
 62
     0
100
AcDbPoint
 10
102.3750000000001
 20
36.22143424691529
 30
0.0
  0
POINT
  5
245
330
23A
100
AcDbEntity
  8
Defpoints
 62
     0
100
AcDbPoint
 10
102.3750000000001
 20
61.90091383617725
 30
0.0
  0
ENDBLK
  5
23C
330
23A
100
AcDbEntity
  8
0
100
AcDbBlockEnd
  0
BLOCK
  5
247
330
246
100
AcDbEntity
  8
0
100
AcDbBlockBegin
  2
*D12
 70
     1
 10
0.0
 20
0.0
 30
0.0
  3
*D12
  1
*D12
  0
LINE
  5
249
330
246
100
AcDbEntity
  8
치수문자_일반주서
 62
     0
370
    -2
100
AcDbLine
 10
19.81250000000005
 20
36.22143424691529
 30
0.0
 11
4.374999999999983
 21
36.22143424691524
 31
0.0
  0
LINE
  5
24A
330
246
100
AcDbEntity
  8
치수문자_일반주서
 62
     0
370
    -2
100
AcDbLine
 10
19.81250000000005
 20
22.22143424691529
 30
0.0
 11
4.375000000000032
 21
22.22143424691524
 31
0.0
  0
LINE
  5
24B
330
246
100
AcDbEntity
  8
치수문자_일반주서
 62
     0
370
    -2
100
AcDbLine
 10
4.374999999999983
 20
36.22143424691524
 30
0.0
 11
4.375000000000032
 21
22.22143424691524
 31
0.0
  0
LINE
  5
24C
330
246
100
AcDbEntity
  8
치수문자_일반주서
 62
     0
370
    -2
100
AcDbLine
 10
4.374999999999972
 20
39.52343424691524
 30
0.0
 11
4.37499999999996
 21
42.82543424691524
 31
0.0
  0
LINE
  5
24D
330
246
100
AcDbEntity
  8
치수문자_일반주서
 62
     0
370
    -2
100
AcDbLine
 10
4.375000000000044
 20
18.91943424691524
 30
0.0
 11
4.375000000000055
 21
15.61743424691524
 31
0.0
  0
SOLID
  5
24E
330
246
100
AcDbEntity
  8
치수문자_일반주서
 62
     0
100
AcDbTrace
 10
3.824666666666638
 20
39.52343424691524
 30
0.0
 11
4.925333333333305
 21
39.52343424691524
 31
0.0
 12
4.374999999999983
 22
36.22143424691524
 32
0.0
 13
4.374999999999983
 23
36.22143424691524
 33
0.0
  0
SOLID
  5
24F
330
246
100
AcDbEntity
  8
치수문자_일반주서
 62
     0
100
AcDbTrace
 10
4.925333333333377
 20
18.91943424691524
 30
0.0
 11
3.82466666666671
 21
18.91943424691523
 31
0.0
 12
4.375000000000032
 22
22.22143424691524
 32
0.0
 13
4.375000000000032
 23
22.22143424691524
 33
0.0
  0
MTEXT
  5
250
330
246
100
AcDbEntity
  8
치수문자_일반주서
 62
     0
100
AcDbMText
 10
0.0000000000000071
 20
29.22143424691528
 30
0.0
 40
3.5
 41
0.0
 71
     2
 72
     1
  1
\A1;%%c14.00 [0.55]
  7
SLDTEXTSTYLE0
 11
-3.489272363107635E-15
 21
1.0
 31
0.0
 73
     1
 44
1.0
  0
POINT
  5
251
330
246
100
AcDbEntity
  8
Defpoints
 62
     0
100
AcDbPoint
 10
19.87500000000005
 20
36.22143424691529
 30
0.0
  0
POINT
  5
252
330
246
100
AcDbEntity
  8
Defpoints
 62
     0
100
AcDbPoint
 10
19.87500000000005
 20
22.22143424691529
 30
0.0
  0
POINT
  5
253
330
246
100
AcDbEntity
  8
Defpoints
 62
     0
100
AcDbPoint
 10
4.375000000000043
 20
22.22143424691524
 30
0.0
  0
ENDBLK
  5
248
330
246
100
AcDbEntity
  8
0
100
AcDbBlockEnd
  0
BLOCK
  5
2A2
330
2A1
100
AcDbEntity
  8
0
100
AcDbBlockBegin
  2
*D13
 70
     1
 10
0.0
 20
0.0
 30
0.0
  3
*D13
  1
*D13
  0
LINE
  5
2A4
330
2A1
100
AcDbEntity
  8
치수문자_일반주서
 62
     0
370
    -2
100
AcDbLine
 10
-58.18374667692591
 20
109.5515740163144
 30
0.0
 11
-58.18374667692591
 21
144.6515581843932
 31
0.0
  0
LINE
  5
2A5
330
2A1
100
AcDbEntity
  8
치수문자_일반주서
 62
     0
370
    -2
100
AcDbLine
 10
24.81625332307411
 20
110.1140740163145
 30
0.0
 11
24.81625332307411
 21
144.6515581843932
 31
0.0
  0
LINE
  5
2A6
330
2A1
100
AcDbEntity
  8
치수문자_일반주서
 62
     0
370
    -2
100
AcDbLine
 10
-54.88174667692591
 20
144.6515581843932
 30
0.0
 11
21.51425332307411
 21
144.6515581843932
 31
0.0
  0
SOLID
  5
2A7
330
2A1
100
AcDbEntity
  8
치수문자_일반주서
 62
     0
100
AcDbTrace
 10
-54.88174667692591
 20
145.2018915177265
 30
0.0
 11
-54.88174667692591
 21
144.1012248510599
 31
0.0
 12
-58.18374667692591
 22
144.6515581843932
 32
0.0
 13
-58.18374667692591
 23
144.6515581843932
 33
0.0
  0
SOLID
  5
2A8
330
2A1
100
AcDbEntity
  8
치수문자_일반주서
 62
     0
100
AcDbTrace
 10
21.51425332307411
 20
144.1012248510599
 30
0.0
 11
21.51425332307411
 21
145.2018915177265
 31
0.0
 12
24.81625332307411
 22
144.6515581843932
 32
0.0
 13
24.81625332307411
 23
144.6515581843932
 33
0.0
  0
MTEXT
  5
2A9
330
2A1
100
AcDbEntity
  8
치수문자_일반주서
 62
     0
100
AcDbMText
 10
-16.6837466769259
 20
149.0265581843932
 30
0.0
 40
3.5
 41
0.0
 71
     2
 72
     1
  1
\A1;83 [3.27]
  7
SLDTEXTSTYLE0
 73
     1
 44
1.0
  0
POINT
  5
2AA
330
2A1
100
AcDbEntity
  8
Defpoints
 62
     0
100
AcDbPoint
 10
-58.18374667692591
 20
109.4890740163144
 30
0.0
  0
POINT
  5
2AB
330
2A1
100
AcDbEntity
  8
Defpoints
 62
     0
100
AcDbPoint
 10
24.81625332307411
 20
110.0515740163145
 30
0.0
  0
POINT
  5
2AC
330
2A1
100
AcDbEntity
  8
Defpoints
 62
     0
100
AcDbPoint
 10
24.81625332307411
 20
144.6515581843932
 30
0.0
  0
ENDBLK
  5
2A3
330
2A1
100
AcDbEntity
  8
0
100
AcDbBlockEnd
  0
BLOCK
  5
2AE
330
2AD
100
AcDbEntity
  8
0
100
AcDbBlockBegin
  2
*D14
 70
     1
 10
0.0
 20
0.0
 30
0.0
  3
*D14
  1
*D14
  0
LINE
  5
2B0
330
2AD
100
AcDbEntity
  8
치수문자_일반주서
 62
     0
370
    -2
100
AcDbLine
 10
-1.18370481269713
 20
102.3880265325296
 30
0.0
 11
-1.18370481269713
 21
135.6685536055764
 31
0.0
  0
LINE
  5
2B1
330
2AD
100
AcDbEntity
  8
치수문자_일반주서
 62
     0
370
    -2
100
AcDbLine
 10
24.81625332307411
 20
110.0515740163145
 30
0.0
 11
24.81625332307411
 21
135.6685536055764
 31
0.0
  0
LINE
  5
2B2
330
2AD
100
AcDbEntity
  8
치수문자_일반주서
 62
     0
370
    -2
100
AcDbLine
 10
2.11829518730287
 20
135.6685536055764
 30
0.0
 11
21.51425332307411
 21
135.6685536055764
 31
0.0
  0
SOLID
  5
2B3
330
2AD
100
AcDbEntity
  8
치수문자_일반주서
 62
     0
100
AcDbTrace
 10
2.11829518730287
 20
136.2188869389097
 30
0.0
 11
2.11829518730287
 21
135.1182202722431
 31
0.0
 12
-1.18370481269713
 22
135.6685536055764
 32
0.0
 13
-1.18370481269713
 23
135.6685536055764
 33
0.0
  0
SOLID
  5
2B4
330
2AD
100
AcDbEntity
  8
치수문자_일반주서
 62
     0
100
AcDbTrace
 10
21.51425332307411
 20
135.1182202722431
 30
0.0
 11
21.51425332307411
 21
136.2188869389097
 31
0.0
 12
24.81625332307411
 22
135.6685536055764
 32
0.0
 13
24.81625332307411
 23
135.6685536055764
 33
0.0
  0
MTEXT
  5
2B5
330
2AD
100
AcDbEntity
  8
치수문자_일반주서
 62
     0
100
AcDbMText
 10
11.86284905000613
 20
140.0435536055764
 30
0.0
 40
3.5
 41
0.0
 71
     2
 72
     1
  1
\A1;26 [1.02]
  7
SLDTEXTSTYLE0
 73
     1
 44
1.0
  0
POINT
  5
2B6
330
2AD
100
AcDbEntity
  8
Defpoints
 62
     0
100
AcDbPoint
 10
-1.18370481269713
 20
102.3255265325296
 30
0.0
  0
POINT
  5
2B7
330
2AD
100
AcDbEntity
  8
Defpoints
 62
     0
100
AcDbPoint
 10
24.81625332307411
 20
109.9890740163145
 30
0.0
  0
POINT
  5
2B8
330
2AD
100
AcDbEntity
  8
Defpoints
 62
     0
100
AcDbPoint
 10
24.81625332307411
 20
135.6685536055764
 30
0.0
  0
ENDBLK
  5
2AF
330
2AD
100
AcDbEntity
  8
0
100
AcDbBlockEnd
  0
BLOCK
  5
2BA
330
2B9
100
AcDbEntity
  8
0
100
AcDbBlockBegin
  2
*D15
 70
     1
 10
0.0
 20
0.0
 30
0.0
  3
*D15
  1
*D15
  0
LINE
  5
2BC
330
2B9
100
AcDbEntity
  8
치수문자_일반주서
 62
     0
370
    -2
100
AcDbLine
 10
-57.7462466769259
 20
109.9890740163145
 30
0.0
 11
-73.18374667692596
 21
109.9890740163144
 31
0.0
  0
LINE
  5
2BD
330
2B9
100
AcDbEntity
  8
치수문자_일반주서
 62
     0
370
    -2
100
AcDbLine
 10
-57.7462466769259
 20
95.98907401631446
 30
0.0
 11
-73.18374667692592
 21
95.9890740163144
 31
0.0
  0
LINE
  5
2BE
330
2B9
100
AcDbEntity
  8
치수문자_일반주서
 62
     0
370
    -2
100
AcDbLine
 10
-73.18374667692596
 20
109.9890740163144
 30
0.0
 11
-73.18374667692592
 21
95.9890740163144
 31
0.0
  0
LINE
  5
2BF
330
2B9
100
AcDbEntity
  8
치수문자_일반주서
 62
     0
370
    -2
100
AcDbLine
 10
-73.18374667692598
 20
113.2910740163144
 30
0.0
 11
-73.18374667692599
 21
116.5930740163144
 31
0.0
  0
LINE
  5
2C0
330
2B9
100
AcDbEntity
  8
치수문자_일반주서
 62
     0
370
    -2
100
AcDbLine
 10
-73.1837466769259
 20
92.6870740163144
 30
0.0
 11
-73.18374667692589
 21
89.3850740163144
 31
0.0
  0
SOLID
  5
2C1
330
2B9
100
AcDbEntity
  8
치수문자_일반주서
 62
     0
100
AcDbTrace
 10
-73.7340800102593
 20
113.2910740163144
 30
0.0
 11
-72.63341334359265
 21
113.2910740163144
 31
0.0
 12
-73.18374667692596
 22
109.9890740163144
 32
0.0
 13
-73.18374667692596
 23
109.9890740163144
 33
0.0
  0
SOLID
  5
2C2
330
2B9
100
AcDbEntity
  8
치수문자_일반주서
 62
     0
100
AcDbTrace
 10
-72.63341334359258
 20
92.6870740163144
 30
0.0
 11
-73.73408001025923
 21
92.6870740163144
 31
0.0
 12
-73.18374667692592
 22
95.9890740163144
 32
0.0
 13
-73.18374667692592
 23
95.9890740163144
 33
0.0
  0
MTEXT
  5
2C3
330
2B9
100
AcDbEntity
  8
치수문자_일반주서
 62
     0
100
AcDbMText
 10
-77.55874667692595
 20
102.9890740163144
 30
0.0
 40
3.5
 41
0.0
 71
     2
 72
     1
  1
\A1;%%c14.00 [0.55]
  7
SLDTEXTSTYLE0
 11
-3.045183153257572E-15
 21
1.0
 31
0.0
 73
     1
 44
1.0
  0
POINT
  5
2C4
330
2B9
100
AcDbEntity
  8
Defpoints
 62
     0
100
AcDbPoint
 10
-57.6837466769259
 20
109.9890740163145
 30
0.0
  0
POINT
  5
2C5
330
2B9
100
AcDbEntity
  8
Defpoints
 62
     0
100
AcDbPoint
 10
-57.6837466769259
 20
95.98907401631446
 30
0.0
  0
POINT
  5
2C6
330
2B9
100
AcDbEntity
  8
Defpoints
 62
     0
100
AcDbPoint
 10
-73.18374667692592
 20
95.9890740163144
 30
0.0
  0
ENDBLK
  5
2BB
330
2B9
100
AcDbEntity
  8
0
100
AcDbBlockEnd
  0
BLOCK
  5
2C8
330
2C7
100
AcDbEntity
  8
0
100
AcDbBlockBegin
  2
*D16
 70
     1
 10
0.0
 20
0.0
 30
0.0
  3
*D16
  1
*D16
  0
LINE
  5
2CA
330
2C7
100
AcDbEntity
  8
치수문자_일반주서
 62
     0
370
    -2
100
AcDbLine
 10
24.87875332307412
 20
109.9890740163145
 30
0.0
 11
39.81625332307411
 21
109.9890740163145
 31
0.0
  0
LINE
  5
2CB
330
2C7
100
AcDbEntity
  8
치수문자_일반주서
 62
     0
370
    -2
100
AcDbLine
 10
24.87875332307411
 20
95.98907401631446
 30
0.0
 11
39.81625332307416
 21
95.98907401631452
 31
0.0
  0
LINE
  5
2CC
330
2C7
100
AcDbEntity
  8
치수문자_일반주서
 62
     0
370
    -2
100
AcDbLine
 10
39.81625332307411
 20
109.9890740163145
 30
0.0
 11
39.81625332307416
 21
95.98907401631452
 31
0.0
  0
LINE
  5
2CD
330
2C7
100
AcDbEntity
  8
치수문자_일반주서
 62
     0
370
    -2
100
AcDbLine
 10
39.8162533230741
 20
113.2910740163145
 30
0.0
 11
39.81625332307409
 21
116.5930740163145
 31
0.0
  0
LINE
  5
2CE
330
2C7
100
AcDbEntity
  8
치수문자_일반주서
 62
     0
370
    -2
100
AcDbLine
 10
39.81625332307418
 20
92.68707401631451
 30
0.0
 11
39.81625332307419
 21
89.38507401631452
 31
0.0
  0
SOLID
  5
2CF
330
2C7
100
AcDbEntity
  8
치수문자_일반주서
 62
     0
100
AcDbTrace
 10
39.26591998974077
 20
113.2910740163145
 30
0.0
 11
40.36658665640743
 21
113.2910740163145
 31
0.0
 12
39.81625332307411
 22
109.9890740163145
 32
0.0
 13
39.81625332307411
 23
109.9890740163145
 33
0.0
  0
SOLID
  5
2D0
330
2C7
100
AcDbEntity
  8
치수문자_일반주서
 62
     0
100
AcDbTrace
 10
40.36658665640751
 20
92.68707401631451
 30
0.0
 11
39.26591998974084
 21
92.68707401631451
 31
0.0
 12
39.81625332307416
 22
95.98907401631452
 32
0.0
 13
39.81625332307416
 23
95.98907401631452
 33
0.0
  0
MTEXT
  5
2D1
330
2C7
100
AcDbEntity
  8
치수문자_일반주서
 62
     0
100
AcDbMText
 10
35.44125332307414
 20
103.0547783980275
 30
0.0
 40
3.5
 41
0.0
 71
     2
 72
     1
  1
\A1;%%c14.00 [0.55]
  7
SLDTEXTSTYLE0
 11
-3.552713678800501E-15
 21
1.0
 31
0.0
 73
     1
 44
1.0
  0
POINT
  5
2D2
330
2C7
100
AcDbEntity
  8
Defpoints
 62
     0
100
AcDbPoint
 10
24.81625332307412
 20
109.9890740163145
 30
0.0
  0
POINT
  5
2D3
330
2C7
100
AcDbEntity
  8
Defpoints
 62
     0
100
AcDbPoint
 10
24.81625332307411
 20
95.98907401631446
 30
0.0
  0
POINT
  5
2D4
330
2C7
100
AcDbEntity
  8
Defpoints
 62
     0
100
AcDbPoint
 10
39.81625332307416
 20
95.98907401631452
 30
0.0
  0
ENDBLK
  5
2C9
330
2C7
100
AcDbEntity
  8
0
100
AcDbBlockEnd
  0
BLOCK
  5
2D6
330
2D5
100
AcDbEntity
  8
0
100
AcDbBlockBegin
  2
*D17
 70
     1
 10
0.0
 20
0.0
 30
0.0
  3
*D17
  1
*D17
  0
LINE
  5
2D8
330
2D5
100
AcDbEntity
  8
치수문자_일반주서
 62
     0
370
    -2
100
AcDbLine
 10
26.30702850474356
 20
93.24993552343568
 30
0.0
 11
42.06068007002085
 21
67.61757901309512
 31
0.0
  0
MTEXT
  5
2D9
330
2D5
100
AcDbEntity
  8
치수문자_일반주서
 62
     0
100
AcDbMText
 10
38.11189172450173
 20
79.05579792393489
 30
0.0
 40
3.5
 41
0.0
 71
     5
 72
     1
  1
\A1;R.5 [R0.02]
  7
SLDTEXTSTYLE0
 11
0.5236126201129557
 21
-0.8519564684057781
 31
0.0
 73
     1
 44
1.0
  0
SOLID
  5
2DA
330
2D5
100
AcDbEntity
  8
치수문자_일반주서
 62
     0
100
AcDbTrace
 10
26.7758885478562
 20
93.53809700203784
 30
0.0
 11
25.83816846163091
 21
92.96177404483352
 31
0.0
 12
24.57805963313058
 22
96.06309578211156
 32
0.0
 13
24.57805963313058
 23
96.06309578211156
 33
0.0
  0
LINE
  5
2DB
330
2D5
100
AcDbEntity
  8
치수문자_일반주서
 62
     0
100
AcDbLine
 10
24.22625332307409
 20
96.48907401631446
 30
0.0
 11
24.40625332307409
 21
96.48907401631446
 31
0.0
  0
LINE
  5
2DC
330
2D5
100
AcDbEntity
  8
치수문자_일반주서
 62
     0
100
AcDbLine
 10
24.31625332307409
 20
96.39907401631446
 30
0.0
 11
24.31625332307409
 21
96.57907401631446
 31
0.0
  0
POINT
  5
2DD
330
2D5
100
AcDbEntity
  8
Defpoints
 62
     0
100
AcDbPoint
 10
24.57805963313058
 20
96.06309578211156
 30
0.0
  0
POINT
  5
2DE
330
2D5
100
AcDbEntity
  8
Defpoints
 62
     0
100
AcDbPoint
 10
24.31625332307409
 20
96.48907401631446
 30
0.0
  0
ENDBLK
  5
2D7
330
2D5
100
AcDbEntity
  8
0
100
AcDbBlockEnd
  0
ENDSEC
  0
SECTION
  2
ENTITIES
  0
LINE
  5
96
330
1F
100
AcDbEntity
  8
외형선
  6
Continuous
370
    15
100
AcDbLine
 10
9.110015297608085
 20
2.381250000000001
 30
0.0
 11
-37.19499999999419
 21
2.381249999999998
 31
0.0
  0
LINE
  5
97
330
1F
100
AcDbEntity
  8
외형선
  6
Continuous
370
    15
100
AcDbLine
 10
-37.19499999999419
 20
-2.381250000000002
 30
0.0
 11
9.110015297608085
 21
-2.38125
 31
0.0
  0
LINE
  5
98
330
1F
100
AcDbEntity
  8
외형선
  6
Continuous
370
    15
100
AcDbLine
 10
-37.19499999999419
 20
2.381249999999995
 30
0.0
 11
-37.62499999999419
 21
1.951249999999995
 31
0.0
  0
LINE
  5
99
330
1F
100
AcDbEntity
  8
외형선
  6
Continuous
370
    15
100
AcDbLine
 10
-37.62499999999419
 20
-1.95125
 30
0.0
 11
-37.19499999999419
 21
-2.38125
 31
0.0
  0
SPLINE
  5
9A
330
1F
100
AcDbEntity
  8
외형선
  6
Continuous
370
    15
100
AcDbSpline
210
0.0
220
0.0
230
1.0
 70
     8
 71
     3
 72
     9
 73
     5
 74
     0
 42
0.000000001
 43
0.00000001
 40
0.0
 40
0.0
 40
0.0
 40
0.0
 40
0.5007611793275076
 40
1.0
 40
1.0
 40
1.0
 40
1.0
 10
10.0000000000058
 20
1.570893635361787
 30
0.0
 10
9.908314549975143
 20
1.573269786939813
 30
0.0
 10
9.72522238186062
 20
1.578014866383104
 30
0.0
 10
9.53561006765204
 20
1.588312452217323
 30
0.0
 10
9.440948239521568
 20
1.593453406824973
 30
0.0
  0
ARC
  5
9B
330
1F
100
AcDbEntity
  8
외형선
  6
Continuous
370
    15
100
AcDbCircle
 10
9.460015287206677
 20
1.942304084673639
 30
0.0
 40
0.3499999895987331
100
AcDbArc
 50
180.0009130601242
 51
267.0951513041288
  0
LINE
  5
9C
330
1F
100
AcDbEntity
  8
외형선
  6
Continuous
370
    15
100
AcDbLine
 10
9.110019148636045
 20
-1.614752370982395
 30
0.0
 11
9.400762145758225
 21
-1.595991546328819
 31
0.0
  0
LINE
  5
9D
330
1F
100
AcDbEntity
  8
0
  6
Continuous
 62
     1
370
    15
100
AcDbLine
 10
31.77522939505469
 20
0.924767117992882
 30
0.0
 11
31.74411536435762
 21
0.9407654293807083
 31
0.0
  0
SPLINE
  5
9E
330
1F
100
AcDbEntity
  8
0
  6
Continuous
 62
     1
370
    15
100
AcDbSpline
210
0.0
220
0.0
230
1.0
 70
     8
 71
     3
 72
     9
 73
     5
 74
     0
 42
0.000000001
 43
0.00000001
 40
0.0
 40
0.0
 40
0.0
 40
0.0
 40
0.5045714934211184
 40
1.0
 40
1.0
 40
1.0
 40
1.0
 10
32.40665332131118
 20
0.6101089004888526
 30
0.0
 10
32.30043376980633
 20
0.6605470199246557
 30
0.0
 10
32.08991939693789
 20
0.76050930493965
 30
0.0
 10
31.87948472854767
 20
0.8703492687564474
 30
0.0
 10
31.77522939505469
 20
0.924767117992882
 30
0.0
  0
SPLINE
  5
9F
330
1F
100
AcDbEntity
  8
0
  6
Continuous
 62
     1
370
    15
100
AcDbSpline
210
0.0
220
0.0
230
1.0
 70
     8
 71
     3
 72
     9
 73
     5
 74
     0
 42
0.000000001
 43
0.00000001
 40
0.0
 40
0.0
 40
0.0
 40
0.0
 40
0.4742028051436841
 40
1.0
 40
1.0
 40
1.0
 40
1.0
 10
19.4492979214807
 20
0.6101211489777937
 30
0.0
 10
19.34455437977832
 20
0.6598865928023093
 30
0.0
 10
19.12367095065004
 20
0.7648320787520112
 30
0.0
 10
18.90285954076106
 20
0.8801478903220814
 30
0.0
 10
18.78675752084918
 20
0.9407806205682043
 30
0.0
  0
LINE
  5
A0
330
1F
100
AcDbEntity
  8
0
  6
Continuous
 62
     1
370
    15
100
AcDbLine
 10
31.15046454756842
 20
0.6369521155692197
 30
0.0
 11
31.06387678059276
 21
0.6844737180867465
 31
0.0
  0
LINE
  5
A1
330
1F
100
AcDbEntity
  8
0
  6
Continuous
 62
     1
370
    15
100
AcDbLine
 10
18.17016978118214
 20
0.6495600107798559
 30
0.0
 11
18.10659597841251
 21
0.6844470245984963
 31
0.0
  0
LINE
  5
A2
330
1F
100
AcDbEntity
  8
0
  6
Continuous
 62
     1
370
    15
100
AcDbLine
 10
12.83036556193431
 20
-2.381250000000002
 30
0.0
 11
13.98426187195865
 21
-2.381250000000002
 31
0.0
  0
LINE
  5
A3
330
1F
100
AcDbEntity
  8
0
  6
Continuous
 62
     1
370
    15
100
AcDbLine
 10
26.94086548270896
 20
2.381250000000003
 30
0.0
 11
25.7870971265224
 21
2.381250000000003
 31
0.0
  0
LINE
  5
A4
330
1F
100
AcDbEntity
  8
0
  6
Continuous
 62
     1
370
    15
100
AcDbLine
 10
25.78709712652246
 20
-2.381250000000002
 30
0.0
 11
26.94086548270896
 21
-2.381250000000002
 31
0.0
  0
LINE
  5
A5
330
1F
100
AcDbEntity
  8
0
  6
Continuous
 62
     1
370
    15
100
AcDbLine
 10
13.98426187195866
 20
2.381250000000003
 30
0.0
 11
12.83036556193426
 21
2.381250000000003
 31
0.0
  0
SPLINE
  5
A6
330
1F
100
AcDbEntity
  8
0
  6
Continuous
 62
     1
370
    15
100
AcDbSpline
210
0.0
220
0.0
230
1.0
 70
     8
 71
     3
 72
    16
 73
    12
 74
     0
 42
0.000000001
 43
0.00000001
 40
0.0
 40
0.0
 40
0.0
 40
0.0
 40
0.1836438212019688
 40
0.3405675286540025
 40
0.4574335289968838
 40
0.5051053224349427
 40
0.5490261803657658
 40
0.5976260081530618
 40
0.6865791680430752
 40
0.8212851042396797
 40
1.0
 40
1.0
 40
1.0
 40
1.0
 10
28.03659287974899
 20
-1.981544977168622
 30
0.0
 10
28.24903889698795
 20
-1.961164476433986
 30
0.0
 10
28.64302010795333
 20
-1.923368830914868
 30
0.0
 10
29.2025289760965
 20
-1.890145856214167
 30
0.0
 10
29.5898666357654
 20
-1.873742610190944
 30
0.0
 10
29.83831769596753
 20
-1.866631303915817
 30
0.0
 10
30.00463348010501
 20
-1.863031990986161
 30
0.0
 10
30.21917216306132
 20
-1.859870745937241
 30
0.0
 10
30.54457819046556
 20
-1.858839855830123
 30
0.0
 10
31.02637342781198
 20
-1.865192807166082
 30
0.0
 10
31.40300503775359
 20
-1.882405248200212
 30
0.0
 10
31.61776319052376
 20
-1.892219910441995
 30
0.0
  0
SPLINE
  5
A7
330
1F
100
AcDbEntity
  8
0
  6
Continuous
 62
     1
370
    15
100
AcDbSpline
210
0.0
220
0.0
230
1.0
 70
     8
 71
     3
 72
    15
 73
    11
 74
     0
 42
0.000000001
 43
0.00000001
 40
0.0
 40
0.0
 40
0.0
 40
0.0
 40
0.2007601039407259
 40
0.3630825702285484
 40
0.5046322856147155
 40
0.5941368649255431
 40
0.6899994910558672
 40
0.8069342517057198
 40
0.9436447784485389
 40
1.0
 40
1.0
 40
1.0
 40
1.0
 10
18.66043441712613
 20
1.892219933745456
 30
0.0
 10
18.52940100007662
 20
1.885826938075401
 30
0.0
 10
18.29242189459551
 20
1.87426495313028
 30
0.0
 10
17.96321489524075
 20
1.864942099512479
 30
0.0
 10
17.70670700193628
 20
1.860727617666424
 30
0.0
 10
17.49269323420113
 20
1.859434954928962
 30
0.0
 10
17.29510323243235
 20
1.859808009825546
 30
0.0
 10
17.06686762878911
 20
1.862566083712378
 30
0.0
 10
16.86442400603132
 20
1.866561785400404
 30
0.0
 10
16.73849365979254
 20
1.871179896656715
 30
0.0
 10
16.70173502898911
 20
1.872527907297121
 30
0.0
  0
SPLINE
  5
A8
330
1F
100
AcDbEntity
  8
0
  6
Continuous
 62
     1
370
    15
100
AcDbSpline
210
0.0
220
0.0
230
1.0
 70
     8
 71
     3
 72
    16
 73
    12
 74
     0
 42
0.000000001
 43
0.00000001
 40
0.0
 40
0.0
 40
0.0
 40
0.0
 40
0.1849668722344108
 40
0.341050526771717
 40
0.4588335718084804
 40
0.5071121539053743
 40
0.5512106958352458
 40
0.5995919959149623
 40
0.688126582150167
 40
0.8221964841766096
 40
0.9999999999999999
 40
0.9999999999999999
 40
0.9999999999999999
 40
0.9999999999999999
 10
15.07918111249173
 20
-1.981553276728857
 30
0.0
 10
15.29374781255773
 20
-1.961067308995704
 30
0.0
 10
15.68937587936334
 20
-1.923294328340196
 30
0.0
 10
16.24968304332182
 20
-1.889896122141046
 30
0.0
 10
16.63739247008038
 20
-1.873557307241008
 30
0.0
 10
16.88800972543476
 20
-1.866450832674486
 30
0.0
 10
17.05550989733835
 20
-1.862890666895499
 30
0.0
 10
17.27041339227465
 20
-1.859848939963291
 30
0.0
 10
17.59393070417412
 20
-1.858949216382169
 30
0.0
 10
18.07292064097654
 20
-1.865358252974693
 30
0.0
 10
18.44710597992475
 20
-1.882466357553618
 30
0.0
 10
18.66043441712613
 20
-1.892219933745454
 30
0.0
  0
SPLINE
  5
A9
330
1F
100
AcDbEntity
  8
0
  6
Continuous
 62
     1
370
    15
100
AcDbSpline
210
0.0
220
0.0
230
1.0
 70
     8
 71
     3
 72
    15
 73
    11
 74
     0
 42
0.000000001
 43
0.00000001
 40
0.0
 40
0.0
 40
0.0
 40
0.0
 40
0.2011483413327126
 40
0.3632911257524818
 40
0.5038545219391412
 40
0.5916703740467295
 40
0.6861922589134588
 40
0.8023747553819401
 40
0.9388962841952361
 40
1.0
 40
1.0
 40
1.0
 40
1.0
 10
31.61776319052376
 20
1.892219910441996
 30
0.0
 10
31.48552002576569
 20
1.88577391929067
 30
0.0
 10
31.24667754822038
 20
1.874131907398153
 30
0.0
 10
30.9156437136791
 20
1.864827431715647
 30
0.0
 10
30.65920154795212
 20
1.86067825141193
 30
0.0
 10
30.44653186952869
 20
1.859432741855108
 30
0.0
 10
30.24977961311289
 20
1.859828222010386
 30
0.0
 10
30.02089827875064
 20
1.862607177813261
 30
0.0
 10
29.81365310633572
 20
1.866741987008772
 30
0.0
 10
29.68364235133968
 20
1.871560293741118
 30
0.0
 10
29.64344434809271
 20
1.873050065181009
 30
0.0
  0
SPLINE
  5
AA
330
1F
100
AcDbEntity
  8
0
  6
Continuous
 62
     1
370
    15
100
AcDbSpline
210
0.0
220
0.0
230
1.0
 70
     8
 71
     3
 72
    13
 73
     9
 74
     0
 42
0.000000001
 43
0.00000001
 40
0.0
 40
0.0
 40
0.0
 40
0.0
 40
0.2810282504226245
 40
0.4821908817531101
 40
0.6275292295455507
 40
0.7561305563951194
 40
0.8865399567673737
 40
1.0
 40
1.0
 40
1.0
 40
1.0
 10
33.53101400347244
 20
-1.791018195839728
 30
0.0
 10
33.69750696219633
 20
-1.765868574704793
 30
0.0
 10
33.98317712685783
 20
-1.722716621217648
 30
0.0
 10
34.35400589715773
 20
-1.677864746950246
 30
0.0
 10
34.63497102934609
 20
-1.648259311861647
 30
0.0
 10
34.87410758327719
 20
-1.626481820788903
 30
0.0
 10
35.09414242215684
 20
-1.608891260036003
 30
0.0
 10
35.23835451319444
 20
-1.600080299857034
 30
0.0
 10
35.30544906117029
 20
-1.595981008416297
 30
0.0
  0
SPLINE
  5
AB
330
1F
100
AcDbEntity
  8
0
  6
Continuous
 62
     1
370
    15
100
AcDbSpline
210
0.0
220
0.0
230
1.0
 70
     8
 71
     3
 72
    21
 73
    17
 74
     0
 42
0.000000001
 43
0.00000001
 40
0.0
 40
0.0
 40
0.0
 40
0.0
 40
0.1111207685513075
 40
0.190918719770392
 40
0.2429426796799025
 40
0.2925857278026026
 40
0.3438183088245924
 40
0.3952160592320231
 40
0.4469191805361316
 40
0.4988044080129638
 40
0.6120791381040124
 40
0.7162621794230943
 40
0.7566890205009125
 40
0.8113065119680097
 40
0.8925616065873341
 40
1.0
 40
1.0
 40
1.0
 40
1.0
 10
24.73207028655901
 20
1.628661933983053
 30
0.0
 10
24.57698608654081
 20
1.616448098292885
 30
0.0
 10
24.31053295352078
 20
1.595463273369037
 30
0.0
 10
23.97295007185811
 20
1.579648262347199
 30
0.0
 10
23.72410559518192
 20
1.571769445555441
 30
0.0
 10
23.51328426508432
 20
1.567811772966141
 30
0.0
 10
23.3022015251779
 20
1.56655110203041
 30
0.0
 10
23.08847314207123
 20
1.568136931137398
 30
0.0
 10
22.87355406463494
 20
1.572568294978053
 30
0.0
 10
22.57280973859713
 20
1.582713240203379
 30
0.0
 10
22.19941714530104
 20
1.603111103976311
 30
0.0
 10
21.84377509743193
 20
1.632368368732034
 30
0.0
 10
21.56681909750485
 20
1.659707743536944
 30
0.0
 10
21.32215654430787
 20
1.686625074057388
 30
0.0
 10
20.98493594290247
 20
1.728626785578374
 30
0.0
 10
20.72289821114098
 20
1.768380798345829
 30
0.0
 10
20.57369903523099
 20
1.791015958191503
 30
0.0
  0
SPLINE
  5
AC
330
1F
100
AcDbEntity
  8
0
  6
Continuous
 62
     1
370
    15
100
AcDbSpline
210
0.0
220
0.0
230
1.0
 70
     8
 71
     3
 72
    12
 73
     8
 74
     0
 42
0.000000001
 43
0.00000001
 40
0.0
 40
0.0
 40
0.0
 40
0.0
 40
0.3056888446375808
 40
0.513047939175505
 40
0.6391770941272045
 40
0.7588348063755147
 40
1.0
 40
1.0
 40
1.0
 40
1.0
 10
20.57369903523099
 20
-1.791015958191501
 30
0.0
 10
20.7572250769182
 20
-1.763428770247349
 30
0.0
 10
21.06524304723139
 20
-1.717128258564711
 30
0.0
 10
21.44814505415605
 20
-1.672023341996522
 30
0.0
 10
21.72062673972221
 20
-1.644326626725268
 30
0.0
 10
22.01214582395256
 20
-1.617326787205283
 30
0.0
 10
22.22800598344176
 20
-1.605788714974491
 30
0.0
 10
22.37228162756445
 20
-1.598076950066269
 30
0.0
  0
SPLINE
  5
AD
330
1F
100
AcDbEntity
  8
0
  6
Continuous
 62
     1
370
    15
100
AcDbSpline
210
0.0
220
0.0
230
1.0
 70
     8
 71
     3
 72
    18
 73
    14
 74
     0
 42
0.000000001
 43
0.00000001
 40
0.0
 40
0.0
 40
0.0
 40
0.0
 40
0.1238239723980071
 40
0.2074369159701375
 40
0.2627232237323159
 40
0.319173493108671
 40
0.5009280295688696
 40
0.6025448086328558
 40
0.6957252139393663
 40
0.7413011635626303
 40
0.7942470765604829
 40
0.8800840366716974
 40
1.0
 40
1.0
 40
1.0
 40
1.0
 10
37.68940786054911
 20
1.628662653179072
 30
0.0
 10
37.51660063992983
 20
1.615199970613773
 30
0.0
 10
37.22710421845005
 20
1.592646523991545
 30
0.0
 10
36.86264137976041
 20
1.576992145303697
 30
0.0
 10
36.595045835332
 20
1.569721827182487
 30
0.0
 10
36.18892985904826
 20
1.564464518677765
 30
0.0
 10
35.71756228788919
 20
1.572913168157095
 30
0.0
 10
35.19542250680892
 20
1.600898216532475
 30
0.0
 10
34.86265505579502
 20
1.627087883035725
 30
0.0
 10
34.59693018515211
 20
1.652223524229003
 30
0.0
 10
34.34144849712884
 20
1.67938164325322
 30
0.0
 10
33.98317526131832
 20
1.72271768613932
 30
0.0
 10
33.69750627527789
 20
1.765868966824255
 30
0.0
 10
33.53101400347244
 20
1.79101819583973
 30
0.0
  0
SPLINE
  5
AE
330
1F
100
AcDbEntity
  8
0
  6
Continuous
 62
     1
370
    15
100
AcDbSpline
210
0.0
220
0.0
230
1.0
 70
     8
 71
     3
 72
     9
 73
     5
 74
     0
 42
0.000000001
 43
0.00000001
 40
0.0
 40
0.0
 40
0.0
 40
0.0
 40
0.4960538351442913
 40
0.9999999999999999
 40
0.9999999999999999
 40
0.9999999999999999
 40
0.9999999999999999
 10
11.77470882937095
 20
1.628659161504376
 30
0.0
 10
11.48001929192414
 20
1.607083205666761
 30
0.0
 10
10.88595163924468
 20
1.563588015610749
 30
0.0
 10
10.29686696324013
 20
1.568500376109369
 30
0.0
 10
9.99999999999236
 20
1.570975941343038
 30
0.0
  0
SPLINE
  5
AF
330
1F
100
AcDbEntity
  8
외형선
  6
Continuous
370
    15
100
AcDbSpline
210
0.0
220
0.0
230
1.0
 70
     8
 71
     3
 72
    16
 73
    12
 74
     0
 42
0.000000001
 43
0.00000001
 40
0.0
 40
0.0
 40
0.0
 40
0.0
 40
0.0198128962437058
 40
0.0541062430119223
 40
0.1038008245329281
 40
0.1691366674502615
 40
0.2501725775479007
 40
0.3690809251697029
 40
0.5000823232578064
 40
0.7588555510002889
 40
1.0
 40
1.0
 40
1.0
 40
1.0
 10
9.560295638553995
 20
-0.8585471844247115
 30
0.0
 10
9.557271751255222
 20
-0.8578593616643898
 30
0.0
 10
9.549013938817524
 20
-0.8559810140991814
 30
0.0
 10
9.535107864659595
 20
-0.8574154186148666
 30
0.0
 10
9.515803965419176
 20
-0.8597654420648996
 30
0.0
 10
9.491424669382202
 20
-0.864541162484957
 30
0.0
 10
9.459105362220688
 20
-0.8717284922325017
 30
0.0
 10
9.419595936412884
 20
-0.8817926438342574
 30
0.0
 10
9.36016944629056
 20
-0.8989280375862958
 30
0.0
 10
9.2878600224681
 20
-0.9220630209532117
 30
0.0
 10
9.233306718365133
 20
-0.9443084035162324
 30
0.0
 10
9.206991932809332
 20
-0.9550388712922573
 30
0.0
  0
SPLINE
  5
B0
330
1F
100
AcDbEntity
  8
외형선
  6
Continuous
370
    15
100
AcDbSpline
210
0.0
220
0.0
230
1.0
 70
     8
 71
     3
 72
    14
 73
    10
 74
     0
 42
0.000000001
 43
0.00000001
 40
0.0
 40
0.0
 40
0.0
 40
0.0
 40
0.1253640397980141
 40
0.2499083657046658
 40
0.4981848410799211
 40
0.6253912956402273
 40
0.748531333606603
 40
0.8910783550374733
 40
0.9999999999999999
 40
0.9999999999999999
 40
0.9999999999999999
 40
0.9999999999999999
 10
9.206991932809336
 20
-0.9550388712922554
 30
0.0
 10
9.200638287997162
 20
-0.912126514162861
 30
0.0
 10
9.187972542749671
 20
-0.8265823895796016
 30
0.0
 10
9.16525695931127
 20
-0.6508863674262936
 30
0.0
 10
9.145806782816992
 20
-0.469560320624897
 30
0.0
 10
9.130142980541802
 20
-0.2855440143968576
 30
0.0
 10
9.12018798923995
 20
-0.1393524240211732
 30
0.0
 10
9.112236776912267
 20
0.0007513939923499
 30
0.0
 10
9.110686700729746
 20
0.0948072082377111
 30
0.0
 10
9.110015297608081
 20
0.1355467331766464
 30
0.0
  0
SPLINE
  5
B1
330
1F
100
AcDbEntity
  8
외형선
  6
Continuous
370
    15
100
AcDbSpline
210
0.0
220
0.0
230
1.0
 70
     8
 71
     3
 72
    20
 73
    16
 74
     0
 42
0.000000001
 43
0.00000001
 40
0.0
 40
0.0
 40
0.0
 40
0.0
 40
0.5000000000000003
 40
0.5000000000000003
 40
0.7500000000000004
 40
0.7500000000000004
 40
0.8749999999999997
 40
0.8749999999999997
 40
0.9374999999999993
 40
0.9374999999999993
 40
0.9531249999999997
 40
0.9531249999999997
 40
0.96875
 40
0.96875
 40
1.0
 40
1.0
 40
1.0
 40
1.0
 10
9.371452896564715
 20
1.185891333024973
 30
0.0
 10
9.321706170971835
 20
1.171931833067033
 30
0.0
 10
9.267042768981767
 20
1.170817249228745
 30
0.0
 10
9.18426753574954
 20
1.212456834524484
 30
0.0
 10
9.156230535530396
 20
1.234178657498319
 30
0.0
 10
9.127103652875332
 20
1.286604598097744
 30
0.0
 10
9.120655544862831
 20
1.306399313391032
 30
0.0
 10
9.114666406835266
 20
1.335685370741394
 30
0.0
 10
9.113239676734713
 20
1.345406673401672
 30
0.0
 10
9.111637065292264
 20
1.357664837145449
 30
0.0
 10
9.111367930461384
 20
1.360130306539912
 30
0.0
 10
9.110477432221245
 20
1.365155072442774
 30
0.0
 10
9.110201175744102
 20
1.362103445347794
 30
0.0
 10
9.11001857551179
 20
1.356249764455716
 30
0.0
 10
9.110015297608081
 20
1.35207272410671
 30
0.0
 10
9.110015297608081
 20
1.347898425675594
 30
0.0
  0
SPLINE
  5
B2
330
1F
100
AcDbEntity
  8
외형선
  6
Continuous
370
    15
100
AcDbSpline
210
0.0
220
0.0
230
1.0
 70
     8
 71
     3
 72
    16
 73
    12
 74
     0
 42
0.000000001
 43
0.00000001
 40
0.0
 40
0.0
 40
0.0
 40
0.0
 40
0.1908053892788161
 40
0.4793018407563622
 40
0.637207284027154
 40
0.7401888405191962
 40
0.8291261425432491
 40
0.8991181381833648
 40
0.9503540091920067
 40
0.9833041420115776
 40
1.0
 40
1.0
 40
1.0
 40
1.0
 10
9.37150222485675
 20
1.185862186158499
 30
0.0
 10
9.387765972658718
 20
1.190615850783923
 30
0.0
 10
9.428620396574855
 20
1.20255702400715
 30
0.0
 10
9.482678517869406
 20
1.221478834115248
 30
0.0
 10
9.529500877390081
 20
1.23938114344518
 30
0.0
 10
9.559513383394437
 20
1.251403823557855
 30
0.0
 10
9.58259156230786
 20
1.260400643416062
 30
0.0
 10
9.60177905994406
 20
1.26765523534292
 30
0.0
 10
9.616979379765874
 20
1.272122351497692
 30
0.0
 10
9.62744788901699
 20
1.275433561111666
 30
0.0
 10
9.63431445523335
 20
1.274898752427502
 30
0.0
 10
9.636623669180954
 20
1.274718897222753
 30
0.0
  0
LINE
  5
B3
330
1F
100
AcDbEntity
  8
외형선
  6
Continuous
370
    15
100
AcDbLine
 10
10.0000000000058
 20
-1.353705405437403
 30
0.0
 11
10.0000000000058
 21
-1.842102859904858
 31
0.0
  0
SPLINE
  5
B4
330
1F
100
AcDbEntity
  8
외형선
  6
Continuous
370
    15
100
AcDbSpline
210
0.0
220
0.0
230
1.0
 70
     8
 71
     3
 72
     8
 73
     4
 74
     0
 42
0.000000001
 43
0.00000001
 40
0.0
 40
0.0
 40
0.0
 40
0.0
 40
1.0
 40
1.0
 40
1.0
 40
1.0
 10
10.0
 20
-1.842102859902735
 30
0.0
 10
9.703195428609508
 20
-1.733625533321192
 30
0.0
 10
9.403594732983118
 20
-1.610391650654595
 30
0.0
 10
9.110015297608081
 20
-1.476579716436583
 30
0.0
  0
LINE
  5
B5
330
1F
100
AcDbEntity
  8
외형선
  6
Continuous
370
    15
100
AcDbLine
 10
9.110015297608085
 20
-2.38125
 30
0.0
 11
9.110015297608081
 21
-1.476080074151328
 31
0.0
  0
LINE
  5
B6
330
1F
100
AcDbEntity
  8
외형선
  6
Continuous
370
    15
100
AcDbLine
 10
9.415337345247012
 20
1.601977686000063
 30
0.0
 11
10.0
 21
1.842102859902736
 31
0.0
  0
LINE
  5
B7
330
1F
100
AcDbEntity
  8
외형선
  6
Continuous
370
    15
100
AcDbLine
 10
9.110015297608085
 20
1.499243113122588
 30
0.0
 11
9.110015297608085
 21
2.381250000000001
 31
0.0
  0
LINE
  5
B8
330
1F
100
AcDbEntity
  8
외형선
  6
Continuous
370
    15
100
AcDbLine
 10
9.110015297608085
 20
1.347898425675485
 30
0.0
 11
9.110015297608085
 21
1.499243113122588
 31
0.0
  0
SPLINE
  5
B9
330
1F
100
AcDbEntity
  8
외형선
  6
Continuous
370
    15
100
AcDbSpline
210
0.0
220
0.0
230
1.0
 70
     8
 71
     3
 72
     8
 73
     4
 74
     0
 42
0.000000001
 43
0.00000001
 40
0.0
 40
0.0
 40
0.0
 40
0.0
 40
1.0
 40
1.0
 40
1.0
 40
1.0
 10
10.0
 20
-1.353705405434653
 30
0.0
 10
9.735847036768522
 20
-1.228366878106129
 30
0.0
 10
9.469079444294385
 20
-1.094236159900279
 30
0.0
 10
9.206991932809332
 20
-0.9550388712922567
 30
0.0
  0
LINE
  5
BA
330
1F
100
AcDbEntity
  8
외형선
  6
Continuous
370
    15
100
AcDbLine
 10
-37.19499999999419
 20
2.381249999999995
 30
0.0
 11
-37.19499999999419
 21
-2.381250000000002
 31
0.0
  0
LINE
  5
BB
330
1F
100
AcDbEntity
  8
외형선
  6
Continuous
370
    15
100
AcDbLine
 10
9.110015297608085
 20
0.1355467331769914
 30
0.0
 11
9.110015297608085
 21
1.347898425675485
 31
0.0
  0
LINE
  5
BC
330
1F
100
AcDbEntity
  8
외형선
  6
Continuous
370
    15
100
AcDbLine
 10
-37.62499999999419
 20
1.951249999999995
 30
0.0
 11
-37.62499999999419
 21
-1.95125
 31
0.0
  0
SPLINE
  5
BD
330
1F
100
AcDbEntity
  8
외형선
  6
Continuous
370
    15
100
AcDbSpline
210
0.0
220
0.0
230
1.0
 70
    24
 71
     3
 72
     8
 73
     4
 74
     0
 42
0.000000001
 43
0.00000001
 40
0.0
 40
0.0
 40
0.0
 40
0.0
 40
1.0
 40
1.0
 40
1.0
 40
1.0
 10
10.0000000000058
 20
-1.048193892943528
 30
0.0
 10
10.0000000000058
 20
-1.143427337553967
 30
0.0
 10
10.0000000000058
 20
-1.24588971616061
 30
0.0
 10
10.0000000000058
 20
-1.353705405429635
 30
0.0
  0
SPLINE
  5
BE
330
1F
100
AcDbEntity
  8
외형선
  6
Continuous
370
    15
100
AcDbSpline
210
0.0
220
0.0
230
1.0
 70
     8
 71
     3
 72
     8
 73
     4
 74
     0
 42
0.000000001
 43
0.00000001
 40
0.0
 40
0.0
 40
0.0
 40
0.0
 40
1.0
 40
1.0
 40
1.0
 40
1.0
 10
9.999999999996746
 20
-1.048193892939729
 30
0.0
 10
9.85382165017801
 20
-0.9868892301799028
 30
0.0
 10
9.706839733497734
 20
-0.9234960496025864
 30
0.0
 10
9.560295949078155
 20
-0.8585455548163156
 30
0.0
  0
SPLINE
  5
BF
330
1F
100
AcDbEntity
  8
외형선
  6
Continuous
370
    15
100
AcDbSpline
210
0.0
220
0.0
230
1.0
 70
     8
 71
     3
 72
     8
 73
     4
 74
     0
 42
0.000000001
 43
0.00000001
 40
0.0
 40
0.0
 40
0.0
 40
0.0
 40
1.0
 40
1.0
 40
1.0
 40
1.0
 10
10.0000000000058
 20
1.145584198622919
 30
0.0
 10
9.879190193278324
 20
1.190121055415001
 30
0.0
 10
9.757831651808706
 20
1.233251121554541
 30
0.0
 10
9.63662496288931
 20
1.274720162857498
 30
0.0
  0
SPLINE
  5
C0
330
1F
100
AcDbEntity
  8
외형선
  6
Continuous
370
    15
100
AcDbSpline
210
0.0
220
0.0
230
1.0
 70
    24
 71
     3
 72
    10
 73
     6
 74
     0
 42
0.000000001
 43
0.00000001
 40
0.0
 40
0.0
 40
0.0
 40
0.0
 40
0.5
 40
0.5
 40
1.0
 40
1.0
 40
1.0
 40
1.0
 10
10.0000000000058
 20
1.145584198622919
 30
0.0
 10
10.0000000000058
 20
0.8285635500013975
 30
0.0
 10
10.0000000000058
 20
0.4552107446343058
 30
0.0
 10
10.0000000000058
 20
-0.3116234056410969
 30
0.0
 10
10.0000000000058
 20
-0.7018039965901113
 30
0.0
 10
10.0000000000058
 20
-1.048193892943527
 30
0.0
  0
SPLINE
  5
C1
330
1F
100
AcDbEntity
  8
외형선
  6
Continuous
370
    15
100
AcDbSpline
210
0.0
220
0.0
230
1.0
 70
    24
 71
     3
 72
    11
 73
     7
 74
     0
 42
0.000000001
 43
0.00000001
 40
0.0
 40
0.0
 40
0.0
 40
0.0
 40
0.1349558654123034
 40
0.428063602342095
 40
0.7100297680242752
 40
1.0
 40
1.0
 40
1.0
 40
1.0
 10
10.00000000000581
 20
1.561910757490761
 30
0.0
 10
10.00000000000581
 20
1.564209579187426
 30
0.0
 10
10.0000000000058
 20
1.571501162206886
 30
0.0
 10
10.00000000000581
 20
1.503444645738938
 30
0.0
 10
10.0000000000058
 20
1.368201017880645
 30
0.0
 10
10.00000000000581
 20
1.220478912855828
 30
0.0
 10
10.00000000000581
 20
1.145584198622918
 30
0.0
  0
SPLINE
  5
C2
330
1F
100
AcDbEntity
  8
외형선
  6
Continuous
370
    15
100
AcDbSpline
210
0.0
220
0.0
230
1.0
 70
    24
 71
     3
 72
    10
 73
     6
 74
     0
 42
0.000000001
 43
0.00000001
 40
0.0
 40
0.0
 40
0.0
 40
0.0
 40
0.2308635754773876
 40
0.8275378212065164
 40
1.0
 40
1.0
 40
1.0
 40
1.0
 10
10.0000000000058
 20
1.842102859904858
 30
0.0
 10
10.0000000000058
 20
1.823480680623986
 30
0.0
 10
10.00000000000581
 20
1.756728887335061
 30
0.0
 10
10.00000000000581
 20
1.67842989835574
 30
0.0
 10
10.00000000000581
 20
1.627622587101242
 30
0.0
 10
10.00000000000581
 20
1.616230148363175
 30
0.0
  0
SPLINE
  5
C3
330
1F
100
AcDbEntity
  8
0
  6
Continuous
 62
     1
370
    15
100
AcDbSpline
210
0.0
220
0.0
230
1.0
 70
     8
 71
     3
 72
    19
 73
    15
 74
     0
 42
0.000000001
 43
0.00000001
 40
0.0
 40
0.0
 40
0.0
 40
0.0
 40
0.0905175656152398
 40
0.1809890451938706
 40
0.271426774581563
 40
0.3618432377149671
 40
0.452251012181103
 40
0.5426627139043225
 40
0.6330909414752057
 40
0.7235482206414238
 40
0.8140469494780193
 40
0.9045767812736245
 40
0.995064220037795
 40
1.0
 40
1.0
 40
1.0
 40
1.0
 10
38.57500000000582
 20
-2.259665444858463
 30
0.0
 10
38.22391655412078
 20
-2.181532412445833
 30
0.0
 10
37.52192841267865
 20
-2.02530612820645
 30
0.0
 10
36.46930958945563
 20
-1.620545552562929
 30
0.0
 10
35.41715170882163
 20
-1.12141938800232
 30
0.0
 10
34.36529300745619
 20
-0.5469398232653044
 30
0.0
 10
33.31355478623541
 20
0.0621899087063567
 30
0.0
 10
32.26176202047355
 20
0.6674183101004786
 30
0.0
 10
31.20973854702127
 20
1.22976168419206
 30
0.0
 10
30.15731060714896
 20
1.711331800015607
 30
0.0
 10
29.10438987230904
 20
2.086714275510253
 30
0.0
 10
28.05123675536795
 20
2.309687923435689
 30
0.0
 10
27.33005182963321
 20
2.404007090097519
 30
0.0
 10
26.96000614969262
 20
2.378584633271452
 30
0.0
 10
26.94086548270896
 20
2.377269652969311
 30
0.0
  0
SPLINE
  5
C4
330
1F
100
AcDbEntity
  8
0
  6
Continuous
 62
     1
370
    15
100
AcDbSpline
210
0.0
220
0.0
230
1.0
 70
     8
 71
     3
 72
    14
 73
    10
 74
     0
 42
0.000000001
 43
0.00000001
 40
0.0
 40
0.0
 40
0.0
 40
0.0
 40
0.0339644540895484
 40
0.1949910448740989
 40
0.3559953617084394
 40
0.5169878946893753
 40
0.6779791659104475
 40
0.838979700893425
 40
0.9999999999999999
 40
0.9999999999999999
 40
0.9999999999999999
 40
0.9999999999999999
 10
16.70267141580905
 20
-1.872167698095619
 30
0.0
 10
16.62678402999367
 20
-1.902049491157103
 30
0.0
 10
16.19111205911809
 20
-2.073601845168389
 30
0.0
 10
15.39571924281243
 20
-2.262340457864813
 30
0.0
 10
14.31654349330159
 20
-2.402390284113934
 30
0.0
 10
13.23746178323228
 20
-2.369079305142556
 30
0.0
 10
12.15838967864629
 20
-2.175395550161579
 30
0.0
 10
11.07924594512295
 20
-1.839437582689419
 30
0.0
 10
10.35976336785739
 20
-1.515622755928764
 30
0.0
 10
9.999999999996987
 20
-1.353705405433223
 30
0.0
  0
SPLINE
  5
C5
330
1F
100
AcDbEntity
  8
외형선
  6
Continuous
370
    15
100
AcDbSpline
210
0.0
220
0.0
230
1.0
 70
    24
 71
     3
 72
     8
 73
     4
 74
     0
 42
0.000000001
 43
0.00000001
 40
0.0
 40
0.0
 40
0.0
 40
0.0
 40
1.0
 40
1.0
 40
1.0
 40
1.0
 10
10.0000000000058
 20
-1.048193892943528
 30
0.0
 10
10.0000000000058
 20
-1.143427337553965
 30
0.0
 10
10.0000000000058
 20
-1.245889716160606
 30
0.0
 10
10.0000000000058
 20
-1.353705405429628
 30
0.0
  0
SPLINE
  5
C6
330
1F
100
AcDbEntity
  8
0
  6
Continuous
 62
     1
370
    15
100
AcDbSpline
210
0.0
220
0.0
230
1.0
 70
     8
 71
     3
 72
    13
 73
     9
 74
     0
 42
0.000000001
 43
0.00000001
 40
0.0
 40
0.0
 40
0.0
 40
0.0
 40
0.1982862677952559
 40
0.396589015743727
 40
0.5949067590769508
 40
0.7932380024982699
 40
0.9915812412087015
 40
1.0
 40
1.0
 40
1.0
 40
1.0
 10
38.57500000000582
 20
-1.878740204526814
 30
0.0
 10
38.16591135032728
 20
-1.787863288432749
 30
0.0
 10
37.34770005041285
 20
-1.606101903197616
 30
0.0
 10
36.12031557247786
 20
-1.148488160467982
 30
0.0
 10
34.89282601031812
 20
-0.599617549436313
 30
0.0
 10
33.66523914882875
 20
-0.0027178064133044
 30
0.0
 10
32.82944676360295
 20
0.4233191547988177
 30
0.0
 10
32.4028489545296
 20
0.6109497617405696
 30
0.0
 10
32.38547910852851
 20
0.6185895448767057
 30
0.0
  0
SPLINE
  5
C7
330
1F
100
AcDbEntity
  8
0
  6
Continuous
 62
     1
370
    15
100
AcDbSpline
210
0.0
220
0.0
230
1.0
 70
     8
 71
     3
 72
    12
 73
     8
 74
     0
 42
0.000000001
 43
0.00000001
 40
0.0
 40
0.0
 40
0.0
 40
0.0
 40
0.2088881442079557
 40
0.4504219511271595
 40
0.6337323413966566
 40
0.8168491400134804
 40
1.0
 40
1.0
 40
1.0
 40
1.0
 10
15.08128921227202
 20
-1.970932930735386
 30
0.0
 10
14.72741111218656
 20
-1.997949195332585
 30
0.0
 10
13.96434978620253
 20
-2.056203907002213
 30
0.0
 10
12.89063019432837
 20
-1.937971050179781
 30
0.0
 10
11.86100162120464
 20
-1.713100400841443
 30
0.0
 10
10.93040448322749
 20
-1.42341189802649
 30
0.0
 10
10.31015405465019
 20
-1.173274315222975
 30
0.0
 10
10.00000000000579
 20
-1.048193892943521
 30
0.0
  0
LINE
  5
C8
330
1F
100
AcDbEntity
  8
0
  6
Continuous
 62
     1
370
    15
100
AcDbLine
 10
38.57500000000582
 20
-2.259665444858466
 30
0.0
 11
38.57500000000582
 21
-1.878740204526814
 31
0.0
  0
SPLINE
  5
C9
330
1F
100
AcDbEntity
  8
0
  6
Continuous
 62
     1
370
    15
100
AcDbSpline
210
0.0
220
0.0
230
1.0
 70
     8
 71
     3
 72
    23
 73
    19
 74
     0
 42
0.000000001
 43
0.00000001
 40
0.0
 40
0.0
 40
0.0
 40
0.0
 40
0.0344629738312271
 40
0.1017197173077745
 40
0.168944966003167
 40
0.2361416658814322
 40
0.3033190547221761
 40
0.3704864552459325
 40
0.4376532342210245
 40
0.5048287611593187
 40
0.5720223669863435
 40
0.6392433030716417
 40
0.7064981052251257
 40
0.773736509613427
 40
0.8409429080133038
 40
0.9098671038196022
 40
0.9787817657091844
 40
1.0
 40
1.0
 40
1.0
 40
1.0
 10
29.6442249495683
 20
-1.872777455121217
 30
0.0
 10
29.46431667707245
 20
-1.938863174945252
 30
0.0
 10
28.93330566481249
 20
-2.133919491660746
 30
0.0
 10
28.05122810200776
 20
-2.316586230629557
 30
0.0
 10
26.99842448805744
 20
-2.408048922123431
 30
0.0
 10
25.94610781091774
 20
-2.337302817527681
 30
0.0
 10
24.89415807127435
 20
-2.116927308979209
 30
0.0
 10
23.84239471691308
 20
-1.759088252692941
 30
0.0
 10
22.79064310842507
 20
-1.287508918574854
 30
0.0
 10
21.73872809171365
 20
-0.7325318015844766
 30
0.0
 10
20.68647033469334
 20
-0.1300650753766127
 30
0.0
 10
19.63372585693223
 20
0.4808802909190139
 30
0.0
 10
18.58058629074801
 20
1.060764053502738
 30
0.0
 10
17.52760628249031
 20
1.571245526963351
 30
0.0
 10
16.46604570546984
 20
1.986533134623219
 30
0.0
 10
15.39571734622208
 20
2.261370682854401
 30
0.0
 10
14.56547972152276
 20
2.389768816119895
 30
0.0
 10
14.09501437580722
 20
2.368836054657639
 30
0.0
 10
13.98426187195866
 20
2.363908261855209
 30
0.0
  0
SPLINE
  5
CA
330
1F
100
AcDbEntity
  8
0
  6
Continuous
 62
     1
370
    15
100
AcDbSpline
210
0.0
220
0.0
230
1.0
 70
     8
 71
     3
 72
    15
 73
    11
 74
     0
 42
0.000000001
 43
0.00000001
 40
0.0
 40
0.0
 40
0.0
 40
0.0
 40
0.0599571360987757
 40
0.2027222862630526
 40
0.3454894701661226
 40
0.4882575783980467
 40
0.6310255008914378
 40
0.7737921277110305
 40
0.9165563498430535
 40
1.0
 40
1.0
 40
1.0
 40
1.0
 10
28.0419514819004
 20
-1.959825955835652
 30
0.0
 10
27.87005290188437
 20
-1.982204401790221
 30
0.0
 10
27.28884313414614
 20
-2.057868618297335
 30
0.0
 10
26.29831180713722
 20
-1.999781309640275
 30
0.0
 10
25.0703567510468
 20
-1.79049447362807
 30
0.0
 10
23.84239230185079
 20
-1.413509751083217
 30
0.0
 10
22.61442969863149
 20
-0.9143380544446695
 30
0.0
 10
21.38648010971201
 20
-0.3363258137642818
 30
0.0
 10
20.32861745057142
 20
0.1944404260406333
 30
0.0
 10
19.68007491523797
 20
0.4959811611635266
 30
0.0
 10
19.44084028612156
 20
0.6072136278104893
 30
0.0
  0
SPLINE
  5
CB
330
1F
100
AcDbEntity
  8
0
  6
Continuous
 62
     1
370
    15
100
AcDbSpline
210
0.0
220
0.0
230
1.0
 70
     8
 71
     3
 72
    10
 73
     6
 74
     0
 42
0.000000001
 43
0.00000001
 40
0.0
 40
0.0
 40
0.0
 40
0.0
 40
0.3813155869521077
 40
0.7625843685687357
 40
1.0
 40
1.0
 40
1.0
 40
1.0
 10
10.0
 20
-1.842102859902739
 30
0.0
 10
10.35976266605382
 20
-1.960228119092277
 30
0.0
 10
11.07924383838185
 20
-2.196464137952912
 30
0.0
 10
12.02268909506265
 20
-2.366378409331291
 30
0.0
 10
12.60637886831
 20
-2.36330429787826
 30
0.0
 10
12.8303655619343
 20
-2.362124630027706
 30
0.0
  0
SPLINE
  5
CC
330
1F
100
AcDbEntity
  8
0
  6
Continuous
 62
     1
370
    15
100
AcDbSpline
210
0.0
220
0.0
230
1.0
 70
     8
 71
     3
 72
    23
 73
    19
 74
     0
 42
0.000000001
 43
0.00000001
 40
0.0
 40
0.0
 40
0.0
 40
0.0
 40
0.0260896006114087
 40
0.0909871223103792
 40
0.15588524513378
 40
0.220793019259164
 40
0.2857194523029004
 40
0.350673469809581
 40
0.4156579167821366
 40
0.4806200356577375
 40
0.5455524015957737
 40
0.6104639141033981
 40
0.6753635643312121
 40
0.7402603957161035
 40
0.8051634641363984
 40
0.87008179795077
 40
0.9350243582941703
 40
1.0
 40
1.0
 40
1.0
 40
1.0
 10
22.36786508579534
 20
1.596158892786015
 30
0.0
 10
22.50880250785642
 20
1.65921057005227
 30
0.0
 10
23.00031982351722
 20
1.87910242492377
 30
0.0
 10
23.84238502408529
 20
2.140543323371877
 30
0.0
 10
24.89415092732954
 20
2.352125356175067
 30
0.0
 10
25.94610102950016
 20
2.405135559695884
 30
0.0
 10
26.9984172585423
 20
2.304126669268203
 30
0.0
 10
28.05122588750289
 20
2.053406437727847
 30
0.0
 10
29.10438610533227
 20
1.669921053645497
 30
0.0
 10
30.15730564927831
 20
1.178171388611826
 30
0.0
 10
31.2097346152326
 20
0.6101710670807391
 30
0.0
 10
32.26175853001541
 20
0.0027556470798742
 30
0.0
 10
33.31355190313209
 20
-0.6048499684077339
 30
0.0
 10
34.36529069361793
 20
-1.173082135931505
 30
0.0
 10
35.41714997778643
 20
-1.666195193848337
 30
0.0
 10
36.46930843783004
 20
-2.048523916905444
 30
0.0
 10
37.52192783864738
 20
-2.309306673911095
 30
0.0
 10
38.22391636325019
 20
-2.355923203790328
 30
0.0
 10
38.57500000000582
 20
-2.379237403765589
 30
0.0
  0
SPLINE
  5
CD
330
1F
100
AcDbEntity
  8
0
  6
Continuous
 62
     1
370
    15
100
AcDbSpline
210
0.0
220
0.0
230
1.0
 70
     8
 71
     3
 72
    15
 73
    11
 74
     0
 42
0.000000001
 43
0.00000001
 40
0.0
 40
0.0
 40
0.0
 40
0.0
 40
0.0278807917967685
 40
0.1826994956968312
 40
0.3375254815427258
 40
0.492357508528649
 40
0.647194331528988
 40
0.8020347019846562
 40
0.9568773687946557
 40
1.0
 40
1.0
 40
1.0
 40
1.0
 10
32.65868614375029
 20
-0.2241028887439048
 30
0.0
 10
32.58498615600102
 20
-0.1953041981692764
 30
0.0
 10
32.10203894658156
 20
-0.0065898215093025
 30
0.0
 10
31.20981831076271
 20
0.3626918519709744
 30
0.0
 10
29.98200913703172
 20
0.8296680206360906
 30
0.0
 10
28.75414646073013
 20
1.225444867542934
 30
0.0
 10
27.52624202530234
 20
1.515634545683631
 30
0.0
 10
26.29830648202692
 20
1.661932024145673
 30
0.0
 10
25.36568062175762
 20
1.692467022546811
 30
0.0
 10
24.84236793178452
 20
1.627998194356563
 30
0.0
 10
24.72837512415095
 20
1.613954998250177
 30
0.0
  0
SPLINE
  5
CE
330
1F
100
AcDbEntity
  8
0
  6
Continuous
 62
     1
370
    15
100
AcDbSpline
210
0.0
220
0.0
230
1.0
 70
     8
 71
     3
 72
    22
 73
    18
 74
     0
 42
0.000000001
 43
0.00000001
 40
0.0
 40
0.0
 40
0.0
 40
0.0
 40
0.0683645942446221
 40
0.136720796941985
 40
0.2050730665265947
 40
0.2734258721155991
 40
0.3417836813697517
 40
0.410150948362786
 40
0.4768144603286432
 40
0.5435097202623212
 40
0.6102212405518398
 40
0.6768991676021185
 40
0.7435499861397015
 40
0.8101828726785764
 40
0.8768070826416295
 40
0.9434319097228593
 40
1.0
 40
1.0
 40
1.0
 40
1.0
 10
10.0
 20
1.84210285990274
 30
0.0
 10
10.35976269068489
 20
1.961530937660662
 30
0.0
 10
11.07924391227206
 20
2.200372433741023
 30
0.0
 10
12.15838567479891
 20
2.37518681531986
 30
0.0
 10
13.23745555168994
 20
2.397243877020867
 30
0.0
 10
14.31653600426744
 20
2.25363157697958
 30
0.0
 10
15.39570690547229
 20
1.95718172815901
 30
0.0
 10
16.46603456859886
 20
1.530822551029303
 30
0.0
 10
17.52759479003672
 20
1.007076756076053
 30
0.0
 10
18.58057543648917
 20
0.4225555920247438
 30
0.0
 10
19.6337155581426
 20
-0.1891976001497488
 30
0.0
 10
20.68646054869909
 20
-0.7889205677777344
 30
0.0
 10
21.73871893607433
 20
-1.337145051832324
 30
0.0
 10
22.79063418403541
 20
-1.799871421785751
 30
0.0
 10
23.84238758797856
 20
-2.141892817711573
 30
0.0
 10
24.84117773830293
 20
-2.349830321654108
 30
0.0
 10
25.4894304965256
 20
-2.364574891791757
 30
0.0
 10
25.78709712652245
 20
-2.371345347370935
 30
0.0
  0
SPLINE
  5
CF
330
1F
100
AcDbEntity
  8
0
  6
Continuous
 62
     1
370
    15
100
AcDbSpline
210
0.0
220
0.0
230
1.0
 70
     8
 71
     3
 72
    11
 73
     7
 74
     0
 42
0.000000001
 43
0.00000001
 40
0.0
 40
0.0
 40
0.0
 40
0.0
 40
0.0336589031837148
 40
0.3556378052597766
 40
0.6777368649363095
 40
1.0
 40
1.0
 40
1.0
 40
1.0
 10
35.30709602245897
 20
1.596743790104541
 30
0.0
 10
35.3437560156778
 20
1.613875609677254
 30
0.0
 10
35.73110314514366
 20
1.794889312937017
 30
0.0
 10
36.46931102324508
 20
2.042257479904951
 30
0.0
 10
37.52192719180893
 20
2.310874457897396
 30
0.0
 10
38.22391614760078
 20
2.356445887157865
 30
0.0
 10
38.57500000000582
 20
2.379237403765591
 30
0.0
  0
SPLINE
  5
D0
330
1F
100
AcDbEntity
  8
0
  6
Continuous
 62
     1
370
    15
100
AcDbSpline
210
0.0
220
0.0
230
1.0
 70
    24
 71
     3
 72
    10
 73
     6
 74
     0
 42
0.000000001
 43
0.00000001
 40
0.0
 40
0.0
 40
0.0
 40
0.0
 40
0.5
 40
0.5
 40
1.0
 40
1.0
 40
1.0
 40
1.0
 10
38.57500000000582
 20
1.666875000000001
 30
0.0
 10
38.57500000000582
 20
1.767916811522416
 30
0.0
 10
38.57500000000582
 20
1.885336753989824
 30
0.0
 10
38.57500000000582
 20
2.131683477038039
 30
0.0
 10
38.57500000000582
 20
2.259981119002259
 30
0.0
 10
38.57500000000582
 20
2.379237403765593
 30
0.0
  0
LINE
  5
D1
330
1F
100
AcDbEntity
  8
0
  6
Continuous
 62
     1
370
    15
100
AcDbLine
 10
38.57500000000582
 20
1.666875
 30
0.0
 11
37.6858734586832
 21
1.613780841495429
 31
0.0
  0
SPLINE
  5
D2
330
1F
100
AcDbEntity
  8
0
  6
Continuous
 62
     1
370
    15
100
AcDbSpline
210
0.0
220
0.0
230
1.0
 70
     8
 71
     3
 72
    14
 73
    10
 74
     0
 42
0.000000001
 43
0.00000001
 40
0.0
 40
0.0
 40
0.0
 40
0.0
 40
0.0968556548884314
 40
0.2517381659714604
 40
0.406614217704595
 40
0.570004637081922
 40
0.7333359829250814
 40
0.896621627772861
 40
1.0
 40
1.0
 40
1.0
 40
1.0
 10
19.69847933686744
 20
-0.2237218405079596
 30
0.0
 10
19.44253368643006
 20
-0.1212383955550349
 30
0.0
 10
18.77730367271843
 20
0.1451269963738559
 30
0.0
 10
17.70280402696948
 20
0.577494314469349
 30
0.0
 10
16.45251965538871
 20
1.025675287967997
 30
0.0
 10
15.17979222616509
 20
1.389033178821024
 30
0.0
 10
13.8849283615755
 20
1.61616073391285
 30
0.0
 10
12.74870197170288
 20
1.698277746218025
 30
0.0
 10
12.04401738989731
 20
1.634290520068278
 30
0.0
 10
11.77083038176732
 20
1.609484416285508
 30
0.0
  0
SPLINE
  5
D3
330
1F
100
AcDbEntity
  8
외형선
  6
Continuous
370
    15
100
AcDbSpline
210
0.0
220
0.0
230
1.0
 70
    24
 71
     3
 72
    10
 73
     6
 74
     0
 42
0.000000001
 43
0.00000001
 40
0.0
 40
0.0
 40
0.0
 40
0.0
 40
0.2308635754784153
 40
0.8275378212080843
 40
1.0
 40
1.0
 40
1.0
 40
1.0
 10
10.0000000000058
 20
1.842102859904859
 30
0.0
 10
10.0000000000058
 20
1.823480680623907
 30
0.0
 10
10.0000000000058
 20
1.756728887334861
 30
0.0
 10
10.00000000000581
 20
1.678429898355544
 30
0.0
 10
10.00000000000581
 20
1.627622587101133
 30
0.0
 10
10.00000000000581
 20
1.616230148363175
 30
0.0
  0
LINE
  5
D4
330
1F
100
AcDbEntity
  8
0
  6
Continuous
 62
     1
370
    15
100
AcDbLine
 10
38.57500000000582
 20
-2.379237403765592
 30
0.0
 11
38.57500000000582
 21
-2.259665444858465
 31
0.0
  0
SPLINE
  5
D5
330
1F
100
AcDbEntity
  8
0
  6
Continuous
 62
     1
370
    15
100
AcDbSpline
210
0.0
220
0.0
230
1.0
 70
     8
 71
     3
 72
     8
 73
     4
 74
     0
 42
0.000000001
 43
0.00000001
 40
0.0
 40
0.0
 40
0.0
 40
0.0
 40
1.0
 40
1.0
 40
1.0
 40
1.0
 10
37.10093131852125
 20
0.6667656290396481
 30
0.0
 10
37.01657539430994
 20
0.7667237491414787
 30
0.0
 10
36.94126846148129
 20
0.8629558787206373
 30
0.0
 10
36.87715717570478
 20
0.9545781160977185
 30
0.0
  0
LINE
  5
D6
330
1F
100
AcDbEntity
  8
0
  6
Continuous
 62
     1
370
    15
100
AcDbLine
 10
36.90728317141331
 20
0.979856827985481
 30
0.0
 11
38.57500000000582
 21
0.0000000000000043
 31
0.0
  0
LINE
  5
D7
330
1F
100
AcDbEntity
  8
0
  6
Continuous
 62
     1
370
    15
100
AcDbLine
 10
38.57500000000582
 20
0.0000000000000043
 30
0.0
 11
38.57500000000582
 21
-0.6363722652330878
 31
0.0
  0
SPLINE
  5
D8
330
1F
100
AcDbEntity
  8
0
  6
Continuous
 62
     1
370
    15
100
AcDbSpline
210
0.0
220
0.0
230
1.0
 70
     8
 71
     3
 72
    10
 73
     6
 74
     0
 42
0.000000001
 43
0.00000001
 40
0.0
 40
0.0
 40
0.0
 40
0.0
 40
0.5
 40
0.5
 40
1.0
 40
1.0
 40
1.0
 40
1.0
 10
38.57500000000582
 20
-0.6363722652330874
 30
0.0
 10
38.31982507709233
 20
-0.4357598858616756
 30
0.0
 10
38.06891634128646
 20
-0.2269170311312047
 30
0.0
 10
37.57584008685149
 20
0.2076325360946563
 30
0.0
 10
37.33138005574364
 20
0.4356364190333807
 30
0.0
 10
37.10093131852748
 20
0.6667656290333899
 30
0.0
  0
SPLINE
  5
D9
330
1F
100
AcDbEntity
  8
0
  6
Continuous
 62
     1
370
    15
100
AcDbSpline
210
0.0
220
0.0
230
1.0
 70
     8
 71
     3
 72
    20
 73
    16
 74
     0
 42
0.000000001
 43
0.00000001
 40
0.0
 40
0.0
 40
0.0
 40
0.0
 40
0.0769196006223585
 40
0.1561391716730966
 40
0.2386882918902941
 40
0.3212405492073737
 40
0.4037952970325478
 40
0.4863518870007131
 40
0.5689096694339201
 40
0.6514679938038486
 40
0.7340262091955715
 40
0.8165836647719121
 40
0.8991397102376799
 40
0.9816936963030829
 40
1.0
 40
1.0
 40
1.0
 40
1.0
 10
33.53206796880206
 20
-1.788745049462934
 30
0.0
 10
33.15072916246179
 20
-1.836311429570152
 30
0.0
 10
32.37664915077396
 20
-1.932866470539381
 30
0.0
 10
31.19335089943598
 20
-1.884049593827634
 30
0.0
 10
29.98200484492877
 20
-1.685207101195991
 30
0.0
 10
28.75414910165279
 20
-1.332221045090003
 30
0.0
 10
27.52624274558932
 20
-0.8629093380401711
 30
0.0
 10
26.29830768397721
 20
-0.31744009702078
 30
0.0
 10
25.07035191776738
 20
0.2558229438709498
 30
0.0
 10
23.84238718082536
 20
0.8068658677239543
 30
0.0
 10
22.61442427012032
 20
1.285937495573431
 30
0.0
 10
21.38647403718564
 20
1.655588172443856
 30
0.0
 10
20.1585480441524
 20
1.865808829563212
 30
0.0
 10
19.2491784693427
 20
1.938077684831481
 30
0.0
 10
18.74912092489153
 20
1.887051431152243
 30
0.0
 10
18.65835968182719
 20
1.877790084604763
 30
0.0
  0
SPLINE
  5
DA
330
1F
100
AcDbEntity
  8
외형선
  6
Continuous
370
    15
100
AcDbSpline
210
0.0
220
0.0
230
1.0
 70
    24
 71
     3
 72
    10
 73
     6
 74
     0
 42
0.000000001
 43
0.00000001
 40
0.0
 40
0.0
 40
0.0
 40
0.0
 40
0.5
 40
0.5
 40
1.0
 40
1.0
 40
1.0
 40
1.0
 10
10.0000000000058
 20
1.145584198622919
 30
0.0
 10
10.0000000000058
 20
0.8285635500013975
 30
0.0
 10
10.0000000000058
 20
0.4552107446343058
 30
0.0
 10
10.0000000000058
 20
-0.3116234056410969
 30
0.0
 10
10.0000000000058
 20
-0.7018039965901113
 30
0.0
 10
10.0000000000058
 20
-1.048193892943527
 30
0.0
  0
SPLINE
  5
DB
330
1F
100
AcDbEntity
  8
0
  6
Continuous
 62
     1
370
    15
100
AcDbSpline
210
0.0
220
0.0
230
1.0
 70
     8
 71
     3
 72
    12
 73
     8
 74
     0
 42
0.000000001
 43
0.00000001
 40
0.0
 40
0.0
 40
0.0
 40
0.0
 40
0.2148107398090619
 40
0.4296214799423899
 40
0.6444322203996788
 40
0.859242961180618
 40
0.9999999999999999
 40
0.9999999999999999
 40
0.9999999999999999
 40
0.9999999999999999
 10
37.10093131852943
 20
0.666765629036105
 30
0.0
 10
36.70819173086728
 20
0.8313274122030153
 30
0.0
 10
35.92271255495012
 20
1.160450978785249
 30
0.0
 10
34.74449378988894
 20
1.54710629279475
 30
0.0
 10
33.56627502282293
 20
1.806213861919904
 30
0.0
 10
32.52344902112204
 20
1.925070435130857
 30
0.0
 10
31.87336260834533
 20
1.888909748601533
 30
0.0
 10
31.61601578535136
 20
1.874594978114553
 30
0.0
  0
SPLINE
  5
DC
330
1F
100
AcDbEntity
  8
0
  6
Continuous
 62
     1
370
    15
100
AcDbSpline
210
0.0
220
0.0
230
1.0
 70
     8
 71
     3
 72
    16
 73
    12
 74
     0
 42
0.000000001
 43
0.00000001
 40
0.0
 40
0.0
 40
0.0
 40
0.0
 40
0.0399843229153373
 40
0.1560253949013556
 40
0.2720626615103125
 40
0.3880952148464227
 40
0.5105053397150059
 40
0.6328723583567015
 40
0.7552060276742786
 40
0.8775826394665374
 40
1.0
 40
1.0
 40
1.0
 40
1.0
 10
20.58163581558709
 20
-1.771916711485944
 30
0.0
 10
20.44060320309113
 20
-1.799029589423866
 30
0.0
 10
19.8902707864276
 20
-1.904828492062124
 30
0.0
 10
18.93065800144635
 20
-1.924223366335763
 30
0.0
 10
17.70280334368678
 20
-1.819208548640407
 30
0.0
 10
16.45253086664269
 20
-1.538575578507008
 30
0.0
 10
15.17978514300942
 20
-1.111290334038653
 30
0.0
 10
13.88492549269725
 20
-0.5663298036263179
 30
0.0
 10
12.59024850673429
 20
0.0317642565006902
 30
0.0
 10
11.29530335109519
 20
0.6347363796576615
 30
0.0
 10
10.43181569614277
 20
0.9752826963676837
 30
0.0
 10
9.999999999995428
 20
1.145584198626745
 30
0.0
  0
SPLINE
  5
DD
330
1F
100
AcDbEntity
  8
0
  6
Continuous
 62
     1
370
    15
100
AcDbSpline
210
0.0
220
0.0
230
1.0
 70
    24
 71
     3
 72
    10
 73
     6
 74
     0
 42
0.000000001
 43
0.00000001
 40
0.0
 40
0.0
 40
0.0
 40
0.0
 40
0.5
 40
0.5
 40
1.0
 40
1.0
 40
1.0
 40
1.0
 10
38.57500000000582
 20
-1.878740204526813
 30
0.0
 10
38.57500000000582
 20
-1.734720120065309
 30
0.0
 10
38.57500000000582
 20
-1.552745221052276
 30
0.0
 10
38.57500000000582
 20
-1.129671093977554
 30
0.0
 10
38.57500000000582
 20
-0.888938348765928
 30
0.0
 10
38.57500000000582
 20
-0.6363722652331638
 30
0.0
  0
SPLINE
  5
DE
330
1F
100
AcDbEntity
  8
0
  6
Continuous
 62
     1
370
    15
100
AcDbSpline
210
0.0
220
0.0
230
1.0
 70
    24
 71
     3
 72
     8
 73
     4
 74
     0
 42
0.000000001
 43
0.00000001
 40
0.0
 40
0.0
 40
0.0
 40
0.0
 40
1.0
 40
1.0
 40
1.0
 40
1.0
 10
37.12582768728479
 20
1.16323745064582
 30
0.0
 10
37.04721706249634
 20
1.09727530437922
 30
0.0
 10
36.96406690501826
 20
1.027504037910266
 30
0.0
 10
36.87715717570489
 20
0.9545781160976935
 30
0.0
  0
SPLINE
  5
DF
330
1F
100
AcDbEntity
  8
0
  6
Continuous
 62
     1
370
    15
100
AcDbSpline
210
0.0
220
0.0
230
1.0
 70
     8
 71
     3
 72
     8
 73
     4
 74
     0
 42
0.000000001
 43
0.00000001
 40
0.0
 40
0.0
 40
0.0
 40
0.0
 40
1.0
 40
1.0
 40
1.0
 40
1.0
 10
38.57500000000582
 20
1.666875000000004
 30
0.0
 10
38.08521348789169
 20
1.533900650656863
 30
0.0
 10
37.60009348854911
 20
1.370671989942915
 30
0.0
 10
37.12582768728247
 20
1.163237450647105
 30
0.0
  0
SPLINE
  5
E0
330
1F
100
AcDbEntity
  8
외형선
  6
Continuous
370
    15
100
AcDbSpline
210
0.0
220
0.0
230
1.0
 70
    24
 71
     3
 72
    11
 73
     7
 74
     0
 42
0.000000001
 43
0.00000001
 40
0.0
 40
0.0
 40
0.0
 40
0.0
 40
0.1302027998129634
 40
0.42492104451409
 40
0.7084364995662524
 40
1.0
 40
1.0
 40
1.0
 40
1.0
 10
10.0000000000058
 20
1.561995527106433
 30
0.0
 10
10.0000000000058
 20
1.564160103126951
 30
0.0
 10
10.0000000000058
 20
1.571224266915211
 30
0.0
 10
10.0000000000058
 20
1.503362143680883
 30
0.0
 10
10.00000000000581
 20
1.368221983614888
 30
0.0
 10
10.00000000000581
 20
1.220485966333098
 30
0.0
 10
10.00000000000581
 20
1.145584198622918
 30
0.0
  0
LINE
  5
E1
330
1F
100
AcDbEntity
  8
0
  6
Continuous
 62
     1
370
    15
100
AcDbLine
 10
38.57500000000582
 20
0.0000000000000043
 30
0.0
 11
38.57500000000582
 21
1.666875000000004
 31
0.0
  0
LINE
  5
E2
330
1F
100
AcDbEntity
  8
중심선
 62
     1
100
AcDbLine
 10
-40.6249999999942
 20
-0.0000000000000041
 30
0.0
 11
41.57500000000581
 21
0.0000000000000059
 31
0.0
  0
LINE
  5
E3
330
1F
100
AcDbEntity
  8
참조1
100
AcDbLine
 10
5.324261314031166
 20
0.0010749287238892
 30
0.0
 11
5.324261314031173
 21
-39.99892507127611
 31
0.0
  0
LINE
  5
E4
330
1F
100
AcDbEntity
  8
참조1
100
AcDbLine
 10
5.324261314031173
 20
-39.99892507127611
 30
0.0
 11
-20.15080122126847
 21
-39.9989250712761
 31
0.0
  0
CIRCLE
  5
E5
330
1F
100
AcDbEntity
  8
해칭선
100
AcDbCircle
 10
0.0
 20
0.0
 30
0.0
 40
2.999999999999996
  0
INSERT
  5
E6
330
1F
100
AcDbEntity
  8
0
  6
Continuous
 62
     7
100
AcDbBlockReference
 66
     1
  2
블럭10
 10
-15.40474884362049
 20
-26.10668398531676
 30
0.0
  0
ATTRIB
  5
E7
330
E6
100
AcDbEntity
  8
FORMAT
 62
     2
100
AcDbText
 10
-24.58604413236177
 20
-24.03131707248458
 30
0.0
 40
4.233333333333333
  1
E5026012 [ 2 FLUTE ]
 41
0.75
  7
SLDTEXTSTYLE0
 11
-24.58604413236177
 21
-26.14798373915124
 31
0.0
100
AcDbAttribute
  2
AUTOATTR0
 70
     0
 74
     1
  0
SEQEND
  5
E8
330
E6
100
AcDbEntity
  8
0
  6
Continuous
 62
     7
  0
HATCH
  5
E9
330
1F
100
AcDbEntity
  8
중심선
100
AcDbHatch
 10
0.0
 20
0.0
 30
0.0
210
0.0
220
0.0
230
1.0
  2
SOLID
 70
     1
 71
     0
 91
        1
 92
        0
 93
        4
 72
     1
 10
-9.689839539239639
 20
-9.859509683672826
 11
-13.13611478307692
 21
-9.859509683672826
 72
     1
 10
-13.13611478307692
 20
-9.859509683672826
 11
-15.26434464228097
 21
-12.39583526424543
 72
     1
 10
-15.26434464228097
 20
-12.39583526424543
 11
-11.81803631333051
 21
-12.39579583494294
 72
     1
 10
-11.81803631333051
 20
-12.39579583494294
 11
-9.689839539239639
 21
-9.859509683672826
 97
        0
 75
     0
 76
     1
 98
        1
 10
-6.788737225526456
 20
25.93941538760328
  0
HATCH
  5
EA
330
1F
100
AcDbEntity
  8
중심선
100
AcDbHatch
 10
0.0
 20
0.0
 30
0.0
210
0.0
220
0.0
230
1.0
  2
SOLID
 70
     1
 71
     0
 91
        1
 92
        0
 93
        4
 72
     1
 10
-4.677075548203687
 20
-9.859509683672854
 11
-8.12335079204097
 21
-9.859509683672826
 72
     1
 10
-8.12335079204097
 20
-9.859509683672826
 11
-12.65448880039836
 21
-15.25950968367285
 72
     1
 10
-12.65448880039836
 20
-15.25950968367285
 11
-9.208213556561075
 21
-15.25950968367285
 72
     1
 10
-9.208213556561075
 20
-15.25950968367285
 11
-4.677075548203687
 21
-9.859509683672854
 97
        0
 75
     0
 76
     1
 98
        1
 10
-6.788737225526456
 20
25.93941538760328
  0
HATCH
  5
EB
330
1F
100
AcDbEntity
  8
중심선
100
AcDbHatch
 10
0.0
 20
0.0
 30
0.0
210
0.0
220
0.0
230
1.0
  2
SOLID
 70
     1
 71
     0
 91
        1
 92
        0
 93
        4
 72
     1
 10
0.335688442832236
 20
-9.859509683672826
 11
-3.110586801004907
 21
-9.859509683672826
 72
     1
 10
-3.110586801004907
 20
-9.859509683672826
 11
-10.15902370289416
 21
-18.25950968367285
 72
     1
 10
-10.15902370289416
 20
-18.25950968367285
 11
-6.712748459056874
 21
-18.25950968367285
 72
     1
 10
-6.712748459056874
 20
-18.25950968367285
 11
0.335688442832236
 21
-9.859509683672826
 97
        0
 75
     0
 76
     1
 98
        1
 10
-6.788737225526456
 20
25.93941538760328
  0
HATCH
  5
EC
330
1F
100
AcDbEntity
  8
중심선
100
AcDbHatch
 10
0.0
 20
0.0
 30
0.0
210
0.0
220
0.0
230
1.0
  2
SOLID
 70
     1
 71
     0
 91
        1
 92
        0
 93
        6
 72
     3
 10
5.135578873844407
 20
-14.0595096837241
 11
3.960054785062283
 21
1.540882976769353E-10
 40
0.3939339440162628
 50
17.0953918060844
 51
320.0019657685081
 73
     0
 72
     1
 10
6.818578529545031
 20
-12.6474036883111
 11
9.12388040324607
 21
-10.71307697826321
 72
     3
 10
5.135578873791561
 20
-14.05950968367298
 11
6.600054785286829
 21
-1.278976924368180E-13
 40
0.636358354079598
 50
39.99873849337384
 51
368.4976242363725
 73
     1
 72
     1
 10
11.56091136569217
 20
-13.09950968360285
 11
3.81564618062751
 21
-13.09950968360285
 72
     1
 10
3.81564618062751
 20
-13.09950968360285
 11
3.81562113618155
 21
-15.01950968360274
 72
     1
 10
3.81562113618155
 20
-15.01950968360274
 11
8.257000905653586
 21
-15.01950968360271
 97
        0
 75
     0
 76
     1
 98
        1
 10
-6.788737225526456
 20
25.93941538760328
  0
DIMENSION
  5
ED
330
1F
100
AcDbEntity
  8
치수문자_일반주서
100
AcDbDimension
  2
_D
 10
-48.43619944242699
 20
-2.381250000000044
 30
0.0
 11
-48.43619944242707
 21
22.98524999999997
 31
0.0
 70
   160
  1
%%c<>
 71
     2
 42
4.762500000000003
 52
-270.0
  3
SLDDIMSTYLE0
100
AcDbAlignedDimension
 13
-37.19499999999419
 23
2.381250000000002
 33
0.0
 14
-37.19499999999419
 24
-2.381250000000001
 34
0.0
 50
90.0000000000002
100
AcDbRotatedDimension
1001
ACAD
1000
DSTYLE
1002
{
1070
   171
1070
     6
1070
   273
1070
     5
1002
}
  0
DIMENSION
  5
102
330
1F
100
AcDbEntity
  8
치수문자_일반주서
100
AcDbDimension
  2
_D_1
 10
10.0000000000058
 20
15.55557913458853
 30
0.0
 11
24.28750000000581
 21
15.55557913458853
 31
0.0
 70
   160
  1
<>
 71
     2
 42
28.57500000000002
  3
SLDDIMSTYLE0
100
AcDbAlignedDimension
 13
38.57500000000582
 23
2.379237403765593
 33
0.0
 14
10.0000000000058
 24
1.570975941355518
 34
0.0
 50
0.0000000000000036
100
AcDbRotatedDimension
1001
ACAD
1000
DSTYLE
1002
{
1070
   171
1070
     6
1070
   273
1070
     5
1002
}
  0
DIMENSION
  5
117
330
1F
100
AcDbEntity
  8
치수문자_일반주서
100
AcDbDimension
  2
_D_2
 10
-37.62499999999419
 20
32.78519501024257
 30
0.0
 11
0.4750000000058039
 21
32.78519501024257
 31
0.0
 70
   160
  1
<>
 71
     2
 42
76.20000000000002
  3
SLDDIMSTYLE0
100
AcDbAlignedDimension
 13
38.57500000000582
 23
2.259665444858467
 33
0.0
 14
-37.62499999999419
 24
1.951249999999995
 34
0.0
 50
0.0000000000000053
100
AcDbRotatedDimension
1001
ACAD
1000
DSTYLE
1002
{
1070
   171
1070
     6
1070
   273
1070
     5
1002
}
  0
DIMENSION
  5
12B
330
1F
100
AcDbEntity
  8
치수문자_일반주서
100
AcDbDimension
  2
_D_3
 10
50.18799073517486
 20
2.379237403765636
 30
0.0
 11
50.1879907351748
 21
22.98323740376564
 31
0.0
 70
   160
  1
%%c<>
 71
     2
 42
4.758474807531186
 52
-270.0
  3
SLDDIMSTYLE0
100
AcDbAlignedDimension
 13
38.57500000000582
 23
-2.379237403765592
 33
0.0
 14
38.57500000000582
 24
2.379237403765593
 34
0.0
 50
90.0000000000002
100
AcDbRotatedDimension
1001
ACAD
1000
DSTYLE
1002
{
1070
   171
1070
     6
1070
   273
1070
     5
1002
}
  0
LINE
  5
13F
330
1F
100
AcDbEntity
  8
참조1
100
AcDbLine
 10
77.82153940838579
 20
7.441074928723896
 30
0.0
 11
77.82153940838579
 21
-7.438925071276109
 31
0.0
  0
LINE
  5
140
330
1F
100
AcDbEntity
  8
참조1
100
AcDbLine
 10
90.52153940838579
 20
5.441074928723896
 30
0.0
 11
77.82153940838579
 21
5.441074928723896
 31
0.0
  0
SOLID
  5
141
330
1F
100
AcDbEntity
  8
참조1
100
AcDbTrace
 10
77.82153940838579
 20
5.441074928723896
 30
0.0
 11
84.17153940838578
 21
4.425074928723896
 31
0.0
 12
84.17153940838578
 22
6.457074928723896
 32
0.0
 13
84.17153940838578
 23
6.457074928723896
 33
0.0
  0
LINE
  5
142
330
1F
100
AcDbEntity
  8
참조1
100
AcDbLine
 10
90.52153940838579
 20
-5.438925071276109
 30
0.0
 11
77.82153940838579
 21
-5.438925071276109
 31
0.0
  0
SOLID
  5
143
330
1F
100
AcDbEntity
  8
참조1
100
AcDbTrace
 10
77.82153940838579
 20
-5.438925071276109
 30
0.0
 11
84.17153940838578
 21
-6.454925071276109
 31
0.0
 12
84.17153940838578
 22
-4.422925071276109
 32
0.0
 13
84.17153940838578
 23
-4.422925071276109
 33
0.0
  0
MTEXT
  5
144
330
1F
100
AcDbEntity
  8
참조1
100
AcDbMText
 10
87.20588954101179
 20
11.01136670591222
 30
0.0
 40
3.5
 41
0.0
 71
     1
 72
     1
  1
A
  7
SLDTEXTSTYLE0
 73
     1
 44
1.0
  0
MTEXT
  5
145
330
1F
100
AcDbEntity
  8
참조1
100
AcDbMText
 10
87.20588954101179
 20
0.1313667059122192
 30
0.0
 40
3.5
 41
0.0
 71
     1
 72
     1
  1
A
  7
SLDTEXTSTYLE0
 73
     1
 44
1.0
  0
INSERT
  5
14C
330
1F
100
AcDbEntity
  8
해칭선
100
AcDbBlockReference
  2
SW_DOWELSYMBOL_0
 10
0.0
 20
0.0
 30
0.0
  0
ENDSEC
  0
SECTION
  2
OBJECTS
  0
DICTIONARY
  5
C
330
0
100
AcDbDictionary
281
     1
  3
ACAD_GROUP
350
D
  3
ACAD_IMAGE_VARS
350
170
  3
ACAD_LAYOUT
350
1A
  3
ACAD_MLINESTYLE
350
17
  3
ACAD_PLOTSETTINGS
350
19
  3
ACAD_PLOTSTYLENAME
350
E
  3
ACAD_SCALELIST
350
47
  3
APPDATA
350
16E
  3
DWGPROPS
350
2E4
  0
DICTIONARY
  5
22A
330
2
100
AcDbDictionary
280
     1
281
     1
  3
ACAD_LAYERSTATES
360
22B
  0
DICTIONARY
  5
D
102
{ACAD_REACTORS
330
C
102
}
330
C
100
AcDbDictionary
281
     1
  0
RASTERVARIABLES
  5
170
102
{ACAD_REACTORS
330
C
102
}
330
C
100
AcDbRasterVariables
 90
        0
 70
     1
 71
     1
 72
     1
  0
DICTIONARY
  5
1A
102
{ACAD_REACTORS
330
C
102
}
330
C
100
AcDbDictionary
281
     1
  3
Layout1
350
1E
  3
Layout2
350
26
  3
Model
350
22
  0
DICTIONARY
  5
17
102
{ACAD_REACTORS
330
C
102
}
330
C
100
AcDbDictionary
281
     1
  3
Standard
350
18
  0
DICTIONARY
  5
19
102
{ACAD_REACTORS
330
C
102
}
330
C
100
AcDbDictionary
281
     1
  0
ACDBDICTIONARYWDFLT
  5
E
102
{ACAD_REACTORS
330
C
102
}
330
C
100
AcDbDictionary
281
     1
  3
Normal
350
F
100
AcDbDictionaryWithDefault
340
F
  0
DICTIONARY
  5
47
102
{ACAD_REACTORS
330
C
102
}
330
C
100
AcDbDictionary
281
     1
  3
A0
350
48
  3
A1
350
49
  3
A2
350
4A
  3
A3
350
4B
  3
A4
350
4C
  3
A5
350
4D
  3
A6
350
4E
  3
A7
350
4F
  3
A8
350
50
  3
A9
350
51
  3
B0
350
52
  3
B1
350
53
  3
B2
350
54
  3
B3
350
55
  3
B4
350
56
  3
B5
350
57
  3
B6
350
58
  3
B7
350
59
  3
B8
350
5A
  3
B9
350
5B
  3
C0
350
5C
  3
C1
350
5D
  3
C2
350
5E
  3
C3
350
5F
  3
C4
350
60
  3
C5
350
61
  3
C6
350
62
  3
C7
350
63
  3
C8
350
64
  3
C9
350
65
  3
D0
350
66
  3
D1
350
67
  3
D2
350
68
  0
DICTIONARY
  5
16E
102
{ACAD_REACTORS
330
C
102
}
330
C
100
AcDbDictionary
281
     1
  0
XRECORD
  5
2E4
102
{ACAD_REACTORS
330
C
102
}
330
C
100
AcDbXrecord
280
     1
  1
DWGPROPS COOKIE
  2

  3

  4

  6

  7

  8
12014074
  9

300
=
301
=
302
=
303
=
304
=
305
=
306
=
307
=
308
=
309
=
 40
0.0
 41
2458311.118547685
 42
2458320.267291423
  1

 90
        0
  0
DICTIONARY
  5
22B
102
{ACAD_REACTORS
330
22A
102
}
330
22A
100
AcDbDictionary
281
     1
  0
LAYOUT
  5
1E
102
{ACAD_REACTORS
330
1A
102
}
330
1A
100
AcDbPlotSettings
  1

  2
none_device
  4

  6

 40
0.0
 41
0.0
 42
0.0
 43
0.0
 44
0.0
 45
0.0
 46
0.0
 47
0.0
 48
0.0
 49
0.0
140
0.0
141
0.0
142
1.0
143
1.0
 70
   688
 72
     1
 73
     0
 74
     5
  7

 75
    16
147
1.0
148
0.0
149
0.0
100
AcDbLayout
  1
Layout1
 70
     1
 71
     1
 10
0.0
 20
0.0
 11
420.0
 21
297.0
 12
0.0
 22
0.0
 32
0.0
 14
1.000000000000000E+20
 24
1.000000000000000E+20
 34
1.000000000000000E+20
 15
-1.000000000000000E+20
 25
-1.000000000000000E+20
 35
-1.000000000000000E+20
146
0.0
 13
0.0
 23
0.0
 33
0.0
 16
1.0
 26
0.0
 36
0.0
 17
0.0
 27
1.0
 37
0.0
 76
     0
330
1B
  0
LAYOUT
  5
26
102
{ACAD_REACTORS
330
1A
102
}
330
1A
100
AcDbPlotSettings
  1

  2
none_device
  4

  6

 40
0.0
 41
0.0
 42
0.0
 43
0.0
 44
0.0
 45
0.0
 46
0.0
 47
0.0
 48
0.0
 49
0.0
140
0.0
141
0.0
142
1.0
143
1.0
 70
   688
 72
     1
 73
     0
 74
     5
  7

 75
    16
147
1.0
148
0.0
149
0.0
100
AcDbLayout
  1
Layout2
 70
     1
 71
     2
 10
0.0
 20
0.0
 11
0.0
 21
0.0
 12
0.0
 22
0.0
 32
0.0
 14
0.0
 24
0.0
 34
0.0
 15
0.0
 25
0.0
 35
0.0
146
0.0
 13
0.0
 23
0.0
 33
0.0
 16
1.0
 26
0.0
 36
0.0
 17
0.0
 27
1.0
 37
0.0
 76
     0
330
23
  0
LAYOUT
  5
22
102
{ACAD_REACTORS
330
1A
102
}
330
1A
100
AcDbPlotSettings
  1

  2
none_device
  4
ANSI_A_(11.00_x_8.50_Inches)
  6

 40
6.35
 41
19.05
 42
6.35000508
 43
19.05000254
 44
279.4
 45
215.9
 46
101.5063969000645
 47
95.60607661685118
 48
0.0
 49
0.0
140
0.0
141
0.0
142
0.0740010068895738
143
1.0
 70
  1696
 72
     0
 73
     0
 74
     0
  7

 75
     0
147
0.0235690232323232
148
0.0
149
0.0
100
AcDbLayout
  1
Model
 70
     1
 71
     0
 10
0.0
 20
0.0
 11
420.0
 21
297.0
 12
0.0
 22
0.0
 32
0.0
 14
1.000000000000000E+20
 24
1.000000000000000E+20
 34
1.000000000000000E+20
 15
-1.000000000000000E+20
 25
-1.000000000000000E+20
 35
-1.000000000000000E+20
146
0.0
 13
0.0
 23
0.0
 33
0.0
 16
1.0
 26
0.0
 36
0.0
 17
0.0
 27
1.0
 37
0.0
 76
     0
330
1F
331
29
  0
MLINESTYLE
  5
18
102
{ACAD_REACTORS
330
17
102
}
330
17
100
AcDbMlineStyle
  2
Standard
 70
     0
  3

 62
   256
 51
90.0
 52
90.0
 71
     2
 49
0.5
 62
   256
  6
BYLAYER
 49
-0.5
 62
   256
  6
BYLAYER
  0
ACDBPLACEHOLDER
  5
F
102
{ACAD_REACTORS
330
E
102
}
330
E
  0
SCALE
  5
48
102
{ACAD_REACTORS
330
47
102
}
330
47
100
AcDbScale
 70
     0
300
1:1
140
1.0
141
1.0
290
     1
  0
SCALE
  5
49
102
{ACAD_REACTORS
330
47
102
}
330
47
100
AcDbScale
 70
     0
300
1:2
140
1.0
141
2.0
290
     0
  0
SCALE
  5
4A
102
{ACAD_REACTORS
330
47
102
}
330
47
100
AcDbScale
 70
     0
300
1:4
140
1.0
141
4.0
290
     0
  0
SCALE
  5
4B
102
{ACAD_REACTORS
330
47
102
}
330
47
100
AcDbScale
 70
     0
300
1:5
140
1.0
141
5.0
290
     0
  0
SCALE
  5
4C
102
{ACAD_REACTORS
330
47
102
}
330
47
100
AcDbScale
 70
     0
300
1:8
140
1.0
141
8.0
290
     0
  0
SCALE
  5
4D
102
{ACAD_REACTORS
330
47
102
}
330
47
100
AcDbScale
 70
     0
300
1:10
140
1.0
141
10.0
290
     0
  0
SCALE
  5
4E
102
{ACAD_REACTORS
330
47
102
}
330
47
100
AcDbScale
 70
     0
300
1:16
140
1.0
141
16.0
290
     0
  0
SCALE
  5
4F
102
{ACAD_REACTORS
330
47
102
}
330
47
100
AcDbScale
 70
     0
300
1:20
140
1.0
141
20.0
290
     0
  0
SCALE
  5
50
102
{ACAD_REACTORS
330
47
102
}
330
47
100
AcDbScale
 70
     0
300
1:30
140
1.0
141
30.0
290
     0
  0
SCALE
  5
51
102
{ACAD_REACTORS
330
47
102
}
330
47
100
AcDbScale
 70
     0
300
1:40
140
1.0
141
40.0
290
     0
  0
SCALE
  5
52
102
{ACAD_REACTORS
330
47
102
}
330
47
100
AcDbScale
 70
     0
300
1:50
140
1.0
141
50.0
290
     0
  0
SCALE
  5
53
102
{ACAD_REACTORS
330
47
102
}
330
47
100
AcDbScale
 70
     0
300
1:100
140
1.0
141
100.0
290
     0
  0
SCALE
  5
54
102
{ACAD_REACTORS
330
47
102
}
330
47
100
AcDbScale
 70
     0
300
2:1
140
2.0
141
1.0
290
     0
  0
SCALE
  5
55
102
{ACAD_REACTORS
330
47
102
}
330
47
100
AcDbScale
 70
     0
300
4:1
140
4.0
141
1.0
290
     0
  0
SCALE
  5
56
102
{ACAD_REACTORS
330
47
102
}
330
47
100
AcDbScale
 70
     0
300
8:1
140
8.0
141
1.0
290
     0
  0
SCALE
  5
57
102
{ACAD_REACTORS
330
47
102
}
330
47
100
AcDbScale
 70
     0
300
10:1
140
10.0
141
1.0
290
     0
  0
SCALE
  5
58
102
{ACAD_REACTORS
330
47
102
}
330
47
100
AcDbScale
 70
     0
300
100:1
140
100.0
141
1.0
290
     0
  0
SCALE
  5
59
102
{ACAD_REACTORS
330
47
102
}
330
47
100
AcDbScale
 70
     0
300
1/128" = 1'-0"
140
0.0078125
141
12.0
290
     0
  0
SCALE
  5
5A
102
{ACAD_REACTORS
330
47
102
}
330
47
100
AcDbScale
 70
     0
300
1/64" = 1'-0"
140
0.015625
141
12.0
290
     0
  0
SCALE
  5
5B
102
{ACAD_REACTORS
330
47
102
}
330
47
100
AcDbScale
 70
     0
300
1/32" = 1'-0"
140
0.03125
141
12.0
290
     0
  0
SCALE
  5
5C
102
{ACAD_REACTORS
330
47
102
}
330
47
100
AcDbScale
 70
     0
300
1/16" = 1'-0"
140
0.0625
141
12.0
290
     0
  0
SCALE
  5
5D
102
{ACAD_REACTORS
330
47
102
}
330
47
100
AcDbScale
 70
     0
300
3/32" = 1'-0"
140
0.09375
141
12.0
290
     0
  0
SCALE
  5
5E
102
{ACAD_REACTORS
330
47
102
}
330
47
100
AcDbScale
 70
     0
300
1/8" = 1'-0"
140
0.125
141
12.0
290
     0
  0
SCALE
  5
5F
102
{ACAD_REACTORS
330
47
102
}
330
47
100
AcDbScale
 70
     0
300
3/16" = 1'-0"
140
0.1875
141
12.0
290
     0
  0
SCALE
  5
60
102
{ACAD_REACTORS
330
47
102
}
330
47
100
AcDbScale
 70
     0
300
1/4" = 1'-0"
140
0.25
141
12.0
290
     0
  0
SCALE
  5
61
102
{ACAD_REACTORS
330
47
102
}
330
47
100
AcDbScale
 70
     0
300
3/8" = 1'-0"
140
0.375
141
12.0
290
     0
  0
SCALE
  5
62
102
{ACAD_REACTORS
330
47
102
}
330
47
100
AcDbScale
 70
     0
300
1/2" = 1'-0"
140
0.5
141
12.0
290
     0
  0
SCALE
  5
63
102
{ACAD_REACTORS
330
47
102
}
330
47
100
AcDbScale
 70
     0
300
3/4" = 1'-0"
140
0.75
141
12.0
290
     0
  0
SCALE
  5
64
102
{ACAD_REACTORS
330
47
102
}
330
47
100
AcDbScale
 70
     0
300
1" = 1'-0"
140
1.0
141
12.0
290
     0
  0
SCALE
  5
65
102
{ACAD_REACTORS
330
47
102
}
330
47
100
AcDbScale
 70
     0
300
1-1/2" = 1'-0"
140
1.5
141
12.0
290
     0
  0
SCALE
  5
66
102
{ACAD_REACTORS
330
47
102
}
330
47
100
AcDbScale
 70
     0
300
3" = 1'-0"
140
3.0
141
12.0
290
     0
  0
SCALE
  5
67
102
{ACAD_REACTORS
330
47
102
}
330
47
100
AcDbScale
 70
     0
300
6" = 1'-0"
140
6.0
141
12.0
290
     0
  0
SCALE
  5
68
102
{ACAD_REACTORS
330
47
102
}
330
47
100
AcDbScale
 70
     0
300
1'-0" = 1'-0"
140
12.0
141
12.0
290
     0
  0
ENDSEC
  0
EOF
