  0
SECTION
  2
HEADER
  9
$ACADVER
  1
AC1015
  9
$ACADMAINTVER
 70
     6
  9
$DWGCODEPAGE
  3
ANSI_949
  9
$INSBASE
 10
0.0
 20
0.0
 30
0.0
  9
$EXTMIN
 10
1.000000000000000E+20
 20
1.000000000000000E+20
 30
1.000000000000000E+20
  9
$EXTMAX
 10
-1.000000000000000E+20
 20
-1.000000000000000E+20
 30
-1.000000000000000E+20
  9
$LIMMIN
 10
0.0
 20
0.0
  9
$LIMMAX
 10
420.0
 20
297.0
  9
$ORTHOMODE
 70
     1
  9
$REGENMODE
 70
     1
  9
$FILLMODE
 70
     1
  9
$QTEXTMODE
 70
     0
  9
$MIRRTEXT
 70
     1
  9
$LTSCALE
 40
1.0
  9
$ATTMODE
 70
     1
  9
$TEXTSIZE
 40
3.5
  9
$TRACEWID
 40
1.0
  9
$TEXTSTYLE
  7
Standard
  9
$CLAYER
  8
0
  9
$CELTYPE
  6
ByLayer
  9
$CECOLOR
 62
   256
  9
$CELTSCALE
 40
1.0
  9
$DISPSILH
 70
     0
  9
$DIMSCALE
 40
1.0
  9
$DIMASZ
 40
3.302
  9
$DIMEXO
 40
1.0
  9
$DIMDLI
 40
3.75
  9
$DIMRND
 40
0.0
  9
$DIMDLE
 40
0.0
  9
$DIMEXE
 40
1.0
  9
$DIMTP
 40
0.0
  9
$DIMTM
 40
0.0
  9
$DIMTXT
 40
3.5
  9
$DIMCEN
 40
2.5
  9
$DIMTSZ
 40
0.0
  9
$DIMTOL
 70
     0
  9
$DIMLIM
 70
     0
  9
$DIMTIH
 70
     1
  9
$DIMTOH
 70
     1
  9
$DIMSE1
 70
     0
  9
$DIMSE2
 70
     0
  9
$DIMTAD
 70
     1
  9
$DIMZIN
 70
     0
  9
$DIMBLK
  1

  9
$DIMASO
 70
     1
  9
$DIMSHO
 70
     1
  9
$DIMPOST
  1

  9
$DIMAPOST
  1

  9
$DIMALT
 70
     0
  9
$DIMALTD
 70
     3
  9
$DIMALTF
 40
0.0393700787401575
  9
$DIMLFAC
 40
1.0
  9
$DIMTOFL
 70
     1
  9
$DIMTVP
 40
0.0
  9
$DIMTIX
 70
     0
  9
$DIMSOXD
 70
     0
  9
$DIMSAH
 70
     0
  9
$DIMBLK1
  1

  9
$DIMBLK2
  1

  9
$DIMSTYLE
  2
ISO-25
  9
$DIMCLRD
 70
     0
  9
$DIMCLRE
 70
     0
  9
$DIMCLRT
 70
     0
  9
$DIMTFAC
 40
1.0
  9
$DIMGAP
 40
1.524
  9
$DIMJUST
 70
     0
  9
$DIMSD1
 70
     0
  9
$DIMSD2
 70
     0
  9
$DIMTOLJ
 70
     0
  9
$DIMTZIN
 70
     0
  9
$DIMALTZ
 70
     0
  9
$DIMALTTZ
 70
     0
  9
$DIMUPT
 70
     0
  9
$DIMDEC
 70
     2
  9
$DIMTDEC
 70
     2
  9
$DIMALTU
 70
     2
  9
$DIMALTTD
 70
     3
  9
$DIMTXSTY
  7
Standard
  9
$DIMAUNIT
 70
     0
  9
$DIMADEC
 70
     2
  9
$DIMALTRND
 40
0.0
  9
$DIMAZIN
 70
     0
  9
$DIMDSEP
 70
    44
  9
$DIMATFIT
 70
     3
  9
$DIMFRAC
 70
     0
  9
$DIMLDRBLK
  1

  9
$DIMLUNIT
 70
     2
  9
$DIMLWD
 70
    -2
  9
$DIMLWE
 70
    -2
  9
$DIMTMOVE
 70
     0
  9
$LUNITS
 70
     2
  9
$LUPREC
 70
     2
  9
$SKETCHINC
 40
1.0
  9
$FILLETRAD
 40
10.0
  9
$AUNITS
 70
     0
  9
$AUPREC
 70
     2
  9
$MENU
  1
.
  9
$ELEVATION
 40
0.0
  9
$PELEVATION
 40
0.0
  9
$THICKNESS
 40
0.0
  9
$LIMCHECK
 70
     0
  9
$CHAMFERA
 40
0.0
  9
$CHAMFERB
 40
0.0
  9
$CHAMFERC
 40
0.0
  9
$CHAMFERD
 40
0.0
  9
$SKPOLY
 70
     0
  9
$TDCREATE
 40
2458311.493336979
  9
$TDUCREATE
 40
2458311.118336979
  9
$TDUPDATE
 40
2458320.641099907
  9
$TDUUPDATE
 40
2458320.266099907
  9
$TDINDWG
 40
0.0020202083
  9
$TDUSRTIMER
 40
2458320.264079884
  9
$USRTIMER
 70
     1
  9
$ANGBASE
 50
0.0
  9
$ANGDIR
 70
     0
  9
$PDMODE
 70
     0
  9
$PDSIZE
 40
-1.0
  9
$PLINEWID
 40
0.0
  9
$SPLFRAME
 70
     0
  9
$SPLINETYPE
 70
     6
  9
$SPLINESEGS
 70
     8
  9
$HANDSEED
  5
2EE
  9
$SURFTAB1
 70
     6
  9
$SURFTAB2
 70
     6
  9
$SURFTYPE
 70
     6
  9
$SURFU
 70
     6
  9
$SURFV
 70
     6
  9
$UCSBASE
  2

  9
$UCSNAME
  2

  9
$UCSORG
 10
0.0
 20
0.0
 30
0.0
  9
$UCSXDIR
 10
1.0
 20
0.0
 30
0.0
  9
$UCSYDIR
 10
0.0
 20
1.0
 30
0.0
  9
$UCSORTHOREF
  2

  9
$UCSORTHOVIEW
 70
     0
  9
$UCSORGTOP
 10
0.0
 20
0.0
 30
0.0
  9
$UCSORGBOTTOM
 10
0.0
 20
0.0
 30
0.0
  9
$UCSORGLEFT
 10
0.0
 20
0.0
 30
0.0
  9
$UCSORGRIGHT
 10
0.0
 20
0.0
 30
0.0
  9
$UCSORGFRONT
 10
0.0
 20
0.0
 30
0.0
  9
$UCSORGBACK
 10
0.0
 20
0.0
 30
0.0
  9
$PUCSBASE
  2

  9
$PUCSNAME
  2

  9
$PUCSORG
 10
0.0
 20
0.0
 30
0.0
  9
$PUCSXDIR
 10
1.0
 20
0.0
 30
0.0
  9
$PUCSYDIR
 10
0.0
 20
1.0
 30
0.0
  9
$PUCSORTHOREF
  2

  9
$PUCSORTHOVIEW
 70
     0
  9
$PUCSORGTOP
 10
0.0
 20
0.0
 30
0.0
  9
$PUCSORGBOTTOM
 10
0.0
 20
0.0
 30
0.0
  9
$PUCSORGLEFT
 10
0.0
 20
0.0
 30
0.0
  9
$PUCSORGRIGHT
 10
0.0
 20
0.0
 30
0.0
  9
$PUCSORGFRONT
 10
0.0
 20
0.0
 30
0.0
  9
$PUCSORGBACK
 10
0.0
 20
0.0
 30
0.0
  9
$USERI1
 70
     0
  9
$USERI2
 70
     0
  9
$USERI3
 70
     0
  9
$USERI4
 70
     0
  9
$USERI5
 70
     0
  9
$USERR1
 40
0.0
  9
$USERR2
 40
0.0
  9
$USERR3
 40
0.0
  9
$USERR4
 40
0.0
  9
$USERR5
 40
0.0
  9
$WORLDVIEW
 70
     1
  9
$SHADEDGE
 70
     3
  9
$SHADEDIF
 70
    70
  9
$TILEMODE
 70
     1
  9
$MAXACTVP
 70
    64
  9
$PINSBASE
 10
0.0
 20
0.0
 30
0.0
  9
$PLIMCHECK
 70
     0
  9
$PEXTMIN
 10
1.000000000000000E+20
 20
1.000000000000000E+20
 30
1.000000000000000E+20
  9
$PEXTMAX
 10
-1.000000000000000E+20
 20
-1.000000000000000E+20
 30
-1.000000000000000E+20
  9
$PLIMMIN
 10
0.0
 20
0.0
  9
$PLIMMAX
 10
0.0
 20
0.0
  9
$UNITMODE
 70
     0
  9
$VISRETAIN
 70
     1
  9
$PLINEGEN
 70
     0
  9
$PSLTSCALE
 70
     1
  9
$TREEDEPTH
 70
  3020
  9
$CMLSTYLE
  2
Standard
  9
$CMLJUST
 70
     0
  9
$CMLSCALE
 40
20.0
  9
$PROXYGRAPHICS
 70
     1
  9
$MEASUREMENT
 70
     1
  9
$CELWEIGHT
370
    -1
  9
$ENDCAPS
280
     0
  9
$JOINSTYLE
280
     0
  9
$LWDISPLAY
290
     1
  9
$INSUNITS
 70
     4
  9
$HYPERLINKBASE
  1

  9
$STYLESHEET
  1

  9
$XEDIT
290
     1
  9
$CEPSNTYPE
380
     0
  9
$PSTYLEMODE
290
     1
  9
$FINGERPRINTGUID
  2
{3322158F-56BA-44E4-8829-30CEA086C0D4}
  9
$VERSIONGUID
  2
{FAEB1C32-E019-11D5-929B-00C0DF256EC4}
  9
$EXTNAMES
290
     1
  9
$PSVPSCALE
 40
0.0
  9
$OLESTARTUP
290
     0
  0
ENDSEC
  0
SECTION
  2
CLASSES
  0
CLASS
  1
ACDBDICTIONARYWDFLT
  2
AcDbDictionaryWithDefault
  3
ObjectDBX Classes
 90
        0
280
     0
281
     0
  0
CLASS
  1
VISUALSTYLE
  2
AcDbVisualStyle
  3
ObjectDBX Classes
 90
     4095
280
     0
281
     0
  0
CLASS
  1
MATERIAL
  2
AcDbMaterial
  3
ObjectDBX Classes
 90
     1153
280
     0
281
     0
  0
CLASS
  1
SCALE
  2
AcDbScale
  3
ObjectDBX Classes
 90
     1153
280
     0
281
     0
  0
CLASS
  1
SUN
  2
AcDbSun
  3
SCENEOE
 90
     1153
280
     0
281
     0
  0
CLASS
  1
ACDBPLACEHOLDER
  2
AcDbPlaceHolder
  3
ObjectDBX Classes
 90
        0
280
     0
281
     0
  0
CLASS
  1
LAYOUT
  2
AcDbLayout
  3
ObjectDBX Classes
 90
        0
280
     0
281
     0
  0
CLASS
  1
TABLESTYLE
  2
AcDbTableStyle
  3
ObjectDBX Classes
 90
     4095
280
     0
281
     0
  0
CLASS
  1
MLEADERSTYLE
  2
AcDbMLeaderStyle
  3
ACDB_MLEADERSTYLE_CLASS
 90
     4095
280
     0
281
     0
  0
CLASS
  1
RASTERVARIABLES
  2
AcDbRasterVariables
  3
ISM
 90
        0
280
     0
281
     0
  0
ENDSEC
  0
SECTION
  2
TABLES
  0
TABLE
  2
VPORT
  5
8
330
0
100
AcDbSymbolTable
 70
     1
  0
VPORT
  5
29
330
8
100
AcDbSymbolTableRecord
100
AcDbViewportTableRecord
  2
*Active
 70
     0
 10
0.0
 20
0.0
 11
1.0
 21
1.0
 12
-2.38041114555989
 22
4.213132995288909
 13
0.0
 23
0.0
 14
10.0
 24
10.0
 15
10.0
 25
10.0
 16
0.0
 26
0.0
 36
1.0
 17
0.0
 27
0.0
 37
0.0
 40
77.44927643691719
 41
1.970186335403727
 42
50.0
 43
0.0
 44
0.0
 50
0.0
 51
0.0
 71
    16
 72
  2000
 73
     1
 74
     3
 75
     0
 76
     0
 77
     0
 78
     0
281
     0
 65
     1
110
0.0
120
0.0
130
0.0
111
1.0
121
0.0
131
0.0
112
0.0
122
1.0
132
0.0
 79
     0
146
0.0
  0
ENDTAB
  0
TABLE
  2
LTYPE
  5
5
330
0
100
AcDbSymbolTable
 70
     6
  0
LTYPE
  5
14
330
5
100
AcDbSymbolTableRecord
100
AcDbLinetypeTableRecord
  2
ByBlock
 70
     0
  3

 72
    65
 73
     0
 40
0.0
  0
LTYPE
  5
15
330
5
100
AcDbSymbolTableRecord
100
AcDbLinetypeTableRecord
  2
ByLayer
 70
     0
  3

 72
    65
 73
     0
 40
0.0
  0
LTYPE
  5
16
330
5
100
AcDbSymbolTableRecord
100
AcDbLinetypeTableRecord
  2
Continuous
 70
     0
  3
Solid line
 72
    65
 73
     0
 40
0.0
  0
LTYPE
  5
6A
330
5
100
AcDbSymbolTableRecord
100
AcDbLinetypeTableRecord
  2
HIDDEN
 70
     0
  3
Hidden __ __ __ __ __ __ __ __ __ __ __ __ __ __
 72
    65
 73
     2
 40
1.905
 49
1.27
 74
     0
 49
-0.635
 74
     0
  0
LTYPE
  5
6B
330
5
100
AcDbSymbolTableRecord
100
AcDbLinetypeTableRecord
  2
PHANTOM
 70
     0
  3
Phantom ______  __  __  ______  __  __  ______
 72
    65
 73
     6
 40
12.7
 49
6.35
 74
     0
 49
-1.27
 74
     0
 49
1.27
 74
     0
 49
-1.27
 74
     0
 49
1.27
 74
     0
 49
-1.27
 74
     0
  0
LTYPE
  5
6C
330
5
100
AcDbSymbolTableRecord
100
AcDbLinetypeTableRecord
  2
CENTER
 70
     0
  3
Center ____ _ ____ _ ____ _ ____ _ ____ _ ____
 72
    65
 73
     4
 40
10.16
 49
6.35
 74
     0
 49
-1.27
 74
     0
 49
1.27
 74
     0
 49
-1.27
 74
     0
  0
LTYPE
  5
6D
330
5
100
AcDbSymbolTableRecord
100
AcDbLinetypeTableRecord
  2
CENTERX2
 70
     0
  3
Center (2x) ________  __  ________  __  _____
 72
    65
 73
     4
 40
20.32
 49
12.7
 74
     0
 49
-2.54
 74
     0
 49
2.54
 74
     0
 49
-2.54
 74
     0
  0
LTYPE
  5
6E
330
5
100
AcDbSymbolTableRecord
100
AcDbLinetypeTableRecord
  2
DOT2
 70
     0
  3
Dot (.5x) ........................................
 72
    65
 73
     2
 40
0.635
 49
0.0
 74
     0
 49
-0.635
 74
     0
  0
ENDTAB
  0
TABLE
  2
LAYER
  5
2
102
{ACAD_XDICTIONARY
360
230
102
}
330
0
100
AcDbSymbolTable
 70
    18
  0
LAYER
  5
10
330
2
100
AcDbSymbolTableRecord
100
AcDbLayerTableRecord
  2
0
 70
     0
 62
     7
  6
Continuous
370
    -3
390
F
  0
LAYER
  5
6F
330
2
100
AcDbSymbolTableRecord
100
AcDbLayerTableRecord
  2
FORMAT
 70
     0
 62
     2
  6
Continuous
370
    -3
390
F
  0
LAYER
  5
70
330
2
100
AcDbSymbolTableRecord
100
AcDbLayerTableRecord
  2
외형선
 70
     0
 62
     4
  6
Continuous
370
    30
390
F
  0
LAYER
  5
71
330
2
100
AcDbSymbolTableRecord
100
AcDbLayerTableRecord
  2
숨은선
 70
     0
 62
     2
  6
HIDDEN
370
    15
390
F
  0
LAYER
  5
72
330
2
100
AcDbSymbolTableRecord
100
AcDbLayerTableRecord
  2
중심선
 70
     0
 62
     1
  6
CENTERX2
370
    -3
390
F
  0
LAYER
  5
73
330
2
100
AcDbSymbolTableRecord
100
AcDbLayerTableRecord
  2
파단선
 70
     0
 62
     4
  6
Continuous
370
    -3
390
F
  0
LAYER
  5
74
330
2
100
AcDbSymbolTableRecord
100
AcDbLayerTableRecord
  2
해칭선
 70
     0
 62
   100
  6
Continuous
370
    -3
390
F
  0
LAYER
  5
75
330
2
100
AcDbSymbolTableRecord
100
AcDbLayerTableRecord
  2
가는실선
 70
     0
 62
     4
  6
Continuous
370
    -3
390
F
  0
LAYER
  5
76
330
2
100
AcDbSymbolTableRecord
100
AcDbLayerTableRecord
  2
치수_보조선
 70
     0
 62
     4
  6
Continuous
370
    -3
390
F
  0
LAYER
  5
77
330
2
100
AcDbSymbolTableRecord
100
AcDbLayerTableRecord
  2
치수문자_일반주서
 70
     0
 62
     7
  6
Continuous
370
    15
390
F
  0
LAYER
  5
78
330
2
100
AcDbSymbolTableRecord
100
AcDbLayerTableRecord
  2
개별주서
 70
     0
 62
   100
  6
Continuous
370
    30
390
F
  0
LAYER
  5
79
330
2
100
AcDbSymbolTableRecord
100
AcDbLayerTableRecord
  2
중간선
 70
     0
 62
     2
  6
Continuous
370
    15
390
F
  0
LAYER
  5
7A
330
2
100
AcDbSymbolTableRecord
100
AcDbLayerTableRecord
  2
윤곽선
 70
     0
 62
     3
  6
Continuous
370
    40
390
F
  0
LAYER
  5
7B
330
2
100
AcDbSymbolTableRecord
100
AcDbLayerTableRecord
  2
중심마크
 70
     0
 62
   100
  6
Continuous
370
    30
390
F
  0
LAYER
  5
7C
330
2
100
AcDbSymbolTableRecord
100
AcDbLayerTableRecord
  2
가상선
 70
     0
 62
     4
  6
PHANTOM
370
    -3
390
F
  0
LAYER
  5
7D
330
2
100
AcDbSymbolTableRecord
100
AcDbLayerTableRecord
  2
특수지정선
 70
     0
 62
     5
  6
CENTERX2
370
    60
390
F
  0
LAYER
  5
7E
330
2
100
AcDbSymbolTableRecord
100
AcDbLayerTableRecord
  2
참조1
 70
     0
 62
    -4
  6
Continuous
370
    -3
390
F
  0
LAYER
  5
178
330
2
100
AcDbSymbolTableRecord
100
AcDbLayerTableRecord
  2
Defpoints
 70
     0
 62
     7
  6
Continuous
290
     0
370
    -3
390
F
  0
ENDTAB
  0
TABLE
  2
STYLE
  5
3
330
0
100
AcDbSymbolTable
 70
     2
  0
STYLE
  5
11
330
3
100
AcDbSymbolTableRecord
100
AcDbTextStyleTableRecord
  2
Standard
 70
     0
 40
0.0
 41
1.0
 50
0.0
 71
     0
 42
3.5
  3
txt
  4

  0
STYLE
  5
94
330
3
100
AcDbSymbolTableRecord
100
AcDbTextStyleTableRecord
  2
SLDTEXTSTYLE0
 70
     0
 40
0.0
 41
0.75
 50
0.0
 71
     0
 42
3.5
  3
TXT
  4

  0
ENDTAB
  0
TABLE
  2
VIEW
  5
6
330
0
100
AcDbSymbolTable
 70
     0
  0
ENDTAB
  0
TABLE
  2
UCS
  5
7
330
0
100
AcDbSymbolTable
 70
     0
  0
ENDTAB
  0
TABLE
  2
APPID
  5
9
330
0
100
AcDbSymbolTable
 70
     3
  0
APPID
  5
12
330
9
100
AcDbSymbolTableRecord
100
AcDbRegAppTableRecord
  2
ACAD
 70
     0
  0
APPID
  5
184
330
9
100
AcDbSymbolTableRecord
100
AcDbRegAppTableRecord
  2
PE_URL
 70
     0
  0
APPID
  5
185
330
9
100
AcDbSymbolTableRecord
100
AcDbRegAppTableRecord
  2
ACAD_DSTYLE_DIMRADIAL_EXTENSION
 70
     0
  0
ENDTAB
  0
TABLE
  2
DIMSTYLE
  5
A
330
0
100
AcDbSymbolTable
 70
     4
100
AcDbDimStyleTable
  0
DIMSTYLE
105
27
330
A
100
AcDbSymbolTableRecord
100
AcDbDimStyleTableRecord
  2
ISO-25
 70
     0
 41
2.5
 42
0.625
 43
3.75
 44
1.25
 73
     0
 74
     0
 77
     1
 78
     8
140
2.5
141
2.5
143
0.03937007874016
147
0.625
171
     3
172
     1
178
     0
271
     2
272
     2
274
     3
278
    44
283
     0
284
     8
340
11
  0
DIMSTYLE
105
F5
102
{ACAD_REACTORS
330
F4
330
131
330
1E4
330
1F1
330
109
330
11E
102
}
330
A
100
AcDbSymbolTableRecord
100
AcDbDimStyleTableRecord
  2
SLDDIMSTYLE0
 70
     0
 41
3.302
 44
0.0
 45
0.000000001
 73
     0
 74
     0
 77
     1
 78
    12
 79
     3
140
3.5
143
0.0393700787401575
147
0.875
148
0.000000001
170
     1
172
     1
173
     1
178
     0
271
     2
272
     2
276
     2
284
    12
289
     0
340
94
  0
DIMSTYLE
105
10A
102
{ACAD_REACTORS
330
227
102
}
330
A
100
AcDbSymbolTableRecord
100
AcDbDimStyleTableRecord
  2
SLDDIMSTYLE1
 70
     0
 41
3.302
 44
0.0
 45
0.000000001
 73
     0
 74
     0
 77
     1
 78
     4
 79
     1
140
3.5
143
0.0393700787401575
147
0.875
148
0.000000001
170
     1
173
     1
178
     0
271
     2
272
     2
276
     2
284
    12
340
94
  0
DIMSTYLE
105
183
102
{ACAD_REACTORS
330
1FE
330
20D
102
}
330
A
100
AcDbSymbolTableRecord
100
AcDbDimStyleTableRecord
  2
SLDDIMSTYLE2
 70
     0
 41
3.302
 44
0.0
 45
0.000000001
 73
     0
 74
     0
 77
     1
 78
    12
 79
     3
140
3.5
147
0.875
172
     1
173
     1
178
     0
271
     2
272
     2
276
     2
284
    12
289
     0
340
94
  0
ENDTAB
  0
TABLE
  2
BLOCK_RECORD
  5
1
330
0
100
AcDbSymbolTable
 70
    18
  0
BLOCK_RECORD
  5
1F
330
1
100
AcDbSymbolTableRecord
100
AcDbBlockTableRecord
  2
*Model_Space
340
22
  0
BLOCK_RECORD
  5
1B
330
1
100
AcDbSymbolTableRecord
100
AcDbBlockTableRecord
  2
*Paper_Space
340
1E
  0
BLOCK_RECORD
  5
23
330
1
100
AcDbSymbolTableRecord
100
AcDbBlockTableRecord
  2
*Paper_Space0
340
26
  0
BLOCK_RECORD
  5
7F
330
1
100
AcDbSymbolTableRecord
100
AcDbBlockTableRecord
  2
블럭10
340
0
102
{BLKREFS
331
ED
102
}
  0
BLOCK_RECORD
  5
F6
330
1
100
AcDbSymbolTableRecord
100
AcDbBlockTableRecord
  2
_D
340
0
  0
BLOCK_RECORD
  5
10B
330
1
100
AcDbSymbolTableRecord
100
AcDbBlockTableRecord
  2
_D_1
340
0
  0
BLOCK_RECORD
  5
11F
330
1
100
AcDbSymbolTableRecord
100
AcDbBlockTableRecord
  2
_D_2
340
0
  0
BLOCK_RECORD
  5
132
330
1
100
AcDbSymbolTableRecord
100
AcDbBlockTableRecord
  2
_D_3
340
0
  0
BLOCK_RECORD
  5
14C
330
1
100
AcDbSymbolTableRecord
100
AcDbBlockTableRecord
  2
SW_DOWELSYMBOL_0
340
0
102
{BLKREFS
331
152
331
21C
331
0
102
}
  0
BLOCK_RECORD
  5
20E
330
1
100
AcDbSymbolTableRecord
100
AcDbBlockTableRecord
  2
_D_4
340
0
  0
BLOCK_RECORD
  5
228
330
1
100
AcDbSymbolTableRecord
100
AcDbBlockTableRecord
  2
*D9
340
0
  0
BLOCK_RECORD
  5
234
330
1
100
AcDbSymbolTableRecord
100
AcDbBlockTableRecord
  2
*D10
340
0
  0
BLOCK_RECORD
  5
240
330
1
100
AcDbSymbolTableRecord
100
AcDbBlockTableRecord
  2
*D11
340
0
  0
BLOCK_RECORD
  5
24C
330
1
100
AcDbSymbolTableRecord
100
AcDbBlockTableRecord
  2
*D12
340
0
  0
BLOCK_RECORD
  5
2A7
330
1
100
AcDbSymbolTableRecord
100
AcDbBlockTableRecord
  2
*D13
340
0
  0
BLOCK_RECORD
  5
2B3
330
1
100
AcDbSymbolTableRecord
100
AcDbBlockTableRecord
  2
*D14
340
0
  0
BLOCK_RECORD
  5
2BF
330
1
100
AcDbSymbolTableRecord
100
AcDbBlockTableRecord
  2
*D15
340
0
  0
BLOCK_RECORD
  5
2CD
330
1
100
AcDbSymbolTableRecord
100
AcDbBlockTableRecord
  2
*D16
340
0
  0
BLOCK_RECORD
  5
2DB
330
1
100
AcDbSymbolTableRecord
100
AcDbBlockTableRecord
  2
*D17
340
0
  0
ENDTAB
  0
ENDSEC
  0
SECTION
  2
BLOCKS
  0
BLOCK
  5
20
330
1F
100
AcDbEntity
  8
0
100
AcDbBlockBegin
  2
*Model_Space
 70
     0
 10
0.0
 20
0.0
 30
0.0
  3
*Model_Space
  1
*Model_Space
  0
ENDBLK
  5
21
330
1F
100
AcDbEntity
  8
0
100
AcDbBlockEnd
  0
BLOCK
  5
1C
330
1B
100
AcDbEntity
 67
     1
  8
0
100
AcDbBlockBegin
  2
*Paper_Space
 70
     0
 10
0.0
 20
0.0
 30
0.0
  3
*Paper_Space
  1
*Paper_Space
  0
ENDBLK
  5
1D
330
1B
100
AcDbEntity
 67
     1
  8
0
100
AcDbBlockEnd
  0
BLOCK
  5
24
330
23
100
AcDbEntity
  8
0
100
AcDbBlockBegin
  2
*Paper_Space0
 70
     0
 10
0.0
 20
0.0
 30
0.0
  3
*Paper_Space0
  1
*Paper_Space0
  0
ENDBLK
  5
25
330
23
100
AcDbEntity
  8
0
100
AcDbBlockEnd
  0
BLOCK
  5
80
330
7F
100
AcDbEntity
  8
0
100
AcDbBlockBegin
  2
블럭10
 70
     2
 10
0.0
 20
0.0
 30
0.0
  3
블럭10
  1
블럭10
  0
ELLIPSE
  5
82
330
7F
100
AcDbEntity
  8
중심선
100
AcDbEllipse
 10
20.54032771741204
 20
12.0471743016438
 30
0.0
 11
6.600054785286829
 21
-1.261213355974178E-13
 31
0.0
210
0.0
220
0.0
230
1.0
 40
0.636358354079598
 41
0.9219305317359503
 42
6.513795318482858
  0
ELLIPSE
  5
83
330
7F
100
AcDbEntity
  8
중심선
100
AcDbEllipse
 10
20.54032771746488
 20
12.04717430159265
 30
0.0
 11
3.960054785062283
 21
1.540847449632565E-10
 31
0.0
210
0.0
220
0.0
230
1.0
 40
0.3939339440162632
 41
1.131841032648279
 42
5.62031148352944
  0
LINE
  5
84
330
7F
100
AcDbEntity
  8
중심선
100
AcDbLine
 10
2.268634060543552
 20
16.24717430164393
 30
0.0
 11
5.714909304380834
 21
16.24717430164393
 31
0.0
  0
LINE
  5
85
330
7F
100
AcDbEntity
  8
중심선
100
AcDbLine
 10
5.245725140726316
 20
7.84717430164391
 30
0.0
 11
8.692000384563599
 21
7.84717430164391
 31
0.0
  0
LINE
  5
86
330
7F
100
AcDbEntity
  8
중심선
100
AcDbLine
 10
15.74043728645272
 20
16.24717430164393
 30
0.0
 11
8.692000384563599
 21
7.84717430164391
 31
0.0
  0
LINE
  5
87
330
7F
100
AcDbEntity
  8
중심선
100
AcDbLine
 10
0.1404042013395286
 20
13.71084872107135
 30
0.0
 11
3.58671253028996
 21
13.71088815037384
 31
0.0
  0
LINE
  5
88
330
7F
100
AcDbEntity
  8
중심선
100
AcDbLine
 10
2.750260043222114
 20
10.84717430164391
 30
0.0
 11
6.196535287059397
 21
10.84717430164391
 31
0.0
  0
LINE
  5
89
330
7F
100
AcDbEntity
  8
중심선
100
AcDbLine
 10
12.29416204261559
 20
16.24717430164393
 30
0.0
 11
5.245725140726316
 21
7.84717430164391
 31
0.0
  0
LINE
  5
8A
330
7F
100
AcDbEntity
  8
중심선
100
AcDbLine
 10
10.72767329541681
 20
16.24717430164393
 30
0.0
 11
6.196535287059397
 21
10.84717430164391
 31
0.0
  0
LINE
  5
8B
330
7F
100
AcDbEntity
  8
중심선
100
AcDbLine
 10
7.28139805157953
 20
16.24717430164393
 30
0.0
 11
2.750260043222114
 21
10.84717430164391
 31
0.0
  0
LINE
  5
8C
330
7F
100
AcDbEntity
  8
중심선
100
AcDbLine
 10
5.714909304380834
 20
16.24717430164393
 30
0.0
 11
3.58671253028996
 21
13.71088815037384
 31
0.0
  0
LINE
  5
8D
330
7F
100
AcDbEntity
  8
중심선
100
AcDbLine
 10
2.268634060543552
 20
16.24717430164393
 30
0.0
 11
0.1404042013395286
 21
13.71084872107135
 31
0.0
  0
LINE
  5
8E
330
7F
100
AcDbEntity
  8
중심선
100
AcDbLine
 10
7.28139805157953
 20
16.24717430164393
 30
0.0
 11
10.72767329541681
 21
16.24717430164393
 31
0.0
  0
LINE
  5
8F
330
7F
100
AcDbEntity
  8
중심선
100
AcDbLine
 10
12.29416204261559
 20
16.24717430164393
 30
0.0
 11
15.74043728645272
 21
16.24717430164393
 31
0.0
  0
LINE
  5
90
330
7F
100
AcDbEntity
  8
중심선
100
AcDbLine
 10
19.22036997980202
 20
11.08717430171403
 30
0.0
 11
23.66174974927406
 21
11.08717430171406
 31
0.0
  0
LINE
  5
91
330
7F
100
AcDbEntity
  8
중심선
100
AcDbLine
 10
19.22039502424796
 20
13.00717430171391
 30
0.0
 11
19.22036997980202
 21
11.08717430171403
 31
0.0
  0
LINE
  5
92
330
7F
100
AcDbEntity
  8
중심선
100
AcDbLine
 10
19.22039502424796
 20
13.00717430171391
 30
0.0
 11
26.96566020931264
 21
13.00717430171391
 31
0.0
  0
LINE
  5
93
330
7F
100
AcDbEntity
  8
중심선
100
AcDbLine
 10
22.22332737316547
 20
13.45928029700563
 30
0.0
 11
24.52862924686651
 21
15.39360700705356
 31
0.0
  0
ATTDEF
  5
95
330
7F
100
AcDbEntity
  8
FORMAT
 62
     2
100
AcDbText
 10
4.408487351596664
 20
2.075366912832191
 30
0.0
 40
4.233333333333333
  1
E5026008
 41
0.75
  7
SLDTEXTSTYLE0
 11
4.408487351596664
 21
-0.0412997538344756
 31
0.0
100
AcDbAttributeDefinition
  3

  2
AUTOATTR0
 70
     0
 74
     1
  0
ENDBLK
  5
81
330
7F
100
AcDbEntity
  8
0
100
AcDbBlockEnd
  0
BLOCK
  5
F7
330
F6
100
AcDbEntity
  8
0
100
AcDbBlockBegin
  2
_D
 70
     0
 10
0.0
 20
0.0
 30
0.0
  3
_D
  1
_D
  0
LINE
  5
F9
330
F6
100
AcDbEntity
  8
치수문자_일반주서
 62
     0
370
    -2
100
AcDbLine
 10
-40.4325
 20
1.58749999999999
 30
0.0
 11
-52.48743677286707
 21
1.587499999999945
 31
0.0
  0
LINE
  5
FA
330
F6
100
AcDbEntity
  8
치수문자_일반주서
 62
     0
370
    -2
100
AcDbLine
 10
-40.4325
 20
-1.587499999999993
 30
0.0
 11
-52.48743677286706
 21
-1.587500000000038
 31
0.0
  0
LINE
  5
FB
330
F6
100
AcDbEntity
  8
치수문자_일반주서
 62
     0
370
    -2
100
AcDbLine
 10
-52.48743677286707
 20
1.587499999999945
 30
0.0
 11
-52.48743677286721
 21
32.91024999999995
 31
0.0
  0
LINE
  5
FC
330
F6
100
AcDbEntity
  8
치수문자_일반주서
 62
     0
370
    -2
100
AcDbLine
 10
-52.48743677286707
 20
1.587499999999945
 30
0.0
 11
-52.48743677286706
 21
-1.587500000000038
 31
0.0
  0
LINE
  5
FD
330
F6
100
AcDbEntity
  8
치수문자_일반주서
 62
     0
370
    -2
100
AcDbLine
 10
-52.48743677286708
 20
4.889499999999945
 30
0.0
 11
-52.4874367728671
 21
8.191499999999944
 31
0.0
  0
LINE
  5
FE
330
F6
100
AcDbEntity
  8
치수문자_일반주서
 62
     0
370
    -2
100
AcDbLine
 10
-52.48743677286704
 20
-4.889500000000037
 30
0.0
 11
-52.48743677286703
 21
-8.191500000000037
 31
0.0
  0
SOLID
  5
FF
330
F6
100
AcDbEntity
  8
치수문자_일반주서
 62
     0
100
AcDbTrace
 10
-53.03777010620042
 20
4.889499999999942
 30
0.0
 11
-51.93710343953375
 21
4.889499999999948
 31
0.0
 12
-52.48743677286707
 22
1.587499999999945
 32
0.0
 13
-52.48743677286707
 23
1.587499999999945
 33
0.0
  0
SOLID
  5
100
330
F6
100
AcDbEntity
  8
치수문자_일반주서
 62
     0
100
AcDbTrace
 10
-51.93710343953371
 20
-4.889500000000035
 30
0.0
 11
-53.03777010620038
 21
-4.88950000000004
 31
0.0
 12
-52.48743677286706
 22
-1.587500000000038
 32
0.0
 13
-52.48743677286706
 23
-1.587500000000038
 33
0.0
  0
MTEXT
  5
101
330
F6
100
AcDbEntity
  8
치수문자_일반주서
 62
     0
100
AcDbMText
 10
-56.86243677286716
 20
20.66024999999993
 30
0.0
 40
3.5
 41
0.0
 71
     2
 72
     1
  1
\A1;%%c3.18 [1/8]
  7
SLDTEXTSTYLE0
 11
-4.475859752819552E-15
 21
1.0
 31
0.0
 73
     1
 44
1.0
  0
POINT
  5
2E5
330
F6
100
AcDbEntity
  8
Defpoints
 62
     0
100
AcDbPoint
 10
-40.37
 20
1.587499999999991
 30
0.0
  0
POINT
  5
2E6
330
F6
100
AcDbEntity
  8
Defpoints
 62
     0
100
AcDbPoint
 10
-40.37
 20
-1.587499999999993
 30
0.0
  0
POINT
  5
2E7
330
F6
100
AcDbEntity
  8
Defpoints
 62
     0
100
AcDbPoint
 10
-52.48743677286706
 20
-1.587500000000038
 30
0.0
  0
ENDBLK
  5
F8
330
F6
100
AcDbEntity
  8
0
100
AcDbBlockEnd
  0
BLOCK
  5
10C
330
10B
100
AcDbEntity
  8
0
100
AcDbBlockBegin
  2
_D_1
 70
     0
 10
0.0
 20
0.0
 30
0.0
  3
_D_1
  1
_D_1
  0
LINE
  5
10E
330
10B
100
AcDbEntity
  8
치수문자_일반주서
 62
     0
370
    -2
100
AcDbLine
 10
35.40000000000001
 20
1.650000000000002
 30
0.0
 11
35.40000000000001
 21
14.7625
 31
0.0
  0
LINE
  5
10F
330
10B
100
AcDbEntity
  8
치수문자_일반주서
 62
     0
370
    -2
100
AcDbLine
 10
10.00000000000001
 20
1.633124881153799
 30
0.0
 11
10.00000000000001
 21
14.7625
 31
0.0
  0
LINE
  5
110
330
10B
100
AcDbEntity
  8
치수문자_일반주서
 62
     0
370
    -2
100
AcDbLine
 10
32.09800000000001
 20
14.7625
 30
0.0
 11
13.302
 21
14.7625
 31
0.0
  0
SOLID
  5
111
330
10B
100
AcDbEntity
  8
치수문자_일반주서
 62
     0
100
AcDbTrace
 10
32.09800000000001
 20
14.21216666666666
 30
0.0
 11
32.09800000000001
 21
15.31283333333333
 31
0.0
 12
35.40000000000001
 22
14.7625
 32
0.0
 13
35.40000000000001
 23
14.7625
 33
0.0
  0
SOLID
  5
112
330
10B
100
AcDbEntity
  8
치수문자_일반주서
 62
     0
100
AcDbTrace
 10
13.302
 20
15.31283333333333
 30
0.0
 11
13.302
 21
14.21216666666666
 31
0.0
 12
10.00000000000001
 22
14.7625
 32
0.0
 13
10.00000000000001
 23
14.7625
 33
0.0
  0
MTEXT
  5
113
330
10B
100
AcDbEntity
  8
치수문자_일반주서
 62
     0
100
AcDbMText
 10
22.70000000000001
 20
19.1375
 30
0.0
 40
3.5
 41
0.0
 71
     2
 72
     1
  1
\A1;25.4 [1]
  7
SLDTEXTSTYLE0
 73
     1
 44
1.0
  0
POINT
  5
114
330
10B
100
AcDbEntity
  8
Defpoints
 62
     0
100
AcDbPoint
 10
35.40000000000001
 20
1.587500000000002
 30
0.0
  0
POINT
  5
115
330
10B
100
AcDbEntity
  8
Defpoints
 62
     0
100
AcDbPoint
 10
10.00000000000001
 20
1.570624881153799
 30
0.0
  0
POINT
  5
116
330
10B
100
AcDbEntity
  8
Defpoints
 62
     0
100
AcDbPoint
 10
10.00000000000001
 20
14.7625
 30
0.0
  0
ENDBLK
  5
10D
330
10B
100
AcDbEntity
  8
0
100
AcDbBlockEnd
  0
BLOCK
  5
120
330
11F
100
AcDbEntity
  8
0
100
AcDbBlockBegin
  2
_D_2
 70
     0
 10
0.0
 20
0.0
 30
0.0
  3
_D_2
  1
_D_2
  0
LINE
  5
122
330
11F
100
AcDbEntity
  8
치수문자_일반주서
 62
     0
370
    -2
100
AcDbLine
 10
35.40000000000001
 20
1.649999999999999
 30
0.0
 11
35.40000000000001
 21
32.03197319528974
 31
0.0
  0
LINE
  5
123
330
11F
100
AcDbEntity
  8
치수문자_일반주서
 62
     0
370
    -2
100
AcDbLine
 10
-40.79999999999998
 20
1.219999999999992
 30
0.0
 11
-40.79999999999998
 21
32.03197319528974
 31
0.0
  0
LINE
  5
124
330
11F
100
AcDbEntity
  8
치수문자_일반주서
 62
     0
370
    -2
100
AcDbLine
 10
32.09800000000001
 20
32.03197319528974
 30
0.0
 11
-37.49799999999998
 21
32.03197319528974
 31
0.0
  0
SOLID
  5
125
330
11F
100
AcDbEntity
  8
치수문자_일반주서
 62
     0
100
AcDbTrace
 10
32.09800000000001
 20
31.48163986195641
 30
0.0
 11
32.09800000000001
 21
32.58230652862308
 31
0.0
 12
35.40000000000001
 22
32.03197319528974
 32
0.0
 13
35.40000000000001
 23
32.03197319528974
 33
0.0
  0
SOLID
  5
126
330
11F
100
AcDbEntity
  8
치수문자_일반주서
 62
     0
100
AcDbTrace
 10
-37.49799999999998
 20
32.58230652862308
 30
0.0
 11
-37.49799999999998
 21
31.48163986195641
 31
0.0
 12
-40.79999999999998
 22
32.03197319528974
 32
0.0
 13
-40.79999999999998
 23
32.03197319528974
 33
0.0
  0
MTEXT
  5
127
330
11F
100
AcDbEntity
  8
치수문자_일반주서
 62
     0
100
AcDbMText
 10
-2.699999999999985
 20
36.40697319528974
 30
0.0
 40
3.5
 41
0.0
 71
     2
 72
     1
  1
\A1;76.2 [3]
  7
SLDTEXTSTYLE0
 73
     1
 44
1.0
  0
POINT
  5
128
330
11F
100
AcDbEntity
  8
Defpoints
 62
     0
100
AcDbPoint
 10
35.40000000000001
 20
1.587499999999999
 30
0.0
  0
POINT
  5
129
330
11F
100
AcDbEntity
  8
Defpoints
 62
     0
100
AcDbPoint
 10
-40.79999999999998
 20
1.157499999999992
 30
0.0
  0
POINT
  5
12A
330
11F
100
AcDbEntity
  8
Defpoints
 62
     0
100
AcDbPoint
 10
-40.79999999999998
 20
32.03197319528974
 30
0.0
  0
ENDBLK
  5
121
330
11F
100
AcDbEntity
  8
0
100
AcDbBlockEnd
  0
BLOCK
  5
133
330
132
100
AcDbEntity
  8
0
100
AcDbBlockBegin
  2
_D_3
 70
     0
 10
0.0
 20
0.0
 30
0.0
  3
_D_3
  1
_D_3
  0
LINE
  5
135
330
132
100
AcDbEntity
  8
치수문자_일반주서
 62
     0
370
    -2
100
AcDbLine
 10
35.46250000000002
 20
-1.587500000000004
 30
0.0
 11
48.63012303214262
 21
-1.587499999999956
 31
0.0
  0
LINE
  5
136
330
132
100
AcDbEntity
  8
치수문자_일반주서
 62
     0
370
    -2
100
AcDbLine
 10
35.46250000000001
 20
1.587500000000002
 30
0.0
 11
48.63012303214261
 21
1.587500000000052
 31
0.0
  0
LINE
  5
137
330
132
100
AcDbEntity
  8
치수문자_일반주서
 62
     0
370
    -2
100
AcDbLine
 10
48.63012303214261
 20
1.587500000000052
 30
0.0
 11
48.63012303214246
 21
32.9089082691771
 31
0.0
  0
LINE
  5
138
330
132
100
AcDbEntity
  8
치수문자_일반주서
 62
     0
370
    -2
100
AcDbLine
 10
48.63012303214262
 20
-1.587499999999956
 30
0.0
 11
48.63012303214261
 21
1.587500000000052
 31
0.0
  0
LINE
  5
139
330
132
100
AcDbEntity
  8
치수문자_일반주서
 62
     0
370
    -2
100
AcDbLine
 10
48.63012303214263
 20
-4.889499999999956
 30
0.0
 11
48.63012303214265
 21
-8.191499999999955
 31
0.0
  0
LINE
  5
13A
330
132
100
AcDbEntity
  8
치수문자_일반주서
 62
     0
370
    -2
100
AcDbLine
 10
48.63012303214259
 20
4.889500000000051
 30
0.0
 11
48.63012303214258
 21
8.191500000000051
 31
0.0
  0
SOLID
  5
13B
330
132
100
AcDbEntity
  8
치수문자_일반주서
 62
     0
100
AcDbTrace
 10
49.18045636547597
 20
-4.889499999999953
 30
0.0
 11
48.0797896988093
 21
-4.889499999999958
 31
0.0
 12
48.63012303214262
 22
-1.587499999999956
 32
0.0
 13
48.63012303214262
 23
-1.587499999999956
 33
0.0
  0
SOLID
  5
13C
330
132
100
AcDbEntity
  8
치수문자_일반주서
 62
     0
100
AcDbTrace
 10
48.07978969880926
 20
4.889500000000049
 30
0.0
 11
49.18045636547593
 21
4.889500000000054
 31
0.0
 12
48.63012303214261
 22
1.587500000000052
 32
0.0
 13
48.63012303214261
 23
1.587500000000052
 33
0.0
  0
MTEXT
  5
13D
330
132
100
AcDbEntity
  8
치수문자_일반주서
 62
     0
100
AcDbMText
 10
44.25512303214252
 20
20.65890826917709
 30
0.0
 40
3.5
 41
0.0
 71
     2
 72
     1
  1
\A1;%%c3.18 [1/8]
  7
SLDTEXTSTYLE0
 11
-4.475859752819520E-15
 21
1.0
 31
0.0
 73
     1
 44
1.0
  0
POINT
  5
13E
330
132
100
AcDbEntity
  8
Defpoints
 62
     0
100
AcDbPoint
 10
35.40000000000002
 20
-1.587500000000004
 30
0.0
  0
POINT
  5
13F
330
132
100
AcDbEntity
  8
Defpoints
 62
     0
100
AcDbPoint
 10
35.40000000000001
 20
1.587500000000002
 30
0.0
  0
POINT
  5
140
330
132
100
AcDbEntity
  8
Defpoints
 62
     0
100
AcDbPoint
 10
48.63012303214261
 20
1.587500000000051
 30
0.0
  0
ENDBLK
  5
134
330
132
100
AcDbEntity
  8
0
100
AcDbBlockEnd
  0
BLOCK
  5
14D
330
14C
100
AcDbEntity
  8
0
100
AcDbBlockBegin
  2
SW_DOWELSYMBOL_0
 70
     0
 10
0.0
 20
0.0
 30
0.0
  3
SW_DOWELSYMBOL_0
  1
SW_DOWELSYMBOL_0
  0
CIRCLE
  5
14F
330
14C
100
AcDbEntity
  8
해칭선
 62
     0
100
AcDbCircle
 10
0.0
 20
0.0
 30
0.0
 40
2.999999999999996
  0
HATCH
  5
150
330
14C
100
AcDbEntity
  8
0
  6
Continuous
 62
     0
370
     0
100
AcDbHatch
 10
0.0
 20
0.0
 30
0.0
210
0.0
220
0.0
230
1.0
  2
SOLID
 70
     1
 71
     0
 91
        1
 92
        0
 93
        3
 72
     2
 10
0.0
 20
0.0
 40
2.999999999999996
 50
0.0
 51
90.0
 73
     1
 72
     1
 10
0.0
 20
2.999999999999996
 11
0.0
 21
0.0
 72
     1
 10
0.0
 20
0.0
 11
2.999999999999996
 21
0.0
 97
        0
 75
     0
 76
     1
 98
        1
 10
0.0
 20
0.0
  0
HATCH
  5
151
330
14C
100
AcDbEntity
  8
0
  6
Continuous
 62
     0
370
     0
100
AcDbHatch
 10
0.0
 20
0.0
 30
0.0
210
0.0
220
0.0
230
1.0
  2
SOLID
 70
     1
 71
     0
 91
        1
 92
        0
 93
        3
 72
     2
 10
0.0
 20
0.0
 40
2.999999999999996
 50
180.0
 51
270.0000000000008
 73
     1
 72
     1
 10
0.0
 20
-2.999999999999996
 11
0.0
 21
0.0
 72
     1
 10
0.0
 20
0.0
 11
-2.999999999999996
 21
0.0
 97
        0
 75
     0
 76
     1
 98
        1
 10
0.0
 20
0.0
  0
ENDBLK
  5
14E
330
14C
100
AcDbEntity
  8
0
100
AcDbBlockEnd
  0
BLOCK
  5
20F
330
20E
100
AcDbEntity
  8
0
100
AcDbBlockBegin
  2
_D_4
 70
     0
 10
0.0
 20
0.0
 30
0.0
  3
_D_4
  1
_D_4
  0
LINE
  5
210
330
20E
100
AcDbEntity
  8
치수문자_일반주서
 62
     0
370
    -2
100
AcDbLine
 10
102.4375000000001
 20
36.22143424691529
 30
0.0
 11
117.3750000000001
 21
36.22143424691535
 31
0.0
  0
LINE
  5
211
330
20E
100
AcDbEntity
  8
치수문자_일반주서
 62
     0
370
    -2
100
AcDbLine
 10
102.4375000000001
 20
22.22143424691529
 30
0.0
 11
117.3750000000001
 21
22.22143424691535
 31
0.0
  0
LINE
  5
212
330
20E
100
AcDbEntity
  8
치수문자_일반주서
 62
     0
370
    -2
100
AcDbLine
 10
117.3750000000001
 20
36.22143424691535
 30
0.0
 11
117.3750000000001
 21
22.22143424691535
 31
0.0
  0
LINE
  5
213
330
20E
100
AcDbEntity
  8
치수문자_일반주서
 62
     0
370
    -2
100
AcDbLine
 10
117.3750000000001
 20
39.52343424691535
 30
0.0
 11
117.375
 21
42.82543424691535
 31
0.0
  0
LINE
  5
214
330
20E
100
AcDbEntity
  8
치수문자_일반주서
 62
     0
370
    -2
100
AcDbLine
 10
117.3750000000001
 20
18.91943424691535
 30
0.0
 11
117.3750000000001
 21
15.61743424691535
 31
0.0
  0
SOLID
  5
215
330
20E
100
AcDbEntity
  8
치수문자_일반주서
 62
     0
100
AcDbTrace
 10
116.8246666666667
 20
39.52343424691535
 30
0.0
 11
117.9253333333334
 21
39.52343424691535
 31
0.0
 12
117.3750000000001
 22
36.22143424691535
 32
0.0
 13
117.3750000000001
 23
36.22143424691535
 33
0.0
  0
SOLID
  5
216
330
20E
100
AcDbEntity
  8
치수문자_일반주서
 62
     0
100
AcDbTrace
 10
117.9253333333335
 20
18.91943424691535
 30
0.0
 11
116.8246666666668
 21
18.91943424691535
 31
0.0
 12
117.3750000000001
 22
22.22143424691535
 32
0.0
 13
117.3750000000001
 23
22.22143424691535
 33
0.0
  0
MTEXT
  5
217
330
20E
100
AcDbEntity
  8
치수문자_일반주서
 62
     0
100
AcDbMText
 10
113.0000000000001
 20
29.28713862862833
 30
0.0
 40
3.5
 41
0.0
 71
     2
 72
     1
  1
\A1;%%c14
  7
SLDTEXTSTYLE0
 11
-3.045183153257572E-15
 21
1.0
 31
0.0
 73
     1
 44
1.0
  0
POINT
  5
218
330
20E
100
AcDbEntity
  8
Defpoints
 62
     0
100
AcDbPoint
 10
102.3750000000001
 20
36.22143424691529
 30
0.0
  0
POINT
  5
219
330
20E
100
AcDbEntity
  8
Defpoints
 62
     0
100
AcDbPoint
 10
102.3750000000001
 20
22.22143424691529
 30
0.0
  0
POINT
  5
21A
330
20E
100
AcDbEntity
  8
Defpoints
 62
     0
100
AcDbPoint
 10
117.3750000000001
 20
22.22143424691535
 30
0.0
  0
ENDBLK
  5
21B
330
20E
100
AcDbEntity
  8
0
100
AcDbBlockEnd
  0
BLOCK
  5
229
330
228
100
AcDbEntity
  8
0
100
AcDbBlockBegin
  2
*D9
 70
     1
 10
0.0
 20
0.0
 30
0.0
  3
*D9
  1
*D8
  0
LINE
  5
22A
330
228
100
AcDbEntity
  8
치수문자_일반주서
 62
     0
370
    -2
100
AcDbLine
 10
103.8657751816695
 20
19.48229575403651
 30
0.0
 11
120.1921280501954
 21
-7.081888143622854
 31
0.0
  0
MTEXT
  5
22B
330
228
100
AcDbEntity
  8
치수문자_일반주서
 62
     0
100
AcDbMText
 10
115.6706384014277
 20
5.288158154535728
 30
0.0
 40
3.5
 41
0.0
 71
     5
 72
     1
  1
\A1;R.50 [R0.02]
  7
SLDTEXTSTYLE0
 11
0.5236126201129557
 21
-0.8519564684057781
 31
0.0
 73
     1
 44
1.0
  0
SOLID
  5
22C
330
228
100
AcDbEntity
  8
치수문자_일반주서
 62
     0
100
AcDbTrace
 10
104.3346352247821
 20
19.77045723263868
 30
0.0
 11
103.3969151385569
 21
19.19413427543435
 31
0.0
 12
102.1368063100565
 22
22.29545601271239
 32
0.0
 13
102.1368063100565
 23
22.29545601271239
 33
0.0
  0
LINE
  5
22D
330
228
100
AcDbEntity
  8
치수문자_일반주서
 62
     0
100
AcDbLine
 10
101.785
 20
22.72143424691529
 30
0.0
 11
101.965
 21
22.72143424691529
 31
0.0
  0
LINE
  5
22E
330
228
100
AcDbEntity
  8
치수문자_일반주서
 62
     0
100
AcDbLine
 10
101.875
 20
22.63143424691529
 30
0.0
 11
101.875
 21
22.81143424691529
 31
0.0
  0
POINT
  5
25A
330
228
100
AcDbEntity
  8
Defpoints
 62
     0
100
AcDbPoint
 10
102.1368063100565
 20
22.29545601271239
 30
0.0
  0
POINT
  5
25B
330
228
100
AcDbEntity
  8
Defpoints
 62
     0
100
AcDbPoint
 10
101.875
 20
22.72143424691529
 30
0.0
  0
ENDBLK
  5
22F
330
228
100
AcDbEntity
  8
0
100
AcDbBlockEnd
  0
BLOCK
  5
235
330
234
100
AcDbEntity
  8
0
100
AcDbBlockBegin
  2
*D10
 70
     1
 10
0.0
 20
0.0
 30
0.0
  3
*D10
  1
*D10
  0
LINE
  5
237
330
234
100
AcDbEntity
  8
치수문자_일반주서
 62
     0
370
    -2
100
AcDbLine
 10
19.37500000000004
 20
35.78393424691529
 30
0.0
 11
19.37500000000004
 21
70.88391841499404
 31
0.0
  0
LINE
  5
238
330
234
100
AcDbEntity
  8
치수문자_일반주서
 62
     0
370
    -2
100
AcDbLine
 10
102.3750000000001
 20
36.34643424691529
 30
0.0
 11
102.3750000000001
 21
70.88391841499404
 31
0.0
  0
LINE
  5
239
330
234
100
AcDbEntity
  8
치수문자_일반주서
 62
     0
370
    -2
100
AcDbLine
 10
22.67700000000004
 20
70.88391841499404
 30
0.0
 11
99.07300000000006
 21
70.88391841499404
 31
0.0
  0
SOLID
  5
23A
330
234
100
AcDbEntity
  8
치수문자_일반주서
 62
     0
100
AcDbTrace
 10
22.67700000000004
 20
71.43425174832737
 30
0.0
 11
22.67700000000004
 21
70.33358508166071
 31
0.0
 12
19.37500000000004
 22
70.88391841499404
 32
0.0
 13
19.37500000000004
 23
70.88391841499404
 33
0.0
  0
SOLID
  5
23B
330
234
100
AcDbEntity
  8
치수문자_일반주서
 62
     0
100
AcDbTrace
 10
99.07300000000006
 20
70.33358508166071
 30
0.0
 11
99.07300000000006
 21
71.43425174832737
 31
0.0
 12
102.3750000000001
 22
70.88391841499404
 32
0.0
 13
102.3750000000001
 23
70.88391841499404
 33
0.0
  0
MTEXT
  5
23C
330
234
100
AcDbEntity
  8
치수문자_일반주서
 62
     0
100
AcDbMText
 10
60.87500000000005
 20
75.25891841499404
 30
0.0
 40
3.5
 41
0.0
 71
     2
 72
     1
  1
\A1;83 [3.27]
  7
SLDTEXTSTYLE0
 73
     1
 44
1.0
  0
POINT
  5
23D
330
234
100
AcDbEntity
  8
Defpoints
 62
     0
100
AcDbPoint
 10
19.37500000000004
 20
35.72143424691529
 30
0.0
  0
POINT
  5
23E
330
234
100
AcDbEntity
  8
Defpoints
 62
     0
100
AcDbPoint
 10
102.3750000000001
 20
36.28393424691529
 30
0.0
  0
POINT
  5
23F
330
234
100
AcDbEntity
  8
Defpoints
 62
     0
100
AcDbPoint
 10
102.3750000000001
 20
70.88391841499404
 30
0.0
  0
ENDBLK
  5
236
330
234
100
AcDbEntity
  8
0
100
AcDbBlockEnd
  0
BLOCK
  5
241
330
240
100
AcDbEntity
  8
0
100
AcDbBlockBegin
  2
*D11
 70
     1
 10
0.0
 20
0.0
 30
0.0
  3
*D11
  1
*D11
  0
LINE
  5
243
330
240
100
AcDbEntity
  8
치수문자_일반주서
 62
     0
370
    -2
100
AcDbLine
 10
76.37504186422882
 20
28.62038676313042
 30
0.0
 11
76.37504186422882
 21
61.90091383617725
 31
0.0
  0
LINE
  5
244
330
240
100
AcDbEntity
  8
치수문자_일반주서
 62
     0
370
    -2
100
AcDbLine
 10
102.3750000000001
 20
36.28393424691529
 30
0.0
 11
102.3750000000001
 21
61.90091383617725
 31
0.0
  0
LINE
  5
245
330
240
100
AcDbEntity
  8
치수문자_일반주서
 62
     0
370
    -2
100
AcDbLine
 10
79.67704186422881
 20
61.90091383617725
 30
0.0
 11
99.07300000000006
 21
61.90091383617725
 31
0.0
  0
SOLID
  5
246
330
240
100
AcDbEntity
  8
치수문자_일반주서
 62
     0
100
AcDbTrace
 10
79.67704186422881
 20
62.45124716951059
 30
0.0
 11
79.67704186422881
 21
61.35058050284392
 31
0.0
 12
76.37504186422882
 22
61.90091383617725
 32
0.0
 13
76.37504186422882
 23
61.90091383617725
 33
0.0
  0
SOLID
  5
247
330
240
100
AcDbEntity
  8
치수문자_일반주서
 62
     0
100
AcDbTrace
 10
99.07300000000006
 20
61.35058050284392
 30
0.0
 11
99.07300000000006
 21
62.45124716951059
 31
0.0
 12
102.3750000000001
 22
61.90091383617725
 32
0.0
 13
102.3750000000001
 23
61.90091383617725
 33
0.0
  0
MTEXT
  5
248
330
240
100
AcDbEntity
  8
치수문자_일반주서
 62
     0
100
AcDbMText
 10
89.42159572693208
 20
66.27591383617725
 30
0.0
 40
3.5
 41
0.0
 71
     2
 72
     1
  1
\A1;26 [1.02]
  7
SLDTEXTSTYLE0
 73
     1
 44
1.0
  0
POINT
  5
249
330
240
100
AcDbEntity
  8
Defpoints
 62
     0
100
AcDbPoint
 10
76.37504186422882
 20
28.55788676313042
 30
0.0
  0
POINT
  5
24A
330
240
100
AcDbEntity
  8
Defpoints
 62
     0
100
AcDbPoint
 10
102.3750000000001
 20
36.22143424691529
 30
0.0
  0
POINT
  5
24B
330
240
100
AcDbEntity
  8
Defpoints
 62
     0
100
AcDbPoint
 10
102.3750000000001
 20
61.90091383617725
 30
0.0
  0
ENDBLK
  5
242
330
240
100
AcDbEntity
  8
0
100
AcDbBlockEnd
  0
BLOCK
  5
24D
330
24C
100
AcDbEntity
  8
0
100
AcDbBlockBegin
  2
*D12
 70
     1
 10
0.0
 20
0.0
 30
0.0
  3
*D12
  1
*D12
  0
LINE
  5
24F
330
24C
100
AcDbEntity
  8
치수문자_일반주서
 62
     0
370
    -2
100
AcDbLine
 10
19.81250000000005
 20
36.22143424691529
 30
0.0
 11
4.374999999999983
 21
36.22143424691524
 31
0.0
  0
LINE
  5
250
330
24C
100
AcDbEntity
  8
치수문자_일반주서
 62
     0
370
    -2
100
AcDbLine
 10
19.81250000000005
 20
22.22143424691529
 30
0.0
 11
4.375000000000032
 21
22.22143424691524
 31
0.0
  0
LINE
  5
251
330
24C
100
AcDbEntity
  8
치수문자_일반주서
 62
     0
370
    -2
100
AcDbLine
 10
4.374999999999983
 20
36.22143424691524
 30
0.0
 11
4.375000000000032
 21
22.22143424691524
 31
0.0
  0
LINE
  5
252
330
24C
100
AcDbEntity
  8
치수문자_일반주서
 62
     0
370
    -2
100
AcDbLine
 10
4.374999999999972
 20
39.52343424691524
 30
0.0
 11
4.37499999999996
 21
42.82543424691524
 31
0.0
  0
LINE
  5
253
330
24C
100
AcDbEntity
  8
치수문자_일반주서
 62
     0
370
    -2
100
AcDbLine
 10
4.375000000000044
 20
18.91943424691524
 30
0.0
 11
4.375000000000055
 21
15.61743424691524
 31
0.0
  0
SOLID
  5
254
330
24C
100
AcDbEntity
  8
치수문자_일반주서
 62
     0
100
AcDbTrace
 10
3.824666666666638
 20
39.52343424691524
 30
0.0
 11
4.925333333333305
 21
39.52343424691524
 31
0.0
 12
4.374999999999983
 22
36.22143424691524
 32
0.0
 13
4.374999999999983
 23
36.22143424691524
 33
0.0
  0
SOLID
  5
255
330
24C
100
AcDbEntity
  8
치수문자_일반주서
 62
     0
100
AcDbTrace
 10
4.925333333333377
 20
18.91943424691524
 30
0.0
 11
3.82466666666671
 21
18.91943424691523
 31
0.0
 12
4.375000000000032
 22
22.22143424691524
 32
0.0
 13
4.375000000000032
 23
22.22143424691524
 33
0.0
  0
MTEXT
  5
256
330
24C
100
AcDbEntity
  8
치수문자_일반주서
 62
     0
100
AcDbMText
 10
0.0000000000000071
 20
29.22143424691528
 30
0.0
 40
3.5
 41
0.0
 71
     2
 72
     1
  1
\A1;%%c14
  7
SLDTEXTSTYLE0
 11
-3.489272363107635E-15
 21
1.0
 31
0.0
 73
     1
 44
1.0
  0
POINT
  5
257
330
24C
100
AcDbEntity
  8
Defpoints
 62
     0
100
AcDbPoint
 10
19.87500000000005
 20
36.22143424691529
 30
0.0
  0
POINT
  5
258
330
24C
100
AcDbEntity
  8
Defpoints
 62
     0
100
AcDbPoint
 10
19.87500000000005
 20
22.22143424691529
 30
0.0
  0
POINT
  5
259
330
24C
100
AcDbEntity
  8
Defpoints
 62
     0
100
AcDbPoint
 10
4.375000000000043
 20
22.22143424691524
 30
0.0
  0
ENDBLK
  5
24E
330
24C
100
AcDbEntity
  8
0
100
AcDbBlockEnd
  0
BLOCK
  5
2A8
330
2A7
100
AcDbEntity
  8
0
100
AcDbBlockBegin
  2
*D13
 70
     1
 10
0.0
 20
0.0
 30
0.0
  3
*D13
  1
*D13
  0
LINE
  5
2AA
330
2A7
100
AcDbEntity
  8
치수문자_일반주서
 62
     0
370
    -2
100
AcDbLine
 10
-41.69576004776776
 20
83.63262255170608
 30
0.0
 11
-41.69576004776776
 21
118.7326067197848
 31
0.0
  0
LINE
  5
2AB
330
2A7
100
AcDbEntity
  8
치수문자_일반주서
 62
     0
370
    -2
100
AcDbLine
 10
41.30423995223226
 20
84.19512255170609
 30
0.0
 11
41.30423995223226
 21
118.7326067197848
 31
0.0
  0
LINE
  5
2AC
330
2A7
100
AcDbEntity
  8
치수문자_일반주서
 62
     0
370
    -2
100
AcDbLine
 10
-38.39376004776776
 20
118.7326067197848
 30
0.0
 11
38.00223995223226
 21
118.7326067197848
 31
0.0
  0
SOLID
  5
2AD
330
2A7
100
AcDbEntity
  8
치수문자_일반주서
 62
     0
100
AcDbTrace
 10
-38.39376004776776
 20
119.2829400531182
 30
0.0
 11
-38.39376004776776
 21
118.1822733864515
 31
0.0
 12
-41.69576004776776
 22
118.7326067197848
 32
0.0
 13
-41.69576004776776
 23
118.7326067197848
 33
0.0
  0
SOLID
  5
2AE
330
2A7
100
AcDbEntity
  8
치수문자_일반주서
 62
     0
100
AcDbTrace
 10
38.00223995223226
 20
118.1822733864515
 30
0.0
 11
38.00223995223226
 21
119.2829400531182
 31
0.0
 12
41.30423995223226
 22
118.7326067197848
 32
0.0
 13
41.30423995223226
 23
118.7326067197848
 33
0.0
  0
MTEXT
  5
2AF
330
2A7
100
AcDbEntity
  8
치수문자_일반주서
 62
     0
100
AcDbMText
 10
-0.1957600477677488
 20
123.1076067197848
 30
0.0
 40
3.5
 41
0.0
 71
     2
 72
     1
  1
\A1;83 [3.27]
  7
SLDTEXTSTYLE0
 73
     1
 44
1.0
  0
POINT
  5
2B0
330
2A7
100
AcDbEntity
  8
Defpoints
 62
     0
100
AcDbPoint
 10
-41.69576004776776
 20
83.57012255170608
 30
0.0
  0
POINT
  5
2B1
330
2A7
100
AcDbEntity
  8
Defpoints
 62
     0
100
AcDbPoint
 10
41.30423995223226
 20
84.13262255170609
 30
0.0
  0
POINT
  5
2B2
330
2A7
100
AcDbEntity
  8
Defpoints
 62
     0
100
AcDbPoint
 10
41.30423995223226
 20
118.7326067197848
 30
0.0
  0
ENDBLK
  5
2A9
330
2A7
100
AcDbEntity
  8
0
100
AcDbBlockEnd
  0
BLOCK
  5
2B4
330
2B3
100
AcDbEntity
  8
0
100
AcDbBlockBegin
  2
*D14
 70
     1
 10
0.0
 20
0.0
 30
0.0
  3
*D14
  1
*D14
  0
LINE
  5
2B6
330
2B3
100
AcDbEntity
  8
치수문자_일반주서
 62
     0
370
    -2
100
AcDbLine
 10
15.30428181646102
 20
76.46907506792122
 30
0.0
 11
15.30428181646102
 21
109.7496021409681
 31
0.0
  0
LINE
  5
2B7
330
2B3
100
AcDbEntity
  8
치수문자_일반주서
 62
     0
370
    -2
100
AcDbLine
 10
41.30423995223226
 20
84.13262255170609
 30
0.0
 11
41.30423995223226
 21
109.7496021409681
 31
0.0
  0
LINE
  5
2B8
330
2B3
100
AcDbEntity
  8
치수문자_일반주서
 62
     0
370
    -2
100
AcDbLine
 10
18.60628181646102
 20
109.7496021409681
 30
0.0
 11
38.00223995223226
 21
109.7496021409681
 31
0.0
  0
SOLID
  5
2B9
330
2B3
100
AcDbEntity
  8
치수문자_일반주서
 62
     0
100
AcDbTrace
 10
18.60628181646102
 20
110.2999354743014
 30
0.0
 11
18.60628181646102
 21
109.1992688076347
 31
0.0
 12
15.30428181646102
 22
109.7496021409681
 32
0.0
 13
15.30428181646102
 23
109.7496021409681
 33
0.0
  0
SOLID
  5
2BA
330
2B3
100
AcDbEntity
  8
치수문자_일반주서
 62
     0
100
AcDbTrace
 10
38.00223995223226
 20
109.1992688076347
 30
0.0
 11
38.00223995223226
 21
110.2999354743014
 31
0.0
 12
41.30423995223226
 22
109.7496021409681
 32
0.0
 13
41.30423995223226
 23
109.7496021409681
 33
0.0
  0
MTEXT
  5
2BB
330
2B3
100
AcDbEntity
  8
치수문자_일반주서
 62
     0
100
AcDbMText
 10
28.35083567916428
 20
114.1246021409681
 30
0.0
 40
3.5
 41
0.0
 71
     2
 72
     1
  1
\A1;26 [1.02]
  7
SLDTEXTSTYLE0
 73
     1
 44
1.0
  0
POINT
  5
2BC
330
2B3
100
AcDbEntity
  8
Defpoints
 62
     0
100
AcDbPoint
 10
15.30428181646102
 20
76.40657506792122
 30
0.0
  0
POINT
  5
2BD
330
2B3
100
AcDbEntity
  8
Defpoints
 62
     0
100
AcDbPoint
 10
41.30423995223226
 20
84.07012255170609
 30
0.0
  0
POINT
  5
2BE
330
2B3
100
AcDbEntity
  8
Defpoints
 62
     0
100
AcDbPoint
 10
41.30423995223226
 20
109.7496021409681
 30
0.0
  0
ENDBLK
  5
2B5
330
2B3
100
AcDbEntity
  8
0
100
AcDbBlockEnd
  0
BLOCK
  5
2C0
330
2BF
100
AcDbEntity
  8
0
100
AcDbBlockBegin
  2
*D15
 70
     1
 10
0.0
 20
0.0
 30
0.0
  3
*D15
  1
*D15
  0
LINE
  5
2C2
330
2BF
100
AcDbEntity
  8
치수문자_일반주서
 62
     0
370
    -2
100
AcDbLine
 10
-41.25826004776775
 20
84.07012255170609
 30
0.0
 11
-56.69576004776781
 21
84.07012255170604
 31
0.0
  0
LINE
  5
2C3
330
2BF
100
AcDbEntity
  8
치수문자_일반주서
 62
     0
370
    -2
100
AcDbLine
 10
-41.25826004776775
 20
70.07012255170609
 30
0.0
 11
-56.69576004776776
 21
70.07012255170604
 31
0.0
  0
LINE
  5
2C4
330
2BF
100
AcDbEntity
  8
치수문자_일반주서
 62
     0
370
    -2
100
AcDbLine
 10
-56.69576004776781
 20
84.07012255170604
 30
0.0
 11
-56.69576004776776
 21
70.07012255170604
 31
0.0
  0
LINE
  5
2C5
330
2BF
100
AcDbEntity
  8
치수문자_일반주서
 62
     0
370
    -2
100
AcDbLine
 10
-56.69576004776783
 20
87.37212255170604
 30
0.0
 11
-56.69576004776784
 21
90.67412255170605
 31
0.0
  0
LINE
  5
2C6
330
2BF
100
AcDbEntity
  8
치수문자_일반주서
 62
     0
370
    -2
100
AcDbLine
 10
-56.69576004776775
 20
66.76812255170603
 30
0.0
 11
-56.69576004776773
 21
63.46612255170603
 31
0.0
  0
SOLID
  5
2C7
330
2BF
100
AcDbEntity
  8
치수문자_일반주서
 62
     0
100
AcDbTrace
 10
-57.24609338110116
 20
87.37212255170604
 30
0.0
 11
-56.14542671443449
 21
87.37212255170604
 31
0.0
 12
-56.69576004776781
 22
84.07012255170604
 32
0.0
 13
-56.69576004776781
 23
84.07012255170604
 33
0.0
  0
SOLID
  5
2C8
330
2BF
100
AcDbEntity
  8
치수문자_일반주서
 62
     0
100
AcDbTrace
 10
-56.14542671443441
 20
66.76812255170603
 30
0.0
 11
-57.24609338110108
 21
66.76812255170603
 31
0.0
 12
-56.69576004776776
 22
70.07012255170604
 32
0.0
 13
-56.69576004776776
 23
70.07012255170604
 33
0.0
  0
MTEXT
  5
2C9
330
2BF
100
AcDbEntity
  8
치수문자_일반주서
 62
     0
100
AcDbMText
 10
-61.07076004776779
 20
77.07012255170608
 30
0.0
 40
3.5
 41
0.0
 71
     2
 72
     1
  1
\A1;%%c14
  7
SLDTEXTSTYLE0
 11
-3.552713678800501E-15
 21
1.0
 31
0.0
 73
     1
 44
1.0
  0
POINT
  5
2CA
330
2BF
100
AcDbEntity
  8
Defpoints
 62
     0
100
AcDbPoint
 10
-41.19576004776775
 20
84.07012255170609
 30
0.0
  0
POINT
  5
2CB
330
2BF
100
AcDbEntity
  8
Defpoints
 62
     0
100
AcDbPoint
 10
-41.19576004776775
 20
70.07012255170609
 30
0.0
  0
POINT
  5
2CC
330
2BF
100
AcDbEntity
  8
Defpoints
 62
     0
100
AcDbPoint
 10
-56.69576004776776
 20
70.07012255170604
 30
0.0
  0
ENDBLK
  5
2C1
330
2BF
100
AcDbEntity
  8
0
100
AcDbBlockEnd
  0
BLOCK
  5
2CE
330
2CD
100
AcDbEntity
  8
0
100
AcDbBlockBegin
  2
*D16
 70
     1
 10
0.0
 20
0.0
 30
0.0
  3
*D16
  1
*D16
  0
LINE
  5
2D0
330
2CD
100
AcDbEntity
  8
치수문자_일반주서
 62
     0
370
    -2
100
AcDbLine
 10
41.36673995223227
 20
84.07012255170609
 30
0.0
 11
56.30423995223227
 21
84.07012255170615
 31
0.0
  0
LINE
  5
2D1
330
2CD
100
AcDbEntity
  8
치수문자_일반주서
 62
     0
370
    -2
100
AcDbLine
 10
41.36673995223226
 20
70.07012255170609
 30
0.0
 11
56.30423995223232
 21
70.07012255170615
 31
0.0
  0
LINE
  5
2D2
330
2CD
100
AcDbEntity
  8
치수문자_일반주서
 62
     0
370
    -2
100
AcDbLine
 10
56.30423995223227
 20
84.07012255170615
 30
0.0
 11
56.30423995223232
 21
70.07012255170615
 31
0.0
  0
LINE
  5
2D3
330
2CD
100
AcDbEntity
  8
치수문자_일반주서
 62
     0
370
    -2
100
AcDbLine
 10
56.30423995223225
 20
87.37212255170616
 30
0.0
 11
56.30423995223224
 21
90.67412255170616
 31
0.0
  0
LINE
  5
2D4
330
2CD
100
AcDbEntity
  8
치수문자_일반주서
 62
     0
370
    -2
100
AcDbLine
 10
56.30423995223233
 20
66.76812255170614
 30
0.0
 11
56.30423995223234
 21
63.46612255170614
 31
0.0
  0
SOLID
  5
2D5
330
2CD
100
AcDbEntity
  8
치수문자_일반주서
 62
     0
100
AcDbTrace
 10
55.75390661889892
 20
87.37212255170616
 30
0.0
 11
56.85457328556559
 21
87.37212255170616
 31
0.0
 12
56.30423995223227
 22
84.07012255170615
 32
0.0
 13
56.30423995223227
 23
84.07012255170615
 33
0.0
  0
SOLID
  5
2D6
330
2CD
100
AcDbEntity
  8
치수문자_일반주서
 62
     0
100
AcDbTrace
 10
56.85457328556566
 20
66.76812255170614
 30
0.0
 11
55.75390661889899
 21
66.76812255170614
 31
0.0
 12
56.30423995223232
 22
70.07012255170615
 32
0.0
 13
56.30423995223232
 23
70.07012255170615
 33
0.0
  0
MTEXT
  5
2D7
330
2CD
100
AcDbEntity
  8
치수문자_일반주서
 62
     0
100
AcDbMText
 10
51.92923995223229
 20
77.13582693341912
 30
0.0
 40
3.5
 41
0.0
 71
     2
 72
     1
  1
\A1;%%c14
  7
SLDTEXTSTYLE0
 11
-3.552713678800501E-15
 21
1.0
 31
0.0
 73
     1
 44
1.0
  0
POINT
  5
2D8
330
2CD
100
AcDbEntity
  8
Defpoints
 62
     0
100
AcDbPoint
 10
41.30423995223227
 20
84.07012255170609
 30
0.0
  0
POINT
  5
2D9
330
2CD
100
AcDbEntity
  8
Defpoints
 62
     0
100
AcDbPoint
 10
41.30423995223226
 20
70.07012255170609
 30
0.0
  0
POINT
  5
2DA
330
2CD
100
AcDbEntity
  8
Defpoints
 62
     0
100
AcDbPoint
 10
56.30423995223232
 20
70.07012255170615
 30
0.0
  0
ENDBLK
  5
2CF
330
2CD
100
AcDbEntity
  8
0
100
AcDbBlockEnd
  0
BLOCK
  5
2DC
330
2DB
100
AcDbEntity
  8
0
100
AcDbBlockBegin
  2
*D17
 70
     1
 10
0.0
 20
0.0
 30
0.0
  3
*D17
  1
*D17
  0
LINE
  5
2DE
330
2DB
100
AcDbEntity
  8
치수문자_일반주서
 62
     0
370
    -2
100
AcDbLine
 10
42.79501513390171
 20
67.33098405882731
 30
0.0
 11
59.12136800242754
 21
40.76680016116794
 31
0.0
  0
MTEXT
  5
2DF
330
2DB
100
AcDbEntity
  8
치수문자_일반주서
 62
     0
100
AcDbMText
 10
54.59987835365988
 20
53.13684645932652
 30
0.0
 40
3.5
 41
0.0
 71
     5
 72
     1
  1
\A1;R.50 [R0.02]
  7
SLDTEXTSTYLE0
 11
0.5236126201129557
 21
-0.8519564684057781
 31
0.0
 73
     1
 44
1.0
  0
SOLID
  5
2E0
330
2DB
100
AcDbEntity
  8
치수문자_일반주서
 62
     0
100
AcDbTrace
 10
43.26387517701436
 20
67.61914553742947
 30
0.0
 11
42.32615509078906
 21
67.04282258022515
 31
0.0
 12
41.06604626228873
 22
70.14414431750319
 32
0.0
 13
41.06604626228873
 23
70.14414431750319
 33
0.0
  0
LINE
  5
2E1
330
2DB
100
AcDbEntity
  8
치수문자_일반주서
 62
     0
100
AcDbLine
 10
40.71423995223224
 20
70.57012255170609
 30
0.0
 11
40.89423995223225
 21
70.57012255170609
 31
0.0
  0
LINE
  5
2E2
330
2DB
100
AcDbEntity
  8
치수문자_일반주서
 62
     0
100
AcDbLine
 10
40.80423995223224
 20
70.48012255170609
 30
0.0
 11
40.80423995223224
 21
70.6601225517061
 31
0.0
  0
POINT
  5
2E3
330
2DB
100
AcDbEntity
  8
Defpoints
 62
     0
100
AcDbPoint
 10
41.06604626228873
 20
70.14414431750319
 30
0.0
  0
POINT
  5
2E4
330
2DB
100
AcDbEntity
  8
Defpoints
 62
     0
100
AcDbPoint
 10
40.80423995223224
 20
70.57012255170609
 30
0.0
  0
ENDBLK
  5
2DD
330
2DB
100
AcDbEntity
  8
0
100
AcDbBlockEnd
  0
ENDSEC
  0
SECTION
  2
ENTITIES
  0
LINE
  5
96
330
1F
100
AcDbEntity
  8
외형선
  6
Continuous
370
    15
100
AcDbLine
 10
9.110031978150136
 20
1.587499999999999
 30
0.0
 11
-40.37
 21
1.587499999999996
 31
0.0
  0
LINE
  5
97
330
1F
100
AcDbEntity
  8
외형선
  6
Continuous
370
    15
100
AcDbLine
 10
10.0
 20
1.587499999999999
 30
0.0
 11
9.59887032910517
 21
1.587499999999999
 31
0.0
  0
LINE
  5
98
330
1F
100
AcDbEntity
  8
외형선
  6
Continuous
370
    15
100
AcDbLine
 10
9.598870329105202
 20
-1.587500000000001
 30
0.0
 11
10.0
 21
-1.587500000000001
 31
0.0
  0
LINE
  5
99
330
1F
100
AcDbEntity
  8
외형선
  6
Continuous
370
    15
100
AcDbLine
 10
-40.37
 20
-1.587500000000004
 30
0.0
 11
9.110031978150136
 21
-1.587500000000001
 31
0.0
  0
LINE
  5
9A
330
1F
100
AcDbEntity
  8
외형선
  6
Continuous
370
    15
100
AcDbLine
 10
-40.37
 20
1.587499999999992
 30
0.0
 11
-40.79999999999998
 21
1.157499999999992
 31
0.0
  0
LINE
  5
9B
330
1F
100
AcDbEntity
  8
외형선
  6
Continuous
370
    15
100
AcDbLine
 10
-40.79999999999998
 20
-1.157500000000001
 30
0.0
 11
-40.37
 21
-1.587500000000001
 31
0.0
  0
LINE
  5
9C
330
1F
100
AcDbEntity
  8
0
  6
Continuous
 62
     1
370
    15
100
AcDbLine
 10
22.01657949162749
 20
0.3132837041818467
 30
0.0
 11
21.75267320169555
 21
0.4567019136207881
 31
0.0
  0
LINE
  5
9D
330
1F
100
AcDbEntity
  8
0
  6
Continuous
 62
     1
370
    15
100
AcDbLine
 10
13.17764829106349
 20
0.4222846097803091
 30
0.0
 11
13.11484287169045
 21
0.4564866785614219
 31
0.0
  0
LINE
  5
9E
330
1F
100
AcDbEntity
  8
0
  6
Continuous
 62
     1
370
    15
100
AcDbLine
 10
30.43933251388967
 20
0.4303602302493544
 30
0.0
 11
30.39097726472222
 21
0.4566551268353248
 31
0.0
  0
SPLINE
  5
9F
330
1F
100
AcDbEntity
  8
0
  6
Continuous
 62
     1
370
    15
100
AcDbSpline
210
0.0
220
0.0
230
1.0
 70
     8
 71
     3
 72
     9
 73
     5
 74
     0
 42
0.000000001
 43
0.00000001
 40
0.0
 40
0.0
 40
0.0
 40
0.0
 40
0.4995893731570888
 40
1.0
 40
1.0
 40
1.0
 40
1.0
 10
22.64788890672232
 20
0.4069615965539964
 30
0.0
 10
22.57484828635082
 20
0.4419254618858958
 30
0.0
 10
22.42864697724385
 20
0.5119106681582986
 30
0.0
 10
22.2824278397029
 20
0.5886481361085907
 30
0.0
 10
22.20925822942961
 20
0.6270483805479341
 30
0.0
  0
LINE
  5
A0
330
1F
100
AcDbEntity
  8
0
  6
Continuous
 62
     1
370
    15
100
AcDbLine
 10
30.87564684594816
 20
0.6124772477878091
 30
0.0
 11
30.84788832356609
 21
0.6268309090841728
 31
0.0
  0
SPLINE
  5
A1
330
1F
100
AcDbEntity
  8
0
  6
Continuous
 62
     1
370
    15
100
AcDbSpline
210
0.0
220
0.0
230
1.0
 70
     8
 71
     3
 72
     9
 73
     5
 74
     0
 42
0.000000001
 43
0.00000001
 40
0.0
 40
0.0
 40
0.0
 40
0.0
 40
0.533399998304733
 40
1.0
 40
1.0
 40
1.0
 40
1.0
 10
31.28588807306111
 20
0.4070646004286391
 30
0.0
 10
31.21295264158526
 20
0.4419417765317226
 30
0.0
 10
31.07621579923872
 20
0.507328308616333
 30
0.0
 10
30.93945802407254
 20
0.5790240259557118
 30
0.0
 10
30.87564684594816
 20
0.6124772477878091
 30
0.0
  0
LINE
  5
A2
330
1F
100
AcDbEntity
  8
0
  6
Continuous
 62
     1
370
    15
100
AcDbLine
 10
13.59870107165212
 20
0.612744270609376
 30
0.0
 11
13.5710086544511
 21
0.6270643228021091
 31
0.0
  0
SPLINE
  5
A3
330
1F
100
AcDbEntity
  8
0
  6
Continuous
 62
     1
370
    15
100
AcDbSpline
210
0.0
220
0.0
230
1.0
 70
     8
 71
     3
 72
     9
 73
     5
 74
     0
 42
0.000000001
 43
0.00000001
 40
0.0
 40
0.0
 40
0.0
 40
0.0
 40
0.5332216850731175
 40
1.0
 40
1.0
 40
1.0
 40
1.0
 10
14.01004524075221
 20
0.4067858841104414
 30
0.0
 10
13.93693597925409
 20
0.4417406856906537
 30
0.0
 10
13.79982741157067
 20
0.5072946617548854
 30
0.0
 10
13.66270625435709
 20
0.5791866496451938
 30
0.0
 10
13.59870107165212
 20
0.612744270609376
 30
0.0
  0
LINE
  5
A4
330
1F
100
AcDbEntity
  8
0
  6
Continuous
 62
     1
370
    15
100
AcDbLine
 10
18.23600973145899
 20
-1.587500000000003
 30
0.0
 11
19.00592822029719
 21
-1.587500000000003
 31
0.0
  0
LINE
  5
A5
330
1F
100
AcDbEntity
  8
0
  6
Continuous
 62
     1
370
    15
100
AcDbLine
 10
10.36789446906425
 20
1.587500000000001
 30
0.0
 11
10.00000000000001
 21
1.587500000000001
 31
0.0
  0
LINE
  5
A6
330
1F
100
AcDbEntity
  8
0
  6
Continuous
 62
     1
370
    15
100
AcDbLine
 10
27.64427933159045
 20
1.587500000000001
 30
0.0
 11
26.87521839007192
 21
1.587500000000001
 31
0.0
  0
LINE
  5
A7
330
1F
100
AcDbEntity
  8
0
  6
Continuous
 62
     1
370
    15
100
AcDbLine
 10
26.87521839007191
 20
-1.587500000000003
 30
0.0
 11
27.64427933159047
 21
-1.587500000000003
 31
0.0
  0
LINE
  5
A8
330
1F
100
AcDbEntity
  8
0
  6
Continuous
 62
     1
370
    15
100
AcDbLine
 10
10.00000000000001
 20
-1.587500000000003
 30
0.0
 11
10.36789446906424
 21
-1.587500000000003
 31
0.0
  0
LINE
  5
A9
330
1F
100
AcDbEntity
  8
0
  6
Continuous
 62
     1
370
    15
100
AcDbLine
 10
19.00592822029719
 20
1.587500000000001
 30
0.0
 11
18.23600973145898
 21
1.587500000000001
 31
0.0
  0
SPLINE
  5
AA
330
1F
100
AcDbEntity
  8
0
  6
Continuous
 62
     1
370
    15
100
AcDbSpline
210
0.0
220
0.0
230
1.0
 70
     8
 71
     3
 72
    11
 73
     7
 74
     0
 42
0.000000001
 43
0.00000001
 40
0.0
 40
0.0
 40
0.0
 40
0.0
 40
0.3380130529212888
 40
0.4783332326472469
 40
0.6430203011533842
 40
0.9999999999999999
 40
0.9999999999999999
 40
0.9999999999999999
 40
0.9999999999999999
 10
11.09905233989796
 20
-1.321004835402421
 30
0.0
 10
11.36954897565581
 20
-1.297320267080958
 30
0.0
 10
11.75233753687858
 20
-1.263803466380075
 30
0.0
 10
12.25960790112042
 20
-1.24436824295619
 30
0.0
 10
12.78673307760905
 20
-1.234642003780209
 30
0.0
 10
13.202062761985
 20
-1.250578244430761
 30
0.0
 10
13.48627535693898
 20
-1.261483509523745
 30
0.0
  0
SPLINE
  5
AB
330
1F
100
AcDbEntity
  8
0
  6
Continuous
 62
     1
370
    15
100
AcDbSpline
210
0.0
220
0.0
230
1.0
 70
     8
 71
     3
 72
    10
 73
     6
 74
     0
 42
0.000000001
 43
0.00000001
 40
0.0
 40
0.0
 40
0.0
 40
0.0
 40
0.3878269447885762
 40
0.5943459475512989
 40
1.0
 40
1.0
 40
1.0
 40
1.0
 10
28.37559650337837
 20
-1.320994274747101
 30
0.0
 10
28.68408219532644
 20
-1.294809912853386
 30
0.0
 10
29.15683743667988
 20
-1.254682300293537
 30
0.0
 10
29.95278541492809
 20
-1.232741219281736
 30
0.0
 10
30.4401390855544
 20
-1.250040062860983
 30
0.0
 10
30.76308206676259
 20
-1.261503073101077
 30
0.0
  0
SPLINE
  5
AC
330
1F
100
AcDbEntity
  8
0
  6
Continuous
 62
     1
370
    15
100
AcDbSpline
210
0.0
220
0.0
230
1.0
 70
     8
 71
     3
 72
    12
 73
     8
 74
     0
 42
0.000000001
 43
0.00000001
 40
0.0
 40
0.0
 40
0.0
 40
0.0
 40
0.2833926391760129
 40
0.5015873337041141
 40
0.6991026596438111
 40
0.865060222924773
 40
1.0
 40
1.0
 40
1.0
 40
1.0
 10
22.12467922962306
 20
1.261493321644781
 30
0.0
 10
22.00237590809661
 20
1.255716899293412
 30
0.0
 10
21.7859066408426
 20
1.245492991241333
 30
0.0
 10
21.47771306448292
 20
1.239628512296534
 30
0.0
 10
21.21890080592028
 20
1.239552913303427
 30
0.0
 10
20.99942708442104
 20
1.242324161247116
 30
0.0
 10
20.86749472241066
 20
1.246902857808802
 30
0.0
 10
20.808328617793
 20
1.24895621026648
 30
0.0
  0
SPLINE
  5
AD
330
1F
100
AcDbEntity
  8
0
  6
Continuous
 62
     1
370
    15
100
AcDbSpline
210
0.0
220
0.0
230
1.0
 70
     8
 71
     3
 72
    11
 73
     7
 74
     0
 42
0.000000001
 43
0.00000001
 40
0.0
 40
0.0
 40
0.0
 40
0.0
 40
0.3716642696603706
 40
0.51964424513416
 40
0.6834418328443737
 40
1.0
 40
1.0
 40
1.0
 40
1.0
 10
19.73743696597095
 20
-1.320988258313864
 30
0.0
 10
20.03558637170094
 20
-1.295251233990885
 30
0.0
 10
20.45244544459307
 20
-1.259266885566606
 30
0.0
 10
20.98901411157502
 20
-1.242100522683346
 30
0.0
 10
21.48680593252283
 20
-1.235943152802226
 30
0.0
 10
21.87129677986568
 20
-1.251344026475237
 30
0.0
 10
22.12467922962306
 20
-1.261493321644783
 30
0.0
  0
SPLINE
  5
AE
330
1F
100
AcDbEntity
  8
0
  6
Continuous
 62
     1
370
    15
100
AcDbSpline
210
0.0
220
0.0
230
1.0
 70
     8
 71
     3
 72
    10
 73
     6
 74
     0
 42
0.000000001
 43
0.00000001
 40
0.0
 40
0.0
 40
0.0
 40
0.0
 40
0.6264606479960486
 40
0.8936176054484676
 40
1.0
 40
1.0
 40
1.0
 40
1.0
 10
30.76308206676259
 20
1.261503073101075
 30
0.0
 10
30.48434169048814
 20
1.251097034273053
 30
0.0
 10
30.08673122862599
 20
1.23625329344201
 30
0.0
 10
29.65055745967974
 20
1.241141430768554
 30
0.0
 10
29.48638888051031
 20
1.247835118953213
 30
0.0
 10
29.43963437802356
 20
1.249741452445641
 30
0.0
  0
SPLINE
  5
AF
330
1F
100
AcDbEntity
  8
0
  6
Continuous
 62
     1
370
    15
100
AcDbSpline
210
0.0
220
0.0
230
1.0
 70
     8
 71
     3
 72
    12
 73
     8
 74
     0
 42
0.000000001
 43
0.00000001
 40
0.0
 40
0.0
 40
0.0
 40
0.0
 40
0.359098102530327
 40
0.5717743102640421
 40
0.7571105919520029
 40
0.914469313200979
 40
1.0
 40
1.0
 40
1.0
 40
1.0
 10
13.48627535693898
 20
1.261483509523742
 30
0.0
 10
13.32887351149175
 20
1.254413213618762
 30
0.0
 10
13.07825026681091
 20
1.243155527944717
 30
0.0
 10
12.74391783847631
 20
1.239098218969113
 30
0.0
 10
12.49775371197494
 20
1.240420089248776
 30
0.0
 10
12.30881778043319
 20
1.243569879769855
 30
0.0
 10
12.20188944508999
 20
1.247727667838145
 30
0.0
 10
12.16423587248804
 20
1.249191784663591
 30
0.0
  0
SPLINE
  5
B0
330
1F
100
AcDbEntity
  8
0
  6
Continuous
 62
     1
370
    15
100
AcDbSpline
210
0.0
220
0.0
230
1.0
 70
     8
 71
     3
 72
     9
 73
     5
 74
     0
 42
0.000000001
 43
0.00000001
 40
0.0
 40
0.0
 40
0.0
 40
0.0
 40
0.665397975622041
 40
0.9999999999999999
 40
0.9999999999999999
 40
0.9999999999999999
 40
0.9999999999999999
 10
14.75989236202095
 20
-1.194013092431678
 30
0.0
 10
15.02657697763273
 20
-1.155113903697602
 30
0.0
 10
15.42736661839242
 20
-1.096653869012779
 30
0.0
 10
15.83173719215676
 20
-1.07350700682279
 30
0.0
 10
15.96704040473718
 20
-1.065762019876022
 30
0.0
  0
SPLINE
  5
B1
330
1F
100
AcDbEntity
  8
0
  6
Continuous
 62
     1
370
    15
100
AcDbSpline
210
0.0
220
0.0
230
1.0
 70
     8
 71
     3
 72
    13
 73
     9
 74
     0
 42
0.000000001
 43
0.00000001
 40
0.0
 40
0.0
 40
0.0
 40
0.0
 40
0.3030402286309429
 40
0.5426980506240013
 40
0.7442258558316099
 40
0.8649963322546653
 40
0.9813749508961813
 40
1.0
 40
1.0
 40
1.0
 40
1.0
 10
32.0360500251266
 20
-1.194057507980404
 30
0.0
 10
32.15815140670856
 20
-1.175779141207035
 30
0.0
 10
32.3768160442796
 20
-1.143045421128641
 30
0.0
 10
32.67559188399588
 20
-1.108398018689446
 30
0.0
 10
32.90033330234747
 20
-1.086614061137287
 30
0.0
 10
33.07445192499035
 20
-1.073198839767922
 30
0.0
 10
33.1761441339298
 20
-1.066134382513814
 30
0.0
 10
33.23003055185054
 20
-1.063348233443714
 30
0.0
 10
33.23746469935604
 20
-1.062963857492247
 30
0.0
  0
SPLINE
  5
B2
330
1F
100
AcDbEntity
  8
0
  6
Continuous
 62
     1
370
    15
100
AcDbSpline
210
0.0
220
0.0
230
1.0
 70
     8
 71
     3
 72
    17
 73
    13
 74
     0
 42
0.000000001
 43
0.00000001
 40
0.0
 40
0.0
 40
0.0
 40
0.0
 40
0.1525775696720243
 40
0.2678412985671511
 40
0.3649159174725923
 40
0.4743541292770167
 40
0.5859914825761396
 40
0.6743125530141948
 40
0.7205989686391567
 40
0.7900537879610509
 40
0.8835350884475167
 40
1.0
 40
1.0
 40
1.0
 40
1.0
 10
26.17106645701042
 20
1.085753014865308
 30
0.0
 10
26.03283874351307
 20
1.075152126860874
 30
0.0
 10
25.79018780628369
 20
1.056542867222148
 30
0.0
 10
25.45219974168926
 20
1.045568483880839
 30
0.0
 10
25.14884903109849
 20
1.043649454203764
 30
0.0
 10
24.85423014829364
 20
1.049691477438875
 30
0.0
 10
24.56842849074206
 20
1.063498422860853
 30
0.0
 10
24.34063020136384
 20
1.080140857309985
 30
0.0
 10
24.15224936305208
 20
1.097134861949417
 30
0.0
 10
23.9591962611186
 20
1.117299856691779
 30
0.0
 10
23.70070845254192
 20
1.148454578934604
 30
0.0
 10
23.50603328423518
 20
1.177764934631252
 30
0.0
 10
23.39803978419478
 20
1.194024470588721
 30
0.0
  0
SPLINE
  5
B3
330
1F
100
AcDbEntity
  8
0
  6
Continuous
 62
     1
370
    15
100
AcDbSpline
210
0.0
220
0.0
230
1.0
 70
     8
 71
     3
 72
    13
 73
     9
 74
     0
 42
0.000000001
 43
0.00000001
 40
0.0
 40
0.0
 40
0.0
 40
0.0
 40
0.2713186949338548
 40
0.4890943675430432
 40
0.6766242018076984
 40
0.7953192078731856
 40
0.9187872426864953
 40
1.0
 40
1.0
 40
1.0
 40
1.0
 10
23.39803978419478
 20
-1.194024470588723
 30
0.0
 10
23.5060316002811
 20
-1.177763898259613
 30
0.0
 10
23.70070373299737
 20
-1.148451674341046
 30
0.0
 10
23.96942676266544
 20
-1.116076956786121
 30
0.0
 10
24.17688503887708
 20
-1.09459719171247
 30
0.0
 10
24.34728891644323
 20
-1.079900143481467
 30
0.0
 10
24.47564032325437
 20
-1.070196201063144
 30
0.0
 10
24.55685946839499
 20
-1.065578462444236
 30
0.0
 10
24.58908540740459
 20
-1.0637462471108
 30
0.0
  0
SPLINE
  5
B4
330
1F
100
AcDbEntity
  8
0
  6
Continuous
 62
     1
370
    15
100
AcDbSpline
210
0.0
220
0.0
230
1.0
 70
     8
 71
     3
 72
    15
 73
    11
 74
     0
 42
0.000000001
 43
0.00000001
 40
0.0
 40
0.0
 40
0.0
 40
0.0
 40
0.175579579802956
 40
0.3228261446775624
 40
0.4604816070867448
 40
0.6419071917460306
 40
0.6903064544471663
 40
0.765556634855912
 40
0.8690878456398046
 40
0.9999999999999999
 40
0.9999999999999999
 40
0.9999999999999999
 40
0.9999999999999999
 10
34.81409095845027
 20
1.086163929703795
 30
0.0
 10
34.65735805375547
 20
1.073992331110166
 30
0.0
 10
34.36918399944048
 20
1.051613246634889
 30
0.0
 10
33.93031297285687
 20
1.042560874248197
 30
0.0
 10
33.49407897776339
 20
1.047945577647656
 30
0.0
 10
33.15569223171504
 20
1.066179168858576
 30
0.0
 10
32.87494410073614
 20
1.089053788708441
 30
0.0
 10
32.66463511334633
 20
1.109660587130706
 30
0.0
 10
32.37680958624768
 20
1.143049136509841
 30
0.0
 10
32.15814909270254
 20
1.175780472481728
 30
0.0
 10
32.0360500251266
 20
1.194057507980402
 30
0.0
  0
SPLINE
  5
B5
330
1F
100
AcDbEntity
  8
0
  6
Continuous
 62
     1
370
    15
100
AcDbSpline
210
0.0
220
0.0
230
1.0
 70
     8
 71
     3
 72
    11
 73
     7
 74
     0
 42
0.000000001
 43
0.00000001
 40
0.0
 40
0.0
 40
0.0
 40
0.0
 40
0.2886805033545068
 40
0.5000664228369777
 40
0.7102664223103083
 40
1.0
 40
1.0
 40
1.0
 40
1.0
 10
17.53308498168862
 20
1.08577344642893
 30
0.0
 10
17.26753451161786
 20
1.06808230217942
 30
0.0
 10
16.807535058562
 20
1.037436840785439
 30
0.0
 10
16.14765514186318
 20
1.049147695235023
 30
0.0
 10
15.48693282580391
 20
1.091461557742499
 30
0.0
 10
15.026647834124
 20
1.156386324165487
 30
0.0
 10
14.75989236202095
 20
1.194013092431675
 30
0.0
  0
LINE
  5
B6
330
1F
100
AcDbEntity
  8
외형선
  6
Continuous
370
    15
100
AcDbLine
 10
10.0
 20
1.587499999999999
 30
0.0
 11
10.0
 21
1.570624881164846
 31
0.0
  0
SPLINE
  5
B7
330
1F
100
AcDbEntity
  8
외형선
  6
Continuous
370
    15
100
AcDbSpline
210
0.0
220
0.0
230
1.0
 70
     8
 71
     3
 72
    10
 73
     6
 74
     0
 42
0.000000001
 43
0.00000001
 40
0.0
 40
0.0
 40
0.0
 40
0.0
 40
0.5
 40
0.5
 40
1.0
 40
1.0
 40
1.0
 40
1.0
 10
10.00000000000001
 20
1.570624881164844
 30
0.0
 10
9.850878676919233
 20
1.583099036728256
 30
0.0
 10
9.701220666725147
 20
1.588664107565928
 30
0.0
 10
9.406658400777278
 20
1.585929044386845
 30
0.0
 10
9.25920679800736
 20
1.577667308909416
 30
0.0
 10
9.110031978150136
 20
1.56250290953879
 30
0.0
  0
LINE
  5
B8
330
1F
100
AcDbEntity
  8
외형선
  6
Continuous
370
    15
100
AcDbLine
 10
9.110031978150136
 20
-1.424210371157989
 30
0.0
 11
9.110031978150136
 21
1.587499999999999
 31
0.0
  0
SPLINE
  5
B9
330
1F
100
AcDbEntity
  8
외형선
  6
Continuous
370
    15
100
AcDbSpline
210
0.0
220
0.0
230
1.0
 70
     8
 71
     3
 72
    10
 73
     6
 74
     0
 42
0.000000001
 43
0.00000001
 40
0.0
 40
0.0
 40
0.0
 40
0.0
 40
0.5
 40
0.5
 40
1.0
 40
1.0
 40
1.0
 40
1.0
 10
10.00000000000001
 20
-1.573294070757759
 30
0.0
 10
9.850884267924801
 20
-1.561844486234112
 30
0.0
 10
9.70123188798956
 20
-1.543446991982453
 30
0.0
 10
9.40668031160074
 20
-1.493640939853805
 30
0.0
 10
9.259234707266359
 20
-1.462133230530513
 30
0.0
 10
9.110065536211799
 20
-1.42424042435383
 30
0.0
  0
LINE
  5
BA
330
1F
100
AcDbEntity
  8
외형선
  6
Continuous
370
    15
100
AcDbLine
 10
10.0
 20
-1.573294070757757
 30
0.0
 11
10.0
 21
-1.587500000000001
 31
0.0
  0
LINE
  5
BC
330
1F
100
AcDbEntity
  8
외형선
  6
Continuous
370
    15
100
AcDbLine
 10
9.110031978150136
 20
-1.587500000000001
 30
0.0
 11
9.110031978150136
 21
-1.562406951491328
 31
0.0
  0
LINE
  5
BD
330
1F
100
AcDbEntity
  8
외형선
  6
Continuous
370
    15
100
AcDbLine
 10
-40.37
 20
1.587499999999992
 30
0.0
 11
-40.37
 21
-1.587500000000004
 31
0.0
  0
LINE
  5
BE
330
1F
100
AcDbEntity
  8
외형선
  6
Continuous
370
    15
100
AcDbLine
 10
-40.79999999999998
 20
1.157499999999992
 30
0.0
 11
-40.79999999999998
 21
-1.157500000000001
 31
0.0
  0
SPLINE
  5
BF
330
1F
100
AcDbEntity
  8
외형선
  6
Continuous
370
    15
100
AcDbSpline
210
0.0
220
0.0
230
1.0
 70
     8
 71
     3
 72
    10
 73
     6
 74
     0
 42
0.000000001
 43
0.00000001
 40
0.0
 40
0.0
 40
0.0
 40
0.0
 40
0.5000000000000001
 40
0.5000000000000001
 40
1.0
 40
1.0
 40
1.0
 40
1.0
 10
9.99999999999999
 20
-1.324012810843
 30
0.0
 10
9.850884267924787
 20
-1.309943230190554
 30
0.0
 10
9.701231887989548
 20
-1.290021492231758
 30
0.0
 10
9.406680311600732
 20
-1.239390842352795
 30
0.0
 10
9.259234707266355
 20
-1.208573002878686
 30
0.0
 10
9.110065536211799
 20
-1.172479679887229
 30
0.0
  0
SPLINE
  5
C0
330
1F
100
AcDbEntity
  8
외형선
  6
Continuous
370
    15
100
AcDbSpline
210
0.0
220
0.0
230
1.0
 70
     8
 71
     3
 72
    10
 73
     6
 74
     0
 42
0.000000001
 43
0.00000001
 40
0.0
 40
0.0
 40
0.0
 40
0.0
 40
0.5
 40
0.5
 40
1.0
 40
1.0
 40
1.0
 40
1.0
 10
10.00000000000001
 20
-0.2361763423419264
 30
0.0
 10
9.850880717284731
 20
-0.1687502039017622
 30
0.0
 10
9.701224761781273
 20
-0.1002052683097696
 30
0.0
 10
9.40666639684544
 20
0.0364320099185402
 30
0.0
 10
9.259216983136909
 20
0.1049169882078976
 30
0.0
 10
9.110044224734146
 20
0.1729093028514561
 30
0.0
  0
SPLINE
  5
C1
330
1F
100
AcDbEntity
  8
외형선
  6
Continuous
370
    15
100
AcDbSpline
210
0.0
220
0.0
230
1.0
 70
    24
 71
     3
 72
    10
 73
     6
 74
     0
 42
0.000000001
 43
0.00000001
 40
0.0
 40
0.0
 40
0.0
 40
0.0
 40
0.5
 40
0.5
 40
1.0
 40
1.0
 40
1.0
 40
1.0
 10
9.999999999999986
 20
-0.2361763423419175
 30
0.0
 10
9.999999999999986
 20
-0.4698914429986325
 30
0.0
 10
9.999999999999986
 20
-0.6988670698937757
 30
0.0
 10
9.999999999999986
 20
-1.079119820693186
 30
0.0
 10
9.999999999999986
 20
-1.228760188106778
 30
0.0
 10
9.999999999999986
 20
-1.324012810842999
 30
0.0
  0
SPLINE
  5
C2
330
1F
100
AcDbEntity
  8
외형선
  6
Continuous
370
    15
100
AcDbSpline
210
0.0
220
0.0
230
1.0
 70
     8
 71
     3
 72
    10
 73
     6
 74
     0
 42
0.000000001
 43
0.00000001
 40
0.0
 40
0.0
 40
0.0
 40
0.0
 40
0.5
 40
0.5
 40
1.0
 40
1.0
 40
1.0
 40
1.0
 10
9.999999999999957
 20
1.091865634122551
 30
0.0
 10
9.850880022900771
 20
1.103032045196336
 30
0.0
 10
9.701223368138237
 20
1.109398368299171
 30
0.0
 10
9.406663675596494
 20
1.112401041573518
 30
0.0
 10
9.259213516900612
 20
1.109078429960755
 30
0.0
 10
9.11004005693644
 20
1.100902215842343
 30
0.0
  0
SPLINE
  5
C3
330
1F
100
AcDbEntity
  8
외형선
  6
Continuous
370
    15
100
AcDbSpline
210
0.0
220
0.0
230
1.0
 70
    24
 71
     3
 72
    10
 73
     6
 74
     0
 42
0.000000001
 43
0.00000001
 40
0.0
 40
0.0
 40
0.0
 40
0.0
 40
0.5
 40
0.5
 40
1.0
 40
1.0
 40
1.0
 40
1.0
 10
10.00000000000001
 20
1.091865634122548
 30
0.0
 10
10.00000000000001
 20
0.981927219577888
 30
0.0
 10
10.0
 20
0.7979969268514021
 30
0.0
 10
10.00000000000001
 20
0.3259342305670844
 30
0.0
 10
10.00000000000001
 20
0.0414594094967569
 30
0.0
 10
10.00000000000001
 20
-0.2361763423419261
 30
0.0
  0
SPLINE
  5
C4
330
1F
100
AcDbEntity
  8
외형선
  6
Continuous
370
    15
100
AcDbSpline
210
0.0
220
0.0
230
1.0
 70
    24
 71
     3
 72
     8
 73
     4
 74
     0
 42
0.000000001
 43
0.00000001
 40
0.0
 40
0.0
 40
0.0
 40
0.0
 40
1.0
 40
1.0
 40
1.0
 40
1.0
 10
10.00000000000051
 20
-1.324012810843049
 30
0.0
 10
10.00000000000051
 20
-1.407947124261128
 30
0.0
 10
10.00000000000051
 20
-1.491578653504007
 30
0.0
 10
10.00000000000051
 20
-1.573294070749452
 30
0.0
  0
SPLINE
  5
C5
330
1F
100
AcDbEntity
  8
외형선
  6
Continuous
370
    15
100
AcDbSpline
210
0.0
220
0.0
230
1.0
 70
    24
 71
     3
 72
    10
 73
     6
 74
     0
 42
0.000000001
 43
0.00000001
 40
0.0
 40
0.0
 40
0.0
 40
0.0
 40
0.5
 40
0.5
 40
1.0
 40
1.0
 40
1.0
 40
1.0
 10
9.999999999999995
 20
1.570624881164845
 30
0.0
 10
9.999999999999995
 20
1.496290638183451
 30
0.0
 10
9.999999999999995
 20
1.413148216223049
 30
0.0
 10
9.999999999999995
 20
1.247421764778054
 30
0.0
 10
9.999999999999995
 20
1.165284201013591
 30
0.0
 10
9.999999999999995
 20
1.091865634122548
 30
0.0
  0
SPLINE
  5
C6
330
1F
100
AcDbEntity
  8
0
  6
Continuous
 62
     1
370
    15
100
AcDbSpline
210
0.0
220
0.0
230
1.0
 70
     8
 71
     3
 72
    21
 73
    17
 74
     0
 42
0.000000001
 43
0.00000001
 40
0.0
 40
0.0
 40
0.0
 40
0.0
 40
0.0491300092942851
 40
0.1244665781966137
 40
0.1998130162295317
 40
0.2751681254360572
 40
0.3505157035260386
 40
0.4258532922135371
 40
0.5011820019935109
 40
0.5765029532898516
 40
0.6518172752296413
 40
0.7271261043966224
 40
0.8024305835667994
 40
0.8777318604291492
 40
0.9530310862944898
 40
0.9999999999999999
 40
0.9999999999999999
 40
0.9999999999999999
 40
0.9999999999999999
 10
15.96704040473718
 20
1.065762019876019
 30
0.0
 10
16.14568116592113
 20
1.142014786784566
 30
0.0
 10
16.59825189795214
 20
1.335194497341528
 30
0.0
 10
17.32480996081624
 20
1.521163453070823
 30
0.0
 10
18.14674461432911
 20
1.611101001186343
 30
0.0
 10
18.96874999257417
 20
1.554372326448184
 30
0.0
 10
19.79069622912841
 20
1.360897323438866
 30
0.0
 10
20.61252553381414
 20
1.046527709605412
 30
0.0
 10
21.43423849485286
 20
0.6394881489944426
 30
0.0
 10
22.25585001753091
 20
0.1758042437564783
 30
0.0
 10
23.07737479336974
 20
-0.3035493287759732
 30
0.0
 10
23.89882770270562
 20
-0.7555710391040956
 30
0.0
 10
24.72022369613442
 20
-1.142208681705177
 30
0.0
 10
25.54157776253678
 20
-1.42176446975507
 30
0.0
 10
26.25990444030841
 20
-1.575261432012551
 30
0.0
 10
26.70444829422863
 20
-1.572117349914196
 30
0.0
 10
26.87521839007191
 20
-1.570909560859099
 30
0.0
  0
SPLINE
  5
C7
330
1F
100
AcDbEntity
  8
0
  6
Continuous
 62
     1
370
    15
100
AcDbSpline
210
0.0
220
0.0
230
1.0
 70
     8
 71
     3
 72
    10
 73
     6
 74
     0
 42
0.000000001
 43
0.00000001
 40
0.0
 40
0.0
 40
0.0
 40
0.0
 40
0.2378484134471761
 40
0.6188977030220977
 40
1.0
 40
1.0
 40
1.0
 40
1.0
 10
33.24309852271638
 20
1.065261380443702
 30
0.0
 10
33.41409804711967
 20
1.138454202974536
 30
0.0
 10
33.85905040705869
 20
1.328906891245663
 30
0.0
 10
34.57801460039854
 20
1.523162115467985
 30
0.0
 10
35.12599216291052
 20
1.565158577660459
 30
0.0
 10
35.40000000000001
 20
1.587499999999999
 30
0.0
  0
SPLINE
  5
C8
330
1F
100
AcDbEntity
  8
0
  6
Continuous
 62
     1
370
    15
100
AcDbSpline
210
0.0
220
0.0
230
1.0
 70
    24
 71
     3
 72
    10
 73
     6
 74
     0
 42
0.000000001
 43
0.00000001
 40
0.0
 40
0.0
 40
0.0
 40
0.0
 40
0.5
 40
0.5
 40
1.0
 40
1.0
 40
1.0
 40
1.0
 10
35.40000000000001
 20
1.111249999999999
 30
0.0
 10
35.40000000000001
 20
1.17861120768161
 30
0.0
 10
35.40000000000002
 20
1.256891169326548
 30
0.0
 10
35.40000000000001
 20
1.42112231802536
 30
0.0
 10
35.40000000000002
 20
1.50665407933484
 30
0.0
 10
35.40000000000001
 20
1.587500000000002
 30
0.0
  0
LINE
  5
C9
330
1F
100
AcDbEntity
  8
0
  6
Continuous
 62
     1
370
    15
100
AcDbLine
 10
35.40000000000001
 20
1.111249999999999
 30
0.0
 11
34.81211084012723
 21
1.076024202075924
 31
0.0
  0
SPLINE
  5
CA
330
1F
100
AcDbEntity
  8
0
  6
Continuous
 62
     1
370
    15
100
AcDbSpline
210
0.0
220
0.0
230
1.0
 70
     8
 71
     3
 72
    14
 73
    10
 74
     0
 42
0.000000001
 43
0.00000001
 40
0.0
 40
0.0
 40
0.0
 40
0.0
 40
0.1062981826382217
 40
0.2617144203052018
 40
0.4171480693800635
 40
0.5726016430684855
 40
0.7280776318084543
 40
0.8835705150572298
 40
1.0
 40
1.0
 40
1.0
 40
1.0
 10
22.81781527503223
 20
-0.1498145308061856
 30
0.0
 10
22.63050240332699
 20
-0.0746190256413111
 30
0.0
 10
22.1693234968081
 20
0.1105181757232746
 30
0.0
 10
21.43423887433921
 20
0.4050148368672966
 30
0.0
 10
20.61252584065264
 20
0.6964886174083962
 30
0.0
 10
19.79069617442151
 20
0.92752516861455
 30
0.0
 10
18.96875085492966
 20
1.073041828580432
 30
0.0
 10
18.21555982922045
 20
1.13018915353621
 30
0.0
 10
17.73637104054457
 20
1.0925317168099
 30
0.0
 10
17.53119592300299
 20
1.076407865022831
 30
0.0
  0
SPLINE
  5
CB
330
1F
100
AcDbEntity
  8
0
  6
Continuous
 62
     1
370
    15
100
AcDbSpline
210
0.0
220
0.0
230
1.0
 70
     8
 71
     3
 72
    18
 73
    14
 74
     0
 42
0.000000001
 43
0.00000001
 40
0.0
 40
0.0
 40
0.0
 40
0.0
 40
0.0969547338553452
 40
0.1939079894115882
 40
0.2908653336510568
 40
0.3905973673821928
 40
0.490334997163163
 40
0.590079737266316
 40
0.6898330939464311
 40
0.7895965637638194
 40
0.8893716319306706
 40
0.989159770684511
 40
1.0
 40
1.0
 40
1.0
 40
1.0
 10
9.99999999999849
 20
1.570624881164975
 30
0.0
 10
10.26614623985095
 20
1.535431901442252
 30
0.0
 10
10.79843466154103
 20
1.465046478595157
 30
0.0
 10
11.59687744255723
 20
1.2014562877231
 30
0.0
 10
12.40292546238384
 20
0.8432651048367745
 30
0.0
 10
13.2167336460694
 20
0.4057783521565825
 30
0.0
 10
14.03817323894429
 20
-0.0709922861763967
 30
0.0
 10
14.85969117312097
 20
-0.5419464891544344
 30
0.0
 10
15.6812921533017
 20
-0.9638203585838859
 30
0.0
 10
16.50299322889974
 20
-1.304120867298206
 30
0.0
 10
17.32481012211357
 20
-1.514615588655656
 30
0.0
 10
17.90249502509869
 20
-1.605545464303886
 30
0.0
 10
18.20624585853322
 20
-1.582891946251638
 30
0.0
 10
18.23600973145899
 20
-1.580672178078478
 30
0.0
  0
SPLINE
  5
CC
330
1F
100
AcDbEntity
  8
0
  6
Continuous
 62
     1
370
    15
100
AcDbSpline
210
0.0
220
0.0
230
1.0
 70
     8
 71
     3
 72
    21
 73
    17
 74
     0
 42
0.000000001
 43
0.00000001
 40
0.0
 40
0.0
 40
0.0
 40
0.0
 40
0.012098422077184
 40
0.088077733217842
 40
0.1640549748937259
 40
0.240031311125265
 40
0.3160079069585168
 40
0.3919859271454443
 40
0.4679665348249006
 40
0.5439508902075154
 40
0.6199401492676596
 40
0.6959354624456325
 40
0.7719379733631706
 40
0.8479488175553301
 40
0.9239691212217223
 40
1.0
 40
1.0
 40
1.0
 40
1.0
 10
24.58944689222171
 20
1.063913341029251
 30
0.0
 10
24.63304267618268
 20
1.084370383779399
 30
0.0
 10
24.95042438138692
 20
1.233299718718994
 30
0.0
 10
25.54157731359151
 20
1.420312185066496
 30
0.0
 10
26.36290514348298
 20
1.584814636259326
 30
0.0
 10
27.18422048605005
 20
1.600730707383953
 30
0.0
 10
28.00553939489674
 20
1.477015187022474
 30
0.0
 10
28.82687672424151
 20
1.221850647140528
 30
0.0
 10
29.64824762573318
 20
0.8585786311127312
 30
0.0
 10
30.46966712945898
 20
0.4191972124646681
 30
0.0
 10
31.29115021613001
 20
-0.0573810424688385
 30
0.0
 10
32.11271184096893
 20
-0.5286990819569192
 30
0.0
 10
32.93436666041541
 20
-0.9539054726048237
 30
0.0
 10
33.75612999714467
 20
-1.291884933083022
 30
0.0
 10
34.57801414965961
 20
-1.525466021384247
 30
0.0
 10
35.12599201265724
 20
-1.565926581906373
 30
0.0
 10
35.40000000000002
 20
-1.587500000000001
 30
0.0
  0
SPLINE
  5
CD
330
1F
100
AcDbEntity
  8
0
  6
Continuous
 62
     1
370
    15
100
AcDbSpline
210
0.0
220
0.0
230
1.0
 70
     8
 71
     3
 72
    15
 73
    11
 74
     0
 42
0.000000001
 43
0.00000001
 40
0.0
 40
0.0
 40
0.0
 40
0.0
 40
0.0313420517295219
 40
0.186701821029968
 40
0.3420506852178185
 40
0.4973912148035372
 40
0.652725989925081
 40
0.80805759737534
 40
0.9633886276132803
 40
1.0
 40
1.0
 40
1.0
 40
1.0
 10
31.45685731148986
 20
-0.1501870204480453
 30
0.0
 10
31.40161545021148
 20
-0.1285791558600708
 30
0.0
 10
31.07254458443774
 20
0.0001369761263954
 30
0.0
 10
30.46967139103889
 20
0.2494138491060683
 30
0.0
 10
29.64825105526136
 20
0.561079857892291
 30
0.0
 10
28.82687999758698
 20
0.8240887105320277
 30
0.0
 10
28.00554234879336
 20
1.015722296158696
 30
0.0
 10
27.18422308494456
 20
1.109730212196842
 30
0.0
 10
26.57215412341643
 20
1.128045093936231
 30
0.0
 10
26.23385569470321
 20
1.085128010325999
 30
0.0
 10
26.16932816153648
 20
1.076941943525122
 30
0.0
  0
SPLINE
  5
CE
330
1F
100
AcDbEntity
  8
0
  6
Continuous
 62
     1
370
    15
100
AcDbSpline
210
0.0
220
0.0
230
1.0
 70
     8
 71
     3
 72
    13
 73
     9
 74
     0
 42
0.000000001
 43
0.00000001
 40
0.0
 40
0.0
 40
0.0
 40
0.0
 40
0.0340256371039089
 40
0.2305170919917385
 40
0.4269965551413255
 40
0.6234672849570279
 40
0.8199325499383949
 40
1.0
 40
1.0
 40
1.0
 40
1.0
 10
14.18041051118721
 20
-0.1503076404480841
 30
0.0
 10
14.13299483196163
 20
-0.1317933819314755
 30
0.0
 10
13.8117628016395
 20
-0.0063628713844266
 30
0.0
 10
13.21673845420083
 20
0.2400477677562207
 30
0.0
 10
12.39534406896641
 20
0.5528964859993832
 30
0.0
 10
11.57400410567906
 20
0.8167232321046238
 30
0.0
 10
10.77548726531729
 20
1.008855248020128
 30
0.0
 10
10.25088029644169
 20
1.065010686008611
 30
0.0
 10
10.00000000000001
 20
1.091865634122548
 30
0.0
  0
SPLINE
  5
CF
330
1F
100
AcDbEntity
  8
외형선
  6
Continuous
370
    15
100
AcDbSpline
210
0.0
220
0.0
230
1.0
 70
    24
 71
     3
 72
    10
 73
     6
 74
     0
 42
0.000000001
 43
0.00000001
 40
0.0
 40
0.0
 40
0.0
 40
0.0
 40
0.5
 40
0.5
 40
1.0
 40
1.0
 40
1.0
 40
1.0
 10
9.999999999999995
 20
1.570624881164845
 30
0.0
 10
9.999999999999995
 20
1.496290638183451
 30
0.0
 10
9.999999999999995
 20
1.413148216223049
 30
0.0
 10
9.999999999999995
 20
1.247421764778054
 30
0.0
 10
9.999999999999995
 20
1.165284201013591
 30
0.0
 10
9.999999999999995
 20
1.091865634122548
 30
0.0
  0
SPLINE
  5
D0
330
1F
100
AcDbEntity
  8
0
  6
Continuous
 62
     1
370
    15
100
AcDbSpline
210
0.0
220
0.0
230
1.0
 70
     8
 71
     3
 72
    20
 73
    16
 74
     0
 42
0.000000001
 43
0.00000001
 40
0.0
 40
0.0
 40
0.0
 40
0.0
 40
0.0585797603115652
 40
0.1373141236127352
 40
0.2160470110805031
 40
0.2947796298130161
 40
0.3735131872128815
 40
0.4522488896193894
 40
0.5309879409433138
 40
0.609731541307583
 40
0.6884808856970999
 40
0.7672371626209425
 40
0.846001552790141
 40
0.9247752278141386
 40
1.0
 40
1.0
 40
1.0
 40
1.0
 10
29.43796681685376
 20
-1.250266900999054
 30
0.0
 10
29.2342698411637
 20
-1.320092933096195
 30
0.0
 10
28.75679312308431
 20
-1.483768925482949
 30
0.0
 10
28.00554897623411
 20
-1.594987518758456
 30
0.0
 10
27.18423096770038
 20
-1.5894431680391
 30
0.0
 10
26.36291656730041
 20
-1.43927967365868
 30
0.0
 10
25.54159035288335
 20
-1.162616530394523
 30
0.0
 10
24.7202373105918
 20
-0.7826657425737223
 30
0.0
 10
23.89884234873424
 20
-0.3334506864430722
 30
0.0
 10
23.07739046928872
 20
0.1453984070437354
 30
0.0
 10
22.25586667469997
 20
0.6111563638581993
 30
0.0
 10
21.43425627516207
 20
1.023580884102642
 30
0.0
 10
20.61254385750755
 20
1.342295200175113
 30
0.0
 10
19.80309508723273
 20
1.550124098843153
 30
0.0
 10
19.26753651686255
 20
1.573193167358505
 30
0.0
 10
19.00592822029719
 20
1.584461887628408
 30
0.0
  0
SPLINE
  5
D1
330
1F
100
AcDbEntity
  8
0
  6
Continuous
 62
     1
370
    15
100
AcDbSpline
210
0.0
220
0.0
230
1.0
 70
     8
 71
     3
 72
    10
 73
     6
 74
     0
 42
0.000000001
 43
0.00000001
 40
0.0
 40
0.0
 40
0.0
 40
0.0
 40
0.2621604476452369
 40
0.6310774105746626
 40
0.9999999999999999
 40
0.9999999999999999
 40
0.9999999999999999
 40
0.9999999999999999
 10
12.16427217875698
 20
-1.249180119904427
 30
0.0
 10
11.97514197027987
 20
-1.314567617409733
 30
0.0
 10
11.51986428327845
 20
-1.471969593872051
 30
0.0
 10
10.79844579856182
 20
-1.594055453288106
 30
0.0
 10
10.2661499525501
 20
-1.580214566782912
 30
0.0
 10
9.999999999997035
 20
-1.573294070757532
 30
0.0
  0
SPLINE
  5
D2
330
1F
100
AcDbEntity
  8
외형선
  6
Continuous
370
    15
100
AcDbSpline
210
0.0
220
0.0
230
1.0
 70
    24
 71
     3
 72
     8
 73
     4
 74
     0
 42
0.000000001
 43
0.00000001
 40
0.0
 40
0.0
 40
0.0
 40
0.0
 40
1.0
 40
1.0
 40
1.0
 40
1.0
 10
10.00000000000001
 20
-1.324012810843001
 30
0.0
 10
10.00000000000001
 20
-1.40794712426112
 30
0.0
 10
10.00000000000001
 20
-1.491578653504039
 30
0.0
 10
10.00000000000001
 20
-1.573294070749525
 30
0.0
  0
SPLINE
  5
D3
330
1F
100
AcDbEntity
  8
0
  6
Continuous
 62
     1
370
    15
100
AcDbSpline
210
0.0
220
0.0
230
1.0
 70
     8
 71
     3
 72
    15
 73
    11
 74
     0
 42
0.000000001
 43
0.00000001
 40
0.0
 40
0.0
 40
0.0
 40
0.0
 40
0.0649214645791938
 40
0.2079533063859536
 40
0.3509846381082187
 40
0.49401775150622
 40
0.637054936298578
 40
0.7800984775410954
 40
0.9231506530169044
 40
1.0
 40
1.0
 40
1.0
 40
1.0
 10
28.37833578011145
 20
-1.306076647878029
 30
0.0
 10
28.25407186454969
 20
-1.321819568476687
 30
0.0
 10
27.85603567924448
 20
-1.372246532992695
 30
0.0
 10
27.18423118731229
 20
-1.330136519565879
 30
0.0
 10
26.36291631144788
 20
-1.18530678668624
 30
0.0
 10
25.54158984035576
 20
-0.9290125145261745
 30
0.0
 10
24.72023660898805
 20
-0.5916963937895653
 30
0.0
 10
23.89884097327307
 20
-0.2032304527259655
 30
0.0
 10
23.20412966505075
 20
0.1459665280099114
 30
0.0
 10
22.78321083355354
 20
0.3406058887050069
 30
0.0
 10
22.63611163673241
 20
0.4086268264382628
 30
0.0
  0
SPLINE
  5
D4
330
1F
100
AcDbEntity
  8
0
  6
Continuous
 62
     1
370
    15
100
AcDbSpline
210
0.0
220
0.0
230
1.0
 70
     8
 71
     3
 72
     9
 73
     5
 74
     0
 42
0.000000001
 43
0.00000001
 40
0.0
 40
0.0
 40
0.0
 40
0.0
 40
0.3169328839326715
 40
1.0
 40
1.0
 40
1.0
 40
1.0
 10
11.10199464348771
 20
-1.306297647655282
 30
0.0
 10
10.98555666185573
 20
-1.321794094362787
 30
0.0
 10
10.61816663218401
 20
-1.370689136477752
 30
0.0
 10
10.25088084406379
 20
-1.34295624027346
 30
0.0
 10
10.0
 20
-1.324012810843001
 30
0.0
  0
SPLINE
  5
D5
330
1F
100
AcDbEntity
  8
0
  6
Continuous
 62
     1
370
    15
100
AcDbSpline
210
0.0
220
0.0
230
1.0
 70
     8
 71
     3
 72
    17
 73
    13
 74
     0
 42
0.000000001
 43
0.00000001
 40
0.0
 40
0.0
 40
0.0
 40
0.0
 40
0.1059794828086771
 40
0.2119442242554003
 40
0.3178957795457468
 40
0.4238357186090012
 40
0.5297656243882977
 40
0.6356870910997537
 40
0.7416017224646121
 40
0.8475111299185655
 40
0.9534169308025058
 40
1.0
 40
1.0
 40
1.0
 40
1.0
 10
35.40000000000001
 20
-1.506443629905644
 30
0.0
 10
35.12599235700642
 20
-1.443519088354805
 30
0.0
 10
34.57801518448927
 20
-1.317678757828798
 30
0.0
 10
33.7561320715054
 20
-0.9763372864415913
 30
0.0
 10
32.93436977939428
 20
-0.5580533388296312
 30
0.0
 10
32.11271600942368
 20
-0.0878053624665557
 30
0.0
 10
31.29115543500355
 20
0.3896733675484041
 30
0.0
 10
30.46967340899024
 20
0.8322093481279775
 30
0.0
 10
29.64825493624917
 20
1.203117838980488
 30
0.0
 10
28.82688517972208
 20
1.45932593039596
 30
0.0
 10
28.15889884688874
 20
1.587142298534854
 30
0.0
 10
27.76470090671728
 20
1.574070880105304
 30
0.0
 10
27.64427933159045
 20
1.570077757270255
 30
0.0
  0
SPLINE
  5
D6
330
1F
100
AcDbEntity
  8
0
  6
Continuous
 62
     1
370
    15
100
AcDbSpline
210
0.0
220
0.0
230
1.0
 70
     8
 71
     3
 72
    21
 73
    17
 74
     0
 42
0.000000001
 43
0.00000001
 40
0.0
 40
0.0
 40
0.0
 40
0.0
 40
0.018648428171169
 40
0.0973679681334976
 40
0.1760979469978997
 40
0.2548357892479879
 40
0.3335645657693417
 40
0.412283030234967
 40
0.4909923442738676
 40
0.5696936797518279
 40
0.6483882174879675
 40
0.7270771459498985
 40
0.8057616599305462
 40
0.8822580893753605
 40
0.9587512952908739
 40
1.0
 40
1.0
 40
1.0
 40
1.0
 10
20.80725648855276
 20
-1.249369015220687
 30
0.0
 10
20.74236220084455
 20
-1.275112265955667
 30
0.0
 10
20.40353337947569
 20
-1.409524024105417
 30
0.0
 10
19.79071495163384
 20
-1.540682247855853
 30
0.0
 10
18.96877085790776
 20
-1.612634165466535
 30
0.0
 10
18.14676634981956
 20
-1.532906986118093
 30
0.0
 10
17.32483230219556
 20
-1.319641830124078
 30
0.0
 10
16.5030172634816
 20
-0.9887927279147436
 30
0.0
 10
15.68131708820265
 20
-0.5704848596493735
 30
0.0
 10
14.85971725934142
 20
-0.1016276361805043
 30
0.0
 10
14.03820040377834
 20
0.3763352414639962
 30
0.0
 10
13.21676189969212
 20
0.8204603758283867
 30
0.0
 10
12.40295119958773
 20
1.190217748552695
 30
0.0
 10
11.59689702501343
 20
1.447673298276751
 30
0.0
 10
10.92107602100878
 20
1.58125177829765
 30
0.0
 10
10.51141251532625
 20
1.573577769432772
 30
0.0
 10
10.36789446906425
 20
1.57088932209976
 30
0.0
  0
SPLINE
  5
D7
330
1F
100
AcDbEntity
  8
0
  6
Continuous
 62
     1
370
    15
100
AcDbSpline
210
0.0
220
0.0
230
1.0
 70
     8
 71
     3
 72
    22
 73
    18
 74
     0
 42
0.000000001
 43
0.00000001
 40
0.0
 40
0.0
 40
0.0
 40
0.0
 40
0.125
 40
0.125
 40
0.25
 40
0.25
 40
0.375
 40
0.375
 40
0.5
 40
0.5
 40
0.625
 40
0.625
 40
0.75
 40
0.75
 40
0.875
 40
0.875
 40
1.0
 40
1.0
 40
1.0
 40
1.0
 10
35.40000000000001
 20
-1.252493469684544
 30
0.0
 10
35.23094661303137
 20
-1.22136875948867
 30
0.0
 10
35.05813762282467
 20
-1.182731480249613
 30
0.0
 10
34.71392418805717
 20
-1.092186772894369
 30
0.0
 10
34.54504025855951
 20
-1.040589147658077
 30
0.0
 10
34.20306716321326
 20
-0.925551379720426
 30
0.0
 10
34.02972385536353
 20
-0.8620114480396299
 30
0.0
 10
33.68733004075288
 20
-0.726178244292492
 30
0.0
 10
33.51871652866959
 20
-0.6540075860985696
 30
0.0
 10
33.17465744601407
 20
-0.5019484204996221
 30
0.0
 10
33.00171130658877
 20
-0.4223900690463838
 30
0.0
 10
32.66292480003248
 20
-0.2604221463804244
 30
0.0
 10
32.49092233645396
 20
-0.1770411191171921
 30
0.0
 10
32.14659416994028
 20
-0.0091208640776116
 30
0.0
 10
31.97736024784313
 20
0.0749014932599538
 30
0.0
 10
31.63584663537133
 20
0.2416048570744443
 30
0.0
 10
31.46252361041666
 20
0.3244432295481747
 30
0.0
 10
31.29113580546944
 20
0.4046105015914211
 30
0.0
  0
SPLINE
  5
D8
330
1F
100
AcDbEntity
  8
0
  6
Continuous
 62
     1
370
    15
100
AcDbSpline
210
0.0
220
0.0
230
1.0
 70
     8
 71
     3
 72
    15
 73
    11
 74
     0
 42
0.000000001
 43
0.00000001
 40
0.0
 40
0.0
 40
0.0
 40
0.0
 40
0.1338525181661226
 40
0.2768585171031288
 40
0.4198473166182771
 40
0.5628165515251179
 40
0.7057684251119225
 40
0.8487051603133834
 40
0.9916289972481056
 40
1.0
 40
1.0
 40
1.0
 40
1.0
 10
19.73821755186383
 20
-1.317317415820471
 30
0.0
 10
19.48174413810148
 20
-1.334475203319963
 30
0.0
 10
18.95125842155711
 20
-1.369964110581194
 30
0.0
 10
18.14676871017404
 20
-1.273924145618398
 30
0.0
 10
17.32483468296996
 20
-1.072574103621268
 30
0.0
 10
16.50301941756404
 20
-0.7739069924527168
 30
0.0
 10
15.68131888905475
 20
-0.4059889849927765
 30
0.0
 10
14.85971906996358
 20
-0.0070682812221361
 30
0.0
 10
14.29597984552509
 20
0.2802483069464184
 30
0.0
 10
14.00610743347829
 20
0.4077884577624373
 30
0.0
 10
13.99006906254661
 20
0.4148451356747134
 30
0.0
  0
LINE
  5
D9
330
1F
100
AcDbEntity
  8
0
  6
Continuous
 62
     1
370
    15
100
AcDbLine
 10
35.40000000000001
 20
-1.506443629905646
 30
0.0
 11
35.40000000000001
 21
-1.252493469684544
 31
0.0
  0
LINE
  5
DA
330
1F
100
AcDbEntity
  8
0
  6
Continuous
 62
     1
370
    15
100
AcDbLine
 10
35.40000000000002
 20
-1.587500000000004
 30
0.0
 11
35.40000000000001
 21
-1.506443629905646
 31
0.0
  0
SPLINE
  5
DB
330
1F
100
AcDbEntity
  8
0
  6
Continuous
 62
     1
370
    15
100
AcDbSpline
210
0.0
220
0.0
230
1.0
 70
     8
 71
     3
 72
     8
 73
     4
 74
     0
 42
0.000000001
 43
0.00000001
 40
0.0
 40
0.0
 40
0.0
 40
0.0
 40
1.0
 40
1.0
 40
1.0
 40
1.0
 10
34.41720542367867
 20
0.4445952940598276
 30
0.0
 10
34.36098835896103
 20
0.5111941627027247
 30
0.0
 10
34.31080531521168
 20
0.5753123870121173
 30
0.0
 10
34.26808004190775
 20
0.6363646498196591
 30
0.0
  0
LINE
  5
DC
330
1F
100
AcDbEntity
  8
0
  6
Continuous
 62
     1
370
    15
100
AcDbLine
 10
34.28818878093835
 20
0.6532378853236527
 30
0.0
 11
35.40000000000001
 21
0.0000000000000021
 31
0.0
  0
LINE
  5
DD
330
1F
100
AcDbEntity
  8
0
  6
Continuous
 62
     1
370
    15
100
AcDbLine
 10
35.40000000000001
 20
0.0000000000000021
 30
0.0
 11
35.40000000000001
 21
-0.4242481768220591
 31
0.0
  0
SPLINE
  5
DE
330
1F
100
AcDbEntity
  8
0
  6
Continuous
 62
     1
370
    15
100
AcDbSpline
210
0.0
220
0.0
230
1.0
 70
     8
 71
     3
 72
    10
 73
     6
 74
     0
 42
0.000000001
 43
0.00000001
 40
0.0
 40
0.0
 40
0.0
 40
0.0
 40
0.5
 40
0.5
 40
1.0
 40
1.0
 40
1.0
 40
1.0
 10
35.40000000000001
 20
-0.424248176822059
 30
0.0
 10
35.22986692683487
 20
-0.2904929793873594
 30
0.0
 10
35.06257873071863
 20
-0.1512488725093348
 30
0.0
 10
34.73382815368846
 20
0.1384796766034506
 30
0.0
 10
34.57083634149639
 20
0.2904950568623453
 30
0.0
 10
34.41720542367654
 20
0.4445952940611968
 30
0.0
  0
SPLINE
  5
DF
330
1F
100
AcDbEntity
  8
외형선
  6
Continuous
370
    15
100
AcDbSpline
210
0.0
220
0.0
230
1.0
 70
    24
 71
     3
 72
    10
 73
     6
 74
     0
 42
0.000000001
 43
0.00000001
 40
0.0
 40
0.0
 40
0.0
 40
0.0
 40
0.5
 40
0.5
 40
1.0
 40
1.0
 40
1.0
 40
1.0
 10
9.999999999999986
 20
-0.2361763423419175
 30
0.0
 10
9.999999999999986
 20
-0.4698914429986325
 30
0.0
 10
9.999999999999986
 20
-0.6988670698937757
 30
0.0
 10
9.999999999999986
 20
-1.079119820693186
 30
0.0
 10
9.999999999999986
 20
-1.228760188106778
 30
0.0
 10
9.999999999999986
 20
-1.324012810842999
 30
0.0
  0
SPLINE
  5
E0
330
1F
100
AcDbEntity
  8
0
  6
Continuous
 62
     1
370
    15
100
AcDbSpline
210
0.0
220
0.0
230
1.0
 70
     8
 71
     3
 72
    19
 73
    15
 74
     0
 42
0.000000001
 43
0.00000001
 40
0.0
 40
0.0
 40
0.0
 40
0.0
 40
0.0426318283507475
 40
0.1365484417375825
 40
0.2304684338753266
 40
0.3243862829611029
 40
0.4190496633929077
 40
0.5136960880359448
 40
0.608318103689212
 40
0.7029083459751881
 40
0.7974702316035593
 40
0.8920604991361262
 40
0.9866825348242428
 40
1.0
 40
1.0
 40
1.0
 40
1.0
 10
32.04548108548622
 20
-1.175869209676744
 30
0.0
 10
31.9044833374714
 20
-1.201958244912094
 30
0.0
 10
31.45287186489904
 20
-1.285520626485662
 30
0.0
 10
30.69062182103124
 20
-1.27669348556392
 30
0.0
 10
29.75874539926744
 20
-1.149048439894917
 30
0.0
 10
28.82440856657474
 20
-0.8824768969076744
 30
0.0
 10
27.88765146345882
 20
-0.5158782963018422
 30
0.0
 10
26.9485955698645
 20
-0.0882672835387323
 30
0.0
 10
26.00981226283078
 20
0.3496088554079928
 30
0.0
 10
25.07134792828995
 20
0.7461361196189512
 30
0.0
 10
24.13305062422312
 20
1.060252186736653
 30
0.0
 10
23.19458393446128
 20
1.238155561121476
 30
0.0
 10
22.52477945015535
 20
1.299749740764969
 30
0.0
 10
22.16778741313426
 20
1.257846755004276
 30
0.0
 10
22.12374210087136
 20
1.252676807495142
 30
0.0
  0
SPLINE
  5
E1
330
1F
100
AcDbEntity
  8
0
  6
Continuous
 62
     1
370
    15
100
AcDbSpline
210
0.0
220
0.0
230
1.0
 70
     8
 71
     3
 72
    13
 73
     9
 74
     0
 42
0.000000001
 43
0.00000001
 40
0.0
 40
0.0
 40
0.0
 40
0.0
 40
0.0055182178491891
 40
0.2043019182260164
 40
0.4031204302466258
 40
0.6020235933487789
 40
0.8009905106687685
 40
0.9999999999999999
 40
0.9999999999999999
 40
0.9999999999999999
 40
0.9999999999999999
 10
14.76077583046045
 20
-1.192071221553042
 30
0.0
 10
14.75201896264838
 20
-1.194054248511394
 30
0.0
 10
14.42781195586611
 20
-1.267472192956026
 30
0.0
 10
13.78816770841414
 20
-1.285393489677573
 30
0.0
 10
12.84160459711279
 20
-1.21939331728531
 30
0.0
 10
11.89469778311906
 20
-0.9940166745031241
 30
0.0
 10
10.94744846378255
 20
-0.6579950295061713
 30
0.0
 10
10.31583867594514
 20
-0.3767925982499066
 30
0.0
 10
9.999999999999986
 20
-0.2361763423419177
 30
0.0
  0
SPLINE
  5
E2
330
1F
100
AcDbEntity
  8
0
  6
Continuous
 62
     1
370
    15
100
AcDbSpline
210
0.0
220
0.0
230
1.0
 70
     8
 71
     3
 72
    11
 73
     7
 74
     0
 42
0.000000001
 43
0.00000001
 40
0.0
 40
0.0
 40
0.0
 40
0.0
 40
0.2548320701596842
 40
0.5097179407474174
 40
0.7646428365647534
 40
1.0
 40
1.0
 40
1.0
 40
1.0
 10
34.41720542367654
 20
0.4445952940611938
 30
0.0
 10
34.10675053677189
 20
0.5741356148227081
 30
0.0
 10
33.48577521938403
 20
0.8332436050413
 30
0.0
 10
32.55419688505555
 20
1.110549781021025
 30
0.0
 10
31.64632953086922
 20
1.273239340268357
 30
0.0
 10
31.04899097969781
 20
1.261805471688998
 30
0.0
 10
30.76224194542037
 20
1.256316706956241
 30
0.0
  0
SPLINE
  5
E3
330
1F
100
AcDbEntity
  8
0
  6
Continuous
 62
     1
370
    15
100
AcDbSpline
210
0.0
220
0.0
230
1.0
 70
     8
 71
     3
 72
    19
 73
    15
 74
     0
 42
0.000000001
 43
0.00000001
 40
0.0
 40
0.0
 40
0.0
 40
0.0
 40
0.0211791107227347
 40
0.115813132728104
 40
0.2104715615301182
 40
0.3051469429298309
 40
0.3998317608014987
 40
0.4945184644644595
 40
0.5891994963253648
 40
0.6838673195745676
 40
0.7785144457197529
 40
0.8739525272855253
 40
0.9693481153043559
 40
1.0
 40
1.0
 40
1.0
 40
1.0
 10
23.40477994508371
 20
-1.18137667242095
 30
0.0
 10
23.33474830657195
 20
-1.196050445973595
 30
0.0
 10
22.95179627651228
 20
-1.276290627269326
 30
0.0
 10
22.25580005845794
 20
-1.284824209708656
 30
0.0
 10
21.31674546961729
 20
-1.189654416551706
 30
0.0
 10
20.37749677738141
 20
-0.9459080771134477
 30
0.0
 10
19.43814323275156
 20
-0.5958755385333805
 30
0.0
 10
18.49876810388726
 20
-0.1762617007061379
 30
0.0
 10
17.55945724346682
 20
0.263683376847865
 30
0.0
 10
16.62029262482878
 20
0.6724733335448472
 30
0.0
 10
15.67865920446316
 20
1.007261683743524
 30
0.0
 10
14.73462850562425
 20
1.215286934897422
 30
0.0
 10
14.00229801494467
 20
1.296194023049021
 30
0.0
 10
13.58550271112325
 20
1.25517711852261
 30
0.0
 10
13.48414755247314
 20
1.245202738227309
 30
0.0
  0
SPLINE
  5
E4
330
1F
100
AcDbEntity
  8
0
  6
Continuous
 62
     1
370
    15
100
AcDbSpline
210
0.0
220
0.0
230
1.0
 70
    24
 71
     3
 72
    10
 73
     6
 74
     0
 42
0.000000001
 43
0.00000001
 40
0.0
 40
0.0
 40
0.0
 40
0.0
 40
0.5000000000000001
 40
0.5000000000000001
 40
1.0
 40
1.0
 40
1.0
 40
1.0
 10
35.40000000000001
 20
-1.252493469684544
 30
0.0
 10
35.40000000000003
 20
-1.156480080043541
 30
0.0
 10
35.40000000000003
 20
-1.03516348070152
 30
0.0
 10
35.40000000000003
 20
-0.7531140626517043
 30
0.0
 10
35.40000000000001
 20
-0.5926255658439534
 30
0.0
 10
35.40000000000001
 20
-0.4242481768221104
 30
0.0
  0
SPLINE
  5
E5
330
1F
100
AcDbEntity
  8
외형선
  6
Continuous
370
    15
100
AcDbSpline
210
0.0
220
0.0
230
1.0
 70
    24
 71
     3
 72
    10
 73
     6
 74
     0
 42
0.000000001
 43
0.00000001
 40
0.0
 40
0.0
 40
0.0
 40
0.0
 40
0.5
 40
0.5
 40
1.0
 40
1.0
 40
1.0
 40
1.0
 10
10.00000000000001
 20
1.091865634122548
 30
0.0
 10
10.00000000000001
 20
0.981927219577888
 30
0.0
 10
10.0
 20
0.7979969268514021
 30
0.0
 10
10.00000000000001
 20
0.3259342305670844
 30
0.0
 10
10.00000000000001
 20
0.0414594094967569
 30
0.0
 10
10.00000000000001
 20
-0.2361763423419261
 30
0.0
  0
SPLINE
  5
E6
330
1F
100
AcDbEntity
  8
0
  6
Continuous
 62
     1
370
    15
100
AcDbSpline
210
0.0
220
0.0
230
1.0
 70
    24
 71
     3
 72
     8
 73
     4
 74
     0
 42
0.000000001
 43
0.00000001
 40
0.0
 40
0.0
 40
0.0
 40
0.0
 40
1.0
 40
1.0
 40
1.0
 40
1.0
 10
34.43390102197996
 20
0.7755049730396705
 30
0.0
 10
34.38157355845534
 20
0.7315970176957275
 30
0.0
 10
34.32593116363165
 20
0.684907504721335
 30
0.0
 10
34.26808004190777
 20
0.6363646498196427
 30
0.0
  0
SPLINE
  5
E7
330
1F
100
AcDbEntity
  8
0
  6
Continuous
 62
     1
370
    15
100
AcDbSpline
210
0.0
220
0.0
230
1.0
 70
     8
 71
     3
 72
     8
 73
     4
 74
     0
 42
0.000000001
 43
0.00000001
 40
0.0
 40
0.0
 40
0.0
 40
0.0
 40
1.0
 40
1.0
 40
1.0
 40
1.0
 10
35.40000000000001
 20
1.111250000000002
 30
0.0
 10
35.07348911934131
 20
1.022562296472513
 30
0.0
 10
34.75010172563282
 20
0.9136763805407386
 30
0.0
 10
34.43390102198988
 20
0.7755049730440278
 30
0.0
  0
LINE
  5
E8
330
1F
100
AcDbEntity
  8
0
  6
Continuous
 62
     1
370
    15
100
AcDbLine
 10
35.40000000000001
 20
0.0000000000000021
 30
0.0
 11
35.40000000000001
 21
1.111250000000002
 31
0.0
  0
LINE
  5
E9
330
1F
100
AcDbEntity
  8
중심선
 62
     1
100
AcDbLine
 10
-43.79999999999999
 20
-0.0000000000000055
 30
0.0
 11
38.40000000000001
 21
0.0000000000000046
 31
0.0
  0
LINE
  5
EA
330
1F
100
AcDbEntity
  8
참조1
100
AcDbLine
 10
2.149261314031165
 20
0.0010749287238892
 30
0.0
 11
2.149261314031167
 21
-39.99892507127611
 31
0.0
  0
LINE
  5
EB
330
1F
100
AcDbEntity
  8
참조1
100
AcDbLine
 10
2.149261314031167
 20
-39.99892507127611
 30
0.0
 11
-20.15080122126847
 21
-39.9989250712761
 31
0.0
  0
CIRCLE
  5
EC
330
1F
100
AcDbEntity
  8
해칭선
100
AcDbCircle
 10
0.0
 20
0.0
 30
0.0
 40
2.999999999999996
  0
INSERT
  5
ED
330
1F
100
AcDbEntity
  8
0
  6
Continuous
 62
     7
100
AcDbBlockReference
 66
     1
  2
블럭10
 10
-16.64027293212521
 20
-29.6858003303872
 30
0.0
  0
ATTRIB
  5
EE
330
ED
100
AcDbEntity
  8
FORMAT
 62
     2
100
AcDbText
 10
-25.82156822086649
 20
-27.61043341755501
 30
0.0
 40
4.233333333333333
  1
E5026008 [ 2 FLUTE ]
 41
0.75
  7
SLDTEXTSTYLE0
 11
-25.82156822086649
 21
-29.72710008422168
 31
0.0
100
AcDbAttribute
  2
AUTOATTR0
 70
     0
 74
     1
  0
SEQEND
  5
EF
330
ED
100
AcDbEntity
  8
0
  6
Continuous
 62
     7
  0
HATCH
  5
F0
330
1F
100
AcDbEntity
  8
중심선
100
AcDbHatch
 10
0.0
 20
0.0
 30
0.0
210
0.0
220
0.0
230
1.0
  2
SOLID
 70
     1
 71
     0
 91
        1
 92
        0
 93
        4
 72
     1
 10
-10.92536362774436
 20
-13.43862602874326
 11
-14.37163887158164
 21
-13.43862602874326
 72
     1
 10
-14.37163887158164
 20
-13.43862602874326
 11
-16.49986873078566
 21
-15.97495160931586
 72
     1
 10
-16.49986873078566
 20
-15.97495160931586
 11
-13.05356040183523
 21
-15.97491218001337
 72
     1
 10
-13.05356040183523
 20
-15.97491218001337
 11
-10.92536362774436
 21
-13.43862602874326
 97
        0
 75
     0
 76
     1
 98
        1
 10
-4.849261314031162
 20
22.36029904253284
  0
HATCH
  5
F1
330
1F
100
AcDbEntity
  8
중심선
100
AcDbHatch
 10
0.0
 20
0.0
 30
0.0
210
0.0
220
0.0
230
1.0
  2
SOLID
 70
     1
 71
     0
 91
        1
 92
        0
 93
        4
 72
     1
 10
-5.912599636708405
 20
-13.43862602874326
 11
-9.358874880545688
 21
-13.43862602874326
 72
     1
 10
-9.358874880545688
 20
-13.43862602874326
 11
-13.89001288890308
 21
-18.83862602874328
 72
     1
 10
-13.89001288890308
 20
-18.83862602874328
 11
-10.44373764506579
 21
-18.83862602874328
 72
     1
 10
-10.44373764506579
 20
-18.83862602874328
 11
-5.912599636708405
 21
-13.43862602874326
 97
        0
 75
     0
 76
     1
 98
        1
 10
-4.849261314031162
 20
22.36029904253284
  0
HATCH
  5
F2
330
1F
100
AcDbEntity
  8
중심선
100
AcDbHatch
 10
0.0
 20
0.0
 30
0.0
210
0.0
220
0.0
230
1.0
  2
SOLID
 70
     1
 71
     0
 91
        1
 92
        0
 93
        4
 72
     1
 10
-0.8998356456725096
 20
-13.43862602874326
 11
-4.346110889509625
 21
-13.43862602874329
 72
     1
 10
-4.346110889509625
 20
-13.43862602874329
 11
-11.39454779139887
 21
-21.83862602874328
 72
     1
 10
-11.39454779139887
 20
-21.83862602874328
 11
-7.948272547561592
 21
-21.83862602874328
 72
     1
 10
-7.948272547561592
 20
-21.83862602874328
 11
-0.8998356456725096
 21
-13.43862602874326
 97
        0
 75
     0
 76
     1
 98
        1
 10
-4.849261314031162
 20
22.36029904253284
  0
HATCH
  5
F3
330
1F
100
AcDbEntity
  8
중심선
100
AcDbHatch
 10
0.0
 20
0.0
 30
0.0
210
0.0
220
0.0
230
1.0
  2
SOLID
 70
     1
 71
     0
 91
        1
 92
        0
 93
        6
 72
     3
 10
3.900054785339689
 20
-17.63862602879453
 11
3.960054785062283
 21
1.540882976769353E-10
 40
0.3939339440162628
 50
17.09539180608439
 51
320.0019657685075
 73
     0
 72
     1
 10
5.583054441040286
 20
-16.22652003338153
 11
7.888356314741351
 21
-14.29219332333361
 72
     3
 10
3.900054785286843
 20
-17.63862602874341
 11
6.600054785286829
 21
-1.278976924368180E-13
 40
0.636358354079598
 50
39.99873849337413
 51
368.4976242363725
 73
     1
 72
     1
 10
10.32538727718745
 20
-16.67862602867329
 11
2.580122092122793
 21
-16.67862602867329
 72
     1
 10
2.580122092122793
 20
-16.67862602867329
 11
2.580097047676832
 21
-18.59862602867317
 72
     1
 10
2.580097047676832
 20
-18.59862602867317
 11
7.021476817148869
 21
-18.59862602867315
 97
        0
 75
     0
 76
     1
 98
        1
 10
-4.849261314031162
 20
22.36029904253284
  0
DIMENSION
  5
F4
330
1F
100
AcDbEntity
  8
치수문자_일반주서
100
AcDbDimension
  2
_D
 10
-52.48743677286706
 20
-1.587500000000038
 30
0.0
 11
-52.48743677286716
 21
20.66024999999995
 31
0.0
 70
   160
  1
%%c<>
 71
     2
 42
3.174999999999983
 52
-270.0
  3
SLDDIMSTYLE0
100
AcDbAlignedDimension
 13
-40.37
 23
1.587499999999991
 33
0.0
 14
-40.37
 24
-1.587499999999993
 34
0.0
 50
90.0000000000002
100
AcDbRotatedDimension
1001
ACAD
1000
DSTYLE
1002
{
1070
   171
1070
     6
1070
   273
1070
     5
1002
}
  0
DIMENSION
  5
109
330
1F
100
AcDbEntity
  8
치수문자_일반주서
100
AcDbDimension
  2
_D_1
 10
10.00000000000001
 20
14.7625
 30
0.0
 11
22.70000000000001
 21
14.7625
 31
0.0
 70
   160
  1
<>
 71
     2
 42
25.40000000000001
  3
SLDDIMSTYLE0
100
AcDbAlignedDimension
 13
35.40000000000001
 23
1.587500000000002
 33
0.0
 14
10.00000000000001
 24
1.570624881153799
 34
0.0
 50
0.000000000000004
100
AcDbRotatedDimension
1001
ACAD
1000
DSTYLE
1002
{
1070
   171
1070
     6
1070
   273
1070
     5
1002
}
  0
DIMENSION
  5
11E
330
1F
100
AcDbEntity
  8
치수문자_일반주서
100
AcDbDimension
  2
_D_2
 10
-40.79999999999998
 20
32.03197319528974
 30
0.0
 11
-2.699999999999985
 21
32.03197319528974
 31
0.0
 70
   160
  1
<>
 71
     2
 42
76.19999999999999
  3
SLDDIMSTYLE0
100
AcDbAlignedDimension
 13
35.40000000000001
 23
1.587499999999999
 33
0.0
 14
-40.79999999999998
 24
1.157499999999992
 34
0.0
 50
0.0000000000000053
100
AcDbRotatedDimension
1001
ACAD
1000
DSTYLE
1002
{
1070
   171
1070
     6
1070
   273
1070
     5
1002
}
  0
DIMENSION
  5
131
330
1F
100
AcDbEntity
  8
치수문자_일반주서
100
AcDbDimension
  2
_D_3
 10
48.63012303214261
 20
1.587500000000052
 30
0.0
 11
48.63012303214252
 21
20.6589082691771
 31
0.0
 70
   160
  1
%%c<>
 71
     2
 42
3.175000000000006
 52
-270.0
  3
SLDDIMSTYLE0
100
AcDbAlignedDimension
 13
35.40000000000002
 23
-1.587500000000004
 33
0.0
 14
35.40000000000001
 24
1.587500000000002
 34
0.0
 50
90.0000000000002
100
AcDbRotatedDimension
1001
ACAD
1000
DSTYLE
1002
{
1070
   171
1070
     6
1070
   273
1070
     5
1002
}
  0
LINE
  5
145
330
1F
100
AcDbEntity
  8
참조1
100
AcDbLine
 10
77.82153940838579
 20
7.441074928723896
 30
0.0
 11
77.82153940838579
 21
-7.438925071276109
 31
0.0
  0
LINE
  5
146
330
1F
100
AcDbEntity
  8
참조1
100
AcDbLine
 10
90.52153940838579
 20
5.441074928723896
 30
0.0
 11
77.82153940838579
 21
5.441074928723896
 31
0.0
  0
SOLID
  5
147
330
1F
100
AcDbEntity
  8
참조1
100
AcDbTrace
 10
77.82153940838579
 20
5.441074928723896
 30
0.0
 11
84.17153940838578
 21
4.425074928723896
 31
0.0
 12
84.17153940838578
 22
6.457074928723896
 32
0.0
 13
84.17153940838578
 23
6.457074928723896
 33
0.0
  0
LINE
  5
148
330
1F
100
AcDbEntity
  8
참조1
100
AcDbLine
 10
90.52153940838579
 20
-5.438925071276109
 30
0.0
 11
77.82153940838579
 21
-5.438925071276109
 31
0.0
  0
SOLID
  5
149
330
1F
100
AcDbEntity
  8
참조1
100
AcDbTrace
 10
77.82153940838579
 20
-5.438925071276109
 30
0.0
 11
84.17153940838578
 21
-6.454925071276109
 31
0.0
 12
84.17153940838578
 22
-4.422925071276109
 32
0.0
 13
84.17153940838578
 23
-4.422925071276109
 33
0.0
  0
MTEXT
  5
14A
330
1F
100
AcDbEntity
  8
참조1
100
AcDbMText
 10
87.20588954101179
 20
11.01136670591222
 30
0.0
 40
3.5
 41
0.0
 71
     1
 72
     1
  1
A
  7
SLDTEXTSTYLE0
 73
     1
 44
1.0
  0
MTEXT
  5
14B
330
1F
100
AcDbEntity
  8
참조1
100
AcDbMText
 10
87.20588954101179
 20
0.1313667059122192
 30
0.0
 40
3.5
 41
0.0
 71
     1
 72
     1
  1
A
  7
SLDTEXTSTYLE0
 73
     1
 44
1.0
  0
INSERT
  5
152
330
1F
100
AcDbEntity
  8
해칭선
100
AcDbBlockReference
  2
SW_DOWELSYMBOL_0
 10
0.0
 20
0.0
 30
0.0
  0
LINE
  5
2E9
330
1F
100
AcDbEntity
  8
외형선
  6
Continuous
370
    15
100
AcDbLine
 10
9.110031978150136
 20
-1.562406951491328
 30
0.0
 11
9.598870329105202
 21
-1.587500000000001
 31
0.0
  0
ENDSEC
  0
SECTION
  2
OBJECTS
  0
DICTIONARY
  5
C
330
0
100
AcDbDictionary
281
     1
  3
ACAD_GROUP
350
D
  3
ACAD_IMAGE_VARS
350
176
  3
ACAD_LAYOUT
350
1A
  3
ACAD_MLINESTYLE
350
17
  3
ACAD_PLOTSETTINGS
350
19
  3
ACAD_PLOTSTYLENAME
350
E
  3
ACAD_SCALELIST
350
47
  3
APPDATA
350
174
  3
DWGPROPS
350
2ED
  0
DICTIONARY
  5
230
330
2
100
AcDbDictionary
280
     1
281
     1
  3
ACAD_LAYERSTATES
360
231
  0
DICTIONARY
  5
D
102
{ACAD_REACTORS
330
C
102
}
330
C
100
AcDbDictionary
281
     1
  0
RASTERVARIABLES
  5
176
102
{ACAD_REACTORS
330
C
102
}
330
C
100
AcDbRasterVariables
 90
        0
 70
     1
 71
     1
 72
     1
  0
DICTIONARY
  5
1A
102
{ACAD_REACTORS
330
C
102
}
330
C
100
AcDbDictionary
281
     1
  3
Layout1
350
1E
  3
Layout2
350
26
  3
Model
350
22
  0
DICTIONARY
  5
17
102
{ACAD_REACTORS
330
C
102
}
330
C
100
AcDbDictionary
281
     1
  3
Standard
350
18
  0
DICTIONARY
  5
19
102
{ACAD_REACTORS
330
C
102
}
330
C
100
AcDbDictionary
281
     1
  0
ACDBDICTIONARYWDFLT
  5
E
102
{ACAD_REACTORS
330
C
102
}
330
C
100
AcDbDictionary
281
     1
  3
Normal
350
F
100
AcDbDictionaryWithDefault
340
F
  0
DICTIONARY
  5
47
102
{ACAD_REACTORS
330
C
102
}
330
C
100
AcDbDictionary
281
     1
  3
A0
350
48
  3
A1
350
49
  3
A2
350
4A
  3
A3
350
4B
  3
A4
350
4C
  3
A5
350
4D
  3
A6
350
4E
  3
A7
350
4F
  3
A8
350
50
  3
A9
350
51
  3
B0
350
52
  3
B1
350
53
  3
B2
350
54
  3
B3
350
55
  3
B4
350
56
  3
B5
350
57
  3
B6
350
58
  3
B7
350
59
  3
B8
350
5A
  3
B9
350
5B
  3
C0
350
5C
  3
C1
350
5D
  3
C2
350
5E
  3
C3
350
5F
  3
C4
350
60
  3
C5
350
61
  3
C6
350
62
  3
C7
350
63
  3
C8
350
64
  3
C9
350
65
  3
D0
350
66
  3
D1
350
67
  3
D2
350
68
  0
DICTIONARY
  5
174
102
{ACAD_REACTORS
330
C
102
}
330
C
100
AcDbDictionary
281
     1
  0
XRECORD
  5
2ED
102
{ACAD_REACTORS
330
C
102
}
330
C
100
AcDbXrecord
280
     1
  1
DWGPROPS COOKIE
  2

  3

  4

  6

  7

  8
12014074
  9

300
=
301
=
302
=
303
=
304
=
305
=
306
=
307
=
308
=
309
=
 40
0.0
 41
2458311.118336979
 42
2458320.266099907
  1

 90
        0
  0
DICTIONARY
  5
231
102
{ACAD_REACTORS
330
230
102
}
330
230
100
AcDbDictionary
281
     1
  0
LAYOUT
  5
1E
102
{ACAD_REACTORS
330
1A
102
}
330
1A
100
AcDbPlotSettings
  1

  2
none_device
  4

  6

 40
0.0
 41
0.0
 42
0.0
 43
0.0
 44
0.0
 45
0.0
 46
0.0
 47
0.0
 48
0.0
 49
0.0
140
0.0
141
0.0
142
1.0
143
1.0
 70
   688
 72
     1
 73
     0
 74
     5
  7

 75
    16
147
1.0
148
0.0
149
0.0
100
AcDbLayout
  1
Layout1
 70
     1
 71
     1
 10
0.0
 20
0.0
 11
420.0
 21
297.0
 12
0.0
 22
0.0
 32
0.0
 14
1.000000000000000E+20
 24
1.000000000000000E+20
 34
1.000000000000000E+20
 15
-1.000000000000000E+20
 25
-1.000000000000000E+20
 35
-1.000000000000000E+20
146
0.0
 13
0.0
 23
0.0
 33
0.0
 16
1.0
 26
0.0
 36
0.0
 17
0.0
 27
1.0
 37
0.0
 76
     0
330
1B
  0
LAYOUT
  5
26
102
{ACAD_REACTORS
330
1A
102
}
330
1A
100
AcDbPlotSettings
  1

  2
none_device
  4

  6

 40
0.0
 41
0.0
 42
0.0
 43
0.0
 44
0.0
 45
0.0
 46
0.0
 47
0.0
 48
0.0
 49
0.0
140
0.0
141
0.0
142
1.0
143
1.0
 70
   688
 72
     1
 73
     0
 74
     5
  7

 75
    16
147
1.0
148
0.0
149
0.0
100
AcDbLayout
  1
Layout2
 70
     1
 71
     2
 10
0.0
 20
0.0
 11
0.0
 21
0.0
 12
0.0
 22
0.0
 32
0.0
 14
0.0
 24
0.0
 34
0.0
 15
0.0
 25
0.0
 35
0.0
146
0.0
 13
0.0
 23
0.0
 33
0.0
 16
1.0
 26
0.0
 36
0.0
 17
0.0
 27
1.0
 37
0.0
 76
     0
330
23
  0
LAYOUT
  5
22
102
{ACAD_REACTORS
330
1A
102
}
330
1A
100
AcDbPlotSettings
  1

  2
none_device
  4
ANSI_A_(11.00_x_8.50_Inches)
  6

 40
6.35
 41
19.05
 42
6.35000508
 43
19.05000254
 44
279.4
 45
215.9
 46
105.0998041739126
 47
96.15738503656617
 48
0.0
 49
0.0
140
0.0
141
0.0
142
0.0724381443019348
143
1.0
 70
  1696
 72
     0
 73
     0
 74
     0
  7

 75
     0
147
0.0235690232323232
148
0.0
149
0.0
100
AcDbLayout
  1
Model
 70
     1
 71
     0
 10
0.0
 20
0.0
 11
420.0
 21
297.0
 12
0.0
 22
0.0
 32
0.0
 14
1.000000000000000E+20
 24
1.000000000000000E+20
 34
1.000000000000000E+20
 15
-1.000000000000000E+20
 25
-1.000000000000000E+20
 35
-1.000000000000000E+20
146
0.0
 13
0.0
 23
0.0
 33
0.0
 16
1.0
 26
0.0
 36
0.0
 17
0.0
 27
1.0
 37
0.0
 76
     0
330
1F
331
29
  0
MLINESTYLE
  5
18
102
{ACAD_REACTORS
330
17
102
}
330
17
100
AcDbMlineStyle
  2
Standard
 70
     0
  3

 62
   256
 51
90.0
 52
90.0
 71
     2
 49
0.5
 62
   256
  6
BYLAYER
 49
-0.5
 62
   256
  6
BYLAYER
  0
ACDBPLACEHOLDER
  5
F
102
{ACAD_REACTORS
330
E
102
}
330
E
  0
SCALE
  5
48
102
{ACAD_REACTORS
330
47
102
}
330
47
100
AcDbScale
 70
     0
300
1:1
140
1.0
141
1.0
290
     1
  0
SCALE
  5
49
102
{ACAD_REACTORS
330
47
102
}
330
47
100
AcDbScale
 70
     0
300
1:2
140
1.0
141
2.0
290
     0
  0
SCALE
  5
4A
102
{ACAD_REACTORS
330
47
102
}
330
47
100
AcDbScale
 70
     0
300
1:4
140
1.0
141
4.0
290
     0
  0
SCALE
  5
4B
102
{ACAD_REACTORS
330
47
102
}
330
47
100
AcDbScale
 70
     0
300
1:5
140
1.0
141
5.0
290
     0
  0
SCALE
  5
4C
102
{ACAD_REACTORS
330
47
102
}
330
47
100
AcDbScale
 70
     0
300
1:8
140
1.0
141
8.0
290
     0
  0
SCALE
  5
4D
102
{ACAD_REACTORS
330
47
102
}
330
47
100
AcDbScale
 70
     0
300
1:10
140
1.0
141
10.0
290
     0
  0
SCALE
  5
4E
102
{ACAD_REACTORS
330
47
102
}
330
47
100
AcDbScale
 70
     0
300
1:16
140
1.0
141
16.0
290
     0
  0
SCALE
  5
4F
102
{ACAD_REACTORS
330
47
102
}
330
47
100
AcDbScale
 70
     0
300
1:20
140
1.0
141
20.0
290
     0
  0
SCALE
  5
50
102
{ACAD_REACTORS
330
47
102
}
330
47
100
AcDbScale
 70
     0
300
1:30
140
1.0
141
30.0
290
     0
  0
SCALE
  5
51
102
{ACAD_REACTORS
330
47
102
}
330
47
100
AcDbScale
 70
     0
300
1:40
140
1.0
141
40.0
290
     0
  0
SCALE
  5
52
102
{ACAD_REACTORS
330
47
102
}
330
47
100
AcDbScale
 70
     0
300
1:50
140
1.0
141
50.0
290
     0
  0
SCALE
  5
53
102
{ACAD_REACTORS
330
47
102
}
330
47
100
AcDbScale
 70
     0
300
1:100
140
1.0
141
100.0
290
     0
  0
SCALE
  5
54
102
{ACAD_REACTORS
330
47
102
}
330
47
100
AcDbScale
 70
     0
300
2:1
140
2.0
141
1.0
290
     0
  0
SCALE
  5
55
102
{ACAD_REACTORS
330
47
102
}
330
47
100
AcDbScale
 70
     0
300
4:1
140
4.0
141
1.0
290
     0
  0
SCALE
  5
56
102
{ACAD_REACTORS
330
47
102
}
330
47
100
AcDbScale
 70
     0
300
8:1
140
8.0
141
1.0
290
     0
  0
SCALE
  5
57
102
{ACAD_REACTORS
330
47
102
}
330
47
100
AcDbScale
 70
     0
300
10:1
140
10.0
141
1.0
290
     0
  0
SCALE
  5
58
102
{ACAD_REACTORS
330
47
102
}
330
47
100
AcDbScale
 70
     0
300
100:1
140
100.0
141
1.0
290
     0
  0
SCALE
  5
59
102
{ACAD_REACTORS
330
47
102
}
330
47
100
AcDbScale
 70
     0
300
1/128" = 1'-0"
140
0.0078125
141
12.0
290
     0
  0
SCALE
  5
5A
102
{ACAD_REACTORS
330
47
102
}
330
47
100
AcDbScale
 70
     0
300
1/64" = 1'-0"
140
0.015625
141
12.0
290
     0
  0
SCALE
  5
5B
102
{ACAD_REACTORS
330
47
102
}
330
47
100
AcDbScale
 70
     0
300
1/32" = 1'-0"
140
0.03125
141
12.0
290
     0
  0
SCALE
  5
5C
102
{ACAD_REACTORS
330
47
102
}
330
47
100
AcDbScale
 70
     0
300
1/16" = 1'-0"
140
0.0625
141
12.0
290
     0
  0
SCALE
  5
5D
102
{ACAD_REACTORS
330
47
102
}
330
47
100
AcDbScale
 70
     0
300
3/32" = 1'-0"
140
0.09375
141
12.0
290
     0
  0
SCALE
  5
5E
102
{ACAD_REACTORS
330
47
102
}
330
47
100
AcDbScale
 70
     0
300
1/8" = 1'-0"
140
0.125
141
12.0
290
     0
  0
SCALE
  5
5F
102
{ACAD_REACTORS
330
47
102
}
330
47
100
AcDbScale
 70
     0
300
3/16" = 1'-0"
140
0.1875
141
12.0
290
     0
  0
SCALE
  5
60
102
{ACAD_REACTORS
330
47
102
}
330
47
100
AcDbScale
 70
     0
300
1/4" = 1'-0"
140
0.25
141
12.0
290
     0
  0
SCALE
  5
61
102
{ACAD_REACTORS
330
47
102
}
330
47
100
AcDbScale
 70
     0
300
3/8" = 1'-0"
140
0.375
141
12.0
290
     0
  0
SCALE
  5
62
102
{ACAD_REACTORS
330
47
102
}
330
47
100
AcDbScale
 70
     0
300
1/2" = 1'-0"
140
0.5
141
12.0
290
     0
  0
SCALE
  5
63
102
{ACAD_REACTORS
330
47
102
}
330
47
100
AcDbScale
 70
     0
300
3/4" = 1'-0"
140
0.75
141
12.0
290
     0
  0
SCALE
  5
64
102
{ACAD_REACTORS
330
47
102
}
330
47
100
AcDbScale
 70
     0
300
1" = 1'-0"
140
1.0
141
12.0
290
     0
  0
SCALE
  5
65
102
{ACAD_REACTORS
330
47
102
}
330
47
100
AcDbScale
 70
     0
300
1-1/2" = 1'-0"
140
1.5
141
12.0
290
     0
  0
SCALE
  5
66
102
{ACAD_REACTORS
330
47
102
}
330
47
100
AcDbScale
 70
     0
300
3" = 1'-0"
140
3.0
141
12.0
290
     0
  0
SCALE
  5
67
102
{ACAD_REACTORS
330
47
102
}
330
47
100
AcDbScale
 70
     0
300
6" = 1'-0"
140
6.0
141
12.0
290
     0
  0
SCALE
  5
68
102
{ACAD_REACTORS
330
47
102
}
330
47
100
AcDbScale
 70
     0
300
1'-0" = 1'-0"
140
12.0
141
12.0
290
     0
  0
ENDSEC
  0
EOF
