  0
SECTION
  2
HEADER
  9
$ACADVER
  1
AC1015
  9
$ACADMAINTVER
 70
     6
  9
$DWGCODEPAGE
  3
ANSI_949
  9
$INSBASE
 10
0.0
 20
0.0
 30
0.0
  9
$EXTMIN
 10
1.000000000000000E+20
 20
1.000000000000000E+20
 30
1.000000000000000E+20
  9
$EXTMAX
 10
-1.000000000000000E+20
 20
-1.000000000000000E+20
 30
-1.000000000000000E+20
  9
$LIMMIN
 10
0.0
 20
0.0
  9
$LIMMAX
 10
420.0
 20
297.0
  9
$ORTHOMODE
 70
     0
  9
$REGENMODE
 70
     1
  9
$FILLMODE
 70
     1
  9
$QTEXTMODE
 70
     0
  9
$MIRRTEXT
 70
     1
  9
$LTSCALE
 40
1.0
  9
$ATTMODE
 70
     1
  9
$TEXTSIZE
 40
3.5
  9
$TRACEWID
 40
1.0
  9
$TEXTSTYLE
  7
Standard
  9
$CLAYER
  8
0
  9
$CELTYPE
  6
ByLayer
  9
$CECOLOR
 62
   256
  9
$CELTSCALE
 40
1.0
  9
$DISPSILH
 70
     0
  9
$DIMSCALE
 40
1.0
  9
$DIMASZ
 40
3.302
  9
$DIMEXO
 40
1.0
  9
$DIMDLI
 40
3.75
  9
$DIMRND
 40
0.0
  9
$DIMDLE
 40
0.0
  9
$DIMEXE
 40
1.0
  9
$DIMTP
 40
0.0
  9
$DIMTM
 40
0.0
  9
$DIMTXT
 40
3.5
  9
$DIMCEN
 40
2.5
  9
$DIMTSZ
 40
0.0
  9
$DIMTOL
 70
     0
  9
$DIMLIM
 70
     0
  9
$DIMTIH
 70
     1
  9
$DIMTOH
 70
     1
  9
$DIMSE1
 70
     0
  9
$DIMSE2
 70
     0
  9
$DIMTAD
 70
     1
  9
$DIMZIN
 70
     0
  9
$DIMBLK
  1

  9
$DIMASO
 70
     1
  9
$DIMSHO
 70
     1
  9
$DIMPOST
  1

  9
$DIMAPOST
  1

  9
$DIMALT
 70
     0
  9
$DIMALTD
 70
     3
  9
$DIMALTF
 40
0.0393700787401575
  9
$DIMLFAC
 40
1.0
  9
$DIMTOFL
 70
     1
  9
$DIMTVP
 40
0.0
  9
$DIMTIX
 70
     0
  9
$DIMSOXD
 70
     0
  9
$DIMSAH
 70
     0
  9
$DIMBLK1
  1

  9
$DIMBLK2
  1

  9
$DIMSTYLE
  2
ISO-25
  9
$DIMCLRD
 70
     0
  9
$DIMCLRE
 70
     0
  9
$DIMCLRT
 70
     0
  9
$DIMTFAC
 40
1.0
  9
$DIMGAP
 40
1.524
  9
$DIMJUST
 70
     0
  9
$DIMSD1
 70
     0
  9
$DIMSD2
 70
     0
  9
$DIMTOLJ
 70
     0
  9
$DIMTZIN
 70
     0
  9
$DIMALTZ
 70
     0
  9
$DIMALTTZ
 70
     0
  9
$DIMUPT
 70
     0
  9
$DIMDEC
 70
     2
  9
$DIMTDEC
 70
     2
  9
$DIMALTU
 70
     2
  9
$DIMALTTD
 70
     3
  9
$DIMTXSTY
  7
Standard
  9
$DIMAUNIT
 70
     0
  9
$DIMADEC
 70
     2
  9
$DIMALTRND
 40
0.0
  9
$DIMAZIN
 70
     0
  9
$DIMDSEP
 70
    44
  9
$DIMATFIT
 70
     3
  9
$DIMFRAC
 70
     0
  9
$DIMLDRBLK
  1

  9
$DIMLUNIT
 70
     2
  9
$DIMLWD
 70
    -2
  9
$DIMLWE
 70
    -2
  9
$DIMTMOVE
 70
     0
  9
$LUNITS
 70
     2
  9
$LUPREC
 70
     2
  9
$SKETCHINC
 40
1.0
  9
$FILLETRAD
 40
10.0
  9
$AUNITS
 70
     0
  9
$AUPREC
 70
     2
  9
$MENU
  1
.
  9
$ELEVATION
 40
0.0
  9
$PELEVATION
 40
0.0
  9
$THICKNESS
 40
0.0
  9
$LIMCHECK
 70
     0
  9
$CHAMFERA
 40
0.0
  9
$CHAMFERB
 40
0.0
  9
$CHAMFERC
 40
0.0
  9
$CHAMFERD
 40
0.0
  9
$SKPOLY
 70
     0
  9
$TDCREATE
 40
2458313.428555949
  9
$TDUCREATE
 40
2458313.053555949
  9
$TDUPDATE
 40
2458320.591972048
  9
$TDUUPDATE
 40
2458320.216972048
  9
$TDINDWG
 40
0.0013599884
  9
$TDUSRTIMER
 40
2458320.215612431
  9
$USRTIMER
 70
     1
  9
$ANGBASE
 50
0.0
  9
$ANGDIR
 70
     0
  9
$PDMODE
 70
     0
  9
$PDSIZE
 40
-1.0
  9
$PLINEWID
 40
0.0
  9
$SPLFRAME
 70
     0
  9
$SPLINETYPE
 70
     6
  9
$SPLINESEGS
 70
     8
  9
$HANDSEED
  5
35F
  9
$SURFTAB1
 70
     6
  9
$SURFTAB2
 70
     6
  9
$SURFTYPE
 70
     6
  9
$SURFU
 70
     6
  9
$SURFV
 70
     6
  9
$UCSBASE
  2

  9
$UCSNAME
  2

  9
$UCSORG
 10
0.0
 20
0.0
 30
0.0
  9
$UCSXDIR
 10
1.0
 20
0.0
 30
0.0
  9
$UCSYDIR
 10
0.0
 20
1.0
 30
0.0
  9
$UCSORTHOREF
  2

  9
$UCSORTHOVIEW
 70
     0
  9
$UCSORGTOP
 10
0.0
 20
0.0
 30
0.0
  9
$UCSORGBOTTOM
 10
0.0
 20
0.0
 30
0.0
  9
$UCSORGLEFT
 10
0.0
 20
0.0
 30
0.0
  9
$UCSORGRIGHT
 10
0.0
 20
0.0
 30
0.0
  9
$UCSORGFRONT
 10
0.0
 20
0.0
 30
0.0
  9
$UCSORGBACK
 10
0.0
 20
0.0
 30
0.0
  9
$PUCSBASE
  2

  9
$PUCSNAME
  2

  9
$PUCSORG
 10
0.0
 20
0.0
 30
0.0
  9
$PUCSXDIR
 10
1.0
 20
0.0
 30
0.0
  9
$PUCSYDIR
 10
0.0
 20
1.0
 30
0.0
  9
$PUCSORTHOREF
  2

  9
$PUCSORTHOVIEW
 70
     0
  9
$PUCSORGTOP
 10
0.0
 20
0.0
 30
0.0
  9
$PUCSORGBOTTOM
 10
0.0
 20
0.0
 30
0.0
  9
$PUCSORGLEFT
 10
0.0
 20
0.0
 30
0.0
  9
$PUCSORGRIGHT
 10
0.0
 20
0.0
 30
0.0
  9
$PUCSORGFRONT
 10
0.0
 20
0.0
 30
0.0
  9
$PUCSORGBACK
 10
0.0
 20
0.0
 30
0.0
  9
$USERI1
 70
     0
  9
$USERI2
 70
     0
  9
$USERI3
 70
     0
  9
$USERI4
 70
     0
  9
$USERI5
 70
     0
  9
$USERR1
 40
0.0
  9
$USERR2
 40
0.0
  9
$USERR3
 40
0.0
  9
$USERR4
 40
0.0
  9
$USERR5
 40
0.0
  9
$WORLDVIEW
 70
     1
  9
$SHADEDGE
 70
     3
  9
$SHADEDIF
 70
    70
  9
$TILEMODE
 70
     1
  9
$MAXACTVP
 70
    64
  9
$PINSBASE
 10
0.0
 20
0.0
 30
0.0
  9
$PLIMCHECK
 70
     0
  9
$PEXTMIN
 10
1.000000000000000E+20
 20
1.000000000000000E+20
 30
1.000000000000000E+20
  9
$PEXTMAX
 10
-1.000000000000000E+20
 20
-1.000000000000000E+20
 30
-1.000000000000000E+20
  9
$PLIMMIN
 10
0.0
 20
0.0
  9
$PLIMMAX
 10
0.0
 20
0.0
  9
$UNITMODE
 70
     0
  9
$VISRETAIN
 70
     1
  9
$PLINEGEN
 70
     0
  9
$PSLTSCALE
 70
     1
  9
$TREEDEPTH
 70
  3020
  9
$CMLSTYLE
  2
Standard
  9
$CMLJUST
 70
     0
  9
$CMLSCALE
 40
20.0
  9
$PROXYGRAPHICS
 70
     1
  9
$MEASUREMENT
 70
     1
  9
$CELWEIGHT
370
    -1
  9
$ENDCAPS
280
     0
  9
$JOINSTYLE
280
     0
  9
$LWDISPLAY
290
     1
  9
$INSUNITS
 70
     4
  9
$HYPERLINKBASE
  1

  9
$STYLESHEET
  1

  9
$XEDIT
290
     1
  9
$CEPSNTYPE
380
     0
  9
$PSTYLEMODE
290
     1
  9
$FINGERPRINTGUID
  2
{68017B12-D494-4729-9247-C84D995FFA21}
  9
$VERSIONGUID
  2
{FAEB1C32-E019-11D5-929B-00C0DF256EC4}
  9
$EXTNAMES
290
     1
  9
$PSVPSCALE
 40
0.0
  9
$OLESTARTUP
290
     0
  0
ENDSEC
  0
SECTION
  2
CLASSES
  0
CLASS
  1
ACDBDICTIONARYWDFLT
  2
AcDbDictionaryWithDefault
  3
ObjectDBX Classes
 90
        0
280
     0
281
     0
  0
CLASS
  1
VISUALSTYLE
  2
AcDbVisualStyle
  3
ObjectDBX Classes
 90
     4095
280
     0
281
     0
  0
CLASS
  1
MATERIAL
  2
AcDbMaterial
  3
ObjectDBX Classes
 90
     1153
280
     0
281
     0
  0
CLASS
  1
SCALE
  2
AcDbScale
  3
ObjectDBX Classes
 90
     1153
280
     0
281
     0
  0
CLASS
  1
SUN
  2
AcDbSun
  3
SCENEOE
 90
     1153
280
     0
281
     0
  0
CLASS
  1
ACDBPLACEHOLDER
  2
AcDbPlaceHolder
  3
ObjectDBX Classes
 90
        0
280
     0
281
     0
  0
CLASS
  1
LAYOUT
  2
AcDbLayout
  3
ObjectDBX Classes
 90
        0
280
     0
281
     0
  0
CLASS
  1
TABLESTYLE
  2
AcDbTableStyle
  3
ObjectDBX Classes
 90
     4095
280
     0
281
     0
  0
CLASS
  1
MLEADERSTYLE
  2
AcDbMLeaderStyle
  3
ACDB_MLEADERSTYLE_CLASS
 90
     4095
280
     0
281
     0
  0
CLASS
  1
RASTERVARIABLES
  2
AcDbRasterVariables
  3
ISM
 90
        0
280
     0
281
     0
  0
ENDSEC
  0
SECTION
  2
TABLES
  0
TABLE
  2
VPORT
  5
8
330
0
100
AcDbSymbolTable
 70
     1
  0
VPORT
  5
29
330
8
100
AcDbSymbolTableRecord
100
AcDbViewportTableRecord
  2
*Active
 70
     0
 10
0.0
 20
0.0
 11
1.0
 21
1.0
 12
5.529850783514824
 22
1.368108325851235
 13
0.0
 23
0.0
 14
10.0
 24
10.0
 15
10.0
 25
10.0
 16
0.0
 26
0.0
 36
1.0
 17
0.0
 27
0.0
 37
0.0
 40
88.9307128185634
 41
1.970186335403727
 42
50.0
 43
0.0
 44
0.0
 50
0.0
 51
0.0
 71
    16
 72
  2000
 73
     1
 74
     3
 75
     0
 76
     0
 77
     0
 78
     0
281
     0
 65
     1
110
0.0
120
0.0
130
0.0
111
1.0
121
0.0
131
0.0
112
0.0
122
1.0
132
0.0
 79
     0
146
0.0
  0
ENDTAB
  0
TABLE
  2
LTYPE
  5
5
330
0
100
AcDbSymbolTable
 70
     6
  0
LTYPE
  5
14
330
5
100
AcDbSymbolTableRecord
100
AcDbLinetypeTableRecord
  2
ByBlock
 70
     0
  3

 72
    65
 73
     0
 40
0.0
  0
LTYPE
  5
15
330
5
100
AcDbSymbolTableRecord
100
AcDbLinetypeTableRecord
  2
ByLayer
 70
     0
  3

 72
    65
 73
     0
 40
0.0
  0
LTYPE
  5
16
330
5
100
AcDbSymbolTableRecord
100
AcDbLinetypeTableRecord
  2
Continuous
 70
     0
  3
Solid line
 72
    65
 73
     0
 40
0.0
  0
LTYPE
  5
6A
330
5
100
AcDbSymbolTableRecord
100
AcDbLinetypeTableRecord
  2
HIDDEN
 70
     0
  3
Hidden __ __ __ __ __ __ __ __ __ __ __ __ __ __
 72
    65
 73
     2
 40
1.905
 49
1.27
 74
     0
 49
-0.635
 74
     0
  0
LTYPE
  5
6B
330
5
100
AcDbSymbolTableRecord
100
AcDbLinetypeTableRecord
  2
PHANTOM
 70
     0
  3
Phantom ______  __  __  ______  __  __  ______
 72
    65
 73
     6
 40
12.7
 49
6.35
 74
     0
 49
-1.27
 74
     0
 49
1.27
 74
     0
 49
-1.27
 74
     0
 49
1.27
 74
     0
 49
-1.27
 74
     0
  0
LTYPE
  5
6C
330
5
100
AcDbSymbolTableRecord
100
AcDbLinetypeTableRecord
  2
CENTER
 70
     0
  3
Center ____ _ ____ _ ____ _ ____ _ ____ _ ____
 72
    65
 73
     4
 40
10.16
 49
6.35
 74
     0
 49
-1.27
 74
     0
 49
1.27
 74
     0
 49
-1.27
 74
     0
  0
LTYPE
  5
6D
330
5
100
AcDbSymbolTableRecord
100
AcDbLinetypeTableRecord
  2
CENTERX2
 70
     0
  3
Center (2x) ________  __  ________  __  _____
 72
    65
 73
     4
 40
20.32
 49
12.7
 74
     0
 49
-2.54
 74
     0
 49
2.54
 74
     0
 49
-2.54
 74
     0
  0
LTYPE
  5
6E
330
5
100
AcDbSymbolTableRecord
100
AcDbLinetypeTableRecord
  2
DOT2
 70
     0
  3
Dot (.5x) ........................................
 72
    65
 73
     2
 40
0.635
 49
0.0
 74
     0
 49
-0.635
 74
     0
  0
ENDTAB
  0
TABLE
  2
LAYER
  5
2
102
{ACAD_XDICTIONARY
360
182
102
}
330
0
100
AcDbSymbolTable
 70
    18
  0
LAYER
  5
10
330
2
100
AcDbSymbolTableRecord
100
AcDbLayerTableRecord
  2
0
 70
     0
 62
     7
  6
Continuous
370
    -3
390
F
  0
LAYER
  5
6F
330
2
100
AcDbSymbolTableRecord
100
AcDbLayerTableRecord
  2
FORMAT
 70
     0
 62
     2
  6
Continuous
370
    -3
390
F
  0
LAYER
  5
70
330
2
100
AcDbSymbolTableRecord
100
AcDbLayerTableRecord
  2
외형선
 70
     0
 62
     4
  6
Continuous
370
    30
390
F
  0
LAYER
  5
71
330
2
100
AcDbSymbolTableRecord
100
AcDbLayerTableRecord
  2
숨은선
 70
     0
 62
     2
  6
HIDDEN
370
    15
390
F
  0
LAYER
  5
72
330
2
100
AcDbSymbolTableRecord
100
AcDbLayerTableRecord
  2
중심선
 70
     0
 62
     1
  6
CENTERX2
370
    -3
390
F
  0
LAYER
  5
73
330
2
100
AcDbSymbolTableRecord
100
AcDbLayerTableRecord
  2
파단선
 70
     0
 62
     4
  6
Continuous
370
    -3
390
F
  0
LAYER
  5
74
330
2
100
AcDbSymbolTableRecord
100
AcDbLayerTableRecord
  2
해칭선
 70
     0
 62
   100
  6
Continuous
370
    -3
390
F
  0
LAYER
  5
75
330
2
100
AcDbSymbolTableRecord
100
AcDbLayerTableRecord
  2
가는실선
 70
     0
 62
     4
  6
Continuous
370
    -3
390
F
  0
LAYER
  5
76
330
2
100
AcDbSymbolTableRecord
100
AcDbLayerTableRecord
  2
치수_보조선
 70
     0
 62
     4
  6
Continuous
370
    -3
390
F
  0
LAYER
  5
77
330
2
100
AcDbSymbolTableRecord
100
AcDbLayerTableRecord
  2
치수문자_일반주서
 70
     0
 62
     7
  6
Continuous
370
    15
390
F
  0
LAYER
  5
78
330
2
100
AcDbSymbolTableRecord
100
AcDbLayerTableRecord
  2
개별주서
 70
     0
 62
   100
  6
Continuous
370
    30
390
F
  0
LAYER
  5
79
330
2
100
AcDbSymbolTableRecord
100
AcDbLayerTableRecord
  2
중간선
 70
     0
 62
     2
  6
Continuous
370
    15
390
F
  0
LAYER
  5
7A
330
2
100
AcDbSymbolTableRecord
100
AcDbLayerTableRecord
  2
윤곽선
 70
     0
 62
     3
  6
Continuous
370
    40
390
F
  0
LAYER
  5
7B
330
2
100
AcDbSymbolTableRecord
100
AcDbLayerTableRecord
  2
중심마크
 70
     0
 62
   100
  6
Continuous
370
    30
390
F
  0
LAYER
  5
7C
330
2
100
AcDbSymbolTableRecord
100
AcDbLayerTableRecord
  2
가상선
 70
     0
 62
     4
  6
PHANTOM
370
    -3
390
F
  0
LAYER
  5
7D
330
2
100
AcDbSymbolTableRecord
100
AcDbLayerTableRecord
  2
특수지정선
 70
     0
 62
     5
  6
CENTERX2
370
    60
390
F
  0
LAYER
  5
7E
330
2
100
AcDbSymbolTableRecord
100
AcDbLayerTableRecord
  2
참조1
 70
     0
 62
    -4
  6
Continuous
370
    -3
390
F
  0
LAYER
  5
18B
330
2
100
AcDbSymbolTableRecord
100
AcDbLayerTableRecord
  2
Defpoints
 70
     0
 62
     7
  6
Continuous
290
     0
370
    -3
390
F
  0
ENDTAB
  0
TABLE
  2
STYLE
  5
3
330
0
100
AcDbSymbolTable
 70
     2
  0
STYLE
  5
11
330
3
100
AcDbSymbolTableRecord
100
AcDbTextStyleTableRecord
  2
Standard
 70
     0
 40
0.0
 41
1.0
 50
0.0
 71
     0
 42
3.5
  3
txt
  4

  0
STYLE
  5
94
330
3
100
AcDbSymbolTableRecord
100
AcDbTextStyleTableRecord
  2
SLDTEXTSTYLE0
 70
     0
 40
0.0
 41
0.75
 50
0.0
 71
     0
 42
3.5
  3
TXT
  4

  0
ENDTAB
  0
TABLE
  2
VIEW
  5
6
330
0
100
AcDbSymbolTable
 70
     0
  0
ENDTAB
  0
TABLE
  2
UCS
  5
7
330
0
100
AcDbSymbolTable
 70
     0
  0
ENDTAB
  0
TABLE
  2
APPID
  5
9
330
0
100
AcDbSymbolTable
 70
     3
  0
APPID
  5
12
330
9
100
AcDbSymbolTableRecord
100
AcDbRegAppTableRecord
  2
ACAD
 70
     0
  0
APPID
  5
197
330
9
100
AcDbSymbolTableRecord
100
AcDbRegAppTableRecord
  2
PE_URL
 70
     0
  0
APPID
  5
198
330
9
100
AcDbSymbolTableRecord
100
AcDbRegAppTableRecord
  2
ACAD_DSTYLE_DIMRADIAL_EXTENSION
 70
     0
  0
ENDTAB
  0
TABLE
  2
DIMSTYLE
  5
A
330
0
100
AcDbSymbolTable
 70
     4
100
AcDbDimStyleTable
  0
DIMSTYLE
105
27
330
A
100
AcDbSymbolTableRecord
100
AcDbDimStyleTableRecord
  2
ISO-25
 70
     0
 41
2.5
 42
0.625
 43
3.75
 44
1.25
 73
     0
 74
     0
 77
     1
 78
     8
140
2.5
141
2.5
143
0.03937007874016
147
0.625
171
     3
172
     1
178
     0
271
     2
272
     2
274
     3
278
    44
283
     0
284
     8
340
11
  0
DIMSTYLE
105
DB
102
{ACAD_REACTORS
330
DA
330
1F7
330
204
330
EF
330
103
330
117
102
}
330
A
100
AcDbSymbolTableRecord
100
AcDbDimStyleTableRecord
  2
SLDDIMSTYLE0
 70
     0
 41
3.302
 44
0.0
 45
0.000000001
 73
     0
 74
     0
 77
     1
 78
    12
 79
     3
140
3.5
143
0.0393700787401575
147
0.875
148
0.000000001
170
     1
172
     1
173
     1
178
     0
271
     2
272
     2
276
     2
284
    12
289
     0
340
94
  0
DIMSTYLE
105
F0
102
{ACAD_REACTORS
330
23A
102
}
330
A
100
AcDbSymbolTableRecord
100
AcDbDimStyleTableRecord
  2
SLDDIMSTYLE1
 70
     0
 41
3.302
 44
0.0
 45
0.000000001
 73
     0
 74
     0
 77
     1
 78
    12
 79
     3
140
3.5
143
0.0393700787401575
147
0.875
148
0.000000001
170
     1
173
     1
178
     0
271
     2
272
     2
276
     2
284
    12
340
94
  0
DIMSTYLE
105
118
102
{ACAD_REACTORS
330
211
330
220
102
}
330
A
100
AcDbSymbolTableRecord
100
AcDbDimStyleTableRecord
  2
SLDDIMSTYLE2
 70
     0
 41
3.302
 44
0.0
 45
0.000000001
 73
     0
 74
     0
 77
     1
 78
     4
 79
     1
140
3.5
143
0.0393700787401575
147
0.875
148
0.000000001
170
     1
173
     1
178
     0
271
     2
272
     2
276
     2
284
    12
340
94
  0
ENDTAB
  0
TABLE
  2
BLOCK_RECORD
  5
1
330
0
100
AcDbSymbolTable
 70
    22
  0
BLOCK_RECORD
  5
1F
330
1
100
AcDbSymbolTableRecord
100
AcDbBlockTableRecord
  2
*Model_Space
340
22
  0
BLOCK_RECORD
  5
1B
330
1
100
AcDbSymbolTableRecord
100
AcDbBlockTableRecord
  2
*Paper_Space
340
1E
  0
BLOCK_RECORD
  5
23
330
1
100
AcDbSymbolTableRecord
100
AcDbBlockTableRecord
  2
*Paper_Space0
340
26
  0
BLOCK_RECORD
  5
7F
330
1
100
AcDbSymbolTableRecord
100
AcDbBlockTableRecord
  2
블럭10
340
0
102
{BLKREFS
331
D3
102
}
  0
BLOCK_RECORD
  5
DC
330
1
100
AcDbSymbolTableRecord
100
AcDbBlockTableRecord
  2
_D
340
0
  0
BLOCK_RECORD
  5
F1
330
1
100
AcDbSymbolTableRecord
100
AcDbBlockTableRecord
  2
_D_1
340
0
  0
BLOCK_RECORD
  5
104
330
1
100
AcDbSymbolTableRecord
100
AcDbBlockTableRecord
  2
_D_2
340
0
  0
BLOCK_RECORD
  5
119
330
1
100
AcDbSymbolTableRecord
100
AcDbBlockTableRecord
  2
_D_3
340
0
  0
BLOCK_RECORD
  5
132
330
1
100
AcDbSymbolTableRecord
100
AcDbBlockTableRecord
  2
SW_DOWELSYMBOL_0
340
0
102
{BLKREFS
331
138
331
22F
331
0
102
}
  0
BLOCK_RECORD
  5
221
330
1
100
AcDbSymbolTableRecord
100
AcDbBlockTableRecord
  2
_D_4
340
0
  0
BLOCK_RECORD
  5
23B
330
1
100
AcDbSymbolTableRecord
100
AcDbBlockTableRecord
  2
*D10
340
0
  0
BLOCK_RECORD
  5
245
330
1
100
AcDbSymbolTableRecord
100
AcDbBlockTableRecord
  2
*D11
340
0
  0
BLOCK_RECORD
  5
251
330
1
100
AcDbSymbolTableRecord
100
AcDbBlockTableRecord
  2
*D12
340
0
  0
BLOCK_RECORD
  5
25D
330
1
100
AcDbSymbolTableRecord
100
AcDbBlockTableRecord
  2
*D13
340
0
  0
BLOCK_RECORD
  5
2B8
330
1
100
AcDbSymbolTableRecord
100
AcDbBlockTableRecord
  2
*D14
340
0
  0
BLOCK_RECORD
  5
2C4
330
1
100
AcDbSymbolTableRecord
100
AcDbBlockTableRecord
  2
*D15
340
0
  0
BLOCK_RECORD
  5
2D0
330
1
100
AcDbSymbolTableRecord
100
AcDbBlockTableRecord
  2
*D16
340
0
  0
BLOCK_RECORD
  5
2DE
330
1
100
AcDbSymbolTableRecord
100
AcDbBlockTableRecord
  2
*D17
340
0
  0
BLOCK_RECORD
  5
2EC
330
1
100
AcDbSymbolTableRecord
100
AcDbBlockTableRecord
  2
*D18
340
0
  0
BLOCK_RECORD
  5
330
330
1
100
AcDbSymbolTableRecord
100
AcDbBlockTableRecord
  2
*D19
340
0
  0
BLOCK_RECORD
  5
33F
330
1
100
AcDbSymbolTableRecord
100
AcDbBlockTableRecord
  2
*D20
340
0
  0
BLOCK_RECORD
  5
34E
330
1
100
AcDbSymbolTableRecord
100
AcDbBlockTableRecord
  2
*D21
340
0
  0
ENDTAB
  0
ENDSEC
  0
SECTION
  2
BLOCKS
  0
BLOCK
  5
20
330
1F
100
AcDbEntity
  8
0
100
AcDbBlockBegin
  2
*Model_Space
 70
     0
 10
0.0
 20
0.0
 30
0.0
  3
*Model_Space
  1
*Model_Space
  0
ENDBLK
  5
21
330
1F
100
AcDbEntity
  8
0
100
AcDbBlockEnd
  0
BLOCK
  5
1C
330
1B
100
AcDbEntity
 67
     1
  8
0
100
AcDbBlockBegin
  2
*Paper_Space
 70
     0
 10
0.0
 20
0.0
 30
0.0
  3
*Paper_Space
  1
*Paper_Space
  0
ENDBLK
  5
1D
330
1B
100
AcDbEntity
 67
     1
  8
0
100
AcDbBlockEnd
  0
BLOCK
  5
24
330
23
100
AcDbEntity
  8
0
100
AcDbBlockBegin
  2
*Paper_Space0
 70
     0
 10
0.0
 20
0.0
 30
0.0
  3
*Paper_Space0
  1
*Paper_Space0
  0
ENDBLK
  5
25
330
23
100
AcDbEntity
  8
0
100
AcDbBlockEnd
  0
BLOCK
  5
80
330
7F
100
AcDbEntity
  8
0
100
AcDbBlockBegin
  2
블럭10
 70
     2
 10
0.0
 20
0.0
 30
0.0
  3
블럭10
  1
블럭10
  0
ELLIPSE
  5
82
330
7F
100
AcDbEntity
  8
중심선
100
AcDbEllipse
 10
20.54032771741204
 20
12.0471743016438
 30
0.0
 11
6.600054785286829
 21
-1.261213355974178E-13
 31
0.0
210
0.0
220
0.0
230
1.0
 40
0.636358354079598
 41
0.9219305317359503
 42
6.513795318482858
  0
ELLIPSE
  5
83
330
7F
100
AcDbEntity
  8
중심선
100
AcDbEllipse
 10
20.54032771746488
 20
12.04717430159265
 30
0.0
 11
3.960054785062283
 21
1.540847449632565E-10
 31
0.0
210
0.0
220
0.0
230
1.0
 40
0.3939339440162632
 41
1.131841032648279
 42
5.62031148352944
  0
LINE
  5
84
330
7F
100
AcDbEntity
  8
중심선
100
AcDbLine
 10
2.268634060543552
 20
16.24717430164393
 30
0.0
 11
5.714909304380834
 21
16.24717430164393
 31
0.0
  0
LINE
  5
85
330
7F
100
AcDbEntity
  8
중심선
100
AcDbLine
 10
5.245725140726316
 20
7.84717430164391
 30
0.0
 11
8.692000384563599
 21
7.84717430164391
 31
0.0
  0
LINE
  5
86
330
7F
100
AcDbEntity
  8
중심선
100
AcDbLine
 10
15.74043728645272
 20
16.24717430164393
 30
0.0
 11
8.692000384563599
 21
7.84717430164391
 31
0.0
  0
LINE
  5
87
330
7F
100
AcDbEntity
  8
중심선
100
AcDbLine
 10
0.1404042013395286
 20
13.71084872107135
 30
0.0
 11
3.58671253028996
 21
13.71088815037384
 31
0.0
  0
LINE
  5
88
330
7F
100
AcDbEntity
  8
중심선
100
AcDbLine
 10
2.750260043222114
 20
10.84717430164391
 30
0.0
 11
6.196535287059397
 21
10.84717430164391
 31
0.0
  0
LINE
  5
89
330
7F
100
AcDbEntity
  8
중심선
100
AcDbLine
 10
12.29416204261559
 20
16.24717430164393
 30
0.0
 11
5.245725140726316
 21
7.84717430164391
 31
0.0
  0
LINE
  5
8A
330
7F
100
AcDbEntity
  8
중심선
100
AcDbLine
 10
10.72767329541681
 20
16.24717430164393
 30
0.0
 11
6.196535287059397
 21
10.84717430164391
 31
0.0
  0
LINE
  5
8B
330
7F
100
AcDbEntity
  8
중심선
100
AcDbLine
 10
7.28139805157953
 20
16.24717430164393
 30
0.0
 11
2.750260043222114
 21
10.84717430164391
 31
0.0
  0
LINE
  5
8C
330
7F
100
AcDbEntity
  8
중심선
100
AcDbLine
 10
5.714909304380834
 20
16.24717430164393
 30
0.0
 11
3.58671253028996
 21
13.71088815037384
 31
0.0
  0
LINE
  5
8D
330
7F
100
AcDbEntity
  8
중심선
100
AcDbLine
 10
2.268634060543552
 20
16.24717430164393
 30
0.0
 11
0.1404042013395286
 21
13.71084872107135
 31
0.0
  0
LINE
  5
8E
330
7F
100
AcDbEntity
  8
중심선
100
AcDbLine
 10
7.28139805157953
 20
16.24717430164393
 30
0.0
 11
10.72767329541681
 21
16.24717430164393
 31
0.0
  0
LINE
  5
8F
330
7F
100
AcDbEntity
  8
중심선
100
AcDbLine
 10
12.29416204261559
 20
16.24717430164393
 30
0.0
 11
15.74043728645272
 21
16.24717430164393
 31
0.0
  0
LINE
  5
90
330
7F
100
AcDbEntity
  8
중심선
100
AcDbLine
 10
19.22036997980202
 20
11.08717430171403
 30
0.0
 11
23.66174974927406
 21
11.08717430171406
 31
0.0
  0
LINE
  5
91
330
7F
100
AcDbEntity
  8
중심선
100
AcDbLine
 10
19.22039502424796
 20
13.00717430171391
 30
0.0
 11
19.22036997980202
 21
11.08717430171403
 31
0.0
  0
LINE
  5
92
330
7F
100
AcDbEntity
  8
중심선
100
AcDbLine
 10
19.22039502424796
 20
13.00717430171391
 30
0.0
 11
26.96566020931264
 21
13.00717430171391
 31
0.0
  0
LINE
  5
93
330
7F
100
AcDbEntity
  8
중심선
100
AcDbLine
 10
22.22332737316547
 20
13.45928029700563
 30
0.0
 11
24.52862924686651
 21
15.39360700705356
 31
0.0
  0
ATTDEF
  5
95
330
7F
100
AcDbEntity
  8
FORMAT
 62
     2
100
AcDbText
 10
4.408487351596664
 20
2.075366912832191
 30
0.0
 40
4.233333333333333
  1
E5025022
 41
0.75
  7
SLDTEXTSTYLE0
 11
4.408487351596664
 21
-0.0412997538344756
 31
0.0
100
AcDbAttributeDefinition
  3

  2
AUTOATTR0
 70
     0
 74
     1
  0
ENDBLK
  5
81
330
7F
100
AcDbEntity
  8
0
100
AcDbBlockEnd
  0
BLOCK
  5
DD
330
DC
100
AcDbEntity
  8
0
100
AcDbBlockBegin
  2
_D
 70
     0
 10
0.0
 20
0.0
 30
0.0
  3
_D
  1
_D
  0
LINE
  5
DF
330
DC
100
AcDbEntity
  8
치수문자_일반주서
 62
     0
370
    -2
100
AcDbLine
 10
-22.98134233574607
 20
4.76249999999999
 30
0.0
 11
-56.78784457818859
 21
4.762499999999861
 31
0.0
  0
LINE
  5
E0
330
DC
100
AcDbEntity
  8
치수문자_일반주서
 62
     0
370
    -2
100
AcDbLine
 10
-22.98134233574608
 20
-4.762500000000001
 30
0.0
 11
-56.78784457818855
 21
-4.762500000000127
 31
0.0
  0
LINE
  5
E1
330
DC
100
AcDbEntity
  8
치수문자_일반주서
 62
     0
370
    -2
100
AcDbLine
 10
-56.78784457818859
 20
4.762499999999861
 30
0.0
 11
-56.78784457818871
 21
37.83524999999996
 31
0.0
  0
LINE
  5
E2
330
DC
100
AcDbEntity
  8
치수문자_일반주서
 62
     0
370
    -2
100
AcDbLine
 10
-56.78784457818859
 20
4.762499999999861
 30
0.0
 11
-56.78784457818855
 21
-4.762500000000127
 31
0.0
  0
LINE
  5
E3
330
DC
100
AcDbEntity
  8
치수문자_일반주서
 62
     0
370
    -2
100
AcDbLine
 10
-56.7878445781886
 20
8.06449999999986
 30
0.0
 11
-56.78784457818862
 21
11.36649999999986
 31
0.0
  0
LINE
  5
E4
330
DC
100
AcDbEntity
  8
치수문자_일반주서
 62
     0
370
    -2
100
AcDbLine
 10
-56.78784457818854
 20
-8.064500000000127
 30
0.0
 11
-56.78784457818853
 21
-11.36650000000013
 31
0.0
  0
SOLID
  5
E5
330
DC
100
AcDbEntity
  8
치수문자_일반주서
 62
     0
100
AcDbTrace
 10
-57.33817791152194
 20
8.064499999999859
 30
0.0
 11
-56.23751124485527
 21
8.064499999999862
 31
0.0
 12
-56.78784457818859
 22
4.762499999999861
 32
0.0
 13
-56.78784457818859
 23
4.762499999999861
 33
0.0
  0
SOLID
  5
E6
330
DC
100
AcDbEntity
  8
치수문자_일반주서
 62
     0
100
AcDbTrace
 10
-56.23751124485521
 20
-8.064500000000125
 30
0.0
 11
-57.33817791152187
 21
-8.064500000000129
 31
0.0
 12
-56.78784457818855
 22
-4.762500000000127
 32
0.0
 13
-56.78784457818855
 23
-4.762500000000127
 33
0.0
  0
MTEXT
  5
E7
330
DC
100
AcDbEntity
  8
치수문자_일반주서
 62
     0
100
AcDbMText
 10
-61.16284457818866
 20
24.71024999999994
 30
0.0
 40
3.5
 41
0.0
 71
     2
 72
     1
  1
\A1;%%c9.53 [3/8]
  7
SLDTEXTSTYLE0
 11
-3.729883127349611E-15
 21
1.0
 31
0.0
 73
     1
 44
1.0
  0
POINT
  5
2F6
330
DC
100
AcDbEntity
  8
Defpoints
 62
     0
100
AcDbPoint
 10
-22.91884233574607
 20
4.76249999999999
 30
0.0
  0
POINT
  5
2F7
330
DC
100
AcDbEntity
  8
Defpoints
 62
     0
100
AcDbPoint
 10
-22.91884233574608
 20
-4.762500000000001
 30
0.0
  0
POINT
  5
2F8
330
DC
100
AcDbEntity
  8
Defpoints
 62
     0
100
AcDbPoint
 10
-56.78784457818855
 20
-4.762500000000127
 30
0.0
  0
ENDBLK
  5
DE
330
DC
100
AcDbEntity
  8
0
100
AcDbBlockEnd
  0
BLOCK
  5
F2
330
F1
100
AcDbEntity
  8
0
100
AcDbBlockBegin
  2
_D_1
 70
     0
 10
0.0
 20
0.0
 30
0.0
  3
_D_1
  1
_D_1
  0
LINE
  5
F4
330
F1
100
AcDbEntity
  8
치수문자_일반주서
 62
     0
370
    -2
100
AcDbLine
 10
44.51250000000002
 20
-4.361935240236916
 30
0.0
 11
60.31070488747228
 21
-4.361935240236853
 31
0.0
  0
LINE
  5
F5
330
F1
100
AcDbEntity
  8
치수문자_일반주서
 62
     0
370
    -2
100
AcDbLine
 10
44.51250000000002
 20
4.361935240236914
 30
0.0
 11
60.31070488747226
 21
4.361935240236974
 31
0.0
  0
LINE
  5
F6
330
F1
100
AcDbEntity
  8
치수문자_일반주서
 62
     0
370
    -2
100
AcDbLine
 10
60.31070488747226
 20
4.361935240236974
 30
0.0
 11
60.31070488747213
 21
40.71593524023697
 31
0.0
  0
LINE
  5
F7
330
F1
100
AcDbEntity
  8
치수문자_일반주서
 62
     0
370
    -2
100
AcDbLine
 10
60.31070488747228
 20
-4.361935240236853
 30
0.0
 11
60.31070488747226
 21
4.361935240236974
 31
0.0
  0
LINE
  5
F8
330
F1
100
AcDbEntity
  8
치수문자_일반주서
 62
     0
370
    -2
100
AcDbLine
 10
60.3107048874723
 20
-7.663935240236853
 30
0.0
 11
60.31070488747231
 21
-10.96593524023685
 31
0.0
  0
LINE
  5
F9
330
F1
100
AcDbEntity
  8
치수문자_일반주서
 62
     0
370
    -2
100
AcDbLine
 10
60.31070488747224
 20
7.663935240236974
 30
0.0
 11
60.31070488747223
 21
10.96593524023697
 31
0.0
  0
SOLID
  5
FA
330
F1
100
AcDbEntity
  8
치수문자_일반주서
 62
     0
100
AcDbTrace
 10
60.86103822080563
 20
-7.663935240236851
 30
0.0
 11
59.76037155413896
 21
-7.663935240236855
 31
0.0
 12
60.31070488747228
 22
-4.361935240236853
 32
0.0
 13
60.31070488747228
 23
-4.361935240236853
 33
0.0
  0
SOLID
  5
FB
330
F1
100
AcDbEntity
  8
치수문자_일반주서
 62
     0
100
AcDbTrace
 10
59.76037155413891
 20
7.663935240236972
 30
0.0
 11
60.86103822080558
 21
7.663935240236976
 31
0.0
 12
60.31070488747226
 22
4.361935240236974
 32
0.0
 13
60.31070488747226
 23
4.361935240236974
 33
0.0
  0
MTEXT
  5
FC
330
F1
100
AcDbEntity
  8
치수문자_일반주서
 62
     0
100
AcDbMText
 10
55.93570488747218
 20
25.84093524023696
 30
0.0
 40
3.5
 41
0.0
 71
     2
 72
     1
  1
\A1;%%c8.72 [11/32]
  7
SLDTEXTSTYLE0
 11
-3.257924277305445E-15
 21
1.0
 31
0.0
 73
     1
 44
1.0
  0
POINT
  5
FD
330
F1
100
AcDbEntity
  8
Defpoints
 62
     0
100
AcDbPoint
 10
44.45000000000002
 20
-4.361935240236916
 30
0.0
  0
POINT
  5
FE
330
F1
100
AcDbEntity
  8
Defpoints
 62
     0
100
AcDbPoint
 10
44.45000000000002
 20
4.361935240236914
 30
0.0
  0
POINT
  5
FF
330
F1
100
AcDbEntity
  8
Defpoints
 62
     0
100
AcDbPoint
 10
60.31070488747226
 20
4.361935240236973
 30
0.0
  0
ENDBLK
  5
F3
330
F1
100
AcDbEntity
  8
0
100
AcDbBlockEnd
  0
BLOCK
  5
105
330
104
100
AcDbEntity
  8
0
100
AcDbBlockBegin
  2
_D_2
 70
     0
 10
0.0
 20
0.0
 30
0.0
  3
_D_2
  1
_D_2
  0
LINE
  5
107
330
104
100
AcDbEntity
  8
치수문자_일반주서
 62
     0
370
    -2
100
AcDbLine
 10
44.45000000000002
 20
4.424435240236914
 30
0.0
 11
44.45000000000002
 21
23.10391908006563
 31
0.0
  0
LINE
  5
108
330
104
100
AcDbEntity
  8
치수문자_일반주서
 62
     0
370
    -2
100
AcDbLine
 10
25.40000000000001
 20
4.231501669442005
 30
0.0
 11
25.40000000000001
 21
23.10391908006563
 31
0.0
  0
LINE
  5
109
330
104
100
AcDbEntity
  8
치수문자_일반주서
 62
     0
370
    -2
100
AcDbLine
 10
25.40000000000001
 20
23.10391908006563
 30
0.0
 11
-6.715573444557982
 21
23.10391908006563
 31
0.0
  0
LINE
  5
10A
330
104
100
AcDbEntity
  8
치수문자_일반주서
 62
     0
370
    -2
100
AcDbLine
 10
44.45000000000002
 20
23.10391908006563
 30
0.0
 11
25.40000000000001
 21
23.10391908006563
 31
0.0
  0
LINE
  5
10B
330
104
100
AcDbEntity
  8
치수문자_일반주서
 62
     0
370
    -2
100
AcDbLine
 10
47.75200000000002
 20
23.10391908006563
 30
0.0
 11
51.05400000000002
 21
23.10391908006563
 31
0.0
  0
LINE
  5
10C
330
104
100
AcDbEntity
  8
치수문자_일반주서
 62
     0
370
    -2
100
AcDbLine
 10
22.09800000000001
 20
23.10391908006563
 30
0.0
 11
18.79600000000001
 21
23.10391908006563
 31
0.0
  0
SOLID
  5
10D
330
104
100
AcDbEntity
  8
치수문자_일반주서
 62
     0
100
AcDbTrace
 10
47.75200000000002
 20
23.65425241339896
 30
0.0
 11
47.75200000000002
 21
22.55358574673229
 31
0.0
 12
44.45000000000002
 22
23.10391908006563
 32
0.0
 13
44.45000000000002
 23
23.10391908006563
 33
0.0
  0
SOLID
  5
10E
330
104
100
AcDbEntity
  8
치수문자_일반주서
 62
     0
100
AcDbTrace
 10
22.09800000000001
 20
22.55358574673229
 30
0.0
 11
22.09800000000001
 21
23.65425241339896
 31
0.0
 12
25.40000000000001
 22
23.10391908006563
 32
0.0
 13
25.40000000000001
 23
23.10391908006563
 33
0.0
  0
MTEXT
  5
10F
330
104
100
AcDbEntity
  8
치수문자_일반주서
 62
     0
100
AcDbMText
 10
5.753176555442018
 20
27.47891908006563
 30
0.0
 40
3.5
 41
0.0
 71
     2
 72
     1
  1
\A1;19.05 [3/4]
  7
SLDTEXTSTYLE0
 73
     1
 44
1.0
  0
POINT
  5
110
330
104
100
AcDbEntity
  8
Defpoints
 62
     0
100
AcDbPoint
 10
44.45000000000002
 20
4.361935240236914
 30
0.0
  0
POINT
  5
111
330
104
100
AcDbEntity
  8
Defpoints
 62
     0
100
AcDbPoint
 10
25.40000000000001
 20
4.169001669442005
 30
0.0
  0
POINT
  5
112
330
104
100
AcDbEntity
  8
Defpoints
 62
     0
100
AcDbPoint
 10
25.40000000000001
 20
23.10391908006563
 30
0.0
  0
ENDBLK
  5
106
330
104
100
AcDbEntity
  8
0
100
AcDbBlockEnd
  0
BLOCK
  5
11A
330
119
100
AcDbEntity
  8
0
100
AcDbBlockBegin
  2
_D_3
 70
     0
 10
0.0
 20
0.0
 30
0.0
  3
_D_3
  1
_D_3
  0
LINE
  5
11C
330
119
100
AcDbEntity
  8
치수문자_일반주서
 62
     0
370
    -2
100
AcDbLine
 10
-44.44999999999997
 20
4.424435240236911
 30
0.0
 11
-44.44999999999996
 21
38.19250000000002
 31
0.0
  0
LINE
  5
11D
330
119
100
AcDbEntity
  8
치수문자_일반주서
 62
     0
370
    -2
100
AcDbLine
 10
44.45000000000002
 20
4.424435240236914
 30
0.0
 11
44.45000000000002
 21
38.19250000000002
 31
0.0
  0
LINE
  5
11E
330
119
100
AcDbEntity
  8
치수문자_일반주서
 62
     0
370
    -2
100
AcDbLine
 10
-41.14799999999996
 20
38.19250000000002
 30
0.0
 11
41.14800000000002
 21
38.19250000000002
 31
0.0
  0
SOLID
  5
11F
330
119
100
AcDbEntity
  8
치수문자_일반주서
 62
     0
100
AcDbTrace
 10
-41.14799999999996
 20
38.74283333333335
 30
0.0
 11
-41.14799999999996
 21
37.64216666666668
 31
0.0
 12
-44.44999999999996
 22
38.19250000000002
 32
0.0
 13
-44.44999999999996
 23
38.19250000000002
 33
0.0
  0
SOLID
  5
120
330
119
100
AcDbEntity
  8
치수문자_일반주서
 62
     0
100
AcDbTrace
 10
41.14800000000002
 20
37.64216666666668
 30
0.0
 11
41.14800000000002
 21
38.74283333333335
 31
0.0
 12
44.45000000000002
 22
38.19250000000002
 32
0.0
 13
44.45000000000002
 23
38.19250000000002
 33
0.0
  0
MTEXT
  5
121
330
119
100
AcDbEntity
  8
치수문자_일반주서
 62
     0
100
AcDbMText
 10
0.0000000000000231
 20
42.56750000000002
 30
0.0
 40
3.5
 41
0.0
 71
     2
 72
     1
  1
\A1;88.9 [3 1/2]
  7
SLDTEXTSTYLE0
 73
     1
 44
1.0
  0
POINT
  5
122
330
119
100
AcDbEntity
  8
Defpoints
 62
     0
100
AcDbPoint
 10
-44.44999999999997
 20
4.361935240236911
 30
0.0
  0
POINT
  5
123
330
119
100
AcDbEntity
  8
Defpoints
 62
     0
100
AcDbPoint
 10
44.45000000000002
 20
4.361935240236914
 30
0.0
  0
POINT
  5
124
330
119
100
AcDbEntity
  8
Defpoints
 62
     0
100
AcDbPoint
 10
44.45000000000002
 20
38.19250000000002
 30
0.0
  0
ENDBLK
  5
11B
330
119
100
AcDbEntity
  8
0
100
AcDbBlockEnd
  0
BLOCK
  5
133
330
132
100
AcDbEntity
  8
0
100
AcDbBlockBegin
  2
SW_DOWELSYMBOL_0
 70
     0
 10
0.0
 20
0.0
 30
0.0
  3
SW_DOWELSYMBOL_0
  1
SW_DOWELSYMBOL_0
  0
CIRCLE
  5
135
330
132
100
AcDbEntity
  8
해칭선
 62
     0
100
AcDbCircle
 10
0.0
 20
0.0
 30
0.0
 40
3.000000000000001
  0
HATCH
  5
136
330
132
100
AcDbEntity
  8
0
  6
Continuous
 62
     0
370
     0
100
AcDbHatch
 10
0.0
 20
0.0
 30
0.0
210
0.0
220
0.0
230
1.0
  2
SOLID
 70
     1
 71
     0
 91
        1
 92
        0
 93
        3
 72
     2
 10
0.0
 20
0.0
 40
3.000000000000001
 50
0.0
 51
90.0
 73
     1
 72
     1
 10
0.0
 20
3.000000000000001
 11
0.0
 21
0.0
 72
     1
 10
0.0
 20
0.0
 11
3.000000000000001
 21
0.0
 97
        0
 75
     0
 76
     1
 98
        1
 10
0.0
 20
0.0
  0
HATCH
  5
137
330
132
100
AcDbEntity
  8
0
  6
Continuous
 62
     0
370
     0
100
AcDbHatch
 10
0.0
 20
0.0
 30
0.0
210
0.0
220
0.0
230
1.0
  2
SOLID
 70
     1
 71
     0
 91
        1
 92
        0
 93
        3
 72
     2
 10
0.0
 20
0.0
 40
3.000000000000001
 50
180.0
 51
270.0000000000008
 73
     1
 72
     1
 10
0.0
 20
-3.000000000000001
 11
0.0
 21
0.0
 72
     1
 10
0.0
 20
0.0
 11
-3.000000000000001
 21
0.0
 97
        0
 75
     0
 76
     1
 98
        1
 10
0.0
 20
0.0
  0
ENDBLK
  5
134
330
132
100
AcDbEntity
  8
0
100
AcDbBlockEnd
  0
BLOCK
  5
222
330
221
100
AcDbEntity
  8
0
100
AcDbBlockBegin
  2
_D_4
 70
     0
 10
0.0
 20
0.0
 30
0.0
  3
_D_4
  1
_D_4
  0
LINE
  5
223
330
221
100
AcDbEntity
  8
치수문자_일반주서
 62
     0
370
    -2
100
AcDbLine
 10
102.4375000000001
 20
36.22143424691529
 30
0.0
 11
117.3750000000001
 21
36.22143424691535
 31
0.0
  0
LINE
  5
224
330
221
100
AcDbEntity
  8
치수문자_일반주서
 62
     0
370
    -2
100
AcDbLine
 10
102.4375000000001
 20
22.22143424691529
 30
0.0
 11
117.3750000000001
 21
22.22143424691535
 31
0.0
  0
LINE
  5
225
330
221
100
AcDbEntity
  8
치수문자_일반주서
 62
     0
370
    -2
100
AcDbLine
 10
117.3750000000001
 20
36.22143424691535
 30
0.0
 11
117.3750000000001
 21
22.22143424691535
 31
0.0
  0
LINE
  5
226
330
221
100
AcDbEntity
  8
치수문자_일반주서
 62
     0
370
    -2
100
AcDbLine
 10
117.3750000000001
 20
39.52343424691535
 30
0.0
 11
117.375
 21
42.82543424691535
 31
0.0
  0
LINE
  5
227
330
221
100
AcDbEntity
  8
치수문자_일반주서
 62
     0
370
    -2
100
AcDbLine
 10
117.3750000000001
 20
18.91943424691535
 30
0.0
 11
117.3750000000001
 21
15.61743424691535
 31
0.0
  0
SOLID
  5
228
330
221
100
AcDbEntity
  8
치수문자_일반주서
 62
     0
100
AcDbTrace
 10
116.8246666666667
 20
39.52343424691535
 30
0.0
 11
117.9253333333334
 21
39.52343424691535
 31
0.0
 12
117.3750000000001
 22
36.22143424691535
 32
0.0
 13
117.3750000000001
 23
36.22143424691535
 33
0.0
  0
SOLID
  5
229
330
221
100
AcDbEntity
  8
치수문자_일반주서
 62
     0
100
AcDbTrace
 10
117.9253333333335
 20
18.91943424691535
 30
0.0
 11
116.8246666666668
 21
18.91943424691535
 31
0.0
 12
117.3750000000001
 22
22.22143424691535
 32
0.0
 13
117.3750000000001
 23
22.22143424691535
 33
0.0
  0
MTEXT
  5
22A
330
221
100
AcDbEntity
  8
치수문자_일반주서
 62
     0
100
AcDbMText
 10
113.0000000000001
 20
29.28713862862833
 30
0.0
 40
3.5
 41
0.0
 71
     2
 72
     1
  1
\A1;%%c14.00 [0.55]
  7
SLDTEXTSTYLE0
 11
-3.045183153257572E-15
 21
1.0
 31
0.0
 73
     1
 44
1.0
  0
POINT
  5
22B
330
221
100
AcDbEntity
  8
Defpoints
 62
     0
100
AcDbPoint
 10
102.3750000000001
 20
36.22143424691529
 30
0.0
  0
POINT
  5
22C
330
221
100
AcDbEntity
  8
Defpoints
 62
     0
100
AcDbPoint
 10
102.3750000000001
 20
22.22143424691529
 30
0.0
  0
POINT
  5
22D
330
221
100
AcDbEntity
  8
Defpoints
 62
     0
100
AcDbPoint
 10
117.3750000000001
 20
22.22143424691535
 30
0.0
  0
ENDBLK
  5
22E
330
221
100
AcDbEntity
  8
0
100
AcDbBlockEnd
  0
BLOCK
  5
23C
330
23B
100
AcDbEntity
  8
0
100
AcDbBlockBegin
  2
*D10
 70
     1
 10
0.0
 20
0.0
 30
0.0
  3
*D10
  1
*D8
  0
LINE
  5
23D
330
23B
100
AcDbEntity
  8
치수문자_일반주서
 62
     0
370
    -2
100
AcDbLine
 10
103.8657751816695
 20
19.48229575403651
 30
0.0
 11
119.6194267469468
 21
-6.150060756304035
 31
0.0
  0
MTEXT
  5
23E
330
23B
100
AcDbEntity
  8
치수문자_일반주서
 62
     0
100
AcDbMText
 10
115.6706384014277
 20
5.288158154535728
 30
0.0
 40
3.5
 41
0.0
 71
     5
 72
     1
  1
\A1;R.5 [R0.02]
  7
SLDTEXTSTYLE0
 11
0.5236126201129557
 21
-0.8519564684057781
 31
0.0
 73
     1
 44
1.0
  0
SOLID
  5
23F
330
23B
100
AcDbEntity
  8
치수문자_일반주서
 62
     0
100
AcDbTrace
 10
104.3346352247821
 20
19.77045723263868
 30
0.0
 11
103.3969151385569
 21
19.19413427543435
 31
0.0
 12
102.1368063100565
 22
22.29545601271239
 32
0.0
 13
102.1368063100565
 23
22.29545601271239
 33
0.0
  0
LINE
  5
240
330
23B
100
AcDbEntity
  8
치수문자_일반주서
 62
     0
100
AcDbLine
 10
101.785
 20
22.72143424691529
 30
0.0
 11
101.965
 21
22.72143424691529
 31
0.0
  0
LINE
  5
241
330
23B
100
AcDbEntity
  8
치수문자_일반주서
 62
     0
100
AcDbLine
 10
101.875
 20
22.63143424691529
 30
0.0
 11
101.875
 21
22.81143424691529
 31
0.0
  0
POINT
  5
26B
330
23B
100
AcDbEntity
  8
Defpoints
 62
     0
100
AcDbPoint
 10
102.1368063100565
 20
22.29545601271239
 30
0.0
  0
POINT
  5
26C
330
23B
100
AcDbEntity
  8
Defpoints
 62
     0
100
AcDbPoint
 10
101.875
 20
22.72143424691529
 30
0.0
  0
ENDBLK
  5
242
330
23B
100
AcDbEntity
  8
0
100
AcDbBlockEnd
  0
BLOCK
  5
246
330
245
100
AcDbEntity
  8
0
100
AcDbBlockBegin
  2
*D11
 70
     1
 10
0.0
 20
0.0
 30
0.0
  3
*D11
  1
*D11
  0
LINE
  5
248
330
245
100
AcDbEntity
  8
치수문자_일반주서
 62
     0
370
    -2
100
AcDbLine
 10
19.37500000000004
 20
35.78393424691529
 30
0.0
 11
19.37500000000004
 21
70.88391841499404
 31
0.0
  0
LINE
  5
249
330
245
100
AcDbEntity
  8
치수문자_일반주서
 62
     0
370
    -2
100
AcDbLine
 10
102.3750000000001
 20
36.34643424691529
 30
0.0
 11
102.3750000000001
 21
70.88391841499404
 31
0.0
  0
LINE
  5
24A
330
245
100
AcDbEntity
  8
치수문자_일반주서
 62
     0
370
    -2
100
AcDbLine
 10
22.67700000000004
 20
70.88391841499404
 30
0.0
 11
99.07300000000006
 21
70.88391841499404
 31
0.0
  0
SOLID
  5
24B
330
245
100
AcDbEntity
  8
치수문자_일반주서
 62
     0
100
AcDbTrace
 10
22.67700000000004
 20
71.43425174832737
 30
0.0
 11
22.67700000000004
 21
70.33358508166071
 31
0.0
 12
19.37500000000004
 22
70.88391841499404
 32
0.0
 13
19.37500000000004
 23
70.88391841499404
 33
0.0
  0
SOLID
  5
24C
330
245
100
AcDbEntity
  8
치수문자_일반주서
 62
     0
100
AcDbTrace
 10
99.07300000000006
 20
70.33358508166071
 30
0.0
 11
99.07300000000006
 21
71.43425174832737
 31
0.0
 12
102.3750000000001
 22
70.88391841499404
 32
0.0
 13
102.3750000000001
 23
70.88391841499404
 33
0.0
  0
MTEXT
  5
24D
330
245
100
AcDbEntity
  8
치수문자_일반주서
 62
     0
100
AcDbMText
 10
60.87500000000005
 20
75.25891841499404
 30
0.0
 40
3.5
 41
0.0
 71
     2
 72
     1
  1
\A1;83 [3.27]
  7
SLDTEXTSTYLE0
 73
     1
 44
1.0
  0
POINT
  5
24E
330
245
100
AcDbEntity
  8
Defpoints
 62
     0
100
AcDbPoint
 10
19.37500000000004
 20
35.72143424691529
 30
0.0
  0
POINT
  5
24F
330
245
100
AcDbEntity
  8
Defpoints
 62
     0
100
AcDbPoint
 10
102.3750000000001
 20
36.28393424691529
 30
0.0
  0
POINT
  5
250
330
245
100
AcDbEntity
  8
Defpoints
 62
     0
100
AcDbPoint
 10
102.3750000000001
 20
70.88391841499404
 30
0.0
  0
ENDBLK
  5
247
330
245
100
AcDbEntity
  8
0
100
AcDbBlockEnd
  0
BLOCK
  5
252
330
251
100
AcDbEntity
  8
0
100
AcDbBlockBegin
  2
*D12
 70
     1
 10
0.0
 20
0.0
 30
0.0
  3
*D12
  1
*D12
  0
LINE
  5
254
330
251
100
AcDbEntity
  8
치수문자_일반주서
 62
     0
370
    -2
100
AcDbLine
 10
76.37504186422882
 20
28.62038676313042
 30
0.0
 11
76.37504186422882
 21
61.90091383617725
 31
0.0
  0
LINE
  5
255
330
251
100
AcDbEntity
  8
치수문자_일반주서
 62
     0
370
    -2
100
AcDbLine
 10
102.3750000000001
 20
36.28393424691529
 30
0.0
 11
102.3750000000001
 21
61.90091383617725
 31
0.0
  0
LINE
  5
256
330
251
100
AcDbEntity
  8
치수문자_일반주서
 62
     0
370
    -2
100
AcDbLine
 10
79.67704186422881
 20
61.90091383617725
 30
0.0
 11
99.07300000000006
 21
61.90091383617725
 31
0.0
  0
SOLID
  5
257
330
251
100
AcDbEntity
  8
치수문자_일반주서
 62
     0
100
AcDbTrace
 10
79.67704186422881
 20
62.45124716951059
 30
0.0
 11
79.67704186422881
 21
61.35058050284392
 31
0.0
 12
76.37504186422882
 22
61.90091383617725
 32
0.0
 13
76.37504186422882
 23
61.90091383617725
 33
0.0
  0
SOLID
  5
258
330
251
100
AcDbEntity
  8
치수문자_일반주서
 62
     0
100
AcDbTrace
 10
99.07300000000006
 20
61.35058050284392
 30
0.0
 11
99.07300000000006
 21
62.45124716951059
 31
0.0
 12
102.3750000000001
 22
61.90091383617725
 32
0.0
 13
102.3750000000001
 23
61.90091383617725
 33
0.0
  0
MTEXT
  5
259
330
251
100
AcDbEntity
  8
치수문자_일반주서
 62
     0
100
AcDbMText
 10
89.42159572693208
 20
66.27591383617725
 30
0.0
 40
3.5
 41
0.0
 71
     2
 72
     1
  1
\A1;26 [1.02]
  7
SLDTEXTSTYLE0
 73
     1
 44
1.0
  0
POINT
  5
25A
330
251
100
AcDbEntity
  8
Defpoints
 62
     0
100
AcDbPoint
 10
76.37504186422882
 20
28.55788676313042
 30
0.0
  0
POINT
  5
25B
330
251
100
AcDbEntity
  8
Defpoints
 62
     0
100
AcDbPoint
 10
102.3750000000001
 20
36.22143424691529
 30
0.0
  0
POINT
  5
25C
330
251
100
AcDbEntity
  8
Defpoints
 62
     0
100
AcDbPoint
 10
102.3750000000001
 20
61.90091383617725
 30
0.0
  0
ENDBLK
  5
253
330
251
100
AcDbEntity
  8
0
100
AcDbBlockEnd
  0
BLOCK
  5
25E
330
25D
100
AcDbEntity
  8
0
100
AcDbBlockBegin
  2
*D13
 70
     1
 10
0.0
 20
0.0
 30
0.0
  3
*D13
  1
*D13
  0
LINE
  5
260
330
25D
100
AcDbEntity
  8
치수문자_일반주서
 62
     0
370
    -2
100
AcDbLine
 10
19.81250000000005
 20
36.22143424691529
 30
0.0
 11
4.374999999999983
 21
36.22143424691524
 31
0.0
  0
LINE
  5
261
330
25D
100
AcDbEntity
  8
치수문자_일반주서
 62
     0
370
    -2
100
AcDbLine
 10
19.81250000000005
 20
22.22143424691529
 30
0.0
 11
4.375000000000032
 21
22.22143424691524
 31
0.0
  0
LINE
  5
262
330
25D
100
AcDbEntity
  8
치수문자_일반주서
 62
     0
370
    -2
100
AcDbLine
 10
4.374999999999983
 20
36.22143424691524
 30
0.0
 11
4.375000000000032
 21
22.22143424691524
 31
0.0
  0
LINE
  5
263
330
25D
100
AcDbEntity
  8
치수문자_일반주서
 62
     0
370
    -2
100
AcDbLine
 10
4.374999999999972
 20
39.52343424691524
 30
0.0
 11
4.37499999999996
 21
42.82543424691524
 31
0.0
  0
LINE
  5
264
330
25D
100
AcDbEntity
  8
치수문자_일반주서
 62
     0
370
    -2
100
AcDbLine
 10
4.375000000000044
 20
18.91943424691524
 30
0.0
 11
4.375000000000055
 21
15.61743424691524
 31
0.0
  0
SOLID
  5
265
330
25D
100
AcDbEntity
  8
치수문자_일반주서
 62
     0
100
AcDbTrace
 10
3.824666666666638
 20
39.52343424691524
 30
0.0
 11
4.925333333333305
 21
39.52343424691524
 31
0.0
 12
4.374999999999983
 22
36.22143424691524
 32
0.0
 13
4.374999999999983
 23
36.22143424691524
 33
0.0
  0
SOLID
  5
266
330
25D
100
AcDbEntity
  8
치수문자_일반주서
 62
     0
100
AcDbTrace
 10
4.925333333333377
 20
18.91943424691524
 30
0.0
 11
3.82466666666671
 21
18.91943424691523
 31
0.0
 12
4.375000000000032
 22
22.22143424691524
 32
0.0
 13
4.375000000000032
 23
22.22143424691524
 33
0.0
  0
MTEXT
  5
267
330
25D
100
AcDbEntity
  8
치수문자_일반주서
 62
     0
100
AcDbMText
 10
0.0000000000000071
 20
29.22143424691528
 30
0.0
 40
3.5
 41
0.0
 71
     2
 72
     1
  1
\A1;%%c14.00 [0.55]
  7
SLDTEXTSTYLE0
 11
-3.489272363107635E-15
 21
1.0
 31
0.0
 73
     1
 44
1.0
  0
POINT
  5
268
330
25D
100
AcDbEntity
  8
Defpoints
 62
     0
100
AcDbPoint
 10
19.87500000000005
 20
36.22143424691529
 30
0.0
  0
POINT
  5
269
330
25D
100
AcDbEntity
  8
Defpoints
 62
     0
100
AcDbPoint
 10
19.87500000000005
 20
22.22143424691529
 30
0.0
  0
POINT
  5
26A
330
25D
100
AcDbEntity
  8
Defpoints
 62
     0
100
AcDbPoint
 10
4.375000000000043
 20
22.22143424691524
 30
0.0
  0
ENDBLK
  5
25F
330
25D
100
AcDbEntity
  8
0
100
AcDbBlockEnd
  0
BLOCK
  5
2B9
330
2B8
100
AcDbEntity
  8
0
100
AcDbBlockBegin
  2
*D14
 70
     1
 10
0.0
 20
0.0
 30
0.0
  3
*D14
  1
*D14
  0
LINE
  5
2BB
330
2B8
100
AcDbEntity
  8
치수문자_일반주서
 62
     0
370
    -2
100
AcDbLine
 10
-85.45848709474376
 20
94.40850678891013
 30
0.0
 11
-85.45848709474376
 21
129.5084909569889
 31
0.0
  0
LINE
  5
2BC
330
2B8
100
AcDbEntity
  8
치수문자_일반주서
 62
     0
370
    -2
100
AcDbLine
 10
-2.458487094743745
 20
94.97100678891013
 30
0.0
 11
-2.458487094743745
 21
129.5084909569889
 31
0.0
  0
LINE
  5
2BD
330
2B8
100
AcDbEntity
  8
치수문자_일반주서
 62
     0
370
    -2
100
AcDbLine
 10
-82.15648709474377
 20
129.5084909569889
 30
0.0
 11
-5.760487094743745
 21
129.5084909569889
 31
0.0
  0
SOLID
  5
2BE
330
2B8
100
AcDbEntity
  8
치수문자_일반주서
 62
     0
100
AcDbTrace
 10
-82.15648709474377
 20
130.0588242903222
 30
0.0
 11
-82.15648709474377
 21
128.9581576236556
 31
0.0
 12
-85.45848709474376
 22
129.5084909569889
 32
0.0
 13
-85.45848709474376
 23
129.5084909569889
 33
0.0
  0
SOLID
  5
2BF
330
2B8
100
AcDbEntity
  8
치수문자_일반주서
 62
     0
100
AcDbTrace
 10
-5.760487094743745
 20
128.9581576236556
 30
0.0
 11
-5.760487094743745
 21
130.0588242903222
 31
0.0
 12
-2.458487094743745
 22
129.5084909569889
 32
0.0
 13
-2.458487094743745
 23
129.5084909569889
 33
0.0
  0
MTEXT
  5
2C0
330
2B8
100
AcDbEntity
  8
치수문자_일반주서
 62
     0
100
AcDbMText
 10
-43.95848709474375
 20
133.8834909569889
 30
0.0
 40
3.5
 41
0.0
 71
     2
 72
     1
  1
\A1;83 [3.27]
  7
SLDTEXTSTYLE0
 73
     1
 44
1.0
  0
POINT
  5
2C1
330
2B8
100
AcDbEntity
  8
Defpoints
 62
     0
100
AcDbPoint
 10
-85.45848709474376
 20
94.34600678891013
 30
0.0
  0
POINT
  5
2C2
330
2B8
100
AcDbEntity
  8
Defpoints
 62
     0
100
AcDbPoint
 10
-2.458487094743745
 20
94.90850678891013
 30
0.0
  0
POINT
  5
2C3
330
2B8
100
AcDbEntity
  8
Defpoints
 62
     0
100
AcDbPoint
 10
-2.458487094743745
 20
129.5084909569889
 30
0.0
  0
ENDBLK
  5
2BA
330
2B8
100
AcDbEntity
  8
0
100
AcDbBlockEnd
  0
BLOCK
  5
2C5
330
2C4
100
AcDbEntity
  8
0
100
AcDbBlockBegin
  2
*D15
 70
     1
 10
0.0
 20
0.0
 30
0.0
  3
*D15
  1
*D15
  0
LINE
  5
2C7
330
2C4
100
AcDbEntity
  8
치수문자_일반주서
 62
     0
370
    -2
100
AcDbLine
 10
-28.45844523051498
 20
87.24495930512526
 30
0.0
 11
-28.45844523051498
 21
120.5254863781721
 31
0.0
  0
LINE
  5
2C8
330
2C4
100
AcDbEntity
  8
치수문자_일반주서
 62
     0
370
    -2
100
AcDbLine
 10
-2.458487094743745
 20
94.90850678891013
 30
0.0
 11
-2.458487094743745
 21
120.5254863781721
 31
0.0
  0
LINE
  5
2C9
330
2C4
100
AcDbEntity
  8
치수문자_일반주서
 62
     0
370
    -2
100
AcDbLine
 10
-25.15644523051498
 20
120.5254863781721
 30
0.0
 11
-5.760487094743745
 21
120.5254863781721
 31
0.0
  0
SOLID
  5
2CA
330
2C4
100
AcDbEntity
  8
치수문자_일반주서
 62
     0
100
AcDbTrace
 10
-25.15644523051498
 20
121.0758197115054
 30
0.0
 11
-25.15644523051498
 21
119.9751530448388
 31
0.0
 12
-28.45844523051498
 22
120.5254863781721
 32
0.0
 13
-28.45844523051498
 23
120.5254863781721
 33
0.0
  0
SOLID
  5
2CB
330
2C4
100
AcDbEntity
  8
치수문자_일반주서
 62
     0
100
AcDbTrace
 10
-5.760487094743745
 20
119.9751530448388
 30
0.0
 11
-5.760487094743745
 21
121.0758197115054
 31
0.0
 12
-2.458487094743745
 22
120.5254863781721
 32
0.0
 13
-2.458487094743745
 23
120.5254863781721
 33
0.0
  0
MTEXT
  5
2CC
330
2C4
100
AcDbEntity
  8
치수문자_일반주서
 62
     0
100
AcDbMText
 10
-15.41189136781172
 20
124.9004863781721
 30
0.0
 40
3.5
 41
0.0
 71
     2
 72
     1
  1
\A1;26 [1.02]
  7
SLDTEXTSTYLE0
 73
     1
 44
1.0
  0
POINT
  5
2CD
330
2C4
100
AcDbEntity
  8
Defpoints
 62
     0
100
AcDbPoint
 10
-28.45844523051498
 20
87.18245930512526
 30
0.0
  0
POINT
  5
2CE
330
2C4
100
AcDbEntity
  8
Defpoints
 62
     0
100
AcDbPoint
 10
-2.458487094743745
 20
94.84600678891013
 30
0.0
  0
POINT
  5
2CF
330
2C4
100
AcDbEntity
  8
Defpoints
 62
     0
100
AcDbPoint
 10
-2.458487094743745
 20
120.5254863781721
 30
0.0
  0
ENDBLK
  5
2C6
330
2C4
100
AcDbEntity
  8
0
100
AcDbBlockEnd
  0
BLOCK
  5
2D1
330
2D0
100
AcDbEntity
  8
0
100
AcDbBlockBegin
  2
*D16
 70
     1
 10
0.0
 20
0.0
 30
0.0
  3
*D16
  1
*D16
  0
LINE
  5
2D3
330
2D0
100
AcDbEntity
  8
치수문자_일반주서
 62
     0
370
    -2
100
AcDbLine
 10
-85.02098709474376
 20
94.84600678891013
 30
0.0
 11
-100.4584870947438
 21
94.84600678891007
 31
0.0
  0
LINE
  5
2D4
330
2D0
100
AcDbEntity
  8
치수문자_일반주서
 62
     0
370
    -2
100
AcDbLine
 10
-85.02098709474376
 20
80.84600678891013
 30
0.0
 11
-100.4584870947438
 21
80.84600678891007
 31
0.0
  0
LINE
  5
2D5
330
2D0
100
AcDbEntity
  8
치수문자_일반주서
 62
     0
370
    -2
100
AcDbLine
 10
-100.4584870947438
 20
94.84600678891007
 30
0.0
 11
-100.4584870947438
 21
80.84600678891007
 31
0.0
  0
LINE
  5
2D6
330
2D0
100
AcDbEntity
  8
치수문자_일반주서
 62
     0
370
    -2
100
AcDbLine
 10
-100.4584870947438
 20
98.14800678891007
 30
0.0
 11
-100.4584870947438
 21
101.4500067889101
 31
0.0
  0
LINE
  5
2D7
330
2D0
100
AcDbEntity
  8
치수문자_일반주서
 62
     0
370
    -2
100
AcDbLine
 10
-100.4584870947437
 20
77.54400678891008
 30
0.0
 11
-100.4584870947437
 21
74.24200678891009
 31
0.0
  0
SOLID
  5
2D8
330
2D0
100
AcDbEntity
  8
치수문자_일반주서
 62
     0
100
AcDbTrace
 10
-101.0088204280771
 20
98.14800678891007
 30
0.0
 11
-99.90815376141049
 21
98.14800678891007
 31
0.0
 12
-100.4584870947438
 22
94.84600678891007
 32
0.0
 13
-100.4584870947438
 23
94.84600678891007
 33
0.0
  0
SOLID
  5
2D9
330
2D0
100
AcDbEntity
  8
치수문자_일반주서
 62
     0
100
AcDbTrace
 10
-99.90815376141042
 20
77.54400678891008
 30
0.0
 11
-101.0088204280771
 21
77.54400678891008
 31
0.0
 12
-100.4584870947438
 22
80.84600678891007
 32
0.0
 13
-100.4584870947438
 23
80.84600678891007
 33
0.0
  0
MTEXT
  5
2DA
330
2D0
100
AcDbEntity
  8
치수문자_일반주서
 62
     0
100
AcDbMText
 10
-104.8334870947438
 20
87.84600678891012
 30
0.0
 40
3.5
 41
0.0
 71
     2
 72
     1
  1
\A1;%%c14.00 [0.55]
  7
SLDTEXTSTYLE0
 11
-3.045183153257572E-15
 21
1.0
 31
0.0
 73
     1
 44
1.0
  0
POINT
  5
2DB
330
2D0
100
AcDbEntity
  8
Defpoints
 62
     0
100
AcDbPoint
 10
-84.95848709474376
 20
94.84600678891013
 30
0.0
  0
POINT
  5
2DC
330
2D0
100
AcDbEntity
  8
Defpoints
 62
     0
100
AcDbPoint
 10
-84.95848709474376
 20
80.84600678891013
 30
0.0
  0
POINT
  5
2DD
330
2D0
100
AcDbEntity
  8
Defpoints
 62
     0
100
AcDbPoint
 10
-100.4584870947438
 20
80.84600678891007
 30
0.0
  0
ENDBLK
  5
2D2
330
2D0
100
AcDbEntity
  8
0
100
AcDbBlockEnd
  0
BLOCK
  5
2DF
330
2DE
100
AcDbEntity
  8
0
100
AcDbBlockBegin
  2
*D17
 70
     1
 10
0.0
 20
0.0
 30
0.0
  3
*D17
  1
*D17
  0
LINE
  5
2E1
330
2DE
100
AcDbEntity
  8
치수문자_일반주서
 62
     0
370
    -2
100
AcDbLine
 10
-2.395987094743731
 20
94.84600678891013
 30
0.0
 11
12.54151290525626
 21
94.84600678891019
 31
0.0
  0
LINE
  5
2E2
330
2DE
100
AcDbEntity
  8
치수문자_일반주서
 62
     0
370
    -2
100
AcDbLine
 10
-2.395987094743745
 20
80.84600678891013
 30
0.0
 11
12.54151290525631
 21
80.84600678891019
 31
0.0
  0
LINE
  5
2E3
330
2DE
100
AcDbEntity
  8
치수문자_일반주서
 62
     0
370
    -2
100
AcDbLine
 10
12.54151290525626
 20
94.84600678891019
 30
0.0
 11
12.54151290525631
 21
80.84600678891019
 31
0.0
  0
LINE
  5
2E4
330
2DE
100
AcDbEntity
  8
치수문자_일반주서
 62
     0
370
    -2
100
AcDbLine
 10
12.54151290525625
 20
98.14800678891018
 30
0.0
 11
12.54151290525623
 21
101.4500067889102
 31
0.0
  0
LINE
  5
2E5
330
2DE
100
AcDbEntity
  8
치수문자_일반주서
 62
     0
370
    -2
100
AcDbLine
 10
12.54151290525632
 20
77.5440067889102
 30
0.0
 11
12.54151290525633
 21
74.2420067889102
 31
0.0
  0
SOLID
  5
2E6
330
2DE
100
AcDbEntity
  8
치수문자_일반주서
 62
     0
100
AcDbTrace
 10
11.99117957192291
 20
98.14800678891018
 30
0.0
 11
13.09184623858958
 21
98.14800678891018
 31
0.0
 12
12.54151290525626
 22
94.84600678891019
 32
0.0
 13
12.54151290525626
 23
94.84600678891019
 33
0.0
  0
SOLID
  5
2E7
330
2DE
100
AcDbEntity
  8
치수문자_일반주서
 62
     0
100
AcDbTrace
 10
13.09184623858965
 20
77.5440067889102
 30
0.0
 11
11.99117957192299
 21
77.5440067889102
 31
0.0
 12
12.54151290525631
 22
80.84600678891019
 32
0.0
 13
12.54151290525631
 23
80.84600678891019
 33
0.0
  0
MTEXT
  5
2E8
330
2DE
100
AcDbEntity
  8
치수문자_일반주서
 62
     0
100
AcDbMText
 10
8.166512905256283
 20
87.91171117062316
 30
0.0
 40
3.5
 41
0.0
 71
     2
 72
     1
  1
\A1;%%c14.00 [0.55]
  7
SLDTEXTSTYLE0
 11
-3.552713678800501E-15
 21
1.0
 31
0.0
 73
     1
 44
1.0
  0
POINT
  5
2E9
330
2DE
100
AcDbEntity
  8
Defpoints
 62
     0
100
AcDbPoint
 10
-2.458487094743731
 20
94.84600678891013
 30
0.0
  0
POINT
  5
2EA
330
2DE
100
AcDbEntity
  8
Defpoints
 62
     0
100
AcDbPoint
 10
-2.458487094743745
 20
80.84600678891013
 30
0.0
  0
POINT
  5
2EB
330
2DE
100
AcDbEntity
  8
Defpoints
 62
     0
100
AcDbPoint
 10
12.54151290525631
 20
80.84600678891019
 30
0.0
  0
ENDBLK
  5
2E0
330
2DE
100
AcDbEntity
  8
0
100
AcDbBlockEnd
  0
BLOCK
  5
2ED
330
2EC
100
AcDbEntity
  8
0
100
AcDbBlockBegin
  2
*D18
 70
     1
 10
0.0
 20
0.0
 30
0.0
  3
*D18
  1
*D18
  0
LINE
  5
2EF
330
2EC
100
AcDbEntity
  8
치수문자_일반주서
 62
     0
370
    -2
100
AcDbLine
 10
-0.9677119130742944
 20
78.10686829603135
 30
0.0
 11
14.78593965220299
 21
52.47451178569079
 31
0.0
  0
MTEXT
  5
2F0
330
2EC
100
AcDbEntity
  8
치수문자_일반주서
 62
     0
100
AcDbMText
 10
10.83715130668386
 20
63.91273069653056
 30
0.0
 40
3.5
 41
0.0
 71
     5
 72
     1
  1
\A1;R.5 [R0.02]
  7
SLDTEXTSTYLE0
 11
0.5236126201129557
 21
-0.8519564684057781
 31
0.0
 73
     1
 44
1.0
  0
SOLID
  5
2F1
330
2EC
100
AcDbEntity
  8
치수문자_일반주서
 62
     0
100
AcDbTrace
 10
-0.4988518699616479
 20
78.39502977463351
 30
0.0
 11
-1.436571956186941
 21
77.81870681742919
 31
0.0
 12
-2.696680784687274
 22
80.92002855470723
 32
0.0
 13
-2.696680784687274
 23
80.92002855470723
 33
0.0
  0
LINE
  5
2F2
330
2EC
100
AcDbEntity
  8
치수문자_일반주서
 62
     0
100
AcDbLine
 10
-3.048487094743759
 20
81.34600678891013
 30
0.0
 11
-2.86848709474376
 21
81.34600678891013
 31
0.0
  0
LINE
  5
2F3
330
2EC
100
AcDbEntity
  8
치수문자_일반주서
 62
     0
100
AcDbLine
 10
-2.958487094743759
 20
81.25600678891013
 30
0.0
 11
-2.958487094743759
 21
81.43600678891013
 31
0.0
  0
POINT
  5
2F4
330
2EC
100
AcDbEntity
  8
Defpoints
 62
     0
100
AcDbPoint
 10
-2.696680784687274
 20
80.92002855470723
 30
0.0
  0
POINT
  5
2F5
330
2EC
100
AcDbEntity
  8
Defpoints
 62
     0
100
AcDbPoint
 10
-2.958487094743759
 20
81.34600678891013
 30
0.0
  0
ENDBLK
  5
2EE
330
2EC
100
AcDbEntity
  8
0
100
AcDbBlockEnd
  0
BLOCK
  5
331
330
330
100
AcDbEntity
  8
0
100
AcDbBlockBegin
  2
*D19
 70
     1
 10
0.0
 20
0.0
 30
0.0
  3
*D19
  1
*D19
  0
LINE
  5
333
330
330
100
AcDbEntity
  8
치수문자_일반주서
 62
     0
370
    -2
100
AcDbLine
 10
165.779923264413
 20
-25.65901563803163
 30
0.0
 11
181.5781281518852
 21
-25.65901563803157
 31
0.0
  0
LINE
  5
334
330
330
100
AcDbEntity
  8
치수문자_일반주서
 62
     0
370
    -2
100
AcDbLine
 10
165.779923264413
 20
-16.93514515755779
 30
0.0
 11
181.5781281518852
 21
-16.93514515755774
 31
0.0
  0
LINE
  5
335
330
330
100
AcDbEntity
  8
치수문자_일반주서
 62
     0
370
    -2
100
AcDbLine
 10
181.5781281518852
 20
-16.93514515755774
 30
0.0
 11
181.5781281518851
 21
16.35635484244226
 31
0.0
  0
LINE
  5
336
330
330
100
AcDbEntity
  8
치수문자_일반주서
 62
     0
370
    -2
100
AcDbLine
 10
181.5781281518852
 20
-25.65901563803157
 30
0.0
 11
181.5781281518852
 21
-16.93514515755774
 31
0.0
  0
LINE
  5
337
330
330
100
AcDbEntity
  8
치수문자_일반주서
 62
     0
370
    -2
100
AcDbLine
 10
181.5781281518852
 20
-28.96101563803157
 30
0.0
 11
181.5781281518852
 21
-32.26301563803157
 31
0.0
  0
LINE
  5
338
330
330
100
AcDbEntity
  8
치수문자_일반주서
 62
     0
370
    -2
100
AcDbLine
 10
181.5781281518852
 20
-13.63314515755774
 30
0.0
 11
181.5781281518852
 21
-10.33114515755774
 31
0.0
  0
SOLID
  5
339
330
330
100
AcDbEntity
  8
치수문자_일반주서
 62
     0
100
AcDbTrace
 10
182.1284614852186
 20
-28.96101563803157
 30
0.0
 11
181.0277948185519
 21
-28.96101563803157
 31
0.0
 12
181.5781281518852
 22
-25.65901563803157
 32
0.0
 13
181.5781281518852
 23
-25.65901563803157
 33
0.0
  0
SOLID
  5
33A
330
330
100
AcDbEntity
  8
치수문자_일반주서
 62
     0
100
AcDbTrace
 10
181.0277948185519
 20
-13.63314515755774
 30
0.0
 11
182.1284614852185
 21
-13.63314515755774
 31
0.0
 12
181.5781281518852
 22
-16.93514515755774
 32
0.0
 13
181.5781281518852
 23
-16.93514515755774
 33
0.0
  0
MTEXT
  5
33B
330
330
100
AcDbEntity
  8
치수문자_일반주서
 62
     0
100
AcDbMText
 10
177.2031281518852
 20
3.012604842442247
 30
0.0
 40
3.5
 41
0.0
 71
     2
 72
     1
  1
\A1;%%c8.72 [0.34]
  7
SLDTEXTSTYLE0
 11
-3.257924277305443E-15
 21
1.0
 31
0.0
 73
     1
 44
1.0
  0
POINT
  5
33C
330
330
100
AcDbEntity
  8
Defpoints
 62
     0
100
AcDbPoint
 10
165.717423264413
 20
-25.65901563803163
 30
0.0
  0
POINT
  5
33D
330
330
100
AcDbEntity
  8
Defpoints
 62
     0
100
AcDbPoint
 10
165.717423264413
 20
-16.93514515755779
 30
0.0
  0
POINT
  5
33E
330
330
100
AcDbEntity
  8
Defpoints
 62
     0
100
AcDbPoint
 10
181.5781281518852
 20
-16.93514515755773
 30
0.0
  0
ENDBLK
  5
332
330
330
100
AcDbEntity
  8
0
100
AcDbBlockEnd
  0
BLOCK
  5
340
330
33F
100
AcDbEntity
  8
0
100
AcDbBlockBegin
  2
*D20
 70
     1
 10
0.0
 20
0.0
 30
0.0
  3
*D20
  1
*D20
  0
LINE
  5
342
330
33F
100
AcDbEntity
  8
치수문자_일반주서
 62
     0
370
    -2
100
AcDbLine
 10
165.717423264413
 20
-16.87264515755779
 30
0.0
 11
165.717423264413
 21
1.806838682270918
 31
0.0
  0
LINE
  5
343
330
33F
100
AcDbEntity
  8
치수문자_일반주서
 62
     0
370
    -2
100
AcDbLine
 10
146.6674232644129
 20
-17.0655787283527
 30
0.0
 11
146.6674232644129
 21
1.806838682270918
 31
0.0
  0
LINE
  5
344
330
33F
100
AcDbEntity
  8
치수문자_일반주서
 62
     0
370
    -2
100
AcDbLine
 10
146.6674232644129
 20
1.806838682270918
 30
0.0
 11
114.333099819855
 21
1.806838682270918
 31
0.0
  0
LINE
  5
345
330
33F
100
AcDbEntity
  8
치수문자_일반주서
 62
     0
370
    -2
100
AcDbLine
 10
165.717423264413
 20
1.806838682270918
 30
0.0
 11
146.6674232644129
 21
1.806838682270918
 31
0.0
  0
LINE
  5
346
330
33F
100
AcDbEntity
  8
치수문자_일반주서
 62
     0
370
    -2
100
AcDbLine
 10
169.0194232644129
 20
1.806838682270918
 30
0.0
 11
172.3214232644129
 21
1.806838682270918
 31
0.0
  0
LINE
  5
347
330
33F
100
AcDbEntity
  8
치수문자_일반주서
 62
     0
370
    -2
100
AcDbLine
 10
143.365423264413
 20
1.806838682270918
 30
0.0
 11
140.063423264413
 21
1.806838682270918
 31
0.0
  0
SOLID
  5
348
330
33F
100
AcDbEntity
  8
치수문자_일반주서
 62
     0
100
AcDbTrace
 10
169.0194232644129
 20
2.357172015604251
 30
0.0
 11
169.0194232644129
 21
1.256505348937585
 31
0.0
 12
165.717423264413
 22
1.806838682270918
 32
0.0
 13
165.717423264413
 23
1.806838682270918
 33
0.0
  0
SOLID
  5
349
330
33F
100
AcDbEntity
  8
치수문자_일반주서
 62
     0
100
AcDbTrace
 10
143.365423264413
 20
1.256505348937585
 30
0.0
 11
143.365423264413
 21
2.357172015604251
 31
0.0
 12
146.6674232644129
 22
1.806838682270918
 32
0.0
 13
146.6674232644129
 23
1.806838682270918
 33
0.0
  0
MTEXT
  5
34A
330
33F
100
AcDbEntity
  8
치수문자_일반주서
 62
     0
100
AcDbMText
 10
127.020599819855
 20
6.181838682270918
 30
0.0
 40
3.5
 41
0.0
 71
     2
 72
     1
  1
\A1;19.05 [0.75]
  7
SLDTEXTSTYLE0
 73
     1
 44
1.0
  0
POINT
  5
34B
330
33F
100
AcDbEntity
  8
Defpoints
 62
     0
100
AcDbPoint
 10
165.717423264413
 20
-16.93514515755779
 30
0.0
  0
POINT
  5
34C
330
33F
100
AcDbEntity
  8
Defpoints
 62
     0
100
AcDbPoint
 10
146.6674232644129
 20
-17.1280787283527
 30
0.0
  0
POINT
  5
34D
330
33F
100
AcDbEntity
  8
Defpoints
 62
     0
100
AcDbPoint
 10
146.6674232644129
 20
1.806838682270918
 30
0.0
  0
ENDBLK
  5
341
330
33F
100
AcDbEntity
  8
0
100
AcDbBlockEnd
  0
BLOCK
  5
34F
330
34E
100
AcDbEntity
  8
0
100
AcDbBlockBegin
  2
*D21
 70
     1
 10
0.0
 20
0.0
 30
0.0
  3
*D21
  1
*D21
  0
LINE
  5
351
330
34E
100
AcDbEntity
  8
치수문자_일반주서
 62
     0
370
    -2
100
AcDbLine
 10
76.81742326441297
 20
-17.47208039779472
 30
0.0
 11
76.81742326441297
 21
16.89541960220531
 31
0.0
  0
LINE
  5
352
330
34E
100
AcDbEntity
  8
치수문자_일반주서
 62
     0
370
    -2
100
AcDbLine
 10
165.717423264413
 20
-16.87264515755779
 30
0.0
 11
165.717423264413
 21
16.89541960220531
 31
0.0
  0
LINE
  5
353
330
34E
100
AcDbEntity
  8
치수문자_일반주서
 62
     0
370
    -2
100
AcDbLine
 10
80.11942326441297
 20
16.89541960220531
 30
0.0
 11
162.415423264413
 21
16.89541960220531
 31
0.0
  0
SOLID
  5
354
330
34E
100
AcDbEntity
  8
치수문자_일반주서
 62
     0
100
AcDbTrace
 10
80.11942326441297
 20
17.44575293553864
 30
0.0
 11
80.11942326441297
 21
16.34508626887197
 31
0.0
 12
76.81742326441297
 22
16.89541960220531
 32
0.0
 13
76.81742326441297
 23
16.89541960220531
 33
0.0
  0
SOLID
  5
355
330
34E
100
AcDbEntity
  8
치수문자_일반주서
 62
     0
100
AcDbTrace
 10
162.415423264413
 20
16.34508626887197
 30
0.0
 11
162.415423264413
 21
17.44575293553864
 31
0.0
 12
165.717423264413
 22
16.89541960220531
 32
0.0
 13
165.717423264413
 23
16.89541960220531
 33
0.0
  0
MTEXT
  5
356
330
34E
100
AcDbEntity
  8
치수문자_일반주서
 62
     0
100
AcDbMText
 10
121.267423264413
 20
21.27041960220531
 30
0.0
 40
3.5
 41
0.0
 71
     2
 72
     1
  1
\A1;88.9 [3.50]
  7
SLDTEXTSTYLE0
 73
     1
 44
1.0
  0
POINT
  5
357
330
34E
100
AcDbEntity
  8
Defpoints
 62
     0
100
AcDbPoint
 10
76.81742326441297
 20
-17.53458039779472
 30
0.0
  0
POINT
  5
358
330
34E
100
AcDbEntity
  8
Defpoints
 62
     0
100
AcDbPoint
 10
165.717423264413
 20
-16.93514515755779
 30
0.0
  0
POINT
  5
359
330
34E
100
AcDbEntity
  8
Defpoints
 62
     0
100
AcDbPoint
 10
165.717423264413
 20
16.89541960220531
 30
0.0
  0
ENDBLK
  5
350
330
34E
100
AcDbEntity
  8
0
100
AcDbBlockEnd
  0
ENDSEC
  0
SECTION
  2
ENTITIES
  0
LINE
  5
96
330
1F
100
AcDbEntity
  8
외형선
  6
Continuous
370
    15
100
AcDbLine
 10
22.91884233574611
 20
4.762499999999997
 30
0.0
 11
4.83870000000014
 21
4.762499999999996
 31
0.0
  0
LINE
  5
97
330
1F
100
AcDbEntity
  8
외형선
  6
Continuous
370
    15
100
AcDbLine
 10
-22.91884233574608
 20
-4.762500000000001
 30
0.0
 11
22.91884233574611
 21
-4.762499999999998
 31
0.0
  0
LINE
  5
98
330
1F
100
AcDbEntity
  8
외형선
  6
Continuous
370
    15
100
AcDbLine
 10
22.91884233574611
 20
-4.7625
 30
0.0
 11
23.88011591578123
 21
-4.504927520524219
 31
0.0
  0
LINE
  5
99
330
1F
100
AcDbEntity
  8
외형선
  6
Continuous
370
    15
100
AcDbLine
 10
23.88011591578123
 20
4.504927520524217
 30
0.0
 11
22.91884233574611
 21
4.762499999999998
 31
0.0
  0
SPLINE
  5
9C
330
1F
100
AcDbEntity
  8
외형선
  6
Continuous
370
    15
100
AcDbSpline
210
0.0
220
0.0
230
1.0
 70
     8
 71
     3
 72
     9
 73
     5
 74
     0
 42
0.000000001
 43
0.00000001
 40
0.0
 40
0.0
 40
0.0
 40
0.0
 40
0.4989809098801651
 40
0.9999999999999999
 40
0.9999999999999999
 40
0.9999999999999999
 40
0.9999999999999999
 10
25.08521477589386
 20
-3.637234160465422
 30
0.0
 10
25.13772890425703
 20
-3.631793541627111
 30
0.0
 10
25.24297166469809
 20
-3.620890080731947
 30
0.0
 10
25.34758614717572
 20
-3.609698573075249
 30
0.0
 10
25.40000000000001
 20
-3.604091414092021
 30
0.0
  0
LINE
  5
9D
330
1F
100
AcDbEntity
  8
0
  6
Continuous
 62
     1
370
    15
100
AcDbLine
 10
30.75382038702007
 20
1.213611671080766
 30
0.0
 11
30.67801704850782
 21
1.255187717664221
 31
0.0
  0
SPLINE
  5
9E
330
1F
100
AcDbEntity
  8
0
  6
Continuous
 62
     1
370
    15
100
AcDbSpline
210
0.0
220
0.0
230
1.0
 70
     8
 71
     3
 72
     9
 73
     5
 74
     0
 42
0.000000001
 43
0.00000001
 40
0.0
 40
0.0
 40
0.0
 40
0.0
 40
0.4370058933420179
 40
1.0
 40
1.0
 40
1.0
 40
1.0
 10
33.14047658824351
 20
1.118691336876005
 30
0.0
 10
32.96384091945984
 20
1.202593031027237
 30
0.0
 10
32.55964575533323
 20
1.394585165297079
 30
0.0
 10
32.15547487504107
 20
1.605613556129171
 30
0.0
 10
31.92792905135381
 20
1.724421296505157
 30
0.0
  0
SPLINE
  5
9F
330
1F
100
AcDbEntity
  8
0
  6
Continuous
 62
     1
370
    15
100
AcDbSpline
210
0.0
220
0.0
230
1.0
 70
     8
 71
     3
 72
    16
 73
    12
 74
     0
 42
0.000000001
 43
0.00000001
 40
0.0
 40
0.0
 40
0.0
 40
0.0
 40
0.1429641586696212
 40
0.2463583811913748
 40
0.3257230583355041
 40
0.4152005461404448
 40
0.5139870027429865
 40
0.6154576171141006
 40
0.7189750258742253
 40
0.8195276292150184
 40
1.0
 40
1.0
 40
1.0
 40
1.0
 10
31.69638471426959
 20
3.469095113174121
 30
0.0
 10
31.52684006750905
 20
3.460570304250885
 30
0.0
 10
31.23467771643953
 20
3.445880201879512
 30
0.0
 10
30.84629993066321
 20
3.431668147336071
 30
0.0
 10
30.51830489097222
 20
3.422157573477578
 30
0.0
 10
30.19590863642507
 20
3.415201297960658
 30
0.0
 10
29.84648381399949
 20
3.410489140070247
 30
0.0
 10
29.48131967243442
 20
3.408756499451083
 30
0.0
 10
29.11500084570385
 20
3.410404517960849
 30
0.0
 10
28.65400527787326
 20
3.41616196507772
 30
0.0
 10
28.31716233065492
 20
3.426023728027525
 30
0.0
 10
28.1008440284976
 20
3.43235688665589
 30
0.0
  0
SPLINE
  5
A0
330
1F
100
AcDbEntity
  8
0
  6
Continuous
 62
     1
370
    15
100
AcDbSpline
210
0.0
220
0.0
230
1.0
 70
     8
 71
     3
 72
    26
 73
    22
 74
     0
 42
0.000000001
 43
0.00000001
 40
0.0
 40
0.0
 40
0.0
 40
0.0
 40
0.0694734184108228
 40
0.1238565313876199
 40
0.1715850327782643
 40
0.202072950971035
 40
0.2340051671316652
 40
0.2678654643255793
 40
0.305505002224416
 40
0.3480728958869309
 40
0.4195477324676377
 40
0.4803534394425527
 40
0.5321965828502676
 40
0.5782183429337259
 40
0.6243470398457254
 40
0.6738034755449367
 40
0.7352495682808303
 40
0.8035974079319016
 40
0.8628281397163226
 40
0.9240956370449493
 40
1.0
 40
1.0
 40
1.0
 40
1.0
 10
42.82694116761897
 20
2.985867187941769
 30
0.0
 10
42.64929555811491
 20
2.971381942894129
 30
0.0
 10
42.33259070159984
 20
2.945557789585721
 30
0.0
 10
41.8951738309126
 20
2.918808729347418
 30
0.0
 10
41.55815262801649
 20
2.902186692259355
 30
0.0
 10
41.28083646870115
 20
2.891306364373949
 30
0.0
 10
41.03689890812579
 20
2.883604270472037
 30
0.0
 10
40.77416815037861
 20
2.877502195179172
 30
0.0
 10
40.48415569951941
 20
2.873454085714002
 30
0.0
 10
40.09846784937982
 20
2.872074204079501
 30
0.0
 10
39.65387157174128
 20
2.876978952581106
 30
0.0
 10
39.1858063379043
 20
2.890057325717629
 30
0.0
 10
38.78269436896414
 20
2.907234960922733
 30
0.0
 10
38.41646008099196
 20
2.927293902836241
 30
0.0
 10
38.05637157415546
 20
2.951109064234146
 30
0.0
 10
37.65721641782194
 20
2.982181371123729
 30
0.0
 10
37.20181578847576
 20
3.023892408389907
 30
0.0
 10
36.72132732967053
 20
3.075498753619176
 30
0.0
 10
36.23270255013238
 20
3.134694172276278
 30
0.0
 10
35.72818852364436
 20
3.202244831207649
 30
0.0
 10
35.38944980119943
 20
3.254559323057526
 30
0.0
 10
35.20200795356233
 20
3.283507666901301
 30
0.0
  0
SPLINE
  5
A1
330
1F
100
AcDbEntity
  8
0
  6
Continuous
 62
     1
370
    15
100
AcDbSpline
210
0.0
220
0.0
230
1.0
 70
     8
 71
     3
 72
    13
 73
     9
 74
     0
 42
0.000000001
 43
0.00000001
 40
0.0
 40
0.0
 40
0.0
 40
0.0
 40
0.2279262835984646
 40
0.4085847756307787
 40
0.6161684950872655
 40
0.7998833985204626
 40
0.9463870805638449
 40
0.9999999999999999
 40
0.9999999999999999
 40
0.9999999999999999
 40
0.9999999999999999
 10
35.20200795356233
 20
-3.283507666901303
 30
0.0
 10
35.44438094142018
 20
-3.246367648190993
 30
0.0
 10
35.87886314022318
 20
-3.179789779363858
 30
0.0
 10
36.5679804721572
 20
-3.092756211517077
 30
0.0
 10
37.19347485523269
 20
-3.023676935454217
 30
0.0
 10
37.78031383172502
 20
-2.971737938762333
 30
0.0
 10
38.1996445789551
 20
-2.940402166358821
 30
0.0
 10
38.41828622901545
 20
-2.928408408777436
 30
0.0
 10
38.47686216466201
 20
-2.92519518031866
 30
0.0
  0
SPLINE
  5
A2
330
1F
100
AcDbEntity
  8
0
  6
Continuous
 62
     1
370
    15
100
AcDbSpline
210
0.0
220
0.0
230
1.0
 70
     8
 71
     3
 72
    20
 73
    16
 74
     0
 42
0.000000001
 43
0.00000001
 40
0.0
 40
0.0
 40
0.0
 40
0.0
 40
0.1138287687198445
 40
0.2013115564599708
 40
0.2704029501940463
 40
0.3428625178949364
 40
0.4119151286435873
 40
0.471264771781301
 40
0.5263590007191385
 40
0.6204896093424573
 40
0.7107102352714981
 40
0.7503403619820577
 40
0.8035701760228168
 40
0.8870476668136296
 40
1.0
 40
1.0
 40
1.0
 40
1.0
 10
25.40000000000001
 20
-3.604091414092021
 30
0.0
 10
25.64144443454523
 20
-3.583263916261814
 30
0.0
 10
26.06845032649619
 20
-3.546429502145598
 30
0.0
 10
26.64212440495403
 20
-3.504854991149621
 30
0.0
 10
27.12102888668053
 20
-3.475423278925338
 30
0.0
 10
27.56216121926569
 20
-3.452861118438471
 30
0.0
 10
27.98247236269466
 20
-3.435660853320988
 30
0.0
 10
28.36647768099699
 20
-3.423670348093339
 30
0.0
 10
28.80316857420723
 20
-3.413884114927083
 30
0.0
 10
29.30461638700392
 20
-3.408315152529107
 30
0.0
 10
29.77343292531483
 20
-3.409711547490384
 30
0.0
 10
30.15657048537801
 20
-3.414668069571243
 30
0.0
 10
30.52544910361238
 20
-3.422107698480594
 30
0.0
 10
31.0479767152631
 20
-3.43746154900703
 30
0.0
 10
31.45965743492047
 20
-3.457546015086398
 30
0.0
 10
31.69638471426959
 20
-3.469095113174123
 30
0.0
  0
LINE
  5
A3
330
1F
100
AcDbEntity
  8
외형선
  6
Continuous
370
    15
100
AcDbLine
 10
22.91884233574611
 20
4.762499999999998
 30
0.0
 11
22.91884233574611
 21
-4.762499999999998
 31
0.0
  0
SPLINE
  5
A5
330
1F
100
AcDbEntity
  8
외형선
  6
Continuous
370
    15
100
AcDbSpline
210
0.0
220
0.0
230
1.0
 70
     8
 71
     3
 72
     8
 73
     4
 74
     0
 42
0.000000001
 43
0.00000001
 40
0.0
 40
0.0
 40
0.0
 40
0.0
 40
0.0005907553955736
 40
0.0005907553955736
 40
0.0005907553955736
 40
0.0005907553955736
 10
24.40000000000001
 20
4.30336250147311
 30
0.0
 10
24.22645912319804
 20
4.362765304706883
 30
0.0
 10
24.05321840181183
 20
4.420225896836468
 30
0.0
 10
23.88023733720208
 20
4.475598702732837
 30
0.0
  0
LINE
  5
A6
330
1F
100
AcDbEntity
  8
외형선
  6
Continuous
370
    15
100
AcDbLine
 10
24.40000000000001
 20
4.303362501473214
 30
0.0
 11
24.40000000000001
 21
3.933082119940794
 31
0.0
  0
SPLINE
  5
A7
330
1F
100
AcDbEntity
  8
외형선
  6
Continuous
370
    15
100
AcDbSpline
210
0.0
220
0.0
230
1.0
 70
     8
 71
     3
 72
     8
 73
     4
 74
     0
 42
0.000000001
 43
0.00000001
 40
0.0
 40
0.0
 40
0.0
 40
0.0
 40
0.0005968768888786
 40
0.0005968768888786
 40
0.0005968768888786
 40
0.0005968768888786
 10
23.88011591578123
 20
4.165416384107462
 30
0.0
 10
24.05363353120479
 20
4.089853795926987
 30
0.0
 10
24.22689949599239
 20
4.012376545213404
 30
0.0
 10
24.40000000000012
 20
3.933082119940359
 30
0.0
  0
LINE
  5
A8
330
1F
100
AcDbEntity
  8
외형선
  6
Continuous
370
    15
100
AcDbLine
 10
23.88011591578123
 20
-4.504927520524219
 30
0.0
 11
23.88011591578123
 21
4.165439493865718
 31
0.0
  0
SPLINE
  5
A9
330
1F
100
AcDbEntity
  8
외형선
  6
Continuous
370
    15
100
AcDbSpline
210
0.0
220
0.0
230
1.0
 70
     8
 71
     3
 72
     8
 73
     4
 74
     0
 42
0.000000001
 43
0.00000001
 40
0.0
 40
0.0
 40
0.0
 40
0.0
 40
0.0005907553955736
 40
0.0005907553955736
 40
0.0005907553955736
 40
0.0005907553955736
 10
24.40000000000001
 20
-4.303362501473112
 30
0.0
 10
24.22645912319804
 20
-4.362765304706883
 30
0.0
 10
24.05321840181183
 20
-4.420225896836468
 30
0.0
 10
23.88023733720208
 20
-4.475598702732839
 30
0.0
  0
LINE
  5
AA
330
1F
100
AcDbEntity
  8
외형선
  6
Continuous
370
    15
100
AcDbLine
 10
23.88011591578123
 20
4.475644241740714
 30
0.0
 11
23.88011591578123
 21
4.504927520524217
 31
0.0
  0
LINE
  5
AB
330
1F
100
AcDbEntity
  8
외형선
  6
Continuous
370
    15
100
AcDbLine
 10
-44.44999999999998
 20
3.76249999999999
 30
0.0
 11
-44.44999999999998
 21
-3.762500000000001
 31
0.0
  0
SPLINE
  5
AC
330
1F
100
AcDbEntity
  8
외형선
  6
Continuous
370
    15
100
AcDbSpline
210
0.0
220
0.0
230
1.0
 70
    24
 71
     3
 72
    14
 73
    10
 74
     0
 42
0.000000001
 43
0.00000001
 40
0.0
 40
0.0
 40
0.0
 40
0.0
 40
0.25
 40
0.25
 40
0.5
 40
0.5
 40
0.75
 40
0.75
 40
1.0
 40
1.0
 40
1.0
 40
1.0
 10
25.40000000000001
 20
2.483243985468525
 30
0.0
 10
25.40000000000001
 20
2.196113425471693
 30
0.0
 10
25.40000000000001
 20
1.868007679095903
 30
0.0
 10
25.40000000000001
 20
1.150618126443359
 30
0.0
 10
25.40000000000001
 20
0.7615641069073004
 30
0.0
 10
25.40000000000001
 20
-0.0415509531779395
 30
0.0
 10
25.40000000000001
 20
-0.4551840604462959
 30
0.0
 10
25.40000000000001
 20
-1.26622787902097
 30
0.0
 10
25.40000000000001
 20
-1.663277261116755
 30
0.0
 10
25.40000000000001
 20
-2.035522356880218
 30
0.0
  0
SPLINE
  5
AD
330
1F
100
AcDbEntity
  8
외형선
  6
Continuous
370
    15
100
AcDbSpline
210
0.0
220
0.0
230
1.0
 70
     8
 71
     3
 72
    10
 73
     6
 74
     0
 42
0.000000001
 43
0.00000001
 40
0.0
 40
0.0
 40
0.0
 40
0.0
 40
0.5
 40
0.5
 40
1.0
 40
1.0
 40
1.0
 40
1.0
 10
25.39999999999999
 20
-2.03552235688021
 30
0.0
 10
25.14570305202941
 20
-1.940295623012716
 30
0.0
 10
24.89106132479636
 20
-1.841580195146379
 30
0.0
 10
24.38494013536933
 20
-1.638697686584439
 30
0.0
 10
24.13386375468357
 20
-1.534600941127242
 30
0.0
 10
23.88016025335982
 20
-1.427735412186819
 30
0.0
  0
SPLINE
  5
AE
330
1F
100
AcDbEntity
  8
외형선
  6
Continuous
370
    15
100
AcDbSpline
210
0.0
220
0.0
230
1.0
 70
     8
 71
     3
 72
    10
 73
     6
 74
     0
 42
0.000000001
 43
0.00000001
 40
0.0
 40
0.0
 40
0.0
 40
0.0
 40
0.5
 40
0.5
 40
1.0
 40
1.0
 40
1.0
 40
1.0
 10
25.39999999999998
 20
2.483243985468531
 30
0.0
 10
25.14570053197081
 20
2.543007452390546
 30
0.0
 10
24.89105627791341
 20
2.598593065237822
 30
0.0
 10
24.38493013541451
 20
2.700608982040233
 30
0.0
 10
24.13385122832606
 20
2.747037956499375
 30
0.0
 10
23.88014516829293
 20
2.788923832987962
 30
0.0
  0
LINE
  5
AF
330
1F
100
AcDbEntity
  8
외형선
  6
Continuous
370
    15
100
AcDbLine
 10
25.08734034500281
 20
-3.625022500507008
 30
0.0
 11
23.88023733720218
 21
-3.707826971498994
 31
0.0
  0
SPLINE
  5
B0
330
1F
100
AcDbEntity
  8
외형선
  6
Continuous
370
    15
100
AcDbSpline
210
0.0
220
0.0
230
1.0
 70
    24
 71
     3
 72
    13
 73
     9
 74
     0
 42
0.000000001
 43
0.00000001
 40
0.0
 40
0.0
 40
0.0
 40
0.0
 40
0.1420995668632211
 40
0.2841991337264422
 40
0.4914961331093201
 40
0.704804759517597
 40
0.8916544567831537
 40
0.9999999999999999
 40
0.9999999999999999
 40
0.9999999999999999
 40
0.9999999999999999
 10
25.40000000000001
 20
-2.035522356880218
 30
0.0
 10
25.40000000000001
 20
-2.16633875753298
 30
0.0
 10
25.40000000000001
 20
-2.427971558838503
 30
0.0
 10
25.40000000000001
 20
-2.813520056199735
 30
0.0
 10
25.40000000000001
 20
-3.177121598446617
 30
0.0
 10
25.40000000000001
 20
-3.442870676021765
 30
0.0
 10
25.40000000000001
 20
-3.581621566128336
 30
0.0
 10
25.40000000000001
 20
-3.588104797554633
 30
0.0
 10
25.40000000000001
 20
-3.590484338734004
 30
0.0
  0
SPLINE
  5
B1
330
1F
100
AcDbEntity
  8
외형선
  6
Continuous
370
    15
100
AcDbSpline
210
0.0
220
0.0
230
1.0
 70
     8
 71
     3
 72
     8
 73
     4
 74
     0
 42
0.000000001
 43
0.00000001
 40
0.0
 40
0.0
 40
0.0
 40
0.0
 40
1.0
 40
1.0
 40
1.0
 40
1.0
 10
25.39999999999995
 20
3.649081863018915
 30
0.0
 10
25.06580570296391
 20
3.754756418098118
 30
0.0
 10
24.73102122204522
 20
3.849801161631944
 30
0.0
 10
24.40000000000002
 20
3.933082119940793
 30
0.0
  0
SPLINE
  5
B2
330
1F
100
AcDbEntity
  8
외형선
  6
Continuous
370
    15
100
AcDbSpline
210
0.0
220
0.0
230
1.0
 70
    24
 71
     3
 72
    10
 73
     6
 74
     0
 42
0.000000001
 43
0.00000001
 40
0.0
 40
0.0
 40
0.0
 40
0.0
 40
0.5
 40
0.5
 40
1.0
 40
1.0
 40
1.0
 40
1.0
 10
25.40000000000001
 20
3.649081863018894
 30
0.0
 10
25.40000000000001
 20
3.50402379593506
 30
0.0
 10
25.40000000000001
 20
3.320624983802654
 30
0.0
 10
25.40000000000001
 20
2.916049167677317
 30
0.0
 10
25.40000000000001
 20
2.696105534711105
 30
0.0
 10
25.40000000000001
 20
2.483243985468525
 30
0.0
  0
SPLINE
  5
B3
330
1F
100
AcDbEntity
  8
외형선
  6
Continuous
370
    15
100
AcDbSpline
210
0.0
220
0.0
230
1.0
 70
     8
 71
     3
 72
     8
 73
     4
 74
     0
 42
0.000000001
 43
0.00000001
 40
0.0
 40
0.0
 40
0.0
 40
0.0
 40
1.0
 40
1.0
 40
1.0
 40
1.0
 10
25.40000000000001
 20
4.169001669442005
 30
0.0
 10
25.06580570296395
 20
4.226125224097369
 30
0.0
 10
24.73102122204524
 20
4.271068387628801
 30
0.0
 10
24.40000000000002
 20
4.303362501473218
 30
0.0
  0
LINE
  5
B4
330
1F
100
AcDbEntity
  8
외형선
  6
Continuous
370
    15
100
AcDbLine
 10
25.40000000000001
 20
4.169001669442003
 30
0.0
 11
25.40000000000001
 21
3.649081863018895
 31
0.0
  0
SPLINE
  5
B5
330
1F
100
AcDbEntity
  8
외형선
  6
Continuous
370
    15
100
AcDbSpline
210
0.0
220
0.0
230
1.0
 70
     8
 71
     3
 72
     8
 73
     4
 74
     0
 42
0.000000001
 43
0.00000001
 40
0.0
 40
0.0
 40
0.0
 40
0.0
 40
1.0
 40
1.0
 40
1.0
 40
1.0
 10
25.40000000000001
 20
-4.169001669442005
 30
0.0
 10
25.06580570296395
 20
-4.226125224097369
 30
0.0
 10
24.73102122204524
 20
-4.271068387628802
 30
0.0
 10
24.40000000000002
 20
-4.303362501473218
 30
0.0
  0
SPLINE
  5
B6
330
1F
100
AcDbEntity
  8
외형선
  6
Continuous
370
    15
100
AcDbSpline
210
0.0
220
0.0
230
1.0
 70
    24
 71
     3
 72
     8
 73
     4
 74
     0
 42
0.000000001
 43
0.00000001
 40
0.0
 40
0.0
 40
0.0
 40
0.0
 40
1.0
 40
1.0
 40
1.0
 40
1.0
 10
25.40000000000002
 20
-3.603574772214331
 30
0.0
 10
25.40000000000002
 20
-3.801935515793722
 30
0.0
 10
25.40000000000002
 20
-3.99166635028623
 30
0.0
 10
25.40000000000002
 20
-4.169001669430655
 30
0.0
  0
SPLINE
  5
B7
330
1F
100
AcDbEntity
  8
0
  6
Continuous
 62
     1
370
    15
100
AcDbSpline
210
0.0
220
0.0
230
1.0
 70
     8
 71
     3
 72
    46
 73
    42
 74
     0
 42
0.000000001
 43
0.00000001
 40
0.0
 40
0.0
 40
0.0
 40
0.0
 40
0.0625000000000002
 40
0.0625000000000002
 40
0.1250000000000005
 40
0.1250000000000005
 40
0.1875000000000007
 40
0.1875000000000007
 40
0.250000000000001
 40
0.250000000000001
 40
0.312500000000001
 40
0.312500000000001
 40
0.3750000000000011
 40
0.3750000000000011
 40
0.4375000000000011
 40
0.4375000000000011
 40
0.5000000000000011
 40
0.5000000000000011
 40
0.5625000000000011
 40
0.5625000000000011
 40
0.593750000000001
 40
0.593750000000001
 40
0.6250000000000009
 40
0.6250000000000009
 40
0.6562500000000009
 40
0.6562500000000009
 40
0.6875000000000008
 40
0.6875000000000008
 40
0.7500000000000007
 40
0.7500000000000007
 40
0.7812500000000007
 40
0.7812500000000007
 40
0.8125000000000006
 40
0.8125000000000006
 40
0.8437500000000004
 40
0.8437500000000004
 40
0.8750000000000003
 40
0.8750000000000003
 40
0.9375000000000002
 40
0.9375000000000002
 40
1.0
 40
1.0
 40
1.0
 40
1.0
 10
44.45000000000002
 20
-4.36193524023691
 30
0.0
 10
44.05600858005862
 20
-4.352539175956704
 30
0.0
 10
43.65636013743861
 20
-4.325048871624657
 30
0.0
 10
42.8604888218233
 20
-4.234541839182415
 30
0.0
 10
42.46746086320364
 20
-4.171815009125137
 30
0.0
 10
41.67214005208201
 20
-4.011988847367798
 30
0.0
 10
41.27224832105189
 20
-3.914893099584073
 30
0.0
 10
40.48277136892403
 20
-3.690165054259833
 30
0.0
 10
40.08483888846868
 20
-3.561782920995429
 30
0.0
 10
39.28855975226766
 20
-3.276536355694552
 30
0.0
 10
38.89527462441772
 20
-3.120375322973728
 30
0.0
 10
38.10064667250374
 20
-2.782573760547169
 30
0.0
 10
37.70058415926439
 20
-2.601008065178634
 30
0.0
 10
36.90975197222822
 20
-2.219367437396286
 30
0.0
 10
36.51328120613804
 20
-2.018425053433281
 30
0.0
 10
35.71673717730979
 20
-1.600884048563522
 30
0.0
 10
35.32293786448768
 20
-1.385417877699502
 30
0.0
 10
34.52914471257111
 20
-0.9437367052535682
 30
0.0
 10
34.12898402724076
 20
-0.7174550659740605
 30
0.0
 10
33.53494822151117
 20
-0.3761603780847953
 30
0.0
 10
33.33837783256813
 20
-0.2621671499643686
 30
0.0
 10
32.94171649431011
 20
-0.0331993854057599
 30
0.0
 10
32.74250565860874
 20
0.0816064282049775
 30
0.0
 10
32.34417274116052
 20
0.3107947248501889
 30
0.0
 10
32.1450525758343
 20
0.4251761055841722
 30
0.0
 10
31.74875112149859
 20
0.6524546554564586
 30
0.0
 10
31.55223184836867
 20
0.7652280916113169
 30
0.0
 10
30.95761916641963
 20
1.101792709528876
 30
0.0
 10
30.55743297887712
 20
1.323230012345126
 30
0.0
 10
29.96259081010535
 20
1.644830332038785
 30
0.0
 10
29.76604980699637
 20
1.750134389510823
 30
0.0
 10
29.36991184425265
 20
1.957461238727193
 30
0.0
 10
29.1708355593419
 20
2.059384458133003
 30
0.0
 10
28.77251331861473
 20
2.258781090792646
 30
0.0
 10
28.57326927886016
 20
2.356253537040629
 30
0.0
 10
28.17646547254495
 20
2.545858839063512
 30
0.0
 10
27.97982989688944
 20
2.637855619558437
 30
0.0
 10
27.38605504262594
 20
2.906013392203381
 30
0.0
 10
26.98591603827712
 20
3.074105660999314
 30
0.0
 10
26.19185903902288
 20
3.382640330648532
 30
0.0
 10
25.7982399906459
 20
3.52315561532559
 30
0.0
 10
25.4
 20
3.649081863018901
 30
0.0
  0
SPLINE
  5
B8
330
1F
100
AcDbEntity
  8
0
  6
Continuous
 62
     1
370
    15
100
AcDbSpline
210
0.0
220
0.0
230
1.0
 70
     8
 71
     3
 72
    12
 73
     8
 74
     0
 42
0.000000001
 43
0.00000001
 40
0.0
 40
0.0
 40
0.0
 40
0.0
 40
0.1413936439553999
 40
0.3501335131581237
 40
0.5588730399207974
 40
0.7794364738695346
 40
1.0
 40
1.0
 40
1.0
 40
1.0
 10
33.61066681137132
 20
-0.4165656917008863
 30
0.0
 10
33.22369670795162
 20
-0.2614352652991234
 30
0.0
 10
32.26544145681574
 20
0.1227146842622594
 30
0.0
 10
30.73589811280056
 20
0.7421408870279588
 30
0.0
 10
28.9897214312321
 20
1.4053262989379
 30
0.0
 10
27.21102039399176
 20
2.015383033229971
 30
0.0
 10
26.00367354876316
 20
2.327290312996054
 30
0.0
 10
25.40000000000001
 20
2.483243985468525
 30
0.0
  0
SPLINE
  5
B9
330
1F
100
AcDbEntity
  8
외형선
  6
Continuous
370
    15
100
AcDbSpline
210
0.0
220
0.0
230
1.0
 70
    24
 71
     3
 72
    10
 73
     6
 74
     0
 42
0.000000001
 43
0.00000001
 40
0.0
 40
0.0
 40
0.0
 40
0.0
 40
0.5000000000000001
 40
0.5000000000000001
 40
1.0
 40
1.0
 40
1.0
 40
1.0
 10
25.40000000000001
 20
3.649081863018897
 30
0.0
 10
25.40000000000001
 20
3.504023795935061
 30
0.0
 10
25.40000000000001
 20
3.320624983802656
 30
0.0
 10
25.40000000000001
 20
2.916049167677318
 30
0.0
 10
25.40000000000001
 20
2.696105534711107
 30
0.0
 10
25.40000000000001
 20
2.483243985468525
 30
0.0
  0
SPLINE
  5
BA
330
1F
100
AcDbEntity
  8
0
  6
Continuous
 62
     1
370
    15
100
AcDbSpline
210
0.0
220
0.0
230
1.0
 70
     8
 71
     3
 72
    46
 73
    42
 74
     0
 42
0.000000001
 43
0.00000001
 40
0.0
 40
0.0
 40
0.0
 40
0.0
 40
0.0625
 40
0.0625
 40
0.1249999999999999
 40
0.1249999999999999
 40
0.1874999999999999
 40
0.1874999999999999
 40
0.2499999999999998
 40
0.2499999999999998
 40
0.3124999999999998
 40
0.3124999999999998
 40
0.3749999999999997
 40
0.3749999999999997
 40
0.4374999999999997
 40
0.4374999999999997
 40
0.4999999999999997
 40
0.4999999999999997
 40
0.5624999999999997
 40
0.5624999999999997
 40
0.5937499999999998
 40
0.5937499999999998
 40
0.6249999999999998
 40
0.6249999999999998
 40
0.6562499999999999
 40
0.6562499999999999
 40
0.6875
 40
0.6875
 40
0.7500000000000002
 40
0.7500000000000002
 40
0.7812500000000002
 40
0.7812500000000002
 40
0.8125000000000002
 40
0.8125000000000002
 40
0.8437500000000002
 40
0.8437500000000002
 40
0.8750000000000001
 40
0.8750000000000001
 40
0.9375
 40
0.9375
 40
1.0
 40
1.0
 40
1.0
 40
1.0
 10
44.45000000000002
 20
-4.142719982240513
 30
0.0
 10
44.05600858005852
 20
-4.070612061262699
 30
0.0
 10
43.65636013743842
 20
-3.981018343724499
 30
0.0
 10
42.8604888218229
 20
-3.769841395024935
 30
0.0
 10
42.46746086320316
 20
-3.648696149205473
 30
0.0
 10
41.6721400520813
 20
-3.376375813336325
 30
0.0
 10
41.27224832105109
 20
-3.225341940169328
 30
0.0
 10
40.48277136892307
 20
-2.899309585248242
 30
0.0
 10
40.08483888846758
 20
-2.723198326341232
 30
0.0
 10
39.28855975226637
 20
-2.349812890694678
 30
0.0
 10
38.89527462441633
 20
-2.153406364063644
 30
0.0
 10
38.10064667250215
 20
-1.743142746817214
 30
0.0
 10
37.7005841592627
 20
-1.529438013464356
 30
0.0
 10
36.90975197222637
 20
-1.092850532825576
 30
0.0
 10
36.51328120613606
 20
-0.868948259820173
 30
0.0
 10
35.71673717730761
 20
-0.4151202858853414
 30
0.0
 10
35.32293786448543
 20
-0.1864046046182251
 30
0.0
 10
34.52914471256862
 20
0.2718617043317853
 30
0.0
 10
34.12898402723818
 20
0.5014382460910826
 30
0.0
 10
33.53494822150847
 20
0.8401038335725741
 30
0.0
 10
33.33837783256537
 20
0.9519710494466426
 30
0.0
 10
32.94171649430725
 20
1.174173705924679
 30
0.0
 10
32.74250565860581
 20
1.284339647548251
 30
0.0
 10
32.3441727411575
 20
1.501766228776769
 30
0.0
 10
32.14505257583122
 20
1.609025824990375
 30
0.0
 10
31.74875112149543
 20
1.819657634429782
 30
0.0
 10
31.55223184836547
 20
1.922921137283932
 30
0.0
 10
30.95761916641626
 20
2.227324256786587
 30
0.0
 10
30.55743297887364
 20
2.422487661104674
 30
0.0
 10
29.96259081010176
 20
2.698154153738927
 30
0.0
 10
29.76604980699274
 20
2.787091741846891
 30
0.0
 10
29.36991184424889
 20
2.959498752996542
 30
0.0
 10
29.17083555933807
 20
3.042878918612736
 30
0.0
 10
28.77251331861082
 20
3.203184135356261
 30
0.0
 10
28.57326927885619
 20
3.280108404081359
 30
0.0
 10
28.17646547254092
 20
3.426810778070108
 30
0.0
 10
27.97982989688536
 20
3.496490312017629
 30
0.0
 10
27.38605504262168
 20
3.694968221443754
 30
0.0
 10
26.98591603827274
 20
3.81297301800923
 30
0.0
 10
26.19185903901836
 20
4.015898466563295
 30
0.0
 10
25.79823999064124
 20
4.100930837374975
 30
0.0
 10
25.39999999999524
 20
4.169001669442818
 30
0.0
  0
SPLINE
  5
BB
330
1F
100
AcDbEntity
  8
0
  6
Continuous
 62
     1
370
    15
100
AcDbSpline
210
0.0
220
0.0
230
1.0
 70
     8
 71
     3
 72
    14
 73
    10
 74
     0
 42
0.000000001
 43
0.00000001
 40
0.0
 40
0.0
 40
0.0
 40
0.0
 40
0.1514059216623757
 40
0.3027912668728753
 40
0.4541588996804268
 40
0.6055117031560472
 40
0.7568525763327059
 40
0.9081844311087682
 40
1.0
 40
1.0
 40
1.0
 40
1.0
 10
44.45000000000002
 20
-3.444357041632495
 30
0.0
 10
43.87835470683125
 20
-3.322900752382997
 30
0.0
 10
42.73514180855068
 20
-3.080004680104258
 30
0.0
 10
41.02047324660738
 20
-2.510708484407707
 30
0.0
 10
39.30603219850573
 20
-1.825763591242645
 30
0.0
 10
37.59178465417281
 20
-1.043368890802699
 30
0.0
 10
35.87769238096681
 20
-0.2109225463718592
 30
0.0
 10
34.38838447665421
 20
0.5297958580665241
 30
0.0
 10
33.47043869554383
 20
0.9577586036662126
 30
0.0
 10
33.12381065880477
 20
1.119362795719078
 30
0.0
  0
LINE
  5
BC
330
1F
100
AcDbEntity
  8
0
  6
Continuous
 62
     1
370
    15
100
AcDbLine
 10
44.45000000000002
 20
-4.142719982240513
 30
0.0
 11
44.45000000000002
 21
-3.444357041632495
 31
0.0
  0
LINE
  5
BD
330
1F
100
AcDbEntity
  8
0
  6
Continuous
 62
     1
370
    15
100
AcDbLine
 10
44.45000000000002
 20
-4.361935240236916
 30
0.0
 11
44.45000000000002
 21
-4.142719982240513
 31
0.0
  0
SPLINE
  5
BE
330
1F
100
AcDbEntity
  8
0
  6
Continuous
 62
     1
370
    15
100
AcDbSpline
210
0.0
220
0.0
230
1.0
 70
     8
 71
     3
 72
     8
 73
     4
 74
     0
 42
0.000000001
 43
0.00000001
 40
0.0
 40
0.0
 40
0.0
 40
0.0
 40
1.0
 40
1.0
 40
1.0
 40
1.0
 10
41.74846235634316
 20
1.22145123846077
 30
0.0
 10
41.59330514540699
 20
1.405287162604619
 30
0.0
 10
41.4549767070567
 20
1.582052726402467
 30
0.0
 10
41.33735713941051
 20
1.750117763914805
 30
0.0
  0
LINE
  5
BF
330
1F
100
AcDbEntity
  8
0
  6
Continuous
 62
     1
370
    15
100
AcDbLine
 10
41.39251914758043
 20
1.796404184640039
 30
0.0
 11
44.45000000000002
 21
0.0000000000000014
 31
0.0
  0
LINE
  5
C0
330
1F
100
AcDbEntity
  8
0
  6
Continuous
 62
     1
370
    15
100
AcDbLine
 10
44.45000000000002
 20
0.0000000000000014
 30
0.0
 11
44.45000000000002
 21
-1.166682486260668
 31
0.0
  0
SPLINE
  5
C1
330
1F
100
AcDbEntity
  8
0
  6
Continuous
 62
     1
370
    15
100
AcDbSpline
210
0.0
220
0.0
230
1.0
 70
     8
 71
     3
 72
    12
 73
     8
 74
     0
 42
0.000000001
 43
0.00000001
 40
0.0
 40
0.0
 40
0.0
 40
0.0
 40
0.5000000000000001
 40
0.5000000000000001
 40
0.7500000000000002
 40
0.7500000000000002
 40
1.0
 40
1.0
 40
1.0
 40
1.0
 10
44.45000000000002
 20
-1.166682486260667
 30
0.0
 10
43.98235101917987
 20
-0.7990306088474776
 30
0.0
 10
43.5225154619088
 20
-0.4163022391985454
 30
0.0
 10
42.84477930303979
 20
0.1809782143008326
 30
0.0
 10
42.62090602336332
 20
0.3840056400916785
 30
0.0
 10
42.177737924121
 20
0.7988949184616163
 30
0.0
 10
41.9596500983687
 20
1.009673468302612
 30
0.0
 10
41.74846235634315
 20
1.221451238460776
 30
0.0
  0
SPLINE
  5
C2
330
1F
100
AcDbEntity
  8
0
  6
Continuous
 62
     1
370
    15
100
AcDbSpline
210
0.0
220
0.0
230
1.0
 70
     8
 71
     3
 72
    14
 73
    10
 74
     0
 42
0.000000001
 43
0.00000001
 40
0.0
 40
0.0
 40
0.0
 40
0.0
 40
0.1213114354811314
 40
0.2429289233541665
 40
0.4134061531218434
 40
0.5838697580205997
 40
0.75432306312769
 40
0.9247694046832025
 40
0.9999999999999999
 40
0.9999999999999999
 40
0.9999999999999999
 40
0.9999999999999999
 10
41.74846235630532
 20
1.221451238477105
 30
0.0
 10
41.34199678925363
 20
1.394442404894674
 30
0.0
 10
40.52804019733969
 20
1.740861171113444
 30
0.0
 10
39.14212379705646
 20
2.268031453697957
 30
0.0
 10
37.59177916405344
 20
2.774116149533504
 30
0.0
 10
35.87765556466823
 20
3.192852325501953
 30
0.0
 10
34.16368036494611
 20
3.43837167159334
 30
0.0
 10
32.76890509491017
 20
3.526007764383602
 30
0.0
 10
31.94545454129512
 20
3.465522279251134
 30
0.0
 10
31.69329951139664
 20
3.44700056080059
 30
0.0
  0
SPLINE
  5
C3
330
1F
100
AcDbEntity
  8
0
  6
Continuous
 62
     1
370
    15
100
AcDbSpline
210
0.0
220
0.0
230
1.0
 70
    24
 71
     3
 72
    10
 73
     6
 74
     0
 42
0.000000001
 43
0.00000001
 40
0.0
 40
0.0
 40
0.0
 40
0.0
 40
0.5
 40
0.5
 40
1.0
 40
1.0
 40
1.0
 40
1.0
 10
44.45000000000002
 20
-3.444357041632494
 30
0.0
 10
44.45000000000002
 20
-3.180320220119736
 30
0.0
 10
44.45000000000002
 20
-2.846699571929179
 30
0.0
 10
44.45000000000001
 20
-2.071063672292187
 30
0.0
 10
44.45000000000002
 20
-1.629720306070873
 30
0.0
 10
44.45000000000002
 20
-1.166682486260807
 30
0.0
  0
SPLINE
  5
C4
330
1F
100
AcDbEntity
  8
0
  6
Continuous
 62
     1
370
    15
100
AcDbSpline
210
0.0
220
0.0
230
1.0
 70
    24
 71
     3
 72
     8
 73
     4
 74
     0
 42
0.000000001
 43
0.00000001
 40
0.0
 40
0.0
 40
0.0
 40
0.0
 40
1.0
 40
1.0
 40
1.0
 40
1.0
 10
41.79285251254527
 20
2.132323763528225
 30
0.0
 10
41.6487865422222
 20
2.011438060964939
 30
0.0
 10
41.49646907549203
 20
1.883628530811548
 30
0.0
 10
41.33735713940404
 20
1.750117763924214
 30
0.0
  0
LINE
  5
C5
330
1F
100
AcDbEntity
  8
0
  6
Continuous
 62
     1
370
    15
100
AcDbLine
 10
44.45000000000002
 20
3.055937499999999
 30
0.0
 11
42.82593299729801
 21
2.981864181611702
 31
0.0
  0
SPLINE
  5
C6
330
1F
100
AcDbEntity
  8
0
  6
Continuous
 62
     1
370
    15
100
AcDbSpline
210
0.0
220
0.0
230
1.0
 70
     8
 71
     3
 72
    10
 73
     6
 74
     0
 42
0.000000001
 43
0.00000001
 40
0.0
 40
0.0
 40
0.0
 40
0.0
 40
0.5
 40
0.5
 40
1.0
 40
1.0
 40
1.0
 40
1.0
 10
44.45000000000002
 20
3.055937500000002
 30
0.0
 10
44.00100717689851
 20
2.934115824495829
 30
0.0
 10
43.5544407181735
 20
2.797363186792159
 30
0.0
 10
42.66786154001471
 20
2.491370382564106
 30
0.0
 10
42.22757802633659
 20
2.322616128793593
 30
0.0
 10
41.79285251256066
 20
2.132323763536191
 30
0.0
  0
SPLINE
  5
C7
330
1F
100
AcDbEntity
  8
0
  6
Continuous
 62
     1
370
    15
100
AcDbSpline
210
0.0
220
0.0
230
1.0
 70
     8
 71
     3
 72
    13
 73
     9
 74
     0
 42
0.000000001
 43
0.00000001
 40
0.0
 40
0.0
 40
0.0
 40
0.0
 40
0.1066538601848534
 40
0.2813683906078891
 40
0.4560792106311767
 40
0.6307897518106623
 40
0.8153948383584908
 40
1.0
 40
1.0
 40
1.0
 40
1.0
 10
35.20990206431703
 20
-3.261937160555842
 30
0.0
 10
34.8611533020432
 20
-3.3188528172836
 30
0.0
 10
33.94110335919624
 20
-3.469004595251359
 30
0.0
 10
32.44977887817111
 20
-3.517440646497569
 30
0.0
 10
30.73590626563882
 20
-3.420717084991998
 30
0.0
 10
28.98974547476702
 20
-3.134358452544887
 30
0.0
 10
27.2110242371471
 20
-2.681475811350146
 30
0.0
 10
26.00367482756998
 20
-2.250840204232521
 30
0.0
 10
25.40000000000001
 20
-2.035522356880216
 30
0.0
  0
SPLINE
  5
C8
330
1F
100
AcDbEntity
  8
외형선
  6
Continuous
370
    15
100
AcDbSpline
210
0.0
220
0.0
230
1.0
 70
    24
 71
     3
 72
    14
 73
    10
 74
     0
 42
0.000000001
 43
0.00000001
 40
0.0
 40
0.0
 40
0.0
 40
0.0
 40
0.25
 40
0.25
 40
0.5
 40
0.5
 40
0.75
 40
0.75
 40
1.0
 40
1.0
 40
1.0
 40
1.0
 10
25.40000000000001
 20
2.483243985468525
 30
0.0
 10
25.40000000000001
 20
2.196113425471693
 30
0.0
 10
25.40000000000001
 20
1.868007679095903
 30
0.0
 10
25.40000000000001
 20
1.150618126443359
 30
0.0
 10
25.40000000000001
 20
0.7615641069073004
 30
0.0
 10
25.40000000000001
 20
-0.0415509531779395
 30
0.0
 10
25.40000000000001
 20
-0.4551840604462959
 30
0.0
 10
25.40000000000001
 20
-1.26622787902097
 30
0.0
 10
25.40000000000001
 20
-1.663277261116755
 30
0.0
 10
25.40000000000001
 20
-2.035522356880218
 30
0.0
  0
SPLINE
  5
C9
330
1F
100
AcDbEntity
  8
외형선
  6
Continuous
370
    15
100
AcDbSpline
210
0.0
220
0.0
230
1.0
 70
    24
 71
     3
 72
    13
 73
     9
 74
     0
 42
0.000000001
 43
0.00000001
 40
0.0
 40
0.0
 40
0.0
 40
0.0
 40
0.1423788159226234
 40
0.2847576318452468
 40
0.4924620039835272
 40
0.7061898169847111
 40
0.8934067046883724
 40
1.0
 40
1.0
 40
1.0
 40
1.0
 10
25.40000000000001
 20
-2.035522356880218
 30
0.0
 10
25.40000000000001
 20
-2.166338982505976
 30
0.0
 10
25.40000000000001
 20
-2.427972233757494
 30
0.0
 10
25.40000000000001
 20
-2.813516840418688
 30
0.0
 10
25.40000000000001
 20
-3.177140214343822
 30
0.0
 10
25.40000000000001
 20
-3.442803561920414
 30
0.0
 10
25.40000000000001
 20
-3.581263415369647
 30
0.0
 10
25.40000000000001
 20
-3.58780223891334
 30
0.0
 10
25.40000000000001
 20
-3.590174500969849
 30
0.0
  0
LINE
  5
CA
330
1F
100
AcDbEntity
  8
0
  6
Continuous
 62
     1
370
    15
100
AcDbLine
 10
44.45000000000002
 20
0.0000000000000014
 30
0.0
 11
44.45000000000002
 21
3.055937500000001
 31
0.0
  0
SPLINE
  5
CB
330
1F
100
AcDbEntity
  8
0
  6
Continuous
 62
     1
370
    15
100
AcDbSpline
210
0.0
220
0.0
230
1.0
 70
     8
 71
     3
 72
    11
 73
     7
 74
     0
 42
0.000000001
 43
0.00000001
 40
0.0
 40
0.0
 40
0.0
 40
0.0
 40
0.1579691108667889
 40
0.4385909371619184
 40
0.719263769171012
 40
1.0
 40
1.0
 40
1.0
 40
1.0
 10
38.47571565494303
 20
2.924713437906065
 30
0.0
 10
38.79028083860857
 20
3.061541959340372
 30
0.0
 10
39.66365056225487
 20
3.441437428252382
 30
0.0
 10
41.09597516531048
 20
3.887962475007829
 30
0.0
 10
42.7728229502593
 20
4.261062180520555
 30
0.0
 10
43.8908988960482
 20
4.32830835567208
 30
0.0
 10
44.45000000000002
 20
4.36193524023691
 30
0.0
  0
SPLINE
  5
CC
330
1F
100
AcDbEntity
  8
0
  6
Continuous
 62
     1
370
    15
100
AcDbSpline
210
0.0
220
0.0
230
1.0
 70
    24
 71
     3
 72
    10
 73
     6
 74
     0
 42
0.000000001
 43
0.00000001
 40
0.0
 40
0.0
 40
0.0
 40
0.0
 40
0.5
 40
0.5
 40
1.0
 40
1.0
 40
1.0
 40
1.0
 10
44.45000000000002
 20
3.055937499999998
 30
0.0
 10
44.45000000000002
 20
3.241180821124428
 30
0.0
 10
44.45000000000001
 20
3.456450715648006
 30
0.0
 10
44.45000000000001
 20
3.908086374569733
 30
0.0
 10
44.45000000000002
 20
4.143298718170805
 30
0.0
 10
44.45000000000002
 20
4.361935240236915
 30
0.0
  0
SPLINE
  5
CD
330
1F
100
AcDbEntity
  8
0
  6
Continuous
 62
     1
370
    15
100
AcDbSpline
210
0.0
220
0.0
230
1.0
 70
     8
 71
     3
 72
     9
 73
     5
 74
     0
 42
0.000000001
 43
0.00000001
 40
0.0
 40
0.0
 40
0.0
 40
0.0
 40
0.3793651783306265
 40
1.0
 40
1.0
 40
1.0
 40
1.0
 10
28.10030384761699
 20
-3.432541241359496
 30
0.0
 10
27.75883652346756
 20
-3.556232397833128
 30
0.0
 10
26.85873460675491
 20
-3.882280131096173
 30
0.0
 10
25.95863386397495
 20
-4.059199406501659
 30
0.0
 10
25.39999999999524
 20
-4.16900166944282
 30
0.0
  0
SPLINE
  5
CE
330
1F
100
AcDbEntity
  8
외형선
  6
Continuous
370
    15
100
AcDbSpline
210
0.0
220
0.0
230
1.0
 70
    24
 71
     3
 72
     8
 73
     4
 74
     0
 42
0.000000001
 43
0.00000001
 40
0.0
 40
0.0
 40
0.0
 40
0.0
 40
1.0
 40
1.0
 40
1.0
 40
1.0
 10
25.40000000000002
 20
-3.603574772214331
 30
0.0
 10
25.40000000000002
 20
-3.80193551579373
 30
0.0
 10
25.40000000000002
 20
-3.991666350286246
 30
0.0
 10
25.40000000000002
 20
-4.169001669430677
 30
0.0
  0
LINE
  5
CF
330
1F
100
AcDbEntity
  8
중심선
 62
     1
100
AcDbLine
 10
-47.45
 20
-0.0000000000000058
 30
0.0
 11
47.45000000000001
 21
0.0000000000000058
 31
0.0
  0
LINE
  5
D0
330
1F
100
AcDbEntity
  8
참조1
100
AcDbLine
 10
-14.99421167873052
 20
0.0010749287238892
 30
0.0
 11
-14.99421167873051
 21
-39.99892507127611
 31
0.0
  0
LINE
  5
D1
330
1F
100
AcDbEntity
  8
참조1
100
AcDbLine
 10
-14.99421167873051
 20
-39.99892507127611
 30
0.0
 11
-29.45992727542973
 21
-39.9989250712761
 31
0.0
  0
CIRCLE
  5
D2
330
1F
100
AcDbEntity
  8
해칭선
100
AcDbCircle
 10
0.0
 20
0.0000000000000005
 30
0.0
 40
3.0
  0
INSERT
  5
D3
330
1F
100
AcDbEntity
  8
0
  6
Continuous
 62
     7
100
AcDbBlockReference
 66
     1
  2
블럭10
 10
-15.78615553384387
 20
-29.79508093489997
 30
0.0
  0
ATTRIB
  5
D4
330
D3
100
AcDbEntity
  8
FORMAT
 62
     2
100
AcDbText
 10
-24.96745082258515
 20
-27.71971402206778
 30
0.0
 40
4.233333333333333
  1
E5025022 [ 2 FLUTE ]
 41
0.75
  7
SLDTEXTSTYLE0
 11
-24.96745082258515
 21
-29.83638068873445
 31
0.0
100
AcDbAttribute
  2
AUTOATTR0
 70
     0
 74
     1
  0
SEQEND
  5
D5
330
D3
100
AcDbEntity
  8
0
  6
Continuous
 62
     7
  0
HATCH
  5
D6
330
1F
100
AcDbEntity
  8
중심선
100
AcDbHatch
 10
0.0
 20
0.0
 30
0.0
210
0.0
220
0.0
230
1.0
  2
SOLID
 70
     1
 71
     0
 91
        1
 92
        0
 93
        4
 72
     1
 10
-10.07124622946301
 20
-13.54790663325603
 11
-13.5175214733003
 21
-13.54790663325603
 72
     1
 10
-13.5175214733003
 20
-13.54790663325603
 11
-15.64575133250432
 21
-16.08423221382863
 72
     1
 10
-15.64575133250432
 20
-16.08423221382863
 11
-12.19944300355389
 21
-16.08419278452615
 72
     1
 10
-12.19944300355389
 20
-16.08419278452615
 11
-10.07124622946301
 21
-13.54790663325603
 97
        0
 75
     0
 76
     1
 98
        1
 10
13.14832907701185
 20
22.25101843802007
  0
HATCH
  5
D7
330
1F
100
AcDbEntity
  8
중심선
100
AcDbHatch
 10
0.0
 20
0.0
 30
0.0
210
0.0
220
0.0
230
1.0
  2
SOLID
 70
     1
 71
     0
 91
        1
 92
        0
 93
        4
 72
     1
 10
-5.058482238427064
 20
-13.54790663325603
 11
-8.504757482264345
 21
-13.54790663325603
 72
     1
 10
-8.504757482264345
 20
-13.54790663325603
 11
-13.03589549062173
 21
-18.94790663325605
 72
     1
 10
-13.03589549062173
 20
-18.94790663325605
 11
-9.589620246784452
 21
-18.94790663325605
 72
     1
 10
-9.589620246784452
 20
-18.94790663325605
 11
-5.058482238427064
 21
-13.54790663325603
 97
        0
 75
     0
 76
     1
 98
        1
 10
13.14832907701185
 20
22.25101843802007
  0
HATCH
  5
D8
330
1F
100
AcDbEntity
  8
중심선
100
AcDbHatch
 10
0.0
 20
0.0
 30
0.0
210
0.0
220
0.0
230
1.0
  2
SOLID
 70
     1
 71
     0
 91
        1
 92
        0
 93
        4
 72
     1
 10
-0.0457182473911395
 20
-13.54790663325603
 11
-3.491993491228257
 21
-13.54790663325603
 72
     1
 10
-3.491993491228257
 20
-13.54790663325603
 11
-10.54043039311753
 21
-21.94790663325605
 72
     1
 10
-10.54043039311753
 20
-21.94790663325605
 11
-7.094155149280251
 21
-21.94790663325605
 72
     1
 10
-7.094155149280251
 20
-21.94790663325605
 11
-0.0457182473911395
 21
-13.54790663325603
 97
        0
 75
     0
 76
     1
 98
        1
 10
13.14832907701185
 20
22.25101843802007
  0
HATCH
  5
D9
330
1F
100
AcDbEntity
  8
중심선
100
AcDbHatch
 10
0.0
 20
0.0
 30
0.0
210
0.0
220
0.0
230
1.0
  2
SOLID
 70
     1
 71
     0
 91
        1
 92
        0
 93
        6
 72
     3
 10
4.754172183621032
 20
-17.74790663330731
 11
3.960054785062283
 21
1.540882976769353E-10
 40
0.3939339440162628
 50
17.09539180608437
 51
320.0019657685082
 73
     0
 72
     1
 10
6.4371718393216
 20
-16.33580063789437
 11
8.742473713022665
 21
-14.40147392784642
 72
     3
 10
4.754172183568185
 20
-17.74790663325619
 11
6.600054785286829
 21
-1.278976924368180E-13
 40
0.636358354079598
 50
39.9987384933741
 51
368.4976242363725
 73
     1
 72
     1
 10
11.1795046754688
 20
-16.78790663318606
 11
3.434239490404108
 21
-16.78790663318603
 72
     1
 10
3.434239490404108
 20
-16.78790663318603
 11
3.434214445958174
 21
-18.70790663318595
 72
     1
 10
3.434214445958174
 20
-18.70790663318595
 11
7.875594215430211
 21
-18.70790663318592
 97
        0
 75
     0
 76
     1
 98
        1
 10
13.14832907701185
 20
22.25101843802007
  0
DIMENSION
  5
DA
330
1F
100
AcDbEntity
  8
치수문자_일반주서
100
AcDbDimension
  2
_D
 10
-56.78784457818855
 20
-4.762500000000127
 30
0.0
 11
-56.78784457818866
 21
24.71024999999996
 31
0.0
 70
   160
  1
%%c<>
 71
     2
 42
9.524999999999991
 52
-270.0
  3
SLDDIMSTYLE0
100
AcDbAlignedDimension
 13
-22.91884233574607
 23
4.76249999999999
 33
0.0
 14
-22.91884233574608
 24
-4.762500000000001
 34
0.0
 50
90.0000000000002
100
AcDbRotatedDimension
1001
ACAD
1000
DSTYLE
1002
{
1070
   171
1070
     6
1070
   273
1070
     5
1002
}
  0
DIMENSION
  5
EF
330
1F
100
AcDbEntity
  8
치수문자_일반주서
100
AcDbDimension
  2
_D_1
 10
60.31070488747226
 20
4.361935240236974
 30
0.0
 11
60.31070488747218
 21
25.84093524023697
 31
0.0
 70
   160
  1
%%c<>
 71
     2
 42
8.72387048047383
 52
-270.0
  3
SLDDIMSTYLE0
100
AcDbAlignedDimension
 13
44.45000000000002
 23
-4.361935240236916
 33
0.0
 14
44.45000000000002
 24
4.361935240236914
 34
0.0
 50
90.0000000000002
100
AcDbRotatedDimension
1001
ACAD
1000
DSTYLE
1002
{
1070
   171
1070
     6
1070
   273
1070
     5
1002
}
  0
DIMENSION
  5
103
330
1F
100
AcDbEntity
  8
치수문자_일반주서
100
AcDbDimension
  2
_D_2
 10
25.40000000000001
 20
23.10391908006563
 30
0.0
 11
5.753176555442018
 21
23.10391908006563
 31
0.0
 70
   160
  1
<>
 71
     2
 42
19.05
  3
SLDDIMSTYLE0
100
AcDbAlignedDimension
 13
44.45000000000002
 23
4.361935240236914
 33
0.0
 14
25.40000000000001
 24
4.169001669442005
 34
0.0
100
AcDbRotatedDimension
1001
ACAD
1000
DSTYLE
1002
{
1070
   171
1070
     6
1070
   273
1070
     5
1002
}
  0
DIMENSION
  5
117
330
1F
100
AcDbEntity
  8
치수문자_일반주서
100
AcDbDimension
  2
_D_3
 10
44.45000000000002
 20
38.19250000000002
 30
0.0
 11
0.0000000000000231
 21
38.19250000000002
 31
0.0
 70
   160
  1
<>
 71
     2
 42
88.89999999999998
  3
SLDDIMSTYLE0
100
AcDbAlignedDimension
 13
-44.44999999999997
 23
4.361935240236911
 33
0.0
 14
44.45000000000002
 24
4.361935240236914
 34
0.0
100
AcDbRotatedDimension
1001
ACAD
1000
DSTYLE
1002
{
1070
   171
1070
     6
1070
   273
1070
     5
1002
}
  0
LINE
  5
12B
330
1F
100
AcDbEntity
  8
참조1
100
AcDbLine
 10
68.51241335422453
 20
7.441074928723896
 30
0.0
 11
68.51241335422453
 21
-7.438925071276109
 31
0.0
  0
LINE
  5
12C
330
1F
100
AcDbEntity
  8
참조1
100
AcDbLine
 10
81.21241335422454
 20
5.441074928723896
 30
0.0
 11
68.51241335422453
 21
5.441074928723896
 31
0.0
  0
SOLID
  5
12D
330
1F
100
AcDbEntity
  8
참조1
100
AcDbTrace
 10
68.51241335422453
 20
5.441074928723896
 30
0.0
 11
74.86241335422453
 21
4.425074928723896
 31
0.0
 12
74.86241335422453
 22
6.457074928723896
 32
0.0
 13
74.86241335422453
 23
6.457074928723896
 33
0.0
  0
LINE
  5
12E
330
1F
100
AcDbEntity
  8
참조1
100
AcDbLine
 10
81.21241335422454
 20
-5.438925071276109
 30
0.0
 11
68.51241335422453
 21
-5.438925071276109
 31
0.0
  0
SOLID
  5
12F
330
1F
100
AcDbEntity
  8
참조1
100
AcDbTrace
 10
68.51241335422453
 20
-5.438925071276109
 30
0.0
 11
74.86241335422453
 21
-6.454925071276109
 31
0.0
 12
74.86241335422453
 22
-4.422925071276109
 32
0.0
 13
74.86241335422453
 23
-4.422925071276109
 33
0.0
  0
MTEXT
  5
130
330
1F
100
AcDbEntity
  8
참조1
100
AcDbMText
 10
77.89676348685053
 20
11.01136670591222
 30
0.0
 40
3.5
 41
0.0
 71
     1
 72
     1
  1
A
  7
SLDTEXTSTYLE0
 73
     1
 44
1.0
  0
MTEXT
  5
131
330
1F
100
AcDbEntity
  8
참조1
100
AcDbMText
 10
77.89676348685053
 20
0.1313667059122192
 30
0.0
 40
3.5
 41
0.0
 71
     1
 72
     1
  1
A
  7
SLDTEXTSTYLE0
 73
     1
 44
1.0
  0
INSERT
  5
138
330
1F
100
AcDbEntity
  8
해칭선
100
AcDbBlockReference
  2
SW_DOWELSYMBOL_0
 10
0.0
 20
0.0000000000000005
 30
0.0
  0
LINE
  5
187
330
1F
100
AcDbEntity
  8
외형선
  6
Continuous
370
    15
100
AcDbLine
 10
-3.568700000000092
 20
3.492500000000014
 30
0.0
 11
3.568700000000035
 21
3.492500000000014
 31
0.0
  0
LINE
  5
188
330
1F
100
AcDbEntity
  8
외형선
  6
Continuous
370
    15
100
AcDbLine
 10
-3.568700000000092
 20
3.492500000000014
 30
0.0
 11
-4.838700000000074
 21
4.762499999999997
 31
0.0
  0
LINE
  5
189
330
1F
100
AcDbEntity
  8
외형선
  6
Continuous
370
    15
100
AcDbLine
 10
3.568700000000035
 20
3.492500000000014
 30
0.0
 11
4.838700000000131
 21
4.762499999999997
 31
0.0
  0
LINE
  5
2F9
330
1F
100
AcDbEntity
  8
외형선
  6
Continuous
370
    15
100
AcDbLine
 10
-22.91884233574607
 20
4.762499999999993
 30
0.0
 11
-23.88011591578118
 21
4.50492752052421
 31
0.0
  0
LINE
  5
2FA
330
1F
100
AcDbEntity
  8
외형선
  6
Continuous
370
    15
100
AcDbLine
 10
-23.88011591578118
 20
-4.504927520524226
 30
0.0
 11
-22.91884233574607
 21
-4.762500000000006
 31
0.0
  0
SPLINE
  5
2FB
330
1F
100
AcDbEntity
  8
외형선
  6
Continuous
370
    15
100
AcDbSpline
210
0.0
220
0.0
230
1.0
 70
     8
 71
     3
 72
     9
 73
     5
 74
     0
 42
0.000000001
 43
0.00000001
 40
0.0
 40
0.0
 40
0.0
 40
0.0
 40
0.4989809098801651
 40
0.9999999999999999
 40
0.9999999999999999
 40
0.9999999999999999
 40
0.9999999999999999
 10
-25.08521477589381
 20
3.637234160465411
 30
0.0
 10
-25.137728904257
 20
3.631793541627101
 30
0.0
 10
-25.24297166469805
 20
3.620890080731936
 30
0.0
 10
-25.34758614717567
 20
3.609698573075239
 30
0.0
 10
-25.39999999999996
 20
3.604091414092011
 30
0.0
  0
LINE
  5
2FC
330
1F
100
AcDbEntity
  8
0
  6
Continuous
 62
     1
370
    15
100
AcDbLine
 10
-30.75382038702003
 20
-1.213611671080776
 30
0.0
 11
-30.67801704850778
 21
-1.255187717664231
 31
0.0
  0
SPLINE
  5
2FD
330
1F
100
AcDbEntity
  8
0
  6
Continuous
 62
     1
370
    15
100
AcDbSpline
210
0.0
220
0.0
230
1.0
 70
     8
 71
     3
 72
     9
 73
     5
 74
     0
 42
0.000000001
 43
0.00000001
 40
0.0
 40
0.0
 40
0.0
 40
0.0
 40
0.4370058933420179
 40
1.0
 40
1.0
 40
1.0
 40
1.0
 10
-33.14047658824345
 20
-1.118691336876015
 30
0.0
 10
-32.96384091945979
 20
-1.202593031027248
 30
0.0
 10
-32.55964575533319
 20
-1.39458516529709
 30
0.0
 10
-32.15547487504103
 20
-1.605613556129181
 30
0.0
 10
-31.92792905135378
 20
-1.724421296505166
 30
0.0
  0
SPLINE
  5
2FE
330
1F
100
AcDbEntity
  8
0
  6
Continuous
 62
     1
370
    15
100
AcDbSpline
210
0.0
220
0.0
230
1.0
 70
     8
 71
     3
 72
    16
 73
    12
 74
     0
 42
0.000000001
 43
0.00000001
 40
0.0
 40
0.0
 40
0.0
 40
0.0
 40
0.1429641586696212
 40
0.2463583811913748
 40
0.3257230583355041
 40
0.4152005461404448
 40
0.5139870027429865
 40
0.6154576171141006
 40
0.7189750258742253
 40
0.8195276292150184
 40
1.0
 40
1.0
 40
1.0
 40
1.0
 10
-31.69638471426956
 20
-3.46909511317413
 30
0.0
 10
-31.52684006750901
 20
-3.460570304250897
 30
0.0
 10
-31.23467771643949
 20
-3.445880201879521
 30
0.0
 10
-30.84629993066316
 20
-3.431668147336079
 30
0.0
 10
-30.51830489097217
 20
-3.422157573477587
 30
0.0
 10
-30.19590863642504
 20
-3.415201297960667
 30
0.0
 10
-29.84648381399945
 20
-3.410489140070257
 30
0.0
 10
-29.48131967243439
 20
-3.408756499451094
 30
0.0
 10
-29.11500084570381
 20
-3.410404517960859
 30
0.0
 10
-28.65400527787322
 20
-3.41616196507773
 30
0.0
 10
-28.31716233065487
 20
-3.426023728027534
 30
0.0
 10
-28.10084402849757
 20
-3.432356886655899
 30
0.0
  0
SPLINE
  5
2FF
330
1F
100
AcDbEntity
  8
0
  6
Continuous
 62
     1
370
    15
100
AcDbSpline
210
0.0
220
0.0
230
1.0
 70
     8
 71
     3
 72
    26
 73
    22
 74
     0
 42
0.000000001
 43
0.00000001
 40
0.0
 40
0.0
 40
0.0
 40
0.0
 40
0.0694734184108228
 40
0.1238565313876199
 40
0.1715850327782643
 40
0.202072950971035
 40
0.2340051671316652
 40
0.2678654643255793
 40
0.305505002224416
 40
0.3480728958869309
 40
0.4195477324676377
 40
0.4803534394425527
 40
0.5321965828502676
 40
0.5782183429337259
 40
0.6243470398457254
 40
0.6738034755449367
 40
0.7352495682808303
 40
0.8035974079319016
 40
0.8628281397163226
 40
0.9240956370449493
 40
1.0
 40
1.0
 40
1.0
 40
1.0
 10
-42.82694116761892
 20
-2.985867187941774
 30
0.0
 10
-42.64929555811486
 20
-2.971381942894137
 30
0.0
 10
-42.33259070159981
 20
-2.945557789585727
 30
0.0
 10
-41.89517383091255
 20
-2.918808729347425
 30
0.0
 10
-41.55815262801645
 20
-2.902186692259363
 30
0.0
 10
-41.2808364687011
 20
-2.891306364373956
 30
0.0
 10
-41.03689890812576
 20
-2.883604270472044
 30
0.0
 10
-40.77416815037856
 20
-2.877502195179179
 30
0.0
 10
-40.48415569951937
 20
-2.873454085714009
 30
0.0
 10
-40.09846784937978
 20
-2.872074204079506
 30
0.0
 10
-39.65387157174124
 20
-2.876978952581112
 30
0.0
 10
-39.18580633790427
 20
-2.890057325717634
 30
0.0
 10
-38.78269436896409
 20
-2.907234960922739
 30
0.0
 10
-38.41646008099193
 20
-2.927293902836247
 30
0.0
 10
-38.05637157415541
 20
-2.951109064234156
 30
0.0
 10
-37.65721641782191
 20
-2.98218137112374
 30
0.0
 10
-37.20181578847571
 20
-3.023892408389915
 30
0.0
 10
-36.72132732967049
 20
-3.075498753619186
 30
0.0
 10
-36.23270255013234
 20
-3.134694172276287
 30
0.0
 10
-35.72818852364433
 20
-3.202244831207661
 30
0.0
 10
-35.3894498011994
 20
-3.254559323057538
 30
0.0
 10
-35.20200795356229
 20
-3.283507666901311
 30
0.0
  0
SPLINE
  5
300
330
1F
100
AcDbEntity
  8
0
  6
Continuous
 62
     1
370
    15
100
AcDbSpline
210
0.0
220
0.0
230
1.0
 70
     8
 71
     3
 72
    13
 73
     9
 74
     0
 42
0.000000001
 43
0.00000001
 40
0.0
 40
0.0
 40
0.0
 40
0.0
 40
0.2279262835984646
 40
0.4085847756307787
 40
0.6161684950872655
 40
0.7998833985204626
 40
0.9463870805638449
 40
0.9999999999999999
 40
0.9999999999999999
 40
0.9999999999999999
 40
0.9999999999999999
 10
-35.20200795356229
 20
3.283507666901294
 30
0.0
 10
-35.44438094142013
 20
3.246367648190983
 30
0.0
 10
-35.87886314022314
 20
3.179789779363848
 30
0.0
 10
-36.56798047215714
 20
3.092756211517067
 30
0.0
 10
-37.19347485523264
 20
3.023676935454209
 30
0.0
 10
-37.78031383172496
 20
2.971737938762324
 30
0.0
 10
-38.19964457895507
 20
2.940402166358812
 30
0.0
 10
-38.4182862290154
 20
2.928408408777429
 30
0.0
 10
-38.47686216466196
 20
2.925195180318653
 30
0.0
  0
SPLINE
  5
301
330
1F
100
AcDbEntity
  8
0
  6
Continuous
 62
     1
370
    15
100
AcDbSpline
210
0.0
220
0.0
230
1.0
 70
     8
 71
     3
 72
    20
 73
    16
 74
     0
 42
0.000000001
 43
0.00000001
 40
0.0
 40
0.0
 40
0.0
 40
0.0
 40
0.1138287687198445
 40
0.2013115564599708
 40
0.2704029501940463
 40
0.3428625178949364
 40
0.4119151286435873
 40
0.471264771781301
 40
0.5263590007191385
 40
0.6204896093424573
 40
0.7107102352714981
 40
0.7503403619820577
 40
0.8035701760228168
 40
0.8870476668136296
 40
1.0
 40
1.0
 40
1.0
 40
1.0
 10
-25.39999999999996
 20
3.604091414092011
 30
0.0
 10
-25.64144443454519
 20
3.583263916261803
 30
0.0
 10
-26.06845032649614
 20
3.546429502145589
 30
0.0
 10
-26.642124404954
 20
3.504854991149611
 30
0.0
 10
-27.12102888668048
 20
3.475423278925327
 30
0.0
 10
-27.56216121926565
 20
3.45286111843846
 30
0.0
 10
-27.98247236269462
 20
3.435660853320979
 30
0.0
 10
-28.36647768099696
 20
3.423670348093328
 30
0.0
 10
-28.80316857420718
 20
3.413884114927072
 30
0.0
 10
-29.30461638700388
 20
3.408315152529096
 30
0.0
 10
-29.77343292531479
 20
3.409711547490375
 30
0.0
 10
-30.15657048537796
 20
3.414668069571232
 30
0.0
 10
-30.52544910361232
 20
3.422107698480584
 30
0.0
 10
-31.04797671526305
 20
3.437461549007019
 30
0.0
 10
-31.45965743492042
 20
3.457546015086387
 30
0.0
 10
-31.69638471426956
 20
3.469095113174113
 30
0.0
  0
LINE
  5
302
330
1F
100
AcDbEntity
  8
외형선
  6
Continuous
370
    15
100
AcDbLine
 10
-22.91884233574607
 20
-4.762500000000006
 30
0.0
 11
-22.91884233574607
 21
4.76249999999999
 31
0.0
  0
SPLINE
  5
303
330
1F
100
AcDbEntity
  8
외형선
  6
Continuous
370
    15
100
AcDbSpline
210
0.0
220
0.0
230
1.0
 70
     8
 71
     3
 72
     8
 73
     4
 74
     0
 42
0.000000001
 43
0.00000001
 40
0.0
 40
0.0
 40
0.0
 40
0.0
 40
0.0005907553955736
 40
0.0005907553955736
 40
0.0005907553955736
 40
0.0005907553955736
 10
-24.39999999999996
 20
-4.30336250147312
 30
0.0
 10
-24.226459123198
 20
-4.362765304706893
 30
0.0
 10
-24.0532184018118
 20
-4.420225896836476
 30
0.0
 10
-23.88023733720204
 20
-4.475598702732845
 30
0.0
  0
LINE
  5
304
330
1F
100
AcDbEntity
  8
외형선
  6
Continuous
370
    15
100
AcDbLine
 10
-24.39999999999996
 20
-4.303362501473223
 30
0.0
 11
-24.39999999999996
 21
-3.933082119940802
 31
0.0
  0
SPLINE
  5
305
330
1F
100
AcDbEntity
  8
외형선
  6
Continuous
370
    15
100
AcDbSpline
210
0.0
220
0.0
230
1.0
 70
     8
 71
     3
 72
     8
 73
     4
 74
     0
 42
0.000000001
 43
0.00000001
 40
0.0
 40
0.0
 40
0.0
 40
0.0
 40
0.0005968768888786
 40
0.0005968768888786
 40
0.0005968768888786
 40
0.0005968768888786
 10
-23.88011591578118
 20
-4.165416384107469
 30
0.0
 10
-24.05363353120473
 20
-4.089853795926994
 30
0.0
 10
-24.22689949599235
 20
-4.012376545213413
 30
0.0
 10
-24.40000000000007
 20
-3.933082119940369
 30
0.0
  0
LINE
  5
306
330
1F
100
AcDbEntity
  8
외형선
  6
Continuous
370
    15
100
AcDbLine
 10
-23.88011591578118
 20
4.50492752052421
 30
0.0
 11
-23.88011591578118
 21
-4.165439493865729
 31
0.0
  0
SPLINE
  5
307
330
1F
100
AcDbEntity
  8
외형선
  6
Continuous
370
    15
100
AcDbSpline
210
0.0
220
0.0
230
1.0
 70
     8
 71
     3
 72
     8
 73
     4
 74
     0
 42
0.000000001
 43
0.00000001
 40
0.0
 40
0.0
 40
0.0
 40
0.0
 40
0.0005907553955736
 40
0.0005907553955736
 40
0.0005907553955736
 40
0.0005907553955736
 10
-24.39999999999996
 20
4.303362501473104
 30
0.0
 10
-24.226459123198
 20
4.362765304706874
 30
0.0
 10
-24.0532184018118
 20
4.42022589683646
 30
0.0
 10
-23.88023733720204
 20
4.475598702732829
 30
0.0
  0
LINE
  5
308
330
1F
100
AcDbEntity
  8
외형선
  6
Continuous
370
    15
100
AcDbLine
 10
-23.88011591578118
 20
-4.475644241740723
 30
0.0
 11
-23.88011591578118
 21
-4.504927520524226
 31
0.0
  0
SPLINE
  5
309
330
1F
100
AcDbEntity
  8
외형선
  6
Continuous
370
    15
100
AcDbSpline
210
0.0
220
0.0
230
1.0
 70
    24
 71
     3
 72
    14
 73
    10
 74
     0
 42
0.000000001
 43
0.00000001
 40
0.0
 40
0.0
 40
0.0
 40
0.0
 40
0.25
 40
0.25
 40
0.5
 40
0.5
 40
0.75
 40
0.75
 40
1.0
 40
1.0
 40
1.0
 40
1.0
 10
-25.39999999999996
 20
-2.483243985468536
 30
0.0
 10
-25.39999999999996
 20
-2.196113425471704
 30
0.0
 10
-25.39999999999996
 20
-1.868007679095914
 30
0.0
 10
-25.39999999999996
 20
-1.150618126443369
 30
0.0
 10
-25.39999999999996
 20
-0.7615641069073108
 30
0.0
 10
-25.39999999999996
 20
0.0415509531779291
 30
0.0
 10
-25.39999999999996
 20
0.4551840604462858
 30
0.0
 10
-25.39999999999996
 20
1.26622787902096
 30
0.0
 10
-25.39999999999996
 20
1.663277261116744
 30
0.0
 10
-25.39999999999996
 20
2.035522356880208
 30
0.0
  0
SPLINE
  5
30A
330
1F
100
AcDbEntity
  8
외형선
  6
Continuous
370
    15
100
AcDbSpline
210
0.0
220
0.0
230
1.0
 70
     8
 71
     3
 72
    10
 73
     6
 74
     0
 42
0.000000001
 43
0.00000001
 40
0.0
 40
0.0
 40
0.0
 40
0.0
 40
0.5
 40
0.5
 40
1.0
 40
1.0
 40
1.0
 40
1.0
 10
-25.39999999999996
 20
2.035522356880201
 30
0.0
 10
-25.14570305202938
 20
1.940295623012706
 30
0.0
 10
-24.89106132479632
 20
1.841580195146368
 30
0.0
 10
-24.38494013536928
 20
1.638697686584429
 30
0.0
 10
-24.13386375468352
 20
1.534600941127231
 30
0.0
 10
-23.88016025335978
 20
1.42773541218681
 30
0.0
  0
SPLINE
  5
30B
330
1F
100
AcDbEntity
  8
외형선
  6
Continuous
370
    15
100
AcDbSpline
210
0.0
220
0.0
230
1.0
 70
     8
 71
     3
 72
    10
 73
     6
 74
     0
 42
0.000000001
 43
0.00000001
 40
0.0
 40
0.0
 40
0.0
 40
0.0
 40
0.5
 40
0.5
 40
1.0
 40
1.0
 40
1.0
 40
1.0
 10
-25.39999999999996
 20
-2.48324398546854
 30
0.0
 10
-25.14570053197077
 20
-2.543007452390558
 30
0.0
 10
-24.89105627791336
 20
-2.598593065237832
 30
0.0
 10
-24.38493013541447
 20
-2.700608982040243
 30
0.0
 10
-24.13385122832603
 20
-2.747037956499387
 30
0.0
 10
-23.88014516829288
 20
-2.788923832987972
 30
0.0
  0
LINE
  5
30C
330
1F
100
AcDbEntity
  8
외형선
  6
Continuous
370
    15
100
AcDbLine
 10
-25.08734034500277
 20
3.625022500506998
 30
0.0
 11
-23.88023733720215
 21
3.707826971498986
 31
0.0
  0
SPLINE
  5
30D
330
1F
100
AcDbEntity
  8
외형선
  6
Continuous
370
    15
100
AcDbSpline
210
0.0
220
0.0
230
1.0
 70
    24
 71
     3
 72
    13
 73
     9
 74
     0
 42
0.000000001
 43
0.00000001
 40
0.0
 40
0.0
 40
0.0
 40
0.0
 40
0.1420995668632211
 40
0.2841991337264422
 40
0.4914961331093201
 40
0.704804759517597
 40
0.8916544567831537
 40
0.9999999999999999
 40
0.9999999999999999
 40
0.9999999999999999
 40
0.9999999999999999
 10
-25.39999999999996
 20
2.035522356880208
 30
0.0
 10
-25.39999999999996
 20
2.16633875753297
 30
0.0
 10
-25.39999999999996
 20
2.427971558838494
 30
0.0
 10
-25.39999999999996
 20
2.813520056199725
 30
0.0
 10
-25.39999999999996
 20
3.177121598446608
 30
0.0
 10
-25.39999999999996
 20
3.442870676021756
 30
0.0
 10
-25.39999999999996
 20
3.581621566128327
 30
0.0
 10
-25.39999999999996
 20
3.588104797554621
 30
0.0
 10
-25.39999999999996
 20
3.590484338733994
 30
0.0
  0
SPLINE
  5
30E
330
1F
100
AcDbEntity
  8
외형선
  6
Continuous
370
    15
100
AcDbSpline
210
0.0
220
0.0
230
1.0
 70
     8
 71
     3
 72
     8
 73
     4
 74
     0
 42
0.000000001
 43
0.00000001
 40
0.0
 40
0.0
 40
0.0
 40
0.0
 40
1.0
 40
1.0
 40
1.0
 40
1.0
 10
-25.3999999999999
 20
-3.649081863018924
 30
0.0
 10
-25.06580570296388
 20
-3.754756418098129
 30
0.0
 10
-24.73102122204518
 20
-3.849801161631955
 30
0.0
 10
-24.39999999999998
 20
-3.933082119940802
 30
0.0
  0
SPLINE
  5
30F
330
1F
100
AcDbEntity
  8
외형선
  6
Continuous
370
    15
100
AcDbSpline
210
0.0
220
0.0
230
1.0
 70
    24
 71
     3
 72
    10
 73
     6
 74
     0
 42
0.000000001
 43
0.00000001
 40
0.0
 40
0.0
 40
0.0
 40
0.0
 40
0.5
 40
0.5
 40
1.0
 40
1.0
 40
1.0
 40
1.0
 10
-25.39999999999996
 20
-3.649081863018903
 30
0.0
 10
-25.39999999999996
 20
-3.504023795935069
 30
0.0
 10
-25.39999999999996
 20
-3.320624983802662
 30
0.0
 10
-25.39999999999996
 20
-2.916049167677325
 30
0.0
 10
-25.39999999999996
 20
-2.696105534711115
 30
0.0
 10
-25.39999999999996
 20
-2.483243985468536
 30
0.0
  0
SPLINE
  5
310
330
1F
100
AcDbEntity
  8
외형선
  6
Continuous
370
    15
100
AcDbSpline
210
0.0
220
0.0
230
1.0
 70
     8
 71
     3
 72
     8
 73
     4
 74
     0
 42
0.000000001
 43
0.00000001
 40
0.0
 40
0.0
 40
0.0
 40
0.0
 40
1.0
 40
1.0
 40
1.0
 40
1.0
 10
-25.39999999999996
 20
-4.169001669442014
 30
0.0
 10
-25.06580570296391
 20
-4.226125224097376
 30
0.0
 10
-24.73102122204521
 20
-4.271068387628811
 30
0.0
 10
-24.39999999999998
 20
-4.303362501473226
 30
0.0
  0
LINE
  5
311
330
1F
100
AcDbEntity
  8
외형선
  6
Continuous
370
    15
100
AcDbLine
 10
-25.39999999999996
 20
-4.169001669442014
 30
0.0
 11
-25.39999999999996
 21
-3.649081863018903
 31
0.0
  0
SPLINE
  5
312
330
1F
100
AcDbEntity
  8
외형선
  6
Continuous
370
    15
100
AcDbSpline
210
0.0
220
0.0
230
1.0
 70
     8
 71
     3
 72
     8
 73
     4
 74
     0
 42
0.000000001
 43
0.00000001
 40
0.0
 40
0.0
 40
0.0
 40
0.0
 40
1.0
 40
1.0
 40
1.0
 40
1.0
 10
-25.39999999999996
 20
4.169001669441994
 30
0.0
 10
-25.06580570296391
 20
4.22612522409736
 30
0.0
 10
-24.73102122204521
 20
4.271068387628792
 30
0.0
 10
-24.39999999999998
 20
4.30336250147321
 30
0.0
  0
SPLINE
  5
313
330
1F
100
AcDbEntity
  8
외형선
  6
Continuous
370
    15
100
AcDbSpline
210
0.0
220
0.0
230
1.0
 70
    24
 71
     3
 72
     8
 73
     4
 74
     0
 42
0.000000001
 43
0.00000001
 40
0.0
 40
0.0
 40
0.0
 40
0.0
 40
1.0
 40
1.0
 40
1.0
 40
1.0
 10
-25.39999999999998
 20
3.60357477221432
 30
0.0
 10
-25.39999999999998
 20
3.801935515793712
 30
0.0
 10
-25.39999999999998
 20
3.99166635028622
 30
0.0
 10
-25.39999999999998
 20
4.169001669430647
 30
0.0
  0
SPLINE
  5
314
330
1F
100
AcDbEntity
  8
0
  6
Continuous
 62
     1
370
    15
100
AcDbSpline
210
0.0
220
0.0
230
1.0
 70
     8
 71
     3
 72
    46
 73
    42
 74
     0
 42
0.000000001
 43
0.00000001
 40
0.0
 40
0.0
 40
0.0
 40
0.0
 40
0.0625000000000002
 40
0.0625000000000002
 40
0.1250000000000005
 40
0.1250000000000005
 40
0.1875000000000007
 40
0.1875000000000007
 40
0.250000000000001
 40
0.250000000000001
 40
0.312500000000001
 40
0.312500000000001
 40
0.3750000000000011
 40
0.3750000000000011
 40
0.4375000000000011
 40
0.4375000000000011
 40
0.5000000000000011
 40
0.5000000000000011
 40
0.5625000000000011
 40
0.5625000000000011
 40
0.593750000000001
 40
0.593750000000001
 40
0.6250000000000009
 40
0.6250000000000009
 40
0.6562500000000009
 40
0.6562500000000009
 40
0.6875000000000008
 40
0.6875000000000008
 40
0.7500000000000007
 40
0.7500000000000007
 40
0.7812500000000007
 40
0.7812500000000007
 40
0.8125000000000006
 40
0.8125000000000006
 40
0.8437500000000004
 40
0.8437500000000004
 40
0.8750000000000003
 40
0.8750000000000003
 40
0.9375000000000002
 40
0.9375000000000002
 40
1.0
 40
1.0
 40
1.0
 40
1.0
 10
-44.44999999999997
 20
4.361935240236904
 30
0.0
 10
-44.05600858005858
 20
4.352539175956701
 30
0.0
 10
-43.65636013743856
 20
4.325048871624653
 30
0.0
 10
-42.86048882182326
 20
4.23454183918241
 30
0.0
 10
-42.46746086320361
 20
4.17181500912513
 30
0.0
 10
-41.67214005208198
 20
4.011988847367793
 30
0.0
 10
-41.27224832105185
 20
3.914893099584067
 30
0.0
 10
-40.48277136892398
 20
3.690165054259826
 30
0.0
 10
-40.08483888846863
 20
3.561782920995423
 30
0.0
 10
-39.28855975226762
 20
3.276536355694546
 30
0.0
 10
-38.89527462441769
 20
3.120375322973722
 30
0.0
 10
-38.10064667250371
 20
2.782573760547159
 30
0.0
 10
-37.70058415926434
 20
2.601008065178626
 30
0.0
 10
-36.90975197222819
 20
2.219367437396276
 30
0.0
 10
-36.51328120613798
 20
2.018425053433273
 30
0.0
 10
-35.71673717730975
 20
1.600884048563512
 30
0.0
 10
-35.32293786448765
 20
1.385417877699493
 30
0.0
 10
-34.52914471257106
 20
0.9437367052535605
 30
0.0
 10
-34.12898402724071
 20
0.717455065974051
 30
0.0
 10
-33.53494822151112
 20
0.376160378084784
 30
0.0
 10
-33.33837783256809
 20
0.2621671499643595
 30
0.0
 10
-32.94171649431008
 20
0.033199385405752
 30
0.0
 10
-32.74250565860869
 20
-0.0816064282049881
 30
0.0
 10
-32.34417274116047
 20
-0.3107947248502003
 30
0.0
 10
-32.14505257583426
 20
-0.4251761055841813
 30
0.0
 10
-31.74875112149855
 20
-0.6524546554564695
 30
0.0
 10
-31.55223184836863
 20
-0.7652280916113264
 30
0.0
 10
-30.9576191664196
 20
-1.101792709528886
 30
0.0
 10
-30.55743297887708
 20
-1.323230012345135
 30
0.0
 10
-29.9625908101053
 20
-1.644830332038797
 30
0.0
 10
-29.76604980699634
 20
-1.750134389510833
 30
0.0
 10
-29.36991184425262
 20
-1.957461238727201
 30
0.0
 10
-29.17083555934185
 20
-2.059384458133013
 30
0.0
 10
-28.77251331861471
 20
-2.258781090792656
 30
0.0
 10
-28.5732692788601
 20
-2.35625353704064
 30
0.0
 10
-28.1764654725449
 20
-2.545858839063523
 30
0.0
 10
-27.97982989688939
 20
-2.637855619558447
 30
0.0
 10
-27.38605504262589
 20
-2.906013392203391
 30
0.0
 10
-26.98591603827706
 20
-3.074105660999325
 30
0.0
 10
-26.19185903902284
 20
-3.382640330648541
 30
0.0
 10
-25.79823999064585
 20
-3.523155615325599
 30
0.0
 10
-25.39999999999996
 20
-3.64908186301891
 30
0.0
  0
SPLINE
  5
315
330
1F
100
AcDbEntity
  8
0
  6
Continuous
 62
     1
370
    15
100
AcDbSpline
210
0.0
220
0.0
230
1.0
 70
     8
 71
     3
 72
    12
 73
     8
 74
     0
 42
0.000000001
 43
0.00000001
 40
0.0
 40
0.0
 40
0.0
 40
0.0
 40
0.1413936439553999
 40
0.3501335131581237
 40
0.5588730399207974
 40
0.7794364738695346
 40
1.0
 40
1.0
 40
1.0
 40
1.0
 10
-33.61066681137127
 20
0.4165656917008752
 30
0.0
 10
-33.22369670795158
 20
0.2614352652991135
 30
0.0
 10
-32.2654414568157
 20
-0.1227146842622696
 30
0.0
 10
-30.73589811280051
 20
-0.7421408870279679
 30
0.0
 10
-28.98972143123206
 20
-1.405326298937911
 30
0.0
 10
-27.21102039399171
 20
-2.01538303322998
 30
0.0
 10
-26.00367354876312
 20
-2.327290312996066
 30
0.0
 10
-25.39999999999996
 20
-2.483243985468536
 30
0.0
  0
SPLINE
  5
316
330
1F
100
AcDbEntity
  8
외형선
  6
Continuous
370
    15
100
AcDbSpline
210
0.0
220
0.0
230
1.0
 70
    24
 71
     3
 72
    10
 73
     6
 74
     0
 42
0.000000001
 43
0.00000001
 40
0.0
 40
0.0
 40
0.0
 40
0.0
 40
0.5000000000000001
 40
0.5000000000000001
 40
1.0
 40
1.0
 40
1.0
 40
1.0
 10
-25.39999999999996
 20
-3.649081863018906
 30
0.0
 10
-25.39999999999996
 20
-3.504023795935072
 30
0.0
 10
-25.39999999999996
 20
-3.320624983802666
 30
0.0
 10
-25.39999999999996
 20
-2.916049167677329
 30
0.0
 10
-25.39999999999996
 20
-2.696105534711119
 30
0.0
 10
-25.39999999999996
 20
-2.483243985468536
 30
0.0
  0
SPLINE
  5
317
330
1F
100
AcDbEntity
  8
0
  6
Continuous
 62
     1
370
    15
100
AcDbSpline
210
0.0
220
0.0
230
1.0
 70
     8
 71
     3
 72
    46
 73
    42
 74
     0
 42
0.000000001
 43
0.00000001
 40
0.0
 40
0.0
 40
0.0
 40
0.0
 40
0.0625
 40
0.0625
 40
0.1249999999999999
 40
0.1249999999999999
 40
0.1874999999999999
 40
0.1874999999999999
 40
0.2499999999999998
 40
0.2499999999999998
 40
0.3124999999999998
 40
0.3124999999999998
 40
0.3749999999999997
 40
0.3749999999999997
 40
0.4374999999999997
 40
0.4374999999999997
 40
0.4999999999999997
 40
0.4999999999999997
 40
0.5624999999999997
 40
0.5624999999999997
 40
0.5937499999999998
 40
0.5937499999999998
 40
0.6249999999999998
 40
0.6249999999999998
 40
0.6562499999999999
 40
0.6562499999999999
 40
0.6875
 40
0.6875
 40
0.7500000000000002
 40
0.7500000000000002
 40
0.7812500000000002
 40
0.7812500000000002
 40
0.8125000000000002
 40
0.8125000000000002
 40
0.8437500000000002
 40
0.8437500000000002
 40
0.8750000000000001
 40
0.8750000000000001
 40
0.9375
 40
0.9375
 40
1.0
 40
1.0
 40
1.0
 40
1.0
 10
-44.44999999999997
 20
4.142719982240508
 30
0.0
 10
-44.05600858005847
 20
4.070612061262694
 30
0.0
 10
-43.65636013743839
 20
3.981018343724493
 30
0.0
 10
-42.86048882182286
 20
3.769841395024927
 30
0.0
 10
-42.46746086320312
 20
3.648696149205467
 30
0.0
 10
-41.67214005208127
 20
3.376375813336317
 30
0.0
 10
-41.27224832105106
 20
3.225341940169323
 30
0.0
 10
-40.48277136892302
 20
2.899309585248237
 30
0.0
 10
-40.08483888846755
 20
2.723198326341226
 30
0.0
 10
-39.28855975226632
 20
2.349812890694672
 30
0.0
 10
-38.8952746244163
 20
2.153406364063639
 30
0.0
 10
-38.10064667250212
 20
1.743142746817203
 30
0.0
 10
-37.70058415926267
 20
1.529438013464347
 30
0.0
 10
-36.90975197222631
 20
1.092850532825566
 30
0.0
 10
-36.51328120613602
 20
0.868948259820162
 30
0.0
 10
-35.71673717730756
 20
0.4151202858853301
 30
0.0
 10
-35.3229378644854
 20
0.1864046046182151
 30
0.0
 10
-34.52914471256859
 20
-0.2718617043317936
 30
0.0
 10
-34.12898402723813
 20
-0.5014382460910939
 30
0.0
 10
-33.53494822150842
 20
-0.8401038335725838
 30
0.0
 10
-33.33837783256534
 20
-0.951971049446651
 30
0.0
 10
-32.94171649430721
 20
-1.17417370592469
 30
0.0
 10
-32.74250565860576
 20
-1.284339647548261
 30
0.0
 10
-32.34417274115746
 20
-1.50176622877678
 30
0.0
 10
-32.14505257583117
 20
-1.609025824990386
 30
0.0
 10
-31.7487511214954
 20
-1.819657634429791
 30
0.0
 10
-31.55223184836544
 20
-1.922921137283943
 30
0.0
 10
-30.95761916641622
 20
-2.227324256786598
 30
0.0
 10
-30.55743297887361
 20
-2.422487661104685
 30
0.0
 10
-29.96259081010172
 20
-2.698154153738936
 30
0.0
 10
-29.7660498069927
 20
-2.7870917418469
 30
0.0
 10
-29.36991184424884
 20
-2.959498752996552
 30
0.0
 10
-29.17083555933804
 20
-3.042878918612746
 30
0.0
 10
-28.77251331861078
 20
-3.20318413535627
 30
0.0
 10
-28.57326927885615
 20
-3.280108404081371
 30
0.0
 10
-28.17646547254086
 20
-3.42681077807012
 30
0.0
 10
-27.97982989688533
 20
-3.496490312017638
 30
0.0
 10
-27.38605504262163
 20
-3.694968221443765
 30
0.0
 10
-26.98591603827268
 20
-3.812973018009241
 30
0.0
 10
-26.19185903901832
 20
-4.015898466563303
 30
0.0
 10
-25.79823999064119
 20
-4.100930837374984
 30
0.0
 10
-25.39999999999521
 20
-4.169001669442827
 30
0.0
  0
SPLINE
  5
318
330
1F
100
AcDbEntity
  8
0
  6
Continuous
 62
     1
370
    15
100
AcDbSpline
210
0.0
220
0.0
230
1.0
 70
     8
 71
     3
 72
    14
 73
    10
 74
     0
 42
0.000000001
 43
0.00000001
 40
0.0
 40
0.0
 40
0.0
 40
0.0
 40
0.1514059216623757
 40
0.3027912668728753
 40
0.4541588996804268
 40
0.6055117031560472
 40
0.7568525763327059
 40
0.9081844311087682
 40
1.0
 40
1.0
 40
1.0
 40
1.0
 10
-44.44999999999997
 20
3.44435704163249
 30
0.0
 10
-43.87835470683121
 20
3.322900752382993
 30
0.0
 10
-42.73514180855063
 20
3.080004680104253
 30
0.0
 10
-41.02047324660735
 20
2.510708484407701
 30
0.0
 10
-39.30603219850568
 20
1.825763591242638
 30
0.0
 10
-37.59178465417276
 20
1.04336889080269
 30
0.0
 10
-35.87769238096676
 20
0.2109225463718479
 30
0.0
 10
-34.38838447665416
 20
-0.5297958580665346
 30
0.0
 10
-33.47043869554378
 20
-0.9577586036662206
 30
0.0
 10
-33.12381065880474
 20
-1.119362795719087
 30
0.0
  0
LINE
  5
319
330
1F
100
AcDbEntity
  8
0
  6
Continuous
 62
     1
370
    15
100
AcDbLine
 10
-44.44999999999997
 20
4.142719982240508
 30
0.0
 11
-44.44999999999997
 21
3.44435704163249
 31
0.0
  0
LINE
  5
31A
330
1F
100
AcDbEntity
  8
0
  6
Continuous
 62
     1
370
    15
100
AcDbLine
 10
-44.44999999999997
 20
4.361935240236911
 30
0.0
 11
-44.44999999999997
 21
4.142719982240508
 31
0.0
  0
SPLINE
  5
31B
330
1F
100
AcDbEntity
  8
0
  6
Continuous
 62
     1
370
    15
100
AcDbSpline
210
0.0
220
0.0
230
1.0
 70
     8
 71
     3
 72
     8
 73
     4
 74
     0
 42
0.000000001
 43
0.00000001
 40
0.0
 40
0.0
 40
0.0
 40
0.0
 40
1.0
 40
1.0
 40
1.0
 40
1.0
 10
-41.74846235634312
 20
-1.221451238460776
 30
0.0
 10
-41.59330514540694
 20
-1.405287162604626
 30
0.0
 10
-41.45497670705667
 20
-1.582052726402473
 30
0.0
 10
-41.33735713941048
 20
-1.750117763914811
 30
0.0
  0
LINE
  5
31C
330
1F
100
AcDbEntity
  8
0
  6
Continuous
 62
     1
370
    15
100
AcDbLine
 10
-41.39251914758038
 20
-1.796404184640046
 30
0.0
 11
-44.44999999999997
 21
-0.0000000000000066
 31
0.0
  0
LINE
  5
31D
330
1F
100
AcDbEntity
  8
0
  6
Continuous
 62
     1
370
    15
100
AcDbLine
 10
-44.44999999999997
 20
-0.0000000000000066
 30
0.0
 11
-44.44999999999997
 21
1.166682486260662
 31
0.0
  0
SPLINE
  5
31E
330
1F
100
AcDbEntity
  8
0
  6
Continuous
 62
     1
370
    15
100
AcDbSpline
210
0.0
220
0.0
230
1.0
 70
     8
 71
     3
 72
    12
 73
     8
 74
     0
 42
0.000000001
 43
0.00000001
 40
0.0
 40
0.0
 40
0.0
 40
0.0
 40
0.5000000000000001
 40
0.5000000000000001
 40
0.7500000000000002
 40
0.7500000000000002
 40
1.0
 40
1.0
 40
1.0
 40
1.0
 10
-44.44999999999997
 20
1.166682486260662
 30
0.0
 10
-43.98235101917982
 20
0.7990306088474709
 30
0.0
 10
-43.52251546190875
 20
0.4163022391985405
 30
0.0
 10
-42.84477930303976
 20
-0.1809782143008393
 30
0.0
 10
-42.62090602336327
 20
-0.384005640091686
 30
0.0
 10
-42.17773792412095
 20
-0.7988949184616233
 30
0.0
 10
-41.95965009836866
 20
-1.009673468302619
 30
0.0
 10
-41.74846235634309
 20
-1.221451238460783
 30
0.0
  0
SPLINE
  5
31F
330
1F
100
AcDbEntity
  8
0
  6
Continuous
 62
     1
370
    15
100
AcDbSpline
210
0.0
220
0.0
230
1.0
 70
     8
 71
     3
 72
    14
 73
    10
 74
     0
 42
0.000000001
 43
0.00000001
 40
0.0
 40
0.0
 40
0.0
 40
0.0
 40
0.1213114354811314
 40
0.2429289233541665
 40
0.4134061531218434
 40
0.5838697580205997
 40
0.75432306312769
 40
0.9247694046832025
 40
0.9999999999999999
 40
0.9999999999999999
 40
0.9999999999999999
 40
0.9999999999999999
 10
-41.74846235630529
 20
-1.221451238477111
 30
0.0
 10
-41.34199678925359
 20
-1.394442404894679
 30
0.0
 10
-40.52804019733964
 20
-1.740861171113451
 30
0.0
 10
-39.14212379705643
 20
-2.268031453697965
 30
0.0
 10
-37.59177916405341
 20
-2.774116149533515
 30
0.0
 10
-35.87765556466818
 20
-3.192852325501963
 30
0.0
 10
-34.16368036494607
 20
-3.438371671593351
 30
0.0
 10
-32.76890509491012
 20
-3.52600776438361
 30
0.0
 10
-31.94545454129508
 20
-3.465522279251143
 30
0.0
 10
-31.6932995113966
 20
-3.447000560800599
 30
0.0
  0
SPLINE
  5
320
330
1F
100
AcDbEntity
  8
0
  6
Continuous
 62
     1
370
    15
100
AcDbSpline
210
0.0
220
0.0
230
1.0
 70
    24
 71
     3
 72
    10
 73
     6
 74
     0
 42
0.000000001
 43
0.00000001
 40
0.0
 40
0.0
 40
0.0
 40
0.0
 40
0.5
 40
0.5
 40
1.0
 40
1.0
 40
1.0
 40
1.0
 10
-44.44999999999997
 20
3.444357041632486
 30
0.0
 10
-44.44999999999997
 20
3.180320220119729
 30
0.0
 10
-44.44999999999997
 20
2.846699571929172
 30
0.0
 10
-44.44999999999997
 20
2.07106367229218
 30
0.0
 10
-44.44999999999997
 20
1.629720306070866
 30
0.0
 10
-44.44999999999997
 20
1.166682486260801
 30
0.0
  0
SPLINE
  5
321
330
1F
100
AcDbEntity
  8
0
  6
Continuous
 62
     1
370
    15
100
AcDbSpline
210
0.0
220
0.0
230
1.0
 70
    24
 71
     3
 72
     8
 73
     4
 74
     0
 42
0.000000001
 43
0.00000001
 40
0.0
 40
0.0
 40
0.0
 40
0.0
 40
1.0
 40
1.0
 40
1.0
 40
1.0
 10
-41.79285251254522
 20
-2.13232376352823
 30
0.0
 10
-41.64878654222216
 20
-2.011438060964945
 30
0.0
 10
-41.49646907549198
 20
-1.883628530811552
 30
0.0
 10
-41.337357139404
 20
-1.750117763924219
 30
0.0
  0
LINE
  5
322
330
1F
100
AcDbEntity
  8
0
  6
Continuous
 62
     1
370
    15
100
AcDbLine
 10
-44.44999999999997
 20
-3.055937500000006
 30
0.0
 11
-42.82593299729798
 21
-2.981864181611708
 31
0.0
  0
SPLINE
  5
323
330
1F
100
AcDbEntity
  8
0
  6
Continuous
 62
     1
370
    15
100
AcDbSpline
210
0.0
220
0.0
230
1.0
 70
     8
 71
     3
 72
    10
 73
     6
 74
     0
 42
0.000000001
 43
0.00000001
 40
0.0
 40
0.0
 40
0.0
 40
0.0
 40
0.5
 40
0.5
 40
1.0
 40
1.0
 40
1.0
 40
1.0
 10
-44.44999999999997
 20
-3.055937500000009
 30
0.0
 10
-44.00100717689848
 20
-2.934115824495833
 30
0.0
 10
-43.55444071817346
 20
-2.797363186792164
 30
0.0
 10
-42.66786154001466
 20
-2.491370382564113
 30
0.0
 10
-42.22757802633655
 20
-2.322616128793598
 30
0.0
 10
-41.79285251256062
 20
-2.132323763536199
 30
0.0
  0
SPLINE
  5
324
330
1F
100
AcDbEntity
  8
0
  6
Continuous
 62
     1
370
    15
100
AcDbSpline
210
0.0
220
0.0
230
1.0
 70
     8
 71
     3
 72
    13
 73
     9
 74
     0
 42
0.000000001
 43
0.00000001
 40
0.0
 40
0.0
 40
0.0
 40
0.0
 40
0.1066538601848534
 40
0.2813683906078891
 40
0.4560792106311767
 40
0.6307897518106623
 40
0.8153948383584908
 40
1.0
 40
1.0
 40
1.0
 40
1.0
 10
-35.209902064317
 20
3.261937160555832
 30
0.0
 10
-34.86115330204317
 20
3.318852817283592
 30
0.0
 10
-33.94110335919621
 20
3.469004595251349
 30
0.0
 10
-32.44977887817107
 20
3.517440646497559
 30
0.0
 10
-30.73590626563877
 20
3.420717084991989
 30
0.0
 10
-28.98974547476698
 20
3.134358452544877
 30
0.0
 10
-27.21102423714706
 20
2.681475811350137
 30
0.0
 10
-26.00367482756995
 20
2.250840204232511
 30
0.0
 10
-25.39999999999996
 20
2.035522356880208
 30
0.0
  0
SPLINE
  5
325
330
1F
100
AcDbEntity
  8
외형선
  6
Continuous
370
    15
100
AcDbSpline
210
0.0
220
0.0
230
1.0
 70
    24
 71
     3
 72
    14
 73
    10
 74
     0
 42
0.000000001
 43
0.00000001
 40
0.0
 40
0.0
 40
0.0
 40
0.0
 40
0.25
 40
0.25
 40
0.5
 40
0.5
 40
0.75
 40
0.75
 40
1.0
 40
1.0
 40
1.0
 40
1.0
 10
-25.39999999999996
 20
-2.483243985468536
 30
0.0
 10
-25.39999999999996
 20
-2.196113425471704
 30
0.0
 10
-25.39999999999996
 20
-1.868007679095914
 30
0.0
 10
-25.39999999999996
 20
-1.150618126443369
 30
0.0
 10
-25.39999999999996
 20
-0.7615641069073108
 30
0.0
 10
-25.39999999999996
 20
0.0415509531779291
 30
0.0
 10
-25.39999999999996
 20
0.4551840604462858
 30
0.0
 10
-25.39999999999996
 20
1.26622787902096
 30
0.0
 10
-25.39999999999996
 20
1.663277261116744
 30
0.0
 10
-25.39999999999996
 20
2.035522356880208
 30
0.0
  0
SPLINE
  5
326
330
1F
100
AcDbEntity
  8
외형선
  6
Continuous
370
    15
100
AcDbSpline
210
0.0
220
0.0
230
1.0
 70
    24
 71
     3
 72
    13
 73
     9
 74
     0
 42
0.000000001
 43
0.00000001
 40
0.0
 40
0.0
 40
0.0
 40
0.0
 40
0.1423788159226234
 40
0.2847576318452468
 40
0.4924620039835272
 40
0.7061898169847111
 40
0.8934067046883724
 40
1.0
 40
1.0
 40
1.0
 40
1.0
 10
-25.39999999999996
 20
2.035522356880208
 30
0.0
 10
-25.39999999999996
 20
2.166338982505966
 30
0.0
 10
-25.39999999999996
 20
2.427972233757484
 30
0.0
 10
-25.39999999999996
 20
2.813516840418679
 30
0.0
 10
-25.39999999999996
 20
3.177140214343812
 30
0.0
 10
-25.39999999999996
 20
3.442803561920404
 30
0.0
 10
-25.39999999999996
 20
3.581263415369638
 30
0.0
 10
-25.39999999999996
 20
3.58780223891333
 30
0.0
 10
-25.39999999999996
 20
3.590174500969841
 30
0.0
  0
LINE
  5
327
330
1F
100
AcDbEntity
  8
0
  6
Continuous
 62
     1
370
    15
100
AcDbLine
 10
-44.44999999999997
 20
-0.0000000000000066
 30
0.0
 11
-44.44999999999997
 21
-3.055937500000006
 31
0.0
  0
SPLINE
  5
328
330
1F
100
AcDbEntity
  8
0
  6
Continuous
 62
     1
370
    15
100
AcDbSpline
210
0.0
220
0.0
230
1.0
 70
     8
 71
     3
 72
    11
 73
     7
 74
     0
 42
0.000000001
 43
0.00000001
 40
0.0
 40
0.0
 40
0.0
 40
0.0
 40
0.1579691108667889
 40
0.4385909371619184
 40
0.719263769171012
 40
1.0
 40
1.0
 40
1.0
 40
1.0
 10
-38.47571565494298
 20
-2.924713437906071
 30
0.0
 10
-38.79028083860855
 20
-3.061541959340377
 30
0.0
 10
-39.66365056225482
 20
-3.441437428252388
 30
0.0
 10
-41.09597516531043
 20
-3.887962475007835
 30
0.0
 10
-42.77282295025928
 20
-4.26106218052056
 30
0.0
 10
-43.89089889604816
 20
-4.328308355672084
 30
0.0
 10
-44.44999999999997
 20
-4.361935240236916
 30
0.0
  0
SPLINE
  5
329
330
1F
100
AcDbEntity
  8
0
  6
Continuous
 62
     1
370
    15
100
AcDbSpline
210
0.0
220
0.0
230
1.0
 70
    24
 71
     3
 72
    10
 73
     6
 74
     0
 42
0.000000001
 43
0.00000001
 40
0.0
 40
0.0
 40
0.0
 40
0.0
 40
0.5
 40
0.5
 40
1.0
 40
1.0
 40
1.0
 40
1.0
 10
-44.44999999999997
 20
-3.055937500000006
 30
0.0
 10
-44.44999999999997
 20
-3.241180821124434
 30
0.0
 10
-44.44999999999997
 20
-3.456450715648014
 30
0.0
 10
-44.44999999999997
 20
-3.908086374569741
 30
0.0
 10
-44.44999999999997
 20
-4.143298718170811
 30
0.0
 10
-44.44999999999997
 20
-4.36193524023692
 30
0.0
  0
SPLINE
  5
32A
330
1F
100
AcDbEntity
  8
0
  6
Continuous
 62
     1
370
    15
100
AcDbSpline
210
0.0
220
0.0
230
1.0
 70
     8
 71
     3
 72
     9
 73
     5
 74
     0
 42
0.000000001
 43
0.00000001
 40
0.0
 40
0.0
 40
0.0
 40
0.0
 40
0.3793651783306265
 40
1.0
 40
1.0
 40
1.0
 40
1.0
 10
-28.10030384761695
 20
3.432541241359484
 30
0.0
 10
-27.75883652346753
 20
3.556232397833118
 30
0.0
 10
-26.85873460675487
 20
3.882280131096163
 30
0.0
 10
-25.95863386397492
 20
4.059199406501652
 30
0.0
 10
-25.39999999999521
 20
4.169001669442811
 30
0.0
  0
SPLINE
  5
32B
330
1F
100
AcDbEntity
  8
외형선
  6
Continuous
370
    15
100
AcDbSpline
210
0.0
220
0.0
230
1.0
 70
    24
 71
     3
 72
     8
 73
     4
 74
     0
 42
0.000000001
 43
0.00000001
 40
0.0
 40
0.0
 40
0.0
 40
0.0
 40
1.0
 40
1.0
 40
1.0
 40
1.0
 10
-25.39999999999998
 20
3.60357477221432
 30
0.0
 10
-25.39999999999998
 20
3.80193551579372
 30
0.0
 10
-25.39999999999998
 20
3.991666350286235
 30
0.0
 10
-25.39999999999998
 20
4.169001669430668
 30
0.0
  0
LINE
  5
35D
330
1F
100
AcDbEntity
  8
외형선
  6
Continuous
370
    15
100
AcDbLine
 10
-4.838700000000074
 20
4.762499999999996
 30
0.0
 11
-22.91884233574606
 21
4.762499999999994
 31
0.0
  0
ENDSEC
  0
SECTION
  2
OBJECTS
  0
DICTIONARY
  5
C
330
0
100
AcDbDictionary
281
     1
  3
ACAD_GROUP
350
D
  3
ACAD_IMAGE_VARS
350
15C
  3
ACAD_LAYOUT
350
1A
  3
ACAD_MLINESTYLE
350
17
  3
ACAD_PLOTSETTINGS
350
19
  3
ACAD_PLOTSTYLENAME
350
E
  3
ACAD_SCALELIST
350
47
  3
APPDATA
350
15A
  3
DWGPROPS
350
35E
  0
DICTIONARY
  5
182
330
2
100
AcDbDictionary
280
     1
281
     1
  3
ACAD_LAYERSTATES
360
183
  0
DICTIONARY
  5
D
102
{ACAD_REACTORS
330
C
102
}
330
C
100
AcDbDictionary
281
     1
  0
RASTERVARIABLES
  5
15C
102
{ACAD_REACTORS
330
C
102
}
330
C
100
AcDbRasterVariables
 90
        0
 70
     1
 71
     1
 72
     1
  0
DICTIONARY
  5
1A
102
{ACAD_REACTORS
330
C
102
}
330
C
100
AcDbDictionary
281
     1
  3
Layout1
350
1E
  3
Layout2
350
26
  3
Model
350
22
  0
DICTIONARY
  5
17
102
{ACAD_REACTORS
330
C
102
}
330
C
100
AcDbDictionary
281
     1
  3
Standard
350
18
  0
DICTIONARY
  5
19
102
{ACAD_REACTORS
330
C
102
}
330
C
100
AcDbDictionary
281
     1
  0
ACDBDICTIONARYWDFLT
  5
E
102
{ACAD_REACTORS
330
C
102
}
330
C
100
AcDbDictionary
281
     1
  3
Normal
350
F
100
AcDbDictionaryWithDefault
340
F
  0
DICTIONARY
  5
47
102
{ACAD_REACTORS
330
C
102
}
330
C
100
AcDbDictionary
281
     1
  3
A0
350
48
  3
A1
350
49
  3
A2
350
4A
  3
A3
350
4B
  3
A4
350
4C
  3
A5
350
4D
  3
A6
350
4E
  3
A7
350
4F
  3
A8
350
50
  3
A9
350
51
  3
B0
350
52
  3
B1
350
53
  3
B2
350
54
  3
B3
350
55
  3
B4
350
56
  3
B5
350
57
  3
B6
350
58
  3
B7
350
59
  3
B8
350
5A
  3
B9
350
5B
  3
C0
350
5C
  3
C1
350
5D
  3
C2
350
5E
  3
C3
350
5F
  3
C4
350
60
  3
C5
350
61
  3
C6
350
62
  3
C7
350
63
  3
C8
350
64
  3
C9
350
65
  3
D0
350
66
  3
D1
350
67
  3
D2
350
68
  0
DICTIONARY
  5
15A
102
{ACAD_REACTORS
330
C
102
}
330
C
100
AcDbDictionary
281
     1
  0
XRECORD
  5
35E
102
{ACAD_REACTORS
330
C
102
}
330
C
100
AcDbXrecord
280
     1
  1
DWGPROPS COOKIE
  2

  3

  4

  6

  7

  8
12014074
  9

300
=
301
=
302
=
303
=
304
=
305
=
306
=
307
=
308
=
309
=
 40
0.0
 41
2458313.053555949
 42
2458320.216972048
  1

 90
        0
  0
DICTIONARY
  5
183
102
{ACAD_REACTORS
330
182
102
}
330
182
100
AcDbDictionary
281
     1
  0
LAYOUT
  5
1E
102
{ACAD_REACTORS
330
1A
102
}
330
1A
100
AcDbPlotSettings
  1

  2
none_device
  4

  6

 40
0.0
 41
0.0
 42
0.0
 43
0.0
 44
0.0
 45
0.0
 46
0.0
 47
0.0
 48
0.0
 49
0.0
140
0.0
141
0.0
142
1.0
143
1.0
 70
   688
 72
     1
 73
     0
 74
     5
  7

 75
    16
147
1.0
148
0.0
149
0.0
100
AcDbLayout
  1
Layout1
 70
     1
 71
     1
 10
0.0
 20
0.0
 11
420.0
 21
297.0
 12
0.0
 22
0.0
 32
0.0
 14
1.000000000000000E+20
 24
1.000000000000000E+20
 34
1.000000000000000E+20
 15
-1.000000000000000E+20
 25
-1.000000000000000E+20
 35
-1.000000000000000E+20
146
0.0
 13
0.0
 23
0.0
 33
0.0
 16
1.0
 26
0.0
 36
0.0
 17
0.0
 27
1.0
 37
0.0
 76
     0
330
1B
  0
LAYOUT
  5
26
102
{ACAD_REACTORS
330
1A
102
}
330
1A
100
AcDbPlotSettings
  1

  2
none_device
  4

  6

 40
0.0
 41
0.0
 42
0.0
 43
0.0
 44
0.0
 45
0.0
 46
0.0
 47
0.0
 48
0.0
 49
0.0
140
0.0
141
0.0
142
1.0
143
1.0
 70
   688
 72
     1
 73
     0
 74
     5
  7

 75
    16
147
1.0
148
0.0
149
0.0
100
AcDbLayout
  1
Layout2
 70
     1
 71
     2
 10
0.0
 20
0.0
 11
0.0
 21
0.0
 12
0.0
 22
0.0
 32
0.0
 14
0.0
 24
0.0
 34
0.0
 15
0.0
 25
0.0
 35
0.0
146
0.0
 13
0.0
 23
0.0
 33
0.0
 16
1.0
 26
0.0
 36
0.0
 17
0.0
 27
1.0
 37
0.0
 76
     0
330
23
  0
LAYOUT
  5
22
102
{ACAD_REACTORS
330
1A
102
}
330
1A
100
AcDbPlotSettings
  1

  2
none_device
  4
ANSI_A_(11.00_x_8.50_Inches)
  6

 40
6.35
 41
19.05
 42
6.35000508
 43
19.05000254
 44
279.4
 45
215.9
 46
70.60749485865111
 47
58.05823972218251
 48
0.0
 49
0.0
140
0.0
141
0.0
142
0.0359855730988897
143
1.0
 70
  1696
 72
     0
 73
     0
 74
     0
  7

 75
     0
147
0.0235690232323232
148
0.0
149
0.0
100
AcDbLayout
  1
Model
 70
     1
 71
     0
 10
0.0
 20
0.0
 11
420.0
 21
297.0
 12
0.0
 22
0.0
 32
0.0
 14
1.000000000000000E+20
 24
1.000000000000000E+20
 34
1.000000000000000E+20
 15
-1.000000000000000E+20
 25
-1.000000000000000E+20
 35
-1.000000000000000E+20
146
0.0
 13
0.0
 23
0.0
 33
0.0
 16
1.0
 26
0.0
 36
0.0
 17
0.0
 27
1.0
 37
0.0
 76
     0
330
1F
331
29
  0
MLINESTYLE
  5
18
102
{ACAD_REACTORS
330
17
102
}
330
17
100
AcDbMlineStyle
  2
Standard
 70
     0
  3

 62
   256
 51
90.0
 52
90.0
 71
     2
 49
0.5
 62
   256
  6
BYLAYER
 49
-0.5
 62
   256
  6
BYLAYER
  0
ACDBPLACEHOLDER
  5
F
102
{ACAD_REACTORS
330
E
102
}
330
E
  0
SCALE
  5
48
102
{ACAD_REACTORS
330
47
102
}
330
47
100
AcDbScale
 70
     0
300
1:1
140
1.0
141
1.0
290
     1
  0
SCALE
  5
49
102
{ACAD_REACTORS
330
47
102
}
330
47
100
AcDbScale
 70
     0
300
1:2
140
1.0
141
2.0
290
     0
  0
SCALE
  5
4A
102
{ACAD_REACTORS
330
47
102
}
330
47
100
AcDbScale
 70
     0
300
1:4
140
1.0
141
4.0
290
     0
  0
SCALE
  5
4B
102
{ACAD_REACTORS
330
47
102
}
330
47
100
AcDbScale
 70
     0
300
1:5
140
1.0
141
5.0
290
     0
  0
SCALE
  5
4C
102
{ACAD_REACTORS
330
47
102
}
330
47
100
AcDbScale
 70
     0
300
1:8
140
1.0
141
8.0
290
     0
  0
SCALE
  5
4D
102
{ACAD_REACTORS
330
47
102
}
330
47
100
AcDbScale
 70
     0
300
1:10
140
1.0
141
10.0
290
     0
  0
SCALE
  5
4E
102
{ACAD_REACTORS
330
47
102
}
330
47
100
AcDbScale
 70
     0
300
1:16
140
1.0
141
16.0
290
     0
  0
SCALE
  5
4F
102
{ACAD_REACTORS
330
47
102
}
330
47
100
AcDbScale
 70
     0
300
1:20
140
1.0
141
20.0
290
     0
  0
SCALE
  5
50
102
{ACAD_REACTORS
330
47
102
}
330
47
100
AcDbScale
 70
     0
300
1:30
140
1.0
141
30.0
290
     0
  0
SCALE
  5
51
102
{ACAD_REACTORS
330
47
102
}
330
47
100
AcDbScale
 70
     0
300
1:40
140
1.0
141
40.0
290
     0
  0
SCALE
  5
52
102
{ACAD_REACTORS
330
47
102
}
330
47
100
AcDbScale
 70
     0
300
1:50
140
1.0
141
50.0
290
     0
  0
SCALE
  5
53
102
{ACAD_REACTORS
330
47
102
}
330
47
100
AcDbScale
 70
     0
300
1:100
140
1.0
141
100.0
290
     0
  0
SCALE
  5
54
102
{ACAD_REACTORS
330
47
102
}
330
47
100
AcDbScale
 70
     0
300
2:1
140
2.0
141
1.0
290
     0
  0
SCALE
  5
55
102
{ACAD_REACTORS
330
47
102
}
330
47
100
AcDbScale
 70
     0
300
4:1
140
4.0
141
1.0
290
     0
  0
SCALE
  5
56
102
{ACAD_REACTORS
330
47
102
}
330
47
100
AcDbScale
 70
     0
300
8:1
140
8.0
141
1.0
290
     0
  0
SCALE
  5
57
102
{ACAD_REACTORS
330
47
102
}
330
47
100
AcDbScale
 70
     0
300
10:1
140
10.0
141
1.0
290
     0
  0
SCALE
  5
58
102
{ACAD_REACTORS
330
47
102
}
330
47
100
AcDbScale
 70
     0
300
100:1
140
100.0
141
1.0
290
     0
  0
SCALE
  5
59
102
{ACAD_REACTORS
330
47
102
}
330
47
100
AcDbScale
 70
     0
300
1/128" = 1'-0"
140
0.0078125
141
12.0
290
     0
  0
SCALE
  5
5A
102
{ACAD_REACTORS
330
47
102
}
330
47
100
AcDbScale
 70
     0
300
1/64" = 1'-0"
140
0.015625
141
12.0
290
     0
  0
SCALE
  5
5B
102
{ACAD_REACTORS
330
47
102
}
330
47
100
AcDbScale
 70
     0
300
1/32" = 1'-0"
140
0.03125
141
12.0
290
     0
  0
SCALE
  5
5C
102
{ACAD_REACTORS
330
47
102
}
330
47
100
AcDbScale
 70
     0
300
1/16" = 1'-0"
140
0.0625
141
12.0
290
     0
  0
SCALE
  5
5D
102
{ACAD_REACTORS
330
47
102
}
330
47
100
AcDbScale
 70
     0
300
3/32" = 1'-0"
140
0.09375
141
12.0
290
     0
  0
SCALE
  5
5E
102
{ACAD_REACTORS
330
47
102
}
330
47
100
AcDbScale
 70
     0
300
1/8" = 1'-0"
140
0.125
141
12.0
290
     0
  0
SCALE
  5
5F
102
{ACAD_REACTORS
330
47
102
}
330
47
100
AcDbScale
 70
     0
300
3/16" = 1'-0"
140
0.1875
141
12.0
290
     0
  0
SCALE
  5
60
102
{ACAD_REACTORS
330
47
102
}
330
47
100
AcDbScale
 70
     0
300
1/4" = 1'-0"
140
0.25
141
12.0
290
     0
  0
SCALE
  5
61
102
{ACAD_REACTORS
330
47
102
}
330
47
100
AcDbScale
 70
     0
300
3/8" = 1'-0"
140
0.375
141
12.0
290
     0
  0
SCALE
  5
62
102
{ACAD_REACTORS
330
47
102
}
330
47
100
AcDbScale
 70
     0
300
1/2" = 1'-0"
140
0.5
141
12.0
290
     0
  0
SCALE
  5
63
102
{ACAD_REACTORS
330
47
102
}
330
47
100
AcDbScale
 70
     0
300
3/4" = 1'-0"
140
0.75
141
12.0
290
     0
  0
SCALE
  5
64
102
{ACAD_REACTORS
330
47
102
}
330
47
100
AcDbScale
 70
     0
300
1" = 1'-0"
140
1.0
141
12.0
290
     0
  0
SCALE
  5
65
102
{ACAD_REACTORS
330
47
102
}
330
47
100
AcDbScale
 70
     0
300
1-1/2" = 1'-0"
140
1.5
141
12.0
290
     0
  0
SCALE
  5
66
102
{ACAD_REACTORS
330
47
102
}
330
47
100
AcDbScale
 70
     0
300
3" = 1'-0"
140
3.0
141
12.0
290
     0
  0
SCALE
  5
67
102
{ACAD_REACTORS
330
47
102
}
330
47
100
AcDbScale
 70
     0
300
6" = 1'-0"
140
6.0
141
12.0
290
     0
  0
SCALE
  5
68
102
{ACAD_REACTORS
330
47
102
}
330
47
100
AcDbScale
 70
     0
300
1'-0" = 1'-0"
140
12.0
141
12.0
290
     0
  0
ENDSEC
  0
EOF
