  0
SECTION
  2
HEADER
  9
$ACADVER
  1
AC1015
  9
$ACADMAINTVER
 70
     6
  9
$DWGCODEPAGE
  3
ANSI_949
  9
$INSBASE
 10
0.0
 20
0.0
 30
0.0
  9
$EXTMIN
 10
-57.57581169322363
 20
-39.99892507127611
 30
0.0
  9
$EXTMAX
 10
81.21241335422454
 20
42.75750000000002
 30
0.0
  9
$LIMMIN
 10
0.0
 20
0.0
  9
$LIMMAX
 10
420.0
 20
297.0
  9
$ORTHOMODE
 70
     0
  9
$REGENMODE
 70
     1
  9
$FILLMODE
 70
     1
  9
$QTEXTMODE
 70
     0
  9
$MIRRTEXT
 70
     1
  9
$LTSCALE
 40
1.0
  9
$ATTMODE
 70
     1
  9
$TEXTSIZE
 40
3.5
  9
$TRACEWID
 40
1.0
  9
$TEXTSTYLE
  7
Standard
  9
$CLAYER
  8
0
  9
$CELTYPE
  6
ByLayer
  9
$CECOLOR
 62
   256
  9
$CELTSCALE
 40
1.0
  9
$DISPSILH
 70
     0
  9
$DIMSCALE
 40
1.0
  9
$DIMASZ
 40
3.302
  9
$DIMEXO
 40
1.0
  9
$DIMDLI
 40
3.75
  9
$DIMRND
 40
0.0
  9
$DIMDLE
 40
0.0
  9
$DIMEXE
 40
1.0
  9
$DIMTP
 40
0.0
  9
$DIMTM
 40
0.0
  9
$DIMTXT
 40
3.5
  9
$DIMCEN
 40
2.5
  9
$DIMTSZ
 40
0.0
  9
$DIMTOL
 70
     0
  9
$DIMLIM
 70
     0
  9
$DIMTIH
 70
     1
  9
$DIMTOH
 70
     1
  9
$DIMSE1
 70
     0
  9
$DIMSE2
 70
     0
  9
$DIMTAD
 70
     1
  9
$DIMZIN
 70
     0
  9
$DIMBLK
  1

  9
$DIMASO
 70
     1
  9
$DIMSHO
 70
     1
  9
$DIMPOST
  1

  9
$DIMAPOST
  1

  9
$DIMALT
 70
     0
  9
$DIMALTD
 70
     3
  9
$DIMALTF
 40
0.0393700787401575
  9
$DIMLFAC
 40
1.0
  9
$DIMTOFL
 70
     1
  9
$DIMTVP
 40
0.0
  9
$DIMTIX
 70
     0
  9
$DIMSOXD
 70
     0
  9
$DIMSAH
 70
     0
  9
$DIMBLK1
  1

  9
$DIMBLK2
  1

  9
$DIMSTYLE
  2
ISO-25
  9
$DIMCLRD
 70
     0
  9
$DIMCLRE
 70
     0
  9
$DIMCLRT
 70
     0
  9
$DIMTFAC
 40
1.0
  9
$DIMGAP
 40
1.524
  9
$DIMJUST
 70
     0
  9
$DIMSD1
 70
     0
  9
$DIMSD2
 70
     0
  9
$DIMTOLJ
 70
     0
  9
$DIMTZIN
 70
     0
  9
$DIMALTZ
 70
     0
  9
$DIMALTTZ
 70
     0
  9
$DIMUPT
 70
     0
  9
$DIMDEC
 70
     2
  9
$DIMTDEC
 70
     2
  9
$DIMALTU
 70
     2
  9
$DIMALTTD
 70
     3
  9
$DIMTXSTY
  7
Standard
  9
$DIMAUNIT
 70
     0
  9
$DIMADEC
 70
     2
  9
$DIMALTRND
 40
0.0
  9
$DIMAZIN
 70
     0
  9
$DIMDSEP
 70
    44
  9
$DIMATFIT
 70
     3
  9
$DIMFRAC
 70
     0
  9
$DIMLDRBLK
  1

  9
$DIMLUNIT
 70
     2
  9
$DIMLWD
 70
    -2
  9
$DIMLWE
 70
    -2
  9
$DIMTMOVE
 70
     0
  9
$LUNITS
 70
     2
  9
$LUPREC
 70
     2
  9
$SKETCHINC
 40
1.0
  9
$FILLETRAD
 40
10.0
  9
$AUNITS
 70
     0
  9
$AUPREC
 70
     2
  9
$MENU
  1
.
  9
$ELEVATION
 40
0.0
  9
$PELEVATION
 40
0.0
  9
$THICKNESS
 40
0.0
  9
$LIMCHECK
 70
     0
  9
$CHAMFERA
 40
0.0
  9
$CHAMFERB
 40
0.0
  9
$CHAMFERC
 40
0.0
  9
$CHAMFERD
 40
0.0
  9
$SKPOLY
 70
     0
  9
$TDCREATE
 40
2458313.42813235
  9
$TDUCREATE
 40
2458313.05313235
  9
$TDUPDATE
 40
2459720.362283646
  9
$TDUUPDATE
 40
2459719.987283646
  9
$TDINDWG
 40
0.0015676852
  9
$TDUSRTIMER
 40
0.0002116551
  9
$USRTIMER
 70
     1
  9
$ANGBASE
 50
0.0
  9
$ANGDIR
 70
     0
  9
$PDMODE
 70
     0
  9
$PDSIZE
 40
-1.0
  9
$PLINEWID
 40
0.0
  9
$SPLFRAME
 70
     0
  9
$SPLINETYPE
 70
     6
  9
$SPLINESEGS
 70
     8
  9
$HANDSEED
  5
385
  9
$SURFTAB1
 70
     6
  9
$SURFTAB2
 70
     6
  9
$SURFTYPE
 70
     6
  9
$SURFU
 70
     6
  9
$SURFV
 70
     6
  9
$UCSBASE
  2

  9
$UCSNAME
  2

  9
$UCSORG
 10
0.0
 20
0.0
 30
0.0
  9
$UCSXDIR
 10
1.0
 20
0.0
 30
0.0
  9
$UCSYDIR
 10
0.0
 20
1.0
 30
0.0
  9
$UCSORTHOREF
  2

  9
$UCSORTHOVIEW
 70
     0
  9
$UCSORGTOP
 10
0.0
 20
0.0
 30
0.0
  9
$UCSORGBOTTOM
 10
0.0
 20
0.0
 30
0.0
  9
$UCSORGLEFT
 10
0.0
 20
0.0
 30
0.0
  9
$UCSORGRIGHT
 10
0.0
 20
0.0
 30
0.0
  9
$UCSORGFRONT
 10
0.0
 20
0.0
 30
0.0
  9
$UCSORGBACK
 10
0.0
 20
0.0
 30
0.0
  9
$PUCSBASE
  2

  9
$PUCSNAME
  2

  9
$PUCSORG
 10
0.0
 20
0.0
 30
0.0
  9
$PUCSXDIR
 10
1.0
 20
0.0
 30
0.0
  9
$PUCSYDIR
 10
0.0
 20
1.0
 30
0.0
  9
$PUCSORTHOREF
  2

  9
$PUCSORTHOVIEW
 70
     0
  9
$PUCSORGTOP
 10
0.0
 20
0.0
 30
0.0
  9
$PUCSORGBOTTOM
 10
0.0
 20
0.0
 30
0.0
  9
$PUCSORGLEFT
 10
0.0
 20
0.0
 30
0.0
  9
$PUCSORGRIGHT
 10
0.0
 20
0.0
 30
0.0
  9
$PUCSORGFRONT
 10
0.0
 20
0.0
 30
0.0
  9
$PUCSORGBACK
 10
0.0
 20
0.0
 30
0.0
  9
$USERI1
 70
     0
  9
$USERI2
 70
     0
  9
$USERI3
 70
     0
  9
$USERI4
 70
     0
  9
$USERI5
 70
     0
  9
$USERR1
 40
0.0
  9
$USERR2
 40
0.0
  9
$USERR3
 40
0.0
  9
$USERR4
 40
0.0
  9
$USERR5
 40
0.0
  9
$WORLDVIEW
 70
     1
  9
$SHADEDGE
 70
     3
  9
$SHADEDIF
 70
    70
  9
$TILEMODE
 70
     1
  9
$MAXACTVP
 70
    64
  9
$PINSBASE
 10
0.0
 20
0.0
 30
0.0
  9
$PLIMCHECK
 70
     0
  9
$PEXTMIN
 10
1.000000000000000E+20
 20
1.000000000000000E+20
 30
1.000000000000000E+20
  9
$PEXTMAX
 10
-1.000000000000000E+20
 20
-1.000000000000000E+20
 30
-1.000000000000000E+20
  9
$PLIMMIN
 10
0.0
 20
0.0
  9
$PLIMMAX
 10
0.0
 20
0.0
  9
$UNITMODE
 70
     0
  9
$VISRETAIN
 70
     1
  9
$PLINEGEN
 70
     0
  9
$PSLTSCALE
 70
     1
  9
$TREEDEPTH
 70
  3020
  9
$CMLSTYLE
  2
Standard
  9
$CMLJUST
 70
     0
  9
$CMLSCALE
 40
20.0
  9
$PROXYGRAPHICS
 70
     1
  9
$MEASUREMENT
 70
     1
  9
$CELWEIGHT
370
    -1
  9
$ENDCAPS
280
     0
  9
$JOINSTYLE
280
     0
  9
$LWDISPLAY
290
     1
  9
$INSUNITS
 70
     4
  9
$HYPERLINKBASE
  1

  9
$STYLESHEET
  1

  9
$XEDIT
290
     1
  9
$CEPSNTYPE
380
     0
  9
$PSTYLEMODE
290
     1
  9
$FINGERPRINTGUID
  2
{02FF2FB4-1B47-4758-AD43-29C5D3674413}
  9
$VERSIONGUID
  2
{FAEB1C32-E019-11D5-929B-00C0DF256EC4}
  9
$EXTNAMES
290
     1
  9
$PSVPSCALE
 40
0.0
  9
$OLESTARTUP
290
     0
  0
ENDSEC
  0
SECTION
  2
CLASSES
  0
CLASS
  1
ACDBDICTIONARYWDFLT
  2
AcDbDictionaryWithDefault
  3
ObjectDBX Classes
 90
        0
280
     0
281
     0
  0
CLASS
  1
VISUALSTYLE
  2
AcDbVisualStyle
  3
ObjectDBX Classes
 90
     4095
280
     0
281
     0
  0
CLASS
  1
MATERIAL
  2
AcDbMaterial
  3
ObjectDBX Classes
 90
     1153
280
     0
281
     0
  0
CLASS
  1
SCALE
  2
AcDbScale
  3
ObjectDBX Classes
 90
     1153
280
     0
281
     0
  0
CLASS
  1
SUN
  2
AcDbSun
  3
SCENEOE
 90
     1153
280
     0
281
     0
  0
CLASS
  1
ACDBPLACEHOLDER
  2
AcDbPlaceHolder
  3
ObjectDBX Classes
 90
        0
280
     0
281
     0
  0
CLASS
  1
LAYOUT
  2
AcDbLayout
  3
ObjectDBX Classes
 90
        0
280
     0
281
     0
  0
CLASS
  1
TABLESTYLE
  2
AcDbTableStyle
  3
ObjectDBX Classes
 90
     4095
280
     0
281
     0
  0
CLASS
  1
MLEADERSTYLE
  2
AcDbMLeaderStyle
  3
ACDB_MLEADERSTYLE_CLASS
 90
     4095
280
     0
281
     0
  0
CLASS
  1
RASTERVARIABLES
  2
AcDbRasterVariables
  3
ISM
 90
        0
280
     0
281
     0
  0
ENDSEC
  0
SECTION
  2
TABLES
  0
TABLE
  2
VPORT
  5
8
330
0
100
AcDbSymbolTable
 70
     1
  0
VPORT
  5
29
330
8
100
AcDbSymbolTableRecord
100
AcDbViewportTableRecord
  2
*Active
 70
     0
 10
0.0
 20
0.0
 11
1.0
 21
1.0
 12
-1.816255489247524
 22
7.208759636064654
 13
0.0
 23
0.0
 14
10.0
 24
10.0
 15
10.0
 25
10.0
 16
0.0
 26
0.0
 36
1.0
 17
0.0
 27
0.0
 37
0.0
 40
127.0099426016234
 41
1.519944979367263
 42
50.0
 43
0.0
 44
0.0
 50
0.0
 51
0.0
 71
    16
 72
  2000
 73
     1
 74
     3
 75
     0
 76
     0
 77
     0
 78
     0
281
     0
 65
     1
110
0.0
120
0.0
130
0.0
111
1.0
121
0.0
131
0.0
112
0.0
122
1.0
132
0.0
 79
     0
146
0.0
  0
ENDTAB
  0
TABLE
  2
LTYPE
  5
5
330
0
100
AcDbSymbolTable
 70
     6
  0
LTYPE
  5
14
330
5
100
AcDbSymbolTableRecord
100
AcDbLinetypeTableRecord
  2
ByBlock
 70
     0
  3

 72
    65
 73
     0
 40
0.0
  0
LTYPE
  5
15
330
5
100
AcDbSymbolTableRecord
100
AcDbLinetypeTableRecord
  2
ByLayer
 70
     0
  3

 72
    65
 73
     0
 40
0.0
  0
LTYPE
  5
16
330
5
100
AcDbSymbolTableRecord
100
AcDbLinetypeTableRecord
  2
Continuous
 70
     0
  3
Solid line
 72
    65
 73
     0
 40
0.0
  0
LTYPE
  5
6A
330
5
100
AcDbSymbolTableRecord
100
AcDbLinetypeTableRecord
  2
HIDDEN
 70
     0
  3
Hidden __ __ __ __ __ __ __ __ __ __ __ __ __ __
 72
    65
 73
     2
 40
1.905
 49
1.27
 74
     0
 49
-0.635
 74
     0
  0
LTYPE
  5
6B
330
5
100
AcDbSymbolTableRecord
100
AcDbLinetypeTableRecord
  2
PHANTOM
 70
     0
  3
Phantom ______  __  __  ______  __  __  ______
 72
    65
 73
     6
 40
12.7
 49
6.35
 74
     0
 49
-1.27
 74
     0
 49
1.27
 74
     0
 49
-1.27
 74
     0
 49
1.27
 74
     0
 49
-1.27
 74
     0
  0
LTYPE
  5
6C
330
5
100
AcDbSymbolTableRecord
100
AcDbLinetypeTableRecord
  2
CENTER
 70
     0
  3
Center ____ _ ____ _ ____ _ ____ _ ____ _ ____
 72
    65
 73
     4
 40
10.16
 49
6.35
 74
     0
 49
-1.27
 74
     0
 49
1.27
 74
     0
 49
-1.27
 74
     0
  0
LTYPE
  5
6D
330
5
100
AcDbSymbolTableRecord
100
AcDbLinetypeTableRecord
  2
CENTERX2
 70
     0
  3
Center (2x) ________  __  ________  __  _____
 72
    65
 73
     4
 40
20.32
 49
12.7
 74
     0
 49
-2.54
 74
     0
 49
2.54
 74
     0
 49
-2.54
 74
     0
  0
LTYPE
  5
6E
330
5
100
AcDbSymbolTableRecord
100
AcDbLinetypeTableRecord
  2
DOT2
 70
     0
  3
Dot (.5x) ........................................
 72
    65
 73
     2
 40
0.635
 49
0.0
 74
     0
 49
-0.635
 74
     0
  0
ENDTAB
  0
TABLE
  2
LAYER
  5
2
102
{ACAD_XDICTIONARY
360
182
102
}
330
0
100
AcDbSymbolTable
 70
    18
  0
LAYER
  5
10
330
2
100
AcDbSymbolTableRecord
100
AcDbLayerTableRecord
  2
0
 70
     0
 62
     7
  6
Continuous
370
    -3
390
F
  0
LAYER
  5
6F
330
2
100
AcDbSymbolTableRecord
100
AcDbLayerTableRecord
  2
FORMAT
 70
     0
 62
     2
  6
Continuous
370
    -3
390
F
  0
LAYER
  5
70
330
2
100
AcDbSymbolTableRecord
100
AcDbLayerTableRecord
  2
외형선
 70
     0
 62
     4
  6
Continuous
370
    30
390
F
  0
LAYER
  5
71
330
2
100
AcDbSymbolTableRecord
100
AcDbLayerTableRecord
  2
숨은선
 70
     0
 62
     2
  6
HIDDEN
370
    15
390
F
  0
LAYER
  5
72
330
2
100
AcDbSymbolTableRecord
100
AcDbLayerTableRecord
  2
중심선
 70
     0
 62
     1
  6
CENTERX2
370
    -3
390
F
  0
LAYER
  5
73
330
2
100
AcDbSymbolTableRecord
100
AcDbLayerTableRecord
  2
파단선
 70
     0
 62
     4
  6
Continuous
370
    -3
390
F
  0
LAYER
  5
74
330
2
100
AcDbSymbolTableRecord
100
AcDbLayerTableRecord
  2
해칭선
 70
     0
 62
   100
  6
Continuous
370
    -3
390
F
  0
LAYER
  5
75
330
2
100
AcDbSymbolTableRecord
100
AcDbLayerTableRecord
  2
가는실선
 70
     0
 62
     4
  6
Continuous
370
    -3
390
F
  0
LAYER
  5
76
330
2
100
AcDbSymbolTableRecord
100
AcDbLayerTableRecord
  2
치수_보조선
 70
     0
 62
     4
  6
Continuous
370
    -3
390
F
  0
LAYER
  5
77
330
2
100
AcDbSymbolTableRecord
100
AcDbLayerTableRecord
  2
치수문자_일반주서
 70
     0
 62
     7
  6
Continuous
370
    15
390
F
  0
LAYER
  5
78
330
2
100
AcDbSymbolTableRecord
100
AcDbLayerTableRecord
  2
개별주서
 70
     0
 62
   100
  6
Continuous
370
    30
390
F
  0
LAYER
  5
79
330
2
100
AcDbSymbolTableRecord
100
AcDbLayerTableRecord
  2
중간선
 70
     0
 62
     2
  6
Continuous
370
    15
390
F
  0
LAYER
  5
7A
330
2
100
AcDbSymbolTableRecord
100
AcDbLayerTableRecord
  2
윤곽선
 70
     0
 62
     3
  6
Continuous
370
    40
390
F
  0
LAYER
  5
7B
330
2
100
AcDbSymbolTableRecord
100
AcDbLayerTableRecord
  2
중심마크
 70
     0
 62
   100
  6
Continuous
370
    30
390
F
  0
LAYER
  5
7C
330
2
100
AcDbSymbolTableRecord
100
AcDbLayerTableRecord
  2
가상선
 70
     0
 62
     4
  6
PHANTOM
370
    -3
390
F
  0
LAYER
  5
7D
330
2
100
AcDbSymbolTableRecord
100
AcDbLayerTableRecord
  2
특수지정선
 70
     0
 62
     5
  6
CENTERX2
370
    60
390
F
  0
LAYER
  5
7E
330
2
100
AcDbSymbolTableRecord
100
AcDbLayerTableRecord
  2
참조1
 70
     0
 62
    -4
  6
Continuous
370
    -3
390
F
  0
LAYER
  5
18B
330
2
100
AcDbSymbolTableRecord
100
AcDbLayerTableRecord
  2
Defpoints
 70
     0
 62
     7
  6
Continuous
290
     0
370
    -3
390
F
  0
ENDTAB
  0
TABLE
  2
STYLE
  5
3
330
0
100
AcDbSymbolTable
 70
     2
  0
STYLE
  5
11
330
3
100
AcDbSymbolTableRecord
100
AcDbTextStyleTableRecord
  2
Standard
 70
     0
 40
0.0
 41
1.0
 50
0.0
 71
     0
 42
3.5
  3
txt
  4

  0
STYLE
  5
94
330
3
100
AcDbSymbolTableRecord
100
AcDbTextStyleTableRecord
  2
SLDTEXTSTYLE0
 70
     0
 40
0.0
 41
0.75
 50
0.0
 71
     0
 42
3.5
  3
TXT
  4

  0
ENDTAB
  0
TABLE
  2
VIEW
  5
6
330
0
100
AcDbSymbolTable
 70
     0
  0
ENDTAB
  0
TABLE
  2
UCS
  5
7
330
0
100
AcDbSymbolTable
 70
     0
  0
ENDTAB
  0
TABLE
  2
APPID
  5
9
330
0
100
AcDbSymbolTable
 70
     3
  0
APPID
  5
12
330
9
100
AcDbSymbolTableRecord
100
AcDbRegAppTableRecord
  2
ACAD
 70
     0
  0
APPID
  5
197
330
9
100
AcDbSymbolTableRecord
100
AcDbRegAppTableRecord
  2
PE_URL
 70
     0
  0
APPID
  5
198
330
9
100
AcDbSymbolTableRecord
100
AcDbRegAppTableRecord
  2
ACAD_DSTYLE_DIMRADIAL_EXTENSION
 70
     0
  0
ENDTAB
  0
TABLE
  2
DIMSTYLE
  5
A
330
0
100
AcDbSymbolTable
 70
     4
100
AcDbDimStyleTable
  0
DIMSTYLE
105
27
330
A
100
AcDbSymbolTableRecord
100
AcDbDimStyleTableRecord
  2
ISO-25
 70
     0
 41
2.5
 42
0.625
 43
3.75
 44
1.25
 73
     0
 74
     0
 77
     1
 78
     8
140
2.5
141
2.5
143
0.03937007874016
147
0.625
171
     3
172
     1
178
     0
271
     2
272
     2
274
     3
278
    44
283
     0
284
     8
340
11
  0
DIMSTYLE
105
DB
102
{ACAD_REACTORS
330
DA
330
EF
330
103
330
118
102
}
330
A
100
AcDbSymbolTableRecord
100
AcDbDimStyleTableRecord
  2
SLDDIMSTYLE0
 70
     0
 41
3.302
 44
0.0
 45
0.000000001
 73
     0
 74
     0
 77
     1
 78
    12
 79
     3
140
3.5
143
0.0393700787401575
147
0.875
148
0.000000001
170
     1
172
     1
173
     1
178
     0
271
     2
272
     2
276
     2
284
    12
289
     0
340
94
  0
DIMSTYLE
105
104
102
{ACAD_REACTORS
102
}
330
A
100
AcDbSymbolTableRecord
100
AcDbDimStyleTableRecord
  2
SLDDIMSTYLE1
 70
     0
 41
3.302
 44
0.0
 45
0.000000001
 73
     0
 74
     0
 77
     1
 78
    12
 79
     3
140
3.5
143
0.0393700787401575
147
0.875
148
0.000000001
170
     1
173
     1
178
     0
271
     2
272
     2
276
     2
284
    12
340
94
  0
DIMSTYLE
105
196
102
{ACAD_REACTORS
102
}
330
A
100
AcDbSymbolTableRecord
100
AcDbDimStyleTableRecord
  2
SLDDIMSTYLE2
 70
     0
 41
3.302
 44
0.0
 45
0.000000001
 73
     0
 74
     0
 77
     1
 78
    12
 79
     3
140
3.5
147
0.875
172
     1
173
     1
178
     0
271
     2
272
     2
276
     2
284
    12
289
     0
340
94
  0
ENDTAB
  0
TABLE
  2
BLOCK_RECORD
  5
1
330
0
100
AcDbSymbolTable
 70
    20
  0
BLOCK_RECORD
  5
1F
102
{ACAD_XDICTIONARY
360
382
102
}
330
1
100
AcDbSymbolTableRecord
100
AcDbBlockTableRecord
  2
*Model_Space
340
22
  0
BLOCK_RECORD
  5
1B
330
1
100
AcDbSymbolTableRecord
100
AcDbBlockTableRecord
  2
*Paper_Space
340
1E
  0
BLOCK_RECORD
  5
23
330
1
100
AcDbSymbolTableRecord
100
AcDbBlockTableRecord
  2
*Paper_Space0
340
26
  0
BLOCK_RECORD
  5
7F
330
1
100
AcDbSymbolTableRecord
100
AcDbBlockTableRecord
  2
블럭10
340
0
102
{BLKREFS
331
D3
102
}
  0
BLOCK_RECORD
  5
DC
330
1
100
AcDbSymbolTableRecord
100
AcDbBlockTableRecord
  2
_D
340
0
  0
BLOCK_RECORD
  5
F0
330
1
100
AcDbSymbolTableRecord
100
AcDbBlockTableRecord
  2
_D_1
340
0
  0
BLOCK_RECORD
  5
105
330
1
100
AcDbSymbolTableRecord
100
AcDbBlockTableRecord
  2
_D_2
340
0
  0
BLOCK_RECORD
  5
119
330
1
100
AcDbSymbolTableRecord
100
AcDbBlockTableRecord
  2
_D_3
340
0
  0
BLOCK_RECORD
  5
132
330
1
100
AcDbSymbolTableRecord
100
AcDbBlockTableRecord
  2
SW_DOWELSYMBOL_0
340
0
102
{BLKREFS
331
138
102
}
  0
BLOCK_RECORD
  5
221
330
1
100
AcDbSymbolTableRecord
100
AcDbBlockTableRecord
  2
_D_4
340
0
  0
BLOCK_RECORD
  5
23B
330
1
100
AcDbSymbolTableRecord
100
AcDbBlockTableRecord
  2
*D8
340
0
  0
BLOCK_RECORD
  5
245
330
1
100
AcDbSymbolTableRecord
100
AcDbBlockTableRecord
  2
*D9
340
0
  0
BLOCK_RECORD
  5
251
330
1
100
AcDbSymbolTableRecord
100
AcDbBlockTableRecord
  2
*D10
340
0
  0
BLOCK_RECORD
  5
25D
330
1
100
AcDbSymbolTableRecord
100
AcDbBlockTableRecord
  2
*D11
340
0
  0
BLOCK_RECORD
  5
2B8
330
1
100
AcDbSymbolTableRecord
100
AcDbBlockTableRecord
  2
*D12
340
0
  0
BLOCK_RECORD
  5
2C4
330
1
100
AcDbSymbolTableRecord
100
AcDbBlockTableRecord
  2
*D13
340
0
  0
BLOCK_RECORD
  5
2D0
330
1
100
AcDbSymbolTableRecord
100
AcDbBlockTableRecord
  2
*D14
340
0
  0
BLOCK_RECORD
  5
2DE
330
1
100
AcDbSymbolTableRecord
100
AcDbBlockTableRecord
  2
*D15
340
0
  0
BLOCK_RECORD
  5
2EC
330
1
100
AcDbSymbolTableRecord
100
AcDbBlockTableRecord
  2
*D16
340
0
  0
BLOCK_RECORD
  5
331
330
1
100
AcDbSymbolTableRecord
100
AcDbBlockTableRecord
  2
*D17
340
0
  0
BLOCK_RECORD
  5
340
330
1
100
AcDbSymbolTableRecord
100
AcDbBlockTableRecord
  2
*D18
340
0
  0
BLOCK_RECORD
  5
34F
330
1
100
AcDbSymbolTableRecord
100
AcDbBlockTableRecord
  2
*D19
340
0
  0
ENDTAB
  0
ENDSEC
  0
SECTION
  2
BLOCKS
  0
BLOCK
  5
20
330
1F
100
AcDbEntity
  8
0
100
AcDbBlockBegin
  2
*Model_Space
 70
     0
 10
0.0
 20
0.0
 30
0.0
  3
*Model_Space
  1
*Model_Space
  0
ENDBLK
  5
21
330
1F
100
AcDbEntity
  8
0
100
AcDbBlockEnd
  0
BLOCK
  5
1C
330
1B
100
AcDbEntity
 67
     1
  8
0
100
AcDbBlockBegin
  2
*Paper_Space
 70
     0
 10
0.0
 20
0.0
 30
0.0
  3
*Paper_Space
  1
*Paper_Space
  0
ENDBLK
  5
1D
330
1B
100
AcDbEntity
 67
     1
  8
0
100
AcDbBlockEnd
  0
BLOCK
  5
24
330
23
100
AcDbEntity
  8
0
100
AcDbBlockBegin
  2
*Paper_Space0
 70
     0
 10
0.0
 20
0.0
 30
0.0
  3
*Paper_Space0
  1
*Paper_Space0
  0
ENDBLK
  5
25
330
23
100
AcDbEntity
  8
0
100
AcDbBlockEnd
  0
BLOCK
  5
80
330
7F
100
AcDbEntity
  8
0
100
AcDbBlockBegin
  2
블럭10
 70
     2
 10
0.0
 20
0.0
 30
0.0
  3
블럭10
  1
블럭10
  0
ELLIPSE
  5
82
330
7F
100
AcDbEntity
  8
중심선
100
AcDbEllipse
 10
20.54032771741204
 20
12.0471743016438
 30
0.0
 11
6.600054785286829
 21
-1.261213355974178E-13
 31
0.0
210
0.0
220
0.0
230
1.0
 40
0.636358354079598
 41
0.9219305317359503
 42
6.513795318482858
  0
ELLIPSE
  5
83
330
7F
100
AcDbEntity
  8
중심선
100
AcDbEllipse
 10
20.54032771746488
 20
12.04717430159265
 30
0.0
 11
3.960054785062283
 21
1.540847449632565E-10
 31
0.0
210
0.0
220
0.0
230
1.0
 40
0.3939339440162632
 41
1.131841032648279
 42
5.62031148352944
  0
LINE
  5
84
330
7F
100
AcDbEntity
  8
중심선
100
AcDbLine
 10
2.268634060543552
 20
16.24717430164393
 30
0.0
 11
5.714909304380834
 21
16.24717430164393
 31
0.0
  0
LINE
  5
85
330
7F
100
AcDbEntity
  8
중심선
100
AcDbLine
 10
5.245725140726316
 20
7.84717430164391
 30
0.0
 11
8.692000384563599
 21
7.84717430164391
 31
0.0
  0
LINE
  5
86
330
7F
100
AcDbEntity
  8
중심선
100
AcDbLine
 10
15.74043728645272
 20
16.24717430164393
 30
0.0
 11
8.692000384563599
 21
7.84717430164391
 31
0.0
  0
LINE
  5
87
330
7F
100
AcDbEntity
  8
중심선
100
AcDbLine
 10
0.1404042013395286
 20
13.71084872107135
 30
0.0
 11
3.58671253028996
 21
13.71088815037384
 31
0.0
  0
LINE
  5
88
330
7F
100
AcDbEntity
  8
중심선
100
AcDbLine
 10
2.750260043222114
 20
10.84717430164391
 30
0.0
 11
6.196535287059397
 21
10.84717430164391
 31
0.0
  0
LINE
  5
89
330
7F
100
AcDbEntity
  8
중심선
100
AcDbLine
 10
12.29416204261559
 20
16.24717430164393
 30
0.0
 11
5.245725140726316
 21
7.84717430164391
 31
0.0
  0
LINE
  5
8A
330
7F
100
AcDbEntity
  8
중심선
100
AcDbLine
 10
10.72767329541681
 20
16.24717430164393
 30
0.0
 11
6.196535287059397
 21
10.84717430164391
 31
0.0
  0
LINE
  5
8B
330
7F
100
AcDbEntity
  8
중심선
100
AcDbLine
 10
7.28139805157953
 20
16.24717430164393
 30
0.0
 11
2.750260043222114
 21
10.84717430164391
 31
0.0
  0
LINE
  5
8C
330
7F
100
AcDbEntity
  8
중심선
100
AcDbLine
 10
5.714909304380834
 20
16.24717430164393
 30
0.0
 11
3.58671253028996
 21
13.71088815037384
 31
0.0
  0
LINE
  5
8D
330
7F
100
AcDbEntity
  8
중심선
100
AcDbLine
 10
2.268634060543552
 20
16.24717430164393
 30
0.0
 11
0.1404042013395286
 21
13.71084872107135
 31
0.0
  0
LINE
  5
8E
330
7F
100
AcDbEntity
  8
중심선
100
AcDbLine
 10
7.28139805157953
 20
16.24717430164393
 30
0.0
 11
10.72767329541681
 21
16.24717430164393
 31
0.0
  0
LINE
  5
8F
330
7F
100
AcDbEntity
  8
중심선
100
AcDbLine
 10
12.29416204261559
 20
16.24717430164393
 30
0.0
 11
15.74043728645272
 21
16.24717430164393
 31
0.0
  0
LINE
  5
90
330
7F
100
AcDbEntity
  8
중심선
100
AcDbLine
 10
19.22036997980202
 20
11.08717430171403
 30
0.0
 11
23.66174974927406
 21
11.08717430171406
 31
0.0
  0
LINE
  5
91
330
7F
100
AcDbEntity
  8
중심선
100
AcDbLine
 10
19.22039502424796
 20
13.00717430171391
 30
0.0
 11
19.22036997980202
 21
11.08717430171403
 31
0.0
  0
LINE
  5
92
330
7F
100
AcDbEntity
  8
중심선
100
AcDbLine
 10
19.22039502424796
 20
13.00717430171391
 30
0.0
 11
26.96566020931264
 21
13.00717430171391
 31
0.0
  0
LINE
  5
93
330
7F
100
AcDbEntity
  8
중심선
100
AcDbLine
 10
22.22332737316547
 20
13.45928029700563
 30
0.0
 11
24.52862924686651
 21
15.39360700705356
 31
0.0
  0
ATTDEF
  5
95
330
7F
100
AcDbEntity
  8
FORMAT
 62
     2
100
AcDbText
 10
4.408487351596664
 20
2.075366912832191
 30
0.0
 40
4.233333333333333
  1
E5025018
 41
0.75
  7
SLDTEXTSTYLE0
 11
4.408487351596664
 21
-0.0412997538344756
 31
0.0
100
AcDbAttributeDefinition
  3

  2
AUTOATTR0
 70
     0
 74
     1
  0
ENDBLK
  5
81
330
7F
100
AcDbEntity
  8
0
100
AcDbBlockEnd
  0
BLOCK
  5
DD
330
DC
100
AcDbEntity
  8
0
100
AcDbBlockBegin
  2
_D
 70
     0
 10
0.0
 20
0.0
 30
0.0
  3
_D
  1
_D
  0
LINE
  5
DF
330
DC
100
AcDbEntity
  8
치수문자_일반주서
 62
     0
370
    -2
100
AcDbLine
 10
-20.0190270072383
 20
4.762499999999993
 30
0.0
 11
-53.20081169322352
 21
4.762499999999868
 31
0.0
  0
LINE
  5
E0
330
DC
100
AcDbEntity
  8
치수문자_일반주서
 62
     0
370
    -2
100
AcDbLine
 10
-20.0190270072383
 20
-4.762500000000009
 30
0.0
 11
-53.20081169322349
 21
-4.762500000000134
 31
0.0
  0
LINE
  5
E1
330
DC
100
AcDbEntity
  8
치수문자_일반주서
 62
     0
370
    -2
100
AcDbLine
 10
-53.20081169322352
 20
4.762499999999868
 30
0.0
 11
-53.20081169322364
 21
37.83524999999996
 31
0.0
  0
LINE
  5
E2
330
DC
100
AcDbEntity
  8
치수문자_일반주서
 62
     0
370
    -2
100
AcDbLine
 10
-53.20081169322352
 20
4.762499999999868
 30
0.0
 11
-53.20081169322349
 21
-4.762500000000134
 31
0.0
  0
LINE
  5
E3
330
DC
100
AcDbEntity
  8
치수문자_일반주서
 62
     0
370
    -2
100
AcDbLine
 10
-53.20081169322354
 20
8.064499999999867
 30
0.0
 11
-53.20081169322355
 21
11.36649999999987
 31
0.0
  0
LINE
  5
E4
330
DC
100
AcDbEntity
  8
치수문자_일반주서
 62
     0
370
    -2
100
AcDbLine
 10
-53.20081169322347
 20
-8.064500000000134
 30
0.0
 11
-53.20081169322346
 21
-11.36650000000013
 31
0.0
  0
SOLID
  5
E5
330
DC
100
AcDbEntity
  8
치수문자_일반주서
 62
     0
100
AcDbTrace
 10
-53.75114502655687
 20
8.064499999999866
 30
0.0
 11
-52.6504783598902
 21
8.06449999999987
 31
0.0
 12
-53.20081169322352
 22
4.762499999999868
 32
0.0
 13
-53.20081169322352
 23
4.762499999999868
 33
0.0
  0
SOLID
  5
E6
330
DC
100
AcDbEntity
  8
치수문자_일반주서
 62
     0
100
AcDbTrace
 10
-52.65047835989014
 20
-8.064500000000132
 30
0.0
 11
-53.75114502655681
 21
-8.064500000000136
 31
0.0
 12
-53.20081169322349
 22
-4.762500000000134
 32
0.0
 13
-53.20081169322349
 23
-4.762500000000134
 33
0.0
  0
MTEXT
  5
E7
330
DC
100
AcDbEntity
  8
치수문자_일반주서
 62
     0
100
AcDbMText
 10
-57.57581169322359
 20
24.71024999999995
 30
0.0
 40
3.5
 41
0.0
 71
     2
 72
     1
  1
\A1;%%c9.53 [3/8]
  7
SLDTEXTSTYLE0
 11
-3.729883127349606E-15
 21
1.0
 31
0.0
 73
     1
 44
1.0
  0
POINT
  5
2F6
330
DC
100
AcDbEntity
  8
Defpoints
 62
     0
100
AcDbPoint
 10
-19.9565270072383
 20
4.762499999999993
 30
0.0
  0
POINT
  5
2F8
330
DC
100
AcDbEntity
  8
Defpoints
 62
     0
100
AcDbPoint
 10
-19.9565270072383
 20
-4.762500000000009
 30
0.0
  0
POINT
  5
2F9
330
DC
100
AcDbEntity
  8
Defpoints
 62
     0
100
AcDbPoint
 10
-53.20081169322349
 20
-4.762500000000133
 30
0.0
  0
ENDBLK
  5
DE
330
DC
100
AcDbEntity
  8
0
100
AcDbBlockEnd
  0
BLOCK
  5
F1
330
F0
100
AcDbEntity
  8
0
100
AcDbBlockBegin
  2
_D_1
 70
     0
 10
0.0
 20
0.0
 30
0.0
  3
_D_1
  1
_D_1
  0
LINE
  5
F3
330
F0
100
AcDbEntity
  8
치수문자_일반주서
 62
     0
370
    -2
100
AcDbLine
 10
42.92500000000002
 20
-3.568856105648384
 30
0.0
 11
56.53749210439505
 21
-3.568856105648333
 31
0.0
  0
LINE
  5
F4
330
F0
100
AcDbEntity
  8
치수문자_일반주서
 62
     0
370
    -2
100
AcDbLine
 10
42.92500000000002
 20
3.568856105648384
 30
0.0
 11
56.53749210439502
 21
3.568856105648432
 31
0.0
  0
LINE
  5
F5
330
F0
100
AcDbEntity
  8
치수문자_일반주서
 62
     0
370
    -2
100
AcDbLine
 10
56.53749210439502
 20
3.568856105648432
 30
0.0
 11
56.53749210439488
 21
38.17285610564844
 31
0.0
  0
LINE
  5
F6
330
F0
100
AcDbEntity
  8
치수문자_일반주서
 62
     0
370
    -2
100
AcDbLine
 10
56.53749210439505
 20
-3.568856105648333
 30
0.0
 11
56.53749210439502
 21
3.568856105648432
 31
0.0
  0
LINE
  5
F7
330
F0
100
AcDbEntity
  8
치수문자_일반주서
 62
     0
370
    -2
100
AcDbLine
 10
56.53749210439506
 20
-6.870856105648333
 30
0.0
 11
56.53749210439508
 21
-10.17285610564833
 31
0.0
  0
LINE
  5
F8
330
F0
100
AcDbEntity
  8
치수문자_일반주서
 62
     0
370
    -2
100
AcDbLine
 10
56.53749210439501
 20
6.870856105648432
 30
0.0
 11
56.53749210439499
 21
10.17285610564843
 31
0.0
  0
SOLID
  5
F9
330
F0
100
AcDbEntity
  8
치수문자_일반주서
 62
     0
100
AcDbTrace
 10
57.0878254377284
 20
-6.870856105648331
 30
0.0
 11
55.98715877106173
 21
-6.870856105648334
 31
0.0
 12
56.53749210439505
 22
-3.568856105648333
 32
0.0
 13
56.53749210439505
 23
-3.568856105648333
 33
0.0
  0
SOLID
  5
FA
330
F0
100
AcDbEntity
  8
치수문자_일반주서
 62
     0
100
AcDbTrace
 10
55.98715877106167
 20
6.87085610564843
 30
0.0
 11
57.08782543772834
 21
6.870856105648434
 31
0.0
 12
56.53749210439502
 22
3.568856105648432
 32
0.0
 13
56.53749210439502
 23
3.568856105648432
 33
0.0
  0
MTEXT
  5
FB
330
F0
100
AcDbEntity
  8
치수문자_일반주서
 62
     0
100
AcDbMText
 10
52.16249210439494
 20
24.17285610564841
 30
0.0
 40
3.5
 41
0.0
 71
     2
 72
     1
  1
\A1;%%c7.14 [9/32]
  7
SLDTEXTSTYLE0
 11
-3.981907450039989E-15
 21
1.0
 31
0.0
 73
     1
 44
1.0
  0
POINT
  5
FC
330
F0
100
AcDbEntity
  8
Defpoints
 62
     0
100
AcDbPoint
 10
42.86250000000002
 20
-3.568856105648385
 30
0.0
  0
POINT
  5
FD
330
F0
100
AcDbEntity
  8
Defpoints
 62
     0
100
AcDbPoint
 10
42.86250000000002
 20
3.568856105648383
 30
0.0
  0
POINT
  5
FE
330
F0
100
AcDbEntity
  8
Defpoints
 62
     0
100
AcDbPoint
 10
56.53749210439502
 20
3.568856105648434
 30
0.0
  0
ENDBLK
  5
F2
330
F0
100
AcDbEntity
  8
0
100
AcDbBlockEnd
  0
BLOCK
  5
106
330
105
100
AcDbEntity
  8
0
100
AcDbBlockBegin
  2
_D_2
 70
     0
 10
0.0
 20
0.0
 30
0.0
  3
_D_2
  1
_D_2
  0
LINE
  5
108
330
105
100
AcDbEntity
  8
치수문자_일반주서
 62
     0
370
    -2
100
AcDbLine
 10
42.86250000000002
 20
3.631356105648383
 30
0.0
 11
42.86250000000002
 21
20.20336297407724
 31
0.0
  0
LINE
  5
109
330
105
100
AcDbEntity
  8
치수문자_일반주서
 62
     0
370
    -2
100
AcDbLine
 10
25.40000000000001
 20
3.634374999999999
 30
0.0
 11
25.40000000000001
 21
20.20336297407724
 31
0.0
  0
LINE
  5
10A
330
105
100
AcDbEntity
  8
치수문자_일반주서
 62
     0
370
    -2
100
AcDbLine
 10
25.40000000000001
 20
20.20336297407724
 30
0.0
 11
-9.203999999999994
 21
20.20336297407724
 31
0.0
  0
LINE
  5
10B
330
105
100
AcDbEntity
  8
치수문자_일반주서
 62
     0
370
    -2
100
AcDbLine
 10
42.86250000000002
 20
20.20336297407724
 30
0.0
 11
25.40000000000001
 21
20.20336297407724
 31
0.0
  0
LINE
  5
10C
330
105
100
AcDbEntity
  8
치수문자_일반주서
 62
     0
370
    -2
100
AcDbLine
 10
46.16450000000002
 20
20.20336297407724
 30
0.0
 11
49.46650000000002
 21
20.20336297407724
 31
0.0
  0
LINE
  5
10D
330
105
100
AcDbEntity
  8
치수문자_일반주서
 62
     0
370
    -2
100
AcDbLine
 10
22.09800000000001
 20
20.20336297407724
 30
0.0
 11
18.79600000000001
 21
20.20336297407724
 31
0.0
  0
SOLID
  5
10E
330
105
100
AcDbEntity
  8
치수문자_일반주서
 62
     0
100
AcDbTrace
 10
46.16450000000002
 20
20.75369630741057
 30
0.0
 11
46.16450000000002
 21
19.6530296407439
 31
0.0
 12
42.86250000000002
 22
20.20336297407724
 32
0.0
 13
42.86250000000002
 23
20.20336297407724
 33
0.0
  0
SOLID
  5
10F
330
105
100
AcDbEntity
  8
치수문자_일반주서
 62
     0
100
AcDbTrace
 10
22.09800000000001
 20
19.6530296407439
 30
0.0
 11
22.09800000000001
 21
20.75369630741057
 31
0.0
 12
25.40000000000001
 22
20.20336297407724
 32
0.0
 13
25.40000000000001
 23
20.20336297407724
 33
0.0
  0
MTEXT
  5
110
330
105
100
AcDbEntity
  8
치수문자_일반주서
 62
     0
100
AcDbMText
 10
4.796000000000006
 20
24.57836297407724
 30
0.0
 40
3.5
 41
0.0
 71
     2
 72
     1
  1
\A1;17.46 [11/16]
  7
SLDTEXTSTYLE0
 73
     1
 44
1.0
  0
POINT
  5
111
330
105
100
AcDbEntity
  8
Defpoints
 62
     0
100
AcDbPoint
 10
42.86250000000002
 20
3.568856105648383
 30
0.0
  0
POINT
  5
112
330
105
100
AcDbEntity
  8
Defpoints
 62
     0
100
AcDbPoint
 10
25.40000000000001
 20
3.571874999999999
 30
0.0
  0
POINT
  5
113
330
105
100
AcDbEntity
  8
Defpoints
 62
     0
100
AcDbPoint
 10
25.40000000000001
 20
20.20336297407724
 30
0.0
  0
ENDBLK
  5
107
330
105
100
AcDbEntity
  8
0
100
AcDbBlockEnd
  0
BLOCK
  5
11A
330
119
100
AcDbEntity
  8
0
100
AcDbBlockBegin
  2
_D_3
 70
     0
 10
0.0
 20
0.0
 30
0.0
  3
_D_3
  1
_D_3
  0
LINE
  5
11C
330
119
100
AcDbEntity
  8
치수문자_일반주서
 62
     0
370
    -2
100
AcDbLine
 10
-42.86249999999999
 20
3.63135610564838
 30
0.0
 11
-42.86249999999999
 21
38.38250000000002
 31
0.0
  0
LINE
  5
11D
330
119
100
AcDbEntity
  8
치수문자_일반주서
 62
     0
370
    -2
100
AcDbLine
 10
42.86250000000002
 20
3.631356105648383
 30
0.0
 11
42.86250000000002
 21
38.38250000000002
 31
0.0
  0
LINE
  5
11E
330
119
100
AcDbEntity
  8
치수문자_일반주서
 62
     0
370
    -2
100
AcDbLine
 10
-39.56049999999999
 20
38.38250000000002
 30
0.0
 11
39.56050000000002
 21
38.38250000000002
 31
0.0
  0
SOLID
  5
11F
330
119
100
AcDbEntity
  8
치수문자_일반주서
 62
     0
100
AcDbTrace
 10
-39.56049999999999
 20
38.93283333333336
 30
0.0
 11
-39.56049999999999
 21
37.83216666666669
 31
0.0
 12
-42.86249999999999
 22
38.38250000000002
 32
0.0
 13
-42.86249999999999
 23
38.38250000000002
 33
0.0
  0
SOLID
  5
120
330
119
100
AcDbEntity
  8
치수문자_일반주서
 62
     0
100
AcDbTrace
 10
39.56050000000002
 20
37.83216666666669
 30
0.0
 11
39.56050000000002
 21
38.93283333333336
 31
0.0
 12
42.86250000000002
 22
38.38250000000002
 32
0.0
 13
42.86250000000002
 23
38.38250000000002
 33
0.0
  0
MTEXT
  5
121
330
119
100
AcDbEntity
  8
치수문자_일반주서
 62
     0
100
AcDbMText
 10
0.000000000000016
 20
42.75750000000002
 30
0.0
 40
3.5
 41
0.0
 71
     2
 72
     1
  1
\A1;85.73 [3 3/8]
  7
SLDTEXTSTYLE0
 73
     1
 44
1.0
  0
POINT
  5
122
330
119
100
AcDbEntity
  8
Defpoints
 62
     0
100
AcDbPoint
 10
-42.86249999999999
 20
3.56885610564838
 30
0.0
  0
POINT
  5
123
330
119
100
AcDbEntity
  8
Defpoints
 62
     0
100
AcDbPoint
 10
42.86250000000002
 20
3.568856105648383
 30
0.0
  0
POINT
  5
124
330
119
100
AcDbEntity
  8
Defpoints
 62
     0
100
AcDbPoint
 10
42.86250000000002
 20
38.38250000000002
 30
0.0
  0
ENDBLK
  5
11B
330
119
100
AcDbEntity
  8
0
100
AcDbBlockEnd
  0
BLOCK
  5
133
330
132
100
AcDbEntity
  8
0
100
AcDbBlockBegin
  2
SW_DOWELSYMBOL_0
 70
     0
 10
0.0
 20
0.0
 30
0.0
  3
SW_DOWELSYMBOL_0
  1
SW_DOWELSYMBOL_0
  0
CIRCLE
  5
135
330
132
100
AcDbEntity
  8
해칭선
 62
     0
100
AcDbCircle
 10
0.0
 20
0.0
 30
0.0
 40
3.000000000000001
  0
HATCH
  5
136
330
132
100
AcDbEntity
  8
0
  6
Continuous
 62
     0
370
     0
100
AcDbHatch
 10
0.0
 20
0.0
 30
0.0
210
0.0
220
0.0
230
1.0
  2
SOLID
 70
     1
 71
     0
 91
        1
 92
        0
 93
        3
 72
     2
 10
0.0
 20
0.0
 40
3.000000000000001
 50
0.0
 51
90.0
 73
     1
 72
     1
 10
0.0
 20
3.000000000000001
 11
0.0
 21
0.0
 72
     1
 10
0.0
 20
0.0
 11
3.000000000000001
 21
0.0
 97
        0
 75
     0
 76
     1
 98
        1
 10
0.0
 20
0.0
  0
HATCH
  5
137
330
132
100
AcDbEntity
  8
0
  6
Continuous
 62
     0
370
     0
100
AcDbHatch
 10
0.0
 20
0.0
 30
0.0
210
0.0
220
0.0
230
1.0
  2
SOLID
 70
     1
 71
     0
 91
        1
 92
        0
 93
        3
 72
     2
 10
0.0
 20
0.0
 40
3.000000000000001
 50
180.0
 51
270.0000000000007
 73
     1
 72
     1
 10
0.0
 20
-3.000000000000001
 11
0.0
 21
0.0
 72
     1
 10
0.0
 20
0.0
 11
-3.000000000000001
 21
0.0
 97
        0
 75
     0
 76
     1
 98
        1
 10
0.0
 20
0.0
  0
ENDBLK
  5
134
330
132
100
AcDbEntity
  8
0
100
AcDbBlockEnd
  0
BLOCK
  5
222
330
221
100
AcDbEntity
  8
0
100
AcDbBlockBegin
  2
_D_4
 70
     0
 10
0.0
 20
0.0
 30
0.0
  3
_D_4
  1
_D_4
  0
LINE
  5
223
330
221
100
AcDbEntity
  8
치수문자_일반주서
 62
     0
370
    -2
100
AcDbLine
 10
102.4375000000001
 20
36.22143424691529
 30
0.0
 11
117.3750000000001
 21
36.22143424691535
 31
0.0
  0
LINE
  5
224
330
221
100
AcDbEntity
  8
치수문자_일반주서
 62
     0
370
    -2
100
AcDbLine
 10
102.4375000000001
 20
22.22143424691529
 30
0.0
 11
117.3750000000001
 21
22.22143424691535
 31
0.0
  0
LINE
  5
225
330
221
100
AcDbEntity
  8
치수문자_일반주서
 62
     0
370
    -2
100
AcDbLine
 10
117.3750000000001
 20
36.22143424691535
 30
0.0
 11
117.3750000000001
 21
22.22143424691535
 31
0.0
  0
LINE
  5
226
330
221
100
AcDbEntity
  8
치수문자_일반주서
 62
     0
370
    -2
100
AcDbLine
 10
117.3750000000001
 20
39.52343424691535
 30
0.0
 11
117.375
 21
42.82543424691535
 31
0.0
  0
LINE
  5
227
330
221
100
AcDbEntity
  8
치수문자_일반주서
 62
     0
370
    -2
100
AcDbLine
 10
117.3750000000001
 20
18.91943424691535
 30
0.0
 11
117.3750000000001
 21
15.61743424691535
 31
0.0
  0
SOLID
  5
228
330
221
100
AcDbEntity
  8
치수문자_일반주서
 62
     0
100
AcDbTrace
 10
116.8246666666667
 20
39.52343424691535
 30
0.0
 11
117.9253333333334
 21
39.52343424691535
 31
0.0
 12
117.3750000000001
 22
36.22143424691535
 32
0.0
 13
117.3750000000001
 23
36.22143424691535
 33
0.0
  0
SOLID
  5
229
330
221
100
AcDbEntity
  8
치수문자_일반주서
 62
     0
100
AcDbTrace
 10
117.9253333333335
 20
18.91943424691535
 30
0.0
 11
116.8246666666668
 21
18.91943424691535
 31
0.0
 12
117.3750000000001
 22
22.22143424691535
 32
0.0
 13
117.3750000000001
 23
22.22143424691535
 33
0.0
  0
MTEXT
  5
22A
330
221
100
AcDbEntity
  8
치수문자_일반주서
 62
     0
100
AcDbMText
 10
113.0000000000001
 20
29.28713862862833
 30
0.0
 40
3.5
 41
0.0
 71
     2
 72
     1
  1
\A1;%%c14
  7
SLDTEXTSTYLE0
 11
-3.045183153257572E-15
 21
1.0
 31
0.0
 73
     1
 44
1.0
  0
POINT
  5
22B
330
221
100
AcDbEntity
  8
Defpoints
 62
     0
100
AcDbPoint
 10
102.3750000000001
 20
36.22143424691529
 30
0.0
  0
POINT
  5
22C
330
221
100
AcDbEntity
  8
Defpoints
 62
     0
100
AcDbPoint
 10
102.3750000000001
 20
22.22143424691529
 30
0.0
  0
POINT
  5
22D
330
221
100
AcDbEntity
  8
Defpoints
 62
     0
100
AcDbPoint
 10
117.3750000000001
 20
22.22143424691535
 30
0.0
  0
ENDBLK
  5
22E
330
221
100
AcDbEntity
  8
0
100
AcDbBlockEnd
  0
BLOCK
  5
23C
330
23B
100
AcDbEntity
  8
0
100
AcDbBlockBegin
  2
*D8
 70
     1
 10
0.0
 20
0.0
 30
0.0
  3
*D8
  1
*D8
  0
LINE
  5
23D
330
23B
100
AcDbEntity
  8
치수문자_일반주서
 62
     0
370
    -2
100
AcDbLine
 10
103.8657751816695
 20
19.48229575403651
 30
0.0
 11
119.6194267469468
 21
-6.150060756304035
 31
0.0
  0
MTEXT
  5
23E
330
23B
100
AcDbEntity
  8
치수문자_일반주서
 62
     0
100
AcDbMText
 10
115.6706384014277
 20
5.288158154535728
 30
0.0
 40
3.5
 41
0.0
 71
     5
 72
     1
  1
\A1;R.5 [R0.02]
  7
SLDTEXTSTYLE0
 11
0.5236126201129557
 21
-0.8519564684057781
 31
0.0
 73
     1
 44
1.0
  0
SOLID
  5
23F
330
23B
100
AcDbEntity
  8
치수문자_일반주서
 62
     0
100
AcDbTrace
 10
104.3346352247821
 20
19.77045723263868
 30
0.0
 11
103.3969151385569
 21
19.19413427543435
 31
0.0
 12
102.1368063100565
 22
22.29545601271239
 32
0.0
 13
102.1368063100565
 23
22.29545601271239
 33
0.0
  0
LINE
  5
240
330
23B
100
AcDbEntity
  8
치수문자_일반주서
 62
     0
100
AcDbLine
 10
101.785
 20
22.72143424691529
 30
0.0
 11
101.965
 21
22.72143424691529
 31
0.0
  0
LINE
  5
241
330
23B
100
AcDbEntity
  8
치수문자_일반주서
 62
     0
100
AcDbLine
 10
101.875
 20
22.63143424691529
 30
0.0
 11
101.875
 21
22.81143424691529
 31
0.0
  0
POINT
  5
26B
330
23B
100
AcDbEntity
  8
Defpoints
 62
     0
100
AcDbPoint
 10
102.1368063100565
 20
22.29545601271239
 30
0.0
  0
POINT
  5
26C
330
23B
100
AcDbEntity
  8
Defpoints
 62
     0
100
AcDbPoint
 10
101.875
 20
22.72143424691529
 30
0.0
  0
ENDBLK
  5
242
330
23B
100
AcDbEntity
  8
0
100
AcDbBlockEnd
  0
BLOCK
  5
246
330
245
100
AcDbEntity
  8
0
100
AcDbBlockBegin
  2
*D9
 70
     1
 10
0.0
 20
0.0
 30
0.0
  3
*D9
  1
*D11
  0
LINE
  5
248
330
245
100
AcDbEntity
  8
치수문자_일반주서
 62
     0
370
    -2
100
AcDbLine
 10
19.37500000000004
 20
35.78393424691529
 30
0.0
 11
19.37500000000004
 21
70.88391841499404
 31
0.0
  0
LINE
  5
249
330
245
100
AcDbEntity
  8
치수문자_일반주서
 62
     0
370
    -2
100
AcDbLine
 10
102.3750000000001
 20
36.34643424691529
 30
0.0
 11
102.3750000000001
 21
70.88391841499404
 31
0.0
  0
LINE
  5
24A
330
245
100
AcDbEntity
  8
치수문자_일반주서
 62
     0
370
    -2
100
AcDbLine
 10
22.67700000000004
 20
70.88391841499404
 30
0.0
 11
99.07300000000006
 21
70.88391841499404
 31
0.0
  0
SOLID
  5
24B
330
245
100
AcDbEntity
  8
치수문자_일반주서
 62
     0
100
AcDbTrace
 10
22.67700000000004
 20
71.43425174832737
 30
0.0
 11
22.67700000000004
 21
70.33358508166071
 31
0.0
 12
19.37500000000004
 22
70.88391841499404
 32
0.0
 13
19.37500000000004
 23
70.88391841499404
 33
0.0
  0
SOLID
  5
24C
330
245
100
AcDbEntity
  8
치수문자_일반주서
 62
     0
100
AcDbTrace
 10
99.07300000000006
 20
70.33358508166071
 30
0.0
 11
99.07300000000006
 21
71.43425174832737
 31
0.0
 12
102.3750000000001
 22
70.88391841499404
 32
0.0
 13
102.3750000000001
 23
70.88391841499404
 33
0.0
  0
MTEXT
  5
24D
330
245
100
AcDbEntity
  8
치수문자_일반주서
 62
     0
100
AcDbMText
 10
60.87500000000005
 20
75.25891841499404
 30
0.0
 40
3.5
 41
0.0
 71
     2
 72
     1
  1
\A1;83 [3.27]
  7
SLDTEXTSTYLE0
 73
     1
 44
1.0
  0
POINT
  5
24E
330
245
100
AcDbEntity
  8
Defpoints
 62
     0
100
AcDbPoint
 10
19.37500000000004
 20
35.72143424691529
 30
0.0
  0
POINT
  5
24F
330
245
100
AcDbEntity
  8
Defpoints
 62
     0
100
AcDbPoint
 10
102.3750000000001
 20
36.28393424691529
 30
0.0
  0
POINT
  5
250
330
245
100
AcDbEntity
  8
Defpoints
 62
     0
100
AcDbPoint
 10
102.3750000000001
 20
70.88391841499404
 30
0.0
  0
ENDBLK
  5
247
330
245
100
AcDbEntity
  8
0
100
AcDbBlockEnd
  0
BLOCK
  5
252
330
251
100
AcDbEntity
  8
0
100
AcDbBlockBegin
  2
*D10
 70
     1
 10
0.0
 20
0.0
 30
0.0
  3
*D10
  1
*D12
  0
LINE
  5
254
330
251
100
AcDbEntity
  8
치수문자_일반주서
 62
     0
370
    -2
100
AcDbLine
 10
76.37504186422882
 20
28.62038676313042
 30
0.0
 11
76.37504186422882
 21
61.90091383617725
 31
0.0
  0
LINE
  5
255
330
251
100
AcDbEntity
  8
치수문자_일반주서
 62
     0
370
    -2
100
AcDbLine
 10
102.3750000000001
 20
36.28393424691529
 30
0.0
 11
102.3750000000001
 21
61.90091383617725
 31
0.0
  0
LINE
  5
256
330
251
100
AcDbEntity
  8
치수문자_일반주서
 62
     0
370
    -2
100
AcDbLine
 10
79.67704186422881
 20
61.90091383617725
 30
0.0
 11
99.07300000000006
 21
61.90091383617725
 31
0.0
  0
SOLID
  5
257
330
251
100
AcDbEntity
  8
치수문자_일반주서
 62
     0
100
AcDbTrace
 10
79.67704186422881
 20
62.45124716951059
 30
0.0
 11
79.67704186422881
 21
61.35058050284392
 31
0.0
 12
76.37504186422882
 22
61.90091383617725
 32
0.0
 13
76.37504186422882
 23
61.90091383617725
 33
0.0
  0
SOLID
  5
258
330
251
100
AcDbEntity
  8
치수문자_일반주서
 62
     0
100
AcDbTrace
 10
99.07300000000006
 20
61.35058050284392
 30
0.0
 11
99.07300000000006
 21
62.45124716951059
 31
0.0
 12
102.3750000000001
 22
61.90091383617725
 32
0.0
 13
102.3750000000001
 23
61.90091383617725
 33
0.0
  0
MTEXT
  5
259
330
251
100
AcDbEntity
  8
치수문자_일반주서
 62
     0
100
AcDbMText
 10
89.42159572693208
 20
66.27591383617725
 30
0.0
 40
3.5
 41
0.0
 71
     2
 72
     1
  1
\A1;26 [1.02]
  7
SLDTEXTSTYLE0
 73
     1
 44
1.0
  0
POINT
  5
25A
330
251
100
AcDbEntity
  8
Defpoints
 62
     0
100
AcDbPoint
 10
76.37504186422882
 20
28.55788676313042
 30
0.0
  0
POINT
  5
25B
330
251
100
AcDbEntity
  8
Defpoints
 62
     0
100
AcDbPoint
 10
102.3750000000001
 20
36.22143424691529
 30
0.0
  0
POINT
  5
25C
330
251
100
AcDbEntity
  8
Defpoints
 62
     0
100
AcDbPoint
 10
102.3750000000001
 20
61.90091383617725
 30
0.0
  0
ENDBLK
  5
253
330
251
100
AcDbEntity
  8
0
100
AcDbBlockEnd
  0
BLOCK
  5
25E
330
25D
100
AcDbEntity
  8
0
100
AcDbBlockBegin
  2
*D11
 70
     1
 10
0.0
 20
0.0
 30
0.0
  3
*D11
  1
*D13
  0
LINE
  5
260
330
25D
100
AcDbEntity
  8
치수문자_일반주서
 62
     0
370
    -2
100
AcDbLine
 10
19.81250000000005
 20
36.22143424691529
 30
0.0
 11
4.374999999999983
 21
36.22143424691524
 31
0.0
  0
LINE
  5
261
330
25D
100
AcDbEntity
  8
치수문자_일반주서
 62
     0
370
    -2
100
AcDbLine
 10
19.81250000000005
 20
22.22143424691529
 30
0.0
 11
4.375000000000032
 21
22.22143424691524
 31
0.0
  0
LINE
  5
262
330
25D
100
AcDbEntity
  8
치수문자_일반주서
 62
     0
370
    -2
100
AcDbLine
 10
4.374999999999983
 20
36.22143424691524
 30
0.0
 11
4.375000000000032
 21
22.22143424691524
 31
0.0
  0
LINE
  5
263
330
25D
100
AcDbEntity
  8
치수문자_일반주서
 62
     0
370
    -2
100
AcDbLine
 10
4.374999999999972
 20
39.52343424691524
 30
0.0
 11
4.37499999999996
 21
42.82543424691524
 31
0.0
  0
LINE
  5
264
330
25D
100
AcDbEntity
  8
치수문자_일반주서
 62
     0
370
    -2
100
AcDbLine
 10
4.375000000000044
 20
18.91943424691524
 30
0.0
 11
4.375000000000055
 21
15.61743424691524
 31
0.0
  0
SOLID
  5
265
330
25D
100
AcDbEntity
  8
치수문자_일반주서
 62
     0
100
AcDbTrace
 10
3.824666666666638
 20
39.52343424691524
 30
0.0
 11
4.925333333333305
 21
39.52343424691524
 31
0.0
 12
4.374999999999983
 22
36.22143424691524
 32
0.0
 13
4.374999999999983
 23
36.22143424691524
 33
0.0
  0
SOLID
  5
266
330
25D
100
AcDbEntity
  8
치수문자_일반주서
 62
     0
100
AcDbTrace
 10
4.925333333333377
 20
18.91943424691524
 30
0.0
 11
3.82466666666671
 21
18.91943424691523
 31
0.0
 12
4.375000000000032
 22
22.22143424691524
 32
0.0
 13
4.375000000000032
 23
22.22143424691524
 33
0.0
  0
MTEXT
  5
267
330
25D
100
AcDbEntity
  8
치수문자_일반주서
 62
     0
100
AcDbMText
 10
0.0000000000000071
 20
29.22143424691528
 30
0.0
 40
3.5
 41
0.0
 71
     2
 72
     1
  1
\A1;%%c14
  7
SLDTEXTSTYLE0
 11
-3.489272363107635E-15
 21
1.0
 31
0.0
 73
     1
 44
1.0
  0
POINT
  5
268
330
25D
100
AcDbEntity
  8
Defpoints
 62
     0
100
AcDbPoint
 10
19.87500000000005
 20
36.22143424691529
 30
0.0
  0
POINT
  5
269
330
25D
100
AcDbEntity
  8
Defpoints
 62
     0
100
AcDbPoint
 10
19.87500000000005
 20
22.22143424691529
 30
0.0
  0
POINT
  5
26A
330
25D
100
AcDbEntity
  8
Defpoints
 62
     0
100
AcDbPoint
 10
4.375000000000043
 20
22.22143424691524
 30
0.0
  0
ENDBLK
  5
25F
330
25D
100
AcDbEntity
  8
0
100
AcDbBlockEnd
  0
BLOCK
  5
2B9
330
2B8
100
AcDbEntity
  8
0
100
AcDbBlockBegin
  2
*D12
 70
     1
 10
0.0
 20
0.0
 30
0.0
  3
*D12
  1
*D14
  0
LINE
  5
2BB
330
2B8
100
AcDbEntity
  8
치수문자_일반주서
 62
     0
370
    -2
100
AcDbLine
 10
-75.25611388819141
 20
117.2288120506404
 30
0.0
 11
-75.25611388819141
 21
152.3287962187192
 31
0.0
  0
LINE
  5
2BC
330
2B8
100
AcDbEntity
  8
치수문자_일반주서
 62
     0
370
    -2
100
AcDbLine
 10
7.743886111808607
 20
117.7913120506404
 30
0.0
 11
7.743886111808607
 21
152.3287962187192
 31
0.0
  0
LINE
  5
2BD
330
2B8
100
AcDbEntity
  8
치수문자_일반주서
 62
     0
370
    -2
100
AcDbLine
 10
-71.95411388819142
 20
152.3287962187192
 30
0.0
 11
4.441886111808607
 21
152.3287962187192
 31
0.0
  0
SOLID
  5
2BE
330
2B8
100
AcDbEntity
  8
치수문자_일반주서
 62
     0
100
AcDbTrace
 10
-71.95411388819142
 20
152.8791295520525
 30
0.0
 11
-71.95411388819142
 21
151.7784628853859
 31
0.0
 12
-75.25611388819141
 22
152.3287962187192
 32
0.0
 13
-75.25611388819141
 23
152.3287962187192
 33
0.0
  0
SOLID
  5
2BF
330
2B8
100
AcDbEntity
  8
치수문자_일반주서
 62
     0
100
AcDbTrace
 10
4.441886111808607
 20
151.7784628853859
 30
0.0
 11
4.441886111808607
 21
152.8791295520525
 31
0.0
 12
7.743886111808607
 22
152.3287962187192
 32
0.0
 13
7.743886111808607
 23
152.3287962187192
 33
0.0
  0
MTEXT
  5
2C0
330
2B8
100
AcDbEntity
  8
치수문자_일반주서
 62
     0
100
AcDbMText
 10
-33.7561138881914
 20
156.7037962187192
 30
0.0
 40
3.5
 41
0.0
 71
     2
 72
     1
  1
\A1;83 [3.27]
  7
SLDTEXTSTYLE0
 73
     1
 44
1.0
  0
POINT
  5
2C1
330
2B8
100
AcDbEntity
  8
Defpoints
 62
     0
100
AcDbPoint
 10
-75.25611388819141
 20
117.1663120506404
 30
0.0
  0
POINT
  5
2C2
330
2B8
100
AcDbEntity
  8
Defpoints
 62
     0
100
AcDbPoint
 10
7.743886111808607
 20
117.7288120506404
 30
0.0
  0
POINT
  5
2C3
330
2B8
100
AcDbEntity
  8
Defpoints
 62
     0
100
AcDbPoint
 10
7.743886111808607
 20
152.3287962187192
 30
0.0
  0
ENDBLK
  5
2BA
330
2B8
100
AcDbEntity
  8
0
100
AcDbBlockEnd
  0
BLOCK
  5
2C5
330
2C4
100
AcDbEntity
  8
0
100
AcDbBlockBegin
  2
*D13
 70
     1
 10
0.0
 20
0.0
 30
0.0
  3
*D13
  1
*D15
  0
LINE
  5
2C7
330
2C4
100
AcDbEntity
  8
치수문자_일반주서
 62
     0
370
    -2
100
AcDbLine
 10
-18.25607202396263
 20
110.0652645668556
 30
0.0
 11
-18.25607202396263
 21
143.3457916399024
 31
0.0
  0
LINE
  5
2C8
330
2C4
100
AcDbEntity
  8
치수문자_일반주서
 62
     0
370
    -2
100
AcDbLine
 10
7.743886111808607
 20
117.7288120506404
 30
0.0
 11
7.743886111808607
 21
143.3457916399024
 31
0.0
  0
LINE
  5
2C9
330
2C4
100
AcDbEntity
  8
치수문자_일반주서
 62
     0
370
    -2
100
AcDbLine
 10
-14.95407202396263
 20
143.3457916399024
 30
0.0
 11
4.441886111808607
 21
143.3457916399024
 31
0.0
  0
SOLID
  5
2CA
330
2C4
100
AcDbEntity
  8
치수문자_일반주서
 62
     0
100
AcDbTrace
 10
-14.95407202396263
 20
143.8961249732357
 30
0.0
 11
-14.95407202396263
 21
142.7954583065691
 31
0.0
 12
-18.25607202396263
 22
143.3457916399024
 32
0.0
 13
-18.25607202396263
 23
143.3457916399024
 33
0.0
  0
SOLID
  5
2CB
330
2C4
100
AcDbEntity
  8
치수문자_일반주서
 62
     0
100
AcDbTrace
 10
4.441886111808607
 20
142.7954583065691
 30
0.0
 11
4.441886111808607
 21
143.8961249732357
 31
0.0
 12
7.743886111808607
 22
143.3457916399024
 32
0.0
 13
7.743886111808607
 23
143.3457916399024
 33
0.0
  0
MTEXT
  5
2CC
330
2C4
100
AcDbEntity
  8
치수문자_일반주서
 62
     0
100
AcDbMText
 10
-5.209518161259368
 20
147.7207916399024
 30
0.0
 40
3.5
 41
0.0
 71
     2
 72
     1
  1
\A1;26 [1.02]
  7
SLDTEXTSTYLE0
 73
     1
 44
1.0
  0
POINT
  5
2CD
330
2C4
100
AcDbEntity
  8
Defpoints
 62
     0
100
AcDbPoint
 10
-18.25607202396263
 20
110.0027645668556
 30
0.0
  0
POINT
  5
2CE
330
2C4
100
AcDbEntity
  8
Defpoints
 62
     0
100
AcDbPoint
 10
7.743886111808607
 20
117.6663120506404
 30
0.0
  0
POINT
  5
2CF
330
2C4
100
AcDbEntity
  8
Defpoints
 62
     0
100
AcDbPoint
 10
7.743886111808607
 20
143.3457916399024
 30
0.0
  0
ENDBLK
  5
2C6
330
2C4
100
AcDbEntity
  8
0
100
AcDbBlockEnd
  0
BLOCK
  5
2D1
330
2D0
100
AcDbEntity
  8
0
100
AcDbBlockBegin
  2
*D14
 70
     1
 10
0.0
 20
0.0
 30
0.0
  3
*D14
  1
*D16
  0
LINE
  5
2D3
330
2D0
100
AcDbEntity
  8
치수문자_일반주서
 62
     0
370
    -2
100
AcDbLine
 10
-74.81861388819141
 20
117.6663120506404
 30
0.0
 11
-90.25611388819145
 21
117.6663120506404
 31
0.0
  0
LINE
  5
2D4
330
2D0
100
AcDbEntity
  8
치수문자_일반주서
 62
     0
370
    -2
100
AcDbLine
 10
-74.81861388819141
 20
103.6663120506404
 30
0.0
 11
-90.25611388819141
 21
103.6663120506404
 31
0.0
  0
LINE
  5
2D5
330
2D0
100
AcDbEntity
  8
치수문자_일반주서
 62
     0
370
    -2
100
AcDbLine
 10
-90.25611388819145
 20
117.6663120506404
 30
0.0
 11
-90.25611388819141
 21
103.6663120506404
 31
0.0
  0
LINE
  5
2D6
330
2D0
100
AcDbEntity
  8
치수문자_일반주서
 62
     0
370
    -2
100
AcDbLine
 10
-90.25611388819146
 20
120.9683120506404
 30
0.0
 11
-90.25611388819148
 21
124.2703120506404
 31
0.0
  0
LINE
  5
2D7
330
2D0
100
AcDbEntity
  8
치수문자_일반주서
 62
     0
370
    -2
100
AcDbLine
 10
-90.2561138881914
 20
100.3643120506404
 30
0.0
 11
-90.25611388819138
 21
97.06231205064037
 31
0.0
  0
SOLID
  5
2D8
330
2D0
100
AcDbEntity
  8
치수문자_일반주서
 62
     0
100
AcDbTrace
 10
-90.80644722152479
 20
120.9683120506404
 30
0.0
 11
-89.70578055485814
 21
120.9683120506404
 31
0.0
 12
-90.25611388819145
 22
117.6663120506404
 32
0.0
 13
-90.25611388819145
 23
117.6663120506404
 33
0.0
  0
SOLID
  5
2D9
330
2D0
100
AcDbEntity
  8
치수문자_일반주서
 62
     0
100
AcDbTrace
 10
-89.70578055485807
 20
100.3643120506404
 30
0.0
 11
-90.80644722152472
 21
100.3643120506404
 31
0.0
 12
-90.25611388819141
 22
103.6663120506404
 32
0.0
 13
-90.25611388819141
 23
103.6663120506404
 33
0.0
  0
MTEXT
  5
2DA
330
2D0
100
AcDbEntity
  8
치수문자_일반주서
 62
     0
100
AcDbMText
 10
-94.63111388819144
 20
110.6663120506404
 30
0.0
 40
3.5
 41
0.0
 71
     2
 72
     1
  1
\A1;%%c14
  7
SLDTEXTSTYLE0
 11
-3.045183153257572E-15
 21
1.0
 31
0.0
 73
     1
 44
1.0
  0
POINT
  5
2DB
330
2D0
100
AcDbEntity
  8
Defpoints
 62
     0
100
AcDbPoint
 10
-74.75611388819141
 20
117.6663120506404
 30
0.0
  0
POINT
  5
2DC
330
2D0
100
AcDbEntity
  8
Defpoints
 62
     0
100
AcDbPoint
 10
-74.75611388819141
 20
103.6663120506404
 30
0.0
  0
POINT
  5
2DD
330
2D0
100
AcDbEntity
  8
Defpoints
 62
     0
100
AcDbPoint
 10
-90.25611388819142
 20
103.6663120506404
 30
0.0
  0
ENDBLK
  5
2D2
330
2D0
100
AcDbEntity
  8
0
100
AcDbBlockEnd
  0
BLOCK
  5
2DF
330
2DE
100
AcDbEntity
  8
0
100
AcDbBlockBegin
  2
*D15
 70
     1
 10
0.0
 20
0.0
 30
0.0
  3
*D15
  1
*D17
  0
LINE
  5
2E1
330
2DE
100
AcDbEntity
  8
치수문자_일반주서
 62
     0
370
    -2
100
AcDbLine
 10
7.806386111808621
 20
117.6663120506404
 30
0.0
 11
22.74388611180861
 21
117.6663120506405
 31
0.0
  0
LINE
  5
2E2
330
2DE
100
AcDbEntity
  8
치수문자_일반주서
 62
     0
370
    -2
100
AcDbLine
 10
7.806386111808607
 20
103.6663120506404
 30
0.0
 11
22.74388611180866
 21
103.6663120506405
 31
0.0
  0
LINE
  5
2E3
330
2DE
100
AcDbEntity
  8
치수문자_일반주서
 62
     0
370
    -2
100
AcDbLine
 10
22.74388611180861
 20
117.6663120506405
 30
0.0
 11
22.74388611180866
 21
103.6663120506405
 31
0.0
  0
LINE
  5
2E4
330
2DE
100
AcDbEntity
  8
치수문자_일반주서
 62
     0
370
    -2
100
AcDbLine
 10
22.7438861118086
 20
120.9683120506405
 30
0.0
 11
22.74388611180859
 21
124.2703120506405
 31
0.0
  0
LINE
  5
2E5
330
2DE
100
AcDbEntity
  8
치수문자_일반주서
 62
     0
370
    -2
100
AcDbLine
 10
22.74388611180867
 20
100.3643120506405
 30
0.0
 11
22.74388611180868
 21
97.06231205064049
 31
0.0
  0
SOLID
  5
2E6
330
2DE
100
AcDbEntity
  8
치수문자_일반주서
 62
     0
100
AcDbTrace
 10
22.19355277847527
 20
120.9683120506405
 30
0.0
 11
23.29421944514193
 21
120.9683120506405
 31
0.0
 12
22.74388611180861
 22
117.6663120506405
 32
0.0
 13
22.74388611180861
 23
117.6663120506405
 33
0.0
  0
SOLID
  5
2E7
330
2DE
100
AcDbEntity
  8
치수문자_일반주서
 62
     0
100
AcDbTrace
 10
23.29421944514201
 20
100.3643120506405
 30
0.0
 11
22.19355277847534
 21
100.3643120506405
 31
0.0
 12
22.74388611180866
 22
103.6663120506405
 32
0.0
 13
22.74388611180866
 23
103.6663120506405
 33
0.0
  0
MTEXT
  5
2E8
330
2DE
100
AcDbEntity
  8
치수문자_일반주서
 62
     0
100
AcDbMText
 10
18.36888611180864
 20
110.7320164323535
 30
0.0
 40
3.5
 41
0.0
 71
     2
 72
     1
  1
\A1;%%c14
  7
SLDTEXTSTYLE0
 11
-3.552713678800501E-15
 21
1.0
 31
0.0
 73
     1
 44
1.0
  0
POINT
  5
2E9
330
2DE
100
AcDbEntity
  8
Defpoints
 62
     0
100
AcDbPoint
 10
7.743886111808621
 20
117.6663120506404
 30
0.0
  0
POINT
  5
2EA
330
2DE
100
AcDbEntity
  8
Defpoints
 62
     0
100
AcDbPoint
 10
7.743886111808607
 20
103.6663120506404
 30
0.0
  0
POINT
  5
2EB
330
2DE
100
AcDbEntity
  8
Defpoints
 62
     0
100
AcDbPoint
 10
22.74388611180866
 20
103.6663120506405
 30
0.0
  0
ENDBLK
  5
2E0
330
2DE
100
AcDbEntity
  8
0
100
AcDbBlockEnd
  0
BLOCK
  5
2ED
330
2EC
100
AcDbEntity
  8
0
100
AcDbBlockBegin
  2
*D16
 70
     1
 10
0.0
 20
0.0
 30
0.0
  3
*D16
  1
*D18
  0
LINE
  5
2EF
330
2EC
100
AcDbEntity
  8
치수문자_일반주서
 62
     0
370
    -2
100
AcDbLine
 10
9.234661293478057
 20
100.9271735577617
 30
0.0
 11
24.98831285875535
 21
75.2948170474211
 31
0.0
  0
MTEXT
  5
2F0
330
2EC
100
AcDbEntity
  8
치수문자_일반주서
 62
     0
100
AcDbMText
 10
21.03952451323622
 20
86.73303595826087
 30
0.0
 40
3.5
 41
0.0
 71
     5
 72
     1
  1
\A1;R.5 [R0.02]
  7
SLDTEXTSTYLE0
 11
0.5236126201129557
 21
-0.8519564684057781
 31
0.0
 73
     1
 44
1.0
  0
SOLID
  5
2F1
330
2EC
100
AcDbEntity
  8
치수문자_일반주서
 62
     0
100
AcDbTrace
 10
9.703521336590704
 20
101.2153350363638
 30
0.0
 11
8.76580125036541
 21
100.6390120791595
 31
0.0
 12
7.505692421865078
 22
103.7403338164375
 32
0.0
 13
7.505692421865078
 23
103.7403338164375
 33
0.0
  0
LINE
  5
2F2
330
2EC
100
AcDbEntity
  8
치수문자_일반주서
 62
     0
100
AcDbLine
 10
7.153886111808593
 20
104.1663120506404
 30
0.0
 11
7.333886111808592
 21
104.1663120506404
 31
0.0
  0
LINE
  5
2F3
330
2EC
100
AcDbEntity
  8
치수문자_일반주서
 62
     0
100
AcDbLine
 10
7.243886111808592
 20
104.0763120506404
 30
0.0
 11
7.243886111808592
 21
104.2563120506404
 31
0.0
  0
POINT
  5
2F4
330
2EC
100
AcDbEntity
  8
Defpoints
 62
     0
100
AcDbPoint
 10
7.505692421865078
 20
103.7403338164375
 30
0.0
  0
POINT
  5
2F5
330
2EC
100
AcDbEntity
  8
Defpoints
 62
     0
100
AcDbPoint
 10
7.243886111808592
 20
104.1663120506404
 30
0.0
  0
ENDBLK
  5
2EE
330
2EC
100
AcDbEntity
  8
0
100
AcDbBlockEnd
  0
BLOCK
  5
332
330
331
100
AcDbEntity
  8
0
100
AcDbBlockBegin
  2
*D17
 70
     1
 10
0.0
 20
0.0
 30
0.0
  3
*D17
  1
*D19
  0
LINE
  5
334
330
331
100
AcDbEntity
  8
치수문자_일반주서
 62
     0
370
    -2
100
AcDbLine
 10
175.1859291132071
 20
-22.45430902215549
 30
0.0
 11
188.7984212176021
 21
-22.45430902215544
 31
0.0
  0
LINE
  5
335
330
331
100
AcDbEntity
  8
치수문자_일반주서
 62
     0
370
    -2
100
AcDbLine
 10
175.1859291132071
 20
-15.31659681085872
 30
0.0
 11
188.7984212176021
 21
-15.31659681085867
 31
0.0
  0
LINE
  5
336
330
331
100
AcDbEntity
  8
치수문자_일반주서
 62
     0
370
    -2
100
AcDbLine
 10
188.7984212176021
 20
-15.31659681085867
 30
0.0
 11
188.7984212176019
 21
17.09990318914133
 31
0.0
  0
LINE
  5
337
330
331
100
AcDbEntity
  8
치수문자_일반주서
 62
     0
370
    -2
100
AcDbLine
 10
188.7984212176021
 20
-22.45430902215544
 30
0.0
 11
188.7984212176021
 21
-15.31659681085867
 31
0.0
  0
LINE
  5
338
330
331
100
AcDbEntity
  8
치수문자_일반주서
 62
     0
370
    -2
100
AcDbLine
 10
188.7984212176021
 20
-25.75630902215544
 30
0.0
 11
188.7984212176021
 21
-29.05830902215544
 31
0.0
  0
LINE
  5
339
330
331
100
AcDbEntity
  8
치수문자_일반주서
 62
     0
370
    -2
100
AcDbLine
 10
188.7984212176021
 20
-12.01459681085867
 30
0.0
 11
188.7984212176021
 21
-8.712596810858674
 31
0.0
  0
SOLID
  5
33A
330
331
100
AcDbEntity
  8
치수문자_일반주서
 62
     0
100
AcDbTrace
 10
189.3487545509354
 20
-25.75630902215544
 30
0.0
 11
188.2480878842688
 21
-25.75630902215545
 31
0.0
 12
188.7984212176021
 22
-22.45430902215544
 32
0.0
 13
188.7984212176021
 23
-22.45430902215544
 33
0.0
  0
SOLID
  5
33B
330
331
100
AcDbEntity
  8
치수문자_일반주서
 62
     0
100
AcDbTrace
 10
188.2480878842687
 20
-12.01459681085868
 30
0.0
 11
189.3487545509354
 21
-12.01459681085867
 31
0.0
 12
188.7984212176021
 22
-15.31659681085867
 32
0.0
 13
188.7984212176021
 23
-15.31659681085867
 33
0.0
  0
MTEXT
  5
33C
330
331
100
AcDbEntity
  8
치수문자_일반주서
 62
     0
100
AcDbMText
 10
184.423421217602
 20
4.193653189141308
 30
0.0
 40
3.5
 41
0.0
 71
     2
 72
     1
  1
\A1;%%c7.14 [0.28]
  7
SLDTEXTSTYLE0
 11
-3.981907450039988E-15
 21
1.0
 31
0.0
 73
     1
 44
1.0
  0
POINT
  5
33D
330
331
100
AcDbEntity
  8
Defpoints
 62
     0
100
AcDbPoint
 10
175.1234291132071
 20
-22.45430902215549
 30
0.0
  0
POINT
  5
33E
330
331
100
AcDbEntity
  8
Defpoints
 62
     0
100
AcDbPoint
 10
175.1234291132071
 20
-15.31659681085872
 30
0.0
  0
POINT
  5
33F
330
331
100
AcDbEntity
  8
Defpoints
 62
     0
100
AcDbPoint
 10
188.7984212176021
 20
-15.31659681085867
 30
0.0
  0
ENDBLK
  5
333
330
331
100
AcDbEntity
  8
0
100
AcDbBlockEnd
  0
BLOCK
  5
341
330
340
100
AcDbEntity
  8
0
100
AcDbBlockBegin
  2
*D18
 70
     1
 10
0.0
 20
0.0
 30
0.0
  3
*D18
  1
*D20
  0
LINE
  5
343
330
340
100
AcDbEntity
  8
치수문자_일반주서
 62
     0
370
    -2
100
AcDbLine
 10
175.1234291132071
 20
-15.25409681085872
 30
0.0
 11
175.1234291132071
 21
1.317910057570131
 31
0.0
  0
LINE
  5
344
330
340
100
AcDbEntity
  8
치수문자_일반주서
 62
     0
370
    -2
100
AcDbLine
 10
157.660929113207
 20
-15.25107791650711
 30
0.0
 11
157.660929113207
 21
1.317910057570131
 31
0.0
  0
LINE
  5
345
330
340
100
AcDbEntity
  8
치수문자_일반주서
 62
     0
370
    -2
100
AcDbLine
 10
157.660929113207
 20
1.317910057570131
 30
0.0
 11
125.244429113207
 21
1.317910057570131
 31
0.0
  0
LINE
  5
346
330
340
100
AcDbEntity
  8
치수문자_일반주서
 62
     0
370
    -2
100
AcDbLine
 10
175.1234291132071
 20
1.317910057570131
 30
0.0
 11
157.660929113207
 21
1.317910057570131
 31
0.0
  0
LINE
  5
347
330
340
100
AcDbEntity
  8
치수문자_일반주서
 62
     0
370
    -2
100
AcDbLine
 10
178.4254291132071
 20
1.317910057570131
 30
0.0
 11
181.7274291132071
 21
1.317910057570131
 31
0.0
  0
LINE
  5
348
330
340
100
AcDbEntity
  8
치수문자_일반주서
 62
     0
370
    -2
100
AcDbLine
 10
154.358929113207
 20
1.317910057570131
 30
0.0
 11
151.056929113207
 21
1.317910057570131
 31
0.0
  0
SOLID
  5
349
330
340
100
AcDbEntity
  8
치수문자_일반주서
 62
     0
100
AcDbTrace
 10
178.4254291132071
 20
1.868243390903464
 30
0.0
 11
178.4254291132071
 21
0.767576724236798
 31
0.0
 12
175.1234291132071
 22
1.317910057570131
 32
0.0
 13
175.1234291132071
 23
1.317910057570131
 33
0.0
  0
SOLID
  5
34A
330
340
100
AcDbEntity
  8
치수문자_일반주서
 62
     0
100
AcDbTrace
 10
154.358929113207
 20
0.767576724236798
 30
0.0
 11
154.358929113207
 21
1.868243390903464
 31
0.0
 12
157.660929113207
 22
1.317910057570131
 32
0.0
 13
157.660929113207
 23
1.317910057570131
 33
0.0
  0
MTEXT
  5
34B
330
340
100
AcDbEntity
  8
치수문자_일반주서
 62
     0
100
AcDbMText
 10
138.150679113207
 20
5.692910057570131
 30
0.0
 40
3.5
 41
0.0
 71
     2
 72
     1
  1
\A1;17.46 [0.69]
  7
SLDTEXTSTYLE0
 73
     1
 44
1.0
  0
POINT
  5
34C
330
340
100
AcDbEntity
  8
Defpoints
 62
     0
100
AcDbPoint
 10
175.1234291132071
 20
-15.31659681085872
 30
0.0
  0
POINT
  5
34D
330
340
100
AcDbEntity
  8
Defpoints
 62
     0
100
AcDbPoint
 10
157.660929113207
 20
-15.31357791650711
 30
0.0
  0
POINT
  5
34E
330
340
100
AcDbEntity
  8
Defpoints
 62
     0
100
AcDbPoint
 10
157.660929113207
 20
1.317910057570131
 30
0.0
  0
ENDBLK
  5
342
330
340
100
AcDbEntity
  8
0
100
AcDbBlockEnd
  0
BLOCK
  5
350
330
34F
100
AcDbEntity
  8
0
100
AcDbBlockBegin
  2
*D19
 70
     1
 10
0.0
 20
0.0
 30
0.0
  3
*D19
  1
*D21
  0
LINE
  5
352
330
34F
100
AcDbEntity
  8
치수문자_일반주서
 62
     0
370
    -2
100
AcDbLine
 10
89.39842911320704
 20
-14.87045291650712
 30
0.0
 11
89.39842911320704
 21
19.49704708349292
 31
0.0
  0
LINE
  5
353
330
34F
100
AcDbEntity
  8
치수문자_일반주서
 62
     0
370
    -2
100
AcDbLine
 10
175.1234291132071
 20
-15.25409681085872
 30
0.0
 11
175.1234291132071
 21
19.49704708349292
 31
0.0
  0
LINE
  5
354
330
34F
100
AcDbEntity
  8
치수문자_일반주서
 62
     0
370
    -2
100
AcDbLine
 10
92.70042911320704
 20
19.49704708349292
 30
0.0
 11
171.8214291132071
 21
19.49704708349292
 31
0.0
  0
SOLID
  5
355
330
34F
100
AcDbEntity
  8
치수문자_일반주서
 62
     0
100
AcDbTrace
 10
92.70042911320704
 20
20.04738041682625
 30
0.0
 11
92.70042911320704
 21
18.94671375015958
 31
0.0
 12
89.39842911320704
 22
19.49704708349292
 32
0.0
 13
89.39842911320704
 23
19.49704708349292
 33
0.0
  0
SOLID
  5
356
330
34F
100
AcDbEntity
  8
치수문자_일반주서
 62
     0
100
AcDbTrace
 10
171.8214291132071
 20
18.94671375015958
 30
0.0
 11
171.8214291132071
 21
20.04738041682625
 31
0.0
 12
175.1234291132071
 22
19.49704708349292
 32
0.0
 13
175.1234291132071
 23
19.49704708349292
 33
0.0
  0
MTEXT
  5
357
330
34F
100
AcDbEntity
  8
치수문자_일반주서
 62
     0
100
AcDbMText
 10
132.2609291132071
 20
23.87204708349292
 30
0.0
 40
3.5
 41
0.0
 71
     2
 72
     1
  1
\A1;85.73 [3.38]
  7
SLDTEXTSTYLE0
 73
     1
 44
1.0
  0
POINT
  5
358
330
34F
100
AcDbEntity
  8
Defpoints
 62
     0
100
AcDbPoint
 10
89.39842911320704
 20
-14.93295291650712
 30
0.0
  0
POINT
  5
359
330
34F
100
AcDbEntity
  8
Defpoints
 62
     0
100
AcDbPoint
 10
175.1234291132071
 20
-15.31659681085872
 30
0.0
  0
POINT
  5
35A
330
34F
100
AcDbEntity
  8
Defpoints
 62
     0
100
AcDbPoint
 10
175.1234291132071
 20
19.49704708349292
 30
0.0
  0
ENDBLK
  5
351
330
34F
100
AcDbEntity
  8
0
100
AcDbBlockEnd
  0
ENDSEC
  0
SECTION
  2
ENTITIES
  0
LINE
  5
96
330
1F
100
AcDbEntity
  8
외형선
  6
Continuous
370
    15
100
AcDbLine
 10
19.95652700723833
 20
4.762499999999997
 30
0.0
 11
4.838700000000117
 21
4.762499999999996
 31
0.0
  0
LINE
  5
97
330
1F
100
AcDbEntity
  8
외형선
  6
Continuous
370
    15
100
AcDbLine
 10
-19.9565270072383
 20
-4.762500000000001
 30
0.0
 11
19.95652700723833
 21
-4.762499999999998
 31
0.0
  0
LINE
  5
98
330
1F
100
AcDbEntity
  8
외형선
  6
Continuous
370
    15
100
AcDbLine
 10
19.95652700723833
 20
-4.7625
 30
0.0
 11
24.40000000000001
 21
-3.571875000000001
 31
0.0
  0
LINE
  5
99
330
1F
100
AcDbEntity
  8
외형선
  6
Continuous
370
    15
100
AcDbLine
 10
24.40000000000001
 20
3.571874999999999
 30
0.0
 11
19.95652700723833
 21
4.762499999999998
 31
0.0
  0
LINE
  5
9C
330
1F
100
AcDbEntity
  8
외형선
  6
Continuous
370
    15
100
AcDbLine
 10
25.40000000000001
 20
3.571874999999999
 30
0.0
 11
24.40000000000001
 21
3.571874999999999
 31
0.0
  0
LINE
  5
9D
330
1F
100
AcDbEntity
  8
외형선
  6
Continuous
370
    15
100
AcDbLine
 10
24.40000000000001
 20
-3.571875000000001
 30
0.0
 11
25.40000000000001
 21
-3.571875000000001
 31
0.0
  0
LINE
  5
9E
330
1F
100
AcDbEntity
  8
0
  6
Continuous
 62
     1
370
    15
100
AcDbLine
 10
32.65342165233053
 20
1.392917384934467
 30
0.0
 11
32.61877877649198
 21
1.410756637657566
 31
0.0
  0
SPLINE
  5
9F
330
1F
100
AcDbEntity
  8
0
  6
Continuous
 62
     1
370
    15
100
AcDbSpline
210
0.0
220
0.0
230
1.0
 70
     8
 71
     3
 72
     9
 73
     5
 74
     0
 42
0.000000001
 43
0.00000001
 40
0.0
 40
0.0
 40
0.0
 40
0.0
 40
0.4591260378722835
 40
1.0
 40
1.0
 40
1.0
 40
1.0
 10
33.60777842502296
 20
0.9152794422337086
 30
0.0
 10
33.46118785755009
 20
0.9851076335505266
 30
0.0
 10
33.14190610182081
 20
1.137197006744042
 30
0.0
 10
32.82488831743581
 20
1.303155017895917
 30
0.0
 10
32.65342165233053
 20
1.392917384934467
 30
0.0
  0
SPLINE
  5
A0
330
1F
100
AcDbEntity
  8
0
  6
Continuous
 62
     1
370
    15
100
AcDbSpline
210
0.0
220
0.0
230
1.0
 70
     8
 71
     3
 72
    14
 73
    10
 74
     0
 42
0.000000001
 43
0.00000001
 40
0.0
 40
0.0
 40
0.0
 40
0.0
 40
0.204555636754049
 40
0.3414314213196472
 40
0.439255184384265
 40
0.5421674836070399
 40
0.8516701755819779
 40
0.9396355692048479
 40
1.0
 40
1.0
 40
1.0
 40
1.0
 10
32.42807362301799
 20
2.838347634473629
 30
0.0
 10
32.22560119607883
 20
2.828542466356768
 30
0.0
 10
31.88764693774178
 20
2.812176295570465
 30
0.0
 10
31.455068931937
 20
2.799512674675288
 30
0.0
 10
31.12459391190392
 20
2.792943351458184
 30
0.0
 10
30.62055263857519
 20
2.787487571744406
 30
0.0
 10
30.13692091336566
 20
2.790810154613781
 30
0.0
 10
29.68102018154454
 20
2.801828140446463
 30
0.0
 10
29.53395849080471
 20
2.806808136702838
 30
0.0
 10
29.47411014076376
 20
2.808834800191166
 30
0.0
  0
SPLINE
  5
A1
330
1F
100
AcDbEntity
  8
0
  6
Continuous
 62
     1
370
    15
100
AcDbSpline
210
0.0
220
0.0
230
1.0
 70
     8
 71
     3
 72
    19
 73
    15
 74
     0
 42
0.000000001
 43
0.00000001
 40
0.0
 40
0.0
 40
0.0
 40
0.0
 40
0.0855179860286908
 40
0.1458635218294331
 40
0.2044180394530072
 40
0.2799052864983341
 40
0.3594113318338791
 40
0.4341104079433248
 40
0.494561535722714
 40
0.7108317668134684
 40
0.7533293403904084
 40
0.8090775737805163
 40
0.8910733403333694
 40
1.0
 40
1.0
 40
1.0
 40
1.0
 10
41.54759880224221
 20
2.444127564448904
 30
0.0
 10
41.37169142429739
 20
2.429807100519561
 30
0.0
 10
41.07165548034749
 20
2.405381439907481
 30
0.0
 10
40.64247342957518
 20
2.380940315010048
 30
0.0
 10
40.23203414968968
 20
2.363340858571073
 30
0.0
 10
39.78765196559451
 20
2.351927342524418
 30
0.0
 10
39.30942015066003
 20
2.349131174407818
 30
0.0
 10
38.86207642781905
 20
2.355451136270879
 30
0.0
 10
38.12981927275464
 20
2.378353466326725
 30
0.0
 10
37.46475098030784
 20
2.42298556741245
 30
0.0
 10
36.80939190159635
 20
2.486955399198963
 30
0.0
 10
36.43435757558081
 20
2.528161456161759
 30
0.0
 10
35.92110590231442
 20
2.592219468546949
 30
0.0
 10
35.52230707721579
 20
2.652265576395154
 30
0.0
 10
35.29478103558129
 20
2.686523584128452
 30
0.0
  0
SPLINE
  5
A2
330
1F
100
AcDbEntity
  8
0
  6
Continuous
 62
     1
370
    15
100
AcDbSpline
210
0.0
220
0.0
230
1.0
 70
     8
 71
     3
 72
    15
 73
    11
 74
     0
 42
0.000000001
 43
0.00000001
 40
0.0
 40
0.0
 40
0.0
 40
0.0
 40
0.1867166411775755
 40
0.3228499308814013
 40
0.4112668041009713
 40
0.4925722242196021
 40
0.5793223873631304
 40
0.6722012751961134
 40
0.9227143498168442
 40
1.0
 40
1.0
 40
1.0
 40
1.0
 10
35.29478103558129
 20
-2.686523584128453
 30
0.0
 10
35.46002672592292
 20
-2.661337734973852
 30
0.0
 10
35.74575144423821
 20
-2.617789127803807
 30
0.0
 10
36.10901752608281
 20
-2.569250490209715
 30
0.0
 10
36.37951508479848
 20
-2.535511011110637
 30
0.0
 10
36.60641826067837
 20
-2.509152346195859
 30
0.0
 10
36.83720803803129
 20
-2.484300964497784
 30
0.0
 10
37.21781409945712
 20
-2.447238531900965
 30
0.0
 10
37.58870114112828
 20
-2.414734101173735
 30
0.0
 10
37.88029827896021
 20
-2.399711519668736
 30
0.0
 10
37.94904862081212
 20
-2.396169620658183
 30
0.0
  0
SPLINE
  5
A3
330
1F
100
AcDbEntity
  8
0
  6
Continuous
 62
     1
370
    15
100
AcDbSpline
210
0.0
220
0.0
230
1.0
 70
     8
 71
     3
 72
    21
 73
    17
 74
     0
 42
0.000000001
 43
0.00000001
 40
0.0
 40
0.0
 40
0.0
 40
0.0
 40
0.098485835684581
 40
0.170968465040789
 40
0.2187958735392256
 40
0.2621745101045714
 40
0.3076152258407572
 40
0.4751396766049493
 40
0.5206833728244942
 40
0.569669389706711
 40
0.6239861161212102
 40
0.6806750554971925
 40
0.7344802611803443
 40
0.7964130370066227
 40
0.8844967849309711
 40
1.0
 40
1.0
 40
1.0
 40
1.0
 10
27.05478253887301
 20
-2.972294961593083
 30
0.0
 10
27.23193558351557
 20
-2.955258253844166
 30
0.0
 10
27.53946797037417
 20
-2.925683038759334
 30
0.0
 10
27.93221793966984
 20
-2.894059590295012
 30
0.0
 10
28.22350077486286
 20
-2.872857574479248
 30
0.0
 10
28.46690089440441
 20
-2.85674862401638
 30
0.0
 10
28.92593553533745
 20
-2.8295876174572
 30
0.0
 10
29.38927369372853
 20
-2.809795390246724
 30
0.0
 10
29.85853737139751
 20
-2.797506087899695
 30
0.0
 10
30.12497685375087
 20
-2.792532692315746
 30
0.0
 10
30.41152582066297
 20
-2.789582283750958
 30
0.0
 10
30.70676944024179
 20
-2.789157706116452
 30
0.0
 10
31.01565835235672
 20
-2.791410968625038
 30
0.0
 10
31.38055891415499
 20
-2.797521477231278
 30
0.0
 10
31.85560994883407
 20
-2.810733346108218
 30
0.0
 10
32.22085510165836
 20
-2.828351905029947
 30
0.0
 10
32.42807362301799
 20
-2.838347634473631
 30
0.0
  0
LINE
  5
A4
330
1F
100
AcDbEntity
  8
외형선
  6
Continuous
370
    15
100
AcDbLine
 10
19.95652700723833
 20
4.762499999999998
 30
0.0
 11
19.95652700723833
 21
-4.762500000000007
 31
0.0
  0
LINE
  5
A6
330
1F
100
AcDbEntity
  8
외형선
  6
Continuous
370
    15
100
AcDbLine
 10
24.40000000000001
 20
3.571874999999999
 30
0.0
 11
24.40000000000001
 21
3.547802494904239
 31
0.0
  0
SPLINE
  5
A7
330
1F
100
AcDbEntity
  8
외형선
  6
Continuous
370
    15
100
AcDbSpline
210
0.0
220
0.0
230
1.0
 70
     8
 71
     3
 72
     8
 73
     4
 74
     0
 42
0.000000001
 43
0.00000001
 40
0.0
 40
0.0
 40
0.0
 40
0.0
 40
0.0005964488063481
 40
0.0005964488063481
 40
0.0005964488063481
 40
0.0005964488063481
 10
23.87988481336012
 20
3.707366245633297
 30
0.0
 10
24.0533598908735
 20
3.657036830257155
 30
0.0
 10
24.22677470154648
 20
3.603853013562876
 30
0.0
 10
24.39999999999916
 20
3.547802494902943
 30
0.0
  0
LINE
  5
A8
330
1F
100
AcDbEntity
  8
외형선
  6
Continuous
370
    15
100
AcDbLine
 10
23.87988481336012
 20
-3.613065388775056
 30
0.0
 11
23.87988481336012
 21
3.707369217593567
 31
0.0
  0
SPLINE
  5
A9
330
1F
100
AcDbEntity
  8
외형선
  6
Continuous
370
    15
100
AcDbSpline
210
0.0
220
0.0
230
1.0
 70
     8
 71
     3
 72
     8
 73
     4
 74
     0
 42
0.000000001
 43
0.00000001
 40
0.0
 40
0.0
 40
0.0
 40
0.0
 40
1.0
 40
1.0
 40
1.0
 40
1.0
 10
24.40000000000001
 20
-3.524149554289524
 30
0.0
 10
24.22611587561791
 20
-3.557067655371644
 30
0.0
 10
24.05270550382132
 20
-3.586802808236048
 30
0.0
 10
23.87976412130164
 20
-3.613121586317267
 30
0.0
  0
LINE
  5
AA
330
1F
100
AcDbEntity
  8
외형선
  6
Continuous
370
    15
100
AcDbLine
 10
24.40000000000001
 20
-3.524149554289526
 30
0.0
 11
24.40000000000001
 21
-3.571875000000001
 31
0.0
  0
SPLINE
  5
AC
330
1F
100
AcDbEntity
  8
외형선
  6
Continuous
370
    15
100
AcDbSpline
210
0.0
220
0.0
230
1.0
 70
     8
 71
     3
 72
    10
 73
     6
 74
     0
 42
0.000000001
 43
0.00000001
 40
0.0
 40
0.0
 40
0.0
 40
0.0
 40
0.5
 40
0.5
 40
1.0
 40
1.0
 40
1.0
 40
1.0
 10
25.40000000001204
 20
-3.030239871237419
 30
0.0
 10
25.14655290847813
 20
-3.022521055765259
 30
0.0
 10
24.89612932877381
 20
-3.007239071363025
 30
0.0
 10
24.38880840533917
 20
-2.961514573103369
 30
0.0
 10
24.13361209598072
 20
-2.931063152259248
 30
0.0
 10
23.87976412130164
 20
-2.893361265562039
 30
0.0
  0
SPLINE
  5
AD
330
1F
100
AcDbEntity
  8
외형선
  6
Continuous
370
    15
100
AcDbSpline
210
0.0
220
0.0
230
1.0
 70
     8
 71
     3
 72
    10
 73
     6
 74
     0
 42
0.000000001
 43
0.00000001
 40
0.0
 40
0.0
 40
0.0
 40
0.0
 40
0.5
 40
0.5
 40
1.0
 40
1.0
 40
1.0
 40
1.0
 10
25.40000000000001
 20
-0.8965282157357217
 30
0.0
 10
25.14656565904327
 20
-0.785399002221069
 30
0.0
 10
24.89615469708322
 20
-0.6724644831311656
 30
0.0
 10
24.38885960485126
 20
-0.4428230368652469
 30
0.0
 10
24.13367622077651
 20
-0.326362407271481
 30
0.0
 10
23.87984074580049
 20
-0.2095772634796782
 30
0.0
  0
SPLINE
  5
AE
330
1F
100
AcDbEntity
  8
외형선
  6
Continuous
370
    15
100
AcDbSpline
210
0.0
220
0.0
230
1.0
 70
    24
 71
     3
 72
    14
 73
    10
 74
     0
 42
0.000000001
 43
0.00000001
 40
0.0
 40
0.0
 40
0.0
 40
0.0
 40
0.25
 40
0.25
 40
0.5
 40
0.5
 40
0.75
 40
0.75
 40
1.0
 40
1.0
 40
1.0
 40
1.0
 10
25.40000000000001
 20
-0.8965282157357192
 30
0.0
 10
25.40000000000001
 20
-1.14634646021699
 30
0.0
 10
25.40000000000001
 20
-1.389752617810855
 30
0.0
 10
25.40000000000001
 20
-1.844338990096577
 30
0.0
 10
25.40000000000001
 20
-2.055361893117869
 30
0.0
 10
25.40000000000001
 20
-2.428280870331005
 30
0.0
 10
25.40000000000001
 20
-2.590069256842595
 30
0.0
 10
25.40000000000001
 20
-2.854650195069396
 30
0.0
 10
25.40000000000001
 20
-2.95743505333174
 30
0.0
 10
25.40000000000001
 20
-3.030239871237051
 30
0.0
  0
SPLINE
  5
AF
330
1F
100
AcDbEntity
  8
외형선
  6
Continuous
370
    15
100
AcDbSpline
210
0.0
220
0.0
230
1.0
 70
     8
 71
     3
 72
    10
 73
     6
 74
     0
 42
0.000000001
 43
0.00000001
 40
0.0
 40
0.0
 40
0.0
 40
0.0
 40
0.5
 40
0.5
 40
1.0
 40
1.0
 40
1.0
 40
1.0
 10
25.40000000000002
 20
2.374064378244273
 30
0.0
 10
25.14656815406026
 20
2.406194438638134
 30
0.0
 10
24.89615966112203
 20
2.432248230582716
 30
0.0
 10
24.38886962350729
 20
2.472229693563009
 30
0.0
 10
24.13368876863834
 20
2.486063074602353
 30
0.0
 10
23.87985573959854
 20
2.493578176179074
 30
0.0
  0
SPLINE
  5
B0
330
1F
100
AcDbEntity
  8
외형선
  6
Continuous
370
    15
100
AcDbSpline
210
0.0
220
0.0
230
1.0
 70
    24
 71
     3
 72
    14
 73
    10
 74
     0
 42
0.000000001
 43
0.00000001
 40
0.0
 40
0.0
 40
0.0
 40
0.0
 40
0.25
 40
0.25
 40
0.5
 40
0.5
 40
0.75
 40
0.75
 40
1.0
 40
1.0
 40
1.0
 40
1.0
 10
25.40000000000001
 20
2.374064378244277
 30
0.0
 10
25.40000000000001
 20
2.21310557729644
 30
0.0
 10
25.40000000000001
 20
2.01358672710937
 30
0.0
 10
25.40000000000001
 20
1.545916705661837
 30
0.0
 10
25.40000000000001
 20
1.277859427590789
 30
0.0
 10
25.40000000000001
 20
0.696580828825421
 30
0.0
 10
25.40000000000001
 20
0.3836692376707482
 30
0.0
 10
25.40000000000001
 20
-0.2549102093437935
 30
0.0
 10
25.40000000000001
 20
-0.5802441205041954
 30
0.0
 10
25.40000000000001
 20
-0.8965282157357173
 30
0.0
  0
SPLINE
  5
B1
330
1F
100
AcDbEntity
  8
외형선
  6
Continuous
370
    15
100
AcDbSpline
210
0.0
220
0.0
230
1.0
 70
     8
 71
     3
 72
     8
 73
     4
 74
     0
 42
0.000000001
 43
0.00000001
 40
0.0
 40
0.0
 40
0.0
 40
0.0
 40
1.0
 40
1.0
 40
1.0
 40
1.0
 10
24.40000000000001
 20
3.547802494904239
 30
0.0
 10
24.7352622811426
 20
3.525424106611792
 30
0.0
 10
25.06592226282973
 20
3.48764738637717
 30
0.0
 10
25.40000000000006
 20
3.434719285131515
 30
0.0
  0
SPLINE
  5
B2
330
1F
100
AcDbEntity
  8
외형선
  6
Continuous
370
    15
100
AcDbSpline
210
0.0
220
0.0
230
1.0
 70
    24
 71
     3
 72
    10
 73
     6
 74
     0
 42
0.000000001
 43
0.00000001
 40
0.0
 40
0.0
 40
0.0
 40
0.0
 40
0.5
 40
0.5
 40
1.0
 40
1.0
 40
1.0
 40
1.0
 10
25.40000000000003
 20
3.434719285131517
 30
0.0
 10
25.40000000000003
 20
3.279227934726605
 30
0.0
 10
25.40000000000003
 20
3.099904990458778
 30
0.0
 10
25.40000000000003
 20
2.732492031962346
 30
0.0
 10
25.40000000000003
 20
2.545428492124338
 30
0.0
 10
25.40000000000003
 20
2.374064378244275
 30
0.0
  0
LINE
  5
B3
330
1F
100
AcDbEntity
  8
외형선
  6
Continuous
370
    15
100
AcDbLine
 10
25.40000000000001
 20
3.571869215324795
 30
0.0
 11
25.40000000000001
 21
3.434719285131523
 31
0.0
  0
SPLINE
  5
B4
330
1F
100
AcDbEntity
  8
외형선
  6
Continuous
370
    15
100
AcDbSpline
210
0.0
220
0.0
230
1.0
 70
     8
 71
     3
 72
     8
 73
     4
 74
     0
 42
0.000000001
 43
0.00000001
 40
0.0
 40
0.0
 40
0.0
 40
0.0
 40
1.0
 40
1.0
 40
1.0
 40
1.0
 10
25.4000000000113
 20
-3.571869215324812
 30
0.0
 10
25.06592226283716
 20
-3.571522136345036
 30
0.0
 10
24.73526228114636
 20
-3.555606789670648
 30
0.0
 10
24.40000000000001
 20
-3.524149554289526
 30
0.0
  0
SPLINE
  5
B5
330
1F
100
AcDbEntity
  8
외형선
  6
Continuous
370
    15
100
AcDbSpline
210
0.0
220
0.0
230
1.0
 70
    24
 71
     3
 72
     8
 73
     4
 74
     0
 42
0.000000001
 43
0.00000001
 40
0.0
 40
0.0
 40
0.0
 40
0.0
 40
1.0
 40
1.0
 40
1.0
 40
1.0
 10
25.40000000000001
 20
-3.030239871237053
 30
0.0
 10
25.40000000000001
 20
-3.214648735902589
 30
0.0
 10
25.40000000000001
 20
-3.396369360311934
 30
0.0
 10
25.40000000000001
 20
-3.571869215311349
 30
0.0
  0
SPLINE
  5
B6
330
1F
100
AcDbEntity
  8
0
  6
Continuous
 62
     1
370
    15
100
AcDbSpline
210
0.0
220
0.0
230
1.0
 70
     8
 71
     3
 72
    40
 73
    36
 74
     0
 42
0.000000001
 43
0.00000001
 40
0.0
 40
0.0
 40
0.0
 40
0.0
 40
0.0625
 40
0.0625
 40
0.1250000000000001
 40
0.1250000000000001
 40
0.1875000000000001
 40
0.1875000000000001
 40
0.2500000000000001
 40
0.2500000000000001
 40
0.3125000000000001
 40
0.3125000000000001
 40
0.3750000000000002
 40
0.3750000000000002
 40
0.4375000000000002
 40
0.4375000000000002
 40
0.5000000000000002
 40
0.5000000000000002
 40
0.5625000000000002
 40
0.5625000000000002
 40
0.6250000000000002
 40
0.6250000000000002
 40
0.6875000000000002
 40
0.6875000000000002
 40
0.7500000000000001
 40
0.7500000000000001
 40
0.8125
 40
0.8125
 40
0.8749999999999999
 40
0.8749999999999999
 40
0.90625
 40
0.90625
 40
0.9375
 40
0.9375
 40
1.0
 40
1.0
 40
1.0
 40
1.0
 10
42.86250000000002
 20
-3.389498167287693
 30
0.0
 10
42.50183788390014
 20
-3.323433932246446
 30
0.0
 10
42.13488326143536
 20
-3.239373296434828
 30
0.0
 10
41.40534598454724
 20
-3.038770204311758
 30
0.0
 10
41.04571583718487
 20
-2.9226911700309
 30
0.0
 10
40.31591620360832
 20
-2.660365350408816
 30
0.0
 10
39.94986027121227
 20
-2.514472548174137
 30
0.0
 10
39.2277584864179
 20
-2.199652248711778
 30
0.0
 10
38.86067889641704
 20
-2.029113941909114
 30
0.0
 10
38.13143824798253
 20
-1.669465410358744
 30
0.0
 10
37.77174882919032
 20
-1.480880191089906
 30
0.0
 10
37.04172115185311
 20
-1.088494551339821
 30
0.0
 10
36.6765056411862
 20
-0.8855644083841017
 30
0.0
 10
35.9536594164924
 20
-0.4740806413129472
 30
0.0
 10
35.58647235506636
 20
-0.263715154680693
 30
0.0
 10
34.85756256033287
 20
0.1565499567012061
 30
0.0
 10
34.49775460796198
 20
0.3660685867121343
 30
0.0
 10
33.76753323558557
 20
0.7811741700506858
 30
0.0
 10
33.4030997474702
 20
0.9855958909428779
 30
0.0
 10
32.67954231096323
 20
1.381198169756255
 30
0.0
 10
32.31226529144125
 20
1.573830979644454
 30
0.0
 10
31.58372052379833
 20
1.939730557033403
 30
0.0
 10
31.22373479425901
 20
2.112874646552905
 30
0.0
 10
30.49335410597793
 20
2.437123737669205
 30
0.0
 10
30.12964411939424
 20
2.587162521373038
 30
0.0
 10
29.40540880953692
 20
2.85861031931231
 30
0.0
 10
29.03805935966549
 20
2.980794109212387
 30
0.0
 10
28.309913735322
 20
3.192258005128802
 30
0.0
 10
27.94969101285547
 20
3.281647880557824
 30
0.0
 10
27.40181181283386
 20
3.390144250951984
 30
0.0
 10
27.21897401547946
 20
3.421954735954923
 30
0.0
 10
26.85500737626179
 20
3.476525731776733
 30
0.0
 10
26.67492035909325
 20
3.499256431590843
 30
0.0
 10
26.13126055452951
 20
3.55395560866631
 30
0.0
 10
25.76385621366652
 20
3.572247231664791
 30
0.0
 10
25.40000000000647
 20
3.571869215324806
 30
0.0
  0
SPLINE
  5
B7
330
1F
100
AcDbEntity
  8
0
  6
Continuous
 62
     1
370
    15
100
AcDbSpline
210
0.0
220
0.0
230
1.0
 70
     8
 71
     3
 72
    13
 73
     9
 74
     0
 42
0.000000001
 43
0.00000001
 40
0.0
 40
0.0
 40
0.0
 40
0.0
 40
0.1705153033777686
 40
0.3410265566632327
 40
0.5115339539286514
 40
0.6820376899393602
 40
0.8525379601196217
 40
1.0
 40
1.0
 40
1.0
 40
1.0
 10
42.86250000000002
 20
-2.818110306790224
 30
0.0
 10
42.33513500936772
 20
-2.703999881275053
 30
0.0
 10
41.28041755411603
 20
-2.475781740604116
 30
0.0
 10
39.69836669478806
 20
-1.923469282907369
 30
0.0
 10
38.11635646236599
 20
-1.258855162528937
 30
0.0
 10
36.53438545718981
 20
-0.5103503314035207
 30
0.0
 10
35.02369183691043
 20
0.2405052456436735
 30
0.0
 10
34.04032376891012
 20
0.7070646607740046
 30
0.0
 10
33.5842651208493
 20
0.9234418882114135
 30
0.0
  0
LINE
  5
B8
330
1F
100
AcDbEntity
  8
0
  6
Continuous
 62
     1
370
    15
100
AcDbLine
 10
42.86250000000002
 20
-3.389498167287694
 30
0.0
 11
42.86250000000002
 21
-2.818110306790224
 31
0.0
  0
SPLINE
  5
B9
330
1F
100
AcDbEntity
  8
0
  6
Continuous
 62
     1
370
    15
100
AcDbSpline
210
0.0
220
0.0
230
1.0
 70
     8
 71
     3
 72
    40
 73
    36
 74
     0
 42
0.000000001
 43
0.00000001
 40
0.0
 40
0.0
 40
0.0
 40
0.0
 40
0.0625
 40
0.0625
 40
0.09375
 40
0.09375
 40
0.125
 40
0.125
 40
0.1875
 40
0.1875
 40
0.25
 40
0.25
 40
0.3125
 40
0.3125
 40
0.375
 40
0.375
 40
0.4375
 40
0.4375
 40
0.5
 40
0.5
 40
0.5625
 40
0.5625
 40
0.625
 40
0.625
 40
0.6875
 40
0.6875
 40
0.75
 40
0.75
 40
0.8125
 40
0.8125
 40
0.875
 40
0.875
 40
0.9375
 40
0.9375
 40
1.0
 40
1.0
 40
1.0
 40
1.0
 10
25.40000000000003
 20
3.43471928513152
 30
0.0
 10
25.76385621366017
 20
3.377073365117264
 30
0.0
 10
26.1312605545233
 20
3.301289012930525
 30
0.0
 10
26.67492035908732
 20
3.163139388776998
 30
0.0
 10
26.8550073762559
 20
3.113047122153378
 30
0.0
 10
27.21897401547366
 20
3.004575297584838
 30
0.0
 10
27.40181181282813
 20
2.946279648957023
 30
0.0
 10
27.94969101284996
 20
2.76019296480627
 30
0.0
 10
28.30991373531666
 20
2.621750065198559
 30
0.0
 10
29.03805935966035
 20
2.318237078439462
 30
0.0
 10
29.40540880953193
 20
2.153117048850287
 30
0.0
 10
30.1296441193896
 20
1.803925388914411
 30
0.0
 10
30.49335410597332
 20
1.618816650711238
 30
0.0
 10
31.2237347942547
 20
1.233194218421776
 30
0.0
 10
31.58372052379418
 20
1.033909796057797
 30
0.0
 10
32.31226529143731
 20
0.6251576107541899
 30
0.0
 10
32.67954231095945
 20
0.4158912573996479
 30
0.0
 10
33.40309974746677
 20
-0.0026892795286197
 30
0.0
 10
33.76753323558219
 20
-0.2135616251717417
 30
0.0
 10
34.49775460795888
 20
-0.63117523667058
 30
0.0
 10
34.85756256032992
 20
-0.8367818342685326
 30
0.0
 10
35.58647235506366
 20
-1.23895965265666
 30
0.0
 10
35.95365941648984
 20
-1.435108825320262
 30
0.0
 10
36.67650564118394
 20
-1.808556043813917
 30
0.0
 10
37.04172115185095
 20
-1.98751276418854
 30
0.0
 10
37.77174882918843
 20
-2.322864519309431
 30
0.0
 10
38.1314382479808
 20
-2.478563304128126
 30
0.0
 10
38.86067889641555
 20
-2.764114490120554
 30
0.0
 10
39.22775848641655
 20
-2.893481828315118
 30
0.0
 10
39.94986027121121
 20
-3.119694204920434
 30
0.0
 10
40.31591620360738
 20
-3.217706337088871
 30
0.0
 10
41.0457158371842
 20
-3.379070539616871
 30
0.0
 10
41.40534598454671
 20
-3.44228754606573
 30
0.0
 10
42.1348832614351
 20
-3.533042517511819
 30
0.0
 10
42.50183788390002
 20
-3.560247567353933
 30
0.0
 10
42.86250000000002
 20
-3.568856105648383
 30
0.0
  0
SPLINE
  5
BA
330
1F
100
AcDbEntity
  8
0
  6
Continuous
 62
     1
370
    15
100
AcDbSpline
210
0.0
220
0.0
230
1.0
 70
     8
 71
     3
 72
    13
 73
     9
 74
     0
 42
0.000000001
 43
0.00000001
 40
0.0
 40
0.0
 40
0.0
 40
0.0
 40
0.0707313876080695
 40
0.2551564235749899
 40
0.4395782198310349
 40
0.6239969991399317
 40
0.8119985480889368
 40
1.0
 40
1.0
 40
1.0
 40
1.0
 10
33.97727013773947
 20
-0.3328832249383308
 30
0.0
 10
33.77504291553186
 20
-0.2527067233837345
 30
0.0
 10
33.0455283886302
 20
0.0365220063675177
 30
0.0
 10
31.78873965376136
 20
0.5500038424700439
 30
0.0
 10
30.20690876839353
 20
1.155547174596463
 30
0.0
 10
28.61486643223439
 20
1.687938952710323
 30
0.0
 10
27.01254973772833
 20
2.122763329809181
 30
0.0
 10
25.93751648676213
 20
2.290297376511504
 30
0.0
 10
25.40000000000001
 20
2.374064378244276
 30
0.0
  0
SPLINE
  5
BB
330
1F
100
AcDbEntity
  8
외형선
  6
Continuous
370
    15
100
AcDbSpline
210
0.0
220
0.0
230
1.0
 70
    24
 71
     3
 72
    10
 73
     6
 74
     0
 42
0.000000001
 43
0.00000001
 40
0.0
 40
0.0
 40
0.0
 40
0.0
 40
0.5
 40
0.5
 40
1.0
 40
1.0
 40
1.0
 40
1.0
 10
25.40000000000003
 20
3.434719285131518
 30
0.0
 10
25.40000000000003
 20
3.279227934726606
 30
0.0
 10
25.40000000000003
 20
3.099904990458779
 30
0.0
 10
25.40000000000003
 20
2.732492031962345
 30
0.0
 10
25.40000000000003
 20
2.545428492124338
 30
0.0
 10
25.40000000000003
 20
2.374064378244275
 30
0.0
  0
LINE
  5
BC
330
1F
100
AcDbEntity
  8
0
  6
Continuous
 62
     1
370
    15
100
AcDbLine
 10
42.86250000000002
 20
-3.568856105648385
 30
0.0
 11
42.86250000000002
 21
-3.389498167287694
 31
0.0
  0
SPLINE
  5
BD
330
1F
100
AcDbEntity
  8
0
  6
Continuous
 62
     1
370
    15
100
AcDbSpline
210
0.0
220
0.0
230
1.0
 70
     8
 71
     3
 72
     8
 73
     4
 74
     0
 42
0.000000001
 43
0.00000001
 40
0.0
 40
0.0
 40
0.0
 40
0.0
 40
1.0
 40
1.0
 40
1.0
 40
1.0
 10
40.65179032464884
 20
0.9997419336125946
 30
0.0
 10
40.52501879666185
 20
1.149960286334946
 30
0.0
 10
40.41195297331558
 20
1.294455991350846
 30
0.0
 10
40.31577522736392
 20
1.4319002882194
 30
0.0
  0
LINE
  5
BE
330
1F
100
AcDbEntity
  8
0
  6
Continuous
 62
     1
370
    15
100
AcDbLine
 10
40.36092475711126
 20
1.469785241978214
 30
0.0
 11
42.86250000000002
 21
0.0000000000000014
 31
0.0
  0
LINE
  5
BF
330
1F
100
AcDbEntity
  8
0
  6
Continuous
 62
     1
370
    15
100
AcDbLine
 10
42.86250000000002
 20
0.0000000000000014
 30
0.0
 11
42.86250000000002
 21
-0.9545583978496368
 31
0.0
  0
SPLINE
  5
C0
330
1F
100
AcDbEntity
  8
0
  6
Continuous
 62
     1
370
    15
100
AcDbSpline
210
0.0
220
0.0
230
1.0
 70
     8
 71
     3
 72
    10
 73
     6
 74
     0
 42
0.000000001
 43
0.00000001
 40
0.0
 40
0.0
 40
0.0
 40
0.0
 40
0.5
 40
0.5
 40
1.0
 40
1.0
 40
1.0
 40
1.0
 10
42.86250000000002
 20
-0.9545583978496361
 30
0.0
 10
42.47981053394665
 20
-0.6536983022613139
 30
0.0
 10
42.1035171910993
 20
-0.3404982155421853
 30
0.0
 10
41.36404180226997
 20
0.31119748173456
 30
0.0
 10
40.99741716278961
 20
0.6531273299819305
 30
0.0
 10
40.65179032464884
 20
0.9997419336125999
 30
0.0
  0
SPLINE
  5
C1
330
1F
100
AcDbEntity
  8
0
  6
Continuous
 62
     1
370
    15
100
AcDbSpline
210
0.0
220
0.0
230
1.0
 70
     8
 71
     3
 72
    13
 73
     9
 74
     0
 42
0.000000001
 43
0.00000001
 40
0.0
 40
0.0
 40
0.0
 40
0.0
 40
0.1539560333838752
 40
0.3081667464851286
 40
0.5004247877215621
 40
0.6926788651566085
 40
0.884929203041169
 40
1.0
 40
1.0
 40
1.0
 40
1.0
 10
40.65179032464884
 20
0.999741933612597
 30
0.0
 10
40.22963950861789
 20
1.178462808166387
 30
0.0
 10
39.38463953919204
 20
1.536200203899958
 30
0.0
 10
38.01198406285712
 20
2.034154371211156
 30
0.0
 10
36.53441822628633
 20
2.467360049293235
 30
0.0
 10
34.95248129915457
 20
2.761059348354166
 30
0.0
 10
33.58226582000469
 20
2.886510338360946
 30
0.0
 10
32.73935838154731
 20
2.835117038613704
 30
0.0
 10
32.42374705610023
 20
2.815873754342763
 30
0.0
  0
SPLINE
  5
C2
330
1F
100
AcDbEntity
  8
0
  6
Continuous
 62
     1
370
    15
100
AcDbSpline
210
0.0
220
0.0
230
1.0
 70
    24
 71
     3
 72
    10
 73
     6
 74
     0
 42
0.000000001
 43
0.00000001
 40
0.0
 40
0.0
 40
0.0
 40
0.0
 40
0.5000000000000001
 40
0.5000000000000001
 40
1.0
 40
1.0
 40
1.0
 40
1.0
 10
42.86250000000002
 20
-2.818110306790222
 30
0.0
 10
42.86250000000002
 20
-2.602080180097966
 30
0.0
 10
42.86250000000002
 20
-2.329117831578417
 30
0.0
 10
42.8625
 20
-1.694506640966334
 30
0.0
 10
42.86250000000001
 20
-1.333407523148896
 30
0.0
 10
42.86250000000002
 20
-0.9545583978497503
 30
0.0
  0
SPLINE
  5
C3
330
1F
100
AcDbEntity
  8
0
  6
Continuous
 62
     1
370
    15
100
AcDbSpline
210
0.0
220
0.0
230
1.0
 70
    24
 71
     3
 72
     8
 73
     4
 74
     0
 42
0.000000001
 43
0.00000001
 40
0.0
 40
0.0
 40
0.0
 40
0.0
 40
1.0
 40
1.0
 40
1.0
 40
1.0
 10
40.68860572121655
 20
1.744742218100705
 30
0.0
 10
40.57070647324777
 20
1.645813002614025
 30
0.0
 10
40.44603532682656
 20
1.541201489635595
 30
0.0
 10
40.31577522736399
 20
1.43190028821944
 30
0.0
  0
LINE
  5
C4
330
1F
100
AcDbEntity
  8
0
  6
Continuous
 62
     1
370
    15
100
AcDbLine
 10
42.86250000000002
 20
2.500312499999999
 30
0.0
 11
41.54508939875013
 21
2.432622585841419
 31
0.0
  0
SPLINE
  5
C5
330
1F
100
AcDbEntity
  8
0
  6
Continuous
 62
     1
370
    15
100
AcDbSpline
210
0.0
220
0.0
230
1.0
 70
     8
 71
     3
 72
    10
 73
     6
 74
     0
 42
0.000000001
 43
0.00000001
 40
0.0
 40
0.0
 40
0.0
 40
0.0
 40
0.5
 40
0.5
 40
1.0
 40
1.0
 40
1.0
 40
1.0
 10
42.86250000000002
 20
2.500312500000001
 30
0.0
 10
42.49512833713403
 20
2.400608765534519
 30
0.0
 10
42.12997903794976
 20
2.288820943853017
 30
0.0
 10
41.40460432108749
 20
2.038471728705467
 30
0.0
 10
41.04431107134412
 20
1.900406498753715
 30
0.0
 10
40.68860572122253
 20
1.744742218104802
 30
0.0
  0
SPLINE
  5
C6
330
1F
100
AcDbEntity
  8
0
  6
Continuous
 62
     1
370
    15
100
AcDbSpline
210
0.0
220
0.0
230
1.0
 70
     8
 71
     3
 72
    14
 73
    10
 74
     0
 42
0.000000001
 43
0.00000001
 40
0.0
 40
0.0
 40
0.0
 40
0.0
 40
0.035328646470652
 40
0.1950787178248697
 40
0.3548258687099072
 40
0.5145702865587157
 40
0.6743121593001777
 40
0.8371561206475273
 40
0.9999999999999999
 40
0.9999999999999999
 40
0.9999999999999999
 40
0.9999999999999999
 10
35.30230918606638
 20
-2.67051759323707
 30
0.0
 10
35.18569729680404
 20
-2.693467412020293
 30
0.0
 10
34.54178647335003
 20
-2.820192369520806
 30
0.0
 10
33.37059022329206
 20
-2.877829080980134
 30
0.0
 10
31.78873050360992
 20
-2.822174032939565
 30
0.0
 10
30.20689804656782
 20
-2.568948513473135
 30
0.0
 10
28.61486104291739
 20
-2.148723541875817
 30
0.0
 10
27.01254369034321
 20
-1.585980871125654
 30
0.0
 10
25.93751447323162
 20
-1.12634572895992
 30
0.0
 10
25.40000000000001
 20
-0.8965282157357172
 30
0.0
  0
SPLINE
  5
C7
330
1F
100
AcDbEntity
  8
외형선
  6
Continuous
370
    15
100
AcDbSpline
210
0.0
220
0.0
230
1.0
 70
    24
 71
     3
 72
    14
 73
    10
 74
     0
 42
0.000000001
 43
0.00000001
 40
0.0
 40
0.0
 40
0.0
 40
0.0
 40
0.2500000000000001
 40
0.2500000000000001
 40
0.4999999999999999
 40
0.4999999999999999
 40
0.75
 40
0.75
 40
1.0
 40
1.0
 40
1.0
 40
1.0
 10
25.40000000000001
 20
2.374064378244276
 30
0.0
 10
25.40000000000001
 20
2.213105577296439
 30
0.0
 10
25.40000000000001
 20
2.013586727109368
 30
0.0
 10
25.40000000000001
 20
1.545916705661836
 30
0.0
 10
25.40000000000001
 20
1.277859427590788
 30
0.0
 10
25.40000000000001
 20
0.6965808288254194
 30
0.0
 10
25.40000000000001
 20
0.3836692376707466
 30
0.0
 10
25.40000000000001
 20
-0.2549102093437954
 30
0.0
 10
25.40000000000001
 20
-0.580244120504197
 30
0.0
 10
25.40000000000001
 20
-0.8965282157357191
 30
0.0
  0
SPLINE
  5
C8
330
1F
100
AcDbEntity
  8
0
  6
Continuous
 62
     1
370
    15
100
AcDbSpline
210
0.0
220
0.0
230
1.0
 70
     8
 71
     3
 72
     9
 73
     5
 74
     0
 42
0.000000001
 43
0.00000001
 40
0.0
 40
0.0
 40
0.0
 40
0.0
 40
0.0259627676805978
 40
0.9999999999999999
 40
0.9999999999999999
 40
0.9999999999999999
 40
0.9999999999999999
 10
27.05549819192269
 20
-2.969661087868978
 30
0.0
 10
27.04117108588784
 20
-2.971948601403688
 30
0.0
 10
26.48933831477872
 20
-3.060056062166383
 30
0.0
 10
25.93750560517035
 20
-3.044951893693181
 30
0.0
 10
25.40000000000009
 20
-3.030239871237056
 30
0.0
  0
SPLINE
  5
C9
330
1F
100
AcDbEntity
  8
외형선
  6
Continuous
370
    15
100
AcDbSpline
210
0.0
220
0.0
230
1.0
 70
    24
 71
     3
 72
    14
 73
    10
 74
     0
 42
0.000000001
 43
0.00000001
 40
0.0
 40
0.0
 40
0.0
 40
0.0
 40
0.25
 40
0.25
 40
0.5
 40
0.5
 40
0.75
 40
0.75
 40
1.0
 40
1.0
 40
1.0
 40
1.0
 10
25.40000000000001
 20
-0.8965282157357192
 30
0.0
 10
25.40000000000001
 20
-1.14634646021699
 30
0.0
 10
25.40000000000001
 20
-1.389752617810855
 30
0.0
 10
25.40000000000001
 20
-1.844338990096577
 30
0.0
 10
25.40000000000001
 20
-2.055361893117869
 30
0.0
 10
25.40000000000001
 20
-2.428280870331005
 30
0.0
 10
25.40000000000001
 20
-2.590069256842595
 30
0.0
 10
25.40000000000001
 20
-2.854650195069396
 30
0.0
 10
25.40000000000001
 20
-2.95743505333174
 30
0.0
 10
25.40000000000001
 20
-3.030239871237051
 30
0.0
  0
LINE
  5
CA
330
1F
100
AcDbEntity
  8
0
  6
Continuous
 62
     1
370
    15
100
AcDbLine
 10
42.86250000000002
 20
0.0000000000000014
 30
0.0
 11
42.86250000000002
 21
2.500312500000001
 31
0.0
  0
SPLINE
  5
CB
330
1F
100
AcDbEntity
  8
0
  6
Continuous
 62
     1
370
    15
100
AcDbSpline
210
0.0
220
0.0
230
1.0
 70
     8
 71
     3
 72
    10
 73
     6
 74
     0
 42
0.000000001
 43
0.00000001
 40
0.0
 40
0.0
 40
0.0
 40
0.0
 40
0.2448369367250796
 40
0.6224333770984369
 40
1.0
 40
1.0
 40
1.0
 40
1.0
 10
29.46988048398341
 20
-2.810248128416571
 30
0.0
 10
29.13772059029397
 20
-2.927665979779108
 30
0.0
 10
28.29329161184319
 20
-3.226169917676728
 30
0.0
 10
26.93666529960343
 20
-3.505516519210666
 30
0.0
 10
25.91220828304113
 20
-3.549752232166368
 30
0.0
 10
25.40000000000647
 20
-3.571869215324807
 30
0.0
  0
SPLINE
  5
CC
330
1F
100
AcDbEntity
  8
외형선
  6
Continuous
370
    15
100
AcDbSpline
210
0.0
220
0.0
230
1.0
 70
    24
 71
     3
 72
     8
 73
     4
 74
     0
 42
0.000000001
 43
0.00000001
 40
0.0
 40
0.0
 40
0.0
 40
0.0
 40
1.0
 40
1.0
 40
1.0
 40
1.0
 10
25.40000000000001
 20
-3.030239871237053
 30
0.0
 10
25.40000000000001
 20
-3.214648735902584
 30
0.0
 10
25.40000000000001
 20
-3.396369360311925
 30
0.0
 10
25.40000000000001
 20
-3.571869215311337
 30
0.0
  0
SPLINE
  5
CD
330
1F
100
AcDbEntity
  8
0
  6
Continuous
 62
     1
370
    15
100
AcDbSpline
210
0.0
220
0.0
230
1.0
 70
    24
 71
     3
 72
    10
 73
     6
 74
     0
 42
0.000000001
 43
0.00000001
 40
0.0
 40
0.0
 40
0.0
 40
0.0
 40
0.5
 40
0.5
 40
1.0
 40
1.0
 40
1.0
 40
1.0
 10
42.86250000000002
 20
2.5003125
 30
0.0
 10
42.86250000000002
 20
2.651875217283623
 30
0.0
 10
42.86250000000002
 20
2.828005130984732
 30
0.0
 10
42.8625
 20
3.197525215557054
 30
0.0
 10
42.86250000000002
 20
3.389971678503384
 30
0.0
 10
42.86250000000002
 20
3.568856105648384
 30
0.0
  0
SPLINE
  5
CE
330
1F
100
AcDbEntity
  8
0
  6
Continuous
 62
     1
370
    15
100
AcDbSpline
210
0.0
220
0.0
230
1.0
 70
     8
 71
     3
 72
    14
 73
    10
 74
     0
 42
0.000000001
 43
0.00000001
 40
0.0
 40
0.0
 40
0.0
 40
0.0
 40
0.1037662451801638
 40
0.3136675674909523
 40
0.4191430091542176
 40
0.5631693236917561
 40
0.7076659327695715
 40
0.8535883459018967
 40
1.0
 40
1.0
 40
1.0
 40
1.0
 10
37.9618617041265
 20
2.401832493817166
 30
0.0
 10
38.13121875850997
 20
2.472799353784978
 30
0.0
 10
38.6431560960677
 20
2.687320003538907
 30
0.0
 10
39.32911826090947
 20
2.930164167099206
 30
0.0
 10
40.07835518850047
 20
3.15544256674141
 30
0.0
 10
40.7230834995391
 20
3.314666023160895
 30
0.0
 10
41.43174402575132
 20
3.447537827262968
 30
0.0
 10
42.14600579197126
 20
3.537904893071951
 30
0.0
 10
42.62340227881519
 20
3.558527530327039
 30
0.0
 10
42.86249999999987
 20
3.568856105648379
 30
0.0
  0
LINE
  5
CF
330
1F
100
AcDbEntity
  8
중심선
 62
     1
100
AcDbLine
 10
-45.86250000000001
 20
-0.0000000000000056
 30
0.0
 11
45.86250000000001
 21
0.0000000000000056
 31
0.0
  0
LINE
  5
D0
330
1F
100
AcDbEntity
  8
참조1
100
AcDbLine
 10
-14.99421167873052
 20
0.0010749287238892
 30
0.0
 11
-14.99421167873051
 21
-39.99892507127611
 31
0.0
  0
LINE
  5
D1
330
1F
100
AcDbEntity
  8
참조1
100
AcDbLine
 10
-14.99421167873051
 20
-39.99892507127611
 30
0.0
 11
-29.45992727542973
 21
-39.9989250712761
 31
0.0
  0
CIRCLE
  5
D2
330
1F
100
AcDbEntity
  8
해칭선
100
AcDbCircle
 10
0.0
 20
0.0000000000000007
 30
0.0
 40
3.000000000000002
  0
INSERT
  5
D3
330
1F
100
AcDbEntity
  8
0
  6
Continuous
 62
     7
100
AcDbBlockReference
 66
     1
  2
블럭10
 10
-13.24399923251338
 20
-29.2235751862403
 30
0.0
  0
ATTRIB
  5
D4
330
D3
100
AcDbEntity
  8
FORMAT
 62
     2
100
AcDbText
 10
-22.42529452125466
 20
-27.14820827340811
 30
0.0
 40
4.233333333333333
  1
E5025018 [ 2 FLUTE ]
 41
0.75
  7
SLDTEXTSTYLE0
 11
-22.42529452125466
 21
-29.26487494007478
 31
0.0
100
AcDbAttribute
  2
AUTOATTR0
 70
     0
 74
     1
  0
SEQEND
  5
D5
330
D3
100
AcDbEntity
  8
0
  6
Continuous
 62
     7
  0
HATCH
  5
D6
330
1F
100
AcDbEntity
  8
중심선
100
AcDbHatch
 10
0.0
 20
0.0
 30
0.0
210
0.0
220
0.0
230
1.0
  2
SOLID
 70
     1
 71
     0
 91
        1
 92
        0
 93
        4
 72
     1
 10
-7.529089928132521
 20
-12.97640088459636
 11
-10.9753651719698
 21
-12.97640088459636
 72
     1
 10
-10.9753651719698
 20
-12.97640088459636
 11
-13.10359503117382
 21
-15.51272646516896
 72
     1
 10
-13.10359503117382
 20
-15.51272646516896
 11
-9.657286702223395
 21
-15.51268703586647
 72
     1
 10
-9.657286702223395
 20
-15.51268703586647
 11
-7.529089928132521
 21
-12.97640088459636
 97
        0
 75
     0
 76
     1
 98
        1
 10
15.69048537834234
 20
22.82252418667974
  0
HATCH
  5
D7
330
1F
100
AcDbEntity
  8
중심선
100
AcDbHatch
 10
0.0
 20
0.0
 30
0.0
210
0.0
220
0.0
230
1.0
  2
SOLID
 70
     1
 71
     0
 91
        1
 92
        0
 93
        4
 72
     1
 10
-2.516325937096571
 20
-12.97640088459636
 11
-5.962601180933852
 21
-12.97640088459636
 72
     1
 10
-5.962601180933852
 20
-12.97640088459636
 11
-10.49373918929124
 21
-18.37640088459638
 72
     1
 10
-10.49373918929124
 20
-18.37640088459638
 11
-7.047463945453959
 21
-18.37640088459638
 72
     1
 10
-7.047463945453959
 20
-18.37640088459638
 11
-2.516325937096571
 21
-12.97640088459636
 97
        0
 75
     0
 76
     1
 98
        1
 10
15.69048537834234
 20
22.82252418667974
  0
HATCH
  5
D8
330
1F
100
AcDbEntity
  8
중심선
100
AcDbHatch
 10
0.0
 20
0.0
 30
0.0
210
0.0
220
0.0
230
1.0
  2
SOLID
 70
     1
 71
     0
 91
        1
 92
        0
 93
        4
 72
     1
 10
2.496438053939354
 20
-12.97640088459636
 11
-0.9498371898977638
 21
-12.97640088459636
 72
     1
 10
-0.9498371898977638
 20
-12.97640088459636
 11
-7.998274091787039
 21
-21.37640088459638
 72
     1
 10
-7.998274091787039
 20
-21.37640088459638
 11
-4.551998847949758
 21
-21.37640088459638
 72
     1
 10
-4.551998847949758
 20
-21.37640088459638
 11
2.496438053939354
 21
-12.97640088459636
 97
        0
 75
     0
 76
     1
 98
        1
 10
15.69048537834234
 20
22.82252418667974
  0
HATCH
  5
D9
330
1F
100
AcDbEntity
  8
중심선
100
AcDbHatch
 10
0.0
 20
0.0
 30
0.0
210
0.0
220
0.0
230
1.0
  2
SOLID
 70
     1
 71
     0
 91
        1
 92
        0
 93
        6
 72
     3
 10
7.296328484951525
 20
-17.17640088464764
 11
3.960054785062283
 21
1.540882976769353E-10
 40
0.3939339440162628
 50
17.09539180608436
 51
320.0019657685082
 73
     0
 72
     1
 10
8.979328140652093
 20
-15.76429488923469
 11
11.28463001435316
 21
-13.82996817918675
 72
     3
 10
7.296328484898678
 20
-17.17640088459651
 11
6.600054785286829
 21
-1.278976924368180E-13
 40
0.636358354079598
 50
39.99873849337411
 51
368.4976242363724
 73
     1
 72
     1
 10
13.72166097679929
 20
-16.21640088452639
 11
5.976395791734602
 21
-16.21640088452636
 72
     1
 10
5.976395791734602
 20
-16.21640088452636
 11
5.976370747288668
 21
-18.13640088452628
 72
     1
 10
5.976370747288668
 20
-18.13640088452628
 11
10.41775051676071
 21
-18.13640088452625
 97
        0
 75
     0
 76
     1
 98
        1
 10
15.69048537834234
 20
22.82252418667974
  0
DIMENSION
  5
DA
330
1F
100
AcDbEntity
  8
치수문자_일반주서
100
AcDbDimension
  2
_D
 10
-53.20081169322349
 20
-4.762500000000134
 30
0.0
 11
-53.20081169322359
 21
24.71024999999996
 31
0.0
 70
   160
  1
%%c<>
 71
     2
 42
9.525000000000002
 52
-270.0
  3
SLDDIMSTYLE0
100
AcDbAlignedDimension
 13
-19.9565270072383
 23
4.762499999999993
 33
0.0
 14
-19.9565270072383
 24
-4.762500000000009
 34
0.0
 50
90.0000000000002
100
AcDbRotatedDimension
1001
ACAD
1000
DSTYLE
1002
{
1070
   171
1070
     6
1070
   273
1070
     5
1002
}
  0
DIMENSION
  5
EF
330
1F
100
AcDbEntity
  8
치수문자_일반주서
100
AcDbDimension
  2
_D_1
 10
56.53749210439502
 20
3.568856105648432
 30
0.0
 11
56.53749210439494
 21
24.17285610564843
 31
0.0
 70
   160
  1
%%c<>
 71
     2
 42
7.137712211296767
 52
-270.0
  3
SLDDIMSTYLE0
100
AcDbAlignedDimension
 13
42.86250000000002
 23
-3.568856105648385
 33
0.0
 14
42.86250000000002
 24
3.568856105648383
 34
0.0
 50
90.0000000000002
100
AcDbRotatedDimension
1001
ACAD
1000
DSTYLE
1002
{
1070
   171
1070
     6
1070
   273
1070
     5
1002
}
  0
DIMENSION
  5
103
330
1F
100
AcDbEntity
  8
치수문자_일반주서
100
AcDbDimension
  2
_D_2
 10
25.40000000000001
 20
20.20336297407724
 30
0.0
 11
4.796000000000006
 21
20.20336297407724
 31
0.0
 70
   160
  1
<>
 71
     2
 42
17.46250000000001
  3
SLDDIMSTYLE0
100
AcDbAlignedDimension
 13
42.86250000000002
 23
3.568856105648383
 33
0.0
 14
25.40000000000001
 24
3.571874999999999
 34
0.0
100
AcDbRotatedDimension
1001
ACAD
1000
DSTYLE
1002
{
1070
   171
1070
     6
1070
   273
1070
     5
1002
}
  0
DIMENSION
  5
118
330
1F
100
AcDbEntity
  8
치수문자_일반주서
100
AcDbDimension
  2
_D_3
 10
42.86250000000002
 20
38.38250000000002
 30
0.0
 11
0.000000000000016
 21
38.38250000000002
 31
0.0
 70
   160
  1
<>
 71
     2
 42
85.72500000000001
  3
SLDDIMSTYLE0
100
AcDbAlignedDimension
 13
-42.86249999999999
 23
3.56885610564838
 33
0.0
 14
42.86250000000002
 24
3.568856105648383
 34
0.0
100
AcDbRotatedDimension
1001
ACAD
1000
DSTYLE
1002
{
1070
   171
1070
     6
1070
   273
1070
     5
1002
}
  0
LINE
  5
12B
330
1F
100
AcDbEntity
  8
참조1
100
AcDbLine
 10
68.51241335422453
 20
7.441074928723896
 30
0.0
 11
68.51241335422453
 21
-7.438925071276109
 31
0.0
  0
LINE
  5
12C
330
1F
100
AcDbEntity
  8
참조1
100
AcDbLine
 10
81.21241335422454
 20
5.441074928723896
 30
0.0
 11
68.51241335422453
 21
5.441074928723896
 31
0.0
  0
SOLID
  5
12D
330
1F
100
AcDbEntity
  8
참조1
100
AcDbTrace
 10
68.51241335422453
 20
5.441074928723896
 30
0.0
 11
74.86241335422453
 21
4.425074928723896
 31
0.0
 12
74.86241335422453
 22
6.457074928723896
 32
0.0
 13
74.86241335422453
 23
6.457074928723896
 33
0.0
  0
LINE
  5
12E
330
1F
100
AcDbEntity
  8
참조1
100
AcDbLine
 10
81.21241335422454
 20
-5.438925071276109
 30
0.0
 11
68.51241335422453
 21
-5.438925071276109
 31
0.0
  0
SOLID
  5
12F
330
1F
100
AcDbEntity
  8
참조1
100
AcDbTrace
 10
68.51241335422453
 20
-5.438925071276109
 30
0.0
 11
74.86241335422453
 21
-6.454925071276109
 31
0.0
 12
74.86241335422453
 22
-4.422925071276109
 32
0.0
 13
74.86241335422453
 23
-4.422925071276109
 33
0.0
  0
MTEXT
  5
130
330
1F
100
AcDbEntity
  8
참조1
100
AcDbMText
 10
77.89676348685053
 20
11.01136670591222
 30
0.0
 40
3.5
 41
0.0
 71
     1
 72
     1
  1
A
  7
SLDTEXTSTYLE0
 73
     1
 44
1.0
  0
MTEXT
  5
131
330
1F
100
AcDbEntity
  8
참조1
100
AcDbMText
 10
77.89676348685053
 20
0.1313667059122192
 30
0.0
 40
3.5
 41
0.0
 71
     1
 72
     1
  1
A
  7
SLDTEXTSTYLE0
 73
     1
 44
1.0
  0
INSERT
  5
138
330
1F
100
AcDbEntity
  8
해칭선
100
AcDbBlockReference
  2
SW_DOWELSYMBOL_0
 10
0.0
 20
0.0000000000000007
 30
0.0
  0
LINE
  5
187
330
1F
100
AcDbEntity
  8
외형선
  6
Continuous
370
    15
100
AcDbLine
 10
-3.568700000000106
 20
3.492500000000015
 30
0.0
 11
3.568700000000021
 21
3.492500000000015
 31
0.0
  0
LINE
  5
188
330
1F
100
AcDbEntity
  8
외형선
  6
Continuous
370
    15
100
AcDbLine
 10
-3.568700000000106
 20
3.492500000000015
 30
0.0
 11
-4.838700000000088
 21
4.762499999999997
 31
0.0
  0
LINE
  5
189
330
1F
100
AcDbEntity
  8
외형선
  6
Continuous
370
    15
100
AcDbLine
 10
3.568700000000021
 20
3.492500000000015
 30
0.0
 11
4.838700000000117
 21
4.762499999999997
 31
0.0
  0
LINE
  5
2FA
330
1F
100
AcDbEntity
  8
외형선
  6
Continuous
370
    15
100
AcDbLine
 10
-19.9565270072383
 20
4.762499999999993
 30
0.0
 11
-24.39999999999996
 21
3.571874999999992
 31
0.0
  0
LINE
  5
2FB
330
1F
100
AcDbEntity
  8
외형선
  6
Continuous
370
    15
100
AcDbLine
 10
-24.39999999999996
 20
-3.571875000000005
 30
0.0
 11
-19.9565270072383
 21
-4.762500000000009
 31
0.0
  0
LINE
  5
2FC
330
1F
100
AcDbEntity
  8
외형선
  6
Continuous
370
    15
100
AcDbLine
 10
-25.39999999999996
 20
-3.571875000000005
 30
0.0
 11
-24.39999999999996
 21
-3.571875000000005
 31
0.0
  0
LINE
  5
2FD
330
1F
100
AcDbEntity
  8
외형선
  6
Continuous
370
    15
100
AcDbLine
 10
-24.39999999999996
 20
3.571874999999992
 30
0.0
 11
-25.39999999999996
 21
3.571874999999992
 31
0.0
  0
LINE
  5
2FE
330
1F
100
AcDbEntity
  8
0
  6
Continuous
 62
     1
370
    15
100
AcDbLine
 10
-32.65342165233049
 20
-1.392917384934474
 30
0.0
 11
-32.61877877649193
 21
-1.41075663765757
 31
0.0
  0
SPLINE
  5
2FF
330
1F
100
AcDbEntity
  8
0
  6
Continuous
 62
     1
370
    15
100
AcDbSpline
210
0.0
220
0.0
230
1.0
 70
     8
 71
     3
 72
     9
 73
     5
 74
     0
 42
0.000000001
 43
0.00000001
 40
0.0
 40
0.0
 40
0.0
 40
0.0
 40
0.4591260378722835
 40
1.0
 40
1.0
 40
1.0
 40
1.0
 10
-33.60777842502294
 20
-0.9152794422337138
 30
0.0
 10
-33.46118785755005
 20
-0.9851076335505333
 30
0.0
 10
-33.14190610182076
 20
-1.137197006744049
 30
0.0
 10
-32.82488831743576
 20
-1.303155017895921
 30
0.0
 10
-32.65342165233049
 20
-1.392917384934474
 30
0.0
  0
SPLINE
  5
300
330
1F
100
AcDbEntity
  8
0
  6
Continuous
 62
     1
370
    15
100
AcDbSpline
210
0.0
220
0.0
230
1.0
 70
     8
 71
     3
 72
    14
 73
    10
 74
     0
 42
0.000000001
 43
0.00000001
 40
0.0
 40
0.0
 40
0.0
 40
0.0
 40
0.204555636754049
 40
0.3414314213196472
 40
0.439255184384265
 40
0.5421674836070399
 40
0.8516701755819779
 40
0.9396355692048479
 40
1.0
 40
1.0
 40
1.0
 40
1.0
 10
-32.42807362301796
 20
-2.838347634473634
 30
0.0
 10
-32.22560119607878
 20
-2.828542466356775
 30
0.0
 10
-31.88764693774173
 20
-2.812176295570469
 30
0.0
 10
-31.45506893193696
 20
-2.799512674675294
 30
0.0
 10
-31.12459391190388
 20
-2.792943351458191
 30
0.0
 10
-30.62055263857514
 20
-2.78748757174441
 30
0.0
 10
-30.13692091336564
 20
-2.790810154613786
 30
0.0
 10
-29.68102018154449
 20
-2.801828140446466
 30
0.0
 10
-29.53395849080469
 20
-2.806808136702844
 30
0.0
 10
-29.47411014076372
 20
-2.80883480019117
 30
0.0
  0
SPLINE
  5
301
330
1F
100
AcDbEntity
  8
0
  6
Continuous
 62
     1
370
    15
100
AcDbSpline
210
0.0
220
0.0
230
1.0
 70
     8
 71
     3
 72
    19
 73
    15
 74
     0
 42
0.000000001
 43
0.00000001
 40
0.0
 40
0.0
 40
0.0
 40
0.0
 40
0.0855179860286908
 40
0.1458635218294331
 40
0.2044180394530072
 40
0.2799052864983341
 40
0.3594113318338791
 40
0.4341104079433248
 40
0.494561535722714
 40
0.7108317668134684
 40
0.7533293403904084
 40
0.8090775737805163
 40
0.8910733403333694
 40
1.0
 40
1.0
 40
1.0
 40
1.0
 10
-41.54759880224217
 20
-2.444127564448908
 30
0.0
 10
-41.37169142429733
 20
-2.429807100519567
 30
0.0
 10
-41.07165548034744
 20
-2.405381439907486
 30
0.0
 10
-40.64247342957513
 20
-2.380940315010053
 30
0.0
 10
-40.23203414968965
 20
-2.363340858571077
 30
0.0
 10
-39.78765196559446
 20
-2.351927342524422
 30
0.0
 10
-39.30942015065998
 20
-2.349131174407822
 30
0.0
 10
-38.86207642781901
 20
-2.355451136270886
 30
0.0
 10
-38.1298192727546
 20
-2.378353466326732
 30
0.0
 10
-37.46475098030781
 20
-2.422985567412456
 30
0.0
 10
-36.80939190159629
 20
-2.486955399198968
 30
0.0
 10
-36.43435757558078
 20
-2.528161456161764
 30
0.0
 10
-35.92110590231437
 20
-2.592219468546953
 30
0.0
 10
-35.52230707721575
 20
-2.652265576395158
 30
0.0
 10
-35.29478103558126
 20
-2.686523584128458
 30
0.0
  0
SPLINE
  5
302
330
1F
100
AcDbEntity
  8
0
  6
Continuous
 62
     1
370
    15
100
AcDbSpline
210
0.0
220
0.0
230
1.0
 70
     8
 71
     3
 72
    15
 73
    11
 74
     0
 42
0.000000001
 43
0.00000001
 40
0.0
 40
0.0
 40
0.0
 40
0.0
 40
0.1867166411775755
 40
0.3228499308814013
 40
0.4112668041009713
 40
0.4925722242196021
 40
0.5793223873631304
 40
0.6722012751961134
 40
0.9227143498168442
 40
1.0
 40
1.0
 40
1.0
 40
1.0
 10
-35.29478103558126
 20
2.686523584128449
 30
0.0
 10
-35.46002672592287
 20
2.661337734973846
 30
0.0
 10
-35.74575144423816
 20
2.617789127803801
 30
0.0
 10
-36.10901752608277
 20
2.569250490209709
 30
0.0
 10
-36.37951508479845
 20
2.535511011110633
 30
0.0
 10
-36.60641826067832
 20
2.509152346195855
 30
0.0
 10
-36.83720803803124
 20
2.484300964497778
 30
0.0
 10
-37.21781409945707
 20
2.447238531900958
 30
0.0
 10
-37.58870114112825
 20
2.414734101173729
 30
0.0
 10
-37.88029827896018
 20
2.399711519668728
 30
0.0
 10
-37.94904862081209
 20
2.396169620658179
 30
0.0
  0
SPLINE
  5
303
330
1F
100
AcDbEntity
  8
0
  6
Continuous
 62
     1
370
    15
100
AcDbSpline
210
0.0
220
0.0
230
1.0
 70
     8
 71
     3
 72
    21
 73
    17
 74
     0
 42
0.000000001
 43
0.00000001
 40
0.0
 40
0.0
 40
0.0
 40
0.0
 40
0.098485835684581
 40
0.170968465040789
 40
0.2187958735392256
 40
0.2621745101045714
 40
0.3076152258407572
 40
0.4751396766049493
 40
0.5206833728244942
 40
0.569669389706711
 40
0.6239861161212102
 40
0.6806750554971925
 40
0.7344802611803443
 40
0.7964130370066227
 40
0.8844967849309711
 40
1.0
 40
1.0
 40
1.0
 40
1.0
 10
-27.05478253887296
 20
2.972294961593072
 30
0.0
 10
-27.23193558351554
 20
2.955258253844158
 30
0.0
 10
-27.53946797037413
 20
2.925683038759328
 30
0.0
 10
-27.93221793966979
 20
2.894059590295009
 30
0.0
 10
-28.22350077486283
 20
2.872857574479242
 30
0.0
 10
-28.46690089440435
 20
2.856748624016377
 30
0.0
 10
-28.92593553533741
 20
2.829587617457194
 30
0.0
 10
-29.38927369372849
 20
2.809795390246721
 30
0.0
 10
-29.85853737139747
 20
2.797506087899689
 30
0.0
 10
-30.12497685375084
 20
2.792532692315739
 30
0.0
 10
-30.41152582066292
 20
2.789582283750954
 30
0.0
 10
-30.70676944024175
 20
2.789157706116446
 30
0.0
 10
-31.01565835235667
 20
2.791410968625031
 30
0.0
 10
-31.38055891415494
 20
2.797521477231272
 30
0.0
 10
-31.85560994883404
 20
2.810733346108212
 30
0.0
 10
-32.22085510165832
 20
2.828351905029941
 30
0.0
 10
-32.42807362301796
 20
2.838347634473625
 30
0.0
  0
LINE
  5
304
330
1F
100
AcDbEntity
  8
외형선
  6
Continuous
370
    15
100
AcDbLine
 10
-19.9565270072383
 20
-4.762500000000009
 30
0.0
 11
-19.9565270072383
 21
4.7625
 31
0.0
  0
LINE
  5
305
330
1F
100
AcDbEntity
  8
외형선
  6
Continuous
370
    15
100
AcDbLine
 10
-24.39999999999996
 20
-3.571875000000005
 30
0.0
 11
-24.39999999999996
 21
-3.547802494904245
 31
0.0
  0
SPLINE
  5
306
330
1F
100
AcDbEntity
  8
외형선
  6
Continuous
370
    15
100
AcDbSpline
210
0.0
220
0.0
230
1.0
 70
     8
 71
     3
 72
     8
 73
     4
 74
     0
 42
0.000000001
 43
0.00000001
 40
0.0
 40
0.0
 40
0.0
 40
0.0
 40
0.0005964488063481
 40
0.0005964488063481
 40
0.0005964488063481
 40
0.0005964488063481
 10
-23.87988481336007
 20
-3.707366245633302
 30
0.0
 10
-24.05335989087346
 20
-3.657036830257161
 30
0.0
 10
-24.22677470154643
 20
-3.603853013562882
 30
0.0
 10
-24.39999999999913
 20
-3.547802494902952
 30
0.0
  0
LINE
  5
307
330
1F
100
AcDbEntity
  8
외형선
  6
Continuous
370
    15
100
AcDbLine
 10
-23.87988481336007
 20
3.613065388775046
 30
0.0
 11
-23.87988481336007
 21
-3.707369217593572
 31
0.0
  0
SPLINE
  5
308
330
1F
100
AcDbEntity
  8
외형선
  6
Continuous
370
    15
100
AcDbSpline
210
0.0
220
0.0
230
1.0
 70
     8
 71
     3
 72
     8
 73
     4
 74
     0
 42
0.000000001
 43
0.00000001
 40
0.0
 40
0.0
 40
0.0
 40
0.0
 40
1.0
 40
1.0
 40
1.0
 40
1.0
 10
-24.39999999999996
 20
3.524149554289516
 30
0.0
 10
-24.22611587561787
 20
3.557067655371633
 30
0.0
 10
-24.05270550382128
 20
3.586802808236038
 30
0.0
 10
-23.87976412130158
 20
3.613121586317257
 30
0.0
  0
LINE
  5
309
330
1F
100
AcDbEntity
  8
외형선
  6
Continuous
370
    15
100
AcDbLine
 10
-24.39999999999996
 20
3.524149554289516
 30
0.0
 11
-24.39999999999996
 21
3.571874999999992
 31
0.0
  0
SPLINE
  5
30A
330
1F
100
AcDbEntity
  8
외형선
  6
Continuous
370
    15
100
AcDbSpline
210
0.0
220
0.0
230
1.0
 70
     8
 71
     3
 72
    10
 73
     6
 74
     0
 42
0.000000001
 43
0.00000001
 40
0.0
 40
0.0
 40
0.0
 40
0.0
 40
0.5
 40
0.5
 40
1.0
 40
1.0
 40
1.0
 40
1.0
 10
-25.40000000001201
 20
3.03023987123741
 30
0.0
 10
-25.14655290847808
 20
3.02252105576525
 30
0.0
 10
-24.89612932877376
 20
3.007239071363014
 30
0.0
 10
-24.38880840533913
 20
2.961514573103362
 30
0.0
 10
-24.13361209598069
 20
2.931063152259239
 30
0.0
 10
-23.87976412130158
 20
2.893361265562029
 30
0.0
  0
SPLINE
  5
30B
330
1F
100
AcDbEntity
  8
외형선
  6
Continuous
370
    15
100
AcDbSpline
210
0.0
220
0.0
230
1.0
 70
     8
 71
     3
 72
    10
 73
     6
 74
     0
 42
0.000000001
 43
0.00000001
 40
0.0
 40
0.0
 40
0.0
 40
0.0
 40
0.5
 40
0.5
 40
1.0
 40
1.0
 40
1.0
 40
1.0
 10
-25.39999999999998
 20
0.8965282157357108
 30
0.0
 10
-25.14656565904321
 20
0.7853990022210595
 30
0.0
 10
-24.89615469708318
 20
0.672464483131155
 30
0.0
 10
-24.38885960485121
 20
0.4428230368652393
 30
0.0
 10
-24.13367622077647
 20
0.326362407271472
 30
0.0
 10
-23.87984074580044
 20
0.2095772634796703
 30
0.0
  0
SPLINE
  5
30C
330
1F
100
AcDbEntity
  8
외형선
  6
Continuous
370
    15
100
AcDbSpline
210
0.0
220
0.0
230
1.0
 70
    24
 71
     3
 72
    14
 73
    10
 74
     0
 42
0.000000001
 43
0.00000001
 40
0.0
 40
0.0
 40
0.0
 40
0.0
 40
0.25
 40
0.25
 40
0.5
 40
0.5
 40
0.75
 40
0.75
 40
1.0
 40
1.0
 40
1.0
 40
1.0
 10
-25.39999999999996
 20
0.8965282157357108
 30
0.0
 10
-25.39999999999996
 20
1.146346460216979
 30
0.0
 10
-25.39999999999996
 20
1.389752617810846
 30
0.0
 10
-25.39999999999996
 20
1.844338990096568
 30
0.0
 10
-25.39999999999996
 20
2.055361893117859
 30
0.0
 10
-25.39999999999996
 20
2.428280870330995
 30
0.0
 10
-25.39999999999996
 20
2.590069256842587
 30
0.0
 10
-25.39999999999996
 20
2.854650195069387
 30
0.0
 10
-25.39999999999996
 20
2.95743505333173
 30
0.0
 10
-25.39999999999996
 20
3.030239871237041
 30
0.0
  0
SPLINE
  5
30D
330
1F
100
AcDbEntity
  8
외형선
  6
Continuous
370
    15
100
AcDbSpline
210
0.0
220
0.0
230
1.0
 70
     8
 71
     3
 72
    10
 73
     6
 74
     0
 42
0.000000001
 43
0.00000001
 40
0.0
 40
0.0
 40
0.0
 40
0.0
 40
0.5
 40
0.5
 40
1.0
 40
1.0
 40
1.0
 40
1.0
 10
-25.39999999999998
 20
-2.374064378244284
 30
0.0
 10
-25.14656815406023
 20
-2.406194438638145
 30
0.0
 10
-24.89615966112198
 20
-2.432248230582725
 30
0.0
 10
-24.38886962350725
 20
-2.472229693563018
 30
0.0
 10
-24.13368876863829
 20
-2.486063074602362
 30
0.0
 10
-23.8798557395985
 20
-2.493578176179084
 30
0.0
  0
SPLINE
  5
30E
330
1F
100
AcDbEntity
  8
외형선
  6
Continuous
370
    15
100
AcDbSpline
210
0.0
220
0.0
230
1.0
 70
    24
 71
     3
 72
    14
 73
    10
 74
     0
 42
0.000000001
 43
0.00000001
 40
0.0
 40
0.0
 40
0.0
 40
0.0
 40
0.25
 40
0.25
 40
0.5
 40
0.5
 40
0.75
 40
0.75
 40
1.0
 40
1.0
 40
1.0
 40
1.0
 10
-25.39999999999996
 20
-2.374064378244287
 30
0.0
 10
-25.39999999999996
 20
-2.213105577296449
 30
0.0
 10
-25.39999999999996
 20
-2.01358672710938
 30
0.0
 10
-25.39999999999996
 20
-1.545916705661848
 30
0.0
 10
-25.39999999999996
 20
-1.277859427590797
 30
0.0
 10
-25.39999999999996
 20
-0.6965808288254316
 30
0.0
 10
-25.39999999999996
 20
-0.3836692376707582
 30
0.0
 10
-25.39999999999996
 20
0.2549102093437846
 30
0.0
 10
-25.39999999999996
 20
0.5802441205041873
 30
0.0
 10
-25.39999999999996
 20
0.8965282157357073
 30
0.0
  0
SPLINE
  5
30F
330
1F
100
AcDbEntity
  8
외형선
  6
Continuous
370
    15
100
AcDbSpline
210
0.0
220
0.0
230
1.0
 70
     8
 71
     3
 72
     8
 73
     4
 74
     0
 42
0.000000001
 43
0.00000001
 40
0.0
 40
0.0
 40
0.0
 40
0.0
 40
1.0
 40
1.0
 40
1.0
 40
1.0
 10
-24.39999999999996
 20
-3.547802494904245
 30
0.0
 10
-24.73526228114256
 20
-3.5254241066118
 30
0.0
 10
-25.06592226282968
 20
-3.487647386377176
 30
0.0
 10
-25.40000000000001
 20
-3.43471928513152
 30
0.0
  0
SPLINE
  5
310
330
1F
100
AcDbEntity
  8
외형선
  6
Continuous
370
    15
100
AcDbSpline
210
0.0
220
0.0
230
1.0
 70
    24
 71
     3
 72
    10
 73
     6
 74
     0
 42
0.000000001
 43
0.00000001
 40
0.0
 40
0.0
 40
0.0
 40
0.0
 40
0.5
 40
0.5
 40
1.0
 40
1.0
 40
1.0
 40
1.0
 10
-25.39999999999998
 20
-3.434719285131524
 30
0.0
 10
-25.39999999999998
 20
-3.279227934726612
 30
0.0
 10
-25.39999999999998
 20
-3.099904990458785
 30
0.0
 10
-25.39999999999998
 20
-2.732492031962354
 30
0.0
 10
-25.39999999999998
 20
-2.545428492124347
 30
0.0
 10
-25.39999999999998
 20
-2.374064378244284
 30
0.0
  0
LINE
  5
311
330
1F
100
AcDbEntity
  8
외형선
  6
Continuous
370
    15
100
AcDbLine
 10
-25.39999999999996
 20
-3.571869215324802
 30
0.0
 11
-25.39999999999996
 21
-3.434719285131528
 31
0.0
  0
SPLINE
  5
312
330
1F
100
AcDbEntity
  8
외형선
  6
Continuous
370
    15
100
AcDbSpline
210
0.0
220
0.0
230
1.0
 70
     8
 71
     3
 72
     8
 73
     4
 74
     0
 42
0.000000001
 43
0.00000001
 40
0.0
 40
0.0
 40
0.0
 40
0.0
 40
1.0
 40
1.0
 40
1.0
 40
1.0
 10
-25.40000000001127
 20
3.571869215324804
 30
0.0
 10
-25.06592226283713
 20
3.571522136345028
 30
0.0
 10
-24.73526228114631
 20
3.555606789670638
 30
0.0
 10
-24.39999999999996
 20
3.524149554289516
 30
0.0
  0
SPLINE
  5
313
330
1F
100
AcDbEntity
  8
외형선
  6
Continuous
370
    15
100
AcDbSpline
210
0.0
220
0.0
230
1.0
 70
    24
 71
     3
 72
     8
 73
     4
 74
     0
 42
0.000000001
 43
0.00000001
 40
0.0
 40
0.0
 40
0.0
 40
0.0
 40
1.0
 40
1.0
 40
1.0
 40
1.0
 10
-25.39999999999996
 20
3.030239871237044
 30
0.0
 10
-25.39999999999996
 20
3.214648735902579
 30
0.0
 10
-25.39999999999996
 20
3.396369360311927
 30
0.0
 10
-25.39999999999996
 20
3.571869215311339
 30
0.0
  0
SPLINE
  5
314
330
1F
100
AcDbEntity
  8
0
  6
Continuous
 62
     1
370
    15
100
AcDbSpline
210
0.0
220
0.0
230
1.0
 70
     8
 71
     3
 72
    40
 73
    36
 74
     0
 42
0.000000001
 43
0.00000001
 40
0.0
 40
0.0
 40
0.0
 40
0.0
 40
0.0625
 40
0.0625
 40
0.1250000000000001
 40
0.1250000000000001
 40
0.1875000000000001
 40
0.1875000000000001
 40
0.2500000000000001
 40
0.2500000000000001
 40
0.3125000000000001
 40
0.3125000000000001
 40
0.3750000000000002
 40
0.3750000000000002
 40
0.4375000000000002
 40
0.4375000000000002
 40
0.5000000000000002
 40
0.5000000000000002
 40
0.5625000000000002
 40
0.5625000000000002
 40
0.6250000000000002
 40
0.6250000000000002
 40
0.6875000000000002
 40
0.6875000000000002
 40
0.7500000000000001
 40
0.7500000000000001
 40
0.8125
 40
0.8125
 40
0.8749999999999999
 40
0.8749999999999999
 40
0.90625
 40
0.90625
 40
0.9375
 40
0.9375
 40
1.0
 40
1.0
 40
1.0
 40
1.0
 10
-42.86249999999999
 20
3.389498167287688
 30
0.0
 10
-42.5018378839001
 20
3.323433932246442
 30
0.0
 10
-42.13488326143531
 20
3.239373296434821
 30
0.0
 10
-41.40534598454719
 20
3.038770204311754
 30
0.0
 10
-41.04571583718482
 20
2.922691170030896
 30
0.0
 10
-40.31591620360829
 20
2.660365350408811
 30
0.0
 10
-39.94986027121224
 20
2.514472548174131
 30
0.0
 10
-39.22775848641786
 20
2.199652248711772
 30
0.0
 10
-38.86067889641701
 20
2.029113941909107
 30
0.0
 10
-38.13143824798249
 20
1.669465410358737
 30
0.0
 10
-37.77174882919028
 20
1.480880191089899
 30
0.0
 10
-37.04172115185307
 20
1.088494551339814
 30
0.0
 10
-36.67650564118615
 20
0.8855644083840957
 30
0.0
 10
-35.95365941649235
 20
0.474080641312942
 30
0.0
 10
-35.58647235506633
 20
0.2637151546806862
 30
0.0
 10
-34.85756256033282
 20
-0.1565499567012118
 30
0.0
 10
-34.49775460796193
 20
-0.3660685867121415
 30
0.0
 10
-33.76753323558552
 20
-0.7811741700506929
 30
0.0
 10
-33.40309974747016
 20
-0.985595890942885
 30
0.0
 10
-32.67954231096318
 20
-1.381198169756259
 30
0.0
 10
-32.31226529144121
 20
-1.573830979644462
 30
0.0
 10
-31.5837205237983
 20
-1.93973055703341
 30
0.0
 10
-31.22373479425895
 20
-2.11287464655291
 30
0.0
 10
-30.49335410597789
 20
-2.43712373766921
 30
0.0
 10
-30.12964411939419
 20
-2.587162521373044
 30
0.0
 10
-29.40540880953689
 20
-2.858610319312315
 30
0.0
 10
-29.03805935966546
 20
-2.980794109212396
 30
0.0
 10
-28.30991373532195
 20
-3.192258005128809
 30
0.0
 10
-27.94969101285543
 20
-3.281647880557833
 30
0.0
 10
-27.40181181283382
 20
-3.39014425095199
 30
0.0
 10
-27.21897401547941
 20
-3.421954735954933
 30
0.0
 10
-26.85500737626175
 20
-3.476525731776738
 30
0.0
 10
-26.6749203590932
 20
-3.49925643159085
 30
0.0
 10
-26.13126055452947
 20
-3.553955608666317
 30
0.0
 10
-25.76385621366646
 20
-3.572247231664796
 30
0.0
 10
-25.40000000000644
 20
-3.571869215324813
 30
0.0
  0
SPLINE
  5
315
330
1F
100
AcDbEntity
  8
0
  6
Continuous
 62
     1
370
    15
100
AcDbSpline
210
0.0
220
0.0
230
1.0
 70
     8
 71
     3
 72
    13
 73
     9
 74
     0
 42
0.000000001
 43
0.00000001
 40
0.0
 40
0.0
 40
0.0
 40
0.0
 40
0.1705153033777686
 40
0.3410265566632327
 40
0.5115339539286514
 40
0.6820376899393602
 40
0.8525379601196217
 40
1.0
 40
1.0
 40
1.0
 40
1.0
 10
-42.86249999999999
 20
2.818110306790218
 30
0.0
 10
-42.33513500936767
 20
2.703999881275046
 30
0.0
 10
-41.28041755411599
 20
2.47578174060411
 30
0.0
 10
-39.69836669478801
 20
1.923469282907363
 30
0.0
 10
-38.11635646236594
 20
1.258855162528932
 30
0.0
 10
-36.53438545718976
 20
0.5103503314035158
 30
0.0
 10
-35.02369183691039
 20
-0.2405052456436778
 30
0.0
 10
-34.04032376891008
 20
-0.7070646607740116
 30
0.0
 10
-33.58426512084925
 20
-0.9234418882114206
 30
0.0
  0
LINE
  5
316
330
1F
100
AcDbEntity
  8
0
  6
Continuous
 62
     1
370
    15
100
AcDbLine
 10
-42.86249999999999
 20
3.389498167287688
 30
0.0
 11
-42.86249999999999
 21
2.818110306790218
 31
0.0
  0
SPLINE
  5
317
330
1F
100
AcDbEntity
  8
0
  6
Continuous
 62
     1
370
    15
100
AcDbSpline
210
0.0
220
0.0
230
1.0
 70
     8
 71
     3
 72
    40
 73
    36
 74
     0
 42
0.000000001
 43
0.00000001
 40
0.0
 40
0.0
 40
0.0
 40
0.0
 40
0.0625
 40
0.0625
 40
0.09375
 40
0.09375
 40
0.125
 40
0.125
 40
0.1875
 40
0.1875
 40
0.25
 40
0.25
 40
0.3125
 40
0.3125
 40
0.375
 40
0.375
 40
0.4375
 40
0.4375
 40
0.5
 40
0.5
 40
0.5625
 40
0.5625
 40
0.625
 40
0.625
 40
0.6875
 40
0.6875
 40
0.75
 40
0.75
 40
0.8125
 40
0.8125
 40
0.875
 40
0.875
 40
0.9375
 40
0.9375
 40
1.0
 40
1.0
 40
1.0
 40
1.0
 10
-25.39999999999998
 20
-3.434719285131528
 30
0.0
 10
-25.76385621366013
 20
-3.377073365117272
 30
0.0
 10
-26.13126055452324
 20
-3.301289012930531
 30
0.0
 10
-26.67492035908729
 20
-3.163139388777004
 30
0.0
 10
-26.85500737625586
 20
-3.113047122153385
 30
0.0
 10
-27.21897401547361
 20
-3.004575297584846
 30
0.0
 10
-27.40181181282808
 20
-2.94627964895703
 30
0.0
 10
-27.94969101284992
 20
-2.760192964806275
 30
0.0
 10
-28.30991373531661
 20
-2.621750065198564
 30
0.0
 10
-29.03805935966032
 20
-2.318237078439469
 30
0.0
 10
-29.40540880953188
 20
-2.153117048850294
 30
0.0
 10
-30.12964411938956
 20
-1.803925388914418
 30
0.0
 10
-30.49335410597329
 20
-1.618816650711245
 30
0.0
 10
-31.22373479425466
 20
-1.233194218421782
 30
0.0
 10
-31.58372052379415
 20
-1.033909796057802
 30
0.0
 10
-32.31226529143726
 20
-0.6251576107541965
 30
0.0
 10
-32.6795423109594
 20
-0.4158912573996531
 30
0.0
 10
-33.40309974746672
 20
0.0026892795286145
 30
0.0
 10
-33.76753323558214
 20
0.2135616251717359
 30
0.0
 10
-34.49775460795883
 20
0.6311752366705725
 30
0.0
 10
-34.85756256032989
 20
0.8367818342685254
 30
0.0
 10
-35.58647235506363
 20
1.238959652656654
 30
0.0
 10
-35.95365941648979
 20
1.435108825320257
 30
0.0
 10
-36.6765056411839
 20
1.808556043813913
 30
0.0
 10
-37.04172115185091
 20
1.987512764188534
 30
0.0
 10
-37.77174882918838
 20
2.322864519309424
 30
0.0
 10
-38.13143824798076
 20
2.47856330412812
 30
0.0
 10
-38.8606788964155
 20
2.764114490120549
 30
0.0
 10
-39.2277584864165
 20
2.893481828315111
 30
0.0
 10
-39.94986027121119
 20
3.119694204920429
 30
0.0
 10
-40.31591620360732
 20
3.217706337088864
 30
0.0
 10
-41.04571583718417
 20
3.379070539616866
 30
0.0
 10
-41.40534598454668
 20
3.442287546065725
 30
0.0
 10
-42.13488326143506
 20
3.533042517511814
 30
0.0
 10
-42.50183788389999
 20
3.560247567353927
 30
0.0
 10
-42.86249999999999
 20
3.568856105648377
 30
0.0
  0
SPLINE
  5
318
330
1F
100
AcDbEntity
  8
0
  6
Continuous
 62
     1
370
    15
100
AcDbSpline
210
0.0
220
0.0
230
1.0
 70
     8
 71
     3
 72
    13
 73
     9
 74
     0
 42
0.000000001
 43
0.00000001
 40
0.0
 40
0.0
 40
0.0
 40
0.0
 40
0.0707313876080695
 40
0.2551564235749899
 40
0.4395782198310349
 40
0.6239969991399317
 40
0.8119985480889368
 40
1.0
 40
1.0
 40
1.0
 40
1.0
 10
-33.97727013773943
 20
0.3328832249383254
 30
0.0
 10
-33.77504291553181
 20
0.2527067233837286
 30
0.0
 10
-33.04552838863015
 20
-0.0365220063675224
 30
0.0
 10
-31.78873965376133
 20
-0.5500038424700506
 30
0.0
 10
-30.20690876839348
 20
-1.15554717459647
 30
0.0
 10
-28.61486643223436
 20
-1.687938952710329
 30
0.0
 10
-27.01254973772829
 20
-2.122763329809191
 30
0.0
 10
-25.93751648676207
 20
-2.290297376511513
 30
0.0
 10
-25.39999999999996
 20
-2.374064378244284
 30
0.0
  0
SPLINE
  5
319
330
1F
100
AcDbEntity
  8
외형선
  6
Continuous
370
    15
100
AcDbSpline
210
0.0
220
0.0
230
1.0
 70
    24
 71
     3
 72
    10
 73
     6
 74
     0
 42
0.000000001
 43
0.00000001
 40
0.0
 40
0.0
 40
0.0
 40
0.0
 40
0.5
 40
0.5
 40
1.0
 40
1.0
 40
1.0
 40
1.0
 10
-25.39999999999998
 20
-3.434719285131528
 30
0.0
 10
-25.39999999999998
 20
-3.279227934726612
 30
0.0
 10
-25.39999999999998
 20
-3.099904990458788
 30
0.0
 10
-25.39999999999998
 20
-2.732492031962354
 30
0.0
 10
-25.39999999999998
 20
-2.545428492124347
 30
0.0
 10
-25.39999999999998
 20
-2.374064378244284
 30
0.0
  0
LINE
  5
31A
330
1F
100
AcDbEntity
  8
0
  6
Continuous
 62
     1
370
    15
100
AcDbLine
 10
-42.86249999999999
 20
3.56885610564838
 30
0.0
 11
-42.86249999999999
 21
3.389498167287688
 31
0.0
  0
SPLINE
  5
31B
330
1F
100
AcDbEntity
  8
0
  6
Continuous
 62
     1
370
    15
100
AcDbSpline
210
0.0
220
0.0
230
1.0
 70
     8
 71
     3
 72
     8
 73
     4
 74
     0
 42
0.000000001
 43
0.00000001
 40
0.0
 40
0.0
 40
0.0
 40
0.0
 40
1.0
 40
1.0
 40
1.0
 40
1.0
 10
-40.65179032464881
 20
-0.9997419336126001
 30
0.0
 10
-40.52501879666182
 20
-1.149960286334952
 30
0.0
 10
-40.41195297331553
 20
-1.294455991350851
 30
0.0
 10
-40.31577522736388
 20
-1.431900288219406
 30
0.0
  0
LINE
  5
31C
330
1F
100
AcDbEntity
  8
0
  6
Continuous
 62
     1
370
    15
100
AcDbLine
 10
-40.36092475711121
 20
-1.469785241978222
 30
0.0
 11
-42.86249999999999
 21
-0.0000000000000064
 31
0.0
  0
LINE
  5
31D
330
1F
100
AcDbEntity
  8
0
  6
Continuous
 62
     1
370
    15
100
AcDbLine
 10
-42.86249999999999
 20
-0.0000000000000064
 30
0.0
 11
-42.86249999999999
 21
0.9545583978496317
 31
0.0
  0
SPLINE
  5
31E
330
1F
100
AcDbEntity
  8
0
  6
Continuous
 62
     1
370
    15
100
AcDbSpline
210
0.0
220
0.0
230
1.0
 70
     8
 71
     3
 72
    10
 73
     6
 74
     0
 42
0.000000001
 43
0.00000001
 40
0.0
 40
0.0
 40
0.0
 40
0.0
 40
0.5
 40
0.5
 40
1.0
 40
1.0
 40
1.0
 40
1.0
 10
-42.86249999999999
 20
0.9545583978496317
 30
0.0
 10
-42.4798105339466
 20
0.6536983022613085
 30
0.0
 10
-42.10351719109926
 20
0.3404982155421806
 30
0.0
 10
-41.36404180226993
 20
-0.3111974817345661
 30
0.0
 10
-40.99741716278957
 20
-0.6531273299819376
 30
0.0
 10
-40.65179032464878
 20
-0.9997419336126072
 30
0.0
  0
SPLINE
  5
31F
330
1F
100
AcDbEntity
  8
0
  6
Continuous
 62
     1
370
    15
100
AcDbSpline
210
0.0
220
0.0
230
1.0
 70
     8
 71
     3
 72
    13
 73
     9
 74
     0
 42
0.000000001
 43
0.00000001
 40
0.0
 40
0.0
 40
0.0
 40
0.0
 40
0.1539560333838752
 40
0.3081667464851286
 40
0.5004247877215621
 40
0.6926788651566085
 40
0.884929203041169
 40
1.0
 40
1.0
 40
1.0
 40
1.0
 10
-40.65179032464878
 20
-0.9997419336126037
 30
0.0
 10
-40.22963950861786
 20
-1.178462808166393
 30
0.0
 10
-39.384639539192
 20
-1.536200203899962
 30
0.0
 10
-38.01198406285707
 20
-2.034154371211161
 30
0.0
 10
-36.53441822628628
 20
-2.46736004929324
 30
0.0
 10
-34.95248129915453
 20
-2.761059348354173
 30
0.0
 10
-33.58226582000464
 20
-2.886510338360956
 30
0.0
 10
-32.73935838154726
 20
-2.835117038613709
 30
0.0
 10
-32.42374705610019
 20
-2.815873754342767
 30
0.0
  0
SPLINE
  5
320
330
1F
100
AcDbEntity
  8
0
  6
Continuous
 62
     1
370
    15
100
AcDbSpline
210
0.0
220
0.0
230
1.0
 70
    24
 71
     3
 72
    10
 73
     6
 74
     0
 42
0.000000001
 43
0.00000001
 40
0.0
 40
0.0
 40
0.0
 40
0.0
 40
0.5000000000000001
 40
0.5000000000000001
 40
1.0
 40
1.0
 40
1.0
 40
1.0
 10
-42.86249999999999
 20
2.818110306790218
 30
0.0
 10
-42.86249999999999
 20
2.602080180097961
 30
0.0
 10
-42.86249999999999
 20
2.329117831578412
 30
0.0
 10
-42.86249999999996
 20
1.694506640966328
 30
0.0
 10
-42.86249999999996
 20
1.33340752314889
 30
0.0
 10
-42.86249999999999
 20
0.9545583978497454
 30
0.0
  0
SPLINE
  5
321
330
1F
100
AcDbEntity
  8
0
  6
Continuous
 62
     1
370
    15
100
AcDbSpline
210
0.0
220
0.0
230
1.0
 70
    24
 71
     3
 72
     8
 73
     4
 74
     0
 42
0.000000001
 43
0.00000001
 40
0.0
 40
0.0
 40
0.0
 40
0.0
 40
1.0
 40
1.0
 40
1.0
 40
1.0
 10
-40.68860572121651
 20
-1.744742218100711
 30
0.0
 10
-40.57070647324773
 20
-1.64581300261403
 30
0.0
 10
-40.44603532682653
 20
-1.5412014896356
 30
0.0
 10
-40.31577522736396
 20
-1.431900288219445
 30
0.0
  0
LINE
  5
322
330
1F
100
AcDbEntity
  8
0
  6
Continuous
 62
     1
370
    15
100
AcDbLine
 10
-42.86249999999999
 20
-2.500312500000006
 30
0.0
 11
-41.5450893987501
 21
-2.432622585841425
 31
0.0
  0
SPLINE
  5
323
330
1F
100
AcDbEntity
  8
0
  6
Continuous
 62
     1
370
    15
100
AcDbSpline
210
0.0
220
0.0
230
1.0
 70
     8
 71
     3
 72
    10
 73
     6
 74
     0
 42
0.000000001
 43
0.00000001
 40
0.0
 40
0.0
 40
0.0
 40
0.0
 40
0.5
 40
0.5
 40
1.0
 40
1.0
 40
1.0
 40
1.0
 10
-42.86249999999999
 20
-2.500312500000006
 30
0.0
 10
-42.495128337134
 20
-2.400608765534524
 30
0.0
 10
-42.12997903794972
 20
-2.288820943853021
 30
0.0
 10
-41.40460432108745
 20
-2.038471728705473
 30
0.0
 10
-41.04431107134409
 20
-1.900406498753721
 30
0.0
 10
-40.68860572122248
 20
-1.744742218104807
 30
0.0
  0
SPLINE
  5
324
330
1F
100
AcDbEntity
  8
0
  6
Continuous
 62
     1
370
    15
100
AcDbSpline
210
0.0
220
0.0
230
1.0
 70
     8
 71
     3
 72
    14
 73
    10
 74
     0
 42
0.000000001
 43
0.00000001
 40
0.0
 40
0.0
 40
0.0
 40
0.0
 40
0.035328646470652
 40
0.1950787178248697
 40
0.3548258687099072
 40
0.5145702865587157
 40
0.6743121593001777
 40
0.8371561206475273
 40
0.9999999999999999
 40
0.9999999999999999
 40
0.9999999999999999
 40
0.9999999999999999
 10
-35.30230918606635
 20
2.670517593237066
 30
0.0
 10
-35.185697296804
 20
2.693467412020287
 30
0.0
 10
-34.54178647334999
 20
2.820192369520801
 30
0.0
 10
-33.37059022329201
 20
2.877829080980129
 30
0.0
 10
-31.78873050360986
 20
2.822174032939558
 30
0.0
 10
-30.20689804656778
 20
2.568948513473129
 30
0.0
 10
-28.61486104291735
 20
2.148723541875811
 30
0.0
 10
-27.01254369034317
 20
1.585980871125646
 30
0.0
 10
-25.93751447323158
 20
1.126345728959909
 30
0.0
 10
-25.39999999999996
 20
0.8965282157357073
 30
0.0
  0
SPLINE
  5
325
330
1F
100
AcDbEntity
  8
외형선
  6
Continuous
370
    15
100
AcDbSpline
210
0.0
220
0.0
230
1.0
 70
    24
 71
     3
 72
    14
 73
    10
 74
     0
 42
0.000000001
 43
0.00000001
 40
0.0
 40
0.0
 40
0.0
 40
0.0
 40
0.2500000000000001
 40
0.2500000000000001
 40
0.4999999999999999
 40
0.4999999999999999
 40
0.75
 40
0.75
 40
1.0
 40
1.0
 40
1.0
 40
1.0
 10
-25.39999999999996
 20
-2.374064378244284
 30
0.0
 10
-25.39999999999996
 20
-2.213105577296449
 30
0.0
 10
-25.39999999999996
 20
-2.013586727109376
 30
0.0
 10
-25.39999999999996
 20
-1.545916705661845
 30
0.0
 10
-25.39999999999996
 20
-1.277859427590797
 30
0.0
 10
-25.39999999999996
 20
-0.696580828825428
 30
0.0
 10
-25.39999999999996
 20
-0.3836692376707546
 30
0.0
 10
-25.39999999999996
 20
0.2549102093437846
 30
0.0
 10
-25.39999999999996
 20
0.5802441205041873
 30
0.0
 10
-25.39999999999996
 20
0.8965282157357108
 30
0.0
  0
SPLINE
  5
326
330
1F
100
AcDbEntity
  8
0
  6
Continuous
 62
     1
370
    15
100
AcDbSpline
210
0.0
220
0.0
230
1.0
 70
     8
 71
     3
 72
     9
 73
     5
 74
     0
 42
0.000000001
 43
0.00000001
 40
0.0
 40
0.0
 40
0.0
 40
0.0
 40
0.0259627676805978
 40
0.9999999999999999
 40
0.9999999999999999
 40
0.9999999999999999
 40
0.9999999999999999
 10
-27.05549819192266
 20
2.969661087868968
 30
0.0
 10
-27.04117108588779
 20
2.971948601403679
 30
0.0
 10
-26.48933831477868
 20
3.060056062166375
 30
0.0
 10
-25.93750560517029
 20
3.044951893693171
 30
0.0
 10
-25.40000000000004
 20
3.030239871237048
 30
0.0
  0
SPLINE
  5
327
330
1F
100
AcDbEntity
  8
외형선
  6
Continuous
370
    15
100
AcDbSpline
210
0.0
220
0.0
230
1.0
 70
    24
 71
     3
 72
    14
 73
    10
 74
     0
 42
0.000000001
 43
0.00000001
 40
0.0
 40
0.0
 40
0.0
 40
0.0
 40
0.25
 40
0.25
 40
0.5
 40
0.5
 40
0.75
 40
0.75
 40
1.0
 40
1.0
 40
1.0
 40
1.0
 10
-25.39999999999996
 20
0.8965282157357108
 30
0.0
 10
-25.39999999999996
 20
1.146346460216979
 30
0.0
 10
-25.39999999999996
 20
1.389752617810846
 30
0.0
 10
-25.39999999999996
 20
1.844338990096568
 30
0.0
 10
-25.39999999999996
 20
2.055361893117859
 30
0.0
 10
-25.39999999999996
 20
2.428280870330995
 30
0.0
 10
-25.39999999999996
 20
2.590069256842587
 30
0.0
 10
-25.39999999999996
 20
2.854650195069387
 30
0.0
 10
-25.39999999999996
 20
2.95743505333173
 30
0.0
 10
-25.39999999999996
 20
3.030239871237041
 30
0.0
  0
LINE
  5
328
330
1F
100
AcDbEntity
  8
0
  6
Continuous
 62
     1
370
    15
100
AcDbLine
 10
-42.86249999999999
 20
-0.0000000000000064
 30
0.0
 11
-42.86249999999999
 21
-2.500312500000006
 31
0.0
  0
SPLINE
  5
329
330
1F
100
AcDbEntity
  8
0
  6
Continuous
 62
     1
370
    15
100
AcDbSpline
210
0.0
220
0.0
230
1.0
 70
     8
 71
     3
 72
    10
 73
     6
 74
     0
 42
0.000000001
 43
0.00000001
 40
0.0
 40
0.0
 40
0.0
 40
0.0
 40
0.2448369367250796
 40
0.6224333770984369
 40
1.0
 40
1.0
 40
1.0
 40
1.0
 10
-29.46988048398337
 20
2.810248128416565
 30
0.0
 10
-29.13772059029393
 20
2.927665979779104
 30
0.0
 10
-28.29329161184314
 20
3.226169917676722
 30
0.0
 10
-26.9366652996034
 20
3.505516519210656
 30
0.0
 10
-25.91220828304109
 20
3.54975223216636
 30
0.0
 10
-25.40000000000644
 20
3.5718692153248
 30
0.0
  0
SPLINE
  5
32A
330
1F
100
AcDbEntity
  8
외형선
  6
Continuous
370
    15
100
AcDbSpline
210
0.0
220
0.0
230
1.0
 70
    24
 71
     3
 72
     8
 73
     4
 74
     0
 42
0.000000001
 43
0.00000001
 40
0.0
 40
0.0
 40
0.0
 40
0.0
 40
1.0
 40
1.0
 40
1.0
 40
1.0
 10
-25.39999999999996
 20
3.030239871237044
 30
0.0
 10
-25.39999999999996
 20
3.214648735902576
 30
0.0
 10
-25.39999999999996
 20
3.396369360311916
 30
0.0
 10
-25.39999999999996
 20
3.571869215311328
 30
0.0
  0
SPLINE
  5
32B
330
1F
100
AcDbEntity
  8
0
  6
Continuous
 62
     1
370
    15
100
AcDbSpline
210
0.0
220
0.0
230
1.0
 70
    24
 71
     3
 72
    10
 73
     6
 74
     0
 42
0.000000001
 43
0.00000001
 40
0.0
 40
0.0
 40
0.0
 40
0.0
 40
0.5
 40
0.5
 40
1.0
 40
1.0
 40
1.0
 40
1.0
 10
-42.86249999999999
 20
-2.500312500000006
 30
0.0
 10
-42.86249999999999
 20
-2.651875217283627
 30
0.0
 10
-42.86249999999999
 20
-2.828005130984738
 30
0.0
 10
-42.86249999999996
 20
-3.19752521555706
 30
0.0
 10
-42.86249999999999
 20
-3.389971678503389
 30
0.0
 10
-42.86249999999999
 20
-3.568856105648389
 30
0.0
  0
SPLINE
  5
32C
330
1F
100
AcDbEntity
  8
0
  6
Continuous
 62
     1
370
    15
100
AcDbSpline
210
0.0
220
0.0
230
1.0
 70
     8
 71
     3
 72
    14
 73
    10
 74
     0
 42
0.000000001
 43
0.00000001
 40
0.0
 40
0.0
 40
0.0
 40
0.0
 40
0.1037662451801638
 40
0.3136675674909523
 40
0.4191430091542176
 40
0.5631693236917561
 40
0.7076659327695715
 40
0.8535883459018967
 40
1.0
 40
1.0
 40
1.0
 40
1.0
 10
-37.96186170412646
 20
-2.40183249381717
 30
0.0
 10
-38.13121875850994
 20
-2.472799353784985
 30
0.0
 10
-38.64315609606766
 20
-2.687320003538914
 30
0.0
 10
-39.32911826090942
 20
-2.930164167099213
 30
0.0
 10
-40.07835518850042
 20
-3.155442566741416
 30
0.0
 10
-40.72308349953907
 20
-3.314666023160902
 30
0.0
 10
-41.43174402575128
 20
-3.447537827262972
 30
0.0
 10
-42.14600579197123
 20
-3.537904893071956
 30
0.0
 10
-42.62340227881516
 20
-3.558527530327047
 30
0.0
 10
-42.86249999999982
 20
-3.568856105648385
 30
0.0
  0
LINE
  5
35E
330
1F
100
AcDbEntity
  8
외형선
  6
Continuous
370
    15
100
AcDbLine
 10
-4.838700000000088
 20
4.762499999999995
 30
0.0
 11
-19.9565270072383
 21
4.762499999999994
 31
0.0
  0
ENDSEC
  0
SECTION
  2
OBJECTS
  0
DICTIONARY
  5
C
330
0
100
AcDbDictionary
281
     1
  3
ACAD_GROUP
350
D
  3
ACAD_IMAGE_VARS
350
15C
  3
ACAD_LAYOUT
350
1A
  3
ACAD_MLINESTYLE
350
17
  3
ACAD_PLOTSETTINGS
350
19
  3
ACAD_PLOTSTYLENAME
350
E
  3
ACAD_SCALELIST
350
47
  3
APPDATA
350
15A
  3
DWGPROPS
350
384
  0
DICTIONARY
  5
182
330
2
100
AcDbDictionary
280
     1
281
     1
  3
ACAD_LAYERSTATES
360
183
  0
DICTIONARY
  5
382
330
1F
100
AcDbDictionary
280
     1
281
     1
  3
DIM_BOUNDING_BOXES_V1
360
383
  0
DICTIONARY
  5
D
102
{ACAD_REACTORS
330
C
102
}
330
C
100
AcDbDictionary
281
     1
  0
RASTERVARIABLES
  5
15C
102
{ACAD_REACTORS
330
C
102
}
330
C
100
AcDbRasterVariables
 90
        0
 70
     1
 71
     1
 72
     1
  0
DICTIONARY
  5
1A
102
{ACAD_REACTORS
330
C
102
}
330
C
100
AcDbDictionary
281
     1
  3
Layout1
350
1E
  3
Layout2
350
26
  3
Model
350
22
  0
DICTIONARY
  5
17
102
{ACAD_REACTORS
330
C
102
}
330
C
100
AcDbDictionary
281
     1
  3
Standard
350
18
  0
DICTIONARY
  5
19
102
{ACAD_REACTORS
330
C
102
}
330
C
100
AcDbDictionary
281
     1
  0
ACDBDICTIONARYWDFLT
  5
E
102
{ACAD_REACTORS
330
C
102
}
330
C
100
AcDbDictionary
281
     1
  3
Normal
350
F
100
AcDbDictionaryWithDefault
340
F
  0
DICTIONARY
  5
47
102
{ACAD_REACTORS
330
C
102
}
330
C
100
AcDbDictionary
281
     1
  3
A0
350
48
  3
A1
350
49
  3
A2
350
4A
  3
A3
350
4B
  3
A4
350
4C
  3
A5
350
4D
  3
A6
350
4E
  3
A7
350
4F
  3
A8
350
50
  3
A9
350
51
  3
B0
350
52
  3
B1
350
53
  3
B2
350
54
  3
B3
350
55
  3
B4
350
56
  3
B5
350
57
  3
B6
350
58
  3
B7
350
59
  3
B8
350
5A
  3
B9
350
5B
  3
C0
350
5C
  3
C1
350
5D
  3
C2
350
5E
  3
C3
350
5F
  3
C4
350
60
  3
C5
350
61
  3
C6
350
62
  3
C7
350
63
  3
C8
350
64
  3
C9
350
65
  3
D0
350
66
  3
D1
350
67
  3
D2
350
68
  0
DICTIONARY
  5
15A
102
{ACAD_REACTORS
330
C
102
}
330
C
100
AcDbDictionary
281
     1
  0
XRECORD
  5
384
102
{ACAD_REACTORS
330
C
102
}
330
C
100
AcDbXrecord
280
     1
  1
DWGPROPS COOKIE
  2

  3

  4

  6

  7

  8
12011056
  9

300
=
301
=
302
=
303
=
304
=
305
=
306
=
307
=
308
=
309
=
 40
0.0
 41
2458313.05313235
 42
2459719.987283646
  1

 90
        0
  0
DICTIONARY
  5
183
102
{ACAD_REACTORS
330
182
102
}
330
182
100
AcDbDictionary
281
     1
  0
DICTIONARY
  5
383
102
{ACAD_REACTORS
330
382
102
}
330
382
100
AcDbDictionary
281
     1
  0
LAYOUT
  5
1E
102
{ACAD_REACTORS
330
1A
102
}
330
1A
100
AcDbPlotSettings
  1

  2
none_device
  4

  6

 40
0.0
 41
0.0
 42
0.0
 43
0.0
 44
0.0
 45
0.0
 46
0.0
 47
0.0
 48
0.0
 49
0.0
140
0.0
141
0.0
142
1.0
143
1.0
 70
   688
 72
     1
 73
     0
 74
     5
  7

 75
    16
147
1.0
148
0.0
149
0.0
100
AcDbLayout
  1
Layout1
 70
     1
 71
     1
 10
0.0
 20
0.0
 11
420.0
 21
297.0
 12
0.0
 22
0.0
 32
0.0
 14
1.000000000000000E+20
 24
1.000000000000000E+20
 34
1.000000000000000E+20
 15
-1.000000000000000E+20
 25
-1.000000000000000E+20
 35
-1.000000000000000E+20
146
0.0
 13
0.0
 23
0.0
 33
0.0
 16
1.0
 26
0.0
 36
0.0
 17
0.0
 27
1.0
 37
0.0
 76
     0
330
1B
  0
LAYOUT
  5
26
102
{ACAD_REACTORS
330
1A
102
}
330
1A
100
AcDbPlotSettings
  1

  2
none_device
  4

  6

 40
0.0
 41
0.0
 42
0.0
 43
0.0
 44
0.0
 45
0.0
 46
0.0
 47
0.0
 48
0.0
 49
0.0
140
0.0
141
0.0
142
1.0
143
1.0
 70
   688
 72
     1
 73
     0
 74
     5
  7

 75
    16
147
1.0
148
0.0
149
0.0
100
AcDbLayout
  1
Layout2
 70
     1
 71
     2
 10
0.0
 20
0.0
 11
0.0
 21
0.0
 12
0.0
 22
0.0
 32
0.0
 14
0.0
 24
0.0
 34
0.0
 15
0.0
 25
0.0
 35
0.0
146
0.0
 13
0.0
 23
0.0
 33
0.0
 16
1.0
 26
0.0
 36
0.0
 17
0.0
 27
1.0
 37
0.0
 76
     0
330
23
  0
LAYOUT
  5
22
102
{ACAD_REACTORS
330
1A
102
}
330
1A
100
AcDbPlotSettings
  1

  2
none_device
  4
ANSI_A_(11.00_x_8.50_Inches)
  6

 40
6.35
 41
19.05
 42
6.35000508
 43
19.05000254
 44
279.4
 45
215.9
 46
74.08271205254553
 47
65.90152153863761
 48
0.0
 49
0.0
140
0.0
141
0.0
142
0.0382879029759395
143
1.0
 70
  1696
 72
     0
 73
     0
 74
     0
  7

 75
     0
147
0.0235690232323232
148
0.0
149
0.0
100
AcDbLayout
  1
Model
 70
     1
 71
     0
 10
0.0
 20
0.0
 11
420.0
 21
297.0
 12
0.0
 22
0.0
 32
0.0
 14
-57.57581169322363
 24
-39.99892507127611
 34
0.0
 15
81.21241335422454
 25
42.75750000000002
 35
0.0
146
0.0
 13
0.0
 23
0.0
 33
0.0
 16
1.0
 26
0.0
 36
0.0
 17
0.0
 27
1.0
 37
0.0
 76
     0
330
1F
331
29
  0
MLINESTYLE
  5
18
102
{ACAD_REACTORS
330
17
102
}
330
17
100
AcDbMlineStyle
  2
Standard
 70
     0
  3

 62
   256
 51
90.0
 52
90.0
 71
     2
 49
0.5
 62
   256
  6
BYLAYER
 49
-0.5
 62
   256
  6
BYLAYER
  0
ACDBPLACEHOLDER
  5
F
102
{ACAD_REACTORS
330
E
102
}
330
E
  0
SCALE
  5
48
102
{ACAD_REACTORS
330
47
102
}
330
47
100
AcDbScale
 70
     0
300
1:1
140
1.0
141
1.0
290
     1
  0
SCALE
  5
49
102
{ACAD_REACTORS
330
47
102
}
330
47
100
AcDbScale
 70
     0
300
1:2
140
1.0
141
2.0
290
     0
  0
SCALE
  5
4A
102
{ACAD_REACTORS
330
47
102
}
330
47
100
AcDbScale
 70
     0
300
1:4
140
1.0
141
4.0
290
     0
  0
SCALE
  5
4B
102
{ACAD_REACTORS
330
47
102
}
330
47
100
AcDbScale
 70
     0
300
1:5
140
1.0
141
5.0
290
     0
  0
SCALE
  5
4C
102
{ACAD_REACTORS
330
47
102
}
330
47
100
AcDbScale
 70
     0
300
1:8
140
1.0
141
8.0
290
     0
  0
SCALE
  5
4D
102
{ACAD_REACTORS
330
47
102
}
330
47
100
AcDbScale
 70
     0
300
1:10
140
1.0
141
10.0
290
     0
  0
SCALE
  5
4E
102
{ACAD_REACTORS
330
47
102
}
330
47
100
AcDbScale
 70
     0
300
1:16
140
1.0
141
16.0
290
     0
  0
SCALE
  5
4F
102
{ACAD_REACTORS
330
47
102
}
330
47
100
AcDbScale
 70
     0
300
1:20
140
1.0
141
20.0
290
     0
  0
SCALE
  5
50
102
{ACAD_REACTORS
330
47
102
}
330
47
100
AcDbScale
 70
     0
300
1:30
140
1.0
141
30.0
290
     0
  0
SCALE
  5
51
102
{ACAD_REACTORS
330
47
102
}
330
47
100
AcDbScale
 70
     0
300
1:40
140
1.0
141
40.0
290
     0
  0
SCALE
  5
52
102
{ACAD_REACTORS
330
47
102
}
330
47
100
AcDbScale
 70
     0
300
1:50
140
1.0
141
50.0
290
     0
  0
SCALE
  5
53
102
{ACAD_REACTORS
330
47
102
}
330
47
100
AcDbScale
 70
     0
300
1:100
140
1.0
141
100.0
290
     0
  0
SCALE
  5
54
102
{ACAD_REACTORS
330
47
102
}
330
47
100
AcDbScale
 70
     0
300
2:1
140
2.0
141
1.0
290
     0
  0
SCALE
  5
55
102
{ACAD_REACTORS
330
47
102
}
330
47
100
AcDbScale
 70
     0
300
4:1
140
4.0
141
1.0
290
     0
  0
SCALE
  5
56
102
{ACAD_REACTORS
330
47
102
}
330
47
100
AcDbScale
 70
     0
300
8:1
140
8.0
141
1.0
290
     0
  0
SCALE
  5
57
102
{ACAD_REACTORS
330
47
102
}
330
47
100
AcDbScale
 70
     0
300
10:1
140
10.0
141
1.0
290
     0
  0
SCALE
  5
58
102
{ACAD_REACTORS
330
47
102
}
330
47
100
AcDbScale
 70
     0
300
100:1
140
100.0
141
1.0
290
     0
  0
SCALE
  5
59
102
{ACAD_REACTORS
330
47
102
}
330
47
100
AcDbScale
 70
     0
300
1/128" = 1'-0"
140
0.0078125
141
12.0
290
     0
  0
SCALE
  5
5A
102
{ACAD_REACTORS
330
47
102
}
330
47
100
AcDbScale
 70
     0
300
1/64" = 1'-0"
140
0.015625
141
12.0
290
     0
  0
SCALE
  5
5B
102
{ACAD_REACTORS
330
47
102
}
330
47
100
AcDbScale
 70
     0
300
1/32" = 1'-0"
140
0.03125
141
12.0
290
     0
  0
SCALE
  5
5C
102
{ACAD_REACTORS
330
47
102
}
330
47
100
AcDbScale
 70
     0
300
1/16" = 1'-0"
140
0.0625
141
12.0
290
     0
  0
SCALE
  5
5D
102
{ACAD_REACTORS
330
47
102
}
330
47
100
AcDbScale
 70
     0
300
3/32" = 1'-0"
140
0.09375
141
12.0
290
     0
  0
SCALE
  5
5E
102
{ACAD_REACTORS
330
47
102
}
330
47
100
AcDbScale
 70
     0
300
1/8" = 1'-0"
140
0.125
141
12.0
290
     0
  0
SCALE
  5
5F
102
{ACAD_REACTORS
330
47
102
}
330
47
100
AcDbScale
 70
     0
300
3/16" = 1'-0"
140
0.1875
141
12.0
290
     0
  0
SCALE
  5
60
102
{ACAD_REACTORS
330
47
102
}
330
47
100
AcDbScale
 70
     0
300
1/4" = 1'-0"
140
0.25
141
12.0
290
     0
  0
SCALE
  5
61
102
{ACAD_REACTORS
330
47
102
}
330
47
100
AcDbScale
 70
     0
300
3/8" = 1'-0"
140
0.375
141
12.0
290
     0
  0
SCALE
  5
62
102
{ACAD_REACTORS
330
47
102
}
330
47
100
AcDbScale
 70
     0
300
1/2" = 1'-0"
140
0.5
141
12.0
290
     0
  0
SCALE
  5
63
102
{ACAD_REACTORS
330
47
102
}
330
47
100
AcDbScale
 70
     0
300
3/4" = 1'-0"
140
0.75
141
12.0
290
     0
  0
SCALE
  5
64
102
{ACAD_REACTORS
330
47
102
}
330
47
100
AcDbScale
 70
     0
300
1" = 1'-0"
140
1.0
141
12.0
290
     0
  0
SCALE
  5
65
102
{ACAD_REACTORS
330
47
102
}
330
47
100
AcDbScale
 70
     0
300
1-1/2" = 1'-0"
140
1.5
141
12.0
290
     0
  0
SCALE
  5
66
102
{ACAD_REACTORS
330
47
102
}
330
47
100
AcDbScale
 70
     0
300
3" = 1'-0"
140
3.0
141
12.0
290
     0
  0
SCALE
  5
67
102
{ACAD_REACTORS
330
47
102
}
330
47
100
AcDbScale
 70
     0
300
6" = 1'-0"
140
6.0
141
12.0
290
     0
  0
SCALE
  5
68
102
{ACAD_REACTORS
330
47
102
}
330
47
100
AcDbScale
 70
     0
300
1'-0" = 1'-0"
140
12.0
141
12.0
290
     0
  0
ENDSEC
  0
EOF
