  0
SECTION
  2
HEADER
  9
$ACADVER
  1
AC1015
  9
$ACADMAINTVER
 70
     6
  9
$DWGCODEPAGE
  3
ANSI_949
  9
$INSBASE
 10
0.0
 20
0.0
 30
0.0
  9
$EXTMIN
 10
-60.17590872278645
 20
-39.99892507127611
 30
0.0
  9
$EXTMAX
 10
81.21241335422454
 20
42.75750000000002
 30
0.0
  9
$LIMMIN
 10
0.0
 20
0.0
  9
$LIMMAX
 10
420.0
 20
297.0
  9
$ORTHOMODE
 70
     0
  9
$REGENMODE
 70
     1
  9
$FILLMODE
 70
     1
  9
$QTEXTMODE
 70
     0
  9
$MIRRTEXT
 70
     1
  9
$LTSCALE
 40
1.0
  9
$ATTMODE
 70
     1
  9
$TEXTSIZE
 40
3.5
  9
$TRACEWID
 40
1.0
  9
$TEXTSTYLE
  7
Standard
  9
$CLAYER
  8
0
  9
$CELTYPE
  6
ByLayer
  9
$CECOLOR
 62
   256
  9
$CELTSCALE
 40
1.0
  9
$DISPSILH
 70
     0
  9
$DIMSCALE
 40
1.0
  9
$DIMASZ
 40
3.302
  9
$DIMEXO
 40
1.0
  9
$DIMDLI
 40
3.75
  9
$DIMRND
 40
0.0
  9
$DIMDLE
 40
0.0
  9
$DIMEXE
 40
1.0
  9
$DIMTP
 40
0.0
  9
$DIMTM
 40
0.0
  9
$DIMTXT
 40
3.5
  9
$DIMCEN
 40
2.5
  9
$DIMTSZ
 40
0.0
  9
$DIMTOL
 70
     0
  9
$DIMLIM
 70
     0
  9
$DIMTIH
 70
     1
  9
$DIMTOH
 70
     1
  9
$DIMSE1
 70
     0
  9
$DIMSE2
 70
     0
  9
$DIMTAD
 70
     1
  9
$DIMZIN
 70
     0
  9
$DIMBLK
  1

  9
$DIMASO
 70
     1
  9
$DIMSHO
 70
     1
  9
$DIMPOST
  1

  9
$DIMAPOST
  1

  9
$DIMALT
 70
     0
  9
$DIMALTD
 70
     3
  9
$DIMALTF
 40
0.0393700787401575
  9
$DIMLFAC
 40
1.0
  9
$DIMTOFL
 70
     1
  9
$DIMTVP
 40
0.0
  9
$DIMTIX
 70
     0
  9
$DIMSOXD
 70
     0
  9
$DIMSAH
 70
     0
  9
$DIMBLK1
  1

  9
$DIMBLK2
  1

  9
$DIMSTYLE
  2
ISO-25
  9
$DIMCLRD
 70
     0
  9
$DIMCLRE
 70
     0
  9
$DIMCLRT
 70
     0
  9
$DIMTFAC
 40
1.0
  9
$DIMGAP
 40
1.524
  9
$DIMJUST
 70
     0
  9
$DIMSD1
 70
     0
  9
$DIMSD2
 70
     0
  9
$DIMTOLJ
 70
     0
  9
$DIMTZIN
 70
     0
  9
$DIMALTZ
 70
     0
  9
$DIMALTTZ
 70
     0
  9
$DIMUPT
 70
     0
  9
$DIMDEC
 70
     2
  9
$DIMTDEC
 70
     2
  9
$DIMALTU
 70
     2
  9
$DIMALTTD
 70
     3
  9
$DIMTXSTY
  7
Standard
  9
$DIMAUNIT
 70
     0
  9
$DIMADEC
 70
     2
  9
$DIMALTRND
 40
0.0
  9
$DIMAZIN
 70
     0
  9
$DIMDSEP
 70
    44
  9
$DIMATFIT
 70
     3
  9
$DIMFRAC
 70
     0
  9
$DIMLDRBLK
  1

  9
$DIMLUNIT
 70
     2
  9
$DIMLWD
 70
    -2
  9
$DIMLWE
 70
    -2
  9
$DIMTMOVE
 70
     0
  9
$LUNITS
 70
     2
  9
$LUPREC
 70
     2
  9
$SKETCHINC
 40
1.0
  9
$FILLETRAD
 40
10.0
  9
$AUNITS
 70
     0
  9
$AUPREC
 70
     2
  9
$MENU
  1
.
  9
$ELEVATION
 40
0.0
  9
$PELEVATION
 40
0.0
  9
$THICKNESS
 40
0.0
  9
$LIMCHECK
 70
     0
  9
$CHAMFERA
 40
0.0
  9
$CHAMFERB
 40
0.0
  9
$CHAMFERC
 40
0.0
  9
$CHAMFERD
 40
0.0
  9
$SKPOLY
 70
     0
  9
$TDCREATE
 40
2458313.4277086
  9
$TDUCREATE
 40
2458313.0527086
  9
$TDUPDATE
 40
2459720.361591609
  9
$TDUUPDATE
 40
2459719.986591609
  9
$TDINDWG
 40
0.001577963
  9
$TDUSRTIMER
 40
0.0001547917
  9
$USRTIMER
 70
     1
  9
$ANGBASE
 50
0.0
  9
$ANGDIR
 70
     0
  9
$PDMODE
 70
     0
  9
$PDSIZE
 40
-1.0
  9
$PLINEWID
 40
0.0
  9
$SPLFRAME
 70
     0
  9
$SPLINETYPE
 70
     6
  9
$SPLINESEGS
 70
     8
  9
$HANDSEED
  5
388
  9
$SURFTAB1
 70
     6
  9
$SURFTAB2
 70
     6
  9
$SURFTYPE
 70
     6
  9
$SURFU
 70
     6
  9
$SURFV
 70
     6
  9
$UCSBASE
  2

  9
$UCSNAME
  2

  9
$UCSORG
 10
0.0
 20
0.0
 30
0.0
  9
$UCSXDIR
 10
1.0
 20
0.0
 30
0.0
  9
$UCSYDIR
 10
0.0
 20
1.0
 30
0.0
  9
$UCSORTHOREF
  2

  9
$UCSORTHOVIEW
 70
     0
  9
$UCSORGTOP
 10
0.0
 20
0.0
 30
0.0
  9
$UCSORGBOTTOM
 10
0.0
 20
0.0
 30
0.0
  9
$UCSORGLEFT
 10
0.0
 20
0.0
 30
0.0
  9
$UCSORGRIGHT
 10
0.0
 20
0.0
 30
0.0
  9
$UCSORGFRONT
 10
0.0
 20
0.0
 30
0.0
  9
$UCSORGBACK
 10
0.0
 20
0.0
 30
0.0
  9
$PUCSBASE
  2

  9
$PUCSNAME
  2

  9
$PUCSORG
 10
0.0
 20
0.0
 30
0.0
  9
$PUCSXDIR
 10
1.0
 20
0.0
 30
0.0
  9
$PUCSYDIR
 10
0.0
 20
1.0
 30
0.0
  9
$PUCSORTHOREF
  2

  9
$PUCSORTHOVIEW
 70
     0
  9
$PUCSORGTOP
 10
0.0
 20
0.0
 30
0.0
  9
$PUCSORGBOTTOM
 10
0.0
 20
0.0
 30
0.0
  9
$PUCSORGLEFT
 10
0.0
 20
0.0
 30
0.0
  9
$PUCSORGRIGHT
 10
0.0
 20
0.0
 30
0.0
  9
$PUCSORGFRONT
 10
0.0
 20
0.0
 30
0.0
  9
$PUCSORGBACK
 10
0.0
 20
0.0
 30
0.0
  9
$USERI1
 70
     0
  9
$USERI2
 70
     0
  9
$USERI3
 70
     0
  9
$USERI4
 70
     0
  9
$USERI5
 70
     0
  9
$USERR1
 40
0.0
  9
$USERR2
 40
0.0
  9
$USERR3
 40
0.0
  9
$USERR4
 40
0.0
  9
$USERR5
 40
0.0
  9
$WORLDVIEW
 70
     1
  9
$SHADEDGE
 70
     3
  9
$SHADEDIF
 70
    70
  9
$TILEMODE
 70
     1
  9
$MAXACTVP
 70
    64
  9
$PINSBASE
 10
0.0
 20
0.0
 30
0.0
  9
$PLIMCHECK
 70
     0
  9
$PEXTMIN
 10
1.000000000000000E+20
 20
1.000000000000000E+20
 30
1.000000000000000E+20
  9
$PEXTMAX
 10
-1.000000000000000E+20
 20
-1.000000000000000E+20
 30
-1.000000000000000E+20
  9
$PLIMMIN
 10
0.0
 20
0.0
  9
$PLIMMAX
 10
0.0
 20
0.0
  9
$UNITMODE
 70
     0
  9
$VISRETAIN
 70
     1
  9
$PLINEGEN
 70
     0
  9
$PSLTSCALE
 70
     1
  9
$TREEDEPTH
 70
  3020
  9
$CMLSTYLE
  2
Standard
  9
$CMLJUST
 70
     0
  9
$CMLSCALE
 40
20.0
  9
$PROXYGRAPHICS
 70
     1
  9
$MEASUREMENT
 70
     1
  9
$CELWEIGHT
370
    -1
  9
$ENDCAPS
280
     0
  9
$JOINSTYLE
280
     0
  9
$LWDISPLAY
290
     1
  9
$INSUNITS
 70
     4
  9
$HYPERLINKBASE
  1

  9
$STYLESHEET
  1

  9
$XEDIT
290
     1
  9
$CEPSNTYPE
380
     0
  9
$PSTYLEMODE
290
     1
  9
$FINGERPRINTGUID
  2
{C51EF163-651A-49F4-B92D-C37281A9A500}
  9
$VERSIONGUID
  2
{FAEB1C32-E019-11D5-929B-00C0DF256EC4}
  9
$EXTNAMES
290
     1
  9
$PSVPSCALE
 40
0.0
  9
$OLESTARTUP
290
     0
  0
ENDSEC
  0
SECTION
  2
CLASSES
  0
CLASS
  1
ACDBDICTIONARYWDFLT
  2
AcDbDictionaryWithDefault
  3
ObjectDBX Classes
 90
        0
280
     0
281
     0
  0
CLASS
  1
VISUALSTYLE
  2
AcDbVisualStyle
  3
ObjectDBX Classes
 90
     4095
280
     0
281
     0
  0
CLASS
  1
MATERIAL
  2
AcDbMaterial
  3
ObjectDBX Classes
 90
     1153
280
     0
281
     0
  0
CLASS
  1
SCALE
  2
AcDbScale
  3
ObjectDBX Classes
 90
     1153
280
     0
281
     0
  0
CLASS
  1
SUN
  2
AcDbSun
  3
SCENEOE
 90
     1153
280
     0
281
     0
  0
CLASS
  1
ACDBPLACEHOLDER
  2
AcDbPlaceHolder
  3
ObjectDBX Classes
 90
        0
280
     0
281
     0
  0
CLASS
  1
LAYOUT
  2
AcDbLayout
  3
ObjectDBX Classes
 90
        0
280
     0
281
     0
  0
CLASS
  1
TABLESTYLE
  2
AcDbTableStyle
  3
ObjectDBX Classes
 90
     4095
280
     0
281
     0
  0
CLASS
  1
MLEADERSTYLE
  2
AcDbMLeaderStyle
  3
ACDB_MLEADERSTYLE_CLASS
 90
     4095
280
     0
281
     0
  0
CLASS
  1
RASTERVARIABLES
  2
AcDbRasterVariables
  3
ISM
 90
        0
280
     0
281
     0
  0
ENDSEC
  0
SECTION
  2
TABLES
  0
TABLE
  2
VPORT
  5
8
330
0
100
AcDbSymbolTable
 70
     1
  0
VPORT
  5
29
330
8
100
AcDbSymbolTableRecord
100
AcDbViewportTableRecord
  2
*Active
 70
     0
 10
0.0
 20
0.0
 11
1.0
 21
1.0
 12
-0.8566952448162368
 22
6.31800716336646
 13
0.0
 23
0.0
 14
10.0
 24
10.0
 15
10.0
 25
10.0
 16
0.0
 26
0.0
 36
1.0
 17
0.0
 27
0.0
 37
0.0
 40
109.9274364869576
 41
1.519944979367263
 42
50.0
 43
0.0
 44
0.0
 50
0.0
 51
0.0
 71
    16
 72
  2000
 73
     1
 74
     3
 75
     0
 76
     0
 77
     0
 78
     0
281
     0
 65
     1
110
0.0
120
0.0
130
0.0
111
1.0
121
0.0
131
0.0
112
0.0
122
1.0
132
0.0
 79
     0
146
0.0
  0
ENDTAB
  0
TABLE
  2
LTYPE
  5
5
330
0
100
AcDbSymbolTable
 70
     6
  0
LTYPE
  5
14
330
5
100
AcDbSymbolTableRecord
100
AcDbLinetypeTableRecord
  2
ByBlock
 70
     0
  3

 72
    65
 73
     0
 40
0.0
  0
LTYPE
  5
15
330
5
100
AcDbSymbolTableRecord
100
AcDbLinetypeTableRecord
  2
ByLayer
 70
     0
  3

 72
    65
 73
     0
 40
0.0
  0
LTYPE
  5
16
330
5
100
AcDbSymbolTableRecord
100
AcDbLinetypeTableRecord
  2
Continuous
 70
     0
  3
Solid line
 72
    65
 73
     0
 40
0.0
  0
LTYPE
  5
6A
330
5
100
AcDbSymbolTableRecord
100
AcDbLinetypeTableRecord
  2
HIDDEN
 70
     0
  3
Hidden __ __ __ __ __ __ __ __ __ __ __ __ __ __
 72
    65
 73
     2
 40
1.905
 49
1.27
 74
     0
 49
-0.635
 74
     0
  0
LTYPE
  5
6B
330
5
100
AcDbSymbolTableRecord
100
AcDbLinetypeTableRecord
  2
PHANTOM
 70
     0
  3
Phantom ______  __  __  ______  __  __  ______
 72
    65
 73
     6
 40
12.7
 49
6.35
 74
     0
 49
-1.27
 74
     0
 49
1.27
 74
     0
 49
-1.27
 74
     0
 49
1.27
 74
     0
 49
-1.27
 74
     0
  0
LTYPE
  5
6C
330
5
100
AcDbSymbolTableRecord
100
AcDbLinetypeTableRecord
  2
CENTER
 70
     0
  3
Center ____ _ ____ _ ____ _ ____ _ ____ _ ____
 72
    65
 73
     4
 40
10.16
 49
6.35
 74
     0
 49
-1.27
 74
     0
 49
1.27
 74
     0
 49
-1.27
 74
     0
  0
LTYPE
  5
6D
330
5
100
AcDbSymbolTableRecord
100
AcDbLinetypeTableRecord
  2
CENTERX2
 70
     0
  3
Center (2x) ________  __  ________  __  _____
 72
    65
 73
     4
 40
20.32
 49
12.7
 74
     0
 49
-2.54
 74
     0
 49
2.54
 74
     0
 49
-2.54
 74
     0
  0
LTYPE
  5
6E
330
5
100
AcDbSymbolTableRecord
100
AcDbLinetypeTableRecord
  2
DOT2
 70
     0
  3
Dot (.5x) ........................................
 72
    65
 73
     2
 40
0.635
 49
0.0
 74
     0
 49
-0.635
 74
     0
  0
ENDTAB
  0
TABLE
  2
LAYER
  5
2
102
{ACAD_XDICTIONARY
360
184
102
}
330
0
100
AcDbSymbolTable
 70
    18
  0
LAYER
  5
10
330
2
100
AcDbSymbolTableRecord
100
AcDbLayerTableRecord
  2
0
 70
     0
 62
     7
  6
Continuous
370
    -3
390
F
  0
LAYER
  5
6F
330
2
100
AcDbSymbolTableRecord
100
AcDbLayerTableRecord
  2
FORMAT
 70
     0
 62
     2
  6
Continuous
370
    -3
390
F
  0
LAYER
  5
70
330
2
100
AcDbSymbolTableRecord
100
AcDbLayerTableRecord
  2
외형선
 70
     0
 62
     4
  6
Continuous
370
    30
390
F
  0
LAYER
  5
71
330
2
100
AcDbSymbolTableRecord
100
AcDbLayerTableRecord
  2
숨은선
 70
     0
 62
     2
  6
HIDDEN
370
    15
390
F
  0
LAYER
  5
72
330
2
100
AcDbSymbolTableRecord
100
AcDbLayerTableRecord
  2
중심선
 70
     0
 62
     1
  6
CENTERX2
370
    -3
390
F
  0
LAYER
  5
73
330
2
100
AcDbSymbolTableRecord
100
AcDbLayerTableRecord
  2
파단선
 70
     0
 62
     4
  6
Continuous
370
    -3
390
F
  0
LAYER
  5
74
330
2
100
AcDbSymbolTableRecord
100
AcDbLayerTableRecord
  2
해칭선
 70
     0
 62
   100
  6
Continuous
370
    -3
390
F
  0
LAYER
  5
75
330
2
100
AcDbSymbolTableRecord
100
AcDbLayerTableRecord
  2
가는실선
 70
     0
 62
     4
  6
Continuous
370
    -3
390
F
  0
LAYER
  5
76
330
2
100
AcDbSymbolTableRecord
100
AcDbLayerTableRecord
  2
치수_보조선
 70
     0
 62
     4
  6
Continuous
370
    -3
390
F
  0
LAYER
  5
77
330
2
100
AcDbSymbolTableRecord
100
AcDbLayerTableRecord
  2
치수문자_일반주서
 70
     0
 62
     7
  6
Continuous
370
    15
390
F
  0
LAYER
  5
78
330
2
100
AcDbSymbolTableRecord
100
AcDbLayerTableRecord
  2
개별주서
 70
     0
 62
   100
  6
Continuous
370
    30
390
F
  0
LAYER
  5
79
330
2
100
AcDbSymbolTableRecord
100
AcDbLayerTableRecord
  2
중간선
 70
     0
 62
     2
  6
Continuous
370
    15
390
F
  0
LAYER
  5
7A
330
2
100
AcDbSymbolTableRecord
100
AcDbLayerTableRecord
  2
윤곽선
 70
     0
 62
     3
  6
Continuous
370
    40
390
F
  0
LAYER
  5
7B
330
2
100
AcDbSymbolTableRecord
100
AcDbLayerTableRecord
  2
중심마크
 70
     0
 62
   100
  6
Continuous
370
    30
390
F
  0
LAYER
  5
7C
330
2
100
AcDbSymbolTableRecord
100
AcDbLayerTableRecord
  2
가상선
 70
     0
 62
     4
  6
PHANTOM
370
    -3
390
F
  0
LAYER
  5
7D
330
2
100
AcDbSymbolTableRecord
100
AcDbLayerTableRecord
  2
특수지정선
 70
     0
 62
     5
  6
CENTERX2
370
    60
390
F
  0
LAYER
  5
7E
330
2
100
AcDbSymbolTableRecord
100
AcDbLayerTableRecord
  2
참조1
 70
     0
 62
    -4
  6
Continuous
370
    -3
390
F
  0
LAYER
  5
18D
330
2
100
AcDbSymbolTableRecord
100
AcDbLayerTableRecord
  2
Defpoints
 70
     0
 62
     7
  6
Continuous
290
     0
370
    -3
390
F
  0
ENDTAB
  0
TABLE
  2
STYLE
  5
3
330
0
100
AcDbSymbolTable
 70
     2
  0
STYLE
  5
11
330
3
100
AcDbSymbolTableRecord
100
AcDbTextStyleTableRecord
  2
Standard
 70
     0
 40
0.0
 41
1.0
 50
0.0
 71
     0
 42
3.5
  3
txt
  4

  0
STYLE
  5
94
330
3
100
AcDbSymbolTableRecord
100
AcDbTextStyleTableRecord
  2
SLDTEXTSTYLE0
 70
     0
 40
0.0
 41
0.75
 50
0.0
 71
     0
 42
3.5
  3
TXT
  4

  0
ENDTAB
  0
TABLE
  2
VIEW
  5
6
330
0
100
AcDbSymbolTable
 70
     0
  0
ENDTAB
  0
TABLE
  2
UCS
  5
7
330
0
100
AcDbSymbolTable
 70
     0
  0
ENDTAB
  0
TABLE
  2
APPID
  5
9
330
0
100
AcDbSymbolTable
 70
     3
  0
APPID
  5
12
330
9
100
AcDbSymbolTableRecord
100
AcDbRegAppTableRecord
  2
ACAD
 70
     0
  0
APPID
  5
199
330
9
100
AcDbSymbolTableRecord
100
AcDbRegAppTableRecord
  2
PE_URL
 70
     0
  0
APPID
  5
19A
330
9
100
AcDbSymbolTableRecord
100
AcDbRegAppTableRecord
  2
ACAD_DSTYLE_DIMRADIAL_EXTENSION
 70
     0
  0
ENDTAB
  0
TABLE
  2
DIMSTYLE
  5
A
330
0
100
AcDbSymbolTable
 70
     4
100
AcDbDimStyleTable
  0
DIMSTYLE
105
27
330
A
100
AcDbSymbolTableRecord
100
AcDbDimStyleTableRecord
  2
ISO-25
 70
     0
 41
2.5
 42
0.625
 43
3.75
 44
1.25
 73
     0
 74
     0
 77
     1
 78
     8
140
2.5
141
2.5
143
0.03937007874016
147
0.625
171
     3
172
     1
178
     0
271
     2
272
     2
274
     3
278
    44
283
     0
284
     8
340
11
  0
DIMSTYLE
105
DD
102
{ACAD_REACTORS
330
DC
330
F1
330
105
330
11A
102
}
330
A
100
AcDbSymbolTableRecord
100
AcDbDimStyleTableRecord
  2
SLDDIMSTYLE0
 70
     0
 41
3.302
 44
0.0
 45
0.000000001
 73
     0
 74
     0
 77
     1
 78
    12
 79
     3
140
3.5
143
0.0393700787401575
147
0.875
148
0.000000001
170
     1
172
     1
173
     1
178
     0
271
     2
272
     2
276
     2
284
    12
289
     0
340
94
  0
DIMSTYLE
105
106
102
{ACAD_REACTORS
102
}
330
A
100
AcDbSymbolTableRecord
100
AcDbDimStyleTableRecord
  2
SLDDIMSTYLE1
 70
     0
 41
3.302
 44
0.0
 45
0.000000001
 73
     0
 74
     0
 77
     1
 78
    12
 79
     3
140
3.5
143
0.0393700787401575
147
0.875
148
0.000000001
170
     1
173
     1
178
     0
271
     2
272
     2
276
     2
284
    12
340
94
  0
DIMSTYLE
105
198
102
{ACAD_REACTORS
102
}
330
A
100
AcDbSymbolTableRecord
100
AcDbDimStyleTableRecord
  2
SLDDIMSTYLE2
 70
     0
 41
3.302
 44
0.0
 45
0.000000001
 73
     0
 74
     0
 77
     1
 78
    12
 79
     3
140
3.5
147
0.875
172
     1
173
     1
178
     0
271
     2
272
     2
276
     2
284
    12
289
     0
340
94
  0
ENDTAB
  0
TABLE
  2
BLOCK_RECORD
  5
1
330
0
100
AcDbSymbolTable
 70
    20
  0
BLOCK_RECORD
  5
1F
102
{ACAD_XDICTIONARY
360
385
102
}
330
1
100
AcDbSymbolTableRecord
100
AcDbBlockTableRecord
  2
*Model_Space
340
22
  0
BLOCK_RECORD
  5
1B
330
1
100
AcDbSymbolTableRecord
100
AcDbBlockTableRecord
  2
*Paper_Space
340
1E
  0
BLOCK_RECORD
  5
23
330
1
100
AcDbSymbolTableRecord
100
AcDbBlockTableRecord
  2
*Paper_Space0
340
26
  0
BLOCK_RECORD
  5
7F
330
1
100
AcDbSymbolTableRecord
100
AcDbBlockTableRecord
  2
블럭10
340
0
102
{BLKREFS
331
D5
102
}
  0
BLOCK_RECORD
  5
DE
330
1
100
AcDbSymbolTableRecord
100
AcDbBlockTableRecord
  2
_D
340
0
  0
BLOCK_RECORD
  5
F2
330
1
100
AcDbSymbolTableRecord
100
AcDbBlockTableRecord
  2
_D_1
340
0
  0
BLOCK_RECORD
  5
107
330
1
100
AcDbSymbolTableRecord
100
AcDbBlockTableRecord
  2
_D_2
340
0
  0
BLOCK_RECORD
  5
11B
330
1
100
AcDbSymbolTableRecord
100
AcDbBlockTableRecord
  2
_D_3
340
0
  0
BLOCK_RECORD
  5
134
330
1
100
AcDbSymbolTableRecord
100
AcDbBlockTableRecord
  2
SW_DOWELSYMBOL_0
340
0
102
{BLKREFS
331
13A
102
}
  0
BLOCK_RECORD
  5
223
330
1
100
AcDbSymbolTableRecord
100
AcDbBlockTableRecord
  2
_D_4
340
0
  0
BLOCK_RECORD
  5
23D
330
1
100
AcDbSymbolTableRecord
100
AcDbBlockTableRecord
  2
*D8
340
0
  0
BLOCK_RECORD
  5
247
330
1
100
AcDbSymbolTableRecord
100
AcDbBlockTableRecord
  2
*D9
340
0
  0
BLOCK_RECORD
  5
253
330
1
100
AcDbSymbolTableRecord
100
AcDbBlockTableRecord
  2
*D10
340
0
  0
BLOCK_RECORD
  5
25F
330
1
100
AcDbSymbolTableRecord
100
AcDbBlockTableRecord
  2
*D11
340
0
  0
BLOCK_RECORD
  5
2BA
330
1
100
AcDbSymbolTableRecord
100
AcDbBlockTableRecord
  2
*D12
340
0
  0
BLOCK_RECORD
  5
2C6
330
1
100
AcDbSymbolTableRecord
100
AcDbBlockTableRecord
  2
*D13
340
0
  0
BLOCK_RECORD
  5
2D2
330
1
100
AcDbSymbolTableRecord
100
AcDbBlockTableRecord
  2
*D14
340
0
  0
BLOCK_RECORD
  5
2E0
330
1
100
AcDbSymbolTableRecord
100
AcDbBlockTableRecord
  2
*D15
340
0
  0
BLOCK_RECORD
  5
2EE
330
1
100
AcDbSymbolTableRecord
100
AcDbBlockTableRecord
  2
*D16
340
0
  0
BLOCK_RECORD
  5
334
330
1
100
AcDbSymbolTableRecord
100
AcDbBlockTableRecord
  2
*D17
340
0
  0
BLOCK_RECORD
  5
343
330
1
100
AcDbSymbolTableRecord
100
AcDbBlockTableRecord
  2
*D18
340
0
  0
BLOCK_RECORD
  5
352
330
1
100
AcDbSymbolTableRecord
100
AcDbBlockTableRecord
  2
*D19
340
0
  0
ENDTAB
  0
ENDSEC
  0
SECTION
  2
BLOCKS
  0
BLOCK
  5
20
330
1F
100
AcDbEntity
  8
0
100
AcDbBlockBegin
  2
*Model_Space
 70
     0
 10
0.0
 20
0.0
 30
0.0
  3
*Model_Space
  1
*Model_Space
  0
ENDBLK
  5
21
330
1F
100
AcDbEntity
  8
0
100
AcDbBlockEnd
  0
BLOCK
  5
1C
330
1B
100
AcDbEntity
 67
     1
  8
0
100
AcDbBlockBegin
  2
*Paper_Space
 70
     0
 10
0.0
 20
0.0
 30
0.0
  3
*Paper_Space
  1
*Paper_Space
  0
ENDBLK
  5
1D
330
1B
100
AcDbEntity
 67
     1
  8
0
100
AcDbBlockEnd
  0
BLOCK
  5
24
330
23
100
AcDbEntity
  8
0
100
AcDbBlockBegin
  2
*Paper_Space0
 70
     0
 10
0.0
 20
0.0
 30
0.0
  3
*Paper_Space0
  1
*Paper_Space0
  0
ENDBLK
  5
25
330
23
100
AcDbEntity
  8
0
100
AcDbBlockEnd
  0
BLOCK
  5
80
330
7F
100
AcDbEntity
  8
0
100
AcDbBlockBegin
  2
블럭10
 70
     2
 10
0.0
 20
0.0
 30
0.0
  3
블럭10
  1
블럭10
  0
ELLIPSE
  5
82
330
7F
100
AcDbEntity
  8
중심선
100
AcDbEllipse
 10
20.54032771741204
 20
12.0471743016438
 30
0.0
 11
6.600054785286829
 21
-1.261213355974178E-13
 31
0.0
210
0.0
220
0.0
230
1.0
 40
0.636358354079598
 41
0.9219305317359503
 42
6.513795318482858
  0
ELLIPSE
  5
83
330
7F
100
AcDbEntity
  8
중심선
100
AcDbEllipse
 10
20.54032771746488
 20
12.04717430159265
 30
0.0
 11
3.960054785062283
 21
1.540847449632565E-10
 31
0.0
210
0.0
220
0.0
230
1.0
 40
0.3939339440162632
 41
1.131841032648279
 42
5.62031148352944
  0
LINE
  5
84
330
7F
100
AcDbEntity
  8
중심선
100
AcDbLine
 10
2.268634060543552
 20
16.24717430164393
 30
0.0
 11
5.714909304380834
 21
16.24717430164393
 31
0.0
  0
LINE
  5
85
330
7F
100
AcDbEntity
  8
중심선
100
AcDbLine
 10
5.245725140726316
 20
7.84717430164391
 30
0.0
 11
8.692000384563599
 21
7.84717430164391
 31
0.0
  0
LINE
  5
86
330
7F
100
AcDbEntity
  8
중심선
100
AcDbLine
 10
15.74043728645272
 20
16.24717430164393
 30
0.0
 11
8.692000384563599
 21
7.84717430164391
 31
0.0
  0
LINE
  5
87
330
7F
100
AcDbEntity
  8
중심선
100
AcDbLine
 10
0.1404042013395286
 20
13.71084872107135
 30
0.0
 11
3.58671253028996
 21
13.71088815037384
 31
0.0
  0
LINE
  5
88
330
7F
100
AcDbEntity
  8
중심선
100
AcDbLine
 10
2.750260043222114
 20
10.84717430164391
 30
0.0
 11
6.196535287059397
 21
10.84717430164391
 31
0.0
  0
LINE
  5
89
330
7F
100
AcDbEntity
  8
중심선
100
AcDbLine
 10
12.29416204261559
 20
16.24717430164393
 30
0.0
 11
5.245725140726316
 21
7.84717430164391
 31
0.0
  0
LINE
  5
8A
330
7F
100
AcDbEntity
  8
중심선
100
AcDbLine
 10
10.72767329541681
 20
16.24717430164393
 30
0.0
 11
6.196535287059397
 21
10.84717430164391
 31
0.0
  0
LINE
  5
8B
330
7F
100
AcDbEntity
  8
중심선
100
AcDbLine
 10
7.28139805157953
 20
16.24717430164393
 30
0.0
 11
2.750260043222114
 21
10.84717430164391
 31
0.0
  0
LINE
  5
8C
330
7F
100
AcDbEntity
  8
중심선
100
AcDbLine
 10
5.714909304380834
 20
16.24717430164393
 30
0.0
 11
3.58671253028996
 21
13.71088815037384
 31
0.0
  0
LINE
  5
8D
330
7F
100
AcDbEntity
  8
중심선
100
AcDbLine
 10
2.268634060543552
 20
16.24717430164393
 30
0.0
 11
0.1404042013395286
 21
13.71084872107135
 31
0.0
  0
LINE
  5
8E
330
7F
100
AcDbEntity
  8
중심선
100
AcDbLine
 10
7.28139805157953
 20
16.24717430164393
 30
0.0
 11
10.72767329541681
 21
16.24717430164393
 31
0.0
  0
LINE
  5
8F
330
7F
100
AcDbEntity
  8
중심선
100
AcDbLine
 10
12.29416204261559
 20
16.24717430164393
 30
0.0
 11
15.74043728645272
 21
16.24717430164393
 31
0.0
  0
LINE
  5
90
330
7F
100
AcDbEntity
  8
중심선
100
AcDbLine
 10
19.22036997980202
 20
11.08717430171403
 30
0.0
 11
23.66174974927406
 21
11.08717430171406
 31
0.0
  0
LINE
  5
91
330
7F
100
AcDbEntity
  8
중심선
100
AcDbLine
 10
19.22039502424796
 20
13.00717430171391
 30
0.0
 11
19.22036997980202
 21
11.08717430171403
 31
0.0
  0
LINE
  5
92
330
7F
100
AcDbEntity
  8
중심선
100
AcDbLine
 10
19.22039502424796
 20
13.00717430171391
 30
0.0
 11
26.96566020931264
 21
13.00717430171391
 31
0.0
  0
LINE
  5
93
330
7F
100
AcDbEntity
  8
중심선
100
AcDbLine
 10
22.22332737316547
 20
13.45928029700563
 30
0.0
 11
24.52862924686651
 21
15.39360700705356
 31
0.0
  0
ATTDEF
  5
95
330
7F
100
AcDbEntity
  8
FORMAT
 62
     2
100
AcDbText
 10
4.408487351596664
 20
2.075366912832191
 30
0.0
 40
4.233333333333333
  1
E5025014
 41
0.75
  7
SLDTEXTSTYLE0
 11
4.408487351596664
 21
-0.0412997538344756
 31
0.0
100
AcDbAttributeDefinition
  3

  2
AUTOATTR0
 70
     0
 74
     1
  0
ENDBLK
  5
81
330
7F
100
AcDbEntity
  8
0
100
AcDbBlockEnd
  0
BLOCK
  5
DF
330
DE
100
AcDbEntity
  8
0
100
AcDbBlockBegin
  2
_D
 70
     0
 10
0.0
 20
0.0
 30
0.0
  3
_D
  1
_D
  0
LINE
  5
E1
330
DE
100
AcDbEntity
  8
치수문자_일반주서
 62
     0
370
    -2
100
AcDbLine
 10
-20.23171167873051
 20
4.762500000000004
 30
0.0
 11
-55.80090872278634
 21
4.762499999999868
 31
0.0
  0
LINE
  5
E2
330
DE
100
AcDbEntity
  8
치수문자_일반주서
 62
     0
370
    -2
100
AcDbLine
 10
-20.23171167873051
 20
-4.762500000000006
 30
0.0
 11
-55.8009087227863
 21
-4.762500000000141
 31
0.0
  0
LINE
  5
E3
330
DE
100
AcDbEntity
  8
치수문자_일반주서
 62
     0
370
    -2
100
AcDbLine
 10
-55.80090872278634
 20
4.762499999999868
 30
0.0
 11
-55.80090872278646
 21
37.83524999999995
 31
0.0
  0
LINE
  5
E4
330
DE
100
AcDbEntity
  8
치수문자_일반주서
 62
     0
370
    -2
100
AcDbLine
 10
-55.80090872278634
 20
4.762499999999868
 30
0.0
 11
-55.8009087227863
 21
-4.762500000000141
 31
0.0
  0
LINE
  5
E5
330
DE
100
AcDbEntity
  8
치수문자_일반주서
 62
     0
370
    -2
100
AcDbLine
 10
-55.80090872278635
 20
8.064499999999867
 30
0.0
 11
-55.80090872278637
 21
11.36649999999987
 31
0.0
  0
LINE
  5
E6
330
DE
100
AcDbEntity
  8
치수문자_일반주서
 62
     0
370
    -2
100
AcDbLine
 10
-55.80090872278629
 20
-8.064500000000141
 30
0.0
 11
-55.80090872278628
 21
-11.36650000000014
 31
0.0
  0
SOLID
  5
E7
330
DE
100
AcDbEntity
  8
치수문자_일반주서
 62
     0
100
AcDbTrace
 10
-56.35124205611969
 20
8.064499999999866
 30
0.0
 11
-55.25057538945302
 21
8.06449999999987
 31
0.0
 12
-55.80090872278634
 22
4.762499999999868
 32
0.0
 13
-55.80090872278634
 23
4.762499999999868
 33
0.0
  0
SOLID
  5
E8
330
DE
100
AcDbEntity
  8
치수문자_일반주서
 62
     0
100
AcDbTrace
 10
-55.25057538945295
 20
-8.06450000000014
 30
0.0
 11
-56.35124205611962
 21
-8.064500000000143
 31
0.0
 12
-55.8009087227863
 22
-4.762500000000141
 32
0.0
 13
-55.8009087227863
 23
-4.762500000000141
 33
0.0
  0
MTEXT
  5
E9
330
DE
100
AcDbEntity
  8
치수문자_일반주서
 62
     0
100
AcDbMText
 10
-60.17590872278641
 20
24.71024999999993
 30
0.0
 40
3.5
 41
0.0
 71
     2
 72
     1
  1
\A1;%%c9.53 [3/8]
  7
SLDTEXTSTYLE0
 11
-3.729883127349603E-15
 21
1.0
 31
0.0
 73
     1
 44
1.0
  0
POINT
  5
2F8
330
DE
100
AcDbEntity
  8
Defpoints
 62
     0
100
AcDbPoint
 10
-20.16921167873051
 20
4.762500000000004
 30
0.0
  0
POINT
  5
2F9
330
DE
100
AcDbEntity
  8
Defpoints
 62
     0
100
AcDbPoint
 10
-20.16921167873051
 20
-4.762500000000006
 30
0.0
  0
POINT
  5
2FA
330
DE
100
AcDbEntity
  8
Defpoints
 62
     0
100
AcDbPoint
 10
-55.8009087227863
 20
-4.762500000000139
 30
0.0
  0
ENDBLK
  5
E0
330
DE
100
AcDbEntity
  8
0
100
AcDbBlockEnd
  0
BLOCK
  5
F3
330
F2
100
AcDbEntity
  8
0
100
AcDbBlockBegin
  2
_D_1
 70
     0
 10
0.0
 20
0.0
 30
0.0
  3
_D_1
  1
_D_1
  0
LINE
  5
F5
330
F2
100
AcDbEntity
  8
치수문자_일반주서
 62
     0
370
    -2
100
AcDbLine
 10
42.92500000000003
 20
-2.775776971059856
 30
0.0
 11
58.75832440296701
 21
-2.775776971059795
 31
0.0
  0
LINE
  5
F6
330
F2
100
AcDbEntity
  8
치수문자_일반주서
 62
     0
370
    -2
100
AcDbLine
 10
42.92500000000003
 20
2.775776971059855
 30
0.0
 11
58.75832440296698
 21
2.775776971059916
 31
0.0
  0
LINE
  5
F7
330
F2
100
AcDbEntity
  8
치수문자_일반주서
 62
     0
370
    -2
100
AcDbLine
 10
58.75832440296698
 20
2.775776971059916
 30
0.0
 11
58.75832440296684
 21
38.25477697105991
 31
0.0
  0
LINE
  5
F8
330
F2
100
AcDbEntity
  8
치수문자_일반주서
 62
     0
370
    -2
100
AcDbLine
 10
58.75832440296701
 20
-2.775776971059795
 30
0.0
 11
58.75832440296698
 21
2.775776971059916
 31
0.0
  0
LINE
  5
F9
330
F2
100
AcDbEntity
  8
치수문자_일반주서
 62
     0
370
    -2
100
AcDbLine
 10
58.75832440296702
 20
-6.077776971059794
 30
0.0
 11
58.75832440296703
 21
-9.379776971059794
 31
0.0
  0
LINE
  5
FA
330
F2
100
AcDbEntity
  8
치수문자_일반주서
 62
     0
370
    -2
100
AcDbLine
 10
58.75832440296697
 20
6.077776971059915
 30
0.0
 11
58.75832440296696
 21
9.379776971059915
 31
0.0
  0
SOLID
  5
FB
330
F2
100
AcDbEntity
  8
치수문자_일반주서
 62
     0
100
AcDbTrace
 10
59.30865773630035
 20
-6.077776971059793
 30
0.0
 11
58.20799106963369
 21
-6.077776971059796
 31
0.0
 12
58.75832440296701
 22
-2.775776971059795
 32
0.0
 13
58.75832440296701
 23
-2.775776971059795
 33
0.0
  0
SOLID
  5
FC
330
F2
100
AcDbEntity
  8
치수문자_일반주서
 62
     0
100
AcDbTrace
 10
58.20799106963364
 20
6.077776971059913
 30
0.0
 11
59.3086577363003
 21
6.077776971059917
 31
0.0
 12
58.75832440296698
 22
2.775776971059916
 32
0.0
 13
58.75832440296698
 23
2.775776971059916
 33
0.0
  0
MTEXT
  5
FD
330
F2
100
AcDbEntity
  8
치수문자_일반주서
 62
     0
100
AcDbMText
 10
54.3833244029669
 20
23.8172769710599
 30
0.0
 40
3.5
 41
0.0
 71
     2
 72
     1
  1
\A1;%%c5.55 [7/32]
  7
SLDTEXTSTYLE0
 11
-3.839696469681416E-15
 21
1.0
 31
0.0
 73
     1
 44
1.0
  0
POINT
  5
FE
330
F2
100
AcDbEntity
  8
Defpoints
 62
     0
100
AcDbPoint
 10
42.86250000000003
 20
-2.775776971059856
 30
0.0
  0
POINT
  5
FF
330
F2
100
AcDbEntity
  8
Defpoints
 62
     0
100
AcDbPoint
 10
42.86250000000003
 20
2.775776971059855
 30
0.0
  0
POINT
  5
100
330
F2
100
AcDbEntity
  8
Defpoints
 62
     0
100
AcDbPoint
 10
58.75832440296698
 20
2.775776971059914
 30
0.0
  0
ENDBLK
  5
F4
330
F2
100
AcDbEntity
  8
0
100
AcDbBlockEnd
  0
BLOCK
  5
108
330
107
100
AcDbEntity
  8
0
100
AcDbBlockBegin
  2
_D_2
 70
     0
 10
0.0
 20
0.0
 30
0.0
  3
_D_2
  1
_D_2
  0
LINE
  5
10A
330
107
100
AcDbEntity
  8
치수문자_일반주서
 62
     0
370
    -2
100
AcDbLine
 10
42.86250000000003
 20
2.838276971059855
 30
0.0
 11
42.86250000000003
 21
21.57355846069913
 31
0.0
  0
LINE
  5
10B
330
107
100
AcDbEntity
  8
치수문자_일반주서
 62
     0
370
    -2
100
AcDbLine
 10
28.57500000000002
 20
2.816767052489055
 30
0.0
 11
28.57500000000002
 21
21.57355846069913
 31
0.0
  0
LINE
  5
10C
330
107
100
AcDbEntity
  8
치수문자_일반주서
 62
     0
370
    -2
100
AcDbLine
 10
28.57500000000002
 20
21.57355846069913
 30
0.0
 11
-5.153999999999982
 21
21.57355846069913
 31
0.0
  0
LINE
  5
10D
330
107
100
AcDbEntity
  8
치수문자_일반주서
 62
     0
370
    -2
100
AcDbLine
 10
42.86250000000003
 20
21.57355846069913
 30
0.0
 11
28.57500000000002
 21
21.57355846069913
 31
0.0
  0
LINE
  5
10E
330
107
100
AcDbEntity
  8
치수문자_일반주서
 62
     0
370
    -2
100
AcDbLine
 10
46.16450000000003
 20
21.57355846069913
 30
0.0
 11
49.46650000000002
 21
21.57355846069913
 31
0.0
  0
LINE
  5
10F
330
107
100
AcDbEntity
  8
치수문자_일반주서
 62
     0
370
    -2
100
AcDbLine
 10
25.27300000000002
 20
21.57355846069913
 30
0.0
 11
21.97100000000002
 21
21.57355846069913
 31
0.0
  0
SOLID
  5
110
330
107
100
AcDbEntity
  8
치수문자_일반주서
 62
     0
100
AcDbTrace
 10
46.16450000000003
 20
22.12389179403247
 30
0.0
 11
46.16450000000003
 21
21.0232251273658
 31
0.0
 12
42.86250000000003
 22
21.57355846069913
 32
0.0
 13
42.86250000000003
 23
21.57355846069913
 33
0.0
  0
SOLID
  5
111
330
107
100
AcDbEntity
  8
치수문자_일반주서
 62
     0
100
AcDbTrace
 10
25.27300000000002
 20
21.0232251273658
 30
0.0
 11
25.27300000000002
 21
22.12389179403247
 31
0.0
 12
28.57500000000002
 22
21.57355846069913
 32
0.0
 13
28.57500000000002
 23
21.57355846069913
 33
0.0
  0
MTEXT
  5
112
330
107
100
AcDbEntity
  8
치수문자_일반주서
 62
     0
100
AcDbMText
 10
8.408500000000018
 20
25.94855846069913
 30
0.0
 40
3.5
 41
0.0
 71
     2
 72
     1
  1
\A1;14.29 [9/16]
  7
SLDTEXTSTYLE0
 73
     1
 44
1.0
  0
POINT
  5
113
330
107
100
AcDbEntity
  8
Defpoints
 62
     0
100
AcDbPoint
 10
42.86250000000003
 20
2.775776971059855
 30
0.0
  0
POINT
  5
114
330
107
100
AcDbEntity
  8
Defpoints
 62
     0
100
AcDbPoint
 10
28.57500000000002
 20
2.754267052489055
 30
0.0
  0
POINT
  5
115
330
107
100
AcDbEntity
  8
Defpoints
 62
     0
100
AcDbPoint
 10
28.57500000000002
 20
21.57355846069913
 30
0.0
  0
ENDBLK
  5
109
330
107
100
AcDbEntity
  8
0
100
AcDbBlockEnd
  0
BLOCK
  5
11C
330
11B
100
AcDbEntity
  8
0
100
AcDbBlockBegin
  2
_D_3
 70
     0
 10
0.0
 20
0.0
 30
0.0
  3
_D_3
  1
_D_3
  0
LINE
  5
11E
330
11B
100
AcDbEntity
  8
치수문자_일반주서
 62
     0
370
    -2
100
AcDbLine
 10
-42.86249999999999
 20
2.838276971059853
 30
0.0
 11
-42.8625
 21
38.38250000000002
 31
0.0
  0
LINE
  5
11F
330
11B
100
AcDbEntity
  8
치수문자_일반주서
 62
     0
370
    -2
100
AcDbLine
 10
42.86250000000003
 20
2.838276971059855
 30
0.0
 11
42.86250000000001
 21
38.38250000000002
 31
0.0
  0
LINE
  5
120
330
11B
100
AcDbEntity
  8
치수문자_일반주서
 62
     0
370
    -2
100
AcDbLine
 10
-39.5605
 20
38.38250000000002
 30
0.0
 11
39.56050000000001
 21
38.38250000000002
 31
0.0
  0
SOLID
  5
121
330
11B
100
AcDbEntity
  8
치수문자_일반주서
 62
     0
100
AcDbTrace
 10
-39.5605
 20
38.93283333333336
 30
0.0
 11
-39.5605
 21
37.83216666666669
 31
0.0
 12
-42.8625
 22
38.38250000000002
 32
0.0
 13
-42.8625
 23
38.38250000000002
 33
0.0
  0
SOLID
  5
122
330
11B
100
AcDbEntity
  8
치수문자_일반주서
 62
     0
100
AcDbTrace
 10
39.56050000000001
 20
37.83216666666669
 30
0.0
 11
39.56050000000001
 21
38.93283333333336
 31
0.0
 12
42.86250000000001
 22
38.38250000000002
 32
0.0
 13
42.86250000000001
 23
38.38250000000002
 33
0.0
  0
MTEXT
  5
123
330
11B
100
AcDbEntity
  8
치수문자_일반주서
 62
     0
100
AcDbMText
 10
0.0000000000000249
 20
42.75750000000002
 30
0.0
 40
3.5
 41
0.0
 71
     2
 72
     1
  1
\A1;85.73 [3 3/8]
  7
SLDTEXTSTYLE0
 73
     1
 44
1.0
  0
POINT
  5
124
330
11B
100
AcDbEntity
  8
Defpoints
 62
     0
100
AcDbPoint
 10
-42.86249999999999
 20
2.775776971059853
 30
0.0
  0
POINT
  5
125
330
11B
100
AcDbEntity
  8
Defpoints
 62
     0
100
AcDbPoint
 10
42.86250000000003
 20
2.775776971059855
 30
0.0
  0
POINT
  5
126
330
11B
100
AcDbEntity
  8
Defpoints
 62
     0
100
AcDbPoint
 10
42.86250000000003
 20
38.38250000000002
 30
0.0
  0
ENDBLK
  5
11D
330
11B
100
AcDbEntity
  8
0
100
AcDbBlockEnd
  0
BLOCK
  5
135
330
134
100
AcDbEntity
  8
0
100
AcDbBlockBegin
  2
SW_DOWELSYMBOL_0
 70
     0
 10
0.0
 20
0.0
 30
0.0
  3
SW_DOWELSYMBOL_0
  1
SW_DOWELSYMBOL_0
  0
CIRCLE
  5
137
330
134
100
AcDbEntity
  8
해칭선
 62
     0
100
AcDbCircle
 10
0.0
 20
0.0
 30
0.0
 40
3.000000000000003
  0
HATCH
  5
138
330
134
100
AcDbEntity
  8
0
  6
Continuous
 62
     0
370
     0
100
AcDbHatch
 10
0.0
 20
0.0
 30
0.0
210
0.0
220
0.0
230
1.0
  2
SOLID
 70
     1
 71
     0
 91
        1
 92
        0
 93
        3
 72
     2
 10
0.0000000000000121
 20
0.0
 40
3.000000000000003
 50
0.0
 51
90.0
 73
     1
 72
     1
 10
0.0000000000000121
 20
3.000000000000003
 11
0.0000000000000121
 21
0.0
 72
     1
 10
0.0000000000000121
 20
0.0
 11
3.000000000000015
 21
0.0
 97
        0
 75
     0
 76
     1
 98
        1
 10
0.0
 20
0.0
  0
HATCH
  5
139
330
134
100
AcDbEntity
  8
0
  6
Continuous
 62
     0
370
     0
100
AcDbHatch
 10
0.0
 20
0.0
 30
0.0
210
0.0
220
0.0
230
1.0
  2
SOLID
 70
     1
 71
     0
 91
        1
 92
        0
 93
        3
 72
     2
 10
0.0000000000000121
 20
0.0
 40
3.000000000000003
 50
180.0
 51
270.0000000000007
 73
     1
 72
     1
 10
0.0000000000000121
 20
-3.000000000000003
 11
0.0000000000000121
 21
0.0
 72
     1
 10
0.0000000000000121
 20
0.0
 11
-2.999999999999991
 21
0.0
 97
        0
 75
     0
 76
     1
 98
        1
 10
0.0
 20
0.0
  0
ENDBLK
  5
136
330
134
100
AcDbEntity
  8
0
100
AcDbBlockEnd
  0
BLOCK
  5
224
330
223
100
AcDbEntity
  8
0
100
AcDbBlockBegin
  2
_D_4
 70
     0
 10
0.0
 20
0.0
 30
0.0
  3
_D_4
  1
_D_4
  0
LINE
  5
225
330
223
100
AcDbEntity
  8
치수문자_일반주서
 62
     0
370
    -2
100
AcDbLine
 10
102.4375000000001
 20
36.22143424691529
 30
0.0
 11
117.3750000000001
 21
36.22143424691535
 31
0.0
  0
LINE
  5
226
330
223
100
AcDbEntity
  8
치수문자_일반주서
 62
     0
370
    -2
100
AcDbLine
 10
102.4375000000001
 20
22.22143424691529
 30
0.0
 11
117.3750000000001
 21
22.22143424691535
 31
0.0
  0
LINE
  5
227
330
223
100
AcDbEntity
  8
치수문자_일반주서
 62
     0
370
    -2
100
AcDbLine
 10
117.3750000000001
 20
36.22143424691535
 30
0.0
 11
117.3750000000001
 21
22.22143424691535
 31
0.0
  0
LINE
  5
228
330
223
100
AcDbEntity
  8
치수문자_일반주서
 62
     0
370
    -2
100
AcDbLine
 10
117.3750000000001
 20
39.52343424691535
 30
0.0
 11
117.375
 21
42.82543424691535
 31
0.0
  0
LINE
  5
229
330
223
100
AcDbEntity
  8
치수문자_일반주서
 62
     0
370
    -2
100
AcDbLine
 10
117.3750000000001
 20
18.91943424691535
 30
0.0
 11
117.3750000000001
 21
15.61743424691535
 31
0.0
  0
SOLID
  5
22A
330
223
100
AcDbEntity
  8
치수문자_일반주서
 62
     0
100
AcDbTrace
 10
116.8246666666667
 20
39.52343424691535
 30
0.0
 11
117.9253333333334
 21
39.52343424691535
 31
0.0
 12
117.3750000000001
 22
36.22143424691535
 32
0.0
 13
117.3750000000001
 23
36.22143424691535
 33
0.0
  0
SOLID
  5
22B
330
223
100
AcDbEntity
  8
치수문자_일반주서
 62
     0
100
AcDbTrace
 10
117.9253333333335
 20
18.91943424691535
 30
0.0
 11
116.8246666666668
 21
18.91943424691535
 31
0.0
 12
117.3750000000001
 22
22.22143424691535
 32
0.0
 13
117.3750000000001
 23
22.22143424691535
 33
0.0
  0
MTEXT
  5
22C
330
223
100
AcDbEntity
  8
치수문자_일반주서
 62
     0
100
AcDbMText
 10
113.0000000000001
 20
29.28713862862833
 30
0.0
 40
3.5
 41
0.0
 71
     2
 72
     1
  1
\A1;%%c14
  7
SLDTEXTSTYLE0
 11
-3.045183153257572E-15
 21
1.0
 31
0.0
 73
     1
 44
1.0
  0
POINT
  5
22D
330
223
100
AcDbEntity
  8
Defpoints
 62
     0
100
AcDbPoint
 10
102.3750000000001
 20
36.22143424691529
 30
0.0
  0
POINT
  5
22E
330
223
100
AcDbEntity
  8
Defpoints
 62
     0
100
AcDbPoint
 10
102.3750000000001
 20
22.22143424691529
 30
0.0
  0
POINT
  5
22F
330
223
100
AcDbEntity
  8
Defpoints
 62
     0
100
AcDbPoint
 10
117.3750000000001
 20
22.22143424691535
 30
0.0
  0
ENDBLK
  5
230
330
223
100
AcDbEntity
  8
0
100
AcDbBlockEnd
  0
BLOCK
  5
23E
330
23D
100
AcDbEntity
  8
0
100
AcDbBlockBegin
  2
*D8
 70
     1
 10
0.0
 20
0.0
 30
0.0
  3
*D8
  1
*D8
  0
LINE
  5
23F
330
23D
100
AcDbEntity
  8
치수문자_일반주서
 62
     0
370
    -2
100
AcDbLine
 10
103.8657751816695
 20
19.48229575403651
 30
0.0
 11
119.6194267469468
 21
-6.150060756304035
 31
0.0
  0
MTEXT
  5
240
330
23D
100
AcDbEntity
  8
치수문자_일반주서
 62
     0
100
AcDbMText
 10
115.6706384014277
 20
5.288158154535728
 30
0.0
 40
3.5
 41
0.0
 71
     5
 72
     1
  1
\A1;R.5 [R0.02]
  7
SLDTEXTSTYLE0
 11
0.5236126201129557
 21
-0.8519564684057781
 31
0.0
 73
     1
 44
1.0
  0
SOLID
  5
241
330
23D
100
AcDbEntity
  8
치수문자_일반주서
 62
     0
100
AcDbTrace
 10
104.3346352247821
 20
19.77045723263868
 30
0.0
 11
103.3969151385569
 21
19.19413427543435
 31
0.0
 12
102.1368063100565
 22
22.29545601271239
 32
0.0
 13
102.1368063100565
 23
22.29545601271239
 33
0.0
  0
LINE
  5
242
330
23D
100
AcDbEntity
  8
치수문자_일반주서
 62
     0
100
AcDbLine
 10
101.785
 20
22.72143424691529
 30
0.0
 11
101.965
 21
22.72143424691529
 31
0.0
  0
LINE
  5
243
330
23D
100
AcDbEntity
  8
치수문자_일반주서
 62
     0
100
AcDbLine
 10
101.875
 20
22.63143424691529
 30
0.0
 11
101.875
 21
22.81143424691529
 31
0.0
  0
POINT
  5
26D
330
23D
100
AcDbEntity
  8
Defpoints
 62
     0
100
AcDbPoint
 10
102.1368063100565
 20
22.29545601271239
 30
0.0
  0
POINT
  5
26E
330
23D
100
AcDbEntity
  8
Defpoints
 62
     0
100
AcDbPoint
 10
101.875
 20
22.72143424691529
 30
0.0
  0
ENDBLK
  5
244
330
23D
100
AcDbEntity
  8
0
100
AcDbBlockEnd
  0
BLOCK
  5
248
330
247
100
AcDbEntity
  8
0
100
AcDbBlockBegin
  2
*D9
 70
     1
 10
0.0
 20
0.0
 30
0.0
  3
*D9
  1
*D11
  0
LINE
  5
24A
330
247
100
AcDbEntity
  8
치수문자_일반주서
 62
     0
370
    -2
100
AcDbLine
 10
19.37500000000004
 20
35.78393424691529
 30
0.0
 11
19.37500000000004
 21
70.88391841499404
 31
0.0
  0
LINE
  5
24B
330
247
100
AcDbEntity
  8
치수문자_일반주서
 62
     0
370
    -2
100
AcDbLine
 10
102.3750000000001
 20
36.34643424691529
 30
0.0
 11
102.3750000000001
 21
70.88391841499404
 31
0.0
  0
LINE
  5
24C
330
247
100
AcDbEntity
  8
치수문자_일반주서
 62
     0
370
    -2
100
AcDbLine
 10
22.67700000000004
 20
70.88391841499404
 30
0.0
 11
99.07300000000006
 21
70.88391841499404
 31
0.0
  0
SOLID
  5
24D
330
247
100
AcDbEntity
  8
치수문자_일반주서
 62
     0
100
AcDbTrace
 10
22.67700000000004
 20
71.43425174832737
 30
0.0
 11
22.67700000000004
 21
70.33358508166071
 31
0.0
 12
19.37500000000004
 22
70.88391841499404
 32
0.0
 13
19.37500000000004
 23
70.88391841499404
 33
0.0
  0
SOLID
  5
24E
330
247
100
AcDbEntity
  8
치수문자_일반주서
 62
     0
100
AcDbTrace
 10
99.07300000000006
 20
70.33358508166071
 30
0.0
 11
99.07300000000006
 21
71.43425174832737
 31
0.0
 12
102.3750000000001
 22
70.88391841499404
 32
0.0
 13
102.3750000000001
 23
70.88391841499404
 33
0.0
  0
MTEXT
  5
24F
330
247
100
AcDbEntity
  8
치수문자_일반주서
 62
     0
100
AcDbMText
 10
60.87500000000005
 20
75.25891841499404
 30
0.0
 40
3.5
 41
0.0
 71
     2
 72
     1
  1
\A1;83 [3.27]
  7
SLDTEXTSTYLE0
 73
     1
 44
1.0
  0
POINT
  5
250
330
247
100
AcDbEntity
  8
Defpoints
 62
     0
100
AcDbPoint
 10
19.37500000000004
 20
35.72143424691529
 30
0.0
  0
POINT
  5
251
330
247
100
AcDbEntity
  8
Defpoints
 62
     0
100
AcDbPoint
 10
102.3750000000001
 20
36.28393424691529
 30
0.0
  0
POINT
  5
252
330
247
100
AcDbEntity
  8
Defpoints
 62
     0
100
AcDbPoint
 10
102.3750000000001
 20
70.88391841499404
 30
0.0
  0
ENDBLK
  5
249
330
247
100
AcDbEntity
  8
0
100
AcDbBlockEnd
  0
BLOCK
  5
254
330
253
100
AcDbEntity
  8
0
100
AcDbBlockBegin
  2
*D10
 70
     1
 10
0.0
 20
0.0
 30
0.0
  3
*D10
  1
*D12
  0
LINE
  5
256
330
253
100
AcDbEntity
  8
치수문자_일반주서
 62
     0
370
    -2
100
AcDbLine
 10
76.37504186422882
 20
28.62038676313042
 30
0.0
 11
76.37504186422882
 21
61.90091383617725
 31
0.0
  0
LINE
  5
257
330
253
100
AcDbEntity
  8
치수문자_일반주서
 62
     0
370
    -2
100
AcDbLine
 10
102.3750000000001
 20
36.28393424691529
 30
0.0
 11
102.3750000000001
 21
61.90091383617725
 31
0.0
  0
LINE
  5
258
330
253
100
AcDbEntity
  8
치수문자_일반주서
 62
     0
370
    -2
100
AcDbLine
 10
79.67704186422881
 20
61.90091383617725
 30
0.0
 11
99.07300000000006
 21
61.90091383617725
 31
0.0
  0
SOLID
  5
259
330
253
100
AcDbEntity
  8
치수문자_일반주서
 62
     0
100
AcDbTrace
 10
79.67704186422881
 20
62.45124716951059
 30
0.0
 11
79.67704186422881
 21
61.35058050284392
 31
0.0
 12
76.37504186422882
 22
61.90091383617725
 32
0.0
 13
76.37504186422882
 23
61.90091383617725
 33
0.0
  0
SOLID
  5
25A
330
253
100
AcDbEntity
  8
치수문자_일반주서
 62
     0
100
AcDbTrace
 10
99.07300000000006
 20
61.35058050284392
 30
0.0
 11
99.07300000000006
 21
62.45124716951059
 31
0.0
 12
102.3750000000001
 22
61.90091383617725
 32
0.0
 13
102.3750000000001
 23
61.90091383617725
 33
0.0
  0
MTEXT
  5
25B
330
253
100
AcDbEntity
  8
치수문자_일반주서
 62
     0
100
AcDbMText
 10
89.42159572693208
 20
66.27591383617725
 30
0.0
 40
3.5
 41
0.0
 71
     2
 72
     1
  1
\A1;26 [1.02]
  7
SLDTEXTSTYLE0
 73
     1
 44
1.0
  0
POINT
  5
25C
330
253
100
AcDbEntity
  8
Defpoints
 62
     0
100
AcDbPoint
 10
76.37504186422882
 20
28.55788676313042
 30
0.0
  0
POINT
  5
25D
330
253
100
AcDbEntity
  8
Defpoints
 62
     0
100
AcDbPoint
 10
102.3750000000001
 20
36.22143424691529
 30
0.0
  0
POINT
  5
25E
330
253
100
AcDbEntity
  8
Defpoints
 62
     0
100
AcDbPoint
 10
102.3750000000001
 20
61.90091383617725
 30
0.0
  0
ENDBLK
  5
255
330
253
100
AcDbEntity
  8
0
100
AcDbBlockEnd
  0
BLOCK
  5
260
330
25F
100
AcDbEntity
  8
0
100
AcDbBlockBegin
  2
*D11
 70
     1
 10
0.0
 20
0.0
 30
0.0
  3
*D11
  1
*D13
  0
LINE
  5
262
330
25F
100
AcDbEntity
  8
치수문자_일반주서
 62
     0
370
    -2
100
AcDbLine
 10
19.81250000000005
 20
36.22143424691529
 30
0.0
 11
4.374999999999983
 21
36.22143424691524
 31
0.0
  0
LINE
  5
263
330
25F
100
AcDbEntity
  8
치수문자_일반주서
 62
     0
370
    -2
100
AcDbLine
 10
19.81250000000005
 20
22.22143424691529
 30
0.0
 11
4.375000000000032
 21
22.22143424691524
 31
0.0
  0
LINE
  5
264
330
25F
100
AcDbEntity
  8
치수문자_일반주서
 62
     0
370
    -2
100
AcDbLine
 10
4.374999999999983
 20
36.22143424691524
 30
0.0
 11
4.375000000000032
 21
22.22143424691524
 31
0.0
  0
LINE
  5
265
330
25F
100
AcDbEntity
  8
치수문자_일반주서
 62
     0
370
    -2
100
AcDbLine
 10
4.374999999999972
 20
39.52343424691524
 30
0.0
 11
4.37499999999996
 21
42.82543424691524
 31
0.0
  0
LINE
  5
266
330
25F
100
AcDbEntity
  8
치수문자_일반주서
 62
     0
370
    -2
100
AcDbLine
 10
4.375000000000044
 20
18.91943424691524
 30
0.0
 11
4.375000000000055
 21
15.61743424691524
 31
0.0
  0
SOLID
  5
267
330
25F
100
AcDbEntity
  8
치수문자_일반주서
 62
     0
100
AcDbTrace
 10
3.824666666666638
 20
39.52343424691524
 30
0.0
 11
4.925333333333305
 21
39.52343424691524
 31
0.0
 12
4.374999999999983
 22
36.22143424691524
 32
0.0
 13
4.374999999999983
 23
36.22143424691524
 33
0.0
  0
SOLID
  5
268
330
25F
100
AcDbEntity
  8
치수문자_일반주서
 62
     0
100
AcDbTrace
 10
4.925333333333377
 20
18.91943424691524
 30
0.0
 11
3.82466666666671
 21
18.91943424691523
 31
0.0
 12
4.375000000000032
 22
22.22143424691524
 32
0.0
 13
4.375000000000032
 23
22.22143424691524
 33
0.0
  0
MTEXT
  5
269
330
25F
100
AcDbEntity
  8
치수문자_일반주서
 62
     0
100
AcDbMText
 10
0.0000000000000071
 20
29.22143424691528
 30
0.0
 40
3.5
 41
0.0
 71
     2
 72
     1
  1
\A1;%%c14
  7
SLDTEXTSTYLE0
 11
-3.489272363107635E-15
 21
1.0
 31
0.0
 73
     1
 44
1.0
  0
POINT
  5
26A
330
25F
100
AcDbEntity
  8
Defpoints
 62
     0
100
AcDbPoint
 10
19.87500000000005
 20
36.22143424691529
 30
0.0
  0
POINT
  5
26B
330
25F
100
AcDbEntity
  8
Defpoints
 62
     0
100
AcDbPoint
 10
19.87500000000005
 20
22.22143424691529
 30
0.0
  0
POINT
  5
26C
330
25F
100
AcDbEntity
  8
Defpoints
 62
     0
100
AcDbPoint
 10
4.375000000000043
 20
22.22143424691524
 30
0.0
  0
ENDBLK
  5
261
330
25F
100
AcDbEntity
  8
0
100
AcDbBlockEnd
  0
BLOCK
  5
2BB
330
2BA
100
AcDbEntity
  8
0
100
AcDbBlockBegin
  2
*D12
 70
     1
 10
0.0
 20
0.0
 30
0.0
  3
*D12
  1
*D14
  0
LINE
  5
2BD
330
2BA
100
AcDbEntity
  8
치수문자_일반주서
 62
     0
370
    -2
100
AcDbLine
 10
-87.86304584989152
 20
115.5652561825762
 30
0.0
 11
-87.86304584989152
 21
150.665240350655
 31
0.0
  0
LINE
  5
2BE
330
2BA
100
AcDbEntity
  8
치수문자_일반주서
 62
     0
370
    -2
100
AcDbLine
 10
-4.863045849891506
 20
116.1277561825762
 30
0.0
 11
-4.863045849891506
 21
150.665240350655
 31
0.0
  0
LINE
  5
2BF
330
2BA
100
AcDbEntity
  8
치수문자_일반주서
 62
     0
370
    -2
100
AcDbLine
 10
-84.56104584989151
 20
150.665240350655
 30
0.0
 11
-8.165045849891506
 21
150.665240350655
 31
0.0
  0
SOLID
  5
2C0
330
2BA
100
AcDbEntity
  8
치수문자_일반주서
 62
     0
100
AcDbTrace
 10
-84.56104584989151
 20
151.2155736839883
 30
0.0
 11
-84.56104584989151
 21
150.1149070173217
 31
0.0
 12
-87.86304584989152
 22
150.665240350655
 32
0.0
 13
-87.86304584989152
 23
150.665240350655
 33
0.0
  0
SOLID
  5
2C1
330
2BA
100
AcDbEntity
  8
치수문자_일반주서
 62
     0
100
AcDbTrace
 10
-8.165045849891506
 20
150.1149070173217
 30
0.0
 11
-8.165045849891506
 21
151.2155736839883
 31
0.0
 12
-4.863045849891506
 22
150.665240350655
 32
0.0
 13
-4.863045849891506
 23
150.665240350655
 33
0.0
  0
MTEXT
  5
2C2
330
2BA
100
AcDbEntity
  8
치수문자_일반주서
 62
     0
100
AcDbMText
 10
-46.36304584989151
 20
155.040240350655
 30
0.0
 40
3.5
 41
0.0
 71
     2
 72
     1
  1
\A1;83 [3.27]
  7
SLDTEXTSTYLE0
 73
     1
 44
1.0
  0
POINT
  5
2C3
330
2BA
100
AcDbEntity
  8
Defpoints
 62
     0
100
AcDbPoint
 10
-87.86304584989152
 20
115.5027561825762
 30
0.0
  0
POINT
  5
2C4
330
2BA
100
AcDbEntity
  8
Defpoints
 62
     0
100
AcDbPoint
 10
-4.863045849891506
 20
116.0652561825762
 30
0.0
  0
POINT
  5
2C5
330
2BA
100
AcDbEntity
  8
Defpoints
 62
     0
100
AcDbPoint
 10
-4.863045849891506
 20
150.665240350655
 30
0.0
  0
ENDBLK
  5
2BC
330
2BA
100
AcDbEntity
  8
0
100
AcDbBlockEnd
  0
BLOCK
  5
2C7
330
2C6
100
AcDbEntity
  8
0
100
AcDbBlockBegin
  2
*D13
 70
     1
 10
0.0
 20
0.0
 30
0.0
  3
*D13
  1
*D15
  0
LINE
  5
2C9
330
2C6
100
AcDbEntity
  8
치수문자_일반주서
 62
     0
370
    -2
100
AcDbLine
 10
-30.86300398566274
 20
108.4017086987914
 30
0.0
 11
-30.86300398566274
 21
141.6822357718382
 31
0.0
  0
LINE
  5
2CA
330
2C6
100
AcDbEntity
  8
치수문자_일반주서
 62
     0
370
    -2
100
AcDbLine
 10
-4.863045849891506
 20
116.0652561825762
 30
0.0
 11
-4.863045849891506
 21
141.6822357718382
 31
0.0
  0
LINE
  5
2CB
330
2C6
100
AcDbEntity
  8
치수문자_일반주서
 62
     0
370
    -2
100
AcDbLine
 10
-27.56100398566274
 20
141.6822357718382
 30
0.0
 11
-8.165045849891506
 21
141.6822357718382
 31
0.0
  0
SOLID
  5
2CC
330
2C6
100
AcDbEntity
  8
치수문자_일반주서
 62
     0
100
AcDbTrace
 10
-27.56100398566274
 20
142.2325691051715
 30
0.0
 11
-27.56100398566274
 21
141.1319024385049
 31
0.0
 12
-30.86300398566274
 22
141.6822357718382
 32
0.0
 13
-30.86300398566274
 23
141.6822357718382
 33
0.0
  0
SOLID
  5
2CD
330
2C6
100
AcDbEntity
  8
치수문자_일반주서
 62
     0
100
AcDbTrace
 10
-8.165045849891506
 20
141.1319024385049
 30
0.0
 11
-8.165045849891506
 21
142.2325691051715
 31
0.0
 12
-4.863045849891506
 22
141.6822357718382
 32
0.0
 13
-4.863045849891506
 23
141.6822357718382
 33
0.0
  0
MTEXT
  5
2CE
330
2C6
100
AcDbEntity
  8
치수문자_일반주서
 62
     0
100
AcDbMText
 10
-17.81645012295948
 20
146.0572357718382
 30
0.0
 40
3.5
 41
0.0
 71
     2
 72
     1
  1
\A1;26 [1.02]
  7
SLDTEXTSTYLE0
 73
     1
 44
1.0
  0
POINT
  5
2CF
330
2C6
100
AcDbEntity
  8
Defpoints
 62
     0
100
AcDbPoint
 10
-30.86300398566274
 20
108.3392086987914
 30
0.0
  0
POINT
  5
2D0
330
2C6
100
AcDbEntity
  8
Defpoints
 62
     0
100
AcDbPoint
 10
-4.863045849891506
 20
116.0027561825762
 30
0.0
  0
POINT
  5
2D1
330
2C6
100
AcDbEntity
  8
Defpoints
 62
     0
100
AcDbPoint
 10
-4.863045849891506
 20
141.6822357718382
 30
0.0
  0
ENDBLK
  5
2C8
330
2C6
100
AcDbEntity
  8
0
100
AcDbBlockEnd
  0
BLOCK
  5
2D3
330
2D2
100
AcDbEntity
  8
0
100
AcDbBlockBegin
  2
*D14
 70
     1
 10
0.0
 20
0.0
 30
0.0
  3
*D14
  1
*D16
  0
LINE
  5
2D5
330
2D2
100
AcDbEntity
  8
치수문자_일반주서
 62
     0
370
    -2
100
AcDbLine
 10
-87.4255458498915
 20
116.0027561825762
 30
0.0
 11
-102.8630458498916
 21
116.0027561825762
 31
0.0
  0
LINE
  5
2D6
330
2D2
100
AcDbEntity
  8
치수문자_일반주서
 62
     0
370
    -2
100
AcDbLine
 10
-87.4255458498915
 20
102.0027561825762
 30
0.0
 11
-102.8630458498915
 21
102.0027561825762
 31
0.0
  0
LINE
  5
2D7
330
2D2
100
AcDbEntity
  8
치수문자_일반주서
 62
     0
370
    -2
100
AcDbLine
 10
-102.8630458498916
 20
116.0027561825762
 30
0.0
 11
-102.8630458498915
 21
102.0027561825762
 31
0.0
  0
LINE
  5
2D8
330
2D2
100
AcDbEntity
  8
치수문자_일반주서
 62
     0
370
    -2
100
AcDbLine
 10
-102.8630458498916
 20
119.3047561825762
 30
0.0
 11
-102.8630458498916
 21
122.6067561825762
 31
0.0
  0
LINE
  5
2D9
330
2D2
100
AcDbEntity
  8
치수문자_일반주서
 62
     0
370
    -2
100
AcDbLine
 10
-102.8630458498915
 20
98.70075618257619
 30
0.0
 11
-102.8630458498915
 21
95.39875618257618
 31
0.0
  0
SOLID
  5
2DA
330
2D2
100
AcDbEntity
  8
치수문자_일반주서
 62
     0
100
AcDbTrace
 10
-103.4133791832249
 20
119.3047561825762
 30
0.0
 11
-102.3127125165583
 21
119.3047561825762
 31
0.0
 12
-102.8630458498916
 22
116.0027561825762
 32
0.0
 13
-102.8630458498916
 23
116.0027561825762
 33
0.0
  0
SOLID
  5
2DB
330
2D2
100
AcDbEntity
  8
치수문자_일반주서
 62
     0
100
AcDbTrace
 10
-102.3127125165582
 20
98.70075618257619
 30
0.0
 11
-103.4133791832248
 21
98.70075618257619
 31
0.0
 12
-102.8630458498915
 22
102.0027561825762
 32
0.0
 13
-102.8630458498915
 23
102.0027561825762
 33
0.0
  0
MTEXT
  5
2DC
330
2D2
100
AcDbEntity
  8
치수문자_일반주서
 62
     0
100
AcDbMText
 10
-107.2380458498916
 20
109.0027561825762
 30
0.0
 40
3.5
 41
0.0
 71
     2
 72
     1
  1
\A1;%%c14
  7
SLDTEXTSTYLE0
 11
-3.045183153257572E-15
 21
1.0
 31
0.0
 73
     1
 44
1.0
  0
POINT
  5
2DD
330
2D2
100
AcDbEntity
  8
Defpoints
 62
     0
100
AcDbPoint
 10
-87.3630458498915
 20
116.0027561825762
 30
0.0
  0
POINT
  5
2DE
330
2D2
100
AcDbEntity
  8
Defpoints
 62
     0
100
AcDbPoint
 10
-87.3630458498915
 20
102.0027561825762
 30
0.0
  0
POINT
  5
2DF
330
2D2
100
AcDbEntity
  8
Defpoints
 62
     0
100
AcDbPoint
 10
-102.8630458498915
 20
102.0027561825762
 30
0.0
  0
ENDBLK
  5
2D4
330
2D2
100
AcDbEntity
  8
0
100
AcDbBlockEnd
  0
BLOCK
  5
2E1
330
2E0
100
AcDbEntity
  8
0
100
AcDbBlockBegin
  2
*D15
 70
     1
 10
0.0
 20
0.0
 30
0.0
  3
*D15
  1
*D17
  0
LINE
  5
2E3
330
2E0
100
AcDbEntity
  8
치수문자_일반주서
 62
     0
370
    -2
100
AcDbLine
 10
-4.800545849891492
 20
116.0027561825762
 30
0.0
 11
10.1369541501085
 21
116.0027561825763
 31
0.0
  0
LINE
  5
2E4
330
2E0
100
AcDbEntity
  8
치수문자_일반주서
 62
     0
370
    -2
100
AcDbLine
 10
-4.800545849891506
 20
102.0027561825762
 30
0.0
 11
10.13695415010855
 21
102.0027561825763
 31
0.0
  0
LINE
  5
2E5
330
2E0
100
AcDbEntity
  8
치수문자_일반주서
 62
     0
370
    -2
100
AcDbLine
 10
10.1369541501085
 20
116.0027561825763
 30
0.0
 11
10.13695415010855
 21
102.0027561825763
 31
0.0
  0
LINE
  5
2E6
330
2E0
100
AcDbEntity
  8
치수문자_일반주서
 62
     0
370
    -2
100
AcDbLine
 10
10.13695415010848
 20
119.3047561825763
 30
0.0
 11
10.13695415010847
 21
122.6067561825763
 31
0.0
  0
LINE
  5
2E7
330
2E0
100
AcDbEntity
  8
치수문자_일반주서
 62
     0
370
    -2
100
AcDbLine
 10
10.13695415010856
 20
98.7007561825763
 30
0.0
 11
10.13695415010857
 21
95.39875618257629
 31
0.0
  0
SOLID
  5
2E8
330
2E0
100
AcDbEntity
  8
치수문자_일반주서
 62
     0
100
AcDbTrace
 10
9.586620816775152
 20
119.3047561825763
 30
0.0
 11
10.68728748344182
 21
119.3047561825763
 31
0.0
 12
10.1369541501085
 22
116.0027561825763
 32
0.0
 13
10.1369541501085
 23
116.0027561825763
 33
0.0
  0
SOLID
  5
2E9
330
2E0
100
AcDbEntity
  8
치수문자_일반주서
 62
     0
100
AcDbTrace
 10
10.68728748344189
 20
98.7007561825763
 30
0.0
 11
9.586620816775227
 21
98.7007561825763
 31
0.0
 12
10.13695415010855
 22
102.0027561825763
 32
0.0
 13
10.13695415010855
 23
102.0027561825763
 33
0.0
  0
MTEXT
  5
2EA
330
2E0
100
AcDbEntity
  8
치수문자_일반주서
 62
     0
100
AcDbMText
 10
5.761954150108522
 20
109.0684605642893
 30
0.0
 40
3.5
 41
0.0
 71
     2
 72
     1
  1
\A1;%%c14
  7
SLDTEXTSTYLE0
 11
-3.552713678800501E-15
 21
1.0
 31
0.0
 73
     1
 44
1.0
  0
POINT
  5
2EB
330
2E0
100
AcDbEntity
  8
Defpoints
 62
     0
100
AcDbPoint
 10
-4.863045849891492
 20
116.0027561825762
 30
0.0
  0
POINT
  5
2EC
330
2E0
100
AcDbEntity
  8
Defpoints
 62
     0
100
AcDbPoint
 10
-4.863045849891506
 20
102.0027561825762
 30
0.0
  0
POINT
  5
2ED
330
2E0
100
AcDbEntity
  8
Defpoints
 62
     0
100
AcDbPoint
 10
10.13695415010855
 20
102.0027561825763
 30
0.0
  0
ENDBLK
  5
2E2
330
2E0
100
AcDbEntity
  8
0
100
AcDbBlockEnd
  0
BLOCK
  5
2EF
330
2EE
100
AcDbEntity
  8
0
100
AcDbBlockBegin
  2
*D16
 70
     1
 10
0.0
 20
0.0
 30
0.0
  3
*D16
  1
*D18
  0
LINE
  5
2F1
330
2EE
100
AcDbEntity
  8
치수문자_일반주서
 62
     0
370
    -2
100
AcDbLine
 10
-3.372270668222055
 20
99.26361768969747
 30
0.0
 11
12.38138089705523
 21
73.63126117935691
 31
0.0
  0
MTEXT
  5
2F2
330
2EE
100
AcDbEntity
  8
치수문자_일반주서
 62
     0
100
AcDbMText
 10
8.432592551536112
 20
85.06948009019668
 30
0.0
 40
3.5
 41
0.0
 71
     5
 72
     1
  1
\A1;R.5 [R0.02]
  7
SLDTEXTSTYLE0
 11
0.5236126201129557
 21
-0.8519564684057781
 31
0.0
 73
     1
 44
1.0
  0
SOLID
  5
2F3
330
2EE
100
AcDbEntity
  8
치수문자_일반주서
 62
     0
100
AcDbTrace
 10
-2.903410625109409
 20
99.55177916829963
 30
0.0
 11
-3.841130711334702
 21
98.9754562110953
 31
0.0
 12
-5.101239539835035
 22
102.0767779483733
 32
0.0
 13
-5.101239539835035
 23
102.0767779483733
 33
0.0
  0
LINE
  5
2F4
330
2EE
100
AcDbEntity
  8
치수문자_일반주서
 62
     0
100
AcDbLine
 10
-5.45304584989152
 20
102.5027561825762
 30
0.0
 11
-5.27304584989152
 21
102.5027561825762
 31
0.0
  0
LINE
  5
2F5
330
2EE
100
AcDbEntity
  8
치수문자_일반주서
 62
     0
100
AcDbLine
 10
-5.36304584989152
 20
102.4127561825762
 30
0.0
 11
-5.36304584989152
 21
102.5927561825763
 31
0.0
  0
POINT
  5
2F6
330
2EE
100
AcDbEntity
  8
Defpoints
 62
     0
100
AcDbPoint
 10
-5.101239539835035
 20
102.0767779483733
 30
0.0
  0
POINT
  5
2F7
330
2EE
100
AcDbEntity
  8
Defpoints
 62
     0
100
AcDbPoint
 10
-5.36304584989152
 20
102.5027561825762
 30
0.0
  0
ENDBLK
  5
2F0
330
2EE
100
AcDbEntity
  8
0
100
AcDbBlockEnd
  0
BLOCK
  5
335
330
334
100
AcDbEntity
  8
0
100
AcDbBlockBegin
  2
*D17
 70
     1
 10
0.0
 20
0.0
 30
0.0
  3
*D17
  1
*D19
  0
LINE
  5
337
330
334
100
AcDbEntity
  8
치수문자_일반주서
 62
     0
370
    -2
100
AcDbLine
 10
161.7859821346318
 20
-10.56526717524118
 30
0.0
 11
177.6193065375988
 21
-10.56526717524112
 31
0.0
  0
LINE
  5
338
330
334
100
AcDbEntity
  8
치수문자_일반주서
 62
     0
370
    -2
100
AcDbLine
 10
161.7859821346318
 20
-5.013713233121466
 30
0.0
 11
177.6193065375987
 21
-5.013713233121411
 31
0.0
  0
LINE
  5
339
330
334
100
AcDbEntity
  8
치수문자_일반주서
 62
     0
370
    -2
100
AcDbLine
 10
177.6193065375987
 20
-5.013713233121411
 30
0.0
 11
177.6193065375986
 21
28.27778676687859
 31
0.0
  0
LINE
  5
33A
330
334
100
AcDbEntity
  8
치수문자_일반주서
 62
     0
370
    -2
100
AcDbLine
 10
177.6193065375988
 20
-10.56526717524112
 30
0.0
 11
177.6193065375987
 21
-5.013713233121411
 31
0.0
  0
LINE
  5
33B
330
334
100
AcDbEntity
  8
치수문자_일반주서
 62
     0
370
    -2
100
AcDbLine
 10
177.6193065375988
 20
-13.86726717524112
 30
0.0
 11
177.6193065375988
 21
-17.16926717524112
 31
0.0
  0
LINE
  5
33C
330
334
100
AcDbEntity
  8
치수문자_일반주서
 62
     0
370
    -2
100
AcDbLine
 10
177.6193065375987
 20
-1.711713233121412
 30
0.0
 11
177.6193065375987
 21
1.590286766878588
 31
0.0
  0
SOLID
  5
33D
330
334
100
AcDbEntity
  8
치수문자_일반주서
 62
     0
100
AcDbTrace
 10
178.1696398709321
 20
-13.86726717524112
 30
0.0
 11
177.0689732042655
 21
-13.86726717524112
 31
0.0
 12
177.6193065375988
 22
-10.56526717524112
 32
0.0
 13
177.6193065375988
 23
-10.56526717524112
 33
0.0
  0
SOLID
  5
33E
330
334
100
AcDbEntity
  8
치수문자_일반주서
 62
     0
100
AcDbTrace
 10
177.0689732042654
 20
-1.711713233121414
 30
0.0
 11
178.169639870932
 21
-1.711713233121409
 31
0.0
 12
177.6193065375987
 22
-5.013713233121411
 32
0.0
 13
177.6193065375987
 23
-5.013713233121411
 33
0.0
  0
MTEXT
  5
33F
330
334
100
AcDbEntity
  8
치수문자_일반주서
 62
     0
100
AcDbMText
 10
173.2443065375986
 20
14.93403676687856
 30
0.0
 40
3.5
 41
0.0
 71
     2
 72
     1
  1
\A1;%%c5.55 [0.22]
  7
SLDTEXTSTYLE0
 11
-5.119595292908555E-15
 21
1.0
 31
0.0
 73
     1
 44
1.0
  0
POINT
  5
340
330
334
100
AcDbEntity
  8
Defpoints
 62
     0
100
AcDbPoint
 10
161.7234821346318
 20
-10.56526717524118
 30
0.0
  0
POINT
  5
341
330
334
100
AcDbEntity
  8
Defpoints
 62
     0
100
AcDbPoint
 10
161.7234821346318
 20
-5.013713233121466
 30
0.0
  0
POINT
  5
342
330
334
100
AcDbEntity
  8
Defpoints
 62
     0
100
AcDbPoint
 10
177.6193065375987
 20
-5.013713233121407
 30
0.0
  0
ENDBLK
  5
336
330
334
100
AcDbEntity
  8
0
100
AcDbBlockEnd
  0
BLOCK
  5
344
330
343
100
AcDbEntity
  8
0
100
AcDbBlockBegin
  2
*D18
 70
     1
 10
0.0
 20
0.0
 30
0.0
  3
*D18
  1
*D20
  0
LINE
  5
346
330
343
100
AcDbEntity
  8
치수문자_일반주서
 62
     0
370
    -2
100
AcDbLine
 10
161.7234821346318
 20
-4.951213233121466
 30
0.0
 11
161.7234821346318
 21
13.78406825651781
 31
0.0
  0
LINE
  5
347
330
343
100
AcDbEntity
  8
치수문자_일반주서
 62
     0
370
    -2
100
AcDbLine
 10
147.4359821346317
 20
-4.972723151692266
 30
0.0
 11
147.4359821346317
 21
13.78406825651781
 31
0.0
  0
LINE
  5
348
330
343
100
AcDbEntity
  8
치수문자_일반주서
 62
     0
370
    -2
100
AcDbLine
 10
147.4359821346317
 20
13.78406825651781
 30
0.0
 11
115.0194821346317
 21
13.78406825651781
 31
0.0
  0
LINE
  5
349
330
343
100
AcDbEntity
  8
치수문자_일반주서
 62
     0
370
    -2
100
AcDbLine
 10
161.7234821346318
 20
13.78406825651781
 30
0.0
 11
147.4359821346317
 21
13.78406825651781
 31
0.0
  0
LINE
  5
34A
330
343
100
AcDbEntity
  8
치수문자_일반주서
 62
     0
370
    -2
100
AcDbLine
 10
165.0254821346317
 20
13.78406825651781
 30
0.0
 11
168.3274821346317
 21
13.78406825651781
 31
0.0
  0
LINE
  5
34B
330
343
100
AcDbEntity
  8
치수문자_일반주서
 62
     0
370
    -2
100
AcDbLine
 10
144.1339821346317
 20
13.78406825651781
 30
0.0
 11
140.8319821346317
 21
13.78406825651781
 31
0.0
  0
SOLID
  5
34C
330
343
100
AcDbEntity
  8
치수문자_일반주서
 62
     0
100
AcDbTrace
 10
165.0254821346317
 20
14.33440158985115
 30
0.0
 11
165.0254821346317
 21
13.23373492318448
 31
0.0
 12
161.7234821346318
 22
13.78406825651781
 32
0.0
 13
161.7234821346318
 23
13.78406825651781
 33
0.0
  0
SOLID
  5
34D
330
343
100
AcDbEntity
  8
치수문자_일반주서
 62
     0
100
AcDbTrace
 10
144.1339821346317
 20
13.23373492318448
 30
0.0
 11
144.1339821346317
 21
14.33440158985115
 31
0.0
 12
147.4359821346317
 22
13.78406825651781
 32
0.0
 13
147.4359821346317
 23
13.78406825651781
 33
0.0
  0
MTEXT
  5
34E
330
343
100
AcDbEntity
  8
치수문자_일반주서
 62
     0
100
AcDbMText
 10
127.9257321346317
 20
18.15906825651781
 30
0.0
 40
3.5
 41
0.0
 71
     2
 72
     1
  1
\A1;14.29 [0.56]
  7
SLDTEXTSTYLE0
 73
     1
 44
1.0
  0
POINT
  5
34F
330
343
100
AcDbEntity
  8
Defpoints
 62
     0
100
AcDbPoint
 10
161.7234821346318
 20
-5.013713233121466
 30
0.0
  0
POINT
  5
350
330
343
100
AcDbEntity
  8
Defpoints
 62
     0
100
AcDbPoint
 10
147.4359821346317
 20
-5.035223151692266
 30
0.0
  0
POINT
  5
351
330
343
100
AcDbEntity
  8
Defpoints
 62
     0
100
AcDbPoint
 10
147.4359821346317
 20
13.78406825651781
 30
0.0
  0
ENDBLK
  5
345
330
343
100
AcDbEntity
  8
0
100
AcDbBlockEnd
  0
BLOCK
  5
353
330
352
100
AcDbEntity
  8
0
100
AcDbBlockBegin
  2
*D19
 70
     1
 10
0.0
 20
0.0
 30
0.0
  3
*D19
  1
*D21
  0
LINE
  5
355
330
352
100
AcDbEntity
  8
치수문자_일반주서
 62
     0
370
    -2
100
AcDbLine
 10
75.99848213463173
 20
-3.774490204181329
 30
0.0
 11
75.99848213463173
 21
30.5930097958187
 31
0.0
  0
LINE
  5
356
330
352
100
AcDbEntity
  8
치수문자_일반주서
 62
     0
370
    -2
100
AcDbLine
 10
161.7234821346318
 20
-4.951213233121466
 30
0.0
 11
161.7234821346318
 21
30.5930097958187
 31
0.0
  0
LINE
  5
357
330
352
100
AcDbEntity
  8
치수문자_일반주서
 62
     0
370
    -2
100
AcDbLine
 10
79.30048213463172
 20
30.5930097958187
 30
0.0
 11
158.4214821346318
 21
30.5930097958187
 31
0.0
  0
SOLID
  5
358
330
352
100
AcDbEntity
  8
치수문자_일반주서
 62
     0
100
AcDbTrace
 10
79.30048213463172
 20
31.14334312915204
 30
0.0
 11
79.30048213463172
 21
30.04267646248537
 31
0.0
 12
75.99848213463173
 22
30.5930097958187
 32
0.0
 13
75.99848213463173
 23
30.5930097958187
 33
0.0
  0
SOLID
  5
359
330
352
100
AcDbEntity
  8
치수문자_일반주서
 62
     0
100
AcDbTrace
 10
158.4214821346318
 20
30.04267646248537
 30
0.0
 11
158.4214821346318
 21
31.14334312915204
 31
0.0
 12
161.7234821346318
 22
30.5930097958187
 32
0.0
 13
161.7234821346318
 23
30.5930097958187
 33
0.0
  0
MTEXT
  5
35A
330
352
100
AcDbEntity
  8
치수문자_일반주서
 62
     0
100
AcDbMText
 10
118.8609821346317
 20
34.9680097958187
 30
0.0
 40
3.5
 41
0.0
 71
     2
 72
     1
  1
\A1;85.73 [3.38]
  7
SLDTEXTSTYLE0
 73
     1
 44
1.0
  0
POINT
  5
35B
330
352
100
AcDbEntity
  8
Defpoints
 62
     0
100
AcDbPoint
 10
75.99848213463173
 20
-3.836990204181329
 30
0.0
  0
POINT
  5
35C
330
352
100
AcDbEntity
  8
Defpoints
 62
     0
100
AcDbPoint
 10
161.7234821346318
 20
-5.013713233121466
 30
0.0
  0
POINT
  5
35D
330
352
100
AcDbEntity
  8
Defpoints
 62
     0
100
AcDbPoint
 10
161.7234821346318
 20
30.5930097958187
 30
0.0
  0
ENDBLK
  5
354
330
352
100
AcDbEntity
  8
0
100
AcDbBlockEnd
  0
ENDSEC
  0
SECTION
  2
ENTITIES
  0
LINE
  5
96
330
1F
100
AcDbEntity
  8
외형선
  6
Continuous
370
    15
100
AcDbLine
 10
20.16921167873055
 20
4.762499999999997
 30
0.0
 11
4.838700000000125
 21
4.762499999999996
 31
0.0
  0
LINE
  5
97
330
1F
100
AcDbEntity
  8
외형선
  6
Continuous
370
    15
100
AcDbLine
 10
-20.16921167873052
 20
-4.762500000000003
 30
0.0
 11
20.16921167873056
 21
-4.7625
 31
0.0
  0
LINE
  5
98
330
1F
100
AcDbEntity
  8
외형선
  6
Continuous
370
    15
100
AcDbLine
 10
20.16921167873055
 20
-4.7625
 30
0.0
 11
27.57500000000002
 21
-2.778125000000001
 31
0.0
  0
LINE
  5
99
330
1F
100
AcDbEntity
  8
외형선
  6
Continuous
370
    15
100
AcDbLine
 10
27.57500000000002
 20
2.778125
 30
0.0
 11
20.16921167873055
 21
4.762499999999998
 31
0.0
  0
LINE
  5
9C
330
1F
100
AcDbEntity
  8
외형선
  6
Continuous
370
    15
100
AcDbLine
 10
27.68505093972588
 20
2.778125
 30
0.0
 11
27.57500000000002
 21
2.778125
 31
0.0
  0
LINE
  5
9D
330
1F
100
AcDbEntity
  8
외형선
  6
Continuous
370
    15
100
AcDbLine
 10
28.57500000000002
 20
2.778125
 30
0.0
 11
27.94325827066821
 21
2.778125
 31
0.0
  0
LINE
  5
9E
330
1F
100
AcDbEntity
  8
외형선
  6
Continuous
370
    15
100
AcDbLine
 10
27.94325827066821
 20
-2.778125000000001
 30
0.0
 11
28.57500000000002
 21
-2.778125000000001
 31
0.0
  0
LINE
  5
9F
330
1F
100
AcDbEntity
  8
외형선
  6
Continuous
370
    15
100
AcDbLine
 10
27.57500000000002
 20
-2.778125000000001
 30
0.0
 11
27.68505093972588
 21
-2.778125000000001
 31
0.0
  0
SPLINE
  5
A0
330
1F
100
AcDbEntity
  8
0
  6
Continuous
 62
     1
370
    15
100
AcDbSpline
210
0.0
220
0.0
230
1.0
 70
     8
 71
     3
 72
     9
 73
     5
 74
     0
 42
0.000000001
 43
0.00000001
 40
0.0
 40
0.0
 40
0.0
 40
0.0
 40
0.4544819811882583
 40
1.0
 40
1.0
 40
1.0
 40
1.0
 10
35.6658503905831
 20
0.7119083610320049
 30
0.0
 10
35.54760584881642
 20
0.7680718430881288
 30
0.0
 10
35.2874315258267
 20
0.8916487600635449
 30
0.0
 10
35.03250883900614
 20
1.024773578056007
 30
0.0
 10
34.89344391994163
 20
1.097395565021928
 30
0.0
  0
LINE
  5
A1
330
1F
100
AcDbEntity
  8
0
  6
Continuous
 62
     1
370
    15
100
AcDbLine
 10
29.29039804589348
 20
2.778125000000001
 30
0.0
 11
28.57500000000002
 21
2.778125000000001
 31
0.0
  0
SPLINE
  5
A2
330
1F
100
AcDbEntity
  8
0
  6
Continuous
 62
     1
370
    15
100
AcDbSpline
210
0.0
220
0.0
230
1.0
 70
     8
 71
     3
 72
    15
 73
    11
 74
     0
 42
0.000000001
 43
0.00000001
 40
0.0
 40
0.0
 40
0.0
 40
0.0
 40
0.2123116015347478
 40
0.3573909242698897
 40
0.4644864368851883
 40
0.5769577282348666
 40
0.6906136722150963
 40
0.8039371212709007
 40
0.9125692975842212
 40
1.0
 40
1.0
 40
1.0
 40
1.0
 10
34.745977981093
 20
2.207603518001334
 30
0.0
 10
34.58452108551447
 20
2.199754211575479
 30
0.0
 10
34.31273551787031
 20
2.186541222468265
 30
0.0
 10
33.96108856735368
 20
2.176650818012727
 30
0.0
 10
33.68651832640021
 20
2.17158651928092
 30
0.0
 10
33.43402878760763
 20
2.169355413061441
 30
0.0
 10
33.17715145394376
 20
2.169590245459599
 30
0.0
 10
32.92266987087996
 20
2.172430942724016
 30
0.0
 10
32.69031674621443
 20
2.177008857808016
 30
0.0
 10
32.54331005635906
 20
2.181539583000736
 30
0.0
 10
32.47775507605282
 20
2.183559978134277
 30
0.0
  0
SPLINE
  5
A3
330
1F
100
AcDbEntity
  8
0
  6
Continuous
 62
     1
370
    15
100
AcDbSpline
210
0.0
220
0.0
230
1.0
 70
     8
 71
     3
 72
    22
 73
    18
 74
     0
 42
0.000000001
 43
0.00000001
 40
0.0
 40
0.0
 40
0.0
 40
0.0
 40
0.0923709550339692
 40
0.1542027747531685
 40
0.1999190549298015
 40
0.2494340754161881
 40
0.3037366932044228
 40
0.3643664694475278
 40
0.4299510383037442
 40
0.4961409932827285
 40
0.6099272778900295
 40
0.7041102075132045
 40
0.7522085053643102
 40
0.8008406258235079
 40
0.8464180984767697
 40
0.9127579640150232
 40
1.0
 40
1.0
 40
1.0
 40
1.0
 10
41.84732234576521
 20
1.901641502977724
 30
0.0
 10
41.69741751950556
 20
1.889514911690413
 30
0.0
 10
41.44716850833503
 20
1.869270950543607
 30
0.0
 10
41.12221788193941
 20
1.851279463562464
 30
0.0
 10
40.86546648230699
 20
1.840317892527435
 30
0.0
 10
40.62241455352894
 20
1.832953798765961
 30
0.0
 10
40.35562647618045
 20
1.828374485260342
 30
0.0
 10
40.0629744610861
 20
1.827686872268223
 30
0.0
 10
39.75094888752864
 20
1.832083327989923
 30
0.0
 10
39.35249836492094
 20
1.844378950489325
 30
0.0
 10
38.90762727204434
 20
1.86822838658149
 30
0.0
 10
38.49241800265429
 20
1.90158832769163
 30
0.0
 10
38.18258163315457
 20
1.931569854441325
 30
0.0
 10
37.95448579979974
 20
1.956152495552662
 30
0.0
 10
37.69481111305153
 20
1.986980006374611
 30
0.0
 10
37.37094527728362
 20
2.029485427253928
 30
0.0
 10
37.12022146122442
 20
2.067777542394863
 30
0.0
 10
36.9777980638971
 20
2.089529337716665
 30
0.0
  0
SPLINE
  5
A4
330
1F
100
AcDbEntity
  8
0
  6
Continuous
 62
     1
370
    15
100
AcDbSpline
210
0.0
220
0.0
230
1.0
 70
     8
 71
     3
 72
    20
 73
    16
 74
     0
 42
0.000000001
 43
0.00000001
 40
0.0
 40
0.0
 40
0.0
 40
0.0
 40
0.1076811229869811
 40
0.183602327327929
 40
0.2488050249076928
 40
0.3130030424149773
 40
0.3755113361101129
 40
0.4409323279367667
 40
0.503785231314167
 40
0.5719411079003577
 40
0.6437860220739312
 40
0.7110815979644025
 40
0.7760742981997872
 40
0.8710954283764136
 40
1.0
 40
1.0
 40
1.0
 40
1.0
 10
30.56450428956491
 20
-2.312122415950543
 30
0.0
 10
30.7141858869765
 20
-2.297711877421524
 30
0.0
 10
30.96940136839613
 20
-2.273141104582383
 30
0.0
 10
31.31704570401298
 20
-2.245716677368135
 30
0.0
 10
31.60403307078781
 20
-2.225734735052613
 30
0.0
 10
31.87128137039004
 20
-2.20966159205965
 30
0.0
 10
32.13896728026932
 20
-2.196171904212914
 30
0.0
 10
32.40488235889111
 20
-2.18550266855037
 30
0.0
 10
32.67866453639206
 20
-2.177265860966894
 30
0.0
 10
32.96138736595992
 20
-2.171668045219302
 30
0.0
 10
33.25017996263713
 20
-2.169155033009773
 30
0.0
 10
33.53457953951762
 20
-2.169864815847464
 30
0.0
 10
33.85132383162652
 20
-2.174077829200976
 30
0.0
 10
34.25382073322984
 20
-2.184001427515256
 30
0.0
 10
34.56617107679416
 20
-2.198980625940498
 30
0.0
 10
34.745977981093
 20
-2.207603518001335
 30
0.0
  0
SPLINE
  5
A5
330
1F
100
AcDbEntity
  8
0
  6
Continuous
 62
     1
370
    15
100
AcDbSpline
210
0.0
220
0.0
230
1.0
 70
     8
 71
     3
 72
    14
 73
    10
 74
     0
 42
0.000000001
 43
0.00000001
 40
0.0
 40
0.0
 40
0.0
 40
0.0
 40
0.2057048771542427
 40
0.3621252740065751
 40
0.4695907670718057
 40
0.641090859275965
 40
0.8095177373304762
 40
0.9784322977721875
 40
1.0
 40
1.0
 40
1.0
 40
1.0
 10
36.9777980638971
 20
-2.089529337716666
 30
0.0
 10
37.12021349843077
 20
-2.067779555560937
 30
0.0
 10
37.37092329669482
 20
-2.029490984421124
 30
0.0
 10
37.69486695573742
 20
-1.986965888138516
 30
0.0
 10
37.99329834786535
 20
-1.951567938862229
 30
0.0
 10
38.29798504062636
 20
-1.919406531731602
 30
0.0
 10
38.64909810717768
 20
-1.888949291010169
 30
0.0
 10
38.89562591819823
 20
-1.869715591542292
 30
0.0
 10
39.02671173444379
 20
-1.863235406241582
 30
0.0
 10
39.04155416549985
 20
-1.862501675420727
 30
0.0
  0
LINE
  5
A6
330
1F
100
AcDbEntity
  8
0
  6
Continuous
 62
     1
370
    15
100
AcDbLine
 10
28.57500000000002
 20
-2.778125000000002
 30
0.0
 11
29.29039804589348
 21
-2.778125000000002
 31
0.0
  0
LINE
  5
A7
330
1F
100
AcDbEntity
  8
외형선
  6
Continuous
370
    15
100
AcDbLine
 10
20.16921167873055
 20
4.762499999999998
 30
0.0
 11
20.16921167873055
 21
-4.762500000000009
 31
0.0
  0
LINE
  5
A9
330
1F
100
AcDbEntity
  8
외형선
  6
Continuous
370
    15
100
AcDbLine
 10
27.57500000000002
 20
2.778125
 30
0.0
 11
27.57500000000002
 21
-2.778125000000003
 31
0.0
  0
LINE
  5
AB
330
1F
100
AcDbEntity
  8
외형선
  6
Continuous
370
    15
100
AcDbLine
 10
28.57500000000002
 20
2.778125
 30
0.0
 11
28.57500000000002
 21
2.754267052489055
 31
0.0
  0
SPLINE
  5
AC
330
1F
100
AcDbEntity
  8
외형선
  6
Continuous
370
    15
100
AcDbSpline
210
0.0
220
0.0
230
1.0
 70
     8
 71
     3
 72
     8
 73
     4
 74
     0
 42
0.000000001
 43
0.00000001
 40
0.0
 40
0.0
 40
0.0
 40
0.0
 40
1.0
 40
1.0
 40
1.0
 40
1.0
 10
28.57499999999989
 20
2.754267052489063
 30
0.0
 10
28.27707764716676
 20
2.776694263065003
 30
0.0
 10
27.97939673966301
 20
2.783289998123075
 30
0.0
 10
27.68505093972588
 20
2.774108593945494
 30
0.0
  0
LINE
  5
AD
330
1F
100
AcDbEntity
  8
외형선
  6
Continuous
370
    15
100
AcDbLine
 10
27.68505093972588
 20
-2.624940110772122
 30
0.0
 11
27.68505093972588
 21
2.778125
 31
0.0
  0
SPLINE
  5
AE
330
1F
100
AcDbEntity
  8
외형선
  6
Continuous
370
    15
100
AcDbSpline
210
0.0
220
0.0
230
1.0
 70
     8
 71
     3
 72
     8
 73
     4
 74
     0
 42
0.000000001
 43
0.00000001
 40
0.0
 40
0.0
 40
0.0
 40
0.0
 40
1.0
 40
1.0
 40
1.0
 40
1.0
 10
28.5749999999999
 20
-2.747480017095199
 30
0.0
 10
28.2770955896713
 20
-2.722079316169148
 30
0.0
 10
27.97943155282846
 20
-2.68090388297273
 30
0.0
 10
27.68510412098317
 20
-2.62497909822581
 30
0.0
  0
LINE
  5
AF
330
1F
100
AcDbEntity
  8
외형선
  6
Continuous
370
    15
100
AcDbLine
 10
27.68505093972588
 20
-2.774108593945495
 30
0.0
 11
27.94325827066821
 21
-2.774416058167495
 31
0.0
  0
LINE
  5
B0
330
1F
100
AcDbEntity
  8
외형선
  6
Continuous
370
    15
100
AcDbLine
 10
27.68505093972588
 20
-2.778125000000001
 30
0.0
 11
27.68505093972588
 21
-2.774068932989348
 31
0.0
  0
SPLINE
  5
B1
330
1F
100
AcDbEntity
  8
외형선
  6
Continuous
370
    15
100
AcDbSpline
210
0.0
220
0.0
230
1.0
 70
    24
 71
     3
 72
    10
 73
     6
 74
     0
 42
0.000000001
 43
0.00000001
 40
0.0
 40
0.0
 40
0.0
 40
0.0
 40
0.5
 40
0.5
 40
1.0
 40
1.0
 40
1.0
 40
1.0
 10
28.57500000000002
 20
-0.3809716817867704
 30
0.0
 10
28.57500000000002
 20
-0.7918184411104514
 30
0.0
 10
28.57500000000002
 20
-1.195797966005829
 30
0.0
 10
28.57500000000002
 20
-1.870099686980717
 30
0.0
 10
28.57500000000002
 20
-2.137519424850104
 30
0.0
 10
28.57500000000002
 20
-2.310030712411569
 30
0.0
  0
SPLINE
  5
B2
330
1F
100
AcDbEntity
  8
외형선
  6
Continuous
370
    15
100
AcDbSpline
210
0.0
220
0.0
230
1.0
 70
     8
 71
     3
 72
     8
 73
     4
 74
     0
 42
0.000000001
 43
0.00000001
 40
0.0
 40
0.0
 40
0.0
 40
0.0
 40
1.0
 40
1.0
 40
1.0
 40
1.0
 10
28.57499999999983
 20
-2.31003071241155
 30
0.0
 10
28.27709558967126
 20
-2.279790869784824
 30
0.0
 10
27.97943155282844
 20
-2.236290865883479
 30
0.0
 10
27.68510412098317
 20
-2.18057342051844
 30
0.0
  0
SPLINE
  5
B3
330
1F
100
AcDbEntity
  8
외형선
  6
Continuous
370
    15
100
AcDbSpline
210
0.0
220
0.0
230
1.0
 70
     8
 71
     3
 72
     8
 73
     4
 74
     0
 42
0.000000001
 43
0.00000001
 40
0.0
 40
0.0
 40
0.0
 40
0.0
 40
1.0
 40
1.0
 40
1.0
 40
1.0
 10
28.5749999999998
 20
-0.380971681786669
 30
0.0
 10
28.2770842061228
 20
-0.2458085283574685
 30
0.0
 10
27.979409465769
 20
-0.1085015748565872
 30
0.0
 10
27.68507038036595
 20
0.0281308376692407
 30
0.0
  0
SPLINE
  5
B4
330
1F
100
AcDbEntity
  8
외형선
  6
Continuous
370
    15
100
AcDbSpline
210
0.0
220
0.0
230
1.0
 70
    24
 71
     3
 72
    14
 73
    10
 74
     0
 42
0.000000001
 43
0.00000001
 40
0.0
 40
0.0
 40
0.0
 40
0.0
 40
0.2499999999999998
 40
0.2499999999999998
 40
0.4999999999999999
 40
0.4999999999999999
 40
0.75
 40
0.75
 40
1.0
 40
1.0
 40
1.0
 40
1.0
 10
28.57500000000002
 20
1.915903729950923
 30
0.0
 10
28.57500000000002
 20
1.823067768929333
 30
0.0
 10
28.57500000000002
 20
1.699313568729996
 30
0.0
 10
28.57500000000002
 20
1.393107058065886
 30
0.0
 10
28.57500000000002
 20
1.210689464745011
 30
0.0
 10
28.57500000000002
 20
0.8024684826113735
 30
0.0
 10
28.57500000000002
 20
0.5768826110048848
 30
0.0
 10
28.57500000000002
 20
0.1061910121229254
 30
0.0
 10
28.57500000000002
 20
-0.1386489698270442
 30
0.0
 10
28.57500000000002
 20
-0.3809716817867702
 30
0.0
  0
SPLINE
  5
B5
330
1F
100
AcDbEntity
  8
외형선
  6
Continuous
370
    15
100
AcDbSpline
210
0.0
220
0.0
230
1.0
 70
     8
 71
     3
 72
     8
 73
     4
 74
     0
 42
0.000000001
 43
0.00000001
 40
0.0
 40
0.0
 40
0.0
 40
0.0
 40
1.0
 40
1.0
 40
1.0
 40
1.0
 10
28.57499999999973
 20
1.915903729950942
 30
0.0
 10
28.27708197548235
 20
1.936481423038894
 30
0.0
 10
27.97940513773922
 20
1.946045203319131
 30
0.0
 10
27.68506376878553
 20
1.94453168338165
 30
0.0
  0
SPLINE
  5
B6
330
1F
100
AcDbEntity
  8
외형선
  6
Continuous
370
    15
100
AcDbSpline
210
0.0
220
0.0
230
1.0
 70
    24
 71
     3
 72
     8
 73
     4
 74
     0
 42
0.000000001
 43
0.00000001
 40
0.0
 40
0.0
 40
0.0
 40
0.0
 40
1.0
 40
1.0
 40
1.0
 40
1.0
 10
28.57500000000002
 20
-2.31003071241157
 30
0.0
 10
28.57500000000002
 20
-2.457144092712342
 30
0.0
 10
28.57500000000002
 20
-2.603903449275222
 30
0.0
 10
28.57500000000002
 20
-2.747480017087844
 30
0.0
  0
SPLINE
  5
B7
330
1F
100
AcDbEntity
  8
외형선
  6
Continuous
370
    15
100
AcDbSpline
210
0.0
220
0.0
230
1.0
 70
    24
 71
     3
 72
    10
 73
     6
 74
     0
 42
0.000000001
 43
0.00000001
 40
0.0
 40
0.0
 40
0.0
 40
0.0
 40
0.5
 40
0.5
 40
1.0
 40
1.0
 40
1.0
 40
1.0
 10
28.57500000000001
 20
2.754267052489054
 30
0.0
 10
28.57500000000001
 20
2.623296491782562
 30
0.0
 10
28.57500000000001
 20
2.477278856705126
 30
0.0
 10
28.57500000000001
 20
2.187095075103248
 30
0.0
 10
28.57500000000001
 20
2.043707479165037
 30
0.0
 10
28.57500000000001
 20
1.915903729950925
 30
0.0
  0
SPLINE
  5
B8
330
1F
100
AcDbEntity
  8
0
  6
Continuous
 62
     1
370
    15
100
AcDbSpline
210
0.0
220
0.0
230
1.0
 70
     8
 71
     3
 72
    18
 73
    14
 74
     0
 42
0.000000001
 43
0.00000001
 40
0.0
 40
0.0
 40
0.0
 40
0.0
 40
0.0982770111660899
 40
0.1965497889913806
 40
0.2948185930227249
 40
0.3930836841531679
 40
0.4913453245359372
 40
0.5896037774975204
 40
0.6822493643765624
 40
0.7748771464748793
 40
0.867493483002883
 40
0.9601047653600725
 40
1.0
 40
1.0
 40
1.0
 40
1.0
 10
42.86250000000002
 20
-2.636276352334872
 30
0.0
 10
42.4178515016985
 20
-2.535699899504645
 30
0.0
 10
41.5285736585944
 20
-2.334551326234811
 30
0.0
 10
40.19469887982065
 20
-1.800711600146206
 30
0.0
 10
38.86088899307923
 20
-1.143888998421045
 30
0.0
 10
37.5271357257753
 20
-0.3958809151843837
 30
0.0
 10
36.19345370707144
 20
0.3812272711138818
 30
0.0
 10
34.88514881388461
 20
1.115510944745341
 30
0.0
 10
33.60253818104681
 20
1.753995625904785
 30
0.0
 10
32.34546467403834
 20
2.263809709189005
 30
0.0
 10
31.08858602929607
 20
2.608844924417246
 30
0.0
 10
30.07025419954208
 20
2.778398153752655
 30
0.0
 10
29.47086340624958
 20
2.760345381310908
 30
0.0
 10
29.29039804589348
 20
2.754910029082306
 30
0.0
  0
SPLINE
  5
B9
330
1F
100
AcDbEntity
  8
0
  6
Continuous
 62
     1
370
    15
100
AcDbSpline
210
0.0
220
0.0
230
1.0
 70
     8
 71
     3
 72
    13
 73
     9
 74
     0
 42
0.000000001
 43
0.00000001
 40
0.0
 40
0.0
 40
0.0
 40
0.0
 40
0.1754795264567109
 40
0.3509051285779757
 40
0.5262868472351953
 40
0.7016348321136795
 40
0.8769593168413459
 40
1.0
 40
1.0
 40
1.0
 40
1.0
 10
42.86250000000003
 20
-2.191863571947951
 30
0.0
 10
42.44059867837724
 20
-2.100200876392537
 30
0.0
 10
41.59692568415031
 20
-1.916903652954843
 30
0.0
 10
40.3316623962083
 20
-1.469963624495563
 30
0.0
 10
39.06675735474332
 20
-0.9324375112728295
 30
0.0
 10
37.80213311666768
 20
-0.3296799622035347
 30
0.0
 10
36.66335721655851
 20
0.2384819142078098
 30
0.0
 10
35.94611524217437
 20
0.5751886158575913
 30
0.0
 10
35.6503369408952
 20
0.7140406906107369
 30
0.0
  0
LINE
  5
BA
330
1F
100
AcDbEntity
  8
0
  6
Continuous
 62
     1
370
    15
100
AcDbLine
 10
42.86249999999995
 20
-2.636276352334874
 30
0.0
 11
42.86250000000002
 21
-2.191863571947951
 31
0.0
  0
SPLINE
  5
BB
330
1F
100
AcDbEntity
  8
0
  6
Continuous
 62
     1
370
    15
100
AcDbSpline
210
0.0
220
0.0
230
1.0
 70
     8
 71
     3
 72
    50
 73
    46
 74
     0
 42
0.000000001
 43
0.00000001
 40
0.0
 40
0.0
 40
0.0
 40
0.0
 40
0.0625
 40
0.0625
 40
0.1249999999999999
 40
0.1249999999999999
 40
0.1874999999999999
 40
0.1874999999999999
 40
0.2499999999999998
 40
0.2499999999999998
 40
0.3124999999999998
 40
0.3124999999999998
 40
0.3749999999999998
 40
0.3749999999999998
 40
0.4062499999999997
 40
0.4062499999999997
 40
0.4374999999999997
 40
0.4374999999999997
 40
0.4687499999999997
 40
0.4687499999999997
 40
0.4999999999999997
 40
0.4999999999999997
 40
0.5624999999999997
 40
0.5624999999999997
 40
0.5937499999999996
 40
0.5937499999999996
 40
0.6249999999999996
 40
0.6249999999999996
 40
0.6562499999999996
 40
0.6562499999999996
 40
0.6874999999999996
 40
0.6874999999999996
 40
0.7499999999999996
 40
0.7499999999999996
 40
0.7812499999999997
 40
0.7812499999999997
 40
0.8124999999999998
 40
0.8124999999999998
 40
0.8437499999999999
 40
0.8437499999999999
 40
0.875
 40
0.875
 40
0.9375
 40
0.9375
 40
1.0
 40
1.0
 40
1.0
 40
1.0
 10
42.86250000000002
 20
-2.775776971059855
 30
0.0
 10
42.56785916597947
 20
-2.768736568581094
 30
0.0
 10
42.2673112579358
 20
-2.745686547759916
 30
0.0
 10
41.66974826758971
 20
-2.668311605462369
 30
0.0
 10
41.37611424021432
 20
-2.614339502928455
 30
0.0
 10
40.77920025925827
 20
-2.476512663000956
 30
0.0
 10
40.47836861930509
 20
-2.392658523769232
 30
0.0
 10
39.88735050383075
 20
-2.199639090378589
 30
0.0
 10
39.58879415037049
 20
-2.089618386951792
 30
0.0
 10
38.99076909576863
 20
-1.846667286057123
 30
0.0
 10
38.69679698374361
 20
-1.714588403648036
 30
0.0
 10
38.10071827998809
 20
-1.431144202044082
 30
0.0
 10
37.79969850708375
 20
-1.279844788820112
 30
0.0
 10
37.35526770186191
 20
-1.04441532054079
 30
0.0
 10
37.2081664233873
 20
-0.9645211563296153
 30
0.0
 10
36.91037068377146
 20
-0.8015505429759424
 30
0.0
 10
36.76065140364517
 20
-0.7186452958155716
 30
0.0
 10
36.46150155816903
 20
-0.5510557318743499
 30
0.0
 10
36.31207376973097
 20
-0.4663729815324585
 30
0.0
 10
36.01543152713
 20
-0.2963353386825981
 30
0.0
 10
35.86851419868997
 20
-0.2110401152249625
 30
0.0
 10
35.42222067683637
 20
0.0464478870860493
 30
0.0
 10
35.12110857104096
 20
0.2195103843892036
 30
0.0
 10
34.67564686873143
 20
0.4745555199154312
 30
0.0
 10
34.52881797464428
 20
0.5586990126010425
 30
0.0
 10
34.23157872857969
 20
0.7258230776983567
 30
0.0
 10
34.08198909411634
 20
0.8086438426475907
 30
0.0
 10
33.78279578799769
 20
0.9717197505228907
 30
0.0
 10
33.63319489607133
 20
1.051973377801211
 30
0.0
 10
33.33591110182289
 20
1.208894898550672
 30
0.0
 10
33.18907510357027
 20
1.285424467946752
 30
0.0
 10
32.74368533957087
 20
1.510011119868933
 30
0.0
 10
32.44257679969961
 20
1.652567658442732
 30
0.0
 10
31.99622158894439
 20
1.850138446295877
 30
0.0
 10
31.84928294984257
 20
1.913173304826686
 30
0.0
 10
31.55269206437557
 20
2.033982348933004
 30
0.0
 10
31.40327901811686
 20
2.091706858589222
 30
0.0
 10
31.10413615434759
 20
2.201001299723879
 30
0.0
 10
30.95440911329634
 20
2.252570179355446
 30
0.0
 10
30.65657568068
 20
2.348913229704175
 30
0.0
 10
30.50943889055015
 20
2.393600907594621
 30
0.0
 10
30.06509019848305
 20
2.517522017017993
 30
0.0
 10
29.76408111953654
 20
2.586523319045619
 30
0.0
 10
29.1679339152545
 20
2.693583664839612
 30
0.0
 10
28.87399857118738
 20
2.731758825583166
 30
0.0
 10
28.57499999999814
 20
2.754267052489198
 30
0.0
  0
SPLINE
  5
BC
330
1F
100
AcDbEntity
  8
0
  6
Continuous
 62
     1
370
    15
100
AcDbSpline
210
0.0
220
0.0
230
1.0
 70
     8
 71
     3
 72
    13
 73
     9
 74
     0
 42
0.000000001
 43
0.00000001
 40
0.0
 40
0.0
 40
0.0
 40
0.0
 40
0.0932281237272965
 40
0.2643907875113498
 40
0.4355610216007768
 40
0.6067493092451568
 40
0.8033692946369275
 40
1.0
 40
1.0
 40
1.0
 40
1.0
 10
35.96197725969127
 20
-0.263046831366977
 30
0.0
 10
35.73243628221679
 20
-0.1714202364066524
 30
0.0
 10
35.08146834063166
 20
0.0884286871800264
 30
0.0
 10
34.00906393344755
 20
0.5235742346079181
 30
0.0
 10
32.74468241458084
 20
0.9982151047206022
 30
0.0
 10
31.41769395152426
 20
1.422463095157952
 30
0.0
 10
30.02762717201798
 20
1.764541304036068
 30
0.0
 10
29.05921785691707
 20
1.865448671071334
 30
0.0
 10
28.57500000000002
 20
1.915903729950923
 30
0.0
  0
SPLINE
  5
BD
330
1F
100
AcDbEntity
  8
외형선
  6
Continuous
370
    15
100
AcDbSpline
210
0.0
220
0.0
230
1.0
 70
    24
 71
     3
 72
    10
 73
     6
 74
     0
 42
0.000000001
 43
0.00000001
 40
0.0
 40
0.0
 40
0.0
 40
0.0
 40
0.5
 40
0.5
 40
1.0
 40
1.0
 40
1.0
 40
1.0
 10
28.57500000000001
 20
2.754267052489054
 30
0.0
 10
28.57500000000001
 20
2.623296491782561
 30
0.0
 10
28.57500000000001
 20
2.477278856705124
 30
0.0
 10
28.57500000000001
 20
2.187095075103249
 30
0.0
 10
28.57500000000001
 20
2.043707479165037
 30
0.0
 10
28.57500000000001
 20
1.915903729950925
 30
0.0
  0
LINE
  5
BE
330
1F
100
AcDbEntity
  8
0
  6
Continuous
 62
     1
370
    15
100
AcDbLine
 10
42.86250000000003
 20
-2.775776971059856
 30
0.0
 11
42.8625
 21
-2.636276352334868
 31
0.0
  0
SPLINE
  5
BF
330
1F
100
AcDbEntity
  8
0
  6
Continuous
 62
     1
370
    15
100
AcDbSpline
210
0.0
220
0.0
230
1.0
 70
     8
 71
     3
 72
     8
 73
     4
 74
     0
 42
0.000000001
 43
0.00000001
 40
0.0
 40
0.0
 40
0.0
 40
0.0
 40
1.0
 40
1.0
 40
1.0
 40
1.0
 10
41.14275320493469
 20
0.7778932338795846
 30
0.0
 10
41.04430725072039
 20
0.8945474298580646
 30
0.0
 10
40.95645483824006
 20
1.006817634167561
 30
0.0
 10
40.88168337164888
 20
1.113674468780592
 30
0.0
  0
LINE
  5
C0
330
1F
100
AcDbEntity
  8
0
  6
Continuous
 62
     1
370
    15
100
AcDbLine
 10
40.9168303666421
 20
1.143166299316389
 30
0.0
 11
42.86250000000002
 21
0.000000000000001
 31
0.0
  0
LINE
  5
C1
330
1F
100
AcDbEntity
  8
0
  6
Continuous
 62
     1
370
    15
100
AcDbLine
 10
42.86250000000002
 20
0.000000000000001
 30
0.0
 11
42.86250000000002
 21
-0.7424343094386063
 31
0.0
  0
SPLINE
  5
C2
330
1F
100
AcDbEntity
  8
0
  6
Continuous
 62
     1
370
    15
100
AcDbSpline
210
0.0
220
0.0
230
1.0
 70
     8
 71
     3
 72
    10
 73
     6
 74
     0
 42
0.000000001
 43
0.00000001
 40
0.0
 40
0.0
 40
0.0
 40
0.0
 40
0.5
 40
0.5
 40
1.0
 40
1.0
 40
1.0
 40
1.0
 10
42.86250000000003
 20
-0.7424343094386077
 30
0.0
 10
42.56479592326627
 20
-0.5083865335042345
 30
0.0
 10
42.27206906482478
 20
-0.2647365363175413
 30
0.0
 10
41.69681343464816
 20
0.2422379587817732
 30
0.0
 10
41.41161006502109
 20
0.5082424888783085
 30
0.0
 10
41.14275320493469
 20
0.7778932338795864
 30
0.0
  0
SPLINE
  5
C3
330
1F
100
AcDbEntity
  8
0
  6
Continuous
 62
     1
370
    15
100
AcDbSpline
210
0.0
220
0.0
230
1.0
 70
     8
 71
     3
 72
    13
 73
     9
 74
     0
 42
0.000000001
 43
0.00000001
 40
0.0
 40
0.0
 40
0.0
 40
0.0
 40
0.1622014347566413
 40
0.3244312315403641
 40
0.5220533360810605
 40
0.7196485848393012
 40
0.9172287387957109
 40
1.0
 40
1.0
 40
1.0
 40
1.0
 10
41.14275320493469
 20
0.7778932338795841
 30
0.0
 10
40.79677665547931
 20
0.9240063593986377
 30
0.0
 10
40.10476306020932
 20
1.216258159313235
 30
0.0
 10
38.99117415838803
 20
1.615215355796476
 30
0.0
 10
37.80212315808463
 20
1.953575362008894
 30
0.0
 10
36.53768896014267
 20
2.168936230833681
 30
0.0
 10
35.51824230389516
 20
2.25002170083528
 30
0.0
 10
34.92026103750099
 20
2.2028676468081
 30
0.0
 10
34.74371238848627
 20
2.188945831858503
 30
0.0
  0
SPLINE
  5
C4
330
1F
100
AcDbEntity
  8
0
  6
Continuous
 62
     1
370
    15
100
AcDbSpline
210
0.0
220
0.0
230
1.0
 70
    24
 71
     3
 72
    10
 73
     6
 74
     0
 42
0.000000001
 43
0.00000001
 40
0.0
 40
0.0
 40
0.0
 40
0.0
 40
0.5
 40
0.5
 40
1.0
 40
1.0
 40
1.0
 40
1.0
 10
42.86250000000002
 20
-2.19186357194795
 30
0.0
 10
42.86250000000002
 20
-2.023840140076196
 30
0.0
 10
42.86250000000003
 20
-1.811536091227659
 30
0.0
 10
42.86250000000002
 20
-1.317949609640483
 30
0.0
 10
42.86250000000003
 20
-1.037094740226921
 30
0.0
 10
42.86250000000003
 20
-0.7424343094386964
 30
0.0
  0
SPLINE
  5
C5
330
1F
100
AcDbEntity
  8
0
  6
Continuous
 62
     1
370
    15
100
AcDbSpline
210
0.0
220
0.0
230
1.0
 70
    24
 71
     3
 72
     8
 73
     4
 74
     0
 42
0.000000001
 43
0.00000001
 40
0.0
 40
0.0
 40
0.0
 40
0.0
 40
1.0
 40
1.0
 40
1.0
 40
1.0
 10
41.17179896848937
 20
1.357110359088225
 30
0.0
 10
41.08017263541137
 20
1.280226736796341
 30
0.0
 10
40.98289445057298
 20
1.1986006477768
 30
0.0
 10
40.88168337164892
 20
1.113674468780565
 30
0.0
  0
LINE
  5
C6
330
1F
100
AcDbEntity
  8
0
  6
Continuous
 62
     1
370
    15
100
AcDbLine
 10
42.86250000000002
 20
1.944687499999998
 30
0.0
 11
41.84463343293643
 21
1.890945149649972
 31
0.0
  0
SPLINE
  5
C7
330
1F
100
AcDbEntity
  8
0
  6
Continuous
 62
     1
370
    15
100
AcDbSpline
210
0.0
220
0.0
230
1.0
 70
     8
 71
     3
 72
     8
 73
     4
 74
     0
 42
0.000000001
 43
0.00000001
 40
0.0
 40
0.0
 40
0.0
 40
0.0
 40
1.0
 40
1.0
 40
1.0
 40
1.0
 10
42.86250000000002
 20
1.9446875
 30
0.0
 10
42.29114998707411
 20
1.789569107931427
 30
0.0
 10
41.72505202821119
 20
1.599092372656365
 30
0.0
 10
41.17179896850033
 20
1.357110359093023
 30
0.0
  0
SPLINE
  5
C8
330
1F
100
AcDbEntity
  8
0
  6
Continuous
 62
     1
370
    15
100
AcDbSpline
210
0.0
220
0.0
230
1.0
 70
     8
 71
     3
 72
     9
 73
     5
 74
     0
 42
0.000000001
 43
0.00000001
 40
0.0
 40
0.0
 40
0.0
 40
0.0
 40
0.2726175591630006
 40
1.0
 40
1.0
 40
1.0
 40
1.0
 10
30.57213657227346
 20
-2.286982841837999
 30
0.0
 10
30.39065295844939
 20
-2.312018808159943
 30
0.0
 10
29.72494523814974
 20
-2.403854295201973
 30
0.0
 10
29.05922975386328
 20
-2.349538828880027
 30
0.0
 10
28.57500000000002
 20
-2.31003071241157
 30
0.0
  0
SPLINE
  5
C9
330
1F
100
AcDbEntity
  8
0
  6
Continuous
 62
     1
370
    15
100
AcDbSpline
210
0.0
220
0.0
230
1.0
 70
     8
 71
     3
 72
    14
 73
    10
 74
     0
 42
0.000000001
 43
0.00000001
 40
0.0
 40
0.0
 40
0.0
 40
0.0
 40
0.0532469276417837
 40
0.2035842942813449
 40
0.3539191530495372
 40
0.5042604879001185
 40
0.6546172665339125
 40
0.8273040479703602
 40
1.0
 40
1.0
 40
1.0
 40
1.0
 10
36.98545735555501
 20
-2.071789639714268
 30
0.0
 10
36.8361910846301
 20
-2.099770636929669
 30
0.0
 10
36.26548644922478
 20
-2.206753177024916
 30
0.0
 10
35.27336436042916
 20
-2.242213079362102
 30
0.0
 10
34.00906907038533
 20
-2.168852136135584
 30
0.0
 10
32.74468521372496
 20
-1.937162090887592
 30
0.0
 10
31.41773335930073
 20
-1.556490942910074
 30
0.0
 10
30.02762626431063
 20
-1.031741627068923
 30
0.0
 10
29.05921732582639
 20
-0.5978988366749144
 30
0.0
 10
28.57500000000002
 20
-0.3809716817867699
 30
0.0
  0
SPLINE
  5
CA
330
1F
100
AcDbEntity
  8
외형선
  6
Continuous
370
    15
100
AcDbSpline
210
0.0
220
0.0
230
1.0
 70
    24
 71
     3
 72
    10
 73
     6
 74
     0
 42
0.000000001
 43
0.00000001
 40
0.0
 40
0.0
 40
0.0
 40
0.0
 40
0.5
 40
0.5
 40
1.0
 40
1.0
 40
1.0
 40
1.0
 10
28.57500000000002
 20
-0.3809716817867704
 30
0.0
 10
28.57500000000002
 20
-0.7918184411104514
 30
0.0
 10
28.57500000000002
 20
-1.195797966005829
 30
0.0
 10
28.57500000000002
 20
-1.870099686980717
 30
0.0
 10
28.57500000000002
 20
-2.137519424850104
 30
0.0
 10
28.57500000000002
 20
-2.310030712411569
 30
0.0
  0
SPLINE
  5
CB
330
1F
100
AcDbEntity
  8
외형선
  6
Continuous
370
    15
100
AcDbSpline
210
0.0
220
0.0
230
1.0
 70
    24
 71
     3
 72
    14
 73
    10
 74
     0
 42
0.000000001
 43
0.00000001
 40
0.0
 40
0.0
 40
0.0
 40
0.0
 40
0.2499999999999998
 40
0.2499999999999998
 40
0.4999999999999999
 40
0.4999999999999999
 40
0.75
 40
0.75
 40
1.0
 40
1.0
 40
1.0
 40
1.0
 10
28.57500000000002
 20
1.915903729950923
 30
0.0
 10
28.57500000000002
 20
1.823067768929333
 30
0.0
 10
28.57500000000002
 20
1.699313568729996
 30
0.0
 10
28.57500000000002
 20
1.393107058065886
 30
0.0
 10
28.57500000000002
 20
1.210689464745011
 30
0.0
 10
28.57500000000002
 20
0.8024684826113735
 30
0.0
 10
28.57500000000002
 20
0.5768826110048848
 30
0.0
 10
28.57500000000002
 20
0.1061910121229254
 30
0.0
 10
28.57500000000002
 20
-0.1386489698270442
 30
0.0
 10
28.57500000000002
 20
-0.3809716817867702
 30
0.0
  0
LINE
  5
CC
330
1F
100
AcDbEntity
  8
0
  6
Continuous
 62
     1
370
    15
100
AcDbLine
 10
42.86250000000002
 20
0.000000000000001
 30
0.0
 11
42.86250000000002
 21
1.9446875
 31
0.0
  0
SPLINE
  5
CD
330
1F
100
AcDbEntity
  8
0
  6
Continuous
 62
     1
370
    15
100
AcDbSpline
210
0.0
220
0.0
230
1.0
 70
     8
 71
     3
 72
    11
 73
     7
 74
     0
 42
0.000000001
 43
0.00000001
 40
0.0
 40
0.0
 40
0.0
 40
0.0
 40
0.0337854368265454
 40
0.3558671088305874
 40
0.6779312044993144
 40
1.0
 40
1.0
 40
1.0
 40
1.0
 10
32.4772631306401
 20
-2.183756307945578
 30
0.0
 10
32.43331520678719
 20
-2.20151708294791
 30
0.0
 10
31.97040508723079
 20
-2.388594008521493
 30
0.0
 10
31.0885881527396
 20
-2.604417966572087
 30
0.0
 10
29.83178858860487
 20
-2.802824530542249
 30
0.0
 10
28.9939315673047
 20
-2.765928277980298
 30
0.0
 10
28.57499999999716
 20
-2.747480017094967
 30
0.0
  0
SPLINE
  5
CE
330
1F
100
AcDbEntity
  8
외형선
  6
Continuous
370
    15
100
AcDbSpline
210
0.0
220
0.0
230
1.0
 70
    24
 71
     3
 72
     8
 73
     4
 74
     0
 42
0.000000001
 43
0.00000001
 40
0.0
 40
0.0
 40
0.0
 40
0.0
 40
1.0
 40
1.0
 40
1.0
 40
1.0
 10
28.57500000000002
 20
-2.31003071241157
 30
0.0
 10
28.57500000000002
 20
-2.457144092712341
 30
0.0
 10
28.57500000000002
 20
-2.603903449275218
 30
0.0
 10
28.57500000000002
 20
-2.747480017087839
 30
0.0
  0
SPLINE
  5
CF
330
1F
100
AcDbEntity
  8
0
  6
Continuous
 62
     1
370
    15
100
AcDbSpline
210
0.0
220
0.0
230
1.0
 70
     8
 71
     3
 72
    11
 73
     7
 74
     0
 42
0.000000001
 43
0.00000001
 40
0.0
 40
0.0
 40
0.0
 40
0.0
 40
0.0118387799669441
 40
0.3411307781726572
 40
0.6705104645830321
 40
1.0
 40
1.0
 40
1.0
 40
1.0
 10
39.04390705910802
 20
1.863608213131999
 30
0.0
 10
39.05897476277677
 20
1.870717651345017
 30
0.0
 10
39.49314597739072
 20
2.075573911597252
 30
0.0
 10
40.34657621939719
 20
2.364285828703502
 30
0.0
 10
41.60435470792271
 20
2.693025851877231
 30
0.0
 10
42.44307162469082
 20
2.748190198933974
 30
0.0
 10
42.86250000000002
 20
2.775776971059853
 30
0.0
  0
SPLINE
  5
D0
330
1F
100
AcDbEntity
  8
0
  6
Continuous
 62
     1
370
    15
100
AcDbSpline
210
0.0
220
0.0
230
1.0
 70
    24
 71
     3
 72
    10
 73
     6
 74
     0
 42
0.000000001
 43
0.00000001
 40
0.0
 40
0.0
 40
0.0
 40
0.0
 40
0.5
 40
0.5
 40
1.0
 40
1.0
 40
1.0
 40
1.0
 10
42.86250000000002
 20
1.944687499999999
 30
0.0
 10
42.86250000000002
 20
2.062569613442818
 30
0.0
 10
42.86250000000002
 20
2.199559546321459
 30
0.0
 10
42.86250000000002
 20
2.486964056544378
 30
0.0
 10
42.86250000000002
 20
2.636644638835966
 30
0.0
 10
42.86250000000002
 20
2.775776971059855
 30
0.0
  0
LINE
  5
D1
330
1F
100
AcDbEntity
  8
중심선
 62
     1
100
AcDbLine
 10
-45.8625
 20
-0.0000000000000056
 30
0.0
 11
45.86250000000001
 21
0.0000000000000056
 31
0.0
  0
LINE
  5
D2
330
1F
100
AcDbEntity
  8
참조1
100
AcDbLine
 10
-18.16921167873052
 20
0.0010749287238892
 30
0.0
 11
-18.16921167873052
 21
-39.99892507127611
 31
0.0
  0
LINE
  5
D3
330
1F
100
AcDbEntity
  8
참조1
100
AcDbLine
 10
-18.16921167873052
 20
-39.99892507127611
 30
0.0
 11
-29.45992727542973
 21
-39.9989250712761
 31
0.0
  0
CIRCLE
  5
D4
330
1F
100
AcDbEntity
  8
해칭선
100
AcDbCircle
 10
0.0
 20
0.0000000000000007
 30
0.0
 40
3.000000000000003
  0
INSERT
  5
D5
330
1F
100
AcDbEntity
  8
0
  6
Continuous
 62
     7
100
AcDbBlockReference
 66
     1
  2
블럭10
 10
-10.89049085106106
 20
-30.8271056131254
 30
0.0
  0
ATTRIB
  5
D6
330
D5
100
AcDbEntity
  8
FORMAT
 62
     2
100
AcDbText
 10
-20.07178613980233
 20
-28.75173870029321
 30
0.0
 40
4.233333333333333
  1
E5025014 [ 2 FLUTE ]
 41
0.75
  7
SLDTEXTSTYLE0
 11
-20.07178613980233
 21
-30.86840536695988
 31
0.0
100
AcDbAttribute
  2
AUTOATTR0
 70
     0
 74
     1
  0
SEQEND
  5
D7
330
D5
100
AcDbEntity
  8
0
  6
Continuous
 62
     7
  0
HATCH
  5
D8
330
1F
100
AcDbEntity
  8
중심선
100
AcDbHatch
 10
0.0
 20
0.0
 30
0.0
210
0.0
220
0.0
230
1.0
  2
SOLID
 70
     1
 71
     0
 91
        1
 92
        0
 93
        4
 72
     1
 10
-5.175581546680206
 20
-14.57993131148146
 11
-8.621856790517487
 21
-14.57993131148146
 72
     1
 10
-8.621856790517487
 20
-14.57993131148146
 11
-10.75008664972151
 21
-17.11625689205406
 72
     1
 10
-10.75008664972151
 20
-17.11625689205406
 11
-7.30377832077108
 21
-17.11621746275157
 72
     1
 10
-7.30377832077108
 20
-17.11621746275157
 11
-5.175581546680206
 21
-14.57993131148146
 97
        0
 75
     0
 76
     1
 98
        1
 10
21.21899375979467
 20
21.21899375979464
  0
HATCH
  5
D9
330
1F
100
AcDbEntity
  8
중심선
100
AcDbHatch
 10
0.0
 20
0.0
 30
0.0
210
0.0
220
0.0
230
1.0
  2
SOLID
 70
     1
 71
     0
 91
        1
 92
        0
 93
        4
 72
     1
 10
-0.1628175556442528
 20
-14.57993131148149
 11
-3.609092799481537
 21
-14.57993131148146
 72
     1
 10
-3.609092799481537
 20
-14.57993131148146
 11
-8.140230807838925
 21
-19.97993131148148
 72
     1
 10
-8.140230807838925
 20
-19.97993131148148
 11
-4.693955564001644
 21
-19.97993131148148
 72
     1
 10
-4.693955564001644
 20
-19.97993131148148
 11
-0.1628175556442528
 21
-14.57993131148149
 97
        0
 75
     0
 76
     1
 98
        1
 10
21.21899375979467
 20
21.21899375979464
  0
HATCH
  5
DA
330
1F
100
AcDbEntity
  8
중심선
100
AcDbHatch
 10
0.0
 20
0.0
 30
0.0
210
0.0
220
0.0
230
1.0
  2
SOLID
 70
     1
 71
     0
 91
        1
 92
        0
 93
        4
 72
     1
 10
4.84994643539164
 20
-14.57993131148146
 11
1.403671191554526
 21
-14.57993131148144
 72
     1
 10
1.403671191554526
 20
-14.57993131148144
 11
-5.644765710334724
 21
-22.97993131148148
 72
     1
 10
-5.644765710334724
 20
-22.97993131148148
 11
-2.198490466497443
 21
-22.97993131148148
 72
     1
 10
-2.198490466497443
 20
-22.97993131148148
 11
4.84994643539164
 21
-14.57993131148146
 97
        0
 75
     0
 76
     1
 98
        1
 10
21.21899375979467
 20
21.21899375979464
  0
HATCH
  5
DB
330
1F
100
AcDbEntity
  8
중심선
100
AcDbHatch
 10
0.0
 20
0.0
 30
0.0
210
0.0
220
0.0
230
1.0
  2
SOLID
 70
     1
 71
     0
 91
        1
 92
        0
 93
        6
 72
     3
 10
9.64983686640384
 20
-18.77993131153274
 11
3.960054785062283
 21
1.540882976769353E-10
 40
0.3939339440162628
 50
17.09539180608436
 51
320.0019657685077
 73
     0
 72
     1
 10
11.33283652210441
 20
-17.36782531611976
 11
13.6381383958055
 21
-15.43349860607184
 72
     3
 10
9.649836866350993
 20
-18.77993131148161
 11
6.600054785286831
 21
-1.278976924368180E-13
 40
0.6363583540795978
 50
39.99873849337385
 51
368.4976242363724
 73
     1
 72
     1
 10
16.0751693582516
 20
-17.81993131141149
 11
8.329904173186916
 21
-17.81993131141149
 72
     1
 10
8.329904173186916
 20
-17.81993131141149
 11
8.329879128740982
 21
-19.73993131141138
 72
     1
 10
8.329879128740982
 20
-19.73993131141138
 11
12.77125889821302
 21
-19.73993131141135
 97
        0
 75
     0
 76
     1
 98
        1
 10
21.21899375979467
 20
21.21899375979464
  0
DIMENSION
  5
DC
330
1F
100
AcDbEntity
  8
치수문자_일반주서
100
AcDbDimension
  2
_D
 10
-55.8009087227863
 20
-4.762500000000141
 30
0.0
 11
-55.80090872278641
 21
24.71024999999995
 31
0.0
 70
   160
  1
%%c<>
 71
     2
 42
9.52500000000001
 52
-270.0
  3
SLDDIMSTYLE0
100
AcDbAlignedDimension
 13
-20.16921167873051
 23
4.762500000000004
 33
0.0
 14
-20.16921167873051
 24
-4.762500000000006
 34
0.0
 50
90.0000000000002
100
AcDbRotatedDimension
1001
ACAD
1000
DSTYLE
1002
{
1070
   171
1070
     6
1070
   273
1070
     5
1002
}
  0
DIMENSION
  5
F1
330
1F
100
AcDbEntity
  8
치수문자_일반주서
100
AcDbDimension
  2
_D_1
 10
58.75832440296698
 20
2.775776971059916
 30
0.0
 11
58.7583244029669
 21
23.81727697105991
 31
0.0
 70
   160
  1
%%c<>
 71
     2
 42
5.55155394211971
 52
-270.0
  3
SLDDIMSTYLE0
100
AcDbAlignedDimension
 13
42.86250000000003
 23
-2.775776971059856
 33
0.0
 14
42.86250000000003
 24
2.775776971059855
 34
0.0
 50
90.0000000000002
100
AcDbRotatedDimension
1001
ACAD
1000
DSTYLE
1002
{
1070
   171
1070
     6
1070
   273
1070
     5
1002
}
  0
DIMENSION
  5
105
330
1F
100
AcDbEntity
  8
치수문자_일반주서
100
AcDbDimension
  2
_D_2
 10
28.57500000000002
 20
21.57355846069913
 30
0.0
 11
8.408500000000018
 21
21.57355846069913
 31
0.0
 70
   160
  1
<>
 71
     2
 42
14.28750000000001
  3
SLDDIMSTYLE0
100
AcDbAlignedDimension
 13
42.86250000000003
 23
2.775776971059855
 33
0.0
 14
28.57500000000002
 24
2.754267052489055
 34
0.0
 50
0.0000000000000142
100
AcDbRotatedDimension
1001
ACAD
1000
DSTYLE
1002
{
1070
   171
1070
     6
1070
   273
1070
     5
1002
}
  0
DIMENSION
  5
11A
330
1F
100
AcDbEntity
  8
치수문자_일반주서
100
AcDbDimension
  2
_D_3
 10
42.86250000000001
 20
38.38250000000002
 30
0.0
 11
0.0000000000000249
 21
38.38250000000002
 31
0.0
 70
   160
  1
<>
 71
     2
 42
85.72500000000002
  3
SLDDIMSTYLE0
100
AcDbAlignedDimension
 13
-42.86249999999999
 23
2.775776971059853
 33
0.0
 14
42.86250000000003
 24
2.775776971059855
 34
0.0
100
AcDbRotatedDimension
1001
ACAD
1000
DSTYLE
1002
{
1070
   171
1070
     6
1070
   273
1070
     5
1002
}
  0
LINE
  5
12D
330
1F
100
AcDbEntity
  8
참조1
100
AcDbLine
 10
68.51241335422453
 20
7.441074928723896
 30
0.0
 11
68.51241335422453
 21
-7.438925071276109
 31
0.0
  0
LINE
  5
12E
330
1F
100
AcDbEntity
  8
참조1
100
AcDbLine
 10
81.21241335422454
 20
5.441074928723896
 30
0.0
 11
68.51241335422453
 21
5.441074928723896
 31
0.0
  0
SOLID
  5
12F
330
1F
100
AcDbEntity
  8
참조1
100
AcDbTrace
 10
68.51241335422453
 20
5.441074928723896
 30
0.0
 11
74.86241335422453
 21
4.425074928723896
 31
0.0
 12
74.86241335422453
 22
6.457074928723896
 32
0.0
 13
74.86241335422453
 23
6.457074928723896
 33
0.0
  0
LINE
  5
130
330
1F
100
AcDbEntity
  8
참조1
100
AcDbLine
 10
81.21241335422454
 20
-5.438925071276109
 30
0.0
 11
68.51241335422453
 21
-5.438925071276109
 31
0.0
  0
SOLID
  5
131
330
1F
100
AcDbEntity
  8
참조1
100
AcDbTrace
 10
68.51241335422453
 20
-5.438925071276109
 30
0.0
 11
74.86241335422453
 21
-6.454925071276109
 31
0.0
 12
74.86241335422453
 22
-4.422925071276109
 32
0.0
 13
74.86241335422453
 23
-4.422925071276109
 33
0.0
  0
MTEXT
  5
132
330
1F
100
AcDbEntity
  8
참조1
100
AcDbMText
 10
77.89676348685053
 20
11.01136670591222
 30
0.0
 40
3.5
 41
0.0
 71
     1
 72
     1
  1
A
  7
SLDTEXTSTYLE0
 73
     1
 44
1.0
  0
MTEXT
  5
133
330
1F
100
AcDbEntity
  8
참조1
100
AcDbMText
 10
77.89676348685053
 20
0.1313667059122192
 30
0.0
 40
3.5
 41
0.0
 71
     1
 72
     1
  1
A
  7
SLDTEXTSTYLE0
 73
     1
 44
1.0
  0
INSERT
  5
13A
330
1F
100
AcDbEntity
  8
해칭선
100
AcDbBlockReference
  2
SW_DOWELSYMBOL_0
 10
0.0
 20
0.0000000000000007
 30
0.0
  0
LINE
  5
189
330
1F
100
AcDbEntity
  8
외형선
  6
Continuous
370
    15
100
AcDbLine
 10
-3.568700000000099
 20
3.492500000000015
 30
0.0
 11
3.568700000000028
 21
3.492500000000015
 31
0.0
  0
LINE
  5
18A
330
1F
100
AcDbEntity
  8
외형선
  6
Continuous
370
    15
100
AcDbLine
 10
-3.568700000000099
 20
3.492500000000015
 30
0.0
 11
-4.838700000000081
 21
4.762499999999997
 31
0.0
  0
LINE
  5
18B
330
1F
100
AcDbEntity
  8
외형선
  6
Continuous
370
    15
100
AcDbLine
 10
3.568700000000028
 20
3.492500000000015
 30
0.0
 11
4.838700000000124
 21
4.762499999999997
 31
0.0
  0
LINE
  5
2FB
330
1F
100
AcDbEntity
  8
외형선
  6
Continuous
370
    15
100
AcDbLine
 10
-20.16921167873051
 20
4.762499999999995
 30
0.0
 11
-27.57499999999997
 21
2.778124999999997
 31
0.0
  0
LINE
  5
2FC
330
1F
100
AcDbEntity
  8
외형선
  6
Continuous
370
    15
100
AcDbLine
 10
-27.57499999999997
 20
-2.778125000000006
 30
0.0
 11
-20.16921167873051
 21
-4.762500000000006
 31
0.0
  0
LINE
  5
2FD
330
1F
100
AcDbEntity
  8
외형선
  6
Continuous
370
    15
100
AcDbLine
 10
-27.68505093972585
 20
-2.778125000000006
 30
0.0
 11
-27.57499999999997
 21
-2.778125000000006
 31
0.0
  0
LINE
  5
2FE
330
1F
100
AcDbEntity
  8
외형선
  6
Continuous
370
    15
100
AcDbLine
 10
-28.57499999999997
 20
-2.778125000000006
 30
0.0
 11
-27.94325827066817
 21
-2.778125000000006
 31
0.0
  0
LINE
  5
2FF
330
1F
100
AcDbEntity
  8
외형선
  6
Continuous
370
    15
100
AcDbLine
 10
-27.94325827066817
 20
2.778124999999997
 30
0.0
 11
-28.57499999999997
 21
2.778124999999997
 31
0.0
  0
LINE
  5
300
330
1F
100
AcDbEntity
  8
외형선
  6
Continuous
370
    15
100
AcDbLine
 10
-27.57499999999997
 20
2.778124999999997
 30
0.0
 11
-27.68505093972585
 21
2.778124999999997
 31
0.0
  0
SPLINE
  5
301
330
1F
100
AcDbEntity
  8
0
  6
Continuous
 62
     1
370
    15
100
AcDbSpline
210
0.0
220
0.0
230
1.0
 70
     8
 71
     3
 72
     9
 73
     5
 74
     0
 42
0.000000001
 43
0.00000001
 40
0.0
 40
0.0
 40
0.0
 40
0.0
 40
0.4544819811882583
 40
1.0
 40
1.0
 40
1.0
 40
1.0
 10
-35.66585039058305
 20
-0.71190836103201
 30
0.0
 10
-35.54760584881638
 20
-0.7680718430881328
 30
0.0
 10
-35.28743152582667
 20
-0.8916487600635492
 30
0.0
 10
-35.03250883900609
 20
-1.024773578056013
 30
0.0
 10
-34.89344391994158
 20
-1.097395565021933
 30
0.0
  0
LINE
  5
302
330
1F
100
AcDbEntity
  8
0
  6
Continuous
 62
     1
370
    15
100
AcDbLine
 10
-29.29039804589343
 20
-2.778125000000006
 30
0.0
 11
-28.57499999999997
 21
-2.778125000000006
 31
0.0
  0
SPLINE
  5
303
330
1F
100
AcDbEntity
  8
0
  6
Continuous
 62
     1
370
    15
100
AcDbSpline
210
0.0
220
0.0
230
1.0
 70
     8
 71
     3
 72
    15
 73
    11
 74
     0
 42
0.000000001
 43
0.00000001
 40
0.0
 40
0.0
 40
0.0
 40
0.0
 40
0.2123116015347478
 40
0.3573909242698897
 40
0.4644864368851883
 40
0.5769577282348666
 40
0.6906136722150963
 40
0.8039371212709007
 40
0.9125692975842212
 40
1.0
 40
1.0
 40
1.0
 40
1.0
 10
-34.74597798109296
 20
-2.207603518001338
 30
0.0
 10
-34.58452108551442
 20
-2.199754211575484
 30
0.0
 10
-34.31273551787027
 20
-2.186541222468271
 30
0.0
 10
-33.96108856735365
 20
-2.176650818012731
 30
0.0
 10
-33.68651832640015
 20
-2.171586519280924
 30
0.0
 10
-33.43402878760759
 20
-2.169355413061445
 30
0.0
 10
-33.17715145394371
 20
-2.169590245459603
 30
0.0
 10
-32.92266987087991
 20
-2.172430942724021
 30
0.0
 10
-32.6903167462144
 20
-2.177008857808022
 30
0.0
 10
-32.54331005635903
 20
-2.181539583000741
 30
0.0
 10
-32.47775507605278
 20
-2.183559978134283
 30
0.0
  0
SPLINE
  5
304
330
1F
100
AcDbEntity
  8
0
  6
Continuous
 62
     1
370
    15
100
AcDbSpline
210
0.0
220
0.0
230
1.0
 70
     8
 71
     3
 72
    22
 73
    18
 74
     0
 42
0.000000001
 43
0.00000001
 40
0.0
 40
0.0
 40
0.0
 40
0.0
 40
0.0923709550339692
 40
0.1542027747531685
 40
0.1999190549298015
 40
0.2494340754161881
 40
0.3037366932044228
 40
0.3643664694475278
 40
0.4299510383037442
 40
0.4961409932827285
 40
0.6099272778900295
 40
0.7041102075132045
 40
0.7522085053643102
 40
0.8008406258235079
 40
0.8464180984767697
 40
0.9127579640150232
 40
1.0
 40
1.0
 40
1.0
 40
1.0
 10
-41.84732234576516
 20
-1.901641502977728
 30
0.0
 10
-41.69741751950551
 20
-1.889514911690417
 30
0.0
 10
-41.44716850833499
 20
-1.869270950543611
 30
0.0
 10
-41.12221788193936
 20
-1.851279463562468
 30
0.0
 10
-40.86546648230695
 20
-1.84031789252744
 30
0.0
 10
-40.62241455352891
 20
-1.832953798765965
 30
0.0
 10
-40.3556264761804
 20
-1.828374485260347
 30
0.0
 10
-40.06297446108605
 20
-1.827686872268227
 30
0.0
 10
-39.75094888752859
 20
-1.832083327989927
 30
0.0
 10
-39.35249836492088
 20
-1.844378950489328
 30
0.0
 10
-38.9076272720443
 20
-1.868228386581493
 30
0.0
 10
-38.49241800265424
 20
-1.901588327691633
 30
0.0
 10
-38.18258163315452
 20
-1.931569854441329
 30
0.0
 10
-37.95448579979971
 20
-1.956152495552666
 30
0.0
 10
-37.69481111305149
 20
-1.986980006374615
 30
0.0
 10
-37.37094527728357
 20
-2.02948542725393
 30
0.0
 10
-37.12022146122437
 20
-2.067777542394867
 30
0.0
 10
-36.97779806389705
 20
-2.089529337716669
 30
0.0
  0
SPLINE
  5
305
330
1F
100
AcDbEntity
  8
0
  6
Continuous
 62
     1
370
    15
100
AcDbSpline
210
0.0
220
0.0
230
1.0
 70
     8
 71
     3
 72
    20
 73
    16
 74
     0
 42
0.000000001
 43
0.00000001
 40
0.0
 40
0.0
 40
0.0
 40
0.0
 40
0.1076811229869811
 40
0.183602327327929
 40
0.2488050249076928
 40
0.3130030424149773
 40
0.3755113361101129
 40
0.4409323279367667
 40
0.503785231314167
 40
0.5719411079003577
 40
0.6437860220739312
 40
0.7110815979644025
 40
0.7760742981997872
 40
0.8710954283764136
 40
1.0
 40
1.0
 40
1.0
 40
1.0
 10
-30.56450428956487
 20
2.312122415950538
 30
0.0
 10
-30.71418588697646
 20
2.297711877421519
 30
0.0
 10
-30.9694013683961
 20
2.273141104582376
 30
0.0
 10
-31.31704570401295
 20
2.24571667736813
 30
0.0
 10
-31.60403307078776
 20
2.225734735052607
 30
0.0
 10
-31.87128137039
 20
2.209661592059645
 30
0.0
 10
-32.13896728026928
 20
2.196171904212908
 30
0.0
 10
-32.40488235889107
 20
2.185502668550364
 30
0.0
 10
-32.67866453639201
 20
2.177265860966888
 30
0.0
 10
-32.96138736595987
 20
2.171668045219296
 30
0.0
 10
-33.25017996263708
 20
2.169155033009766
 30
0.0
 10
-33.53457953951759
 20
2.16986481584746
 30
0.0
 10
-33.85132383162648
 20
2.174077829200972
 30
0.0
 10
-34.25382073322979
 20
2.184001427515253
 30
0.0
 10
-34.56617107679413
 20
2.198980625940496
 30
0.0
 10
-34.74597798109296
 20
2.207603518001332
 30
0.0
  0
SPLINE
  5
306
330
1F
100
AcDbEntity
  8
0
  6
Continuous
 62
     1
370
    15
100
AcDbSpline
210
0.0
220
0.0
230
1.0
 70
     8
 71
     3
 72
    14
 73
    10
 74
     0
 42
0.000000001
 43
0.00000001
 40
0.0
 40
0.0
 40
0.0
 40
0.0
 40
0.2057048771542427
 40
0.3621252740065751
 40
0.4695907670718057
 40
0.641090859275965
 40
0.8095177373304762
 40
0.9784322977721875
 40
1.0
 40
1.0
 40
1.0
 40
1.0
 10
-36.97779806389705
 20
2.089529337716663
 30
0.0
 10
-37.12021349843074
 20
2.067779555560933
 30
0.0
 10
-37.37092329669478
 20
2.029490984421121
 30
0.0
 10
-37.69486695573739
 20
1.986965888138512
 30
0.0
 10
-37.99329834786531
 20
1.951567938862225
 30
0.0
 10
-38.29798504062632
 20
1.919406531731598
 30
0.0
 10
-38.64909810717763
 20
1.888949291010164
 30
0.0
 10
-38.8956259181982
 20
1.869715591542289
 30
0.0
 10
-39.02671173444376
 20
1.863235406241577
 30
0.0
 10
-39.04155416549981
 20
1.862501675420723
 30
0.0
  0
LINE
  5
307
330
1F
100
AcDbEntity
  8
0
  6
Continuous
 62
     1
370
    15
100
AcDbLine
 10
-28.57499999999997
 20
2.778124999999997
 30
0.0
 11
-29.29039804589343
 21
2.778124999999997
 31
0.0
  0
LINE
  5
308
330
1F
100
AcDbEntity
  8
외형선
  6
Continuous
370
    15
100
AcDbLine
 10
-20.16921167873051
 20
-4.762500000000006
 30
0.0
 11
-20.16921167873051
 21
4.762500000000004
 31
0.0
  0
LINE
  5
309
330
1F
100
AcDbEntity
  8
외형선
  6
Continuous
370
    15
100
AcDbLine
 10
-27.57499999999997
 20
-2.778125000000006
 30
0.0
 11
-27.57499999999997
 21
2.778124999999997
 31
0.0
  0
LINE
  5
30A
330
1F
100
AcDbEntity
  8
외형선
  6
Continuous
370
    15
100
AcDbLine
 10
-28.57499999999997
 20
-2.778125000000006
 30
0.0
 11
-28.57499999999997
 21
-2.754267052489062
 31
0.0
  0
SPLINE
  5
30B
330
1F
100
AcDbEntity
  8
외형선
  6
Continuous
370
    15
100
AcDbSpline
210
0.0
220
0.0
230
1.0
 70
     8
 71
     3
 72
     8
 73
     4
 74
     0
 42
0.000000001
 43
0.00000001
 40
0.0
 40
0.0
 40
0.0
 40
0.0
 40
1.0
 40
1.0
 40
1.0
 40
1.0
 10
-28.57499999999985
 20
-2.754267052489069
 30
0.0
 10
-28.27707764716673
 20
-2.776694263065008
 30
0.0
 10
-27.97939673966295
 20
-2.78328999812308
 30
0.0
 10
-27.68505093972585
 20
-2.774108593945498
 30
0.0
  0
LINE
  5
30C
330
1F
100
AcDbEntity
  8
외형선
  6
Continuous
370
    15
100
AcDbLine
 10
-27.68505093972585
 20
2.624940110772116
 30
0.0
 11
-27.68505093972585
 21
-2.778125000000006
 31
0.0
  0
SPLINE
  5
30D
330
1F
100
AcDbEntity
  8
외형선
  6
Continuous
370
    15
100
AcDbSpline
210
0.0
220
0.0
230
1.0
 70
     8
 71
     3
 72
     8
 73
     4
 74
     0
 42
0.000000001
 43
0.00000001
 40
0.0
 40
0.0
 40
0.0
 40
0.0
 40
1.0
 40
1.0
 40
1.0
 40
1.0
 10
-28.57499999999985
 20
2.747480017095193
 30
0.0
 10
-28.27709558967127
 20
2.722079316169142
 30
0.0
 10
-27.97943155282841
 20
2.680903882972724
 30
0.0
 10
-27.68510412098312
 20
2.624979098225805
 30
0.0
  0
LINE
  5
30E
330
1F
100
AcDbEntity
  8
외형선
  6
Continuous
370
    15
100
AcDbLine
 10
-27.68505093972585
 20
2.774108593945489
 30
0.0
 11
-27.94325827066817
 21
2.77441605816749
 31
0.0
  0
LINE
  5
30F
330
1F
100
AcDbEntity
  8
외형선
  6
Continuous
370
    15
100
AcDbLine
 10
-27.68505093972585
 20
2.778124999999997
 30
0.0
 11
-27.68505093972585
 21
2.774068932989342
 31
0.0
  0
SPLINE
  5
310
330
1F
100
AcDbEntity
  8
외형선
  6
Continuous
370
    15
100
AcDbSpline
210
0.0
220
0.0
230
1.0
 70
    24
 71
     3
 72
    10
 73
     6
 74
     0
 42
0.000000001
 43
0.00000001
 40
0.0
 40
0.0
 40
0.0
 40
0.0
 40
0.5
 40
0.5
 40
1.0
 40
1.0
 40
1.0
 40
1.0
 10
-28.57499999999997
 20
0.3809716817867653
 30
0.0
 10
-28.57499999999997
 20
0.7918184411104459
 30
0.0
 10
-28.57499999999997
 20
1.195797966005822
 30
0.0
 10
-28.57499999999997
 20
1.870099686980711
 30
0.0
 10
-28.57499999999997
 20
2.137519424850098
 30
0.0
 10
-28.57499999999997
 20
2.310030712411563
 30
0.0
  0
SPLINE
  5
311
330
1F
100
AcDbEntity
  8
외형선
  6
Continuous
370
    15
100
AcDbSpline
210
0.0
220
0.0
230
1.0
 70
     8
 71
     3
 72
     8
 73
     4
 74
     0
 42
0.000000001
 43
0.00000001
 40
0.0
 40
0.0
 40
0.0
 40
0.0
 40
1.0
 40
1.0
 40
1.0
 40
1.0
 10
-28.5749999999998
 20
2.310030712411543
 30
0.0
 10
-28.27709558967121
 20
2.279790869784819
 30
0.0
 10
-27.97943155282841
 20
2.236290865883475
 30
0.0
 10
-27.68510412098312
 20
2.180573420518436
 30
0.0
  0
SPLINE
  5
312
330
1F
100
AcDbEntity
  8
외형선
  6
Continuous
370
    15
100
AcDbSpline
210
0.0
220
0.0
230
1.0
 70
     8
 71
     3
 72
     8
 73
     4
 74
     0
 42
0.000000001
 43
0.00000001
 40
0.0
 40
0.0
 40
0.0
 40
0.0
 40
1.0
 40
1.0
 40
1.0
 40
1.0
 10
-28.57499999999974
 20
0.380971681786664
 30
0.0
 10
-28.27708420612274
 20
0.2458085283574636
 30
0.0
 10
-27.97940946576896
 20
0.1085015748565812
 30
0.0
 10
-27.68507038036592
 20
-0.0281308376692461
 30
0.0
  0
SPLINE
  5
313
330
1F
100
AcDbEntity
  8
외형선
  6
Continuous
370
    15
100
AcDbSpline
210
0.0
220
0.0
230
1.0
 70
    24
 71
     3
 72
    14
 73
    10
 74
     0
 42
0.000000001
 43
0.00000001
 40
0.0
 40
0.0
 40
0.0
 40
0.0
 40
0.2499999999999998
 40
0.2499999999999998
 40
0.4999999999999999
 40
0.4999999999999999
 40
0.75
 40
0.75
 40
1.0
 40
1.0
 40
1.0
 40
1.0
 10
-28.57499999999997
 20
-1.915903729950929
 30
0.0
 10
-28.57499999999997
 20
-1.823067768929339
 30
0.0
 10
-28.57499999999997
 20
-1.699313568730001
 30
0.0
 10
-28.57499999999997
 20
-1.393107058065892
 30
0.0
 10
-28.57499999999997
 20
-1.210689464745015
 30
0.0
 10
-28.57499999999997
 20
-0.8024684826113788
 30
0.0
 10
-28.57499999999997
 20
-0.5768826110048899
 30
0.0
 10
-28.57499999999997
 20
-0.1061910121229312
 30
0.0
 10
-28.57499999999997
 20
0.1386489698270388
 30
0.0
 10
-28.57499999999997
 20
0.3809716817867653
 30
0.0
  0
SPLINE
  5
314
330
1F
100
AcDbEntity
  8
외형선
  6
Continuous
370
    15
100
AcDbSpline
210
0.0
220
0.0
230
1.0
 70
     8
 71
     3
 72
     8
 73
     4
 74
     0
 42
0.000000001
 43
0.00000001
 40
0.0
 40
0.0
 40
0.0
 40
0.0
 40
1.0
 40
1.0
 40
1.0
 40
1.0
 10
-28.57499999999968
 20
-1.915903729950947
 30
0.0
 10
-28.27708197548231
 20
-1.9364814230389
 30
0.0
 10
-27.97940513773919
 20
-1.946045203319137
 30
0.0
 10
-27.68506376878549
 20
-1.944531683381656
 30
0.0
  0
SPLINE
  5
315
330
1F
100
AcDbEntity
  8
외형선
  6
Continuous
370
    15
100
AcDbSpline
210
0.0
220
0.0
230
1.0
 70
    24
 71
     3
 72
     8
 73
     4
 74
     0
 42
0.000000001
 43
0.00000001
 40
0.0
 40
0.0
 40
0.0
 40
0.0
 40
1.0
 40
1.0
 40
1.0
 40
1.0
 10
-28.57499999999997
 20
2.310030712411565
 30
0.0
 10
-28.57499999999997
 20
2.457144092712338
 30
0.0
 10
-28.57499999999997
 20
2.603903449275216
 30
0.0
 10
-28.57499999999997
 20
2.747480017087839
 30
0.0
  0
SPLINE
  5
316
330
1F
100
AcDbEntity
  8
외형선
  6
Continuous
370
    15
100
AcDbSpline
210
0.0
220
0.0
230
1.0
 70
    24
 71
     3
 72
    10
 73
     6
 74
     0
 42
0.000000001
 43
0.00000001
 40
0.0
 40
0.0
 40
0.0
 40
0.0
 40
0.5
 40
0.5
 40
1.0
 40
1.0
 40
1.0
 40
1.0
 10
-28.57499999999997
 20
-2.75426705248906
 30
0.0
 10
-28.57499999999997
 20
-2.623296491782567
 30
0.0
 10
-28.57499999999997
 20
-2.477278856705131
 30
0.0
 10
-28.57499999999997
 20
-2.187095075103254
 30
0.0
 10
-28.57499999999997
 20
-2.043707479165042
 30
0.0
 10
-28.57499999999997
 20
-1.915903729950929
 30
0.0
  0
SPLINE
  5
317
330
1F
100
AcDbEntity
  8
0
  6
Continuous
 62
     1
370
    15
100
AcDbSpline
210
0.0
220
0.0
230
1.0
 70
     8
 71
     3
 72
    18
 73
    14
 74
     0
 42
0.000000001
 43
0.00000001
 40
0.0
 40
0.0
 40
0.0
 40
0.0
 40
0.0982770111660899
 40
0.1965497889913806
 40
0.2948185930227249
 40
0.3930836841531679
 40
0.4913453245359372
 40
0.5896037774975204
 40
0.6822493643765624
 40
0.7748771464748793
 40
0.867493483002883
 40
0.9601047653600725
 40
1.0
 40
1.0
 40
1.0
 40
1.0
 10
-42.86249999999999
 20
2.636276352334868
 30
0.0
 10
-42.41785150169844
 20
2.535699899504642
 30
0.0
 10
-41.52857365859436
 20
2.334551326234807
 30
0.0
 10
-40.19469887982061
 20
1.800711600146202
 30
0.0
 10
-38.86088899307919
 20
1.143888998421041
 30
0.0
 10
-37.52713572577526
 20
0.3958809151843806
 30
0.0
 10
-36.19345370707141
 20
-0.3812272711138853
 30
0.0
 10
-34.88514881388458
 20
-1.115510944745345
 30
0.0
 10
-33.60253818104676
 20
-1.75399562590479
 30
0.0
 10
-32.34546467403829
 20
-2.263809709189009
 30
0.0
 10
-31.08858602929602
 20
-2.608844924417251
 30
0.0
 10
-30.07025419954204
 20
-2.778398153752661
 30
0.0
 10
-29.47086340624953
 20
-2.760345381310914
 30
0.0
 10
-29.29039804589343
 20
-2.754910029082311
 30
0.0
  0
SPLINE
  5
318
330
1F
100
AcDbEntity
  8
0
  6
Continuous
 62
     1
370
    15
100
AcDbSpline
210
0.0
220
0.0
230
1.0
 70
     8
 71
     3
 72
    13
 73
     9
 74
     0
 42
0.000000001
 43
0.00000001
 40
0.0
 40
0.0
 40
0.0
 40
0.0
 40
0.1754795264567109
 40
0.3509051285779757
 40
0.5262868472351953
 40
0.7016348321136795
 40
0.8769593168413459
 40
1.0
 40
1.0
 40
1.0
 40
1.0
 10
-42.86249999999999
 20
2.191863571947947
 30
0.0
 10
-42.44059867837721
 20
2.100200876392534
 30
0.0
 10
-41.59692568415026
 20
1.916903652954839
 30
0.0
 10
-40.33166239620827
 20
1.469963624495558
 30
0.0
 10
-39.06675735474327
 20
0.9324375112728258
 30
0.0
 10
-37.80213311666765
 20
0.3296799622035305
 30
0.0
 10
-36.66335721655847
 20
-0.2384819142078147
 30
0.0
 10
-35.94611524217434
 20
-0.5751886158575961
 30
0.0
 10
-35.65033694089517
 20
-0.7140406906107419
 30
0.0
  0
LINE
  5
319
330
1F
100
AcDbEntity
  8
0
  6
Continuous
 62
     1
370
    15
100
AcDbLine
 10
-42.8624999999999
 20
2.63627635233487
 30
0.0
 11
-42.86249999999999
 21
2.191863571947947
 31
0.0
  0
SPLINE
  5
31A
330
1F
100
AcDbEntity
  8
0
  6
Continuous
 62
     1
370
    15
100
AcDbSpline
210
0.0
220
0.0
230
1.0
 70
     8
 71
     3
 72
    50
 73
    46
 74
     0
 42
0.000000001
 43
0.00000001
 40
0.0
 40
0.0
 40
0.0
 40
0.0
 40
0.0625
 40
0.0625
 40
0.1249999999999999
 40
0.1249999999999999
 40
0.1874999999999999
 40
0.1874999999999999
 40
0.2499999999999998
 40
0.2499999999999998
 40
0.3124999999999998
 40
0.3124999999999998
 40
0.3749999999999998
 40
0.3749999999999998
 40
0.4062499999999997
 40
0.4062499999999997
 40
0.4374999999999997
 40
0.4374999999999997
 40
0.4687499999999997
 40
0.4687499999999997
 40
0.4999999999999997
 40
0.4999999999999997
 40
0.5624999999999997
 40
0.5624999999999997
 40
0.5937499999999996
 40
0.5937499999999996
 40
0.6249999999999996
 40
0.6249999999999996
 40
0.6562499999999996
 40
0.6562499999999996
 40
0.6874999999999996
 40
0.6874999999999996
 40
0.7499999999999996
 40
0.7499999999999996
 40
0.7812499999999997
 40
0.7812499999999997
 40
0.8124999999999998
 40
0.8124999999999998
 40
0.8437499999999999
 40
0.8437499999999999
 40
0.875
 40
0.875
 40
0.9375
 40
0.9375
 40
1.0
 40
1.0
 40
1.0
 40
1.0
 10
-42.86249999999999
 20
2.775776971059851
 30
0.0
 10
-42.56785916597943
 20
2.768736568581089
 30
0.0
 10
-42.26731125793575
 20
2.745686547759912
 30
0.0
 10
-41.66974826758966
 20
2.668311605462365
 30
0.0
 10
-41.37611424021427
 20
2.614339502928451
 30
0.0
 10
-40.77920025925821
 20
2.476512663000952
 30
0.0
 10
-40.47836861930504
 20
2.392658523769229
 30
0.0
 10
-39.88735050383071
 20
2.199639090378585
 30
0.0
 10
-39.58879415037044
 20
2.089618386951789
 30
0.0
 10
-38.99076909576858
 20
1.846667286057118
 30
0.0
 10
-38.69679698374356
 20
1.714588403648032
 30
0.0
 10
-38.10071827998807
 20
1.431144202044078
 30
0.0
 10
-37.79969850708373
 20
1.279844788820107
 30
0.0
 10
-37.35526770186187
 20
1.044415320540785
 30
0.0
 10
-37.20816642338728
 20
0.9645211563296108
 30
0.0
 10
-36.91037068377143
 20
0.8015505429759375
 30
0.0
 10
-36.76065140364512
 20
0.7186452958155669
 30
0.0
 10
-36.46150155816898
 20
0.5510557318743465
 30
0.0
 10
-36.31207376973092
 20
0.466372981532454
 30
0.0
 10
-36.01543152712996
 20
0.2963353386825947
 30
0.0
 10
-35.86851419868993
 20
0.211040115224958
 30
0.0
 10
-35.42222067683634
 20
-0.0464478870860542
 30
0.0
 10
-35.12110857104091
 20
-0.2195103843892092
 30
0.0
 10
-34.67564686873138
 20
-0.4745555199154367
 30
0.0
 10
-34.52881797464423
 20
-0.5586990126010474
 30
0.0
 10
-34.23157872857966
 20
-0.725823077698361
 30
0.0
 10
-34.0819890941163
 20
-0.8086438426475955
 30
0.0
 10
-33.78279578799764
 20
-0.9717197505228967
 30
0.0
 10
-33.63319489607128
 20
-1.051973377801216
 30
0.0
 10
-33.33591110182284
 20
-1.208894898550678
 30
0.0
 10
-33.18907510357023
 20
-1.285424467946757
 30
0.0
 10
-32.74368533957082
 20
-1.510011119868938
 30
0.0
 10
-32.44257679969957
 20
-1.652567658442737
 30
0.0
 10
-31.99622158894434
 20
-1.850138446295883
 30
0.0
 10
-31.84928294984253
 20
-1.913173304826692
 30
0.0
 10
-31.55269206437553
 20
-2.033982348933008
 30
0.0
 10
-31.40327901811683
 20
-2.091706858589226
 30
0.0
 10
-31.10413615434755
 20
-2.201001299723884
 30
0.0
 10
-30.9544091132963
 20
-2.252570179355451
 30
0.0
 10
-30.65657568067997
 20
-2.34891322970418
 30
0.0
 10
-30.50943889055012
 20
-2.393600907594624
 30
0.0
 10
-30.06509019848301
 20
-2.517522017017998
 30
0.0
 10
-29.76408111953649
 20
-2.586523319045624
 30
0.0
 10
-29.16793391525446
 20
-2.693583664839617
 30
0.0
 10
-28.87399857118735
 20
-2.73175882558317
 30
0.0
 10
-28.57499999999809
 20
-2.754267052489204
 30
0.0
  0
SPLINE
  5
31B
330
1F
100
AcDbEntity
  8
0
  6
Continuous
 62
     1
370
    15
100
AcDbSpline
210
0.0
220
0.0
230
1.0
 70
     8
 71
     3
 72
    13
 73
     9
 74
     0
 42
0.000000001
 43
0.00000001
 40
0.0
 40
0.0
 40
0.0
 40
0.0
 40
0.0932281237272965
 40
0.2643907875113498
 40
0.4355610216007768
 40
0.6067493092451568
 40
0.8033692946369275
 40
1.0
 40
1.0
 40
1.0
 40
1.0
 10
-35.96197725969123
 20
0.2630468313669734
 30
0.0
 10
-35.73243628221676
 20
0.1714202364066473
 30
0.0
 10
-35.08146834063161
 20
-0.0884286871800308
 30
0.0
 10
-34.0090639334475
 20
-0.5235742346079235
 30
0.0
 10
-32.74468241458079
 20
-0.9982151047206067
 30
0.0
 10
-31.41769395152421
 20
-1.422463095157958
 30
0.0
 10
-30.02762717201794
 20
-1.764541304036073
 30
0.0
 10
-29.05921785691704
 20
-1.865448671071341
 30
0.0
 10
-28.57499999999997
 20
-1.915903729950929
 30
0.0
  0
SPLINE
  5
31C
330
1F
100
AcDbEntity
  8
외형선
  6
Continuous
370
    15
100
AcDbSpline
210
0.0
220
0.0
230
1.0
 70
    24
 71
     3
 72
    10
 73
     6
 74
     0
 42
0.000000001
 43
0.00000001
 40
0.0
 40
0.0
 40
0.0
 40
0.0
 40
0.5
 40
0.5
 40
1.0
 40
1.0
 40
1.0
 40
1.0
 10
-28.57499999999997
 20
-2.754267052489058
 30
0.0
 10
-28.57499999999997
 20
-2.623296491782566
 30
0.0
 10
-28.57499999999997
 20
-2.477278856705129
 30
0.0
 10
-28.57499999999997
 20
-2.187095075103254
 30
0.0
 10
-28.57499999999997
 20
-2.043707479165042
 30
0.0
 10
-28.57499999999997
 20
-1.915903729950929
 30
0.0
  0
LINE
  5
31D
330
1F
100
AcDbEntity
  8
0
  6
Continuous
 62
     1
370
    15
100
AcDbLine
 10
-42.86249999999999
 20
2.775776971059853
 30
0.0
 11
-42.86249999999996
 21
2.636276352334865
 31
0.0
  0
SPLINE
  5
31E
330
1F
100
AcDbEntity
  8
0
  6
Continuous
 62
     1
370
    15
100
AcDbSpline
210
0.0
220
0.0
230
1.0
 70
     8
 71
     3
 72
     8
 73
     4
 74
     0
 42
0.000000001
 43
0.00000001
 40
0.0
 40
0.0
 40
0.0
 40
0.0
 40
1.0
 40
1.0
 40
1.0
 40
1.0
 10
-41.14275320493466
 20
-0.7778932338795876
 30
0.0
 10
-41.04430725072036
 20
-0.8945474298580678
 30
0.0
 10
-40.95645483824001
 20
-1.006817634167564
 30
0.0
 10
-40.88168337164883
 20
-1.113674468780597
 30
0.0
  0
LINE
  5
31F
330
1F
100
AcDbEntity
  8
0
  6
Continuous
 62
     1
370
    15
100
AcDbLine
 10
-40.91683036664205
 20
-1.143166299316394
 30
0.0
 11
-42.86249999999999
 21
-0.0000000000000046
 31
0.0
  0
LINE
  5
320
330
1F
100
AcDbEntity
  8
0
  6
Continuous
 62
     1
370
    15
100
AcDbLine
 10
-42.86249999999999
 20
-0.0000000000000046
 30
0.0
 11
-42.86249999999999
 21
0.7424343094386028
 31
0.0
  0
SPLINE
  5
321
330
1F
100
AcDbEntity
  8
0
  6
Continuous
 62
     1
370
    15
100
AcDbSpline
210
0.0
220
0.0
230
1.0
 70
     8
 71
     3
 72
    10
 73
     6
 74
     0
 42
0.000000001
 43
0.00000001
 40
0.0
 40
0.0
 40
0.0
 40
0.0
 40
0.5
 40
0.5
 40
1.0
 40
1.0
 40
1.0
 40
1.0
 10
-42.86249999999999
 20
0.7424343094386028
 30
0.0
 10
-42.56479592326622
 20
0.5083865335042297
 30
0.0
 10
-42.27206906482474
 20
0.2647365363175379
 30
0.0
 10
-41.69681343464811
 20
-0.242237958781778
 30
0.0
 10
-41.41161006502106
 20
-0.5082424888783124
 30
0.0
 10
-41.14275320493466
 20
-0.7778932338795912
 30
0.0
  0
SPLINE
  5
322
330
1F
100
AcDbEntity
  8
0
  6
Continuous
 62
     1
370
    15
100
AcDbSpline
210
0.0
220
0.0
230
1.0
 70
     8
 71
     3
 72
    13
 73
     9
 74
     0
 42
0.000000001
 43
0.00000001
 40
0.0
 40
0.0
 40
0.0
 40
0.0
 40
0.1622014347566413
 40
0.3244312315403641
 40
0.5220533360810605
 40
0.7196485848393012
 40
0.9172287387957109
 40
1.0
 40
1.0
 40
1.0
 40
1.0
 10
-41.14275320493463
 20
-0.7778932338795876
 30
0.0
 10
-40.79677665547926
 20
-0.9240063593986421
 30
0.0
 10
-40.10476306020929
 20
-1.216258159313239
 30
0.0
 10
-38.99117415838797
 20
-1.615215355796479
 30
0.0
 10
-37.80212315808459
 20
-1.953575362008898
 30
0.0
 10
-36.53768896014262
 20
-2.168936230833686
 30
0.0
 10
-35.51824230389511
 20
-2.250021700835286
 30
0.0
 10
-34.92026103750096
 20
-2.202867646808104
 30
0.0
 10
-34.74371238848622
 20
-2.188945831858507
 30
0.0
  0
SPLINE
  5
323
330
1F
100
AcDbEntity
  8
0
  6
Continuous
 62
     1
370
    15
100
AcDbSpline
210
0.0
220
0.0
230
1.0
 70
    24
 71
     3
 72
    10
 73
     6
 74
     0
 42
0.000000001
 43
0.00000001
 40
0.0
 40
0.0
 40
0.0
 40
0.0
 40
0.5
 40
0.5
 40
1.0
 40
1.0
 40
1.0
 40
1.0
 10
-42.86249999999999
 20
2.191863571947947
 30
0.0
 10
-42.86249999999999
 20
2.023840140076191
 30
0.0
 10
-42.86249999999999
 20
1.811536091227654
 30
0.0
 10
-42.86249999999999
 20
1.31794960964048
 30
0.0
 10
-42.86249999999999
 20
1.037094740226917
 30
0.0
 10
-42.86249999999999
 20
0.7424343094386916
 30
0.0
  0
SPLINE
  5
324
330
1F
100
AcDbEntity
  8
0
  6
Continuous
 62
     1
370
    15
100
AcDbSpline
210
0.0
220
0.0
230
1.0
 70
    24
 71
     3
 72
     8
 73
     4
 74
     0
 42
0.000000001
 43
0.00000001
 40
0.0
 40
0.0
 40
0.0
 40
0.0
 40
1.0
 40
1.0
 40
1.0
 40
1.0
 10
-41.17179896848933
 20
-1.357110359088229
 30
0.0
 10
-41.08017263541132
 20
-1.280226736796345
 30
0.0
 10
-40.98289445057294
 20
-1.198600647776803
 30
0.0
 10
-40.88168337164888
 20
-1.113674468780569
 30
0.0
  0
LINE
  5
325
330
1F
100
AcDbEntity
  8
0
  6
Continuous
 62
     1
370
    15
100
AcDbLine
 10
-42.86249999999999
 20
-1.944687500000003
 30
0.0
 11
-41.84463343293638
 21
-1.890945149649976
 31
0.0
  0
SPLINE
  5
326
330
1F
100
AcDbEntity
  8
0
  6
Continuous
 62
     1
370
    15
100
AcDbSpline
210
0.0
220
0.0
230
1.0
 70
     8
 71
     3
 72
     8
 73
     4
 74
     0
 42
0.000000001
 43
0.00000001
 40
0.0
 40
0.0
 40
0.0
 40
0.0
 40
1.0
 40
1.0
 40
1.0
 40
1.0
 10
-42.86249999999999
 20
-1.944687500000003
 30
0.0
 10
-42.29114998707406
 20
-1.78956910793143
 30
0.0
 10
-41.72505202821115
 20
-1.59909237265637
 30
0.0
 10
-41.17179896850028
 20
-1.357110359093027
 30
0.0
  0
SPLINE
  5
327
330
1F
100
AcDbEntity
  8
0
  6
Continuous
 62
     1
370
    15
100
AcDbSpline
210
0.0
220
0.0
230
1.0
 70
     8
 71
     3
 72
     9
 73
     5
 74
     0
 42
0.000000001
 43
0.00000001
 40
0.0
 40
0.0
 40
0.0
 40
0.0
 40
0.2726175591630006
 40
1.0
 40
1.0
 40
1.0
 40
1.0
 10
-30.5721365722734
 20
2.286982841837994
 30
0.0
 10
-30.39065295844936
 20
2.312018808159938
 30
0.0
 10
-29.72494523814968
 20
2.403854295201968
 30
0.0
 10
-29.05922975386324
 20
2.349538828880022
 30
0.0
 10
-28.57499999999997
 20
2.310030712411565
 30
0.0
  0
SPLINE
  5
328
330
1F
100
AcDbEntity
  8
0
  6
Continuous
 62
     1
370
    15
100
AcDbSpline
210
0.0
220
0.0
230
1.0
 70
     8
 71
     3
 72
    14
 73
    10
 74
     0
 42
0.000000001
 43
0.00000001
 40
0.0
 40
0.0
 40
0.0
 40
0.0
 40
0.0532469276417837
 40
0.2035842942813449
 40
0.3539191530495372
 40
0.5042604879001185
 40
0.6546172665339125
 40
0.8273040479703602
 40
1.0
 40
1.0
 40
1.0
 40
1.0
 10
-36.98545735555496
 20
2.071789639714264
 30
0.0
 10
-36.83619108463007
 20
2.099770636929665
 30
0.0
 10
-36.26548644922475
 20
2.206753177024914
 30
0.0
 10
-35.27336436042911
 20
2.242213079362098
 30
0.0
 10
-34.0090690703853
 20
2.168852136135581
 30
0.0
 10
-32.74468521372493
 20
1.937162090887585
 30
0.0
 10
-31.41773335930069
 20
1.556490942910067
 30
0.0
 10
-30.02762626431059
 20
1.031741627068917
 30
0.0
 10
-29.05921732582633
 20
0.5978988366749085
 30
0.0
 10
-28.57499999999997
 20
0.3809716817867635
 30
0.0
  0
SPLINE
  5
329
330
1F
100
AcDbEntity
  8
외형선
  6
Continuous
370
    15
100
AcDbSpline
210
0.0
220
0.0
230
1.0
 70
    24
 71
     3
 72
    10
 73
     6
 74
     0
 42
0.000000001
 43
0.00000001
 40
0.0
 40
0.0
 40
0.0
 40
0.0
 40
0.5
 40
0.5
 40
1.0
 40
1.0
 40
1.0
 40
1.0
 10
-28.57499999999997
 20
0.3809716817867653
 30
0.0
 10
-28.57499999999997
 20
0.7918184411104459
 30
0.0
 10
-28.57499999999997
 20
1.195797966005822
 30
0.0
 10
-28.57499999999997
 20
1.870099686980711
 30
0.0
 10
-28.57499999999997
 20
2.137519424850098
 30
0.0
 10
-28.57499999999997
 20
2.310030712411563
 30
0.0
  0
SPLINE
  5
32A
330
1F
100
AcDbEntity
  8
외형선
  6
Continuous
370
    15
100
AcDbSpline
210
0.0
220
0.0
230
1.0
 70
    24
 71
     3
 72
    14
 73
    10
 74
     0
 42
0.000000001
 43
0.00000001
 40
0.0
 40
0.0
 40
0.0
 40
0.0
 40
0.2499999999999998
 40
0.2499999999999998
 40
0.4999999999999999
 40
0.4999999999999999
 40
0.75
 40
0.75
 40
1.0
 40
1.0
 40
1.0
 40
1.0
 10
-28.57499999999997
 20
-1.915903729950929
 30
0.0
 10
-28.57499999999997
 20
-1.823067768929339
 30
0.0
 10
-28.57499999999997
 20
-1.699313568730001
 30
0.0
 10
-28.57499999999997
 20
-1.393107058065892
 30
0.0
 10
-28.57499999999997
 20
-1.210689464745015
 30
0.0
 10
-28.57499999999997
 20
-0.8024684826113788
 30
0.0
 10
-28.57499999999997
 20
-0.5768826110048899
 30
0.0
 10
-28.57499999999997
 20
-0.1061910121229312
 30
0.0
 10
-28.57499999999997
 20
0.1386489698270388
 30
0.0
 10
-28.57499999999997
 20
0.3809716817867653
 30
0.0
  0
LINE
  5
32B
330
1F
100
AcDbEntity
  8
0
  6
Continuous
 62
     1
370
    15
100
AcDbLine
 10
-42.86249999999999
 20
-0.0000000000000046
 30
0.0
 11
-42.86249999999999
 21
-1.944687500000003
 31
0.0
  0
SPLINE
  5
32C
330
1F
100
AcDbEntity
  8
0
  6
Continuous
 62
     1
370
    15
100
AcDbSpline
210
0.0
220
0.0
230
1.0
 70
     8
 71
     3
 72
    11
 73
     7
 74
     0
 42
0.000000001
 43
0.00000001
 40
0.0
 40
0.0
 40
0.0
 40
0.0
 40
0.0337854368265454
 40
0.3558671088305874
 40
0.6779312044993144
 40
1.0
 40
1.0
 40
1.0
 40
1.0
 10
-32.47726313064008
 20
2.183756307945573
 30
0.0
 10
-32.43331520678715
 20
2.201517082947904
 30
0.0
 10
-31.97040508723075
 20
2.388594008521488
 30
0.0
 10
-31.08858815273957
 20
2.604417966572082
 30
0.0
 10
-29.83178858860482
 20
2.802824530542243
 30
0.0
 10
-28.99393156730466
 20
2.765928277980293
 30
0.0
 10
-28.57499999999713
 20
2.747480017094962
 30
0.0
  0
SPLINE
  5
32D
330
1F
100
AcDbEntity
  8
외형선
  6
Continuous
370
    15
100
AcDbSpline
210
0.0
220
0.0
230
1.0
 70
    24
 71
     3
 72
     8
 73
     4
 74
     0
 42
0.000000001
 43
0.00000001
 40
0.0
 40
0.0
 40
0.0
 40
0.0
 40
1.0
 40
1.0
 40
1.0
 40
1.0
 10
-28.57499999999997
 20
2.310030712411565
 30
0.0
 10
-28.57499999999997
 20
2.457144092712336
 30
0.0
 10
-28.57499999999997
 20
2.603903449275212
 30
0.0
 10
-28.57499999999997
 20
2.747480017087834
 30
0.0
  0
SPLINE
  5
32E
330
1F
100
AcDbEntity
  8
0
  6
Continuous
 62
     1
370
    15
100
AcDbSpline
210
0.0
220
0.0
230
1.0
 70
     8
 71
     3
 72
    11
 73
     7
 74
     0
 42
0.000000001
 43
0.00000001
 40
0.0
 40
0.0
 40
0.0
 40
0.0
 40
0.0118387799669441
 40
0.3411307781726572
 40
0.6705104645830321
 40
1.0
 40
1.0
 40
1.0
 40
1.0
 10
-39.04390705910797
 20
-1.863608213132003
 30
0.0
 10
-39.05897476277674
 20
-1.870717651345021
 30
0.0
 10
-39.49314597739068
 20
-2.075573911597256
 30
0.0
 10
-40.34657621939716
 20
-2.364285828703506
 30
0.0
 10
-41.60435470792266
 20
-2.693025851877235
 30
0.0
 10
-42.44307162469077
 20
-2.748190198933979
 30
0.0
 10
-42.86249999999999
 20
-2.775776971059858
 30
0.0
  0
SPLINE
  5
32F
330
1F
100
AcDbEntity
  8
0
  6
Continuous
 62
     1
370
    15
100
AcDbSpline
210
0.0
220
0.0
230
1.0
 70
    24
 71
     3
 72
    10
 73
     6
 74
     0
 42
0.000000001
 43
0.00000001
 40
0.0
 40
0.0
 40
0.0
 40
0.0
 40
0.5
 40
0.5
 40
1.0
 40
1.0
 40
1.0
 40
1.0
 10
-42.86249999999999
 20
-1.944687500000003
 30
0.0
 10
-42.86249999999999
 20
-2.062569613442821
 30
0.0
 10
-42.86249999999999
 20
-2.199559546321463
 30
0.0
 10
-42.86249999999999
 20
-2.486964056544381
 30
0.0
 10
-42.86249999999999
 20
-2.63664463883597
 30
0.0
 10
-42.86249999999999
 20
-2.775776971059858
 30
0.0
  0
LINE
  5
361
330
1F
100
AcDbEntity
  8
외형선
  6
Continuous
370
    15
100
AcDbLine
 10
-4.838700000000081
 20
4.762499999999995
 30
0.0
 11
-20.16921167873051
 21
4.762499999999994
 31
0.0
  0
ENDSEC
  0
SECTION
  2
OBJECTS
  0
DICTIONARY
  5
C
330
0
100
AcDbDictionary
281
     1
  3
ACAD_GROUP
350
D
  3
ACAD_IMAGE_VARS
350
15E
  3
ACAD_LAYOUT
350
1A
  3
ACAD_MLINESTYLE
350
17
  3
ACAD_PLOTSETTINGS
350
19
  3
ACAD_PLOTSTYLENAME
350
E
  3
ACAD_SCALELIST
350
47
  3
APPDATA
350
15C
  3
DWGPROPS
350
387
  0
DICTIONARY
  5
184
330
2
100
AcDbDictionary
280
     1
281
     1
  3
ACAD_LAYERSTATES
360
185
  0
DICTIONARY
  5
385
330
1F
100
AcDbDictionary
280
     1
281
     1
  3
DIM_BOUNDING_BOXES_V1
360
386
  0
DICTIONARY
  5
D
102
{ACAD_REACTORS
330
C
102
}
330
C
100
AcDbDictionary
281
     1
  0
RASTERVARIABLES
  5
15E
102
{ACAD_REACTORS
330
C
102
}
330
C
100
AcDbRasterVariables
 90
        0
 70
     1
 71
     1
 72
     1
  0
DICTIONARY
  5
1A
102
{ACAD_REACTORS
330
C
102
}
330
C
100
AcDbDictionary
281
     1
  3
Layout1
350
1E
  3
Layout2
350
26
  3
Model
350
22
  0
DICTIONARY
  5
17
102
{ACAD_REACTORS
330
C
102
}
330
C
100
AcDbDictionary
281
     1
  3
Standard
350
18
  0
DICTIONARY
  5
19
102
{ACAD_REACTORS
330
C
102
}
330
C
100
AcDbDictionary
281
     1
  0
ACDBDICTIONARYWDFLT
  5
E
102
{ACAD_REACTORS
330
C
102
}
330
C
100
AcDbDictionary
281
     1
  3
Normal
350
F
100
AcDbDictionaryWithDefault
340
F
  0
DICTIONARY
  5
47
102
{ACAD_REACTORS
330
C
102
}
330
C
100
AcDbDictionary
281
     1
  3
A0
350
48
  3
A1
350
49
  3
A2
350
4A
  3
A3
350
4B
  3
A4
350
4C
  3
A5
350
4D
  3
A6
350
4E
  3
A7
350
4F
  3
A8
350
50
  3
A9
350
51
  3
B0
350
52
  3
B1
350
53
  3
B2
350
54
  3
B3
350
55
  3
B4
350
56
  3
B5
350
57
  3
B6
350
58
  3
B7
350
59
  3
B8
350
5A
  3
B9
350
5B
  3
C0
350
5C
  3
C1
350
5D
  3
C2
350
5E
  3
C3
350
5F
  3
C4
350
60
  3
C5
350
61
  3
C6
350
62
  3
C7
350
63
  3
C8
350
64
  3
C9
350
65
  3
D0
350
66
  3
D1
350
67
  3
D2
350
68
  0
DICTIONARY
  5
15C
102
{ACAD_REACTORS
330
C
102
}
330
C
100
AcDbDictionary
281
     1
  0
XRECORD
  5
387
102
{ACAD_REACTORS
330
C
102
}
330
C
100
AcDbXrecord
280
     1
  1
DWGPROPS COOKIE
  2

  3

  4

  6

  7

  8
12011056
  9

300
=
301
=
302
=
303
=
304
=
305
=
306
=
307
=
308
=
309
=
 40
0.0
 41
2458313.0527086
 42
2459719.986591609
  1

 90
        0
  0
DICTIONARY
  5
185
102
{ACAD_REACTORS
330
184
102
}
330
184
100
AcDbDictionary
281
     1
  0
DICTIONARY
  5
386
102
{ACAD_REACTORS
330
385
102
}
330
385
100
AcDbDictionary
281
     1
  0
LAYOUT
  5
1E
102
{ACAD_REACTORS
330
1A
102
}
330
1A
100
AcDbPlotSettings
  1

  2
none_device
  4

  6

 40
0.0
 41
0.0
 42
0.0
 43
0.0
 44
0.0
 45
0.0
 46
0.0
 47
0.0
 48
0.0
 49
0.0
140
0.0
141
0.0
142
1.0
143
1.0
 70
   688
 72
     1
 73
     0
 74
     5
  7

 75
    16
147
1.0
148
0.0
149
0.0
100
AcDbLayout
  1
Layout1
 70
     1
 71
     1
 10
0.0
 20
0.0
 11
420.0
 21
297.0
 12
0.0
 22
0.0
 32
0.0
 14
1.000000000000000E+20
 24
1.000000000000000E+20
 34
1.000000000000000E+20
 15
-1.000000000000000E+20
 25
-1.000000000000000E+20
 35
-1.000000000000000E+20
146
0.0
 13
0.0
 23
0.0
 33
0.0
 16
1.0
 26
0.0
 36
0.0
 17
0.0
 27
1.0
 37
0.0
 76
     0
330
1B
  0
LAYOUT
  5
26
102
{ACAD_REACTORS
330
1A
102
}
330
1A
100
AcDbPlotSettings
  1

  2
none_device
  4

  6

 40
0.0
 41
0.0
 42
0.0
 43
0.0
 44
0.0
 45
0.0
 46
0.0
 47
0.0
 48
0.0
 49
0.0
140
0.0
141
0.0
142
1.0
143
1.0
 70
   688
 72
     1
 73
     0
 74
     5
  7

 75
    16
147
1.0
148
0.0
149
0.0
100
AcDbLayout
  1
Layout2
 70
     1
 71
     2
 10
0.0
 20
0.0
 11
0.0
 21
0.0
 12
0.0
 22
0.0
 32
0.0
 14
0.0
 24
0.0
 34
0.0
 15
0.0
 25
0.0
 35
0.0
146
0.0
 13
0.0
 23
0.0
 33
0.0
 16
1.0
 26
0.0
 36
0.0
 17
0.0
 27
1.0
 37
0.0
 76
     0
330
23
  0
LAYOUT
  5
22
102
{ACAD_REACTORS
330
1A
102
}
330
1A
100
AcDbPlotSettings
  1

  2
none_device
  4
ANSI_A_(11.00_x_8.50_Inches)
  6

 40
6.35
 41
19.05
 42
6.35000508
 43
19.05000254
 44
279.4
 45
215.9
 46
87.0073164391118
 47
74.13907942063906
 48
0.0
 49
0.0
140
0.0
141
0.0
142
0.0428740888389631
143
1.0
 70
  1696
 72
     0
 73
     0
 74
     0
  7

 75
     0
147
0.0235690232323232
148
0.0
149
0.0
100
AcDbLayout
  1
Model
 70
     1
 71
     0
 10
0.0
 20
0.0
 11
420.0
 21
297.0
 12
0.0
 22
0.0
 32
0.0
 14
-60.17590872278645
 24
-39.99892507127611
 34
0.0
 15
81.21241335422454
 25
42.75750000000002
 35
0.0
146
0.0
 13
0.0
 23
0.0
 33
0.0
 16
1.0
 26
0.0
 36
0.0
 17
0.0
 27
1.0
 37
0.0
 76
     0
330
1F
331
29
  0
MLINESTYLE
  5
18
102
{ACAD_REACTORS
330
17
102
}
330
17
100
AcDbMlineStyle
  2
Standard
 70
     0
  3

 62
   256
 51
90.0
 52
90.0
 71
     2
 49
0.5
 62
   256
  6
BYLAYER
 49
-0.5
 62
   256
  6
BYLAYER
  0
ACDBPLACEHOLDER
  5
F
102
{ACAD_REACTORS
330
E
102
}
330
E
  0
SCALE
  5
48
102
{ACAD_REACTORS
330
47
102
}
330
47
100
AcDbScale
 70
     0
300
1:1
140
1.0
141
1.0
290
     1
  0
SCALE
  5
49
102
{ACAD_REACTORS
330
47
102
}
330
47
100
AcDbScale
 70
     0
300
1:2
140
1.0
141
2.0
290
     0
  0
SCALE
  5
4A
102
{ACAD_REACTORS
330
47
102
}
330
47
100
AcDbScale
 70
     0
300
1:4
140
1.0
141
4.0
290
     0
  0
SCALE
  5
4B
102
{ACAD_REACTORS
330
47
102
}
330
47
100
AcDbScale
 70
     0
300
1:5
140
1.0
141
5.0
290
     0
  0
SCALE
  5
4C
102
{ACAD_REACTORS
330
47
102
}
330
47
100
AcDbScale
 70
     0
300
1:8
140
1.0
141
8.0
290
     0
  0
SCALE
  5
4D
102
{ACAD_REACTORS
330
47
102
}
330
47
100
AcDbScale
 70
     0
300
1:10
140
1.0
141
10.0
290
     0
  0
SCALE
  5
4E
102
{ACAD_REACTORS
330
47
102
}
330
47
100
AcDbScale
 70
     0
300
1:16
140
1.0
141
16.0
290
     0
  0
SCALE
  5
4F
102
{ACAD_REACTORS
330
47
102
}
330
47
100
AcDbScale
 70
     0
300
1:20
140
1.0
141
20.0
290
     0
  0
SCALE
  5
50
102
{ACAD_REACTORS
330
47
102
}
330
47
100
AcDbScale
 70
     0
300
1:30
140
1.0
141
30.0
290
     0
  0
SCALE
  5
51
102
{ACAD_REACTORS
330
47
102
}
330
47
100
AcDbScale
 70
     0
300
1:40
140
1.0
141
40.0
290
     0
  0
SCALE
  5
52
102
{ACAD_REACTORS
330
47
102
}
330
47
100
AcDbScale
 70
     0
300
1:50
140
1.0
141
50.0
290
     0
  0
SCALE
  5
53
102
{ACAD_REACTORS
330
47
102
}
330
47
100
AcDbScale
 70
     0
300
1:100
140
1.0
141
100.0
290
     0
  0
SCALE
  5
54
102
{ACAD_REACTORS
330
47
102
}
330
47
100
AcDbScale
 70
     0
300
2:1
140
2.0
141
1.0
290
     0
  0
SCALE
  5
55
102
{ACAD_REACTORS
330
47
102
}
330
47
100
AcDbScale
 70
     0
300
4:1
140
4.0
141
1.0
290
     0
  0
SCALE
  5
56
102
{ACAD_REACTORS
330
47
102
}
330
47
100
AcDbScale
 70
     0
300
8:1
140
8.0
141
1.0
290
     0
  0
SCALE
  5
57
102
{ACAD_REACTORS
330
47
102
}
330
47
100
AcDbScale
 70
     0
300
10:1
140
10.0
141
1.0
290
     0
  0
SCALE
  5
58
102
{ACAD_REACTORS
330
47
102
}
330
47
100
AcDbScale
 70
     0
300
100:1
140
100.0
141
1.0
290
     0
  0
SCALE
  5
59
102
{ACAD_REACTORS
330
47
102
}
330
47
100
AcDbScale
 70
     0
300
1/128" = 1'-0"
140
0.0078125
141
12.0
290
     0
  0
SCALE
  5
5A
102
{ACAD_REACTORS
330
47
102
}
330
47
100
AcDbScale
 70
     0
300
1/64" = 1'-0"
140
0.015625
141
12.0
290
     0
  0
SCALE
  5
5B
102
{ACAD_REACTORS
330
47
102
}
330
47
100
AcDbScale
 70
     0
300
1/32" = 1'-0"
140
0.03125
141
12.0
290
     0
  0
SCALE
  5
5C
102
{ACAD_REACTORS
330
47
102
}
330
47
100
AcDbScale
 70
     0
300
1/16" = 1'-0"
140
0.0625
141
12.0
290
     0
  0
SCALE
  5
5D
102
{ACAD_REACTORS
330
47
102
}
330
47
100
AcDbScale
 70
     0
300
3/32" = 1'-0"
140
0.09375
141
12.0
290
     0
  0
SCALE
  5
5E
102
{ACAD_REACTORS
330
47
102
}
330
47
100
AcDbScale
 70
     0
300
1/8" = 1'-0"
140
0.125
141
12.0
290
     0
  0
SCALE
  5
5F
102
{ACAD_REACTORS
330
47
102
}
330
47
100
AcDbScale
 70
     0
300
3/16" = 1'-0"
140
0.1875
141
12.0
290
     0
  0
SCALE
  5
60
102
{ACAD_REACTORS
330
47
102
}
330
47
100
AcDbScale
 70
     0
300
1/4" = 1'-0"
140
0.25
141
12.0
290
     0
  0
SCALE
  5
61
102
{ACAD_REACTORS
330
47
102
}
330
47
100
AcDbScale
 70
     0
300
3/8" = 1'-0"
140
0.375
141
12.0
290
     0
  0
SCALE
  5
62
102
{ACAD_REACTORS
330
47
102
}
330
47
100
AcDbScale
 70
     0
300
1/2" = 1'-0"
140
0.5
141
12.0
290
     0
  0
SCALE
  5
63
102
{ACAD_REACTORS
330
47
102
}
330
47
100
AcDbScale
 70
     0
300
3/4" = 1'-0"
140
0.75
141
12.0
290
     0
  0
SCALE
  5
64
102
{ACAD_REACTORS
330
47
102
}
330
47
100
AcDbScale
 70
     0
300
1" = 1'-0"
140
1.0
141
12.0
290
     0
  0
SCALE
  5
65
102
{ACAD_REACTORS
330
47
102
}
330
47
100
AcDbScale
 70
     0
300
1-1/2" = 1'-0"
140
1.5
141
12.0
290
     0
  0
SCALE
  5
66
102
{ACAD_REACTORS
330
47
102
}
330
47
100
AcDbScale
 70
     0
300
3" = 1'-0"
140
3.0
141
12.0
290
     0
  0
SCALE
  5
67
102
{ACAD_REACTORS
330
47
102
}
330
47
100
AcDbScale
 70
     0
300
6" = 1'-0"
140
6.0
141
12.0
290
     0
  0
SCALE
  5
68
102
{ACAD_REACTORS
330
47
102
}
330
47
100
AcDbScale
 70
     0
300
1'-0" = 1'-0"
140
12.0
141
12.0
290
     0
  0
ENDSEC
  0
EOF
