  0
SECTION
  2
HEADER
  9
$ACADVER
  1
AC1015
  9
$ACADMAINTVER
 70
     6
  9
$DWGCODEPAGE
  3
ANSI_949
  9
$INSBASE
 10
0.0
 20
0.0
 30
0.0
  9
$EXTMIN
 10
-57.55750000000011
 20
-39.99892507127611
 30
0.0
  9
$EXTMAX
 10
81.21241335422454
 20
42.75750000000002
 30
0.0
  9
$LIMMIN
 10
0.0
 20
0.0
  9
$LIMMAX
 10
420.0
 20
297.0
  9
$ORTHOMODE
 70
     0
  9
$REGENMODE
 70
     1
  9
$FILLMODE
 70
     1
  9
$QTEXTMODE
 70
     0
  9
$MIRRTEXT
 70
     1
  9
$LTSCALE
 40
1.0
  9
$ATTMODE
 70
     1
  9
$TEXTSIZE
 40
3.5
  9
$TRACEWID
 40
1.0
  9
$TEXTSTYLE
  7
Standard
  9
$CLAYER
  8
0
  9
$CELTYPE
  6
ByLayer
  9
$CECOLOR
 62
   256
  9
$CELTSCALE
 40
1.0
  9
$DISPSILH
 70
     0
  9
$DIMSCALE
 40
1.0
  9
$DIMASZ
 40
3.302
  9
$DIMEXO
 40
1.0
  9
$DIMDLI
 40
3.75
  9
$DIMRND
 40
0.0
  9
$DIMDLE
 40
0.0
  9
$DIMEXE
 40
1.0
  9
$DIMTP
 40
0.0
  9
$DIMTM
 40
0.0
  9
$DIMTXT
 40
3.5
  9
$DIMCEN
 40
2.5
  9
$DIMTSZ
 40
0.0
  9
$DIMTOL
 70
     0
  9
$DIMLIM
 70
     0
  9
$DIMTIH
 70
     1
  9
$DIMTOH
 70
     1
  9
$DIMSE1
 70
     0
  9
$DIMSE2
 70
     0
  9
$DIMTAD
 70
     1
  9
$DIMZIN
 70
     0
  9
$DIMBLK
  1

  9
$DIMASO
 70
     1
  9
$DIMSHO
 70
     1
  9
$DIMPOST
  1

  9
$DIMAPOST
  1

  9
$DIMALT
 70
     0
  9
$DIMALTD
 70
     3
  9
$DIMALTF
 40
0.0393700787401575
  9
$DIMLFAC
 40
1.0
  9
$DIMTOFL
 70
     1
  9
$DIMTVP
 40
0.0
  9
$DIMTIX
 70
     0
  9
$DIMSOXD
 70
     0
  9
$DIMSAH
 70
     0
  9
$DIMBLK1
  1

  9
$DIMBLK2
  1

  9
$DIMSTYLE
  2
ISO-25
  9
$DIMCLRD
 70
     0
  9
$DIMCLRE
 70
     0
  9
$DIMCLRT
 70
     0
  9
$DIMTFAC
 40
1.0
  9
$DIMGAP
 40
1.524
  9
$DIMJUST
 70
     0
  9
$DIMSD1
 70
     0
  9
$DIMSD2
 70
     0
  9
$DIMTOLJ
 70
     0
  9
$DIMTZIN
 70
     0
  9
$DIMALTZ
 70
     0
  9
$DIMALTTZ
 70
     0
  9
$DIMUPT
 70
     0
  9
$DIMDEC
 70
     2
  9
$DIMTDEC
 70
     2
  9
$DIMALTU
 70
     2
  9
$DIMALTTD
 70
     3
  9
$DIMTXSTY
  7
Standard
  9
$DIMAUNIT
 70
     0
  9
$DIMADEC
 70
     2
  9
$DIMALTRND
 40
0.0
  9
$DIMAZIN
 70
     0
  9
$DIMDSEP
 70
    44
  9
$DIMATFIT
 70
     3
  9
$DIMFRAC
 70
     0
  9
$DIMLDRBLK
  1

  9
$DIMLUNIT
 70
     2
  9
$DIMLWD
 70
    -2
  9
$DIMLWE
 70
    -2
  9
$DIMTMOVE
 70
     0
  9
$LUNITS
 70
     2
  9
$LUPREC
 70
     2
  9
$SKETCHINC
 40
1.0
  9
$FILLETRAD
 40
10.0
  9
$AUNITS
 70
     0
  9
$AUPREC
 70
     2
  9
$MENU
  1
.
  9
$ELEVATION
 40
0.0
  9
$PELEVATION
 40
0.0
  9
$THICKNESS
 40
0.0
  9
$LIMCHECK
 70
     0
  9
$CHAMFERA
 40
0.0
  9
$CHAMFERB
 40
0.0
  9
$CHAMFERC
 40
0.0
  9
$CHAMFERD
 40
0.0
  9
$SKPOLY
 70
     0
  9
$TDCREATE
 40
2458313.427285
  9
$TDUCREATE
 40
2458313.052285
  9
$TDUPDATE
 40
2459719.670735637
  9
$TDUUPDATE
 40
2459719.295735637
  9
$TDINDWG
 40
0.0176948958
  9
$TDUSRTIMER
 40
0.0159248264
  9
$USRTIMER
 70
     1
  9
$ANGBASE
 50
0.0
  9
$ANGDIR
 70
     0
  9
$PDMODE
 70
     0
  9
$PDSIZE
 40
-1.0
  9
$PLINEWID
 40
0.0
  9
$SPLFRAME
 70
     0
  9
$SPLINETYPE
 70
     6
  9
$SPLINESEGS
 70
     8
  9
$HANDSEED
  5
38C
  9
$SURFTAB1
 70
     6
  9
$SURFTAB2
 70
     6
  9
$SURFTYPE
 70
     6
  9
$SURFU
 70
     6
  9
$SURFV
 70
     6
  9
$UCSBASE
  2

  9
$UCSNAME
  2

  9
$UCSORG
 10
0.0
 20
0.0
 30
0.0
  9
$UCSXDIR
 10
1.0
 20
0.0
 30
0.0
  9
$UCSYDIR
 10
0.0
 20
1.0
 30
0.0
  9
$UCSORTHOREF
  2

  9
$UCSORTHOVIEW
 70
     0
  9
$UCSORGTOP
 10
0.0
 20
0.0
 30
0.0
  9
$UCSORGBOTTOM
 10
0.0
 20
0.0
 30
0.0
  9
$UCSORGLEFT
 10
0.0
 20
0.0
 30
0.0
  9
$UCSORGRIGHT
 10
0.0
 20
0.0
 30
0.0
  9
$UCSORGFRONT
 10
0.0
 20
0.0
 30
0.0
  9
$UCSORGBACK
 10
0.0
 20
0.0
 30
0.0
  9
$PUCSBASE
  2

  9
$PUCSNAME
  2

  9
$PUCSORG
 10
0.0
 20
0.0
 30
0.0
  9
$PUCSXDIR
 10
1.0
 20
0.0
 30
0.0
  9
$PUCSYDIR
 10
0.0
 20
1.0
 30
0.0
  9
$PUCSORTHOREF
  2

  9
$PUCSORTHOVIEW
 70
     0
  9
$PUCSORGTOP
 10
0.0
 20
0.0
 30
0.0
  9
$PUCSORGBOTTOM
 10
0.0
 20
0.0
 30
0.0
  9
$PUCSORGLEFT
 10
0.0
 20
0.0
 30
0.0
  9
$PUCSORGRIGHT
 10
0.0
 20
0.0
 30
0.0
  9
$PUCSORGFRONT
 10
0.0
 20
0.0
 30
0.0
  9
$PUCSORGBACK
 10
0.0
 20
0.0
 30
0.0
  9
$USERI1
 70
     0
  9
$USERI2
 70
     0
  9
$USERI3
 70
     0
  9
$USERI4
 70
     0
  9
$USERI5
 70
     0
  9
$USERR1
 40
0.0
  9
$USERR2
 40
0.0
  9
$USERR3
 40
0.0
  9
$USERR4
 40
0.0
  9
$USERR5
 40
0.0
  9
$WORLDVIEW
 70
     1
  9
$SHADEDGE
 70
     3
  9
$SHADEDIF
 70
    70
  9
$TILEMODE
 70
     1
  9
$MAXACTVP
 70
    64
  9
$PINSBASE
 10
0.0
 20
0.0
 30
0.0
  9
$PLIMCHECK
 70
     0
  9
$PEXTMIN
 10
1.000000000000000E+20
 20
1.000000000000000E+20
 30
1.000000000000000E+20
  9
$PEXTMAX
 10
-1.000000000000000E+20
 20
-1.000000000000000E+20
 30
-1.000000000000000E+20
  9
$PLIMMIN
 10
0.0
 20
0.0
  9
$PLIMMAX
 10
0.0
 20
0.0
  9
$UNITMODE
 70
     0
  9
$VISRETAIN
 70
     1
  9
$PLINEGEN
 70
     0
  9
$PSLTSCALE
 70
     1
  9
$TREEDEPTH
 70
  3020
  9
$CMLSTYLE
  2
Standard
  9
$CMLJUST
 70
     0
  9
$CMLSCALE
 40
20.0
  9
$PROXYGRAPHICS
 70
     1
  9
$MEASUREMENT
 70
     1
  9
$CELWEIGHT
370
    -1
  9
$ENDCAPS
280
     0
  9
$JOINSTYLE
280
     0
  9
$LWDISPLAY
290
     1
  9
$INSUNITS
 70
     4
  9
$HYPERLINKBASE
  1

  9
$STYLESHEET
  1

  9
$XEDIT
290
     1
  9
$CEPSNTYPE
380
     0
  9
$PSTYLEMODE
290
     1
  9
$FINGERPRINTGUID
  2
{0616691C-D961-47BC-BBD5-1C96FE30361E}
  9
$VERSIONGUID
  2
{FAEB1C32-E019-11D5-929B-00C0DF256EC4}
  9
$EXTNAMES
290
     1
  9
$PSVPSCALE
 40
0.0
  9
$OLESTARTUP
290
     0
  0
ENDSEC
  0
SECTION
  2
CLASSES
  0
CLASS
  1
ACDBDICTIONARYWDFLT
  2
AcDbDictionaryWithDefault
  3
ObjectDBX Classes
 90
        0
280
     0
281
     0
  0
CLASS
  1
VISUALSTYLE
  2
AcDbVisualStyle
  3
ObjectDBX Classes
 90
     4095
280
     0
281
     0
  0
CLASS
  1
MATERIAL
  2
AcDbMaterial
  3
ObjectDBX Classes
 90
     1153
280
     0
281
     0
  0
CLASS
  1
SCALE
  2
AcDbScale
  3
ObjectDBX Classes
 90
     1153
280
     0
281
     0
  0
CLASS
  1
SUN
  2
AcDbSun
  3
SCENEOE
 90
     1153
280
     0
281
     0
  0
CLASS
  1
ACDBPLACEHOLDER
  2
AcDbPlaceHolder
  3
ObjectDBX Classes
 90
        0
280
     0
281
     0
  0
CLASS
  1
LAYOUT
  2
AcDbLayout
  3
ObjectDBX Classes
 90
        0
280
     0
281
     0
  0
CLASS
  1
TABLESTYLE
  2
AcDbTableStyle
  3
ObjectDBX Classes
 90
     4095
280
     0
281
     0
  0
CLASS
  1
MLEADERSTYLE
  2
AcDbMLeaderStyle
  3
ACDB_MLEADERSTYLE_CLASS
 90
     4095
280
     0
281
     0
  0
CLASS
  1
RASTERVARIABLES
  2
AcDbRasterVariables
  3
ISM
 90
        0
280
     0
281
     0
  0
ENDSEC
  0
SECTION
  2
TABLES
  0
TABLE
  2
VPORT
  5
8
330
0
100
AcDbSymbolTable
 70
     1
  0
VPORT
  5
29
330
8
100
AcDbSymbolTableRecord
100
AcDbViewportTableRecord
  2
*Active
 70
     0
 10
0.0
 20
0.0
 11
1.0
 21
1.0
 12
3.883165257712577
 22
4.955986487343999
 13
0.0
 23
0.0
 14
10.0
 24
10.0
 15
10.0
 25
10.0
 16
0.0
 26
0.0
 36
1.0
 17
0.0
 27
0.0
 37
0.0
 40
116.6197988085189
 41
1.519944979367263
 42
50.0
 43
0.0
 44
0.0
 50
0.0
 51
0.0
 71
    16
 72
  2000
 73
     1
 74
     3
 75
     0
 76
     0
 77
     0
 78
     0
281
     0
 65
     1
110
0.0
120
0.0
130
0.0
111
1.0
121
0.0
131
0.0
112
0.0
122
1.0
132
0.0
 79
     0
146
0.0
  0
ENDTAB
  0
TABLE
  2
LTYPE
  5
5
330
0
100
AcDbSymbolTable
 70
     6
  0
LTYPE
  5
14
330
5
100
AcDbSymbolTableRecord
100
AcDbLinetypeTableRecord
  2
ByBlock
 70
     0
  3

 72
    65
 73
     0
 40
0.0
  0
LTYPE
  5
15
330
5
100
AcDbSymbolTableRecord
100
AcDbLinetypeTableRecord
  2
ByLayer
 70
     0
  3

 72
    65
 73
     0
 40
0.0
  0
LTYPE
  5
16
330
5
100
AcDbSymbolTableRecord
100
AcDbLinetypeTableRecord
  2
Continuous
 70
     0
  3
Solid line
 72
    65
 73
     0
 40
0.0
  0
LTYPE
  5
6A
330
5
100
AcDbSymbolTableRecord
100
AcDbLinetypeTableRecord
  2
HIDDEN
 70
     0
  3
Hidden __ __ __ __ __ __ __ __ __ __ __ __ __ __
 72
    65
 73
     2
 40
1.905
 49
1.27
 74
     0
 49
-0.635
 74
     0
  0
LTYPE
  5
6B
330
5
100
AcDbSymbolTableRecord
100
AcDbLinetypeTableRecord
  2
PHANTOM
 70
     0
  3
Phantom ______  __  __  ______  __  __  ______
 72
    65
 73
     6
 40
12.7
 49
6.35
 74
     0
 49
-1.27
 74
     0
 49
1.27
 74
     0
 49
-1.27
 74
     0
 49
1.27
 74
     0
 49
-1.27
 74
     0
  0
LTYPE
  5
6C
330
5
100
AcDbSymbolTableRecord
100
AcDbLinetypeTableRecord
  2
CENTER
 70
     0
  3
Center ____ _ ____ _ ____ _ ____ _ ____ _ ____
 72
    65
 73
     4
 40
10.16
 49
6.35
 74
     0
 49
-1.27
 74
     0
 49
1.27
 74
     0
 49
-1.27
 74
     0
  0
LTYPE
  5
6D
330
5
100
AcDbSymbolTableRecord
100
AcDbLinetypeTableRecord
  2
CENTERX2
 70
     0
  3
Center (2x) ________  __  ________  __  _____
 72
    65
 73
     4
 40
20.32
 49
12.7
 74
     0
 49
-2.54
 74
     0
 49
2.54
 74
     0
 49
-2.54
 74
     0
  0
LTYPE
  5
6E
330
5
100
AcDbSymbolTableRecord
100
AcDbLinetypeTableRecord
  2
DOT2
 70
     0
  3
Dot (.5x) ........................................
 72
    65
 73
     2
 40
0.635
 49
0.0
 74
     0
 49
-0.635
 74
     0
  0
ENDTAB
  0
TABLE
  2
LAYER
  5
2
102
{ACAD_XDICTIONARY
360
186
102
}
330
0
100
AcDbSymbolTable
 70
    18
  0
LAYER
  5
10
330
2
100
AcDbSymbolTableRecord
100
AcDbLayerTableRecord
  2
0
 70
     0
 62
     7
  6
Continuous
370
    -3
390
F
  0
LAYER
  5
6F
330
2
100
AcDbSymbolTableRecord
100
AcDbLayerTableRecord
  2
FORMAT
 70
     0
 62
     2
  6
Continuous
370
    -3
390
F
  0
LAYER
  5
70
330
2
100
AcDbSymbolTableRecord
100
AcDbLayerTableRecord
  2
외형선
 70
     0
 62
     4
  6
Continuous
370
    30
390
F
  0
LAYER
  5
71
330
2
100
AcDbSymbolTableRecord
100
AcDbLayerTableRecord
  2
숨은선
 70
     0
 62
     2
  6
HIDDEN
370
    15
390
F
  0
LAYER
  5
72
330
2
100
AcDbSymbolTableRecord
100
AcDbLayerTableRecord
  2
중심선
 70
     0
 62
     1
  6
CENTERX2
370
    -3
390
F
  0
LAYER
  5
73
330
2
100
AcDbSymbolTableRecord
100
AcDbLayerTableRecord
  2
파단선
 70
     0
 62
     4
  6
Continuous
370
    -3
390
F
  0
LAYER
  5
74
330
2
100
AcDbSymbolTableRecord
100
AcDbLayerTableRecord
  2
해칭선
 70
     0
 62
   100
  6
Continuous
370
    -3
390
F
  0
LAYER
  5
75
330
2
100
AcDbSymbolTableRecord
100
AcDbLayerTableRecord
  2
가는실선
 70
     0
 62
     4
  6
Continuous
370
    -3
390
F
  0
LAYER
  5
76
330
2
100
AcDbSymbolTableRecord
100
AcDbLayerTableRecord
  2
치수_보조선
 70
     0
 62
     4
  6
Continuous
370
    -3
390
F
  0
LAYER
  5
77
330
2
100
AcDbSymbolTableRecord
100
AcDbLayerTableRecord
  2
치수문자_일반주서
 70
     0
 62
     7
  6
Continuous
370
    15
390
F
  0
LAYER
  5
78
330
2
100
AcDbSymbolTableRecord
100
AcDbLayerTableRecord
  2
개별주서
 70
     0
 62
   100
  6
Continuous
370
    30
390
F
  0
LAYER
  5
79
330
2
100
AcDbSymbolTableRecord
100
AcDbLayerTableRecord
  2
중간선
 70
     0
 62
     2
  6
Continuous
370
    15
390
F
  0
LAYER
  5
7A
330
2
100
AcDbSymbolTableRecord
100
AcDbLayerTableRecord
  2
윤곽선
 70
     0
 62
     3
  6
Continuous
370
    40
390
F
  0
LAYER
  5
7B
330
2
100
AcDbSymbolTableRecord
100
AcDbLayerTableRecord
  2
중심마크
 70
     0
 62
   100
  6
Continuous
370
    30
390
F
  0
LAYER
  5
7C
330
2
100
AcDbSymbolTableRecord
100
AcDbLayerTableRecord
  2
가상선
 70
     0
 62
     4
  6
PHANTOM
370
    -3
390
F
  0
LAYER
  5
7D
330
2
100
AcDbSymbolTableRecord
100
AcDbLayerTableRecord
  2
특수지정선
 70
     0
 62
     5
  6
CENTERX2
370
    60
390
F
  0
LAYER
  5
7E
330
2
100
AcDbSymbolTableRecord
100
AcDbLayerTableRecord
  2
참조1
 70
     0
 62
    -4
  6
Continuous
370
    -3
390
F
  0
LAYER
  5
190
330
2
100
AcDbSymbolTableRecord
100
AcDbLayerTableRecord
  2
Defpoints
 70
     0
 62
     7
  6
Continuous
290
     0
370
    -3
390
F
  0
ENDTAB
  0
TABLE
  2
STYLE
  5
3
330
0
100
AcDbSymbolTable
 70
     2
  0
STYLE
  5
11
330
3
100
AcDbSymbolTableRecord
100
AcDbTextStyleTableRecord
  2
Standard
 70
     0
 40
0.0
 41
1.0
 50
0.0
 71
     0
 42
3.5
  3
txt
  4

  0
STYLE
  5
94
330
3
100
AcDbSymbolTableRecord
100
AcDbTextStyleTableRecord
  2
SLDTEXTSTYLE0
 70
     0
 40
0.0
 41
0.75
 50
0.0
 71
     0
 42
3.5
  3
TXT
  4

  0
ENDTAB
  0
TABLE
  2
VIEW
  5
6
330
0
100
AcDbSymbolTable
 70
     0
  0
ENDTAB
  0
TABLE
  2
UCS
  5
7
330
0
100
AcDbSymbolTable
 70
     0
  0
ENDTAB
  0
TABLE
  2
APPID
  5
9
330
0
100
AcDbSymbolTable
 70
     3
  0
APPID
  5
12
330
9
100
AcDbSymbolTableRecord
100
AcDbRegAppTableRecord
  2
ACAD
 70
     0
  0
APPID
  5
19C
330
9
100
AcDbSymbolTableRecord
100
AcDbRegAppTableRecord
  2
PE_URL
 70
     0
  0
APPID
  5
19D
330
9
100
AcDbSymbolTableRecord
100
AcDbRegAppTableRecord
  2
ACAD_DSTYLE_DIMRADIAL_EXTENSION
 70
     0
  0
ENDTAB
  0
TABLE
  2
DIMSTYLE
  5
A
330
0
100
AcDbSymbolTable
 70
     4
100
AcDbDimStyleTable
  0
DIMSTYLE
105
27
330
A
100
AcDbSymbolTableRecord
100
AcDbDimStyleTableRecord
  2
ISO-25
 70
     0
 41
2.5
 42
0.625
 43
3.75
 44
1.25
 73
     0
 74
     0
 77
     1
 78
     8
140
2.5
141
2.5
143
0.03937007874016
147
0.625
171
     3
172
     1
178
     0
271
     2
272
     2
274
     3
278
    44
283
     0
284
     8
340
11
  0
DIMSTYLE
105
DF
102
{ACAD_REACTORS
330
DE
330
F3
330
107
330
11C
102
}
330
A
100
AcDbSymbolTableRecord
100
AcDbDimStyleTableRecord
  2
SLDDIMSTYLE0
 70
     0
 41
3.302
 44
0.0
 45
0.000000001
 73
     0
 74
     0
 77
     1
 78
    12
 79
     3
140
3.5
143
0.0393700787401575
147
0.875
148
0.000000001
170
     1
172
     1
173
     1
178
     0
271
     2
272
     2
276
     2
284
    12
289
     0
340
94
  0
DIMSTYLE
105
108
102
{ACAD_REACTORS
102
}
330
A
100
AcDbSymbolTableRecord
100
AcDbDimStyleTableRecord
  2
SLDDIMSTYLE1
 70
     0
 41
3.302
 44
0.0
 45
0.000000001
 73
     0
 74
     0
 77
     1
 78
    12
 79
     3
140
3.5
143
0.0393700787401575
147
0.875
148
0.000000001
170
     1
173
     1
178
     0
271
     2
272
     2
276
     2
284
    12
340
94
  0
DIMSTYLE
105
19B
102
{ACAD_REACTORS
102
}
330
A
100
AcDbSymbolTableRecord
100
AcDbDimStyleTableRecord
  2
SLDDIMSTYLE2
 70
     0
 41
3.302
 44
0.0
 45
0.000000001
 73
     0
 74
     0
 77
     1
 78
    12
 79
     3
140
3.5
147
0.875
172
     1
173
     1
178
     0
271
     2
272
     2
276
     2
284
    12
289
     0
340
94
  0
ENDTAB
  0
TABLE
  2
BLOCK_RECORD
  5
1
330
0
100
AcDbSymbolTable
 70
    20
  0
BLOCK_RECORD
  5
1F
102
{ACAD_XDICTIONARY
360
389
102
}
330
1
100
AcDbSymbolTableRecord
100
AcDbBlockTableRecord
  2
*Model_Space
340
22
  0
BLOCK_RECORD
  5
1B
330
1
100
AcDbSymbolTableRecord
100
AcDbBlockTableRecord
  2
*Paper_Space
340
1E
  0
BLOCK_RECORD
  5
23
330
1
100
AcDbSymbolTableRecord
100
AcDbBlockTableRecord
  2
*Paper_Space0
340
26
  0
BLOCK_RECORD
  5
7F
330
1
100
AcDbSymbolTableRecord
100
AcDbBlockTableRecord
  2
블럭10
340
0
102
{BLKREFS
331
D7
102
}
  0
BLOCK_RECORD
  5
E0
330
1
100
AcDbSymbolTableRecord
100
AcDbBlockTableRecord
  2
_D
340
0
  0
BLOCK_RECORD
  5
F4
330
1
100
AcDbSymbolTableRecord
100
AcDbBlockTableRecord
  2
_D_1
340
0
  0
BLOCK_RECORD
  5
109
330
1
100
AcDbSymbolTableRecord
100
AcDbBlockTableRecord
  2
_D_2
340
0
  0
BLOCK_RECORD
  5
11D
330
1
100
AcDbSymbolTableRecord
100
AcDbBlockTableRecord
  2
_D_3
340
0
  0
BLOCK_RECORD
  5
136
330
1
100
AcDbSymbolTableRecord
100
AcDbBlockTableRecord
  2
SW_DOWELSYMBOL_0
340
0
102
{BLKREFS
331
13C
102
}
  0
BLOCK_RECORD
  5
226
330
1
100
AcDbSymbolTableRecord
100
AcDbBlockTableRecord
  2
_D_4
340
0
  0
BLOCK_RECORD
  5
240
330
1
100
AcDbSymbolTableRecord
100
AcDbBlockTableRecord
  2
*D8
340
0
  0
BLOCK_RECORD
  5
24A
330
1
100
AcDbSymbolTableRecord
100
AcDbBlockTableRecord
  2
*D9
340
0
  0
BLOCK_RECORD
  5
256
330
1
100
AcDbSymbolTableRecord
100
AcDbBlockTableRecord
  2
*D10
340
0
  0
BLOCK_RECORD
  5
262
330
1
100
AcDbSymbolTableRecord
100
AcDbBlockTableRecord
  2
*D11
340
0
  0
BLOCK_RECORD
  5
2BD
330
1
100
AcDbSymbolTableRecord
100
AcDbBlockTableRecord
  2
*D12
340
0
  0
BLOCK_RECORD
  5
2C9
330
1
100
AcDbSymbolTableRecord
100
AcDbBlockTableRecord
  2
*D13
340
0
  0
BLOCK_RECORD
  5
2D5
330
1
100
AcDbSymbolTableRecord
100
AcDbBlockTableRecord
  2
*D14
340
0
  0
BLOCK_RECORD
  5
2E3
330
1
100
AcDbSymbolTableRecord
100
AcDbBlockTableRecord
  2
*D15
340
0
  0
BLOCK_RECORD
  5
2F1
330
1
100
AcDbSymbolTableRecord
100
AcDbBlockTableRecord
  2
*D16
340
0
  0
BLOCK_RECORD
  5
339
330
1
100
AcDbSymbolTableRecord
100
AcDbBlockTableRecord
  2
*D17
340
0
  0
BLOCK_RECORD
  5
348
330
1
100
AcDbSymbolTableRecord
100
AcDbBlockTableRecord
  2
*D18
340
0
  0
BLOCK_RECORD
  5
357
330
1
100
AcDbSymbolTableRecord
100
AcDbBlockTableRecord
  2
*D19
340
0
  0
ENDTAB
  0
ENDSEC
  0
SECTION
  2
BLOCKS
  0
BLOCK
  5
20
330
1F
100
AcDbEntity
  8
0
100
AcDbBlockBegin
  2
*Model_Space
 70
     0
 10
0.0
 20
0.0
 30
0.0
  3
*Model_Space
  1
*Model_Space
  0
ENDBLK
  5
21
330
1F
100
AcDbEntity
  8
0
100
AcDbBlockEnd
  0
BLOCK
  5
1C
330
1B
100
AcDbEntity
 67
     1
  8
0
100
AcDbBlockBegin
  2
*Paper_Space
 70
     0
 10
0.0
 20
0.0
 30
0.0
  3
*Paper_Space
  1
*Paper_Space
  0
ENDBLK
  5
1D
330
1B
100
AcDbEntity
 67
     1
  8
0
100
AcDbBlockEnd
  0
BLOCK
  5
24
330
23
100
AcDbEntity
  8
0
100
AcDbBlockBegin
  2
*Paper_Space0
 70
     0
 10
0.0
 20
0.0
 30
0.0
  3
*Paper_Space0
  1
*Paper_Space0
  0
ENDBLK
  5
25
330
23
100
AcDbEntity
  8
0
100
AcDbBlockEnd
  0
BLOCK
  5
80
330
7F
100
AcDbEntity
  8
0
100
AcDbBlockBegin
  2
블럭10
 70
     2
 10
0.0
 20
0.0
 30
0.0
  3
블럭10
  1
블럭10
  0
ELLIPSE
  5
82
330
7F
100
AcDbEntity
  8
중심선
100
AcDbEllipse
 10
20.54032771741204
 20
12.0471743016438
 30
0.0
 11
6.600054785286829
 21
-1.261213355974178E-13
 31
0.0
210
0.0
220
0.0
230
1.0
 40
0.636358354079598
 41
0.9219305317359503
 42
6.513795318482858
  0
ELLIPSE
  5
83
330
7F
100
AcDbEntity
  8
중심선
100
AcDbEllipse
 10
20.54032771746488
 20
12.04717430159265
 30
0.0
 11
3.960054785062283
 21
1.540847449632565E-10
 31
0.0
210
0.0
220
0.0
230
1.0
 40
0.3939339440162632
 41
1.131841032648279
 42
5.62031148352944
  0
LINE
  5
84
330
7F
100
AcDbEntity
  8
중심선
100
AcDbLine
 10
2.268634060543552
 20
16.24717430164393
 30
0.0
 11
5.714909304380834
 21
16.24717430164393
 31
0.0
  0
LINE
  5
85
330
7F
100
AcDbEntity
  8
중심선
100
AcDbLine
 10
5.245725140726316
 20
7.84717430164391
 30
0.0
 11
8.692000384563599
 21
7.84717430164391
 31
0.0
  0
LINE
  5
86
330
7F
100
AcDbEntity
  8
중심선
100
AcDbLine
 10
15.74043728645272
 20
16.24717430164393
 30
0.0
 11
8.692000384563599
 21
7.84717430164391
 31
0.0
  0
LINE
  5
87
330
7F
100
AcDbEntity
  8
중심선
100
AcDbLine
 10
0.1404042013395286
 20
13.71084872107135
 30
0.0
 11
3.58671253028996
 21
13.71088815037384
 31
0.0
  0
LINE
  5
88
330
7F
100
AcDbEntity
  8
중심선
100
AcDbLine
 10
2.750260043222114
 20
10.84717430164391
 30
0.0
 11
6.196535287059397
 21
10.84717430164391
 31
0.0
  0
LINE
  5
89
330
7F
100
AcDbEntity
  8
중심선
100
AcDbLine
 10
12.29416204261559
 20
16.24717430164393
 30
0.0
 11
5.245725140726316
 21
7.84717430164391
 31
0.0
  0
LINE
  5
8A
330
7F
100
AcDbEntity
  8
중심선
100
AcDbLine
 10
10.72767329541681
 20
16.24717430164393
 30
0.0
 11
6.196535287059397
 21
10.84717430164391
 31
0.0
  0
LINE
  5
8B
330
7F
100
AcDbEntity
  8
중심선
100
AcDbLine
 10
7.28139805157953
 20
16.24717430164393
 30
0.0
 11
2.750260043222114
 21
10.84717430164391
 31
0.0
  0
LINE
  5
8C
330
7F
100
AcDbEntity
  8
중심선
100
AcDbLine
 10
5.714909304380834
 20
16.24717430164393
 30
0.0
 11
3.58671253028996
 21
13.71088815037384
 31
0.0
  0
LINE
  5
8D
330
7F
100
AcDbEntity
  8
중심선
100
AcDbLine
 10
2.268634060543552
 20
16.24717430164393
 30
0.0
 11
0.1404042013395286
 21
13.71084872107135
 31
0.0
  0
LINE
  5
8E
330
7F
100
AcDbEntity
  8
중심선
100
AcDbLine
 10
7.28139805157953
 20
16.24717430164393
 30
0.0
 11
10.72767329541681
 21
16.24717430164393
 31
0.0
  0
LINE
  5
8F
330
7F
100
AcDbEntity
  8
중심선
100
AcDbLine
 10
12.29416204261559
 20
16.24717430164393
 30
0.0
 11
15.74043728645272
 21
16.24717430164393
 31
0.0
  0
LINE
  5
90
330
7F
100
AcDbEntity
  8
중심선
100
AcDbLine
 10
19.22036997980202
 20
11.08717430171403
 30
0.0
 11
23.66174974927406
 21
11.08717430171406
 31
0.0
  0
LINE
  5
91
330
7F
100
AcDbEntity
  8
중심선
100
AcDbLine
 10
19.22039502424796
 20
13.00717430171391
 30
0.0
 11
19.22036997980202
 21
11.08717430171403
 31
0.0
  0
LINE
  5
92
330
7F
100
AcDbEntity
  8
중심선
100
AcDbLine
 10
19.22039502424796
 20
13.00717430171391
 30
0.0
 11
26.96566020931264
 21
13.00717430171391
 31
0.0
  0
LINE
  5
93
330
7F
100
AcDbEntity
  8
중심선
100
AcDbLine
 10
22.22332737316547
 20
13.45928029700563
 30
0.0
 11
24.52862924686651
 21
15.39360700705356
 31
0.0
  0
ATTDEF
  5
95
330
7F
100
AcDbEntity
  8
FORMAT
 62
     2
100
AcDbText
 10
4.408487351596664
 20
2.075366912832191
 30
0.0
 40
4.233333333333333
  1
E5025010
 41
0.75
  7
SLDTEXTSTYLE0
 11
4.408487351596664
 21
-0.0412997538344756
 31
0.0
100
AcDbAttributeDefinition
  3

  2
AUTOATTR0
 70
     0
 74
     1
  0
ENDBLK
  5
81
330
7F
100
AcDbEntity
  8
0
100
AcDbBlockEnd
  0
BLOCK
  5
E1
330
E0
100
AcDbEntity
  8
0
100
AcDbBlockBegin
  2
_D
 70
     0
 10
0.0
 20
0.0
 30
0.0
  3
_D
  1
_D
  0
LINE
  5
E3
330
E0
100
AcDbEntity
  8
치수문자_일반주서
 62
     0
370
    -2
100
AcDbLine
 10
-17.26939635022272
 20
4.762499999999991
 30
0.0
 11
-53.1825
 21
4.762499999999857
 31
0.0
  0
LINE
  5
E4
330
E0
100
AcDbEntity
  8
치수문자_일반주서
 62
     0
370
    -2
100
AcDbLine
 10
-17.26939635022272
 20
-4.762500000000007
 30
0.0
 11
-53.18249999999997
 21
-4.762500000000141
 31
0.0
  0
LINE
  5
E5
330
E0
100
AcDbEntity
  8
치수문자_일반주서
 62
     0
370
    -2
100
AcDbLine
 10
-53.1825
 20
4.762499999999857
 30
0.0
 11
-53.18250000000013
 21
37.83524999999995
 31
0.0
  0
LINE
  5
E6
330
E0
100
AcDbEntity
  8
치수문자_일반주서
 62
     0
370
    -2
100
AcDbLine
 10
-53.1825
 20
4.762499999999857
 30
0.0
 11
-53.18249999999997
 21
-4.762500000000141
 31
0.0
  0
LINE
  5
E7
330
E0
100
AcDbEntity
  8
치수문자_일반주서
 62
     0
370
    -2
100
AcDbLine
 10
-53.18250000000002
 20
8.064499999999857
 30
0.0
 11
-53.18250000000003
 21
11.36649999999986
 31
0.0
  0
LINE
  5
E8
330
E0
100
AcDbEntity
  8
치수문자_일반주서
 62
     0
370
    -2
100
AcDbLine
 10
-53.18249999999995
 20
-8.064500000000141
 30
0.0
 11
-53.18249999999994
 21
-11.36650000000014
 31
0.0
  0
SOLID
  5
E9
330
E0
100
AcDbEntity
  8
치수문자_일반주서
 62
     0
100
AcDbTrace
 10
-53.73283333333335
 20
8.064499999999855
 30
0.0
 11
-52.63216666666668
 21
8.064499999999859
 31
0.0
 12
-53.1825
 22
4.762499999999857
 32
0.0
 13
-53.1825
 23
4.762499999999857
 33
0.0
  0
SOLID
  5
EA
330
E0
100
AcDbEntity
  8
치수문자_일반주서
 62
     0
100
AcDbTrace
 10
-52.63216666666662
 20
-8.06450000000014
 30
0.0
 11
-53.73283333333329
 21
-8.064500000000143
 31
0.0
 12
-53.18249999999997
 22
-4.762500000000141
 32
0.0
 13
-53.18249999999997
 23
-4.762500000000141
 33
0.0
  0
MTEXT
  5
EB
330
E0
100
AcDbEntity
  8
치수문자_일반주서
 62
     0
100
AcDbMText
 10
-57.55750000000008
 20
24.71024999999993
 30
0.0
 40
3.5
 41
0.0
 71
     2
 72
     1
  1
\A1;%%c9.53 [3/8]
  7
SLDTEXTSTYLE0
 11
-3.729883127349608E-15
 21
1.0
 31
0.0
 73
     1
 44
1.0
  0
POINT
  5
2FB
330
E0
100
AcDbEntity
  8
Defpoints
 62
     0
100
AcDbPoint
 10
-17.20689635022272
 20
4.762499999999991
 30
0.0
  0
POINT
  5
2FC
330
E0
100
AcDbEntity
  8
Defpoints
 62
     0
100
AcDbPoint
 10
-17.20689635022272
 20
-4.762500000000007
 30
0.0
  0
POINT
  5
2FD
330
E0
100
AcDbEntity
  8
Defpoints
 62
     0
100
AcDbPoint
 10
-53.18249999999999
 20
-4.762500000000141
 30
0.0
  0
ENDBLK
  5
E2
330
E0
100
AcDbEntity
  8
0
100
AcDbBlockEnd
  0
BLOCK
  5
F5
330
F4
100
AcDbEntity
  8
0
100
AcDbBlockBegin
  2
_D_1
 70
     0
 10
0.0
 20
0.0
 30
0.0
  3
_D_1
  1
_D_1
  0
LINE
  5
F7
330
F4
100
AcDbEntity
  8
치수문자_일반주서
 62
     0
370
    -2
100
AcDbLine
 10
39.75000000000001
 20
-1.982697836471325
 30
0.0
 11
56.87150197508897
 21
-1.98269783647126
 31
0.0
  0
LINE
  5
F8
330
F4
100
AcDbEntity
  8
치수문자_일반주서
 62
     0
370
    -2
100
AcDbLine
 10
39.75000000000001
 20
1.982697836471325
 30
0.0
 11
56.87150197508895
 21
1.982697836471388
 31
0.0
  0
LINE
  5
F9
330
F4
100
AcDbEntity
  8
치수문자_일반주서
 62
     0
370
    -2
100
AcDbLine
 10
56.87150197508895
 20
1.982697836471388
 30
0.0
 11
56.87150197508883
 21
37.46169783647139
 31
0.0
  0
LINE
  5
FA
330
F4
100
AcDbEntity
  8
치수문자_일반주서
 62
     0
370
    -2
100
AcDbLine
 10
56.87150197508897
 20
-1.98269783647126
 30
0.0
 11
56.87150197508895
 21
1.982697836471388
 31
0.0
  0
LINE
  5
FB
330
F4
100
AcDbEntity
  8
치수문자_일반주서
 62
     0
370
    -2
100
AcDbLine
 10
56.87150197508898
 20
-5.28469783647126
 30
0.0
 11
56.871501975089
 21
-8.58669783647126
 31
0.0
  0
LINE
  5
FC
330
F4
100
AcDbEntity
  8
치수문자_일반주서
 62
     0
370
    -2
100
AcDbLine
 10
56.87150197508894
 20
5.284697836471388
 30
0.0
 11
56.87150197508893
 21
8.586697836471387
 31
0.0
  0
SOLID
  5
FD
330
F4
100
AcDbEntity
  8
치수문자_일반주서
 62
     0
100
AcDbTrace
 10
57.42183530842232
 20
-5.284697836471258
 30
0.0
 11
56.32116864175565
 21
-5.284697836471262
 31
0.0
 12
56.87150197508897
 22
-1.98269783647126
 32
0.0
 13
56.87150197508897
 23
-1.98269783647126
 33
0.0
  0
SOLID
  5
FE
330
F4
100
AcDbEntity
  8
치수문자_일반주서
 62
     0
100
AcDbTrace
 10
56.32116864175561
 20
5.284697836471386
 30
0.0
 11
57.42183530842227
 21
5.284697836471389
 31
0.0
 12
56.87150197508895
 22
1.982697836471388
 32
0.0
 13
56.87150197508895
 23
1.982697836471388
 33
0.0
  0
MTEXT
  5
FF
330
F4
100
AcDbEntity
  8
치수문자_일반주서
 62
     0
100
AcDbMText
 10
52.49650197508888
 20
23.02419783647137
 30
0.0
 40
3.5
 41
0.0
 71
     2
 72
     1
  1
\A1;%%c3.97 [5/32]
  7
SLDTEXTSTYLE0
 11
-3.583716705035990E-15
 21
1.0
 31
0.0
 73
     1
 44
1.0
  0
POINT
  5
100
330
F4
100
AcDbEntity
  8
Defpoints
 62
     0
100
AcDbPoint
 10
39.68750000000001
 20
-1.982697836471325
 30
0.0
  0
POINT
  5
101
330
F4
100
AcDbEntity
  8
Defpoints
 62
     0
100
AcDbPoint
 10
39.68750000000001
 20
1.982697836471324
 30
0.0
  0
POINT
  5
102
330
F4
100
AcDbEntity
  8
Defpoints
 62
     0
100
AcDbPoint
 10
56.87150197508895
 20
1.982697836471389
 30
0.0
  0
ENDBLK
  5
F6
330
F4
100
AcDbEntity
  8
0
100
AcDbBlockEnd
  0
BLOCK
  5
10A
330
109
100
AcDbEntity
  8
0
100
AcDbBlockBegin
  2
_D_2
 70
     0
 10
0.0
 20
0.0
 30
0.0
  3
_D_2
  1
_D_2
  0
LINE
  5
10C
330
109
100
AcDbEntity
  8
치수문자_일반주서
 62
     0
370
    -2
100
AcDbLine
 10
39.68750000000001
 20
2.045197836471324
 30
0.0
 11
39.68750000000001
 21
21.61389839985791
 31
0.0
  0
LINE
  5
10D
330
109
100
AcDbEntity
  8
치수문자_일반주서
 62
     0
370
    -2
100
AcDbLine
 10
28.57499999999997
 20
1.563999545581161
 30
0.0
 11
28.57499999999997
 21
21.61389839985791
 31
0.0
  0
LINE
  5
10E
330
109
100
AcDbEntity
  8
치수문자_일반주서
 62
     0
370
    -2
100
AcDbLine
 10
28.57499999999997
 20
21.61389839985791
 30
0.0
 11
-2.529000000000028
 21
21.61389839985791
 31
0.0
  0
LINE
  5
10F
330
109
100
AcDbEntity
  8
치수문자_일반주서
 62
     0
370
    -2
100
AcDbLine
 10
39.68750000000001
 20
21.61389839985791
 30
0.0
 11
28.57499999999997
 21
21.61389839985791
 31
0.0
  0
LINE
  5
110
330
109
100
AcDbEntity
  8
치수문자_일반주서
 62
     0
370
    -2
100
AcDbLine
 10
42.98950000000001
 20
21.61389839985791
 30
0.0
 11
46.29150000000001
 21
21.61389839985791
 31
0.0
  0
LINE
  5
111
330
109
100
AcDbEntity
  8
치수문자_일반주서
 62
     0
370
    -2
100
AcDbLine
 10
25.27299999999997
 20
21.61389839985791
 30
0.0
 11
21.97099999999997
 21
21.61389839985791
 31
0.0
  0
SOLID
  5
112
330
109
100
AcDbEntity
  8
치수문자_일반주서
 62
     0
100
AcDbTrace
 10
42.98950000000001
 20
22.16423173319124
 30
0.0
 11
42.98950000000001
 21
21.06356506652457
 31
0.0
 12
39.68750000000001
 22
21.61389839985791
 32
0.0
 13
39.68750000000001
 23
21.61389839985791
 33
0.0
  0
SOLID
  5
113
330
109
100
AcDbEntity
  8
치수문자_일반주서
 62
     0
100
AcDbTrace
 10
25.27299999999997
 20
21.06356506652457
 30
0.0
 11
25.27299999999997
 21
22.16423173319124
 31
0.0
 12
28.57499999999997
 22
21.61389839985791
 32
0.0
 13
28.57499999999997
 23
21.61389839985791
 33
0.0
  0
MTEXT
  5
114
330
109
100
AcDbEntity
  8
치수문자_일반주서
 62
     0
100
AcDbMText
 10
9.720999999999972
 20
25.98889839985791
 30
0.0
 40
3.5
 41
0.0
 71
     2
 72
     1
  1
\A1;11.11 [7/16]
  7
SLDTEXTSTYLE0
 73
     1
 44
1.0
  0
POINT
  5
115
330
109
100
AcDbEntity
  8
Defpoints
 62
     0
100
AcDbPoint
 10
39.68750000000001
 20
1.982697836471324
 30
0.0
  0
POINT
  5
116
330
109
100
AcDbEntity
  8
Defpoints
 62
     0
100
AcDbPoint
 10
28.57499999999997
 20
1.501499545581161
 30
0.0
  0
POINT
  5
117
330
109
100
AcDbEntity
  8
Defpoints
 62
     0
100
AcDbPoint
 10
28.57499999999997
 20
21.61389839985791
 30
0.0
  0
ENDBLK
  5
10B
330
109
100
AcDbEntity
  8
0
100
AcDbBlockEnd
  0
BLOCK
  5
11E
330
11D
100
AcDbEntity
  8
0
100
AcDbBlockBegin
  2
_D_3
 70
     0
 10
0.0
 20
0.0
 30
0.0
  3
_D_3
  1
_D_3
  0
LINE
  5
120
330
11D
100
AcDbEntity
  8
치수문자_일반주서
 62
     0
370
    -2
100
AcDbLine
 10
-39.68749999999999
 20
2.04519783647132
 30
0.0
 11
-39.68749999999999
 21
38.38250000000002
 31
0.0
  0
LINE
  5
121
330
11D
100
AcDbEntity
  8
치수문자_일반주서
 62
     0
370
    -2
100
AcDbLine
 10
39.68750000000001
 20
2.045197836471324
 30
0.0
 11
39.68750000000001
 21
38.38250000000002
 31
0.0
  0
LINE
  5
122
330
11D
100
AcDbEntity
  8
치수문자_일반주서
 62
     0
370
    -2
100
AcDbLine
 10
-36.38549999999999
 20
38.38250000000002
 30
0.0
 11
36.38550000000001
 21
38.38250000000002
 31
0.0
  0
SOLID
  5
123
330
11D
100
AcDbEntity
  8
치수문자_일반주서
 62
     0
100
AcDbTrace
 10
-36.38549999999999
 20
38.93283333333336
 30
0.0
 11
-36.38549999999999
 21
37.83216666666669
 31
0.0
 12
-39.68749999999999
 22
38.38250000000002
 32
0.0
 13
-39.68749999999999
 23
38.38250000000002
 33
0.0
  0
SOLID
  5
124
330
11D
100
AcDbEntity
  8
치수문자_일반주서
 62
     0
100
AcDbTrace
 10
36.38550000000001
 20
37.83216666666669
 30
0.0
 11
36.38550000000001
 21
38.93283333333336
 31
0.0
 12
39.68750000000001
 22
38.38250000000002
 32
0.0
 13
39.68750000000001
 23
38.38250000000002
 33
0.0
  0
MTEXT
  5
125
330
11D
100
AcDbEntity
  8
치수문자_일반주서
 62
     0
100
AcDbMText
 10
0.0000000000000178
 20
42.75750000000002
 30
0.0
 40
3.5
 41
0.0
 71
     2
 72
     1
  1
\A1;79.38 [3 1/8]
  7
SLDTEXTSTYLE0
 73
     1
 44
1.0
  0
POINT
  5
126
330
11D
100
AcDbEntity
  8
Defpoints
 62
     0
100
AcDbPoint
 10
-39.68749999999999
 20
1.98269783647132
 30
0.0
  0
POINT
  5
127
330
11D
100
AcDbEntity
  8
Defpoints
 62
     0
100
AcDbPoint
 10
39.68750000000001
 20
1.982697836471324
 30
0.0
  0
POINT
  5
128
330
11D
100
AcDbEntity
  8
Defpoints
 62
     0
100
AcDbPoint
 10
39.68750000000001
 20
38.38250000000002
 30
0.0
  0
ENDBLK
  5
11F
330
11D
100
AcDbEntity
  8
0
100
AcDbBlockEnd
  0
BLOCK
  5
137
330
136
100
AcDbEntity
  8
0
100
AcDbBlockBegin
  2
SW_DOWELSYMBOL_0
 70
     0
 10
0.0
 20
0.0
 30
0.0
  3
SW_DOWELSYMBOL_0
  1
SW_DOWELSYMBOL_0
  0
CIRCLE
  5
139
330
136
100
AcDbEntity
  8
해칭선
 62
     0
100
AcDbCircle
 10
0.0
 20
0.0
 30
0.0
 40
3.000000000000001
  0
HATCH
  5
13A
330
136
100
AcDbEntity
  8
0
  6
Continuous
 62
     0
370
     0
100
AcDbHatch
 10
0.0
 20
0.0
 30
0.0
210
0.0
220
0.0
230
1.0
  2
SOLID
 70
     1
 71
     0
 91
        1
 92
        0
 93
        3
 72
     2
 10
0.0
 20
0.0
 40
3.000000000000001
 50
0.0
 51
90.0
 73
     1
 72
     1
 10
0.0
 20
3.000000000000001
 11
0.0
 21
0.0
 72
     1
 10
0.0
 20
0.0
 11
3.000000000000001
 21
0.0
 97
        0
 75
     0
 76
     1
 98
        1
 10
0.0
 20
0.0
  0
HATCH
  5
13B
330
136
100
AcDbEntity
  8
0
  6
Continuous
 62
     0
370
     0
100
AcDbHatch
 10
0.0
 20
0.0
 30
0.0
210
0.0
220
0.0
230
1.0
  2
SOLID
 70
     1
 71
     0
 91
        1
 92
        0
 93
        3
 72
     2
 10
0.0
 20
0.0
 40
3.000000000000001
 50
180.0
 51
270.0000000000007
 73
     1
 72
     1
 10
0.0
 20
-3.000000000000001
 11
0.0
 21
0.0
 72
     1
 10
0.0
 20
0.0
 11
-3.000000000000001
 21
0.0
 97
        0
 75
     0
 76
     1
 98
        1
 10
0.0
 20
0.0
  0
ENDBLK
  5
138
330
136
100
AcDbEntity
  8
0
100
AcDbBlockEnd
  0
BLOCK
  5
227
330
226
100
AcDbEntity
  8
0
100
AcDbBlockBegin
  2
_D_4
 70
     0
 10
0.0
 20
0.0
 30
0.0
  3
_D_4
  1
_D_4
  0
LINE
  5
228
330
226
100
AcDbEntity
  8
치수문자_일반주서
 62
     0
370
    -2
100
AcDbLine
 10
102.4375000000001
 20
36.22143424691529
 30
0.0
 11
117.3750000000001
 21
36.22143424691535
 31
0.0
  0
LINE
  5
229
330
226
100
AcDbEntity
  8
치수문자_일반주서
 62
     0
370
    -2
100
AcDbLine
 10
102.4375000000001
 20
22.22143424691529
 30
0.0
 11
117.3750000000001
 21
22.22143424691535
 31
0.0
  0
LINE
  5
22A
330
226
100
AcDbEntity
  8
치수문자_일반주서
 62
     0
370
    -2
100
AcDbLine
 10
117.3750000000001
 20
36.22143424691535
 30
0.0
 11
117.3750000000001
 21
22.22143424691535
 31
0.0
  0
LINE
  5
22B
330
226
100
AcDbEntity
  8
치수문자_일반주서
 62
     0
370
    -2
100
AcDbLine
 10
117.3750000000001
 20
39.52343424691535
 30
0.0
 11
117.375
 21
42.82543424691535
 31
0.0
  0
LINE
  5
22C
330
226
100
AcDbEntity
  8
치수문자_일반주서
 62
     0
370
    -2
100
AcDbLine
 10
117.3750000000001
 20
18.91943424691535
 30
0.0
 11
117.3750000000001
 21
15.61743424691535
 31
0.0
  0
SOLID
  5
22D
330
226
100
AcDbEntity
  8
치수문자_일반주서
 62
     0
100
AcDbTrace
 10
116.8246666666667
 20
39.52343424691535
 30
0.0
 11
117.9253333333334
 21
39.52343424691535
 31
0.0
 12
117.3750000000001
 22
36.22143424691535
 32
0.0
 13
117.3750000000001
 23
36.22143424691535
 33
0.0
  0
SOLID
  5
22E
330
226
100
AcDbEntity
  8
치수문자_일반주서
 62
     0
100
AcDbTrace
 10
117.9253333333335
 20
18.91943424691535
 30
0.0
 11
116.8246666666668
 21
18.91943424691535
 31
0.0
 12
117.3750000000001
 22
22.22143424691535
 32
0.0
 13
117.3750000000001
 23
22.22143424691535
 33
0.0
  0
MTEXT
  5
22F
330
226
100
AcDbEntity
  8
치수문자_일반주서
 62
     0
100
AcDbMText
 10
113.0000000000001
 20
29.28713862862833
 30
0.0
 40
3.5
 41
0.0
 71
     2
 72
     1
  1
\A1;%%c14
  7
SLDTEXTSTYLE0
 11
-3.045183153257572E-15
 21
1.0
 31
0.0
 73
     1
 44
1.0
  0
POINT
  5
230
330
226
100
AcDbEntity
  8
Defpoints
 62
     0
100
AcDbPoint
 10
102.3750000000001
 20
36.22143424691529
 30
0.0
  0
POINT
  5
231
330
226
100
AcDbEntity
  8
Defpoints
 62
     0
100
AcDbPoint
 10
102.3750000000001
 20
22.22143424691529
 30
0.0
  0
POINT
  5
232
330
226
100
AcDbEntity
  8
Defpoints
 62
     0
100
AcDbPoint
 10
117.3750000000001
 20
22.22143424691535
 30
0.0
  0
ENDBLK
  5
233
330
226
100
AcDbEntity
  8
0
100
AcDbBlockEnd
  0
BLOCK
  5
241
330
240
100
AcDbEntity
  8
0
100
AcDbBlockBegin
  2
*D8
 70
     1
 10
0.0
 20
0.0
 30
0.0
  3
*D8
  1
*D8
  0
LINE
  5
242
330
240
100
AcDbEntity
  8
치수문자_일반주서
 62
     0
370
    -2
100
AcDbLine
 10
103.8657751816695
 20
19.48229575403651
 30
0.0
 11
119.6194267469468
 21
-6.150060756304035
 31
0.0
  0
MTEXT
  5
243
330
240
100
AcDbEntity
  8
치수문자_일반주서
 62
     0
100
AcDbMText
 10
115.6706384014277
 20
5.288158154535728
 30
0.0
 40
3.5
 41
0.0
 71
     5
 72
     1
  1
\A1;R.5 [R0.02]
  7
SLDTEXTSTYLE0
 11
0.5236126201129557
 21
-0.8519564684057781
 31
0.0
 73
     1
 44
1.0
  0
SOLID
  5
244
330
240
100
AcDbEntity
  8
치수문자_일반주서
 62
     0
100
AcDbTrace
 10
104.3346352247821
 20
19.77045723263868
 30
0.0
 11
103.3969151385569
 21
19.19413427543435
 31
0.0
 12
102.1368063100565
 22
22.29545601271239
 32
0.0
 13
102.1368063100565
 23
22.29545601271239
 33
0.0
  0
LINE
  5
245
330
240
100
AcDbEntity
  8
치수문자_일반주서
 62
     0
100
AcDbLine
 10
101.785
 20
22.72143424691529
 30
0.0
 11
101.965
 21
22.72143424691529
 31
0.0
  0
LINE
  5
246
330
240
100
AcDbEntity
  8
치수문자_일반주서
 62
     0
100
AcDbLine
 10
101.875
 20
22.63143424691529
 30
0.0
 11
101.875
 21
22.81143424691529
 31
0.0
  0
POINT
  5
270
330
240
100
AcDbEntity
  8
Defpoints
 62
     0
100
AcDbPoint
 10
102.1368063100565
 20
22.29545601271239
 30
0.0
  0
POINT
  5
271
330
240
100
AcDbEntity
  8
Defpoints
 62
     0
100
AcDbPoint
 10
101.875
 20
22.72143424691529
 30
0.0
  0
ENDBLK
  5
247
330
240
100
AcDbEntity
  8
0
100
AcDbBlockEnd
  0
BLOCK
  5
24B
330
24A
100
AcDbEntity
  8
0
100
AcDbBlockBegin
  2
*D9
 70
     1
 10
0.0
 20
0.0
 30
0.0
  3
*D9
  1
*D11
  0
LINE
  5
24D
330
24A
100
AcDbEntity
  8
치수문자_일반주서
 62
     0
370
    -2
100
AcDbLine
 10
19.37500000000004
 20
35.78393424691529
 30
0.0
 11
19.37500000000004
 21
70.88391841499404
 31
0.0
  0
LINE
  5
24E
330
24A
100
AcDbEntity
  8
치수문자_일반주서
 62
     0
370
    -2
100
AcDbLine
 10
102.3750000000001
 20
36.34643424691529
 30
0.0
 11
102.3750000000001
 21
70.88391841499404
 31
0.0
  0
LINE
  5
24F
330
24A
100
AcDbEntity
  8
치수문자_일반주서
 62
     0
370
    -2
100
AcDbLine
 10
22.67700000000004
 20
70.88391841499404
 30
0.0
 11
99.07300000000006
 21
70.88391841499404
 31
0.0
  0
SOLID
  5
250
330
24A
100
AcDbEntity
  8
치수문자_일반주서
 62
     0
100
AcDbTrace
 10
22.67700000000004
 20
71.43425174832737
 30
0.0
 11
22.67700000000004
 21
70.33358508166071
 31
0.0
 12
19.37500000000004
 22
70.88391841499404
 32
0.0
 13
19.37500000000004
 23
70.88391841499404
 33
0.0
  0
SOLID
  5
251
330
24A
100
AcDbEntity
  8
치수문자_일반주서
 62
     0
100
AcDbTrace
 10
99.07300000000006
 20
70.33358508166071
 30
0.0
 11
99.07300000000006
 21
71.43425174832737
 31
0.0
 12
102.3750000000001
 22
70.88391841499404
 32
0.0
 13
102.3750000000001
 23
70.88391841499404
 33
0.0
  0
MTEXT
  5
252
330
24A
100
AcDbEntity
  8
치수문자_일반주서
 62
     0
100
AcDbMText
 10
60.87500000000005
 20
75.25891841499404
 30
0.0
 40
3.5
 41
0.0
 71
     2
 72
     1
  1
\A1;83 [3.27]
  7
SLDTEXTSTYLE0
 73
     1
 44
1.0
  0
POINT
  5
253
330
24A
100
AcDbEntity
  8
Defpoints
 62
     0
100
AcDbPoint
 10
19.37500000000004
 20
35.72143424691529
 30
0.0
  0
POINT
  5
254
330
24A
100
AcDbEntity
  8
Defpoints
 62
     0
100
AcDbPoint
 10
102.3750000000001
 20
36.28393424691529
 30
0.0
  0
POINT
  5
255
330
24A
100
AcDbEntity
  8
Defpoints
 62
     0
100
AcDbPoint
 10
102.3750000000001
 20
70.88391841499404
 30
0.0
  0
ENDBLK
  5
24C
330
24A
100
AcDbEntity
  8
0
100
AcDbBlockEnd
  0
BLOCK
  5
257
330
256
100
AcDbEntity
  8
0
100
AcDbBlockBegin
  2
*D10
 70
     1
 10
0.0
 20
0.0
 30
0.0
  3
*D10
  1
*D12
  0
LINE
  5
259
330
256
100
AcDbEntity
  8
치수문자_일반주서
 62
     0
370
    -2
100
AcDbLine
 10
76.37504186422882
 20
28.62038676313042
 30
0.0
 11
76.37504186422882
 21
61.90091383617725
 31
0.0
  0
LINE
  5
25A
330
256
100
AcDbEntity
  8
치수문자_일반주서
 62
     0
370
    -2
100
AcDbLine
 10
102.3750000000001
 20
36.28393424691529
 30
0.0
 11
102.3750000000001
 21
61.90091383617725
 31
0.0
  0
LINE
  5
25B
330
256
100
AcDbEntity
  8
치수문자_일반주서
 62
     0
370
    -2
100
AcDbLine
 10
79.67704186422881
 20
61.90091383617725
 30
0.0
 11
99.07300000000006
 21
61.90091383617725
 31
0.0
  0
SOLID
  5
25C
330
256
100
AcDbEntity
  8
치수문자_일반주서
 62
     0
100
AcDbTrace
 10
79.67704186422881
 20
62.45124716951059
 30
0.0
 11
79.67704186422881
 21
61.35058050284392
 31
0.0
 12
76.37504186422882
 22
61.90091383617725
 32
0.0
 13
76.37504186422882
 23
61.90091383617725
 33
0.0
  0
SOLID
  5
25D
330
256
100
AcDbEntity
  8
치수문자_일반주서
 62
     0
100
AcDbTrace
 10
99.07300000000006
 20
61.35058050284392
 30
0.0
 11
99.07300000000006
 21
62.45124716951059
 31
0.0
 12
102.3750000000001
 22
61.90091383617725
 32
0.0
 13
102.3750000000001
 23
61.90091383617725
 33
0.0
  0
MTEXT
  5
25E
330
256
100
AcDbEntity
  8
치수문자_일반주서
 62
     0
100
AcDbMText
 10
89.42159572693208
 20
66.27591383617725
 30
0.0
 40
3.5
 41
0.0
 71
     2
 72
     1
  1
\A1;26 [1.02]
  7
SLDTEXTSTYLE0
 73
     1
 44
1.0
  0
POINT
  5
25F
330
256
100
AcDbEntity
  8
Defpoints
 62
     0
100
AcDbPoint
 10
76.37504186422882
 20
28.55788676313042
 30
0.0
  0
POINT
  5
260
330
256
100
AcDbEntity
  8
Defpoints
 62
     0
100
AcDbPoint
 10
102.3750000000001
 20
36.22143424691529
 30
0.0
  0
POINT
  5
261
330
256
100
AcDbEntity
  8
Defpoints
 62
     0
100
AcDbPoint
 10
102.3750000000001
 20
61.90091383617725
 30
0.0
  0
ENDBLK
  5
258
330
256
100
AcDbEntity
  8
0
100
AcDbBlockEnd
  0
BLOCK
  5
263
330
262
100
AcDbEntity
  8
0
100
AcDbBlockBegin
  2
*D11
 70
     1
 10
0.0
 20
0.0
 30
0.0
  3
*D11
  1
*D13
  0
LINE
  5
265
330
262
100
AcDbEntity
  8
치수문자_일반주서
 62
     0
370
    -2
100
AcDbLine
 10
19.81250000000005
 20
36.22143424691529
 30
0.0
 11
4.374999999999983
 21
36.22143424691524
 31
0.0
  0
LINE
  5
266
330
262
100
AcDbEntity
  8
치수문자_일반주서
 62
     0
370
    -2
100
AcDbLine
 10
19.81250000000005
 20
22.22143424691529
 30
0.0
 11
4.375000000000032
 21
22.22143424691524
 31
0.0
  0
LINE
  5
267
330
262
100
AcDbEntity
  8
치수문자_일반주서
 62
     0
370
    -2
100
AcDbLine
 10
4.374999999999983
 20
36.22143424691524
 30
0.0
 11
4.375000000000032
 21
22.22143424691524
 31
0.0
  0
LINE
  5
268
330
262
100
AcDbEntity
  8
치수문자_일반주서
 62
     0
370
    -2
100
AcDbLine
 10
4.374999999999972
 20
39.52343424691524
 30
0.0
 11
4.37499999999996
 21
42.82543424691524
 31
0.0
  0
LINE
  5
269
330
262
100
AcDbEntity
  8
치수문자_일반주서
 62
     0
370
    -2
100
AcDbLine
 10
4.375000000000044
 20
18.91943424691524
 30
0.0
 11
4.375000000000055
 21
15.61743424691524
 31
0.0
  0
SOLID
  5
26A
330
262
100
AcDbEntity
  8
치수문자_일반주서
 62
     0
100
AcDbTrace
 10
3.824666666666638
 20
39.52343424691524
 30
0.0
 11
4.925333333333305
 21
39.52343424691524
 31
0.0
 12
4.374999999999983
 22
36.22143424691524
 32
0.0
 13
4.374999999999983
 23
36.22143424691524
 33
0.0
  0
SOLID
  5
26B
330
262
100
AcDbEntity
  8
치수문자_일반주서
 62
     0
100
AcDbTrace
 10
4.925333333333377
 20
18.91943424691524
 30
0.0
 11
3.82466666666671
 21
18.91943424691523
 31
0.0
 12
4.375000000000032
 22
22.22143424691524
 32
0.0
 13
4.375000000000032
 23
22.22143424691524
 33
0.0
  0
MTEXT
  5
26C
330
262
100
AcDbEntity
  8
치수문자_일반주서
 62
     0
100
AcDbMText
 10
0.0000000000000071
 20
29.22143424691528
 30
0.0
 40
3.5
 41
0.0
 71
     2
 72
     1
  1
\A1;%%c14
  7
SLDTEXTSTYLE0
 11
-3.489272363107635E-15
 21
1.0
 31
0.0
 73
     1
 44
1.0
  0
POINT
  5
26D
330
262
100
AcDbEntity
  8
Defpoints
 62
     0
100
AcDbPoint
 10
19.87500000000005
 20
36.22143424691529
 30
0.0
  0
POINT
  5
26E
330
262
100
AcDbEntity
  8
Defpoints
 62
     0
100
AcDbPoint
 10
19.87500000000005
 20
22.22143424691529
 30
0.0
  0
POINT
  5
26F
330
262
100
AcDbEntity
  8
Defpoints
 62
     0
100
AcDbPoint
 10
4.375000000000043
 20
22.22143424691524
 30
0.0
  0
ENDBLK
  5
264
330
262
100
AcDbEntity
  8
0
100
AcDbBlockEnd
  0
BLOCK
  5
2BE
330
2BD
100
AcDbEntity
  8
0
100
AcDbBlockBegin
  2
*D12
 70
     1
 10
0.0
 20
0.0
 30
0.0
  3
*D12
  1
*D14
  0
LINE
  5
2C0
330
2BD
100
AcDbEntity
  8
치수문자_일반주서
 62
     0
370
    -2
100
AcDbLine
 10
-103.4596590118139
 20
105.8326803526673
 30
0.0
 11
-103.4596590118139
 21
140.9326645207461
 31
0.0
  0
LINE
  5
2C1
330
2BD
100
AcDbEntity
  8
치수문자_일반주서
 62
     0
370
    -2
100
AcDbLine
 10
-20.4596590118139
 20
106.3951803526673
 30
0.0
 11
-20.4596590118139
 21
140.9326645207461
 31
0.0
  0
LINE
  5
2C2
330
2BD
100
AcDbEntity
  8
치수문자_일반주서
 62
     0
370
    -2
100
AcDbLine
 10
-100.1576590118139
 20
140.9326645207461
 30
0.0
 11
-23.7616590118139
 21
140.9326645207461
 31
0.0
  0
SOLID
  5
2C3
330
2BD
100
AcDbEntity
  8
치수문자_일반주서
 62
     0
100
AcDbTrace
 10
-100.1576590118139
 20
141.4829978540794
 30
0.0
 11
-100.1576590118139
 21
140.3823311874127
 31
0.0
 12
-103.4596590118139
 22
140.9326645207461
 32
0.0
 13
-103.4596590118139
 23
140.9326645207461
 33
0.0
  0
SOLID
  5
2C4
330
2BD
100
AcDbEntity
  8
치수문자_일반주서
 62
     0
100
AcDbTrace
 10
-23.7616590118139
 20
140.3823311874127
 30
0.0
 11
-23.7616590118139
 21
141.4829978540794
 31
0.0
 12
-20.4596590118139
 22
140.9326645207461
 32
0.0
 13
-20.4596590118139
 23
140.9326645207461
 33
0.0
  0
MTEXT
  5
2C5
330
2BD
100
AcDbEntity
  8
치수문자_일반주서
 62
     0
100
AcDbMText
 10
-61.9596590118139
 20
145.3076645207461
 30
0.0
 40
3.5
 41
0.0
 71
     2
 72
     1
  1
\A1;83 [3.27]
  7
SLDTEXTSTYLE0
 73
     1
 44
1.0
  0
POINT
  5
2C6
330
2BD
100
AcDbEntity
  8
Defpoints
 62
     0
100
AcDbPoint
 10
-103.4596590118139
 20
105.7701803526673
 30
0.0
  0
POINT
  5
2C7
330
2BD
100
AcDbEntity
  8
Defpoints
 62
     0
100
AcDbPoint
 10
-20.4596590118139
 20
106.3326803526673
 30
0.0
  0
POINT
  5
2C8
330
2BD
100
AcDbEntity
  8
Defpoints
 62
     0
100
AcDbPoint
 10
-20.4596590118139
 20
140.9326645207461
 30
0.0
  0
ENDBLK
  5
2BF
330
2BD
100
AcDbEntity
  8
0
100
AcDbBlockEnd
  0
BLOCK
  5
2CA
330
2C9
100
AcDbEntity
  8
0
100
AcDbBlockBegin
  2
*D13
 70
     1
 10
0.0
 20
0.0
 30
0.0
  3
*D13
  1
*D15
  0
LINE
  5
2CC
330
2C9
100
AcDbEntity
  8
치수문자_일반주서
 62
     0
370
    -2
100
AcDbLine
 10
-46.45961714758513
 20
98.66913286888244
 30
0.0
 11
-46.45961714758513
 21
131.9496599419293
 31
0.0
  0
LINE
  5
2CD
330
2C9
100
AcDbEntity
  8
치수문자_일반주서
 62
     0
370
    -2
100
AcDbLine
 10
-20.4596590118139
 20
106.3326803526673
 30
0.0
 11
-20.4596590118139
 21
131.9496599419293
 31
0.0
  0
LINE
  5
2CE
330
2C9
100
AcDbEntity
  8
치수문자_일반주서
 62
     0
370
    -2
100
AcDbLine
 10
-43.15761714758514
 20
131.9496599419293
 30
0.0
 11
-23.7616590118139
 21
131.9496599419293
 31
0.0
  0
SOLID
  5
2CF
330
2C9
100
AcDbEntity
  8
치수문자_일반주서
 62
     0
100
AcDbTrace
 10
-43.15761714758514
 20
132.4999932752626
 30
0.0
 11
-43.15761714758514
 21
131.3993266085959
 31
0.0
 12
-46.45961714758513
 22
131.9496599419293
 32
0.0
 13
-46.45961714758513
 23
131.9496599419293
 33
0.0
  0
SOLID
  5
2D0
330
2C9
100
AcDbEntity
  8
치수문자_일반주서
 62
     0
100
AcDbTrace
 10
-23.7616590118139
 20
131.3993266085959
 30
0.0
 11
-23.7616590118139
 21
132.4999932752626
 31
0.0
 12
-20.4596590118139
 22
131.9496599419293
 32
0.0
 13
-20.4596590118139
 23
131.9496599419293
 33
0.0
  0
MTEXT
  5
2D1
330
2C9
100
AcDbEntity
  8
치수문자_일반주서
 62
     0
100
AcDbMText
 10
-33.41306328488187
 20
136.3246599419293
 30
0.0
 40
3.5
 41
0.0
 71
     2
 72
     1
  1
\A1;26 [1.02]
  7
SLDTEXTSTYLE0
 73
     1
 44
1.0
  0
POINT
  5
2D2
330
2C9
100
AcDbEntity
  8
Defpoints
 62
     0
100
AcDbPoint
 10
-46.45961714758513
 20
98.60663286888244
 30
0.0
  0
POINT
  5
2D3
330
2C9
100
AcDbEntity
  8
Defpoints
 62
     0
100
AcDbPoint
 10
-20.4596590118139
 20
106.2701803526673
 30
0.0
  0
POINT
  5
2D4
330
2C9
100
AcDbEntity
  8
Defpoints
 62
     0
100
AcDbPoint
 10
-20.4596590118139
 20
131.9496599419293
 30
0.0
  0
ENDBLK
  5
2CB
330
2C9
100
AcDbEntity
  8
0
100
AcDbBlockEnd
  0
BLOCK
  5
2D6
330
2D5
100
AcDbEntity
  8
0
100
AcDbBlockBegin
  2
*D14
 70
     1
 10
0.0
 20
0.0
 30
0.0
  3
*D14
  1
*D16
  0
LINE
  5
2D8
330
2D5
100
AcDbEntity
  8
치수문자_일반주서
 62
     0
370
    -2
100
AcDbLine
 10
-103.0221590118139
 20
106.2701803526673
 30
0.0
 11
-118.459659011814
 21
106.2701803526673
 31
0.0
  0
LINE
  5
2D9
330
2D5
100
AcDbEntity
  8
치수문자_일반주서
 62
     0
370
    -2
100
AcDbLine
 10
-103.0221590118139
 20
92.27018035266731
 30
0.0
 11
-118.4596590118139
 21
92.27018035266725
 31
0.0
  0
LINE
  5
2DA
330
2D5
100
AcDbEntity
  8
치수문자_일반주서
 62
     0
370
    -2
100
AcDbLine
 10
-118.459659011814
 20
106.2701803526673
 30
0.0
 11
-118.4596590118139
 21
92.27018035266725
 31
0.0
  0
LINE
  5
2DB
330
2D5
100
AcDbEntity
  8
치수문자_일반주서
 62
     0
370
    -2
100
AcDbLine
 10
-118.459659011814
 20
109.5721803526673
 30
0.0
 11
-118.459659011814
 21
112.8741803526673
 31
0.0
  0
LINE
  5
2DC
330
2D5
100
AcDbEntity
  8
치수문자_일반주서
 62
     0
370
    -2
100
AcDbLine
 10
-118.4596590118139
 20
88.96818035266725
 30
0.0
 11
-118.4596590118139
 21
85.66618035266724
 31
0.0
  0
SOLID
  5
2DD
330
2D5
100
AcDbEntity
  8
치수문자_일반주서
 62
     0
100
AcDbTrace
 10
-119.0099923451473
 20
109.5721803526673
 30
0.0
 11
-117.9093256784807
 21
109.5721803526673
 31
0.0
 12
-118.459659011814
 22
106.2701803526673
 32
0.0
 13
-118.459659011814
 23
106.2701803526673
 33
0.0
  0
SOLID
  5
2DE
330
2D5
100
AcDbEntity
  8
치수문자_일반주서
 62
     0
100
AcDbTrace
 10
-117.9093256784806
 20
88.96818035266725
 30
0.0
 11
-119.0099923451472
 21
88.96818035266725
 31
0.0
 12
-118.4596590118139
 22
92.27018035266725
 32
0.0
 13
-118.4596590118139
 23
92.27018035266725
 33
0.0
  0
MTEXT
  5
2DF
330
2D5
100
AcDbEntity
  8
치수문자_일반주서
 62
     0
100
AcDbMText
 10
-122.834659011814
 20
99.2701803526673
 30
0.0
 40
3.5
 41
0.0
 71
     2
 72
     1
  1
\A1;%%c14
  7
SLDTEXTSTYLE0
 11
-3.045183153257572E-15
 21
1.0
 31
0.0
 73
     1
 44
1.0
  0
POINT
  5
2E0
330
2D5
100
AcDbEntity
  8
Defpoints
 62
     0
100
AcDbPoint
 10
-102.9596590118139
 20
106.2701803526673
 30
0.0
  0
POINT
  5
2E1
330
2D5
100
AcDbEntity
  8
Defpoints
 62
     0
100
AcDbPoint
 10
-102.9596590118139
 20
92.27018035266731
 30
0.0
  0
POINT
  5
2E2
330
2D5
100
AcDbEntity
  8
Defpoints
 62
     0
100
AcDbPoint
 10
-118.4596590118139
 20
92.27018035266725
 30
0.0
  0
ENDBLK
  5
2D7
330
2D5
100
AcDbEntity
  8
0
100
AcDbBlockEnd
  0
BLOCK
  5
2E4
330
2E3
100
AcDbEntity
  8
0
100
AcDbBlockBegin
  2
*D15
 70
     1
 10
0.0
 20
0.0
 30
0.0
  3
*D15
  1
*D17
  0
LINE
  5
2E6
330
2E3
100
AcDbEntity
  8
치수문자_일반주서
 62
     0
370
    -2
100
AcDbLine
 10
-20.39715901181388
 20
106.2701803526673
 30
0.0
 11
-5.459659011813893
 21
106.2701803526674
 31
0.0
  0
LINE
  5
2E7
330
2E3
100
AcDbEntity
  8
치수문자_일반주서
 62
     0
370
    -2
100
AcDbLine
 10
-20.3971590118139
 20
92.27018035266731
 30
0.0
 11
-5.459659011813844
 21
92.27018035266737
 31
0.0
  0
LINE
  5
2E8
330
2E3
100
AcDbEntity
  8
치수문자_일반주서
 62
     0
370
    -2
100
AcDbLine
 10
-5.459659011813893
 20
106.2701803526674
 30
0.0
 11
-5.459659011813844
 21
92.27018035266737
 31
0.0
  0
LINE
  5
2E9
330
2E3
100
AcDbEntity
  8
치수문자_일반주서
 62
     0
370
    -2
100
AcDbLine
 10
-5.459659011813905
 20
109.5721803526674
 30
0.0
 11
-5.459659011813916
 21
112.8741803526674
 31
0.0
  0
LINE
  5
2EA
330
2E3
100
AcDbEntity
  8
치수문자_일반주서
 62
     0
370
    -2
100
AcDbLine
 10
-5.459659011813833
 20
88.96818035266736
 30
0.0
 11
-5.459659011813821
 21
85.66618035266735
 31
0.0
  0
SOLID
  5
2EB
330
2E3
100
AcDbEntity
  8
치수문자_일반주서
 62
     0
100
AcDbTrace
 10
-6.009992345147238
 20
109.5721803526674
 30
0.0
 11
-4.909325678480571
 21
109.5721803526674
 31
0.0
 12
-5.459659011813893
 22
106.2701803526674
 32
0.0
 13
-5.459659011813893
 23
106.2701803526674
 33
0.0
  0
SOLID
  5
2EC
330
2E3
100
AcDbEntity
  8
치수문자_일반주서
 62
     0
100
AcDbTrace
 10
-4.909325678480499
 20
88.96818035266736
 30
0.0
 11
-6.009992345147166
 21
88.96818035266736
 31
0.0
 12
-5.459659011813844
 22
92.27018035266737
 32
0.0
 13
-5.459659011813844
 23
92.27018035266737
 33
0.0
  0
MTEXT
  5
2ED
330
2E3
100
AcDbEntity
  8
치수문자_일반주서
 62
     0
100
AcDbMText
 10
-9.83465901181387
 20
99.33588473438034
 30
0.0
 40
3.5
 41
0.0
 71
     2
 72
     1
  1
\A1;%%c14
  7
SLDTEXTSTYLE0
 11
-3.489272363107635E-15
 21
1.0
 31
0.0
 73
     1
 44
1.0
  0
POINT
  5
2EE
330
2E3
100
AcDbEntity
  8
Defpoints
 62
     0
100
AcDbPoint
 10
-20.45965901181388
 20
106.2701803526673
 30
0.0
  0
POINT
  5
2EF
330
2E3
100
AcDbEntity
  8
Defpoints
 62
     0
100
AcDbPoint
 10
-20.4596590118139
 20
92.27018035266731
 30
0.0
  0
POINT
  5
2F0
330
2E3
100
AcDbEntity
  8
Defpoints
 62
     0
100
AcDbPoint
 10
-5.459659011813841
 20
92.27018035266737
 30
0.0
  0
ENDBLK
  5
2E5
330
2E3
100
AcDbEntity
  8
0
100
AcDbBlockEnd
  0
BLOCK
  5
2F2
330
2F1
100
AcDbEntity
  8
0
100
AcDbBlockBegin
  2
*D16
 70
     1
 10
0.0
 20
0.0
 30
0.0
  3
*D16
  1
*D18
  0
LINE
  5
2F4
330
2F1
100
AcDbEntity
  8
치수문자_일반주서
 62
     0
370
    -2
100
AcDbLine
 10
-18.96888383014445
 20
89.53104185978853
 30
0.0
 11
-3.215232264867157
 21
63.89868534944797
 31
0.0
  0
MTEXT
  5
2F5
330
2F1
100
AcDbEntity
  8
치수문자_일반주서
 62
     0
100
AcDbMText
 10
-7.164020610386279
 20
75.33690426028774
 30
0.0
 40
3.5
 41
0.0
 71
     5
 72
     1
  1
\A1;R.5 [R0.02]
  7
SLDTEXTSTYLE0
 11
0.5236126201129557
 21
-0.8519564684057781
 31
0.0
 73
     1
 44
1.0
  0
SOLID
  5
2F6
330
2F1
100
AcDbEntity
  8
치수문자_일반주서
 62
     0
100
AcDbTrace
 10
-18.5000237870318
 20
89.8192033383907
 30
0.0
 11
-19.43774387325709
 21
89.24288038118637
 31
0.0
 12
-20.69785270175743
 22
92.34420211846441
 32
0.0
 13
-20.69785270175743
 23
92.34420211846441
 33
0.0
  0
LINE
  5
2F7
330
2F1
100
AcDbEntity
  8
치수문자_일반주서
 62
     0
100
AcDbLine
 10
-21.04965901181391
 20
92.77018035266731
 30
0.0
 11
-20.86965901181391
 21
92.77018035266731
 31
0.0
  0
LINE
  5
2F8
330
2F1
100
AcDbEntity
  8
치수문자_일반주서
 62
     0
100
AcDbLine
 10
-20.95965901181391
 20
92.6801803526673
 30
0.0
 11
-20.95965901181391
 21
92.86018035266731
 31
0.0
  0
POINT
  5
2F9
330
2F1
100
AcDbEntity
  8
Defpoints
 62
     0
100
AcDbPoint
 10
-20.69785270175743
 20
92.34420211846441
 30
0.0
  0
POINT
  5
2FA
330
2F1
100
AcDbEntity
  8
Defpoints
 62
     0
100
AcDbPoint
 10
-20.95965901181391
 20
92.77018035266731
 30
0.0
  0
ENDBLK
  5
2F3
330
2F1
100
AcDbEntity
  8
0
100
AcDbBlockEnd
  0
BLOCK
  5
33A
330
339
100
AcDbEntity
  8
0
100
AcDbBlockBegin
  2
*D17
 70
     1
 10
0.0
 20
0.0
 30
0.0
  3
*D17
  1
*D19
  0
LINE
  5
33C
330
339
100
AcDbEntity
  8
치수문자_일반주서
 62
     0
370
    -2
100
AcDbLine
 10
163.9016974852964
 20
-9.962790171848221
 30
0.0
 11
181.0231994603852
 21
-9.962790171848159
 31
0.0
  0
LINE
  5
33D
330
339
100
AcDbEntity
  8
치수문자_일반주서
 62
     0
370
    -2
100
AcDbLine
 10
163.9016974852964
 20
-5.997394498905571
 30
0.0
 11
181.0231994603852
 21
-5.997394498905507
 31
0.0
  0
LINE
  5
33E
330
339
100
AcDbEntity
  8
치수문자_일반주서
 62
     0
370
    -2
100
AcDbLine
 10
181.0231994603852
 20
-5.997394498905507
 30
0.0
 11
181.0231994603852
 21
26.41910550109449
 31
0.0
  0
LINE
  5
33F
330
339
100
AcDbEntity
  8
치수문자_일반주서
 62
     0
370
    -2
100
AcDbLine
 10
181.0231994603852
 20
-9.962790171848159
 30
0.0
 11
181.0231994603852
 21
-5.997394498905507
 31
0.0
  0
LINE
  5
340
330
339
100
AcDbEntity
  8
치수문자_일반주서
 62
     0
370
    -2
100
AcDbLine
 10
181.0231994603852
 20
-13.26479017184816
 30
0.0
 11
181.0231994603852
 21
-16.56679017184816
 31
0.0
  0
LINE
  5
341
330
339
100
AcDbEntity
  8
치수문자_일반주서
 62
     0
370
    -2
100
AcDbLine
 10
181.0231994603852
 20
-2.695394498905507
 30
0.0
 11
181.0231994603852
 21
0.6066055010944922
 31
0.0
  0
SOLID
  5
342
330
339
100
AcDbEntity
  8
치수문자_일반주서
 62
     0
100
AcDbTrace
 10
181.5735327937186
 20
-13.26479017184816
 30
0.0
 11
180.4728661270519
 21
-13.26479017184816
 31
0.0
 12
181.0231994603852
 22
-9.962790171848159
 32
0.0
 13
181.0231994603852
 23
-9.962790171848159
 33
0.0
  0
SOLID
  5
343
330
339
100
AcDbEntity
  8
치수문자_일반주서
 62
     0
100
AcDbTrace
 10
180.4728661270519
 20
-2.695394498905507
 30
0.0
 11
181.5735327937186
 21
-2.695394498905507
 31
0.0
 12
181.0231994603852
 22
-5.997394498905507
 32
0.0
 13
181.0231994603852
 23
-5.997394498905507
 33
0.0
  0
MTEXT
  5
344
330
339
100
AcDbEntity
  8
치수문자_일반주서
 62
     0
100
AcDbMText
 10
176.6481994603852
 20
13.51285550109449
 30
0.0
 40
3.5
 41
0.0
 71
     2
 72
     1
  1
\A1;%%c3.97 [0.16]
  7
SLDTEXTSTYLE0
 11
0.0
 21
1.0
 31
0.0
 73
     1
 44
1.0
  0
POINT
  5
345
330
339
100
AcDbEntity
  8
Defpoints
 62
     0
100
AcDbPoint
 10
163.8391974852964
 20
-9.962790171848221
 30
0.0
  0
POINT
  5
346
330
339
100
AcDbEntity
  8
Defpoints
 62
     0
100
AcDbPoint
 10
163.8391974852964
 20
-5.997394498905571
 30
0.0
  0
POINT
  5
347
330
339
100
AcDbEntity
  8
Defpoints
 62
     0
100
AcDbPoint
 10
181.0231994603853
 20
-5.997394498905507
 30
0.0
  0
ENDBLK
  5
33B
330
339
100
AcDbEntity
  8
0
100
AcDbBlockEnd
  0
BLOCK
  5
349
330
348
100
AcDbEntity
  8
0
100
AcDbBlockBegin
  2
*D18
 70
     1
 10
0.0
 20
0.0
 30
0.0
  3
*D18
  1
*D20
  0
LINE
  5
34B
330
348
100
AcDbEntity
  8
치수문자_일반주서
 62
     0
370
    -2
100
AcDbLine
 10
163.8391974852964
 20
-5.934894498905571
 30
0.0
 11
163.8391974852964
 21
13.63380606448101
 31
0.0
  0
LINE
  5
34C
330
348
100
AcDbEntity
  8
치수문자_일반주서
 62
     0
370
    -2
100
AcDbLine
 10
152.7266974852963
 20
-6.416092789795734
 30
0.0
 11
152.7266974852963
 21
13.63380606448101
 31
0.0
  0
LINE
  5
34D
330
348
100
AcDbEntity
  8
치수문자_일반주서
 62
     0
370
    -2
100
AcDbLine
 10
152.7266974852963
 20
13.63380606448101
 30
0.0
 11
122.9351974852963
 21
13.63380606448101
 31
0.0
  0
LINE
  5
34E
330
348
100
AcDbEntity
  8
치수문자_일반주서
 62
     0
370
    -2
100
AcDbLine
 10
163.8391974852964
 20
13.63380606448101
 30
0.0
 11
152.7266974852963
 21
13.63380606448101
 31
0.0
  0
LINE
  5
34F
330
348
100
AcDbEntity
  8
치수문자_일반주서
 62
     0
370
    -2
100
AcDbLine
 10
167.1411974852963
 20
13.63380606448101
 30
0.0
 11
170.4431974852963
 21
13.63380606448101
 31
0.0
  0
LINE
  5
350
330
348
100
AcDbEntity
  8
치수문자_일반주서
 62
     0
370
    -2
100
AcDbLine
 10
149.4246974852963
 20
13.63380606448101
 30
0.0
 11
146.1226974852963
 21
13.63380606448101
 31
0.0
  0
SOLID
  5
351
330
348
100
AcDbEntity
  8
치수문자_일반주서
 62
     0
100
AcDbTrace
 10
167.1411974852963
 20
14.18413939781434
 30
0.0
 11
167.1411974852963
 21
13.08347273114768
 31
0.0
 12
163.8391974852964
 22
13.63380606448101
 32
0.0
 13
163.8391974852964
 23
13.63380606448101
 33
0.0
  0
SOLID
  5
352
330
348
100
AcDbEntity
  8
치수문자_일반주서
 62
     0
100
AcDbTrace
 10
149.4246974852963
 20
13.08347273114768
 30
0.0
 11
149.4246974852963
 21
14.18413939781434
 31
0.0
 12
152.7266974852963
 22
13.63380606448101
 32
0.0
 13
152.7266974852963
 23
13.63380606448101
 33
0.0
  0
MTEXT
  5
353
330
348
100
AcDbEntity
  8
치수문자_일반주서
 62
     0
100
AcDbMText
 10
134.5289474852963
 20
18.00880606448101
 30
0.0
 40
3.5
 41
0.0
 71
     2
 72
     1
  1
\A1;11.11 [0.44]
  7
SLDTEXTSTYLE0
 73
     1
 44
1.0
  0
POINT
  5
354
330
348
100
AcDbEntity
  8
Defpoints
 62
     0
100
AcDbPoint
 10
163.8391974852964
 20
-5.997394498905571
 30
0.0
  0
POINT
  5
355
330
348
100
AcDbEntity
  8
Defpoints
 62
     0
100
AcDbPoint
 10
152.7266974852963
 20
-6.478592789795734
 30
0.0
  0
POINT
  5
356
330
348
100
AcDbEntity
  8
Defpoints
 62
     0
100
AcDbPoint
 10
152.7266974852963
 20
13.63380606448101
 30
0.0
  0
ENDBLK
  5
34A
330
348
100
AcDbEntity
  8
0
100
AcDbBlockEnd
  0
BLOCK
  5
358
330
357
100
AcDbEntity
  8
0
100
AcDbBlockBegin
  2
*D19
 70
     1
 10
0.0
 20
0.0
 30
0.0
  3
*D19
  1
*D21
  0
LINE
  5
35A
330
357
100
AcDbEntity
  8
치수문자_일반주서
 62
     0
370
    -2
100
AcDbLine
 10
84.46419748529635
 20
-3.965092335376903
 30
0.0
 11
84.46419748529635
 21
30.40240766462313
 31
0.0
  0
LINE
  5
35B
330
357
100
AcDbEntity
  8
치수문자_일반주서
 62
     0
370
    -2
100
AcDbLine
 10
163.8391974852964
 20
-5.934894498905571
 30
0.0
 11
163.8391974852964
 21
30.40240766462313
 31
0.0
  0
LINE
  5
35C
330
357
100
AcDbEntity
  8
치수문자_일반주서
 62
     0
370
    -2
100
AcDbLine
 10
87.76619748529635
 20
30.40240766462313
 30
0.0
 11
160.5371974852964
 21
30.40240766462313
 31
0.0
  0
SOLID
  5
35D
330
357
100
AcDbEntity
  8
치수문자_일반주서
 62
     0
100
AcDbTrace
 10
87.76619748529635
 20
30.95274099795646
 30
0.0
 11
87.76619748529635
 21
29.85207433128979
 31
0.0
 12
84.46419748529635
 22
30.40240766462313
 32
0.0
 13
84.46419748529635
 23
30.40240766462313
 33
0.0
  0
SOLID
  5
35E
330
357
100
AcDbEntity
  8
치수문자_일반주서
 62
     0
100
AcDbTrace
 10
160.5371974852964
 20
29.85207433128979
 30
0.0
 11
160.5371974852964
 21
30.95274099795646
 31
0.0
 12
163.8391974852964
 22
30.40240766462313
 32
0.0
 13
163.8391974852964
 23
30.40240766462313
 33
0.0
  0
MTEXT
  5
35F
330
357
100
AcDbEntity
  8
치수문자_일반주서
 62
     0
100
AcDbMText
 10
124.1516974852964
 20
34.77740766462313
 30
0.0
 40
3.5
 41
0.0
 71
     2
 72
     1
  1
\A1;79.38 [3.13]
  7
SLDTEXTSTYLE0
 73
     1
 44
1.0
  0
POINT
  5
360
330
357
100
AcDbEntity
  8
Defpoints
 62
     0
100
AcDbPoint
 10
84.46419748529635
 20
-4.027592335376903
 30
0.0
  0
POINT
  5
361
330
357
100
AcDbEntity
  8
Defpoints
 62
     0
100
AcDbPoint
 10
163.8391974852964
 20
-5.997394498905571
 30
0.0
  0
POINT
  5
362
330
357
100
AcDbEntity
  8
Defpoints
 62
     0
100
AcDbPoint
 10
163.8391974852964
 20
30.40240766462313
 30
0.0
  0
ENDBLK
  5
359
330
357
100
AcDbEntity
  8
0
100
AcDbBlockEnd
  0
ENDSEC
  0
SECTION
  2
ENTITIES
  0
LINE
  5
96
330
1F
100
AcDbEntity
  8
외형선
  6
Continuous
370
    15
100
AcDbLine
 10
17.20689635022276
 20
4.762499999999997
 30
0.0
 11
4.838700000000124
 21
4.762499999999996
 31
0.0
  0
LINE
  5
97
330
1F
100
AcDbEntity
  8
외형선
  6
Continuous
370
    15
100
AcDbLine
 10
-17.20689635022272
 20
-4.762500000000002
 30
0.0
 11
17.20689635022276
 21
-4.7625
 31
0.0
  0
LINE
  5
98
330
1F
100
AcDbEntity
  8
외형선
  6
Continuous
370
    15
100
AcDbLine
 10
17.20689635022276
 20
-4.7625
 30
0.0
 11
27.57500000000002
 21
-1.984375
 31
0.0
  0
LINE
  5
99
330
1F
100
AcDbEntity
  8
외형선
  6
Continuous
370
    15
100
AcDbLine
 10
27.57500000000002
 20
1.984375
 30
0.0
 11
17.20689635022276
 21
4.762499999999998
 31
0.0
  0
LINE
  5
9C
330
1F
100
AcDbEntity
  8
외형선
  6
Continuous
370
    15
100
AcDbLine
 10
27.68509880881089
 20
1.984375
 30
0.0
 11
27.57500000000002
 21
1.984375
 31
0.0
  0
LINE
  5
9D
330
1F
100
AcDbEntity
  8
외형선
  6
Continuous
370
    15
100
AcDbLine
 10
27.57500000000002
 20
-1.984375
 30
0.0
 11
27.68509880881089
 21
-1.984375
 31
0.0
  0
SPLINE
  5
9E
330
1F
100
AcDbEntity
  8
외형선
  6
Continuous
370
    15
100
AcDbSpline
210
0.0
220
0.0
230
1.0
 70
     8
 71
     3
 72
     9
 73
     5
 74
     0
 42
0.000000001
 43
0.00000001
 40
0.0
 40
0.0
 40
0.0
 40
0.0
 40
0.5014225985410063
 40
1.0
 40
1.0
 40
1.0
 40
1.0
 10
28.15165781176986
 20
1.357219146407034
 30
0.0
 10
28.07353268704325
 20
1.350818222588601
 30
0.0
 10
27.91772573906376
 20
1.338052695392463
 30
0.0
 10
27.76251051406894
 20
1.329144940184019
 30
0.0
 10
27.68512371052415
 20
1.324703734739361
 30
0.0
  0
LINE
  5
9F
330
1F
100
AcDbEntity
  8
0
  6
Continuous
 62
     1
370
    15
100
AcDbLine
 10
33.49566640488392
 20
0.5330007537312387
 30
0.0
 11
33.42677556661005
 21
0.5705124957252926
 31
0.0
  0
LINE
  5
A0
330
1F
100
AcDbEntity
  8
0
  6
Continuous
 62
     1
370
    15
100
AcDbLine
 10
34.03201776568353
 20
0.7656484730174138
 30
0.0
 11
33.9969655619292
 21
0.7837477525989653
 31
0.0
  0
SPLINE
  5
A1
330
1F
100
AcDbEntity
  8
0
  6
Continuous
 62
     1
370
    15
100
AcDbSpline
210
0.0
220
0.0
230
1.0
 70
     8
 71
     3
 72
     9
 73
     5
 74
     0
 42
0.000000001
 43
0.00000001
 40
0.0
 40
0.0
 40
0.0
 40
0.0
 40
0.5018907809478518
 40
1.0
 40
1.0
 40
1.0
 40
1.0
 10
34.5455687220189
 20
0.5084994257426905
 30
0.0
 10
34.45965299946295
 20
0.5495162973684035
 30
0.0
 10
34.28846889762768
 20
0.6312409936225366
 30
0.0
 10
34.11728569637457
 20
0.7209590713738481
 30
0.0
 10
34.03201776568353
 20
0.7656484730174138
 30
0.0
  0
LINE
  5
A2
330
1F
100
AcDbEntity
  8
0
  6
Continuous
 62
     1
370
    15
100
AcDbLine
 10
29.99293164746278
 20
1.984375
 30
0.0
 11
29.03153570086432
 21
1.984375
 31
0.0
  0
SPLINE
  5
A3
330
1F
100
AcDbEntity
  8
0
  6
Continuous
 62
     1
370
    15
100
AcDbSpline
210
0.0
220
0.0
230
1.0
 70
     8
 71
     3
 72
    10
 73
     6
 74
     0
 42
0.000000001
 43
0.00000001
 40
0.0
 40
0.0
 40
0.0
 40
0.0
 40
0.3997104562605387
 40
0.9244156446032251
 40
1.0
 40
1.0
 40
1.0
 40
1.0
 10
33.89114923924533
 20
1.576868027759768
 30
0.0
 10
33.6713861313489
 20
1.567594607220109
 30
0.0
 10
33.16313709291578
 20
1.54614784521632
 30
0.0
 10
32.61360515840872
 20
1.545889510195739
 30
0.0
 10
32.28381897466332
 20
1.560049337710511
 30
0.0
 10
32.24229455302859
 20
1.561832246385826
 30
0.0
  0
SPLINE
  5
A4
330
1F
100
AcDbEntity
  8
0
  6
Continuous
 62
     1
370
    15
100
AcDbSpline
210
0.0
220
0.0
230
1.0
 70
     8
 71
     3
 72
    12
 73
     8
 74
     0
 42
0.000000001
 43
0.00000001
 40
0.0
 40
0.0
 40
0.0
 40
0.0
 40
0.2203595991203302
 40
0.5079020951235977
 40
0.6819406273833513
 40
0.7850952914177108
 40
1.0
 40
1.0
 40
1.0
 40
1.0
 10
30.90680121023642
 20
-1.651262356035407
 30
0.0
 10
31.12608551746153
 20
-1.631209711391905
 30
0.0
 10
31.63150919544957
 20
-1.584990802536284
 30
0.0
 10
32.30941708755987
 20
-1.554199787144197
 30
0.0
 10
32.8715610244104
 20
-1.548240826418915
 30
0.0
 10
33.36049248666379
 20
-1.553407195806982
 30
0.0
 10
33.67717490440044
 20
-1.567408022044994
 30
0.0
 10
33.89114923924533
 20
-1.576868027759769
 30
0.0
  0
SPLINE
  5
A5
330
1F
100
AcDbEntity
  8
0
  6
Continuous
 62
     1
370
    15
100
AcDbSpline
210
0.0
220
0.0
230
1.0
 70
     8
 71
     3
 72
    12
 73
     8
 74
     0
 42
0.000000001
 43
0.00000001
 40
0.0
 40
0.0
 40
0.0
 40
0.0
 40
0.2671840104270422
 40
0.4504191910765318
 40
0.5648457998608692
 40
0.6763808534642589
 40
0.9999999999999999
 40
0.9999999999999999
 40
0.9999999999999999
 40
0.9999999999999999
 10
35.4829140360507
 20
-1.492516380840891
 30
0.0
 10
35.61719690552646
 20
-1.472280991498702
 30
0.0
 10
35.84357116103688
 20
-1.438168142889013
 30
0.0
 10
36.12647013888512
 20
-1.403504068681346
 30
0.0
 10
36.32850374390152
 20
-1.381481425499071
 30
0.0
 10
36.60174532461457
 20
-1.353922544419509
 30
0.0
 10
36.81955729735941
 20
-1.341132679312131
 30
0.0
 10
36.98154154271982
 20
-1.331621004533321
 30
0.0
  0
SPLINE
  5
A6
330
1F
100
AcDbEntity
  8
0
  6
Continuous
 62
     1
370
    15
100
AcDbSpline
210
0.0
220
0.0
230
1.0
 70
     8
 71
     3
 72
    20
 73
    16
 74
     0
 42
0.000000001
 43
0.00000001
 40
0.0
 40
0.0
 40
0.0
 40
0.0
 40
0.1137331324549234
 40
0.1889115300556307
 40
0.2430494001225584
 40
0.2996966172768133
 40
0.3551167274739587
 40
0.4077790622279154
 40
0.4629631120896353
 40
0.5324763504502775
 40
0.6065562388178052
 40
0.6824659718200259
 40
0.7533596951103794
 40
0.8531554092482341
 40
1.0
 40
1.0
 40
1.0
 40
1.0
 10
38.95827268781167
 20
1.357973386152136
 30
0.0
 10
38.82553916658138
 20
1.347484729673027
 30
0.0
 10
38.60506785761409
 20
1.330062997756151
 30
0.0
 10
38.32362901020547
 20
1.31667085166723
 30
0.0
 10
38.10982376136745
 20
1.309725541008651
 30
0.0
 10
37.91723234537534
 20
1.306222720788305
 30
0.0
 10
37.72643283632573
 20
1.305475522086805
 30
0.0
 10
37.53746982473074
 20
1.307381648960894
 30
0.0
 10
37.33230620587726
 20
1.312344699669546
 30
0.0
 10
37.1020763912067
 20
1.321531829382914
 30
0.0
 10
36.84784576526073
 20
1.336247856169984
 30
0.0
 10
36.5920313315161
 20
1.35578653371627
 30
0.0
 10
36.30679134011081
 20
1.383112290742009
 30
0.0
 10
35.9394387872059
 20
1.42462215814929
 30
0.0
 10
35.65328446448141
 20
1.467178942336913
 30
0.0
 10
35.4829140360507
 20
1.49251638084089
 30
0.0
  0
LINE
  5
A7
330
1F
100
AcDbEntity
  8
0
  6
Continuous
 62
     1
370
    15
100
AcDbLine
 10
29.03153570086432
 20
-1.984375000000001
 30
0.0
 11
29.99293164746278
 21
-1.984375000000001
 31
0.0
  0
LINE
  5
A8
330
1F
100
AcDbEntity
  8
외형선
  6
Continuous
370
    15
100
AcDbLine
 10
17.20689635022276
 20
4.762499999999998
 30
0.0
 11
17.20689635022276
 21
-4.762500000000006
 31
0.0
  0
LINE
  5
AA
330
1F
100
AcDbEntity
  8
외형선
  6
Continuous
370
    15
100
AcDbLine
 10
27.57500000000002
 20
1.984375
 30
0.0
 11
27.57500000000002
 21
-1.984375
 31
0.0
  0
SPLINE
  5
AC
330
1F
100
AcDbEntity
  8
외형선
  6
Continuous
370
    15
100
AcDbSpline
210
0.0
220
0.0
230
1.0
 70
     8
 71
     3
 72
    10
 73
     6
 74
     0
 42
0.000000001
 43
0.00000001
 40
0.0
 40
0.0
 40
0.0
 40
0.0
 40
0.5
 40
0.5
 40
1.0
 40
1.0
 40
1.0
 40
1.0
 10
28.57500000000002
 20
1.96687410722846
 30
0.0
 10
28.42625689007337
 20
1.955516453848122
 30
0.0
 10
28.27656768776335
 20
1.93860809858197
 30
0.0
 10
27.97905508317266
 20
1.894113511821063
 30
0.0
 10
27.83269795112983
 20
1.866645309771338
 30
0.0
 10
27.68509880881089
 20
1.834001535735999
 30
0.0
  0
SPLINE
  5
AD
330
1F
100
AcDbEntity
  8
외형선
  6
Continuous
370
    15
100
AcDbSpline
210
0.0
220
0.0
230
1.0
 70
     8
 71
     3
 72
    10
 73
     6
 74
     0
 42
0.000000001
 43
0.00000001
 40
0.0
 40
0.0
 40
0.0
 40
0.0
 40
0.5
 40
0.5
 40
1.0
 40
1.0
 40
1.0
 40
1.0
 10
28.57500000000002
 20
-1.817748158612988
 30
0.0
 10
28.42627423546988
 20
-1.783374462994284
 30
0.0
 10
28.27660259890111
 20
-1.743821808156427
 30
0.0
 10
27.97912425372035
 20
-1.655350444551674
 30
0.0
 10
27.83278320339193
 20
-1.606617536798596
 30
0.0
 10
27.68520208049771
 20
-1.553431043961071
 30
0.0
  0
LINE
  5
AE
330
1F
100
AcDbEntity
  8
외형선
  6
Continuous
370
    15
100
AcDbLine
 10
28.57500000000002
 20
-1.817748158612987
 30
0.0
 11
28.57500000000002
 21
-1.966874107228463
 31
0.0
  0
SPLINE
  5
AF
330
1F
100
AcDbEntity
  8
외형선
  6
Continuous
370
    15
100
AcDbSpline
210
0.0
220
0.0
230
1.0
 70
     8
 71
     3
 72
    10
 73
     6
 74
     0
 42
0.000000001
 43
0.00000001
 40
0.0
 40
0.0
 40
0.0
 40
0.0
 40
0.5
 40
0.5
 40
1.0
 40
1.0
 40
1.0
 40
1.0
 10
28.57500000000002
 20
-1.966874107228461
 30
0.0
 10
28.42625689007337
 20
-1.955516453848123
 30
0.0
 10
28.27656768776335
 20
-1.938608098581971
 30
0.0
 10
27.97905508317266
 20
-1.894113511821064
 30
0.0
 10
27.83269795112983
 20
-1.866645309771339
 30
0.0
 10
27.68509880881089
 20
-1.834001535736
 30
0.0
  0
LINE
  5
B0
330
1F
100
AcDbEntity
  8
외형선
  6
Continuous
370
    15
100
AcDbLine
 10
27.68509880881089
 20
-1.984375
 30
0.0
 11
27.68509880881089
 21
-1.833742551817032
 31
0.0
  0
LINE
  5
B1
330
1F
100
AcDbEntity
  8
외형선
  6
Continuous
370
    15
100
AcDbLine
 10
27.68509880881089
 20
-1.55337812482138
 30
0.0
 11
27.68509880881089
 21
1.984375
 31
0.0
  0
SPLINE
  5
B2
330
1F
100
AcDbEntity
  8
외형선
  6
Continuous
370
    15
100
AcDbSpline
210
0.0
220
0.0
230
1.0
 70
     8
 71
     3
 72
    10
 73
     6
 74
     0
 42
0.000000001
 43
0.00000001
 40
0.0
 40
0.0
 40
0.0
 40
0.0
 40
0.5000000000000001
 40
0.5000000000000001
 40
1.0
 40
1.0
 40
1.0
 40
1.0
 10
28.57499999999997
 20
-1.501499545581163
 30
0.0
 10
28.42627423546985
 20
-1.468313333227694
 30
0.0
 10
28.27660259890109
 20
-1.430839090597082
 30
0.0
 10
27.97912425372033
 20
-1.348254399838033
 30
0.0
 10
27.83278320339193
 20
-1.303312839204974
 30
0.0
 10
27.68520208049771
 20
-1.254758436881376
 30
0.0
  0
SPLINE
  5
B3
330
1F
100
AcDbEntity
  8
외형선
  6
Continuous
370
    15
100
AcDbSpline
210
0.0
220
0.0
230
1.0
 70
     8
 71
     3
 72
    10
 73
     6
 74
     0
 42
0.000000001
 43
0.00000001
 40
0.0
 40
0.0
 40
0.0
 40
0.0
 40
0.5
 40
0.5
 40
1.0
 40
1.0
 40
1.0
 40
1.0
 10
28.57499999977876
 20
0.1455145440976676
 30
0.0
 10
28.42626322825054
 20
0.213788385655414
 30
0.0
 10
28.27658044486176
 20
0.2817972236209188
 30
0.0
 10
27.97908035941102
 20
0.4155775348796207
 30
0.0
 10
27.83272910407923
 20
0.481135453498174
 30
0.0
 10
27.685136546462
 20
0.5453599635487356
 30
0.0
  0
SPLINE
  5
B4
330
1F
100
AcDbEntity
  8
외형선
  6
Continuous
370
    15
100
AcDbSpline
210
0.0
220
0.0
230
1.0
 70
    24
 71
     3
 72
    10
 73
     6
 74
     0
 42
0.000000001
 43
0.00000001
 40
0.0
 40
0.0
 40
0.0
 40
0.0
 40
0.5
 40
0.5
 40
1.0
 40
1.0
 40
1.0
 40
1.0
 10
28.57500000000002
 20
0.1455145439961064
 30
0.0
 10
28.57500000000002
 20
-0.1604739218284222
 30
0.0
 10
28.57500000000002
 20
-0.4797253064117201
 30
0.0
 10
28.57500000000002
 20
-1.055438344447753
 30
0.0
 10
28.57500000000002
 20
-1.309421903922756
 30
0.0
 10
28.57500000000002
 20
-1.501499545581172
 30
0.0
  0
LINE
  5
B5
330
1F
100
AcDbEntity
  8
외형선
  6
Continuous
370
    15
100
AcDbLine
 10
28.57500000000001
 20
1.383214703410561
 30
0.0
 11
28.14912507704847
 21
1.345554508711609
 31
0.0
  0
SPLINE
  5
B6
330
1F
100
AcDbEntity
  8
외형선
  6
Continuous
370
    15
100
AcDbSpline
210
0.0
220
0.0
230
1.0
 70
    24
 71
     3
 72
    14
 73
    10
 74
     0
 42
0.000000001
 43
0.00000001
 40
0.0
 40
0.0
 40
0.0
 40
0.0
 40
0.2500000000000001
 40
0.2500000000000001
 40
0.5000000000000001
 40
0.5000000000000001
 40
0.75
 40
0.75
 40
1.0
 40
1.0
 40
1.0
 40
1.0
 10
28.57499999999997
 20
1.383214703410559
 30
0.0
 10
28.57499999999997
 20
1.36169201459341
 30
0.0
 10
28.57499999999997
 20
1.318093337337499
 30
0.0
 10
28.57499999999997
 20
1.1844530310853
 30
0.0
 10
28.57499999999997
 20
1.094386058948342
 30
0.0
 10
28.57499999999997
 20
0.8744110563508477
 30
0.0
 10
28.57499999999997
 20
0.7446202377684593
 30
0.0
 10
28.57499999999997
 20
0.4596192415276908
 30
0.0
 10
28.57499999999997
 20
0.304596314984775
 30
0.0
 10
28.57499999999997
 20
0.1455145439961267
 30
0.0
  0
SPLINE
  5
B7
330
1F
100
AcDbEntity
  8
외형선
  6
Continuous
370
    15
100
AcDbSpline
210
0.0
220
0.0
230
1.0
 70
    24
 71
     3
 72
     8
 73
     4
 74
     0
 42
0.000000001
 43
0.00000001
 40
0.0
 40
0.0
 40
0.0
 40
0.0
 40
1.0
 40
1.0
 40
1.0
 40
1.0
 10
28.57500000000002
 20
-1.501499545581172
 30
0.0
 10
28.57500000000002
 20
-1.605614140083084
 30
0.0
 10
28.57500000000002
 20
-1.711702081952154
 30
0.0
 10
28.57500000000002
 20
-1.817748158612447
 30
0.0
  0
SPLINE
  5
B8
330
1F
100
AcDbEntity
  8
외형선
  6
Continuous
370
    15
100
AcDbSpline
210
0.0
220
0.0
230
1.0
 70
    24
 71
     3
 72
    10
 73
     6
 74
     0
 42
0.000000001
 43
0.00000001
 40
0.0
 40
0.0
 40
0.0
 40
0.0
 40
0.5
 40
0.5
 40
1.0
 40
1.0
 40
1.0
 40
1.0
 10
28.5749999999999
 20
1.966874107216261
 30
0.0
 10
28.5749999999999
 20
1.865581383321866
 30
0.0
 10
28.5749999999999
 20
1.758563902473884
 30
0.0
 10
28.5749999999999
 20
1.556825589743877
 30
0.0
 10
28.5749999999999
 20
1.462605665020204
 30
0.0
 10
28.5749999999999
 20
1.383214703410556
 30
0.0
  0
SPLINE
  5
B9
330
1F
100
AcDbEntity
  8
0
  6
Continuous
 62
     1
370
    15
100
AcDbSpline
210
0.0
220
0.0
230
1.0
 70
     8
 71
     3
 72
    42
 73
    38
 74
     0
 42
0.000000001
 43
0.00000001
 40
0.0
 40
0.0
 40
0.0
 40
0.0
 40
0.0625000000000003
 40
0.0625000000000003
 40
0.1250000000000006
 40
0.1250000000000006
 40
0.1875000000000009
 40
0.1875000000000009
 40
0.2500000000000012
 40
0.2500000000000012
 40
0.3125000000000014
 40
0.3125000000000014
 40
0.3750000000000018
 40
0.3750000000000018
 40
0.4062500000000017
 40
0.4062500000000017
 40
0.4375000000000017
 40
0.4375000000000017
 40
0.4687500000000017
 40
0.4687500000000017
 40
0.5000000000000017
 40
0.5000000000000017
 40
0.5625000000000014
 40
0.5625000000000014
 40
0.6250000000000011
 40
0.6250000000000011
 40
0.6875000000000009
 40
0.6875000000000009
 40
0.7500000000000006
 40
0.7500000000000006
 40
0.8125000000000004
 40
0.8125000000000004
 40
0.8750000000000003
 40
0.8750000000000003
 40
0.9375000000000001
 40
0.9375000000000001
 40
1.0
 40
1.0
 40
1.0
 40
1.0
 10
39.68750000000002
 20
-1.982697836471324
 30
0.0
 10
39.45881625021318
 20
-1.977225581054922
 30
0.0
 10
39.22463112206297
 20
-1.958186773170955
 30
0.0
 10
38.75940464733355
 20
-1.893680875870489
 30
0.0
 10
38.53164122284157
 20
-1.848573611002013
 30
0.0
 10
38.06727900051821
 20
-1.733336155375998
 30
0.0
 10
37.83273762399422
 20
-1.663189916848251
 30
0.0
 10
37.37315122871176
 20
-1.502334642377434
 30
0.0
 10
37.14148538427745
 20
-1.410925112787004
 30
0.0
 10
36.67573370324749
 20
-1.209762682351843
 30
0.0
 10
36.44734965889621
 20
-1.100912578492981
 30
0.0
 10
35.98418863488089
 20
-0.8687946517095348
 30
0.0
 10
35.74946519018235
 20
-0.7454471820124104
 30
0.0
 10
35.40335529168459
 20
-0.5551409800647694
 30
0.0
 10
35.28945186892463
 20
-0.4909288375215035
 30
0.0
 10
35.05823439464318
 20
-0.3604234974689637
 30
0.0
 10
34.94174343121736
 20
-0.2942795386656474
 30
0.0
 10
34.70877514991763
 20
-0.1612127619877078
 30
0.0
 10
34.59230087746761
 20
-0.0942916839773936
 30
0.0
 10
34.36114932114789
 20
0.0392986050899064
 30
0.0
 10
34.24726078019801
 20
0.1058155533786169
 30
0.0
 10
33.90104143703259
 20
0.3053657088967034
 30
0.0
 10
33.66631055968325
 20
0.4379593382439343
 30
0.0
 10
33.20326720168401
 20
0.6941989476633456
 30
0.0
 10
32.97480174314666
 20
0.8179201352180819
 30
0.0
 10
32.5090210742262
 20
1.054121081872716
 30
0.0
 10
32.27754143656998
 20
1.165555109661435
 30
0.0
 10
31.81778120644605
 20
1.370702642768647
 30
0.0
 10
31.58321755056697
 20
1.465286808424718
 30
0.0
 10
31.11894444938671
 20
1.632549833458508
 30
0.0
 10
30.89115236585754
 20
1.705156340797424
 30
0.0
 10
30.4258679859701
 20
1.827227091765143
 30
0.0
 10
30.19192085045403
 20
1.876194576879067
 30
0.0
 10
29.73435202416421
 20
1.947524911510039
 30
0.0
 10
29.50012982564812
 20
1.970426663352033
 30
0.0
 10
29.03496371088868
 20
1.988883372867817
 30
0.0
 10
28.80722445193053
 20
1.984606187946522
 30
0.0
 10
28.57499999999848
 20
1.966874107228345
 30
0.0
  0
SPLINE
  5
BA
330
1F
100
AcDbEntity
  8
0
  6
Continuous
 62
     1
370
    15
100
AcDbSpline
210
0.0
220
0.0
230
1.0
 70
     8
 71
     3
 72
    14
 73
    10
 74
     0
 42
0.000000001
 43
0.00000001
 40
0.0
 40
0.0
 40
0.0
 40
0.0
 40
0.0111555224507997
 40
0.1729697609574662
 40
0.3347765189149257
 40
0.4965852447972267
 40
0.6584053819270496
 40
0.8292015895834955
 40
0.9999999999999999
 40
0.9999999999999999
 40
0.9999999999999999
 40
0.9999999999999999
 10
34.7541815530862
 20
-0.1869884996196202
 30
0.0
 10
34.73120464866952
 20
-0.1780606989616529
 30
0.0
 10
34.37494077290535
 20
-0.0396324404470723
 30
0.0
 10
33.68541613870234
 20
0.2476283639001193
 30
0.0
 10
32.68559969587929
 20
0.632953491454141
 30
0.0
 10
31.68576226429715
 20
0.968414973593557
 30
0.0
 10
30.66743578817214
 20
1.224070888624597
 30
0.0
 10
29.63044694769856
 20
1.384378931285808
 30
0.0
 10
28.92681716167627
 20
1.383602781037302
 30
0.0
 10
28.57500000000001
 20
1.383214703410561
 30
0.0
  0
SPLINE
  5
BB
330
1F
100
AcDbEntity
  8
외형선
  6
Continuous
370
    15
100
AcDbSpline
210
0.0
220
0.0
230
1.0
 70
    24
 71
     3
 72
    10
 73
     6
 74
     0
 42
0.000000001
 43
0.00000001
 40
0.0
 40
0.0
 40
0.0
 40
0.0
 40
0.5
 40
0.5
 40
1.0
 40
1.0
 40
1.0
 40
1.0
 10
28.5749999999999
 20
1.966874107216263
 30
0.0
 10
28.5749999999999
 20
1.865581383321867
 30
0.0
 10
28.5749999999999
 20
1.758563902473885
 30
0.0
 10
28.5749999999999
 20
1.556825589743877
 30
0.0
 10
28.5749999999999
 20
1.462605665020205
 30
0.0
 10
28.5749999999999
 20
1.383214703410556
 30
0.0
  0
SPLINE
  5
BC
330
1F
100
AcDbEntity
  8
0
  6
Continuous
 62
     1
370
    15
100
AcDbSpline
210
0.0
220
0.0
230
1.0
 70
     8
 71
     3
 72
    17
 73
    13
 74
     0
 42
0.000000001
 43
0.00000001
 40
0.0
 40
0.0
 40
0.0
 40
0.0
 40
0.1070303659895853
 40
0.2140509889096067
 40
0.3210626769747256
 40
0.4280662448590789
 40
0.5350625131240675
 40
0.6420523076370567
 40
0.742916595396456
 40
0.8437600248322524
 40
0.9445941739026297
 40
1.0
 40
1.0
 40
1.0
 40
1.0
 10
39.68750000000002
 20
-1.883054537382052
 30
0.0
 10
39.34158623327288
 20
-1.803443777310251
 30
0.0
 10
38.64979018865695
 20
-1.644229504205059
 30
0.0
 10
37.61216468766432
 20
-1.211131080181907
 30
0.0
 10
36.57464284112967
 20
-0.6807646496421776
 30
0.0
 10
35.53721112768112
 20
-0.085642324068062
 30
0.0
 10
34.49988160974055
 20
0.5164895281381922
 30
0.0
 10
33.48234070500761
 20
1.060968223456888
 30
0.0
 10
32.48492158737186
 20
1.506378634779445
 30
0.0
 10
31.50738784425348
 20
1.814293602614948
 30
0.0
 10
30.6767614382953
 20
1.976130136388078
 30
0.0
 10
30.17194844932982
 20
1.967566984354989
 30
0.0
 10
29.99293164746278
 20
1.964530319046503
 30
0.0
  0
SPLINE
  5
BD
330
1F
100
AcDbEntity
  8
0
  6
Continuous
 62
     1
370
    15
100
AcDbSpline
210
0.0
220
0.0
230
1.0
 70
     8
 71
     3
 72
    13
 73
     9
 74
     0
 42
0.000000001
 43
0.00000001
 40
0.0
 40
0.0
 40
0.0
 40
0.0
 40
0.1939997165647056
 40
0.3879373658130943
 40
0.5818234308156587
 40
0.7756685267780312
 40
0.969483374287153
 40
1.0
 40
1.0
 40
1.0
 40
1.0
 10
39.68750000000001
 20
-1.565616837105679
 30
0.0
 10
39.35381198620527
 20
-1.491851996672665
 30
0.0
 10
38.68654271711971
 20
-1.344345915767325
 30
0.0
 10
37.68584317855488
 20
-0.9749945918197821
 30
0.0
 10
36.68544478269568
 20
-0.5318389008254052
 30
0.0
 10
35.68529115028034
 20
-0.0462771894470197
 30
0.0
 10
34.96611679245925
 20
0.3181552713430992
 30
0.0
 10
34.58032141071519
 20
0.4900733894849472
 30
0.0
 10
34.52784026262956
 20
0.5134600359917468
 30
0.0
  0
LINE
  5
BE
330
1F
100
AcDbEntity
  8
0
  6
Continuous
 62
     1
370
    15
100
AcDbLine
 10
39.68749999999994
 20
-1.883054537382053
 30
0.0
 11
39.68750000000001
 21
-1.565616837105679
 31
0.0
  0
LINE
  5
BF
330
1F
100
AcDbEntity
  8
0
  6
Continuous
 62
     1
370
    15
100
AcDbLine
 10
39.68750000000001
 20
-1.982697836471325
 30
0.0
 11
39.68749999999986
 21
-1.883054537382048
 31
0.0
  0
SPLINE
  5
C0
330
1F
100
AcDbEntity
  8
0
  6
Continuous
 62
     1
370
    15
100
AcDbSpline
210
0.0
220
0.0
230
1.0
 70
     8
 71
     3
 72
     8
 73
     4
 74
     0
 42
0.000000001
 43
0.00000001
 40
0.0
 40
0.0
 40
0.0
 40
0.0
 40
1.0
 40
1.0
 40
1.0
 40
1.0
 10
38.45900677959567
 20
0.5557441175764993
 30
0.0
 10
38.38873544869919
 20
0.6389927033795271
 30
0.0
 10
38.32600664401419
 20
0.7191404837657331
 30
0.0
 10
38.2726000523847
 20
0.7954558122745639
 30
0.0
  0
LINE
  5
C1
330
1F
100
AcDbEntity
  8
0
  6
Continuous
 62
     1
370
    15
100
AcDbLine
 10
38.29773597617293
 20
0.8165473566545637
 30
0.0
 11
39.68750000000001
 21
0.000000000000001
 31
0.0
  0
LINE
  5
C2
330
1F
100
AcDbEntity
  8
0
  6
Continuous
 62
     1
370
    15
100
AcDbLine
 10
39.68750000000001
 20
0.000000000000001
 30
0.0
 11
39.68750000000001
 21
-0.5303102210275756
 31
0.0
  0
SPLINE
  5
C3
330
1F
100
AcDbEntity
  8
0
  6
Continuous
 62
     1
370
    15
100
AcDbSpline
210
0.0
220
0.0
230
1.0
 70
     8
 71
     3
 72
    10
 73
     6
 74
     0
 42
0.000000001
 43
0.00000001
 40
0.0
 40
0.0
 40
0.0
 40
0.0
 40
0.5
 40
0.5
 40
1.0
 40
1.0
 40
1.0
 40
1.0
 10
39.68750000000001
 20
-0.5303102210275754
 30
0.0
 10
39.47483365854359
 20
-0.3631162242341995
 30
0.0
 10
39.26572341339831
 20
-0.1890610906366648
 30
0.0
 10
38.85478519211058
 20
0.1730995957543202
 30
0.0
 10
38.65104542687047
 20
0.3631188210779356
 30
0.0
 10
38.45900677959567
 20
0.5557441175765017
 30
0.0
  0
SPLINE
  5
C4
330
1F
100
AcDbEntity
  8
0
  6
Continuous
 62
     1
370
    15
100
AcDbSpline
210
0.0
220
0.0
230
1.0
 70
     8
 71
     3
 72
    12
 73
     8
 74
     0
 42
0.000000001
 43
0.00000001
 40
0.0
 40
0.0
 40
0.0
 40
0.0
 40
0.1941265493063395
 40
0.3880926766031018
 40
0.6069445323775676
 40
0.8257617612058772
 40
1.0
 40
1.0
 40
1.0
 40
1.0
 10
38.45900677959567
 20
0.555744117576499
 30
0.0
 10
38.16325228364782
 20
0.6799046348767173
 30
0.0
 10
37.57198769691335
 20
0.9281230658932207
 30
0.0
 10
36.64746687733832
 20
1.243254950548005
 30
0.0
 10
35.68526482734458
 20
1.476431773436885
 30
0.0
 10
34.75316089224484
 20
1.599731073744489
 30
0.0
 10
34.15443361628833
 20
1.576319096629656
 30
0.0
 10
33.8890227654695
 20
1.565940760757999
 30
0.0
  0
SPLINE
  5
C5
330
1F
100
AcDbEntity
  8
0
  6
Continuous
 62
     1
370
    15
100
AcDbSpline
210
0.0
220
0.0
230
1.0
 70
    24
 71
     3
 72
    10
 73
     6
 74
     0
 42
0.000000001
 43
0.00000001
 40
0.0
 40
0.0
 40
0.0
 40
0.0
 40
0.5
 40
0.5
 40
1.0
 40
1.0
 40
1.0
 40
1.0
 10
39.68750000000001
 20
-1.565616837105679
 30
0.0
 10
39.68750000000002
 20
-1.445600100054426
 30
0.0
 10
39.68750000000002
 20
-1.293954350876899
 30
0.0
 10
39.68750000000001
 20
-0.9413925783146305
 30
0.0
 10
39.68750000000001
 20
-0.7407819573049425
 30
0.0
 10
39.68750000000001
 20
-0.530310221027639
 30
0.0
  0
SPLINE
  5
C6
330
1F
100
AcDbEntity
  8
0
  6
Continuous
 62
     1
370
    15
100
AcDbSpline
210
0.0
220
0.0
230
1.0
 70
     8
 71
     3
 72
    10
 73
     6
 74
     0
 42
0.000000001
 43
0.00000001
 40
0.0
 40
0.0
 40
0.0
 40
0.0
 40
0.095866542674438
 40
0.5479304778167959
 40
1.0
 40
1.0
 40
1.0
 40
1.0
 10
30.90976098299083
 20
-1.638982596703566
 30
0.0
 10
30.83516129243933
 20
-1.650082963849975
 30
0.0
 10
30.40878267328254
 20
-1.71352772053771
 30
0.0
 10
29.63046917496133
 20
-1.689425064859279
 30
0.0
 10
28.92682450769771
 20
-1.564141643401107
 30
0.0
 10
28.57499999999997
 20
-1.501499545581162
 30
0.0
  0
SPLINE
  5
C7
330
1F
100
AcDbEntity
  8
0
  6
Continuous
 62
     1
370
    15
100
AcDbSpline
210
0.0
220
0.0
230
1.0
 70
     8
 71
     3
 72
    14
 73
    10
 74
     0
 42
0.000000001
 43
0.00000001
 40
0.0
 40
0.0
 40
0.0
 40
0.0
 40
0.1161349739736544
 40
0.260771215032973
 40
0.4054009445666449
 40
0.5500323880529389
 40
0.6946737665147336
 40
0.8473359248271815
 40
1.0
 40
1.0
 40
1.0
 40
1.0
 10
35.48809081846888
 20
-1.481519168044698
 30
0.0
 10
35.22047856321825
 20
-1.520035685408333
 30
0.0
 10
34.61957798545387
 20
-1.606521252056259
 30
0.0
 10
33.68542141537299
 20
-1.582977511260794
 30
0.0
 10
32.68560793513923
 20
-1.43873339184144
 30
0.0
 10
31.68577038303363
 20
-1.169695846559106
 30
0.0
 10
30.66745699421104
 20
-0.7967915361301023
 30
0.0
 10
29.63045038760227
 20
-0.3439112255183867
 30
0.0
 10
28.92681826820452
 20
-0.0176280619175195
 30
0.0
 10
28.57499999977876
 20
0.1455145440976676
 30
0.0
  0
SPLINE
  5
C8
330
1F
100
AcDbEntity
  8
외형선
  6
Continuous
370
    15
100
AcDbSpline
210
0.0
220
0.0
230
1.0
 70
    24
 71
     3
 72
    10
 73
     6
 74
     0
 42
0.000000001
 43
0.00000001
 40
0.0
 40
0.0
 40
0.0
 40
0.0
 40
0.5
 40
0.5
 40
1.0
 40
1.0
 40
1.0
 40
1.0
 10
28.57500000000002
 20
0.1455145439961064
 30
0.0
 10
28.57500000000002
 20
-0.1604739218284222
 30
0.0
 10
28.57500000000002
 20
-0.4797253064117201
 30
0.0
 10
28.57500000000002
 20
-1.055438344447753
 30
0.0
 10
28.57500000000002
 20
-1.309421903922756
 30
0.0
 10
28.57500000000002
 20
-1.501499545581172
 30
0.0
  0
SPLINE
  5
C9
330
1F
100
AcDbEntity
  8
외형선
  6
Continuous
370
    15
100
AcDbSpline
210
0.0
220
0.0
230
1.0
 70
    24
 71
     3
 72
    14
 73
    10
 74
     0
 42
0.000000001
 43
0.00000001
 40
0.0
 40
0.0
 40
0.0
 40
0.0
 40
0.2500000000000001
 40
0.2500000000000001
 40
0.5000000000000001
 40
0.5000000000000001
 40
0.75
 40
0.75
 40
1.0
 40
1.0
 40
1.0
 40
1.0
 10
28.57499999999997
 20
1.383214703410559
 30
0.0
 10
28.57499999999997
 20
1.36169201459341
 30
0.0
 10
28.57499999999997
 20
1.318093337337499
 30
0.0
 10
28.57499999999997
 20
1.1844530310853
 30
0.0
 10
28.57499999999997
 20
1.094386058948342
 30
0.0
 10
28.57499999999997
 20
0.8744110563508477
 30
0.0
 10
28.57499999999997
 20
0.7446202377684593
 30
0.0
 10
28.57499999999997
 20
0.4596192415276908
 30
0.0
 10
28.57499999999997
 20
0.304596314984775
 30
0.0
 10
28.57499999999997
 20
0.1455145439961267
 30
0.0
  0
SPLINE
  5
CA
330
1F
100
AcDbEntity
  8
0
  6
Continuous
 62
     1
370
    15
100
AcDbSpline
210
0.0
220
0.0
230
1.0
 70
    24
 71
     3
 72
     8
 73
     4
 74
     0
 42
0.000000001
 43
0.00000001
 40
0.0
 40
0.0
 40
0.0
 40
0.0
 40
1.0
 40
1.0
 40
1.0
 40
1.0
 10
38.47987627747497
 20
0.9693812162996223
 30
0.0
 10
38.414364785904
 20
0.9144105478845508
 30
0.0
 10
38.34505896272594
 20
0.8562560572173923
 30
0.0
 10
38.27260005238476
 20
0.7954558122746023
 30
0.0
  0
LINE
  5
CB
330
1F
100
AcDbEntity
  8
0
  6
Continuous
 62
     1
370
    15
100
AcDbLine
 10
39.68750000000001
 20
1.389062499999999
 30
0.0
 11
38.95515162175224
 21
1.346307808181543
 31
0.0
  0
SPLINE
  5
CC
330
1F
100
AcDbEntity
  8
0
  6
Continuous
 62
     1
370
    15
100
AcDbSpline
210
0.0
220
0.0
230
1.0
 70
     8
 71
     3
 72
     8
 73
     4
 74
     0
 42
0.000000001
 43
0.00000001
 40
0.0
 40
0.0
 40
0.0
 40
0.0
 40
1.0
 40
1.0
 40
1.0
 40
1.0
 10
39.68750000000001
 20
1.389062500000001
 30
0.0
 10
39.27936139917669
 20
1.278202870590655
 30
0.0
 10
38.87512715704113
 20
1.142095475675957
 30
0.0
 10
38.47987627748751
 20
0.969381216305101
 30
0.0
  0
LINE
  5
CD
330
1F
100
AcDbEntity
  8
0
  6
Continuous
 62
     1
370
    15
100
AcDbLine
 10
39.68750000000001
 20
0.000000000000001
 30
0.0
 11
39.68750000000001
 21
1.3890625
 31
0.0
  0
SPLINE
  5
CE
330
1F
100
AcDbEntity
  8
0
  6
Continuous
 62
     1
370
    15
100
AcDbSpline
210
0.0
220
0.0
230
1.0
 70
     8
 71
     3
 72
    11
 73
     7
 74
     0
 42
0.000000001
 43
0.00000001
 40
0.0
 40
0.0
 40
0.0
 40
0.0
 40
0.1988740228037918
 40
0.4658995823163422
 40
0.7329313289760195
 40
1.0
 40
1.0
 40
1.0
 40
1.0
 10
32.23530683672057
 20
-1.564046596298059
 30
0.0
 10
31.99265800205735
 20
-1.647410271137415
 30
0.0
 10
31.42420773829074
 20
-1.84270526613196
 30
0.0
 10
30.52997437646227
 20
-1.982338354708123
 30
0.0
 10
29.55253314471186
 20
-2.002099650481679
 30
0.0
 10
28.90085939912042
 20
-1.879201488039471
 30
0.0
 10
28.57500000000007
 20
-1.817748158613
 30
0.0
  0
SPLINE
  5
CF
330
1F
100
AcDbEntity
  8
외형선
  6
Continuous
370
    15
100
AcDbSpline
210
0.0
220
0.0
230
1.0
 70
    24
 71
     3
 72
     8
 73
     4
 74
     0
 42
0.000000001
 43
0.00000001
 40
0.0
 40
0.0
 40
0.0
 40
0.0
 40
1.0
 40
1.0
 40
1.0
 40
1.0
 10
28.57500000000002
 20
-1.501499545581172
 30
0.0
 10
28.57500000000002
 20
-1.605614140083083
 30
0.0
 10
28.57500000000002
 20
-1.711702081952153
 30
0.0
 10
28.57500000000002
 20
-1.817748158612446
 30
0.0
  0
LINE
  5
D0
330
1F
100
AcDbEntity
  8
0
  6
Continuous
 62
     1
370
    15
100
AcDbLine
 10
28.57499999999848
 20
-1.966874107228346
 30
0.0
 11
29.03153570086432
 21
-1.962152527292599
 31
0.0
  0
SPLINE
  5
D1
330
1F
100
AcDbEntity
  8
0
  6
Continuous
 62
     1
370
    15
100
AcDbSpline
210
0.0
220
0.0
230
1.0
 70
     8
 71
     3
 72
    10
 73
     6
 74
     0
 42
0.000000001
 43
0.00000001
 40
0.0
 40
0.0
 40
0.0
 40
0.0
 40
0.278078191960981
 40
0.6389508014371377
 40
1.0
 40
1.0
 40
1.0
 40
1.0
 10
36.97639465355392
 20
1.329596534412512
 30
0.0
 10
37.22766888464539
 20
1.434030941558246
 30
0.0
 10
37.80503120926423
 20
1.673993837148211
 30
0.0
 10
38.70871564699142
 20
1.910799568708977
 30
0.0
 10
39.36118534885485
 20
1.95872783931036
 30
0.0
 10
39.68750000000002
 20
1.982697836471323
 30
0.0
  0
SPLINE
  5
D2
330
1F
100
AcDbEntity
  8
0
  6
Continuous
 62
     1
370
    15
100
AcDbSpline
210
0.0
220
0.0
230
1.0
 70
    24
 71
     3
 72
    10
 73
     6
 74
     0
 42
0.000000001
 43
0.00000001
 40
0.0
 40
0.0
 40
0.0
 40
0.0
 40
0.5
 40
0.5
 40
1.0
 40
1.0
 40
1.0
 40
1.0
 10
39.68750000000001
 20
1.389062499999999
 30
0.0
 10
39.68750000000002
 20
1.473264009602013
 30
0.0
 10
39.68750000000002
 20
1.571113961658185
 30
0.0
 10
39.68750000000001
 20
1.776402897531697
 30
0.0
 10
39.68750000000001
 20
1.883317599168546
 30
0.0
 10
39.68750000000001
 20
1.982697836471324
 30
0.0
  0
LINE
  5
D3
330
1F
100
AcDbEntity
  8
중심선
 62
     1
100
AcDbLine
 10
-42.68750000000001
 20
-0.0000000000000052
 30
0.0
 11
42.6875
 21
0.0000000000000052
 31
0.0
  0
LINE
  5
D4
330
1F
100
AcDbEntity
  8
참조1
100
AcDbLine
 10
-18.16921167873052
 20
0.0010749287238892
 30
0.0
 11
-18.16921167873052
 21
-39.99892507127611
 31
0.0
  0
LINE
  5
D5
330
1F
100
AcDbEntity
  8
참조1
100
AcDbLine
 10
-18.16921167873052
 20
-39.99892507127611
 30
0.0
 11
-29.45992727542973
 21
-39.9989250712761
 31
0.0
  0
CIRCLE
  5
D6
330
1F
100
AcDbEntity
  8
해칭선
100
AcDbCircle
 10
0.0
 20
-0.0000000000000007
 30
0.0
 40
3.000000000000001
  0
INSERT
  5
D7
330
1F
100
AcDbEntity
  8
0
  6
Continuous
 62
     7
100
AcDbBlockReference
 66
     1
  2
블럭10
 10
-11.80883386614855
 20
-31.52716206106548
 30
0.0
  0
ATTRIB
  5
D8
330
D7
100
AcDbEntity
  8
FORMAT
 62
     2
100
AcDbText
 10
-20.99012915488982
 20
-29.45179514823329
 30
0.0
 40
4.233333333333333
  1
E5025010 [ 2 FLUTE ]
 41
0.75
  7
SLDTEXTSTYLE0
 11
-20.99012915488982
 21
-31.56846181489996
 31
0.0
100
AcDbAttribute
  2
AUTOATTR0
 70
     0
 74
     1
  0
SEQEND
  5
D9
330
D7
100
AcDbEntity
  8
0
  6
Continuous
 62
     7
  0
HATCH
  5
DA
330
1F
100
AcDbEntity
  8
중심선
100
AcDbHatch
 10
0.0
 20
0.0
 30
0.0
210
0.0
220
0.0
230
1.0
  2
SOLID
 70
     1
 71
     0
 91
        1
 92
        0
 93
        4
 72
     1
 10
-6.093924561767693
 20
-15.27998775942154
 11
-9.540199805604974
 21
-15.27998775942154
 72
     1
 10
-9.540199805604974
 20
-15.27998775942154
 11
-11.668429664809
 21
-17.81631333999415
 72
     1
 10
-11.668429664809
 20
-17.81631333999415
 11
-8.222121335858567
 21
-17.81627391069166
 72
     1
 10
-8.222121335858567
 20
-17.81627391069166
 11
-6.093924561767693
 21
-15.27998775942154
 97
        0
 75
     0
 76
     1
 98
        1
 10
20.30065074470718
 20
20.51893731185456
  0
HATCH
  5
DB
330
1F
100
AcDbEntity
  8
중심선
100
AcDbHatch
 10
0.0
 20
0.0
 30
0.0
210
0.0
220
0.0
230
1.0
  2
SOLID
 70
     1
 71
     0
 91
        1
 92
        0
 93
        4
 72
     1
 10
-1.08116057073174
 20
-15.27998775942157
 11
-4.527435814569024
 21
-15.27998775942154
 72
     1
 10
-4.527435814569024
 20
-15.27998775942154
 11
-9.058573822926412
 21
-20.67998775942156
 72
     1
 10
-9.058573822926412
 20
-20.67998775942156
 11
-5.612298579089131
 21
-20.67998775942156
 72
     1
 10
-5.612298579089131
 20
-20.67998775942156
 11
-1.08116057073174
 21
-15.27998775942157
 97
        0
 75
     0
 76
     1
 98
        1
 10
20.30065074470718
 20
20.51893731185456
  0
HATCH
  5
DC
330
1F
100
AcDbEntity
  8
중심선
100
AcDbHatch
 10
0.0
 20
0.0
 30
0.0
210
0.0
220
0.0
230
1.0
  2
SOLID
 70
     1
 71
     0
 91
        1
 92
        0
 93
        4
 72
     1
 10
3.931603420304153
 20
-15.27998775942154
 11
0.4853281764670392
 21
-15.27998775942152
 72
     1
 10
0.4853281764670392
 20
-15.27998775942152
 11
-6.563108725422211
 21
-23.67998775942156
 72
     1
 10
-6.563108725422211
 20
-23.67998775942156
 11
-3.11683348158493
 21
-23.67998775942156
 72
     1
 10
-3.11683348158493
 20
-23.67998775942156
 11
3.931603420304153
 21
-15.27998775942154
 97
        0
 75
     0
 76
     1
 98
        1
 10
20.30065074470718
 20
20.51893731185456
  0
HATCH
  5
DD
330
1F
100
AcDbEntity
  8
중심선
100
AcDbHatch
 10
0.0
 20
0.0
 30
0.0
210
0.0
220
0.0
230
1.0
  2
SOLID
 70
     1
 71
     0
 91
        1
 92
        0
 93
        6
 72
     3
 10
8.731493851316353
 20
-19.47998775947282
 11
3.960054785062283
 21
1.540882976769353E-10
 40
0.3939339440162628
 50
17.09539180608436
 51
320.0019657685077
 73
     0
 72
     1
 10
10.41449350701692
 20
-18.06788176405985
 11
12.71979538071801
 21
-16.13355505401193
 72
     3
 10
8.731493851263506
 20
-19.4799877594217
 11
6.600054785286829
 21
-1.278976924368180E-13
 40
0.636358354079598
 50
39.99873849337385
 51
368.4976242363724
 73
     1
 72
     1
 10
15.15682634316412
 20
-18.51998775935157
 11
7.411561158099429
 21
-18.51998775935157
 72
     1
 10
7.411561158099429
 20
-18.51998775935157
 11
7.411536113653495
 21
-20.43998775935146
 72
     1
 10
7.411536113653495
 20
-20.43998775935146
 11
11.85291588312553
 21
-20.43998775935143
 97
        0
 75
     0
 76
     1
 98
        1
 10
20.30065074470718
 20
20.51893731185456
  0
DIMENSION
  5
DE
330
1F
100
AcDbEntity
  8
치수문자_일반주서
100
AcDbDimension
  2
_D
 10
-53.18249999999997
 20
-4.762500000000141
 30
0.0
 11
-53.18250000000008
 21
24.71024999999995
 31
0.0
 70
   160
  1
%%c<>
 71
     2
 42
9.524999999999999
 52
-270.0
  3
SLDDIMSTYLE0
100
AcDbAlignedDimension
 13
-17.20689635022272
 23
4.762499999999991
 33
0.0
 14
-17.20689635022272
 24
-4.762500000000007
 34
0.0
 50
90.0000000000002
100
AcDbRotatedDimension
1001
ACAD
1000
DSTYLE
1002
{
1070
   171
1070
     6
1070
   273
1070
     5
1002
}
  0
DIMENSION
  5
F3
330
1F
100
AcDbEntity
  8
치수문자_일반주서
100
AcDbDimension
  2
_D_1
 10
56.87150197508895
 20
1.982697836471388
 30
0.0
 11
56.87150197508888
 21
23.02419783647139
 31
0.0
 70
   160
  1
%%c<>
 71
     2
 42
3.96539567294265
 52
-270.0
  3
SLDDIMSTYLE0
100
AcDbAlignedDimension
 13
39.68750000000001
 23
-1.982697836471325
 33
0.0
 14
39.68750000000001
 24
1.982697836471324
 34
0.0
 50
90.0000000000002
100
AcDbRotatedDimension
1001
ACAD
1000
DSTYLE
1002
{
1070
   171
1070
     6
1070
   273
1070
     5
1002
}
  0
DIMENSION
  5
107
330
1F
100
AcDbEntity
  8
치수문자_일반주서
100
AcDbDimension
  2
_D_2
 10
28.57499999999997
 20
21.61389839985791
 30
0.0
 11
9.720999999999972
 21
21.61389839985791
 31
0.0
 70
   160
  1
<>
 71
     2
 42
11.11250000000004
  3
SLDDIMSTYLE0
100
AcDbAlignedDimension
 13
39.68750000000001
 23
1.982697836471324
 33
0.0
 14
28.57499999999997
 24
1.501499545581161
 34
0.0
100
AcDbRotatedDimension
1001
ACAD
1000
DSTYLE
1002
{
1070
   171
1070
     6
1070
   273
1070
     5
1002
}
  0
DIMENSION
  5
11C
330
1F
100
AcDbEntity
  8
치수문자_일반주서
100
AcDbDimension
  2
_D_3
 10
39.68750000000001
 20
38.38250000000002
 30
0.0
 11
0.0000000000000178
 21
38.38250000000002
 31
0.0
 70
   160
  1
<>
 71
     2
 42
79.375
  3
SLDDIMSTYLE0
100
AcDbAlignedDimension
 13
-39.68749999999999
 23
1.98269783647132
 33
0.0
 14
39.68750000000001
 24
1.982697836471324
 34
0.0
100
AcDbRotatedDimension
1001
ACAD
1000
DSTYLE
1002
{
1070
   171
1070
     6
1070
   273
1070
     5
1002
}
  0
LINE
  5
12F
330
1F
100
AcDbEntity
  8
참조1
100
AcDbLine
 10
68.51241335422453
 20
7.441074928723896
 30
0.0
 11
68.51241335422453
 21
-7.438925071276109
 31
0.0
  0
LINE
  5
130
330
1F
100
AcDbEntity
  8
참조1
100
AcDbLine
 10
81.21241335422454
 20
5.441074928723896
 30
0.0
 11
68.51241335422453
 21
5.441074928723896
 31
0.0
  0
SOLID
  5
131
330
1F
100
AcDbEntity
  8
참조1
100
AcDbTrace
 10
68.51241335422453
 20
5.441074928723896
 30
0.0
 11
74.86241335422453
 21
4.425074928723896
 31
0.0
 12
74.86241335422453
 22
6.457074928723896
 32
0.0
 13
74.86241335422453
 23
6.457074928723896
 33
0.0
  0
LINE
  5
132
330
1F
100
AcDbEntity
  8
참조1
100
AcDbLine
 10
81.21241335422454
 20
-5.438925071276109
 30
0.0
 11
68.51241335422453
 21
-5.438925071276109
 31
0.0
  0
SOLID
  5
133
330
1F
100
AcDbEntity
  8
참조1
100
AcDbTrace
 10
68.51241335422453
 20
-5.438925071276109
 30
0.0
 11
74.86241335422453
 21
-6.454925071276109
 31
0.0
 12
74.86241335422453
 22
-4.422925071276109
 32
0.0
 13
74.86241335422453
 23
-4.422925071276109
 33
0.0
  0
MTEXT
  5
134
330
1F
100
AcDbEntity
  8
참조1
100
AcDbMText
 10
77.89676348685053
 20
11.01136670591222
 30
0.0
 40
3.5
 41
0.0
 71
     1
 72
     1
  1
A
  7
SLDTEXTSTYLE0
 73
     1
 44
1.0
  0
MTEXT
  5
135
330
1F
100
AcDbEntity
  8
참조1
100
AcDbMText
 10
77.89676348685053
 20
0.1313667059122192
 30
0.0
 40
3.5
 41
0.0
 71
     1
 72
     1
  1
A
  7
SLDTEXTSTYLE0
 73
     1
 44
1.0
  0
INSERT
  5
13C
330
1F
100
AcDbEntity
  8
해칭선
100
AcDbBlockReference
  2
SW_DOWELSYMBOL_0
 10
0.0
 20
-0.0000000000000007
 30
0.0
  0
LINE
  5
18B
330
1F
100
AcDbEntity
  8
외형선
  6
Continuous
370
    15
100
AcDbLine
 10
-3.568700000000099
 20
3.492500000000015
 30
0.0
 11
3.568700000000028
 21
3.492500000000015
 31
0.0
  0
LINE
  5
18C
330
1F
100
AcDbEntity
  8
외형선
  6
Continuous
370
    15
100
AcDbLine
 10
-3.568700000000099
 20
3.492500000000015
 30
0.0
 11
-4.838700000000081
 21
4.762499999999997
 31
0.0
  0
LINE
  5
18D
330
1F
100
AcDbEntity
  8
외형선
  6
Continuous
370
    15
100
AcDbLine
 10
3.568700000000028
 20
3.492500000000015
 30
0.0
 11
4.838700000000124
 21
4.762499999999997
 31
0.0
  0
LINE
  5
2FE
330
1F
100
AcDbEntity
  8
외형선
  6
Continuous
370
    15
100
AcDbLine
 10
-17.20689635022272
 20
4.762499999999991
 30
0.0
 11
-27.57499999999997
 21
1.984374999999992
 31
0.0
  0
LINE
  5
2FF
330
1F
100
AcDbEntity
  8
외형선
  6
Continuous
370
    15
100
AcDbLine
 10
-27.57499999999997
 20
-1.984375000000006
 30
0.0
 11
-17.20689635022272
 21
-4.762500000000007
 31
0.0
  0
LINE
  5
300
330
1F
100
AcDbEntity
  8
외형선
  6
Continuous
370
    15
100
AcDbLine
 10
-27.68509880881085
 20
-1.984375000000006
 30
0.0
 11
-27.57499999999997
 21
-1.984375000000006
 31
0.0
  0
LINE
  5
301
330
1F
100
AcDbEntity
  8
외형선
  6
Continuous
370
    15
100
AcDbLine
 10
-27.57499999999997
 20
1.984374999999992
 30
0.0
 11
-27.68509880881085
 21
1.984374999999992
 31
0.0
  0
SPLINE
  5
302
330
1F
100
AcDbEntity
  8
외형선
  6
Continuous
370
    15
100
AcDbSpline
210
0.0
220
0.0
230
1.0
 70
     8
 71
     3
 72
     9
 73
     5
 74
     0
 42
0.000000001
 43
0.00000001
 40
0.0
 40
0.0
 40
0.0
 40
0.0
 40
0.5014225985410063
 40
1.0
 40
1.0
 40
1.0
 40
1.0
 10
-28.15165781176982
 20
-1.357219146407041
 30
0.0
 10
-28.07353268704323
 20
-1.350818222588608
 30
0.0
 10
-27.91772573906373
 20
-1.338052695392471
 30
0.0
 10
-27.76251051406889
 20
-1.329144940184027
 30
0.0
 10
-27.68512371052411
 20
-1.324703734739366
 30
0.0
  0
LINE
  5
303
330
1F
100
AcDbEntity
  8
0
  6
Continuous
 62
     1
370
    15
100
AcDbLine
 10
-33.49566640488389
 20
-0.5330007537312447
 30
0.0
 11
-33.42677556661
 21
-0.5705124957252987
 31
0.0
  0
LINE
  5
304
330
1F
100
AcDbEntity
  8
0
  6
Continuous
 62
     1
370
    15
100
AcDbLine
 10
-34.03201776568351
 20
-0.7656484730174185
 30
0.0
 11
-33.99696556192917
 21
-0.7837477525989704
 31
0.0
  0
SPLINE
  5
305
330
1F
100
AcDbEntity
  8
0
  6
Continuous
 62
     1
370
    15
100
AcDbSpline
210
0.0
220
0.0
230
1.0
 70
     8
 71
     3
 72
     9
 73
     5
 74
     0
 42
0.000000001
 43
0.00000001
 40
0.0
 40
0.0
 40
0.0
 40
0.0
 40
0.5018907809478518
 40
1.0
 40
1.0
 40
1.0
 40
1.0
 10
-34.54556872201887
 20
-0.5084994257426956
 30
0.0
 10
-34.4596529994629
 20
-0.5495162973684102
 30
0.0
 10
-34.28846889762765
 20
-0.6312409936225414
 30
0.0
 10
-34.11728569637454
 20
-0.7209590713738538
 30
0.0
 10
-34.03201776568351
 20
-0.7656484730174185
 30
0.0
  0
LINE
  5
306
330
1F
100
AcDbEntity
  8
0
  6
Continuous
 62
     1
370
    15
100
AcDbLine
 10
-29.99293164746275
 20
-1.984375000000008
 30
0.0
 11
-29.0315357008643
 21
-1.984375000000008
 31
0.0
  0
SPLINE
  5
307
330
1F
100
AcDbEntity
  8
0
  6
Continuous
 62
     1
370
    15
100
AcDbSpline
210
0.0
220
0.0
230
1.0
 70
     8
 71
     3
 72
    10
 73
     6
 74
     0
 42
0.000000001
 43
0.00000001
 40
0.0
 40
0.0
 40
0.0
 40
0.0
 40
0.3997104562605387
 40
0.9244156446032251
 40
1.0
 40
1.0
 40
1.0
 40
1.0
 10
-33.89114923924531
 20
-1.576868027759773
 30
0.0
 10
-33.67138613134888
 20
-1.567594607220115
 30
0.0
 10
-33.16313709291576
 20
-1.546147845216326
 30
0.0
 10
-32.6136051584087
 20
-1.545889510195745
 30
0.0
 10
-32.2838189746633
 20
-1.560049337710517
 30
0.0
 10
-32.24229455302857
 20
-1.561832246385831
 30
0.0
  0
SPLINE
  5
308
330
1F
100
AcDbEntity
  8
0
  6
Continuous
 62
     1
370
    15
100
AcDbSpline
210
0.0
220
0.0
230
1.0
 70
     8
 71
     3
 72
    12
 73
     8
 74
     0
 42
0.000000001
 43
0.00000001
 40
0.0
 40
0.0
 40
0.0
 40
0.0
 40
0.2203595991203302
 40
0.5079020951235977
 40
0.6819406273833513
 40
0.7850952914177108
 40
1.0
 40
1.0
 40
1.0
 40
1.0
 10
-30.9068012102364
 20
1.651262356035401
 30
0.0
 10
-31.1260855174615
 20
1.6312097113919
 30
0.0
 10
-31.63150919544954
 20
1.584990802536278
 30
0.0
 10
-32.30941708755985
 20
1.554199787144191
 30
0.0
 10
-32.87156102441038
 20
1.548240826418909
 30
0.0
 10
-33.36049248666377
 20
1.553407195806975
 30
0.0
 10
-33.67717490440042
 20
1.567408022044988
 30
0.0
 10
-33.89114923924531
 20
1.576868027759763
 30
0.0
  0
SPLINE
  5
309
330
1F
100
AcDbEntity
  8
0
  6
Continuous
 62
     1
370
    15
100
AcDbSpline
210
0.0
220
0.0
230
1.0
 70
     8
 71
     3
 72
    12
 73
     8
 74
     0
 42
0.000000001
 43
0.00000001
 40
0.0
 40
0.0
 40
0.0
 40
0.0
 40
0.2671840104270422
 40
0.4504191910765318
 40
0.5648457998608692
 40
0.6763808534642589
 40
0.9999999999999999
 40
0.9999999999999999
 40
0.9999999999999999
 40
0.9999999999999999
 10
-35.48291403605067
 20
1.492516380840885
 30
0.0
 10
-35.61719690552643
 20
1.472280991498695
 30
0.0
 10
-35.84357116103685
 20
1.438168142889008
 30
0.0
 10
-36.1264701388851
 20
1.403504068681341
 30
0.0
 10
-36.32850374390149
 20
1.381481425499065
 30
0.0
 10
-36.60174532461453
 20
1.353922544419503
 30
0.0
 10
-36.8195572973594
 20
1.341132679312126
 30
0.0
 10
-36.9815415427198
 20
1.331621004533315
 30
0.0
  0
SPLINE
  5
30A
330
1F
100
AcDbEntity
  8
0
  6
Continuous
 62
     1
370
    15
100
AcDbSpline
210
0.0
220
0.0
230
1.0
 70
     8
 71
     3
 72
    20
 73
    16
 74
     0
 42
0.000000001
 43
0.00000001
 40
0.0
 40
0.0
 40
0.0
 40
0.0
 40
0.1137331324549234
 40
0.1889115300556307
 40
0.2430494001225584
 40
0.2996966172768133
 40
0.3551167274739587
 40
0.4077790622279154
 40
0.4629631120896353
 40
0.5324763504502775
 40
0.6065562388178052
 40
0.6824659718200259
 40
0.7533596951103794
 40
0.8531554092482341
 40
1.0
 40
1.0
 40
1.0
 40
1.0
 10
-38.95827268781166
 20
-1.357973386152141
 30
0.0
 10
-38.82553916658135
 20
-1.347484729673033
 30
0.0
 10
-38.60506785761406
 20
-1.330062997756157
 30
0.0
 10
-38.32362901020544
 20
-1.316670851667237
 30
0.0
 10
-38.10982376136742
 20
-1.309725541008657
 30
0.0
 10
-37.9172323453753
 20
-1.306222720788311
 30
0.0
 10
-37.72643283632571
 20
-1.305475522086811
 30
0.0
 10
-37.53746982473071
 20
-1.307381648960899
 30
0.0
 10
-37.33230620587723
 20
-1.312344699669553
 30
0.0
 10
-37.10207639120667
 20
-1.321531829382921
 30
0.0
 10
-36.84784576526069
 20
-1.336247856169991
 30
0.0
 10
-36.59203133151608
 20
-1.355786533716276
 30
0.0
 10
-36.30679134011079
 20
-1.383112290742015
 30
0.0
 10
-35.93943878720587
 20
-1.424622158149295
 30
0.0
 10
-35.65328446448139
 20
-1.467178942336919
 30
0.0
 10
-35.48291403605067
 20
-1.492516380840896
 30
0.0
  0
LINE
  5
30B
330
1F
100
AcDbEntity
  8
0
  6
Continuous
 62
     1
370
    15
100
AcDbLine
 10
-29.0315357008643
 20
1.984374999999996
 30
0.0
 11
-29.99293164746275
 21
1.984374999999996
 31
0.0
  0
LINE
  5
30C
330
1F
100
AcDbEntity
  8
외형선
  6
Continuous
370
    15
100
AcDbLine
 10
-27.57499999999997
 20
-1.984375000000006
 30
0.0
 11
-27.57499999999997
 21
1.984374999999992
 31
0.0
  0
SPLINE
  5
30D
330
1F
100
AcDbEntity
  8
외형선
  6
Continuous
370
    15
100
AcDbSpline
210
0.0
220
0.0
230
1.0
 70
     8
 71
     3
 72
    10
 73
     6
 74
     0
 42
0.000000001
 43
0.00000001
 40
0.0
 40
0.0
 40
0.0
 40
0.0
 40
0.5
 40
0.5
 40
1.0
 40
1.0
 40
1.0
 40
1.0
 10
-28.57499999999997
 20
-1.966874107228467
 30
0.0
 10
-28.42625689007333
 20
-1.955516453848127
 30
0.0
 10
-28.27656768776332
 20
-1.938608098581977
 30
0.0
 10
-27.97905508317264
 20
-1.894113511821069
 30
0.0
 10
-27.83269795112979
 20
-1.866645309771344
 30
0.0
 10
-27.68509880881085
 20
-1.834001535736004
 30
0.0
  0
SPLINE
  5
30E
330
1F
100
AcDbEntity
  8
외형선
  6
Continuous
370
    15
100
AcDbSpline
210
0.0
220
0.0
230
1.0
 70
     8
 71
     3
 72
    10
 73
     6
 74
     0
 42
0.000000001
 43
0.00000001
 40
0.0
 40
0.0
 40
0.0
 40
0.0
 40
0.5
 40
0.5
 40
1.0
 40
1.0
 40
1.0
 40
1.0
 10
-28.57499999999997
 20
1.817748158612982
 30
0.0
 10
-28.42627423546985
 20
1.783374462994279
 30
0.0
 10
-28.27660259890108
 20
1.743821808156422
 30
0.0
 10
-27.97912425372031
 20
1.655350444551666
 30
0.0
 10
-27.83278320339191
 20
1.606617536798587
 30
0.0
 10
-27.68520208049769
 20
1.553431043961063
 30
0.0
  0
LINE
  5
30F
330
1F
100
AcDbEntity
  8
외형선
  6
Continuous
370
    15
100
AcDbLine
 10
-28.57499999999997
 20
1.817748158612982
 30
0.0
 11
-28.57499999999997
 21
1.966874107228457
 31
0.0
  0
SPLINE
  5
310
330
1F
100
AcDbEntity
  8
외형선
  6
Continuous
370
    15
100
AcDbSpline
210
0.0
220
0.0
230
1.0
 70
     8
 71
     3
 72
    10
 73
     6
 74
     0
 42
0.000000001
 43
0.00000001
 40
0.0
 40
0.0
 40
0.0
 40
0.0
 40
0.5
 40
0.5
 40
1.0
 40
1.0
 40
1.0
 40
1.0
 10
-28.57499999999997
 20
1.966874107228455
 30
0.0
 10
-28.42625689007333
 20
1.955516453848117
 30
0.0
 10
-28.27656768776332
 20
1.938608098581965
 30
0.0
 10
-27.97905508317264
 20
1.894113511821057
 30
0.0
 10
-27.83269795112979
 20
1.866645309771332
 30
0.0
 10
-27.68509880881085
 20
1.834001535735992
 30
0.0
  0
LINE
  5
311
330
1F
100
AcDbEntity
  8
외형선
  6
Continuous
370
    15
100
AcDbLine
 10
-27.68509880881085
 20
1.984374999999992
 30
0.0
 11
-27.68509880881085
 21
1.833742551817024
 31
0.0
  0
LINE
  5
312
330
1F
100
AcDbEntity
  8
외형선
  6
Continuous
370
    15
100
AcDbLine
 10
-27.68509880881085
 20
1.553378124821372
 30
0.0
 11
-27.68509880881085
 21
-1.984375000000006
 31
0.0
  0
SPLINE
  5
313
330
1F
100
AcDbEntity
  8
외형선
  6
Continuous
370
    15
100
AcDbSpline
210
0.0
220
0.0
230
1.0
 70
     8
 71
     3
 72
    10
 73
     6
 74
     0
 42
0.000000001
 43
0.00000001
 40
0.0
 40
0.0
 40
0.0
 40
0.0
 40
0.5000000000000001
 40
0.5000000000000001
 40
1.0
 40
1.0
 40
1.0
 40
1.0
 10
-28.57499999999995
 20
1.501499545581157
 30
0.0
 10
-28.42627423546982
 20
1.468313333227689
 30
0.0
 10
-28.27660259890105
 20
1.430839090597076
 30
0.0
 10
-27.97912425372031
 20
1.348254399838026
 30
0.0
 10
-27.83278320339191
 20
1.303312839204966
 30
0.0
 10
-27.68520208049769
 20
1.254758436881368
 30
0.0
  0
SPLINE
  5
314
330
1F
100
AcDbEntity
  8
외형선
  6
Continuous
370
    15
100
AcDbSpline
210
0.0
220
0.0
230
1.0
 70
     8
 71
     3
 72
    10
 73
     6
 74
     0
 42
0.000000001
 43
0.00000001
 40
0.0
 40
0.0
 40
0.0
 40
0.0
 40
0.5
 40
0.5
 40
1.0
 40
1.0
 40
1.0
 40
1.0
 10
-28.57499999977874
 20
-0.1455145440976746
 30
0.0
 10
-28.42626322825051
 20
-0.2137883856554204
 30
0.0
 10
-28.27658044486172
 20
-0.2817972236209243
 30
0.0
 10
-27.97908035941099
 20
-0.4155775348796282
 30
0.0
 10
-27.83272910407921
 20
-0.4811354534981802
 30
0.0
 10
-27.68513654646198
 20
-0.5453599635487414
 30
0.0
  0
SPLINE
  5
315
330
1F
100
AcDbEntity
  8
외형선
  6
Continuous
370
    15
100
AcDbSpline
210
0.0
220
0.0
230
1.0
 70
    24
 71
     3
 72
    10
 73
     6
 74
     0
 42
0.000000001
 43
0.00000001
 40
0.0
 40
0.0
 40
0.0
 40
0.0
 40
0.5
 40
0.5
 40
1.0
 40
1.0
 40
1.0
 40
1.0
 10
-28.57499999999997
 20
-0.1455145439961132
 30
0.0
 10
-28.57499999999997
 20
0.160473921828417
 30
0.0
 10
-28.57499999999997
 20
0.4797253064117151
 30
0.0
 10
-28.57499999999997
 20
1.055438344447747
 30
0.0
 10
-28.57499999999997
 20
1.30942190392275
 30
0.0
 10
-28.57499999999997
 20
1.501499545581166
 30
0.0
  0
LINE
  5
316
330
1F
100
AcDbEntity
  8
외형선
  6
Continuous
370
    15
100
AcDbLine
 10
-28.57499999999997
 20
-1.383214703410567
 30
0.0
 11
-28.14912507704845
 21
-1.345554508711616
 31
0.0
  0
SPLINE
  5
317
330
1F
100
AcDbEntity
  8
외형선
  6
Continuous
370
    15
100
AcDbSpline
210
0.0
220
0.0
230
1.0
 70
    24
 71
     3
 72
    14
 73
    10
 74
     0
 42
0.000000001
 43
0.00000001
 40
0.0
 40
0.0
 40
0.0
 40
0.0
 40
0.2500000000000001
 40
0.2500000000000001
 40
0.5000000000000001
 40
0.5000000000000001
 40
0.75
 40
0.75
 40
1.0
 40
1.0
 40
1.0
 40
1.0
 10
-28.57499999999995
 20
-1.383214703410567
 30
0.0
 10
-28.57499999999995
 20
-1.361692014593417
 30
0.0
 10
-28.57499999999995
 20
-1.318093337337505
 30
0.0
 10
-28.57499999999995
 20
-1.184453031085305
 30
0.0
 10
-28.57499999999995
 20
-1.094386058948349
 30
0.0
 10
-28.57499999999995
 20
-0.8744110563508556
 30
0.0
 10
-28.57499999999995
 20
-0.7446202377684663
 30
0.0
 10
-28.57499999999995
 20
-0.4596192415276981
 30
0.0
 10
-28.57499999999995
 20
-0.3045963149847821
 30
0.0
 10
-28.57499999999995
 20
-0.1455145439961327
 30
0.0
  0
SPLINE
  5
318
330
1F
100
AcDbEntity
  8
외형선
  6
Continuous
370
    15
100
AcDbSpline
210
0.0
220
0.0
230
1.0
 70
    24
 71
     3
 72
     8
 73
     4
 74
     0
 42
0.000000001
 43
0.00000001
 40
0.0
 40
0.0
 40
0.0
 40
0.0
 40
1.0
 40
1.0
 40
1.0
 40
1.0
 10
-28.57499999999997
 20
1.501499545581166
 30
0.0
 10
-28.57499999999997
 20
1.605614140083078
 30
0.0
 10
-28.57499999999997
 20
1.711702081952148
 30
0.0
 10
-28.57499999999997
 20
1.817748158612442
 30
0.0
  0
SPLINE
  5
319
330
1F
100
AcDbEntity
  8
외형선
  6
Continuous
370
    15
100
AcDbSpline
210
0.0
220
0.0
230
1.0
 70
    24
 71
     3
 72
    10
 73
     6
 74
     0
 42
0.000000001
 43
0.00000001
 40
0.0
 40
0.0
 40
0.0
 40
0.0
 40
0.5
 40
0.5
 40
1.0
 40
1.0
 40
1.0
 40
1.0
 10
-28.57499999999986
 20
-1.966874107216267
 30
0.0
 10
-28.57499999999986
 20
-1.865581383321872
 30
0.0
 10
-28.57499999999986
 20
-1.758563902473889
 30
0.0
 10
-28.57499999999986
 20
-1.556825589743885
 30
0.0
 10
-28.57499999999986
 20
-1.46260566502021
 30
0.0
 10
-28.57499999999986
 20
-1.383214703410563
 30
0.0
  0
SPLINE
  5
31A
330
1F
100
AcDbEntity
  8
0
  6
Continuous
 62
     1
370
    15
100
AcDbSpline
210
0.0
220
0.0
230
1.0
 70
     8
 71
     3
 72
    42
 73
    38
 74
     0
 42
0.000000001
 43
0.00000001
 40
0.0
 40
0.0
 40
0.0
 40
0.0
 40
0.0625000000000003
 40
0.0625000000000003
 40
0.1250000000000006
 40
0.1250000000000006
 40
0.1875000000000009
 40
0.1875000000000009
 40
0.2500000000000012
 40
0.2500000000000012
 40
0.3125000000000014
 40
0.3125000000000014
 40
0.3750000000000018
 40
0.3750000000000018
 40
0.4062500000000017
 40
0.4062500000000017
 40
0.4375000000000017
 40
0.4375000000000017
 40
0.4687500000000017
 40
0.4687500000000017
 40
0.5000000000000017
 40
0.5000000000000017
 40
0.5625000000000014
 40
0.5625000000000014
 40
0.6250000000000011
 40
0.6250000000000011
 40
0.6875000000000009
 40
0.6875000000000009
 40
0.7500000000000006
 40
0.7500000000000006
 40
0.8125000000000004
 40
0.8125000000000004
 40
0.8750000000000003
 40
0.8750000000000003
 40
0.9375000000000001
 40
0.9375000000000001
 40
1.0
 40
1.0
 40
1.0
 40
1.0
 10
-39.68749999999999
 20
1.982697836471318
 30
0.0
 10
-39.45881625021316
 20
1.977225581054916
 30
0.0
 10
-39.22463112206295
 20
1.95818677317095
 30
0.0
 10
-38.75940464733354
 20
1.893680875870483
 30
0.0
 10
-38.53164122284154
 20
1.848573611002007
 30
0.0
 10
-38.06727900051818
 20
1.733336155375992
 30
0.0
 10
-37.83273762399419
 20
1.663189916848246
 30
0.0
 10
-37.37315122871173
 20
1.502334642377428
 30
0.0
 10
-37.14148538427743
 20
1.410925112786998
 30
0.0
 10
-36.67573370324745
 20
1.209762682351838
 30
0.0
 10
-36.44734965889619
 20
1.100912578492975
 30
0.0
 10
-35.98418863488085
 20
0.8687946517095295
 30
0.0
 10
-35.74946519018233
 20
0.7454471820124049
 30
0.0
 10
-35.40335529168455
 20
0.5551409800647644
 30
0.0
 10
-35.28945186892459
 20
0.4909288375214971
 30
0.0
 10
-35.05823439464315
 20
0.3604234974689586
 30
0.0
 10
-34.94174343121735
 20
0.2942795386656425
 30
0.0
 10
-34.7087751499176
 20
0.1612127619877015
 30
0.0
 10
-34.59230087746757
 20
0.094291683977388
 30
0.0
 10
-34.36114932114786
 20
-0.0392986050899118
 30
0.0
 10
-34.24726078019798
 20
-0.1058155533786234
 30
0.0
 10
-33.90104143703256
 20
-0.3053657088967092
 30
0.0
 10
-33.66631055968323
 20
-0.4379593382439395
 30
0.0
 10
-33.20326720168397
 20
-0.6941989476633512
 30
0.0
 10
-32.97480174314661
 20
-0.8179201352180889
 30
0.0
 10
-32.50902107422617
 20
-1.054121081872721
 30
0.0
 10
-32.27754143656996
 20
-1.165555109661441
 30
0.0
 10
-31.81778120644601
 20
-1.370702642768653
 30
0.0
 10
-31.58321755056694
 20
-1.465286808424726
 30
0.0
 10
-31.11894444938669
 20
-1.632549833458514
 30
0.0
 10
-30.89115236585751
 20
-1.705156340797431
 30
0.0
 10
-30.42586798597007
 20
-1.82722709176515
 30
0.0
 10
-30.191920850454
 20
-1.876194576879073
 30
0.0
 10
-29.73435202416418
 20
-1.947524911510046
 30
0.0
 10
-29.50012982564807
 20
-1.97042666335204
 30
0.0
 10
-29.03496371088865
 20
-1.988883372867822
 30
0.0
 10
-28.80722445193051
 20
-1.98460618794653
 30
0.0
 10
-28.57499999999844
 20
-1.96687410722835
 30
0.0
  0
SPLINE
  5
31B
330
1F
100
AcDbEntity
  8
0
  6
Continuous
 62
     1
370
    15
100
AcDbSpline
210
0.0
220
0.0
230
1.0
 70
     8
 71
     3
 72
    14
 73
    10
 74
     0
 42
0.000000001
 43
0.00000001
 40
0.0
 40
0.0
 40
0.0
 40
0.0
 40
0.0111555224507997
 40
0.1729697609574662
 40
0.3347765189149257
 40
0.4965852447972267
 40
0.6584053819270496
 40
0.8292015895834955
 40
0.9999999999999999
 40
0.9999999999999999
 40
0.9999999999999999
 40
0.9999999999999999
 10
-34.75418155308616
 20
0.1869884996196138
 30
0.0
 10
-34.73120464866948
 20
0.1780606989616473
 30
0.0
 10
-34.3749407729053
 20
0.0396324404470658
 30
0.0
 10
-33.68541613870231
 20
-0.2476283639001238
 30
0.0
 10
-32.68559969587925
 20
-0.6329534914541461
 30
0.0
 10
-31.68576226429714
 20
-0.9684149735935648
 30
0.0
 10
-30.66743578817211
 20
-1.224070888624603
 30
0.0
 10
-29.63044694769853
 20
-1.384378931285815
 30
0.0
 10
-28.92681716167625
 20
-1.383602781037308
 30
0.0
 10
-28.57499999999997
 20
-1.383214703410567
 30
0.0
  0
SPLINE
  5
31C
330
1F
100
AcDbEntity
  8
외형선
  6
Continuous
370
    15
100
AcDbSpline
210
0.0
220
0.0
230
1.0
 70
    24
 71
     3
 72
    10
 73
     6
 74
     0
 42
0.000000001
 43
0.00000001
 40
0.0
 40
0.0
 40
0.0
 40
0.0
 40
0.5
 40
0.5
 40
1.0
 40
1.0
 40
1.0
 40
1.0
 10
-28.57499999999986
 20
-1.966874107216271
 30
0.0
 10
-28.57499999999986
 20
-1.865581383321875
 30
0.0
 10
-28.57499999999986
 20
-1.758563902473892
 30
0.0
 10
-28.57499999999986
 20
-1.556825589743885
 30
0.0
 10
-28.57499999999986
 20
-1.46260566502021
 30
0.0
 10
-28.57499999999986
 20
-1.383214703410563
 30
0.0
  0
SPLINE
  5
31D
330
1F
100
AcDbEntity
  8
0
  6
Continuous
 62
     1
370
    15
100
AcDbSpline
210
0.0
220
0.0
230
1.0
 70
     8
 71
     3
 72
    17
 73
    13
 74
     0
 42
0.000000001
 43
0.00000001
 40
0.0
 40
0.0
 40
0.0
 40
0.0
 40
0.1070303659895853
 40
0.2140509889096067
 40
0.3210626769747256
 40
0.4280662448590789
 40
0.5350625131240675
 40
0.6420523076370567
 40
0.742916595396456
 40
0.8437600248322524
 40
0.9445941739026297
 40
1.0
 40
1.0
 40
1.0
 40
1.0
 10
-39.68749999999999
 20
1.883054537382047
 30
0.0
 10
-39.34158623327285
 20
1.803443777310245
 30
0.0
 10
-38.64979018865692
 20
1.644229504205053
 30
0.0
 10
-37.6121646876643
 20
1.211131080181901
 30
0.0
 10
-36.57464284112966
 20
0.6807646496421722
 30
0.0
 10
-35.53721112768109
 20
0.0856423240680571
 30
0.0
 10
-34.49988160974051
 20
-0.5164895281381987
 30
0.0
 10
-33.48234070500759
 20
-1.060968223456894
 30
0.0
 10
-32.48492158737183
 20
-1.506378634779451
 30
0.0
 10
-31.50738784425344
 20
-1.814293602614955
 30
0.0
 10
-30.67676143829529
 20
-1.976130136388085
 30
0.0
 10
-30.1719484493298
 20
-1.967566984354996
 30
0.0
 10
-29.99293164746275
 20
-1.964530319046511
 30
0.0
  0
SPLINE
  5
31E
330
1F
100
AcDbEntity
  8
0
  6
Continuous
 62
     1
370
    15
100
AcDbSpline
210
0.0
220
0.0
230
1.0
 70
     8
 71
     3
 72
    13
 73
     9
 74
     0
 42
0.000000001
 43
0.00000001
 40
0.0
 40
0.0
 40
0.0
 40
0.0
 40
0.1939997165647056
 40
0.3879373658130943
 40
0.5818234308156587
 40
0.7756685267780312
 40
0.969483374287153
 40
1.0
 40
1.0
 40
1.0
 40
1.0
 10
-39.68749999999999
 20
1.565616837105673
 30
0.0
 10
-39.35381198620526
 20
1.491851996672659
 30
0.0
 10
-38.68654271711968
 20
1.34434591576732
 30
0.0
 10
-37.68584317855486
 20
0.9749945918197771
 30
0.0
 10
-36.68544478269565
 20
0.5318389008253999
 30
0.0
 10
-35.68529115028032
 20
0.0462771894470138
 30
0.0
 10
-34.96611679245923
 20
-0.3181552713431059
 30
0.0
 10
-34.58032141071514
 20
-0.4900733894849523
 30
0.0
 10
-34.52784026262954
 20
-0.5134600359917527
 30
0.0
  0
LINE
  5
31F
330
1F
100
AcDbEntity
  8
0
  6
Continuous
 62
     1
370
    15
100
AcDbLine
 10
-39.6874999999999
 20
1.883054537382047
 30
0.0
 11
-39.68749999999999
 21
1.565616837105673
 31
0.0
  0
LINE
  5
320
330
1F
100
AcDbEntity
  8
0
  6
Continuous
 62
     1
370
    15
100
AcDbLine
 10
-39.68749999999999
 20
1.98269783647132
 30
0.0
 11
-39.68749999999984
 21
1.883054537382042
 31
0.0
  0
SPLINE
  5
321
330
1F
100
AcDbEntity
  8
0
  6
Continuous
 62
     1
370
    15
100
AcDbSpline
210
0.0
220
0.0
230
1.0
 70
     8
 71
     3
 72
     8
 73
     4
 74
     0
 42
0.000000001
 43
0.00000001
 40
0.0
 40
0.0
 40
0.0
 40
0.0
 40
1.0
 40
1.0
 40
1.0
 40
1.0
 10
-38.45900677959564
 20
-0.5557441175765063
 30
0.0
 10
-38.38873544869917
 20
-0.6389927033795331
 30
0.0
 10
-38.32600664401416
 20
-0.7191404837657387
 30
0.0
 10
-38.27260005238467
 20
-0.7954558122745687
 30
0.0
  0
LINE
  5
322
330
1F
100
AcDbEntity
  8
0
  6
Continuous
 62
     1
370
    15
100
AcDbLine
 10
-38.29773597617292
 20
-0.8165473566545696
 30
0.0
 11
-39.68749999999999
 21
-0.000000000000006
 31
0.0
  0
LINE
  5
323
330
1F
100
AcDbEntity
  8
0
  6
Continuous
 62
     1
370
    15
100
AcDbLine
 10
-39.68749999999999
 20
-0.000000000000006
 30
0.0
 11
-39.68749999999999
 21
0.5303102210275707
 31
0.0
  0
SPLINE
  5
324
330
1F
100
AcDbEntity
  8
0
  6
Continuous
 62
     1
370
    15
100
AcDbSpline
210
0.0
220
0.0
230
1.0
 70
     8
 71
     3
 72
    10
 73
     6
 74
     0
 42
0.000000001
 43
0.00000001
 40
0.0
 40
0.0
 40
0.0
 40
0.0
 40
0.5
 40
0.5
 40
1.0
 40
1.0
 40
1.0
 40
1.0
 10
-39.68749999999999
 20
0.530310221027569
 30
0.0
 10
-39.47483365854357
 20
0.363116224234193
 30
0.0
 10
-39.26572341339828
 20
0.189061090636659
 30
0.0
 10
-38.85478519211055
 20
-0.1730995957543271
 30
0.0
 10
-38.65104542687045
 20
-0.3631188210779406
 30
0.0
 10
-38.45900677959564
 20
-0.5557441175765063
 30
0.0
  0
SPLINE
  5
325
330
1F
100
AcDbEntity
  8
0
  6
Continuous
 62
     1
370
    15
100
AcDbSpline
210
0.0
220
0.0
230
1.0
 70
     8
 71
     3
 72
    12
 73
     8
 74
     0
 42
0.000000001
 43
0.00000001
 40
0.0
 40
0.0
 40
0.0
 40
0.0
 40
0.1941265493063395
 40
0.3880926766031018
 40
0.6069445323775676
 40
0.8257617612058772
 40
1.0
 40
1.0
 40
1.0
 40
1.0
 10
-38.45900677959564
 20
-0.5557441175765045
 30
0.0
 10
-38.16325228364779
 20
-0.679904634876723
 30
0.0
 10
-37.57198769691333
 20
-0.9281230658932269
 30
0.0
 10
-36.64746687733829
 20
-1.243254950548011
 30
0.0
 10
-35.68526482734454
 20
-1.47643177343689
 30
0.0
 10
-34.75316089224479
 20
-1.599731073744494
 30
0.0
 10
-34.1544336162883
 20
-1.576319096629661
 30
0.0
 10
-33.88902276546948
 20
-1.565940760758004
 30
0.0
  0
SPLINE
  5
326
330
1F
100
AcDbEntity
  8
0
  6
Continuous
 62
     1
370
    15
100
AcDbSpline
210
0.0
220
0.0
230
1.0
 70
    24
 71
     3
 72
    10
 73
     6
 74
     0
 42
0.000000001
 43
0.00000001
 40
0.0
 40
0.0
 40
0.0
 40
0.0
 40
0.5
 40
0.5
 40
1.0
 40
1.0
 40
1.0
 40
1.0
 10
-39.68749999999999
 20
1.565616837105673
 30
0.0
 10
-39.68749999999999
 20
1.44560010005442
 30
0.0
 10
-39.68749999999999
 20
1.293954350876894
 30
0.0
 10
-39.68749999999999
 20
0.9413925783146244
 30
0.0
 10
-39.68749999999999
 20
0.740781957304937
 30
0.0
 10
-39.68749999999999
 20
0.5303102210276329
 30
0.0
  0
SPLINE
  5
327
330
1F
100
AcDbEntity
  8
0
  6
Continuous
 62
     1
370
    15
100
AcDbSpline
210
0.0
220
0.0
230
1.0
 70
     8
 71
     3
 72
    10
 73
     6
 74
     0
 42
0.000000001
 43
0.00000001
 40
0.0
 40
0.0
 40
0.0
 40
0.0
 40
0.095866542674438
 40
0.5479304778167959
 40
1.0
 40
1.0
 40
1.0
 40
1.0
 10
-30.90976098299079
 20
1.638982596703561
 30
0.0
 10
-30.83516129243931
 20
1.650082963849969
 30
0.0
 10
-30.40878267328252
 20
1.713527720537704
 30
0.0
 10
-29.63046917496131
 20
1.689425064859273
 30
0.0
 10
-28.92682450769767
 20
1.564141643401102
 30
0.0
 10
-28.57499999999995
 20
1.501499545581156
 30
0.0
  0
SPLINE
  5
328
330
1F
100
AcDbEntity
  8
0
  6
Continuous
 62
     1
370
    15
100
AcDbSpline
210
0.0
220
0.0
230
1.0
 70
     8
 71
     3
 72
    14
 73
    10
 74
     0
 42
0.000000001
 43
0.00000001
 40
0.0
 40
0.0
 40
0.0
 40
0.0
 40
0.1161349739736544
 40
0.260771215032973
 40
0.4054009445666449
 40
0.5500323880529389
 40
0.6946737665147336
 40
0.8473359248271815
 40
1.0
 40
1.0
 40
1.0
 40
1.0
 10
-35.48809081846885
 20
1.481519168044693
 30
0.0
 10
-35.22047856321824
 20
1.520035685408327
 30
0.0
 10
-34.61957798545386
 20
1.606521252056253
 30
0.0
 10
-33.68542141537297
 20
1.582977511260787
 30
0.0
 10
-32.6856079351392
 20
1.438733391841434
 30
0.0
 10
-31.68577038303361
 20
1.1696958465591
 30
0.0
 10
-30.66745699421101
 20
0.7967915361300968
 30
0.0
 10
-29.63045038760224
 20
0.3439112255183805
 30
0.0
 10
-28.92681826820449
 20
0.0176280619175124
 30
0.0
 10
-28.57499999977874
 20
-0.1455145440976746
 30
0.0
  0
SPLINE
  5
329
330
1F
100
AcDbEntity
  8
외형선
  6
Continuous
370
    15
100
AcDbSpline
210
0.0
220
0.0
230
1.0
 70
    24
 71
     3
 72
    10
 73
     6
 74
     0
 42
0.000000001
 43
0.00000001
 40
0.0
 40
0.0
 40
0.0
 40
0.0
 40
0.5
 40
0.5
 40
1.0
 40
1.0
 40
1.0
 40
1.0
 10
-28.57499999999997
 20
-0.1455145439961132
 30
0.0
 10
-28.57499999999997
 20
0.160473921828417
 30
0.0
 10
-28.57499999999997
 20
0.4797253064117151
 30
0.0
 10
-28.57499999999997
 20
1.055438344447747
 30
0.0
 10
-28.57499999999997
 20
1.30942190392275
 30
0.0
 10
-28.57499999999997
 20
1.501499545581166
 30
0.0
  0
SPLINE
  5
32A
330
1F
100
AcDbEntity
  8
외형선
  6
Continuous
370
    15
100
AcDbSpline
210
0.0
220
0.0
230
1.0
 70
    24
 71
     3
 72
    14
 73
    10
 74
     0
 42
0.000000001
 43
0.00000001
 40
0.0
 40
0.0
 40
0.0
 40
0.0
 40
0.2500000000000001
 40
0.2500000000000001
 40
0.5000000000000001
 40
0.5000000000000001
 40
0.75
 40
0.75
 40
1.0
 40
1.0
 40
1.0
 40
1.0
 10
-28.57499999999995
 20
-1.383214703410567
 30
0.0
 10
-28.57499999999995
 20
-1.361692014593417
 30
0.0
 10
-28.57499999999995
 20
-1.318093337337505
 30
0.0
 10
-28.57499999999995
 20
-1.184453031085305
 30
0.0
 10
-28.57499999999995
 20
-1.094386058948349
 30
0.0
 10
-28.57499999999995
 20
-0.8744110563508556
 30
0.0
 10
-28.57499999999995
 20
-0.7446202377684663
 30
0.0
 10
-28.57499999999995
 20
-0.4596192415276981
 30
0.0
 10
-28.57499999999995
 20
-0.3045963149847821
 30
0.0
 10
-28.57499999999995
 20
-0.1455145439961327
 30
0.0
  0
SPLINE
  5
32B
330
1F
100
AcDbEntity
  8
0
  6
Continuous
 62
     1
370
    15
100
AcDbSpline
210
0.0
220
0.0
230
1.0
 70
    24
 71
     3
 72
     8
 73
     4
 74
     0
 42
0.000000001
 43
0.00000001
 40
0.0
 40
0.0
 40
0.0
 40
0.0
 40
1.0
 40
1.0
 40
1.0
 40
1.0
 10
-38.47987627747493
 20
-0.969381216299628
 30
0.0
 10
-38.41436478590397
 20
-0.9144105478845563
 30
0.0
 10
-38.3450589627259
 20
-0.8562560572173978
 30
0.0
 10
-38.27260005238473
 20
-0.7954558122746078
 30
0.0
  0
LINE
  5
32C
330
1F
100
AcDbEntity
  8
0
  6
Continuous
 62
     1
370
    15
100
AcDbLine
 10
-39.68749999999999
 20
-1.389062500000006
 30
0.0
 11
-38.95515162175222
 21
-1.346307808181548
 31
0.0
  0
SPLINE
  5
32D
330
1F
100
AcDbEntity
  8
0
  6
Continuous
 62
     1
370
    15
100
AcDbSpline
210
0.0
220
0.0
230
1.0
 70
     8
 71
     3
 72
     8
 73
     4
 74
     0
 42
0.000000001
 43
0.00000001
 40
0.0
 40
0.0
 40
0.0
 40
0.0
 40
1.0
 40
1.0
 40
1.0
 40
1.0
 10
-39.68749999999999
 20
-1.389062500000006
 30
0.0
 10
-39.27936139917666
 20
-1.27820287059066
 30
0.0
 10
-38.87512715704109
 20
-1.142095475675963
 30
0.0
 10
-38.47987627748749
 20
-0.9693812163051063
 30
0.0
  0
LINE
  5
32E
330
1F
100
AcDbEntity
  8
0
  6
Continuous
 62
     1
370
    15
100
AcDbLine
 10
-39.68749999999999
 20
-0.000000000000006
 30
0.0
 11
-39.68749999999999
 21
-1.389062500000006
 31
0.0
  0
SPLINE
  5
32F
330
1F
100
AcDbEntity
  8
0
  6
Continuous
 62
     1
370
    15
100
AcDbSpline
210
0.0
220
0.0
230
1.0
 70
     8
 71
     3
 72
    11
 73
     7
 74
     0
 42
0.000000001
 43
0.00000001
 40
0.0
 40
0.0
 40
0.0
 40
0.0
 40
0.1988740228037918
 40
0.4658995823163422
 40
0.7329313289760195
 40
1.0
 40
1.0
 40
1.0
 40
1.0
 10
-32.23530683672054
 20
1.564046596298053
 30
0.0
 10
-31.99265800205733
 20
1.647410271137409
 30
0.0
 10
-31.42420773829072
 20
1.842705266131955
 30
0.0
 10
-30.52997437646225
 20
1.982338354708117
 30
0.0
 10
-29.55253314471183
 20
2.002099650481672
 30
0.0
 10
-28.90085939912039
 20
1.879201488039466
 30
0.0
 10
-28.57500000000003
 20
1.817748158612994
 30
0.0
  0
SPLINE
  5
330
330
1F
100
AcDbEntity
  8
외형선
  6
Continuous
370
    15
100
AcDbSpline
210
0.0
220
0.0
230
1.0
 70
    24
 71
     3
 72
     8
 73
     4
 74
     0
 42
0.000000001
 43
0.00000001
 40
0.0
 40
0.0
 40
0.0
 40
0.0
 40
1.0
 40
1.0
 40
1.0
 40
1.0
 10
-28.57499999999997
 20
1.501499545581166
 30
0.0
 10
-28.57499999999997
 20
1.605614140083078
 30
0.0
 10
-28.57499999999997
 20
1.711702081952148
 30
0.0
 10
-28.57499999999997
 20
1.81774815861244
 30
0.0
  0
LINE
  5
331
330
1F
100
AcDbEntity
  8
0
  6
Continuous
 62
     1
370
    15
100
AcDbLine
 10
-28.57499999999844
 20
1.96687410722834
 30
0.0
 11
-29.0315357008643
 21
1.962152527292593
 31
0.0
  0
SPLINE
  5
332
330
1F
100
AcDbEntity
  8
0
  6
Continuous
 62
     1
370
    15
100
AcDbSpline
210
0.0
220
0.0
230
1.0
 70
     8
 71
     3
 72
    10
 73
     6
 74
     0
 42
0.000000001
 43
0.00000001
 40
0.0
 40
0.0
 40
0.0
 40
0.0
 40
0.278078191960981
 40
0.6389508014371377
 40
1.0
 40
1.0
 40
1.0
 40
1.0
 10
-36.9763946535539
 20
-1.329596534412517
 30
0.0
 10
-37.22766888464535
 20
-1.434030941558252
 30
0.0
 10
-37.80503120926421
 20
-1.673993837148217
 30
0.0
 10
-38.70871564699139
 20
-1.910799568708984
 30
0.0
 10
-39.36118534885482
 20
-1.958727839310364
 30
0.0
 10
-39.68749999999999
 20
-1.982697836471328
 30
0.0
  0
SPLINE
  5
333
330
1F
100
AcDbEntity
  8
0
  6
Continuous
 62
     1
370
    15
100
AcDbSpline
210
0.0
220
0.0
230
1.0
 70
    24
 71
     3
 72
    10
 73
     6
 74
     0
 42
0.000000001
 43
0.00000001
 40
0.0
 40
0.0
 40
0.0
 40
0.0
 40
0.5
 40
0.5
 40
1.0
 40
1.0
 40
1.0
 40
1.0
 10
-39.68749999999999
 20
-1.389062500000004
 30
0.0
 10
-39.68749999999999
 20
-1.473264009602016
 30
0.0
 10
-39.68749999999999
 20
-1.571113961658189
 30
0.0
 10
-39.68749999999999
 20
-1.776402897531702
 30
0.0
 10
-39.68749999999999
 20
-1.88331759916855
 30
0.0
 10
-39.68749999999999
 20
-1.982697836471328
 30
0.0
  0
LINE
  5
338
330
1F
100
AcDbEntity
  8
외형선
  6
Continuous
370
    15
100
AcDbLine
 10
-17.20689635022272
 20
-4.762500000000007
 30
0.0
 11
-17.20689635022272
 21
4.762499999999998
 31
0.0
  0
LINE
  5
365
330
1F
100
AcDbEntity
  8
외형선
  6
Continuous
370
    15
100
AcDbLine
 10
-4.838700000000081
 20
4.762499999999996
 30
0.0
 11
-17.20689635022271
 21
4.762499999999995
 31
0.0
  0
ENDSEC
  0
SECTION
  2
OBJECTS
  0
DICTIONARY
  5
C
330
0
100
AcDbDictionary
281
     1
  3
ACAD_GROUP
350
D
  3
ACAD_IMAGE_VARS
350
160
  3
ACAD_LAYOUT
350
1A
  3
ACAD_MLINESTYLE
350
17
  3
ACAD_PLOTSETTINGS
350
19
  3
ACAD_PLOTSTYLENAME
350
E
  3
ACAD_SCALELIST
350
47
  3
APPDATA
350
15E
  3
DWGPROPS
350
38B
  0
DICTIONARY
  5
186
330
2
100
AcDbDictionary
280
     1
281
     1
  3
ACAD_LAYERSTATES
360
187
  0
DICTIONARY
  5
389
330
1F
100
AcDbDictionary
280
     1
281
     1
  3
DIM_BOUNDING_BOXES_V1
360
38A
  0
DICTIONARY
  5
D
102
{ACAD_REACTORS
330
C
102
}
330
C
100
AcDbDictionary
281
     1
  0
RASTERVARIABLES
  5
160
102
{ACAD_REACTORS
330
C
102
}
330
C
100
AcDbRasterVariables
 90
        0
 70
     1
 71
     1
 72
     1
  0
DICTIONARY
  5
1A
102
{ACAD_REACTORS
330
C
102
}
330
C
100
AcDbDictionary
281
     1
  3
Layout1
350
1E
  3
Layout2
350
26
  3
Model
350
22
  0
DICTIONARY
  5
17
102
{ACAD_REACTORS
330
C
102
}
330
C
100
AcDbDictionary
281
     1
  3
Standard
350
18
  0
DICTIONARY
  5
19
102
{ACAD_REACTORS
330
C
102
}
330
C
100
AcDbDictionary
281
     1
  0
ACDBDICTIONARYWDFLT
  5
E
102
{ACAD_REACTORS
330
C
102
}
330
C
100
AcDbDictionary
281
     1
  3
Normal
350
F
100
AcDbDictionaryWithDefault
340
F
  0
DICTIONARY
  5
47
102
{ACAD_REACTORS
330
C
102
}
330
C
100
AcDbDictionary
281
     1
  3
A0
350
48
  3
A1
350
49
  3
A2
350
4A
  3
A3
350
4B
  3
A4
350
4C
  3
A5
350
4D
  3
A6
350
4E
  3
A7
350
4F
  3
A8
350
50
  3
A9
350
51
  3
B0
350
52
  3
B1
350
53
  3
B2
350
54
  3
B3
350
55
  3
B4
350
56
  3
B5
350
57
  3
B6
350
58
  3
B7
350
59
  3
B8
350
5A
  3
B9
350
5B
  3
C0
350
5C
  3
C1
350
5D
  3
C2
350
5E
  3
C3
350
5F
  3
C4
350
60
  3
C5
350
61
  3
C6
350
62
  3
C7
350
63
  3
C8
350
64
  3
C9
350
65
  3
D0
350
66
  3
D1
350
67
  3
D2
350
68
  0
DICTIONARY
  5
15E
102
{ACAD_REACTORS
330
C
102
}
330
C
100
AcDbDictionary
281
     1
  0
XRECORD
  5
38B
102
{ACAD_REACTORS
330
C
102
}
330
C
100
AcDbXrecord
280
     1
  1
DWGPROPS COOKIE
  2

  3

  4

  6

  7

  8
12011056
  9

300
=
301
=
302
=
303
=
304
=
305
=
306
=
307
=
308
=
309
=
 40
0.0
 41
2458313.052285
 42
2459719.295735637
  1

 90
        0
  0
DICTIONARY
  5
187
102
{ACAD_REACTORS
330
186
102
}
330
186
100
AcDbDictionary
281
     1
  0
DICTIONARY
  5
38A
102
{ACAD_REACTORS
330
389
102
}
330
389
100
AcDbDictionary
281
     1
  0
LAYOUT
  5
1E
102
{ACAD_REACTORS
330
1A
102
}
330
1A
100
AcDbPlotSettings
  1

  2
none_device
  4

  6

 40
0.0
 41
0.0
 42
0.0
 43
0.0
 44
0.0
 45
0.0
 46
0.0
 47
0.0
 48
0.0
 49
0.0
140
0.0
141
0.0
142
1.0
143
1.0
 70
   688
 72
     1
 73
     0
 74
     5
  7

 75
    16
147
1.0
148
0.0
149
0.0
100
AcDbLayout
  1
Layout1
 70
     1
 71
     1
 10
0.0
 20
0.0
 11
420.0
 21
297.0
 12
0.0
 22
0.0
 32
0.0
 14
1.000000000000000E+20
 24
1.000000000000000E+20
 34
1.000000000000000E+20
 15
-1.000000000000000E+20
 25
-1.000000000000000E+20
 35
-1.000000000000000E+20
146
0.0
 13
0.0
 23
0.0
 33
0.0
 16
1.0
 26
0.0
 36
0.0
 17
0.0
 27
1.0
 37
0.0
 76
     0
330
1B
  0
LAYOUT
  5
26
102
{ACAD_REACTORS
330
1A
102
}
330
1A
100
AcDbPlotSettings
  1

  2
none_device
  4

  6

 40
0.0
 41
0.0
 42
0.0
 43
0.0
 44
0.0
 45
0.0
 46
0.0
 47
0.0
 48
0.0
 49
0.0
140
0.0
141
0.0
142
1.0
143
1.0
 70
   688
 72
     1
 73
     0
 74
     5
  7

 75
    16
147
1.0
148
0.0
149
0.0
100
AcDbLayout
  1
Layout2
 70
     1
 71
     2
 10
0.0
 20
0.0
 11
0.0
 21
0.0
 12
0.0
 22
0.0
 32
0.0
 14
0.0
 24
0.0
 34
0.0
 15
0.0
 25
0.0
 35
0.0
146
0.0
 13
0.0
 23
0.0
 33
0.0
 16
1.0
 26
0.0
 36
0.0
 17
0.0
 27
1.0
 37
0.0
 76
     0
330
23
  0
LAYOUT
  5
22
102
{ACAD_REACTORS
330
1A
102
}
330
1A
100
AcDbPlotSettings
  1

  2
none_device
  4
ANSI_A_(11.00_x_8.50_Inches)
  6

 40
6.35
 41
19.05
 42
6.35000508
 43
19.05000254
 44
279.4
 45
215.9
 46
98.53254146912828
 47
84.49344313945052
 48
0.0
 49
0.0
140
0.0
141
0.0
142
0.0501323292749418
143
1.0
 70
  1696
 72
     0
 73
     0
 74
     0
  7

 75
     0
147
0.0235690232323232
148
0.0
149
0.0
100
AcDbLayout
  1
Model
 70
     1
 71
     0
 10
0.0
 20
0.0
 11
420.0
 21
297.0
 12
0.0
 22
0.0
 32
0.0
 14
-57.55750000000011
 24
-39.99892507127611
 34
0.0
 15
81.21241335422454
 25
42.75750000000002
 35
0.0
146
0.0
 13
0.0
 23
0.0
 33
0.0
 16
1.0
 26
0.0
 36
0.0
 17
0.0
 27
1.0
 37
0.0
 76
     0
330
1F
331
29
  0
MLINESTYLE
  5
18
102
{ACAD_REACTORS
330
17
102
}
330
17
100
AcDbMlineStyle
  2
Standard
 70
     0
  3

 62
   256
 51
90.0
 52
90.0
 71
     2
 49
0.5
 62
   256
  6
BYLAYER
 49
-0.5
 62
   256
  6
BYLAYER
  0
ACDBPLACEHOLDER
  5
F
102
{ACAD_REACTORS
330
E
102
}
330
E
  0
SCALE
  5
48
102
{ACAD_REACTORS
330
47
102
}
330
47
100
AcDbScale
 70
     0
300
1:1
140
1.0
141
1.0
290
     1
  0
SCALE
  5
49
102
{ACAD_REACTORS
330
47
102
}
330
47
100
AcDbScale
 70
     0
300
1:2
140
1.0
141
2.0
290
     0
  0
SCALE
  5
4A
102
{ACAD_REACTORS
330
47
102
}
330
47
100
AcDbScale
 70
     0
300
1:4
140
1.0
141
4.0
290
     0
  0
SCALE
  5
4B
102
{ACAD_REACTORS
330
47
102
}
330
47
100
AcDbScale
 70
     0
300
1:5
140
1.0
141
5.0
290
     0
  0
SCALE
  5
4C
102
{ACAD_REACTORS
330
47
102
}
330
47
100
AcDbScale
 70
     0
300
1:8
140
1.0
141
8.0
290
     0
  0
SCALE
  5
4D
102
{ACAD_REACTORS
330
47
102
}
330
47
100
AcDbScale
 70
     0
300
1:10
140
1.0
141
10.0
290
     0
  0
SCALE
  5
4E
102
{ACAD_REACTORS
330
47
102
}
330
47
100
AcDbScale
 70
     0
300
1:16
140
1.0
141
16.0
290
     0
  0
SCALE
  5
4F
102
{ACAD_REACTORS
330
47
102
}
330
47
100
AcDbScale
 70
     0
300
1:20
140
1.0
141
20.0
290
     0
  0
SCALE
  5
50
102
{ACAD_REACTORS
330
47
102
}
330
47
100
AcDbScale
 70
     0
300
1:30
140
1.0
141
30.0
290
     0
  0
SCALE
  5
51
102
{ACAD_REACTORS
330
47
102
}
330
47
100
AcDbScale
 70
     0
300
1:40
140
1.0
141
40.0
290
     0
  0
SCALE
  5
52
102
{ACAD_REACTORS
330
47
102
}
330
47
100
AcDbScale
 70
     0
300
1:50
140
1.0
141
50.0
290
     0
  0
SCALE
  5
53
102
{ACAD_REACTORS
330
47
102
}
330
47
100
AcDbScale
 70
     0
300
1:100
140
1.0
141
100.0
290
     0
  0
SCALE
  5
54
102
{ACAD_REACTORS
330
47
102
}
330
47
100
AcDbScale
 70
     0
300
2:1
140
2.0
141
1.0
290
     0
  0
SCALE
  5
55
102
{ACAD_REACTORS
330
47
102
}
330
47
100
AcDbScale
 70
     0
300
4:1
140
4.0
141
1.0
290
     0
  0
SCALE
  5
56
102
{ACAD_REACTORS
330
47
102
}
330
47
100
AcDbScale
 70
     0
300
8:1
140
8.0
141
1.0
290
     0
  0
SCALE
  5
57
102
{ACAD_REACTORS
330
47
102
}
330
47
100
AcDbScale
 70
     0
300
10:1
140
10.0
141
1.0
290
     0
  0
SCALE
  5
58
102
{ACAD_REACTORS
330
47
102
}
330
47
100
AcDbScale
 70
     0
300
100:1
140
100.0
141
1.0
290
     0
  0
SCALE
  5
59
102
{ACAD_REACTORS
330
47
102
}
330
47
100
AcDbScale
 70
     0
300
1/128" = 1'-0"
140
0.0078125
141
12.0
290
     0
  0
SCALE
  5
5A
102
{ACAD_REACTORS
330
47
102
}
330
47
100
AcDbScale
 70
     0
300
1/64" = 1'-0"
140
0.015625
141
12.0
290
     0
  0
SCALE
  5
5B
102
{ACAD_REACTORS
330
47
102
}
330
47
100
AcDbScale
 70
     0
300
1/32" = 1'-0"
140
0.03125
141
12.0
290
     0
  0
SCALE
  5
5C
102
{ACAD_REACTORS
330
47
102
}
330
47
100
AcDbScale
 70
     0
300
1/16" = 1'-0"
140
0.0625
141
12.0
290
     0
  0
SCALE
  5
5D
102
{ACAD_REACTORS
330
47
102
}
330
47
100
AcDbScale
 70
     0
300
3/32" = 1'-0"
140
0.09375
141
12.0
290
     0
  0
SCALE
  5
5E
102
{ACAD_REACTORS
330
47
102
}
330
47
100
AcDbScale
 70
     0
300
1/8" = 1'-0"
140
0.125
141
12.0
290
     0
  0
SCALE
  5
5F
102
{ACAD_REACTORS
330
47
102
}
330
47
100
AcDbScale
 70
     0
300
3/16" = 1'-0"
140
0.1875
141
12.0
290
     0
  0
SCALE
  5
60
102
{ACAD_REACTORS
330
47
102
}
330
47
100
AcDbScale
 70
     0
300
1/4" = 1'-0"
140
0.25
141
12.0
290
     0
  0
SCALE
  5
61
102
{ACAD_REACTORS
330
47
102
}
330
47
100
AcDbScale
 70
     0
300
3/8" = 1'-0"
140
0.375
141
12.0
290
     0
  0
SCALE
  5
62
102
{ACAD_REACTORS
330
47
102
}
330
47
100
AcDbScale
 70
     0
300
1/2" = 1'-0"
140
0.5
141
12.0
290
     0
  0
SCALE
  5
63
102
{ACAD_REACTORS
330
47
102
}
330
47
100
AcDbScale
 70
     0
300
3/4" = 1'-0"
140
0.75
141
12.0
290
     0
  0
SCALE
  5
64
102
{ACAD_REACTORS
330
47
102
}
330
47
100
AcDbScale
 70
     0
300
1" = 1'-0"
140
1.0
141
12.0
290
     0
  0
SCALE
  5
65
102
{ACAD_REACTORS
330
47
102
}
330
47
100
AcDbScale
 70
     0
300
1-1/2" = 1'-0"
140
1.5
141
12.0
290
     0
  0
SCALE
  5
66
102
{ACAD_REACTORS
330
47
102
}
330
47
100
AcDbScale
 70
     0
300
3" = 1'-0"
140
3.0
141
12.0
290
     0
  0
SCALE
  5
67
102
{ACAD_REACTORS
330
47
102
}
330
47
100
AcDbScale
 70
     0
300
6" = 1'-0"
140
6.0
141
12.0
290
     0
  0
SCALE
  5
68
102
{ACAD_REACTORS
330
47
102
}
330
47
100
AcDbScale
 70
     0
300
1'-0" = 1'-0"
140
12.0
141
12.0
290
     0
  0
ENDSEC
  0
EOF
