  0
SECTION
  2
HEADER
  9
$ACADVER
  1
AC1015
  9
$ACADMAINTVER
 70
     6
  9
$DWGCODEPAGE
  3
ANSI_949
  9
$INSBASE
 10
0.0
 20
0.0
 30
0.0
  9
$EXTMIN
 10
-61.02400562884051
 20
-39.99892507127611
 30
0.0
  9
$EXTMAX
 10
81.4193644723612
 20
56.31498975661525
 30
0.0
  9
$LIMMIN
 10
0.0
 20
0.0
  9
$LIMMAX
 10
420.0
 20
297.0
  9
$ORTHOMODE
 70
     0
  9
$REGENMODE
 70
     1
  9
$FILLMODE
 70
     1
  9
$QTEXTMODE
 70
     0
  9
$MIRRTEXT
 70
     1
  9
$LTSCALE
 40
1.0
  9
$ATTMODE
 70
     1
  9
$TEXTSIZE
 40
3.5
  9
$TRACEWID
 40
1.0
  9
$TEXTSTYLE
  7
Standard
  9
$CLAYER
  8
0
  9
$CELTYPE
  6
ByLayer
  9
$CECOLOR
 62
   256
  9
$CELTSCALE
 40
1.0
  9
$DISPSILH
 70
     0
  9
$DIMSCALE
 40
1.0
  9
$DIMASZ
 40
3.302
  9
$DIMEXO
 40
1.0
  9
$DIMDLI
 40
3.75
  9
$DIMRND
 40
0.0
  9
$DIMDLE
 40
0.0
  9
$DIMEXE
 40
1.0
  9
$DIMTP
 40
0.0
  9
$DIMTM
 40
0.0
  9
$DIMTXT
 40
3.5
  9
$DIMCEN
 40
2.5
  9
$DIMTSZ
 40
0.0
  9
$DIMTOL
 70
     0
  9
$DIMLIM
 70
     0
  9
$DIMTIH
 70
     1
  9
$DIMTOH
 70
     1
  9
$DIMSE1
 70
     0
  9
$DIMSE2
 70
     0
  9
$DIMTAD
 70
     1
  9
$DIMZIN
 70
     0
  9
$DIMBLK
  1

  9
$DIMASO
 70
     1
  9
$DIMSHO
 70
     1
  9
$DIMPOST
  1

  9
$DIMAPOST
  1

  9
$DIMALT
 70
     0
  9
$DIMALTD
 70
     3
  9
$DIMALTF
 40
0.0393700787401575
  9
$DIMLFAC
 40
1.0
  9
$DIMTOFL
 70
     1
  9
$DIMTVP
 40
0.0
  9
$DIMTIX
 70
     0
  9
$DIMSOXD
 70
     0
  9
$DIMSAH
 70
     0
  9
$DIMBLK1
  1

  9
$DIMBLK2
  1

  9
$DIMSTYLE
  2
ISO-25
  9
$DIMCLRD
 70
     0
  9
$DIMCLRE
 70
     0
  9
$DIMCLRT
 70
     0
  9
$DIMTFAC
 40
1.0
  9
$DIMGAP
 40
1.524
  9
$DIMJUST
 70
     0
  9
$DIMSD1
 70
     0
  9
$DIMSD2
 70
     0
  9
$DIMTOLJ
 70
     0
  9
$DIMTZIN
 70
     0
  9
$DIMALTZ
 70
     0
  9
$DIMALTTZ
 70
     0
  9
$DIMUPT
 70
     0
  9
$DIMDEC
 70
     2
  9
$DIMTDEC
 70
     2
  9
$DIMALTU
 70
     2
  9
$DIMALTTD
 70
     3
  9
$DIMTXSTY
  7
Standard
  9
$DIMAUNIT
 70
     0
  9
$DIMADEC
 70
     2
  9
$DIMALTRND
 40
0.0
  9
$DIMAZIN
 70
     0
  9
$DIMDSEP
 70
    44
  9
$DIMATFIT
 70
     3
  9
$DIMFRAC
 70
     0
  9
$DIMLDRBLK
  1

  9
$DIMLUNIT
 70
     2
  9
$DIMLWD
 70
    -2
  9
$DIMLWE
 70
    -2
  9
$DIMTMOVE
 70
     0
  9
$LUNITS
 70
     2
  9
$LUPREC
 70
     2
  9
$SKETCHINC
 40
1.0
  9
$FILLETRAD
 40
10.0
  9
$AUNITS
 70
     0
  9
$AUPREC
 70
     2
  9
$MENU
  1
.
  9
$ELEVATION
 40
0.0
  9
$PELEVATION
 40
0.0
  9
$THICKNESS
 40
0.0
  9
$LIMCHECK
 70
     0
  9
$CHAMFERA
 40
0.0
  9
$CHAMFERB
 40
0.0
  9
$CHAMFERC
 40
0.0
  9
$CHAMFERD
 40
0.0
  9
$SKPOLY
 70
     0
  9
$TDCREATE
 40
2458313.501508252
  9
$TDUCREATE
 40
2458313.126508252
  9
$TDUPDATE
 40
2459719.652090718
  9
$TDUUPDATE
 40
2459719.277090718
  9
$TDINDWG
 40
0.0007393171
  9
$TDUSRTIMER
 40
0.000198588
  9
$USRTIMER
 70
     1
  9
$ANGBASE
 50
0.0
  9
$ANGDIR
 70
     0
  9
$PDMODE
 70
     0
  9
$PDSIZE
 40
-1.0
  9
$PLINEWID
 40
0.0
  9
$SPLFRAME
 70
     0
  9
$SPLINETYPE
 70
     6
  9
$SPLINESEGS
 70
     8
  9
$HANDSEED
  5
364
  9
$SURFTAB1
 70
     6
  9
$SURFTAB2
 70
     6
  9
$SURFTYPE
 70
     6
  9
$SURFU
 70
     6
  9
$SURFV
 70
     6
  9
$UCSBASE
  2

  9
$UCSNAME
  2

  9
$UCSORG
 10
0.0
 20
0.0
 30
0.0
  9
$UCSXDIR
 10
1.0
 20
0.0
 30
0.0
  9
$UCSYDIR
 10
0.0
 20
1.0
 30
0.0
  9
$UCSORTHOREF
  2

  9
$UCSORTHOVIEW
 70
     0
  9
$UCSORGTOP
 10
0.0
 20
0.0
 30
0.0
  9
$UCSORGBOTTOM
 10
0.0
 20
0.0
 30
0.0
  9
$UCSORGLEFT
 10
0.0
 20
0.0
 30
0.0
  9
$UCSORGRIGHT
 10
0.0
 20
0.0
 30
0.0
  9
$UCSORGFRONT
 10
0.0
 20
0.0
 30
0.0
  9
$UCSORGBACK
 10
0.0
 20
0.0
 30
0.0
  9
$PUCSBASE
  2

  9
$PUCSNAME
  2

  9
$PUCSORG
 10
0.0
 20
0.0
 30
0.0
  9
$PUCSXDIR
 10
1.0
 20
0.0
 30
0.0
  9
$PUCSYDIR
 10
0.0
 20
1.0
 30
0.0
  9
$PUCSORTHOREF
  2

  9
$PUCSORTHOVIEW
 70
     0
  9
$PUCSORGTOP
 10
0.0
 20
0.0
 30
0.0
  9
$PUCSORGBOTTOM
 10
0.0
 20
0.0
 30
0.0
  9
$PUCSORGLEFT
 10
0.0
 20
0.0
 30
0.0
  9
$PUCSORGRIGHT
 10
0.0
 20
0.0
 30
0.0
  9
$PUCSORGFRONT
 10
0.0
 20
0.0
 30
0.0
  9
$PUCSORGBACK
 10
0.0
 20
0.0
 30
0.0
  9
$USERI1
 70
     0
  9
$USERI2
 70
     0
  9
$USERI3
 70
     0
  9
$USERI4
 70
     0
  9
$USERI5
 70
     0
  9
$USERR1
 40
0.0
  9
$USERR2
 40
0.0
  9
$USERR3
 40
0.0
  9
$USERR4
 40
0.0
  9
$USERR5
 40
0.0
  9
$WORLDVIEW
 70
     1
  9
$SHADEDGE
 70
     3
  9
$SHADEDIF
 70
    70
  9
$TILEMODE
 70
     1
  9
$MAXACTVP
 70
    64
  9
$PINSBASE
 10
0.0
 20
0.0
 30
0.0
  9
$PLIMCHECK
 70
     0
  9
$PEXTMIN
 10
1.000000000000000E+20
 20
1.000000000000000E+20
 30
1.000000000000000E+20
  9
$PEXTMAX
 10
-1.000000000000000E+20
 20
-1.000000000000000E+20
 30
-1.000000000000000E+20
  9
$PLIMMIN
 10
0.0
 20
0.0
  9
$PLIMMAX
 10
0.0
 20
0.0
  9
$UNITMODE
 70
     0
  9
$VISRETAIN
 70
     1
  9
$PLINEGEN
 70
     0
  9
$PSLTSCALE
 70
     1
  9
$TREEDEPTH
 70
  3020
  9
$CMLSTYLE
  2
Standard
  9
$CMLJUST
 70
     0
  9
$CMLSCALE
 40
20.0
  9
$PROXYGRAPHICS
 70
     1
  9
$MEASUREMENT
 70
     1
  9
$CELWEIGHT
370
    -1
  9
$ENDCAPS
280
     0
  9
$JOINSTYLE
280
     0
  9
$LWDISPLAY
290
     1
  9
$INSUNITS
 70
     4
  9
$HYPERLINKBASE
  1

  9
$STYLESHEET
  1

  9
$XEDIT
290
     1
  9
$CEPSNTYPE
380
     0
  9
$PSTYLEMODE
290
     1
  9
$FINGERPRINTGUID
  2
{A0089908-D00F-4BA5-8AD2-939D9D3EB4FF}
  9
$VERSIONGUID
  2
{FAEB1C32-E019-11D5-929B-00C0DF256EC4}
  9
$EXTNAMES
290
     1
  9
$PSVPSCALE
 40
0.0
  9
$OLESTARTUP
290
     0
  0
ENDSEC
  0
SECTION
  2
CLASSES
  0
CLASS
  1
ACDBDICTIONARYWDFLT
  2
AcDbDictionaryWithDefault
  3
ObjectDBX Classes
 90
        0
280
     0
281
     0
  0
CLASS
  1
VISUALSTYLE
  2
AcDbVisualStyle
  3
ObjectDBX Classes
 90
     4095
280
     0
281
     0
  0
CLASS
  1
MATERIAL
  2
AcDbMaterial
  3
ObjectDBX Classes
 90
     1153
280
     0
281
     0
  0
CLASS
  1
SCALE
  2
AcDbScale
  3
ObjectDBX Classes
 90
     1153
280
     0
281
     0
  0
CLASS
  1
SUN
  2
AcDbSun
  3
SCENEOE
 90
     1153
280
     0
281
     0
  0
CLASS
  1
ACDBPLACEHOLDER
  2
AcDbPlaceHolder
  3
ObjectDBX Classes
 90
        0
280
     0
281
     0
  0
CLASS
  1
LAYOUT
  2
AcDbLayout
  3
ObjectDBX Classes
 90
        0
280
     0
281
     0
  0
CLASS
  1
TABLESTYLE
  2
AcDbTableStyle
  3
ObjectDBX Classes
 90
     4095
280
     0
281
     0
  0
CLASS
  1
MLEADERSTYLE
  2
AcDbMLeaderStyle
  3
ACDB_MLEADERSTYLE_CLASS
 90
     4095
280
     0
281
     0
  0
CLASS
  1
RASTERVARIABLES
  2
AcDbRasterVariables
  3
ISM
 90
        0
280
     0
281
     0
  0
ENDSEC
  0
SECTION
  2
TABLES
  0
TABLE
  2
VPORT
  5
8
330
0
100
AcDbSymbolTable
 70
     1
  0
VPORT
  5
29
330
8
100
AcDbSymbolTableRecord
100
AcDbViewportTableRecord
  2
*Active
 70
     0
 10
0.0
 20
0.0
 11
1.0
 21
1.0
 12
-1.338836932143696
 22
12.33400520634029
 13
0.0
 23
0.0
 14
10.0
 24
10.0
 15
10.0
 25
10.0
 16
0.0
 26
0.0
 36
1.0
 17
0.0
 27
0.0
 37
0.0
 40
121.4485197945541
 41
1.519944979367263
 42
50.0
 43
0.0
 44
0.0
 50
0.0
 51
0.0
 71
    16
 72
  2000
 73
     1
 74
     3
 75
     0
 76
     0
 77
     0
 78
     0
281
     0
 65
     1
110
0.0
120
0.0
130
0.0
111
1.0
121
0.0
131
0.0
112
0.0
122
1.0
132
0.0
 79
     0
146
0.0
  0
ENDTAB
  0
TABLE
  2
LTYPE
  5
5
330
0
100
AcDbSymbolTable
 70
     6
  0
LTYPE
  5
14
330
5
100
AcDbSymbolTableRecord
100
AcDbLinetypeTableRecord
  2
ByBlock
 70
     0
  3

 72
    65
 73
     0
 40
0.0
  0
LTYPE
  5
15
330
5
100
AcDbSymbolTableRecord
100
AcDbLinetypeTableRecord
  2
ByLayer
 70
     0
  3

 72
    65
 73
     0
 40
0.0
  0
LTYPE
  5
16
330
5
100
AcDbSymbolTableRecord
100
AcDbLinetypeTableRecord
  2
Continuous
 70
     0
  3
Solid line
 72
    65
 73
     0
 40
0.0
  0
LTYPE
  5
6A
330
5
100
AcDbSymbolTableRecord
100
AcDbLinetypeTableRecord
  2
HIDDEN
 70
     0
  3
Hidden __ __ __ __ __ __ __ __ __ __ __ __ __ __
 72
    65
 73
     2
 40
1.905
 49
1.27
 74
     0
 49
-0.635
 74
     0
  0
LTYPE
  5
6B
330
5
100
AcDbSymbolTableRecord
100
AcDbLinetypeTableRecord
  2
PHANTOM
 70
     0
  3
Phantom ______  __  __  ______  __  __  ______
 72
    65
 73
     6
 40
12.7
 49
6.35
 74
     0
 49
-1.27
 74
     0
 49
1.27
 74
     0
 49
-1.27
 74
     0
 49
1.27
 74
     0
 49
-1.27
 74
     0
  0
LTYPE
  5
6C
330
5
100
AcDbSymbolTableRecord
100
AcDbLinetypeTableRecord
  2
CENTER
 70
     0
  3
Center ____ _ ____ _ ____ _ ____ _ ____ _ ____
 72
    65
 73
     4
 40
10.16
 49
6.35
 74
     0
 49
-1.27
 74
     0
 49
1.27
 74
     0
 49
-1.27
 74
     0
  0
LTYPE
  5
6D
330
5
100
AcDbSymbolTableRecord
100
AcDbLinetypeTableRecord
  2
CENTERX2
 70
     0
  3
Center (2x) ________  __  ________  __  _____
 72
    65
 73
     4
 40
20.32
 49
12.7
 74
     0
 49
-2.54
 74
     0
 49
2.54
 74
     0
 49
-2.54
 74
     0
  0
LTYPE
  5
6E
330
5
100
AcDbSymbolTableRecord
100
AcDbLinetypeTableRecord
  2
DOT2
 70
     0
  3
Dot (.5x) ........................................
 72
    65
 73
     2
 40
0.635
 49
0.0
 74
     0
 49
-0.635
 74
     0
  0
ENDTAB
  0
TABLE
  2
LAYER
  5
2
102
{ACAD_XDICTIONARY
360
20A
102
}
330
0
100
AcDbSymbolTable
 70
    18
  0
LAYER
  5
10
330
2
100
AcDbSymbolTableRecord
100
AcDbLayerTableRecord
  2
0
 70
     0
 62
     7
  6
Continuous
370
    -3
390
F
  0
LAYER
  5
6F
330
2
100
AcDbSymbolTableRecord
100
AcDbLayerTableRecord
  2
FORMAT
 70
     0
 62
     2
  6
Continuous
370
    -3
390
F
  0
LAYER
  5
70
330
2
100
AcDbSymbolTableRecord
100
AcDbLayerTableRecord
  2
외형선
 70
     0
 62
     4
  6
Continuous
370
    30
390
F
  0
LAYER
  5
71
330
2
100
AcDbSymbolTableRecord
100
AcDbLayerTableRecord
  2
숨은선
 70
     0
 62
     2
  6
HIDDEN
370
    15
390
F
  0
LAYER
  5
72
330
2
100
AcDbSymbolTableRecord
100
AcDbLayerTableRecord
  2
중심선
 70
     0
 62
     1
  6
CENTERX2
370
    -3
390
F
  0
LAYER
  5
73
330
2
100
AcDbSymbolTableRecord
100
AcDbLayerTableRecord
  2
파단선
 70
     0
 62
     4
  6
Continuous
370
    -3
390
F
  0
LAYER
  5
74
330
2
100
AcDbSymbolTableRecord
100
AcDbLayerTableRecord
  2
해칭선
 70
     0
 62
   100
  6
Continuous
370
    -3
390
F
  0
LAYER
  5
75
330
2
100
AcDbSymbolTableRecord
100
AcDbLayerTableRecord
  2
가는실선
 70
     0
 62
     4
  6
Continuous
370
    -3
390
F
  0
LAYER
  5
76
330
2
100
AcDbSymbolTableRecord
100
AcDbLayerTableRecord
  2
치수_보조선
 70
     0
 62
     4
  6
Continuous
370
    -3
390
F
  0
LAYER
  5
77
330
2
100
AcDbSymbolTableRecord
100
AcDbLayerTableRecord
  2
치수문자_일반주서
 70
     0
 62
     7
  6
Continuous
370
    15
390
F
  0
LAYER
  5
78
330
2
100
AcDbSymbolTableRecord
100
AcDbLayerTableRecord
  2
개별주서
 70
     0
 62
   100
  6
Continuous
370
    30
390
F
  0
LAYER
  5
79
330
2
100
AcDbSymbolTableRecord
100
AcDbLayerTableRecord
  2
중간선
 70
     0
 62
     2
  6
Continuous
370
    15
390
F
  0
LAYER
  5
7A
330
2
100
AcDbSymbolTableRecord
100
AcDbLayerTableRecord
  2
윤곽선
 70
     0
 62
     3
  6
Continuous
370
    40
390
F
  0
LAYER
  5
7B
330
2
100
AcDbSymbolTableRecord
100
AcDbLayerTableRecord
  2
중심마크
 70
     0
 62
   100
  6
Continuous
370
    30
390
F
  0
LAYER
  5
7C
330
2
100
AcDbSymbolTableRecord
100
AcDbLayerTableRecord
  2
가상선
 70
     0
 62
     4
  6
PHANTOM
370
    -3
390
F
  0
LAYER
  5
7D
330
2
100
AcDbSymbolTableRecord
100
AcDbLayerTableRecord
  2
특수지정선
 70
     0
 62
     5
  6
CENTERX2
370
    60
390
F
  0
LAYER
  5
7E
330
2
100
AcDbSymbolTableRecord
100
AcDbLayerTableRecord
  2
참조1
 70
     0
 62
    -4
  6
Continuous
370
    -3
390
F
  0
LAYER
  5
152
330
2
100
AcDbSymbolTableRecord
100
AcDbLayerTableRecord
  2
Defpoints
 70
     0
 62
     7
  6
Continuous
290
     0
370
    -3
390
F
  0
ENDTAB
  0
TABLE
  2
STYLE
  5
3
330
0
100
AcDbSymbolTable
 70
     2
  0
STYLE
  5
11
330
3
100
AcDbSymbolTableRecord
100
AcDbTextStyleTableRecord
  2
Standard
 70
     0
 40
0.0
 41
1.0
 50
0.0
 71
     0
 42
3.5
  3
txt
  4

  0
STYLE
  5
94
330
3
100
AcDbSymbolTableRecord
100
AcDbTextStyleTableRecord
  2
SLDTEXTSTYLE0
 70
     0
 40
0.0
 41
0.75
 50
0.0
 71
     0
 42
3.5
  3
TXT
  4

  0
ENDTAB
  0
TABLE
  2
VIEW
  5
6
330
0
100
AcDbSymbolTable
 70
     0
  0
ENDTAB
  0
TABLE
  2
UCS
  5
7
330
0
100
AcDbSymbolTable
 70
     0
  0
ENDTAB
  0
TABLE
  2
APPID
  5
9
330
0
100
AcDbSymbolTable
 70
     3
  0
APPID
  5
12
330
9
100
AcDbSymbolTableRecord
100
AcDbRegAppTableRecord
  2
ACAD
 70
     0
  0
APPID
  5
15E
330
9
100
AcDbSymbolTableRecord
100
AcDbRegAppTableRecord
  2
PE_URL
 70
     0
  0
APPID
  5
15F
330
9
100
AcDbSymbolTableRecord
100
AcDbRegAppTableRecord
  2
ACAD_DSTYLE_DIMRADIAL_EXTENSION
 70
     0
  0
ENDTAB
  0
TABLE
  2
DIMSTYLE
  5
A
330
0
100
AcDbSymbolTable
 70
     4
100
AcDbDimStyleTable
  0
DIMSTYLE
105
27
330
A
100
AcDbSymbolTableRecord
100
AcDbDimStyleTableRecord
  2
ISO-25
 70
     0
 41
2.5
 42
0.625
 43
3.75
 44
1.25
 73
     0
 74
     0
 77
     1
 78
     8
140
2.5
141
2.5
143
0.03937007874016
147
0.625
171
     3
172
     1
178
     0
271
     2
272
     2
274
     3
278
    44
283
     0
284
     8
340
11
  0
DIMSTYLE
105
CF
102
{ACAD_REACTORS
330
CE
330
E2
330
F6
330
10A
102
}
330
A
100
AcDbSymbolTableRecord
100
AcDbDimStyleTableRecord
  2
SLDDIMSTYLE0
 70
     0
 41
3.302
 44
0.0
 45
0.000000001
 73
     0
 74
     0
 77
     1
 78
    12
 79
     3
140
3.5
143
0.0393700787401575
147
0.875
148
0.000000001
170
     1
173
     1
178
     0
271
     2
272
     2
276
     2
284
    12
340
94
  0
DIMSTYLE
105
F7
102
{ACAD_REACTORS
102
}
330
A
100
AcDbSymbolTableRecord
100
AcDbDimStyleTableRecord
  2
SLDDIMSTYLE1
 70
     0
 41
3.302
 44
0.0
 45
0.000000001
 73
     0
 74
     0
 77
     1
 78
     4
 79
     1
140
3.5
143
0.0393700787401575
147
0.875
148
0.000000001
170
     1
173
     1
178
     0
271
     2
272
     2
276
     2
284
    12
340
94
  0
DIMSTYLE
105
10B
102
{ACAD_REACTORS
102
}
330
A
100
AcDbSymbolTableRecord
100
AcDbDimStyleTableRecord
  2
SLDDIMSTYLE2
 70
     0
 41
3.302
 44
0.0
 45
0.000000001
 73
     0
 74
     0
 77
     1
 78
    12
 79
     3
140
3.5
143
0.0393700787401575
147
0.875
148
0.000000001
170
     1
172
     1
173
     1
178
     0
271
     2
272
     2
276
     2
284
    12
289
     0
340
94
  0
ENDTAB
  0
TABLE
  2
BLOCK_RECORD
  5
1
330
0
100
AcDbSymbolTable
 70
    20
  0
BLOCK_RECORD
  5
1F
102
{ACAD_XDICTIONARY
360
361
102
}
330
1
100
AcDbSymbolTableRecord
100
AcDbBlockTableRecord
  2
*Model_Space
340
22
  0
BLOCK_RECORD
  5
1B
330
1
100
AcDbSymbolTableRecord
100
AcDbBlockTableRecord
  2
*Paper_Space
340
1E
  0
BLOCK_RECORD
  5
23
330
1
100
AcDbSymbolTableRecord
100
AcDbBlockTableRecord
  2
*Paper_Space0
340
26
  0
BLOCK_RECORD
  5
7F
330
1
100
AcDbSymbolTableRecord
100
AcDbBlockTableRecord
  2
블럭10
340
0
102
{BLKREFS
331
C7
102
}
  0
BLOCK_RECORD
  5
D0
330
1
100
AcDbSymbolTableRecord
100
AcDbBlockTableRecord
  2
_D
340
0
  0
BLOCK_RECORD
  5
E3
330
1
100
AcDbSymbolTableRecord
100
AcDbBlockTableRecord
  2
_D_1
340
0
  0
BLOCK_RECORD
  5
F8
330
1
100
AcDbSymbolTableRecord
100
AcDbBlockTableRecord
  2
_D_2
340
0
  0
BLOCK_RECORD
  5
10C
330
1
100
AcDbSymbolTableRecord
100
AcDbBlockTableRecord
  2
_D_3
340
0
  0
BLOCK_RECORD
  5
126
330
1
100
AcDbSymbolTableRecord
100
AcDbBlockTableRecord
  2
SW_DOWELSYMBOL_0
340
0
102
{BLKREFS
331
12C
102
}
  0
BLOCK_RECORD
  5
1E8
330
1
100
AcDbSymbolTableRecord
100
AcDbBlockTableRecord
  2
_D_4
340
0
  0
BLOCK_RECORD
  5
202
330
1
100
AcDbSymbolTableRecord
100
AcDbBlockTableRecord
  2
*D8
340
0
  0
BLOCK_RECORD
  5
20E
330
1
100
AcDbSymbolTableRecord
100
AcDbBlockTableRecord
  2
*D9
340
0
  0
BLOCK_RECORD
  5
21A
330
1
100
AcDbSymbolTableRecord
100
AcDbBlockTableRecord
  2
*D10
340
0
  0
BLOCK_RECORD
  5
226
330
1
100
AcDbSymbolTableRecord
100
AcDbBlockTableRecord
  2
*D11
340
0
  0
BLOCK_RECORD
  5
281
330
1
100
AcDbSymbolTableRecord
100
AcDbBlockTableRecord
  2
*D12
340
0
  0
BLOCK_RECORD
  5
28D
330
1
100
AcDbSymbolTableRecord
100
AcDbBlockTableRecord
  2
*D13
340
0
  0
BLOCK_RECORD
  5
299
330
1
100
AcDbSymbolTableRecord
100
AcDbBlockTableRecord
  2
*D14
340
0
  0
BLOCK_RECORD
  5
2A7
330
1
100
AcDbSymbolTableRecord
100
AcDbBlockTableRecord
  2
*D15
340
0
  0
BLOCK_RECORD
  5
2B5
330
1
100
AcDbSymbolTableRecord
100
AcDbBlockTableRecord
  2
*D16
340
0
  0
BLOCK_RECORD
  5
2EA
330
1
100
AcDbSymbolTableRecord
100
AcDbBlockTableRecord
  2
*D17
340
0
  0
BLOCK_RECORD
  5
2F7
330
1
100
AcDbSymbolTableRecord
100
AcDbBlockTableRecord
  2
*D18
340
0
  0
BLOCK_RECORD
  5
304
330
1
100
AcDbSymbolTableRecord
100
AcDbBlockTableRecord
  2
*D19
340
0
  0
ENDTAB
  0
ENDSEC
  0
SECTION
  2
BLOCKS
  0
BLOCK
  5
20
330
1F
100
AcDbEntity
  8
0
100
AcDbBlockBegin
  2
*Model_Space
 70
     0
 10
0.0
 20
0.0
 30
0.0
  3
*Model_Space
  1
*Model_Space
  0
ENDBLK
  5
21
330
1F
100
AcDbEntity
  8
0
100
AcDbBlockEnd
  0
BLOCK
  5
1C
330
1B
100
AcDbEntity
 67
     1
  8
0
100
AcDbBlockBegin
  2
*Paper_Space
 70
     0
 10
0.0
 20
0.0
 30
0.0
  3
*Paper_Space
  1
*Paper_Space
  0
ENDBLK
  5
1D
330
1B
100
AcDbEntity
 67
     1
  8
0
100
AcDbBlockEnd
  0
BLOCK
  5
24
330
23
100
AcDbEntity
  8
0
100
AcDbBlockBegin
  2
*Paper_Space0
 70
     0
 10
0.0
 20
0.0
 30
0.0
  3
*Paper_Space0
  1
*Paper_Space0
  0
ENDBLK
  5
25
330
23
100
AcDbEntity
  8
0
100
AcDbBlockEnd
  0
BLOCK
  5
80
330
7F
100
AcDbEntity
  8
0
100
AcDbBlockBegin
  2
블럭10
 70
     2
 10
0.0
 20
0.0
 30
0.0
  3
블럭10
  1
블럭10
  0
ELLIPSE
  5
82
330
7F
100
AcDbEntity
  8
중심선
100
AcDbEllipse
 10
20.54032771741204
 20
12.0471743016438
 30
0.0
 11
6.600054785286829
 21
-1.261213355974178E-13
 31
0.0
210
0.0
220
0.0
230
1.0
 40
0.636358354079598
 41
0.9219305317359503
 42
6.513795318482858
  0
ELLIPSE
  5
83
330
7F
100
AcDbEntity
  8
중심선
100
AcDbEllipse
 10
20.54032771746488
 20
12.04717430159265
 30
0.0
 11
3.960054785062283
 21
1.540847449632565E-10
 31
0.0
210
0.0
220
0.0
230
1.0
 40
0.3939339440162632
 41
1.131841032648279
 42
5.62031148352944
  0
LINE
  5
84
330
7F
100
AcDbEntity
  8
중심선
100
AcDbLine
 10
2.268634060543552
 20
16.24717430164393
 30
0.0
 11
5.714909304380834
 21
16.24717430164393
 31
0.0
  0
LINE
  5
85
330
7F
100
AcDbEntity
  8
중심선
100
AcDbLine
 10
5.245725140726316
 20
7.84717430164391
 30
0.0
 11
8.692000384563599
 21
7.84717430164391
 31
0.0
  0
LINE
  5
86
330
7F
100
AcDbEntity
  8
중심선
100
AcDbLine
 10
15.74043728645272
 20
16.24717430164393
 30
0.0
 11
8.692000384563599
 21
7.84717430164391
 31
0.0
  0
LINE
  5
87
330
7F
100
AcDbEntity
  8
중심선
100
AcDbLine
 10
0.1404042013395286
 20
13.71084872107135
 30
0.0
 11
3.58671253028996
 21
13.71088815037384
 31
0.0
  0
LINE
  5
88
330
7F
100
AcDbEntity
  8
중심선
100
AcDbLine
 10
2.750260043222114
 20
10.84717430164391
 30
0.0
 11
6.196535287059397
 21
10.84717430164391
 31
0.0
  0
LINE
  5
89
330
7F
100
AcDbEntity
  8
중심선
100
AcDbLine
 10
12.29416204261559
 20
16.24717430164393
 30
0.0
 11
5.245725140726316
 21
7.84717430164391
 31
0.0
  0
LINE
  5
8A
330
7F
100
AcDbEntity
  8
중심선
100
AcDbLine
 10
10.72767329541681
 20
16.24717430164393
 30
0.0
 11
6.196535287059397
 21
10.84717430164391
 31
0.0
  0
LINE
  5
8B
330
7F
100
AcDbEntity
  8
중심선
100
AcDbLine
 10
7.28139805157953
 20
16.24717430164393
 30
0.0
 11
2.750260043222114
 21
10.84717430164391
 31
0.0
  0
LINE
  5
8C
330
7F
100
AcDbEntity
  8
중심선
100
AcDbLine
 10
5.714909304380834
 20
16.24717430164393
 30
0.0
 11
3.58671253028996
 21
13.71088815037384
 31
0.0
  0
LINE
  5
8D
330
7F
100
AcDbEntity
  8
중심선
100
AcDbLine
 10
2.268634060543552
 20
16.24717430164393
 30
0.0
 11
0.1404042013395286
 21
13.71084872107135
 31
0.0
  0
LINE
  5
8E
330
7F
100
AcDbEntity
  8
중심선
100
AcDbLine
 10
7.28139805157953
 20
16.24717430164393
 30
0.0
 11
10.72767329541681
 21
16.24717430164393
 31
0.0
  0
LINE
  5
8F
330
7F
100
AcDbEntity
  8
중심선
100
AcDbLine
 10
12.29416204261559
 20
16.24717430164393
 30
0.0
 11
15.74043728645272
 21
16.24717430164393
 31
0.0
  0
LINE
  5
90
330
7F
100
AcDbEntity
  8
중심선
100
AcDbLine
 10
19.22036997980202
 20
11.08717430171403
 30
0.0
 11
23.66174974927406
 21
11.08717430171406
 31
0.0
  0
LINE
  5
91
330
7F
100
AcDbEntity
  8
중심선
100
AcDbLine
 10
19.22039502424796
 20
13.00717430171391
 30
0.0
 11
19.22036997980202
 21
11.08717430171403
 31
0.0
  0
LINE
  5
92
330
7F
100
AcDbEntity
  8
중심선
100
AcDbLine
 10
19.22039502424796
 20
13.00717430171391
 30
0.0
 11
26.96566020931264
 21
13.00717430171391
 31
0.0
  0
LINE
  5
93
330
7F
100
AcDbEntity
  8
중심선
100
AcDbLine
 10
22.22332737316547
 20
13.45928029700563
 30
0.0
 11
24.52862924686651
 21
15.39360700705356
 31
0.0
  0
ATTDEF
  5
95
330
7F
100
AcDbEntity
  8
FORMAT
 62
     2
100
AcDbText
 10
4.408487351596664
 20
2.075366912832191
 30
0.0
 40
4.233333333333333
  1
E5024022
 41
0.75
  7
SLDTEXTSTYLE0
 11
4.408487351596664
 21
-0.0412997538344756
 31
0.0
100
AcDbAttributeDefinition
  3

  2
AUTOATTR0
 70
     0
 74
     1
  0
ENDBLK
  5
81
330
7F
100
AcDbEntity
  8
0
100
AcDbBlockEnd
  0
BLOCK
  5
D1
330
D0
100
AcDbEntity
  8
0
100
AcDbBlockBegin
  2
_D
 70
     0
 10
0.0
 20
0.0
 30
0.0
  3
_D
  1
_D
  0
LINE
  5
D3
330
D0
100
AcDbEntity
  8
치수문자_일반주서
 62
     0
370
    -2
100
AcDbLine
 10
44.51250000000001
 20
4.36562500000003
 30
0.0
 11
56.46057472204981
 21
4.365625000000076
 31
0.0
  0
LINE
  5
D4
330
D0
100
AcDbEntity
  8
치수문자_일반주서
 62
     0
370
    -2
100
AcDbLine
 10
44.51250000000001
 20
-4.365624999999975
 30
0.0
 11
56.46057472204984
 21
-4.36562499999993
 31
0.0
  0
LINE
  5
D5
330
D0
100
AcDbEntity
  8
치수문자_일반주서
 62
     0
370
    -2
100
AcDbLine
 10
56.46057472204981
 20
4.365625000000076
 30
0.0
 11
56.4605747220497
 21
37.41762500000007
 31
0.0
  0
LINE
  5
D6
330
D0
100
AcDbEntity
  8
치수문자_일반주서
 62
     0
370
    -2
100
AcDbLine
 10
56.46057472204983
 20
1.063625000000076
 30
0.0
 11
56.46057472204983
 21
-1.063624999999931
 31
0.0
  0
SOLID
  5
D7
330
D0
100
AcDbEntity
  8
치수문자_일반주서
 62
     0
100
AcDbTrace
 10
57.01090805538316
 20
1.063625000000078
 30
0.0
 11
55.91024138871649
 21
1.063625000000075
 31
0.0
 12
56.46057472204981
 22
4.365625000000076
 32
0.0
 13
56.46057472204981
 23
4.365625000000076
 33
0.0
  0
SOLID
  5
D8
330
D0
100
AcDbEntity
  8
치수문자_일반주서
 62
     0
100
AcDbTrace
 10
55.91024138871649
 20
-1.063624999999933
 30
0.0
 11
57.01090805538316
 21
-1.063624999999929
 31
0.0
 12
56.46057472204984
 22
-4.36562499999993
 32
0.0
 13
56.46057472204984
 23
-4.36562499999993
 33
0.0
  0
MTEXT
  5
D9
330
D0
100
AcDbEntity
  8
치수문자_일반주서
 62
     0
100
AcDbMText
 10
52.08557472204975
 20
22.54262500000006
 30
0.0
 40
3.5
 41
0.0
 71
     2
 72
     1
  1
\A1;%%c8.73 [11/32]
  7
SLDTEXTSTYLE0
 11
-3.255170729323292E-15
 21
1.0
 31
0.0
 73
     1
 44
1.0
  0
POINT
  5
DA
330
D0
100
AcDbEntity
  8
Defpoints
 62
     0
100
AcDbPoint
 10
44.45000000000001
 20
4.36562500000003
 30
0.0
  0
POINT
  5
DB
330
D0
100
AcDbEntity
  8
Defpoints
 62
     0
100
AcDbPoint
 10
44.45000000000001
 20
-4.365624999999975
 30
0.0
  0
POINT
  5
DC
330
D0
100
AcDbEntity
  8
Defpoints
 62
     0
100
AcDbPoint
 10
56.46057472204984
 20
-4.365624999999929
 30
0.0
  0
ENDBLK
  5
D2
330
D0
100
AcDbEntity
  8
0
100
AcDbBlockEnd
  0
BLOCK
  5
E4
330
E3
100
AcDbEntity
  8
0
100
AcDbBlockBegin
  2
_D_1
 70
     0
 10
0.0
 20
0.0
 30
0.0
  3
_D_1
  1
_D_1
  0
LINE
  5
E6
330
E3
100
AcDbEntity
  8
치수문자_일반주서
 62
     0
370
    -2
100
AcDbLine
 10
44.45000000000001
 20
4.412070813640838
 30
0.0
 11
44.45000000000001
 21
26.61282305624523
 31
0.0
  0
LINE
  5
E7
330
E3
100
AcDbEntity
  8
치수문자_일반주서
 62
     0
370
    -2
100
AcDbLine
 10
25.4
 20
4.354119513159953
 30
0.0
 11
25.4
 21
26.61282305624523
 31
0.0
  0
LINE
  5
E8
330
E3
100
AcDbEntity
  8
치수문자_일반주서
 62
     0
370
    -2
100
AcDbLine
 10
25.4
 20
26.61282305624523
 30
0.0
 11
-4.019187582013231
 21
26.61282305624523
 31
0.0
  0
LINE
  5
E9
330
E3
100
AcDbEntity
  8
치수문자_일반주서
 62
     0
370
    -2
100
AcDbLine
 10
41.14800000000001
 20
26.61282305624523
 30
0.0
 11
28.702
 21
26.61282305624523
 31
0.0
  0
SOLID
  5
EA
330
E3
100
AcDbEntity
  8
치수문자_일반주서
 62
     0
100
AcDbTrace
 10
41.14800000000001
 20
26.0624897229119
 30
0.0
 11
41.14800000000001
 21
27.16315638957857
 31
0.0
 12
44.45000000000001
 22
26.61282305624523
 32
0.0
 13
44.45000000000001
 23
26.61282305624523
 33
0.0
  0
SOLID
  5
EB
330
E3
100
AcDbEntity
  8
치수문자_일반주서
 62
     0
100
AcDbTrace
 10
28.702
 20
27.16315638957857
 30
0.0
 11
28.702
 21
26.0624897229119
 31
0.0
 12
25.4
 22
26.61282305624523
 32
0.0
 13
25.4
 23
26.61282305624523
 33
0.0
  0
MTEXT
  5
EC
330
E3
100
AcDbEntity
  8
치수문자_일반주서
 62
     0
100
AcDbMText
 10
8.449562417986769
 20
30.98782305624523
 30
0.0
 40
3.5
 41
0.0
 71
     2
 72
     1
  1
\A1;19.05 [3/4]
  7
SLDTEXTSTYLE0
 73
     1
 44
1.0
  0
POINT
  5
ED
330
E3
100
AcDbEntity
  8
Defpoints
 62
     0
100
AcDbPoint
 10
44.45000000000001
 20
4.349570813640838
 30
0.0
  0
POINT
  5
EE
330
E3
100
AcDbEntity
  8
Defpoints
 62
     0
100
AcDbPoint
 10
25.4
 20
4.291619513159953
 30
0.0
  0
POINT
  5
EF
330
E3
100
AcDbEntity
  8
Defpoints
 62
     0
100
AcDbPoint
 10
25.4
 20
26.61282305624523
 30
0.0
  0
ENDBLK
  5
E5
330
E3
100
AcDbEntity
  8
0
100
AcDbBlockEnd
  0
BLOCK
  5
F9
330
F8
100
AcDbEntity
  8
0
100
AcDbBlockBegin
  2
_D_2
 70
     0
 10
0.0
 20
0.0
 30
0.0
  3
_D_2
  1
_D_2
  0
LINE
  5
FB
330
F8
100
AcDbEntity
  8
치수문자_일반주서
 62
     0
370
    -2
100
AcDbLine
 10
44.45000000000001
 20
4.412070813640838
 30
0.0
 11
44.45000000000001
 21
51.93998975661525
 31
0.0
  0
LINE
  5
FC
330
F8
100
AcDbEntity
  8
치수문자_일반주서
 62
     0
370
    -2
100
AcDbLine
 10
-44.45
 20
3.8725
 30
0.0
 11
-44.45
 21
51.93998975661525
 31
0.0
  0
LINE
  5
FD
330
F8
100
AcDbEntity
  8
치수문자_일반주서
 62
     0
370
    -2
100
AcDbLine
 10
41.14800000000001
 20
51.93998975661525
 30
0.0
 11
-41.148
 21
51.93998975661525
 31
0.0
  0
SOLID
  5
FE
330
F8
100
AcDbEntity
  8
치수문자_일반주서
 62
     0
100
AcDbTrace
 10
41.14800000000001
 20
51.38965642328191
 30
0.0
 11
41.14800000000001
 21
52.49032308994858
 31
0.0
 12
44.45000000000001
 22
51.93998975661525
 32
0.0
 13
44.45000000000001
 23
51.93998975661525
 33
0.0
  0
SOLID
  5
FF
330
F8
100
AcDbEntity
  8
치수문자_일반주서
 62
     0
100
AcDbTrace
 10
-41.148
 20
52.49032308994858
 30
0.0
 11
-41.148
 21
51.38965642328191
 31
0.0
 12
-44.45
 22
51.93998975661525
 32
0.0
 13
-44.45
 23
51.93998975661525
 33
0.0
  0
MTEXT
  5
100
330
F8
100
AcDbEntity
  8
치수문자_일반주서
 62
     0
100
AcDbMText
 10
-2.268279200632822
 20
56.31498975661525
 30
0.0
 40
3.5
 41
0.0
 71
     2
 72
     1
  1
\A1;88.9 [3 1/2]
  7
SLDTEXTSTYLE0
 73
     1
 44
1.0
  0
POINT
  5
101
330
F8
100
AcDbEntity
  8
Defpoints
 62
     0
100
AcDbPoint
 10
44.45000000000001
 20
4.349570813640838
 30
0.0
  0
POINT
  5
102
330
F8
100
AcDbEntity
  8
Defpoints
 62
     0
100
AcDbPoint
 10
-44.45
 20
3.81
 30
0.0
  0
POINT
  5
103
330
F8
100
AcDbEntity
  8
Defpoints
 62
     0
100
AcDbPoint
 10
-44.45
 20
51.93998975661525
 30
0.0
  0
ENDBLK
  5
FA
330
F8
100
AcDbEntity
  8
0
100
AcDbBlockEnd
  0
BLOCK
  5
10D
330
10C
100
AcDbEntity
  8
0
100
AcDbBlockBegin
  2
_D_3
 70
     0
 10
0.0
 20
0.0
 30
0.0
  3
_D_3
  1
_D_3
  0
LINE
  5
10F
330
10C
100
AcDbEntity
  8
치수문자_일반주서
 62
     0
370
    -2
100
AcDbLine
 10
-22.98134233574611
 20
4.762500000000002
 30
0.0
 11
-56.64900562884041
 21
4.762499999999875
 31
0.0
  0
LINE
  5
110
330
10C
100
AcDbEntity
  8
치수문자_일반주서
 62
     0
370
    -2
100
AcDbLine
 10
-22.98134233574607
 20
-4.762500000000006
 30
0.0
 11
-56.64900562884038
 21
-4.762500000000134
 31
0.0
  0
LINE
  5
111
330
10C
100
AcDbEntity
  8
치수문자_일반주서
 62
     0
370
    -2
100
AcDbLine
 10
-56.64900562884041
 20
4.762499999999875
 30
0.0
 11
-56.64900562884053
 21
34.53324999999997
 31
0.0
  0
LINE
  5
112
330
10C
100
AcDbEntity
  8
치수문자_일반주서
 62
     0
370
    -2
100
AcDbLine
 10
-56.6490056288404
 20
1.460499999999875
 30
0.0
 11
-56.64900562884039
 21
-1.460500000000135
 31
0.0
  0
SOLID
  5
113
330
10C
100
AcDbEntity
  8
치수문자_일반주서
 62
     0
100
AcDbTrace
 10
-56.09867229550706
 20
1.460499999999877
 30
0.0
 11
-57.19933896217373
 21
1.460499999999873
 31
0.0
 12
-56.64900562884041
 22
4.762499999999875
 32
0.0
 13
-56.64900562884041
 23
4.762499999999875
 33
0.0
  0
SOLID
  5
114
330
10C
100
AcDbEntity
  8
치수문자_일반주서
 62
     0
100
AcDbTrace
 10
-57.19933896217373
 20
-1.460500000000137
 30
0.0
 11
-56.09867229550706
 21
-1.460500000000133
 31
0.0
 12
-56.64900562884038
 22
-4.762500000000134
 32
0.0
 13
-56.64900562884038
 23
-4.762500000000134
 33
0.0
  0
MTEXT
  5
115
330
10C
100
AcDbEntity
  8
치수문자_일반주서
 62
     0
100
AcDbMText
 10
-61.02400562884048
 20
21.40824999999994
 30
0.0
 40
3.5
 41
0.0
 71
     2
 72
     1
  1
\A1;%%c9.53 [3/8]
  7
SLDTEXTSTYLE0
 11
-3.729883127349604E-15
 21
1.0
 31
0.0
 73
     1
 44
1.0
  0
POINT
  5
116
330
10C
100
AcDbEntity
  8
Defpoints
 62
     0
100
AcDbPoint
 10
-22.91884233574611
 20
4.762500000000002
 30
0.0
  0
POINT
  5
117
330
10C
100
AcDbEntity
  8
Defpoints
 62
     0
100
AcDbPoint
 10
-22.91884233574607
 20
-4.762500000000006
 30
0.0
  0
POINT
  5
2BF
330
10C
100
AcDbEntity
  8
Defpoints
 62
     0
100
AcDbPoint
 10
-56.64900562884038
 20
-4.762500000000132
 30
0.0
  0
ENDBLK
  5
10E
330
10C
100
AcDbEntity
  8
0
100
AcDbBlockEnd
  0
BLOCK
  5
127
330
126
100
AcDbEntity
  8
0
100
AcDbBlockBegin
  2
SW_DOWELSYMBOL_0
 70
     0
 10
0.0
 20
0.0
 30
0.0
  3
SW_DOWELSYMBOL_0
  1
SW_DOWELSYMBOL_0
  0
CIRCLE
  5
129
330
126
100
AcDbEntity
  8
해칭선
 62
     0
100
AcDbCircle
 10
0.0
 20
0.0
 30
0.0
 40
3.000000000000001
  0
HATCH
  5
12A
330
126
100
AcDbEntity
  8
0
  6
Continuous
 62
     0
370
     0
100
AcDbHatch
 10
0.0
 20
0.0
 30
0.0
210
0.0
220
0.0
230
1.0
  2
SOLID
 70
     1
 71
     0
 91
        1
 92
        0
 93
        3
 72
     2
 10
0.0
 20
0.0
 40
3.000000000000001
 50
0.0
 51
90.0
 73
     1
 72
     1
 10
0.0
 20
3.000000000000001
 11
0.0
 21
0.0
 72
     1
 10
0.0
 20
0.0
 11
3.000000000000003
 21
0.0
 97
        0
 75
     0
 76
     1
 98
        1
 10
0.0
 20
0.0
  0
HATCH
  5
12B
330
126
100
AcDbEntity
  8
0
  6
Continuous
 62
     0
370
     0
100
AcDbHatch
 10
0.0
 20
0.0
 30
0.0
210
0.0
220
0.0
230
1.0
  2
SOLID
 70
     1
 71
     0
 91
        1
 92
        0
 93
        3
 72
     2
 10
0.0
 20
0.0
 40
3.000000000000001
 50
180.0
 51
270.0000000000007
 73
     1
 72
     1
 10
0.0
 20
-3.000000000000001
 11
0.0
 21
0.0
 72
     1
 10
0.0
 20
0.0
 11
-3.000000000000003
 21
0.0
 97
        0
 75
     0
 76
     1
 98
        1
 10
0.0
 20
0.0
  0
ENDBLK
  5
128
330
126
100
AcDbEntity
  8
0
100
AcDbBlockEnd
  0
BLOCK
  5
1E9
330
1E8
100
AcDbEntity
  8
0
100
AcDbBlockBegin
  2
_D_4
 70
     0
 10
0.0
 20
0.0
 30
0.0
  3
_D_4
  1
_D_4
  0
LINE
  5
1EA
330
1E8
100
AcDbEntity
  8
치수문자_일반주서
 62
     0
370
    -2
100
AcDbLine
 10
102.4375000000001
 20
36.22143424691529
 30
0.0
 11
117.3750000000001
 21
36.22143424691535
 31
0.0
  0
LINE
  5
1EB
330
1E8
100
AcDbEntity
  8
치수문자_일반주서
 62
     0
370
    -2
100
AcDbLine
 10
102.4375000000001
 20
22.22143424691529
 30
0.0
 11
117.3750000000001
 21
22.22143424691535
 31
0.0
  0
LINE
  5
1EC
330
1E8
100
AcDbEntity
  8
치수문자_일반주서
 62
     0
370
    -2
100
AcDbLine
 10
117.3750000000001
 20
36.22143424691535
 30
0.0
 11
117.3750000000001
 21
22.22143424691535
 31
0.0
  0
LINE
  5
1ED
330
1E8
100
AcDbEntity
  8
치수문자_일반주서
 62
     0
370
    -2
100
AcDbLine
 10
117.3750000000001
 20
39.52343424691535
 30
0.0
 11
117.375
 21
42.82543424691535
 31
0.0
  0
LINE
  5
1EE
330
1E8
100
AcDbEntity
  8
치수문자_일반주서
 62
     0
370
    -2
100
AcDbLine
 10
117.3750000000001
 20
18.91943424691535
 30
0.0
 11
117.3750000000001
 21
15.61743424691535
 31
0.0
  0
SOLID
  5
1EF
330
1E8
100
AcDbEntity
  8
치수문자_일반주서
 62
     0
100
AcDbTrace
 10
116.8246666666667
 20
39.52343424691535
 30
0.0
 11
117.9253333333334
 21
39.52343424691535
 31
0.0
 12
117.3750000000001
 22
36.22143424691535
 32
0.0
 13
117.3750000000001
 23
36.22143424691535
 33
0.0
  0
SOLID
  5
1F0
330
1E8
100
AcDbEntity
  8
치수문자_일반주서
 62
     0
100
AcDbTrace
 10
117.9253333333335
 20
18.91943424691535
 30
0.0
 11
116.8246666666668
 21
18.91943424691535
 31
0.0
 12
117.3750000000001
 22
22.22143424691535
 32
0.0
 13
117.3750000000001
 23
22.22143424691535
 33
0.0
  0
MTEXT
  5
1F1
330
1E8
100
AcDbEntity
  8
치수문자_일반주서
 62
     0
100
AcDbMText
 10
113.0000000000001
 20
29.28713862862833
 30
0.0
 40
3.5
 41
0.0
 71
     2
 72
     1
  1
\A1;%%c14 [0.55]
  7
SLDTEXTSTYLE0
 11
-3.045183153257572E-15
 21
1.0
 31
0.0
 73
     1
 44
1.0
  0
POINT
  5
1F2
330
1E8
100
AcDbEntity
  8
Defpoints
 62
     0
100
AcDbPoint
 10
102.3750000000001
 20
36.22143424691529
 30
0.0
  0
POINT
  5
1F3
330
1E8
100
AcDbEntity
  8
Defpoints
 62
     0
100
AcDbPoint
 10
102.3750000000001
 20
22.22143424691529
 30
0.0
  0
POINT
  5
1F4
330
1E8
100
AcDbEntity
  8
Defpoints
 62
     0
100
AcDbPoint
 10
117.3750000000001
 20
22.22143424691535
 30
0.0
  0
ENDBLK
  5
1F5
330
1E8
100
AcDbEntity
  8
0
100
AcDbBlockEnd
  0
BLOCK
  5
203
330
202
100
AcDbEntity
  8
0
100
AcDbBlockBegin
  2
*D8
 70
     1
 10
0.0
 20
0.0
 30
0.0
  3
*D8
  1
*D8
  0
LINE
  5
204
330
202
100
AcDbEntity
  8
치수문자_일반주서
 62
     0
370
    -2
100
AcDbLine
 10
103.8657751816695
 20
19.48229575403651
 30
0.0
 11
120.1921280501954
 21
-7.081888143622854
 31
0.0
  0
MTEXT
  5
205
330
202
100
AcDbEntity
  8
치수문자_일반주서
 62
     0
100
AcDbMText
 10
115.6706384014277
 20
5.288158154535728
 30
0.0
 40
3.5
 41
0.0
 71
     5
 72
     1
  1
\A1;R.50 [R0.02]
  7
SLDTEXTSTYLE0
 11
0.5236126201129557
 21
-0.8519564684057781
 31
0.0
 73
     1
 44
1.0
  0
SOLID
  5
206
330
202
100
AcDbEntity
  8
치수문자_일반주서
 62
     0
100
AcDbTrace
 10
104.3346352247821
 20
19.77045723263868
 30
0.0
 11
103.3969151385569
 21
19.19413427543435
 31
0.0
 12
102.1368063100565
 22
22.29545601271239
 32
0.0
 13
102.1368063100565
 23
22.29545601271239
 33
0.0
  0
LINE
  5
207
330
202
100
AcDbEntity
  8
치수문자_일반주서
 62
     0
100
AcDbLine
 10
101.785
 20
22.72143424691529
 30
0.0
 11
101.965
 21
22.72143424691529
 31
0.0
  0
LINE
  5
208
330
202
100
AcDbEntity
  8
치수문자_일반주서
 62
     0
100
AcDbLine
 10
101.875
 20
22.63143424691529
 30
0.0
 11
101.875
 21
22.81143424691529
 31
0.0
  0
POINT
  5
234
330
202
100
AcDbEntity
  8
Defpoints
 62
     0
100
AcDbPoint
 10
102.1368063100565
 20
22.29545601271239
 30
0.0
  0
POINT
  5
235
330
202
100
AcDbEntity
  8
Defpoints
 62
     0
100
AcDbPoint
 10
101.875
 20
22.72143424691529
 30
0.0
  0
ENDBLK
  5
209
330
202
100
AcDbEntity
  8
0
100
AcDbBlockEnd
  0
BLOCK
  5
20F
330
20E
100
AcDbEntity
  8
0
100
AcDbBlockBegin
  2
*D9
 70
     1
 10
0.0
 20
0.0
 30
0.0
  3
*D9
  1
*D10
  0
LINE
  5
211
330
20E
100
AcDbEntity
  8
치수문자_일반주서
 62
     0
370
    -2
100
AcDbLine
 10
19.37500000000004
 20
35.78393424691529
 30
0.0
 11
19.37500000000004
 21
70.88391841499404
 31
0.0
  0
LINE
  5
212
330
20E
100
AcDbEntity
  8
치수문자_일반주서
 62
     0
370
    -2
100
AcDbLine
 10
102.3750000000001
 20
36.34643424691529
 30
0.0
 11
102.3750000000001
 21
70.88391841499404
 31
0.0
  0
LINE
  5
213
330
20E
100
AcDbEntity
  8
치수문자_일반주서
 62
     0
370
    -2
100
AcDbLine
 10
22.67700000000004
 20
70.88391841499404
 30
0.0
 11
99.07300000000006
 21
70.88391841499404
 31
0.0
  0
SOLID
  5
214
330
20E
100
AcDbEntity
  8
치수문자_일반주서
 62
     0
100
AcDbTrace
 10
22.67700000000004
 20
71.43425174832737
 30
0.0
 11
22.67700000000004
 21
70.33358508166071
 31
0.0
 12
19.37500000000004
 22
70.88391841499404
 32
0.0
 13
19.37500000000004
 23
70.88391841499404
 33
0.0
  0
SOLID
  5
215
330
20E
100
AcDbEntity
  8
치수문자_일반주서
 62
     0
100
AcDbTrace
 10
99.07300000000006
 20
70.33358508166071
 30
0.0
 11
99.07300000000006
 21
71.43425174832737
 31
0.0
 12
102.3750000000001
 22
70.88391841499404
 32
0.0
 13
102.3750000000001
 23
70.88391841499404
 33
0.0
  0
MTEXT
  5
216
330
20E
100
AcDbEntity
  8
치수문자_일반주서
 62
     0
100
AcDbMText
 10
60.87500000000005
 20
75.25891841499404
 30
0.0
 40
3.5
 41
0.0
 71
     2
 72
     1
  1
\A1;83 [3.27]
  7
SLDTEXTSTYLE0
 73
     1
 44
1.0
  0
POINT
  5
217
330
20E
100
AcDbEntity
  8
Defpoints
 62
     0
100
AcDbPoint
 10
19.37500000000004
 20
35.72143424691529
 30
0.0
  0
POINT
  5
218
330
20E
100
AcDbEntity
  8
Defpoints
 62
     0
100
AcDbPoint
 10
102.3750000000001
 20
36.28393424691529
 30
0.0
  0
POINT
  5
219
330
20E
100
AcDbEntity
  8
Defpoints
 62
     0
100
AcDbPoint
 10
102.3750000000001
 20
70.88391841499404
 30
0.0
  0
ENDBLK
  5
210
330
20E
100
AcDbEntity
  8
0
100
AcDbBlockEnd
  0
BLOCK
  5
21B
330
21A
100
AcDbEntity
  8
0
100
AcDbBlockBegin
  2
*D10
 70
     1
 10
0.0
 20
0.0
 30
0.0
  3
*D10
  1
*D11
  0
LINE
  5
21D
330
21A
100
AcDbEntity
  8
치수문자_일반주서
 62
     0
370
    -2
100
AcDbLine
 10
76.37504186422882
 20
28.62038676313042
 30
0.0
 11
76.37504186422882
 21
61.90091383617725
 31
0.0
  0
LINE
  5
21E
330
21A
100
AcDbEntity
  8
치수문자_일반주서
 62
     0
370
    -2
100
AcDbLine
 10
102.3750000000001
 20
36.28393424691529
 30
0.0
 11
102.3750000000001
 21
61.90091383617725
 31
0.0
  0
LINE
  5
21F
330
21A
100
AcDbEntity
  8
치수문자_일반주서
 62
     0
370
    -2
100
AcDbLine
 10
79.67704186422881
 20
61.90091383617725
 30
0.0
 11
99.07300000000006
 21
61.90091383617725
 31
0.0
  0
SOLID
  5
220
330
21A
100
AcDbEntity
  8
치수문자_일반주서
 62
     0
100
AcDbTrace
 10
79.67704186422881
 20
62.45124716951059
 30
0.0
 11
79.67704186422881
 21
61.35058050284392
 31
0.0
 12
76.37504186422882
 22
61.90091383617725
 32
0.0
 13
76.37504186422882
 23
61.90091383617725
 33
0.0
  0
SOLID
  5
221
330
21A
100
AcDbEntity
  8
치수문자_일반주서
 62
     0
100
AcDbTrace
 10
99.07300000000006
 20
61.35058050284392
 30
0.0
 11
99.07300000000006
 21
62.45124716951059
 31
0.0
 12
102.3750000000001
 22
61.90091383617725
 32
0.0
 13
102.3750000000001
 23
61.90091383617725
 33
0.0
  0
MTEXT
  5
222
330
21A
100
AcDbEntity
  8
치수문자_일반주서
 62
     0
100
AcDbMText
 10
89.42159572693208
 20
66.27591383617725
 30
0.0
 40
3.5
 41
0.0
 71
     2
 72
     1
  1
\A1;26 [1.02]
  7
SLDTEXTSTYLE0
 73
     1
 44
1.0
  0
POINT
  5
223
330
21A
100
AcDbEntity
  8
Defpoints
 62
     0
100
AcDbPoint
 10
76.37504186422882
 20
28.55788676313042
 30
0.0
  0
POINT
  5
224
330
21A
100
AcDbEntity
  8
Defpoints
 62
     0
100
AcDbPoint
 10
102.3750000000001
 20
36.22143424691529
 30
0.0
  0
POINT
  5
225
330
21A
100
AcDbEntity
  8
Defpoints
 62
     0
100
AcDbPoint
 10
102.3750000000001
 20
61.90091383617725
 30
0.0
  0
ENDBLK
  5
21C
330
21A
100
AcDbEntity
  8
0
100
AcDbBlockEnd
  0
BLOCK
  5
227
330
226
100
AcDbEntity
  8
0
100
AcDbBlockBegin
  2
*D11
 70
     1
 10
0.0
 20
0.0
 30
0.0
  3
*D11
  1
*D12
  0
LINE
  5
229
330
226
100
AcDbEntity
  8
치수문자_일반주서
 62
     0
370
    -2
100
AcDbLine
 10
19.81250000000005
 20
36.22143424691529
 30
0.0
 11
4.374999999999983
 21
36.22143424691524
 31
0.0
  0
LINE
  5
22A
330
226
100
AcDbEntity
  8
치수문자_일반주서
 62
     0
370
    -2
100
AcDbLine
 10
19.81250000000005
 20
22.22143424691529
 30
0.0
 11
4.375000000000032
 21
22.22143424691524
 31
0.0
  0
LINE
  5
22B
330
226
100
AcDbEntity
  8
치수문자_일반주서
 62
     0
370
    -2
100
AcDbLine
 10
4.374999999999983
 20
36.22143424691524
 30
0.0
 11
4.375000000000032
 21
22.22143424691524
 31
0.0
  0
LINE
  5
22C
330
226
100
AcDbEntity
  8
치수문자_일반주서
 62
     0
370
    -2
100
AcDbLine
 10
4.374999999999972
 20
39.52343424691524
 30
0.0
 11
4.37499999999996
 21
42.82543424691524
 31
0.0
  0
LINE
  5
22D
330
226
100
AcDbEntity
  8
치수문자_일반주서
 62
     0
370
    -2
100
AcDbLine
 10
4.375000000000044
 20
18.91943424691524
 30
0.0
 11
4.375000000000055
 21
15.61743424691524
 31
0.0
  0
SOLID
  5
22E
330
226
100
AcDbEntity
  8
치수문자_일반주서
 62
     0
100
AcDbTrace
 10
3.824666666666638
 20
39.52343424691524
 30
0.0
 11
4.925333333333305
 21
39.52343424691524
 31
0.0
 12
4.374999999999983
 22
36.22143424691524
 32
0.0
 13
4.374999999999983
 23
36.22143424691524
 33
0.0
  0
SOLID
  5
22F
330
226
100
AcDbEntity
  8
치수문자_일반주서
 62
     0
100
AcDbTrace
 10
4.925333333333377
 20
18.91943424691524
 30
0.0
 11
3.82466666666671
 21
18.91943424691523
 31
0.0
 12
4.375000000000032
 22
22.22143424691524
 32
0.0
 13
4.375000000000032
 23
22.22143424691524
 33
0.0
  0
MTEXT
  5
230
330
226
100
AcDbEntity
  8
치수문자_일반주서
 62
     0
100
AcDbMText
 10
0.0000000000000071
 20
29.22143424691528
 30
0.0
 40
3.5
 41
0.0
 71
     2
 72
     1
  1
\A1;%%c14 [0.55]
  7
SLDTEXTSTYLE0
 11
-3.489272363107635E-15
 21
1.0
 31
0.0
 73
     1
 44
1.0
  0
POINT
  5
231
330
226
100
AcDbEntity
  8
Defpoints
 62
     0
100
AcDbPoint
 10
19.87500000000005
 20
36.22143424691529
 30
0.0
  0
POINT
  5
232
330
226
100
AcDbEntity
  8
Defpoints
 62
     0
100
AcDbPoint
 10
19.87500000000005
 20
22.22143424691529
 30
0.0
  0
POINT
  5
233
330
226
100
AcDbEntity
  8
Defpoints
 62
     0
100
AcDbPoint
 10
4.375000000000043
 20
22.22143424691524
 30
0.0
  0
ENDBLK
  5
228
330
226
100
AcDbEntity
  8
0
100
AcDbBlockEnd
  0
BLOCK
  5
282
330
281
100
AcDbEntity
  8
0
100
AcDbBlockBegin
  2
*D12
 70
     1
 10
0.0
 20
0.0
 30
0.0
  3
*D12
  1
*D13
  0
LINE
  5
284
330
281
100
AcDbEntity
  8
치수문자_일반주서
 62
     0
370
    -2
100
AcDbLine
 10
-30.06264854143322
 20
101.9939007607452
 30
0.0
 11
-30.06264854143322
 21
137.093884928824
 31
0.0
  0
LINE
  5
285
330
281
100
AcDbEntity
  8
치수문자_일반주서
 62
     0
370
    -2
100
AcDbLine
 10
52.93735145856679
 20
102.5564007607452
 30
0.0
 11
52.93735145856679
 21
137.093884928824
 31
0.0
  0
LINE
  5
286
330
281
100
AcDbEntity
  8
치수문자_일반주서
 62
     0
370
    -2
100
AcDbLine
 10
-26.76064854143322
 20
137.093884928824
 30
0.0
 11
49.6353514585668
 21
137.093884928824
 31
0.0
  0
SOLID
  5
287
330
281
100
AcDbEntity
  8
치수문자_일반주서
 62
     0
100
AcDbTrace
 10
-26.76064854143322
 20
137.6442182621573
 30
0.0
 11
-26.76064854143322
 21
136.5435515954907
 31
0.0
 12
-30.06264854143322
 22
137.093884928824
 32
0.0
 13
-30.06264854143322
 23
137.093884928824
 33
0.0
  0
SOLID
  5
288
330
281
100
AcDbEntity
  8
치수문자_일반주서
 62
     0
100
AcDbTrace
 10
49.6353514585668
 20
136.5435515954907
 30
0.0
 11
49.6353514585668
 21
137.6442182621573
 31
0.0
 12
52.93735145856679
 22
137.093884928824
 32
0.0
 13
52.93735145856679
 23
137.093884928824
 33
0.0
  0
MTEXT
  5
289
330
281
100
AcDbEntity
  8
치수문자_일반주서
 62
     0
100
AcDbMText
 10
11.43735145856679
 20
141.468884928824
 30
0.0
 40
3.5
 41
0.0
 71
     2
 72
     1
  1
\A1;83 [3.27]
  7
SLDTEXTSTYLE0
 73
     1
 44
1.0
  0
POINT
  5
28A
330
281
100
AcDbEntity
  8
Defpoints
 62
     0
100
AcDbPoint
 10
-30.06264854143322
 20
101.9314007607452
 30
0.0
  0
POINT
  5
28B
330
281
100
AcDbEntity
  8
Defpoints
 62
     0
100
AcDbPoint
 10
52.93735145856679
 20
102.4939007607452
 30
0.0
  0
POINT
  5
28C
330
281
100
AcDbEntity
  8
Defpoints
 62
     0
100
AcDbPoint
 10
52.93735145856679
 20
137.093884928824
 30
0.0
  0
ENDBLK
  5
283
330
281
100
AcDbEntity
  8
0
100
AcDbBlockEnd
  0
BLOCK
  5
28E
330
28D
100
AcDbEntity
  8
0
100
AcDbBlockBegin
  2
*D13
 70
     1
 10
0.0
 20
0.0
 30
0.0
  3
*D13
  1
*D14
  0
LINE
  5
290
330
28D
100
AcDbEntity
  8
치수문자_일반주서
 62
     0
370
    -2
100
AcDbLine
 10
26.93739332279556
 20
94.83035327696038
 30
0.0
 11
26.93739332279556
 21
128.1108803500072
 31
0.0
  0
LINE
  5
291
330
28D
100
AcDbEntity
  8
치수문자_일반주서
 62
     0
370
    -2
100
AcDbLine
 10
52.93735145856679
 20
102.4939007607452
 30
0.0
 11
52.93735145856679
 21
128.1108803500072
 31
0.0
  0
LINE
  5
292
330
28D
100
AcDbEntity
  8
치수문자_일반주서
 62
     0
370
    -2
100
AcDbLine
 10
30.23939332279556
 20
128.1108803500072
 30
0.0
 11
49.6353514585668
 21
128.1108803500072
 31
0.0
  0
SOLID
  5
293
330
28D
100
AcDbEntity
  8
치수문자_일반주서
 62
     0
100
AcDbTrace
 10
30.23939332279556
 20
128.6612136833405
 30
0.0
 11
30.23939332279556
 21
127.5605470166739
 31
0.0
 12
26.93739332279556
 22
128.1108803500072
 32
0.0
 13
26.93739332279556
 23
128.1108803500072
 33
0.0
  0
SOLID
  5
294
330
28D
100
AcDbEntity
  8
치수문자_일반주서
 62
     0
100
AcDbTrace
 10
49.6353514585668
 20
127.5605470166739
 30
0.0
 11
49.6353514585668
 21
128.6612136833405
 31
0.0
 12
52.93735145856679
 22
128.1108803500072
 32
0.0
 13
52.93735145856679
 23
128.1108803500072
 33
0.0
  0
MTEXT
  5
295
330
28D
100
AcDbEntity
  8
치수문자_일반주서
 62
     0
100
AcDbMText
 10
39.98394718549882
 20
132.4858803500072
 30
0.0
 40
3.5
 41
0.0
 71
     2
 72
     1
  1
\A1;26 [1.02]
  7
SLDTEXTSTYLE0
 73
     1
 44
1.0
  0
POINT
  5
296
330
28D
100
AcDbEntity
  8
Defpoints
 62
     0
100
AcDbPoint
 10
26.93739332279556
 20
94.76785327696038
 30
0.0
  0
POINT
  5
297
330
28D
100
AcDbEntity
  8
Defpoints
 62
     0
100
AcDbPoint
 10
52.93735145856679
 20
102.4314007607452
 30
0.0
  0
POINT
  5
298
330
28D
100
AcDbEntity
  8
Defpoints
 62
     0
100
AcDbPoint
 10
52.93735145856679
 20
128.1108803500072
 30
0.0
  0
ENDBLK
  5
28F
330
28D
100
AcDbEntity
  8
0
100
AcDbBlockEnd
  0
BLOCK
  5
29A
330
299
100
AcDbEntity
  8
0
100
AcDbBlockBegin
  2
*D14
 70
     1
 10
0.0
 20
0.0
 30
0.0
  3
*D14
  1
*D15
  0
LINE
  5
29C
330
299
100
AcDbEntity
  8
치수문자_일반주서
 62
     0
370
    -2
100
AcDbLine
 10
-29.62514854143321
 20
102.4314007607452
 30
0.0
 11
-45.06264854143328
 21
102.4314007607452
 31
0.0
  0
LINE
  5
29D
330
299
100
AcDbEntity
  8
치수문자_일반주서
 62
     0
370
    -2
100
AcDbLine
 10
-29.62514854143321
 20
88.43140076074525
 30
0.0
 11
-45.06264854143323
 21
88.43140076074519
 31
0.0
  0
LINE
  5
29E
330
299
100
AcDbEntity
  8
치수문자_일반주서
 62
     0
370
    -2
100
AcDbLine
 10
-45.06264854143328
 20
102.4314007607452
 30
0.0
 11
-45.06264854143323
 21
88.43140076074519
 31
0.0
  0
LINE
  5
29F
330
299
100
AcDbEntity
  8
치수문자_일반주서
 62
     0
370
    -2
100
AcDbLine
 10
-45.06264854143329
 20
105.7334007607452
 30
0.0
 11
-45.0626485414333
 21
109.0354007607452
 31
0.0
  0
LINE
  5
2A0
330
299
100
AcDbEntity
  8
치수문자_일반주서
 62
     0
370
    -2
100
AcDbLine
 10
-45.06264854143321
 20
85.1294007607452
 30
0.0
 11
-45.0626485414332
 21
81.8274007607452
 31
0.0
  0
SOLID
  5
2A1
330
299
100
AcDbEntity
  8
치수문자_일반주서
 62
     0
100
AcDbTrace
 10
-45.61298187476662
 20
105.7334007607452
 30
0.0
 11
-44.51231520809996
 21
105.7334007607452
 31
0.0
 12
-45.06264854143328
 22
102.4314007607452
 32
0.0
 13
-45.06264854143328
 23
102.4314007607452
 33
0.0
  0
SOLID
  5
2A2
330
299
100
AcDbEntity
  8
치수문자_일반주서
 62
     0
100
AcDbTrace
 10
-44.51231520809988
 20
85.1294007607452
 30
0.0
 11
-45.61298187476655
 21
85.1294007607452
 31
0.0
 12
-45.06264854143323
 22
88.43140076074519
 32
0.0
 13
-45.06264854143323
 23
88.43140076074519
 33
0.0
  0
MTEXT
  5
2A3
330
299
100
AcDbEntity
  8
치수문자_일반주서
 62
     0
100
AcDbMText
 10
-49.43764854143325
 20
95.43140076074523
 30
0.0
 40
3.5
 41
0.0
 71
     2
 72
     1
  1
\A1;%%c14 [0.55]
  7
SLDTEXTSTYLE0
 11
-3.552713678800501E-15
 21
1.0
 31
0.0
 73
     1
 44
1.0
  0
POINT
  5
2A4
330
299
100
AcDbEntity
  8
Defpoints
 62
     0
100
AcDbPoint
 10
-29.56264854143321
 20
102.4314007607452
 30
0.0
  0
POINT
  5
2A5
330
299
100
AcDbEntity
  8
Defpoints
 62
     0
100
AcDbPoint
 10
-29.56264854143321
 20
88.43140076074525
 30
0.0
  0
POINT
  5
2A6
330
299
100
AcDbEntity
  8
Defpoints
 62
     0
100
AcDbPoint
 10
-45.06264854143323
 20
88.43140076074519
 30
0.0
  0
ENDBLK
  5
29B
330
299
100
AcDbEntity
  8
0
100
AcDbBlockEnd
  0
BLOCK
  5
2A8
330
2A7
100
AcDbEntity
  8
0
100
AcDbBlockBegin
  2
*D15
 70
     1
 10
0.0
 20
0.0
 30
0.0
  3
*D15
  1
*D16
  0
LINE
  5
2AA
330
2A7
100
AcDbEntity
  8
치수문자_일반주서
 62
     0
370
    -2
100
AcDbLine
 10
52.99985145856681
 20
102.4314007607452
 30
0.0
 11
67.93735145856681
 21
102.4314007607453
 31
0.0
  0
LINE
  5
2AB
330
2A7
100
AcDbEntity
  8
치수문자_일반주서
 62
     0
370
    -2
100
AcDbLine
 10
52.99985145856679
 20
88.43140076074525
 30
0.0
 11
67.93735145856685
 21
88.4314007607453
 31
0.0
  0
LINE
  5
2AC
330
2A7
100
AcDbEntity
  8
치수문자_일반주서
 62
     0
370
    -2
100
AcDbLine
 10
67.93735145856681
 20
102.4314007607453
 30
0.0
 11
67.93735145856685
 21
88.4314007607453
 31
0.0
  0
LINE
  5
2AD
330
2A7
100
AcDbEntity
  8
치수문자_일반주서
 62
     0
370
    -2
100
AcDbLine
 10
67.9373514585668
 20
105.7334007607453
 30
0.0
 11
67.93735145856678
 21
109.0354007607453
 31
0.0
  0
LINE
  5
2AE
330
2A7
100
AcDbEntity
  8
치수문자_일반주서
 62
     0
370
    -2
100
AcDbLine
 10
67.93735145856687
 20
85.12940076074531
 30
0.0
 11
67.93735145856688
 21
81.82740076074532
 31
0.0
  0
SOLID
  5
2AF
330
2A7
100
AcDbEntity
  8
치수문자_일반주서
 62
     0
100
AcDbTrace
 10
67.38701812523347
 20
105.7334007607453
 30
0.0
 11
68.48768479190012
 21
105.7334007607453
 31
0.0
 12
67.93735145856681
 22
102.4314007607453
 32
0.0
 13
67.93735145856681
 23
102.4314007607453
 33
0.0
  0
SOLID
  5
2B0
330
2A7
100
AcDbEntity
  8
치수문자_일반주서
 62
     0
100
AcDbTrace
 10
68.4876847919002
 20
85.12940076074531
 30
0.0
 11
67.38701812523354
 21
85.12940076074531
 31
0.0
 12
67.93735145856685
 22
88.4314007607453
 32
0.0
 13
67.93735145856685
 23
88.4314007607453
 33
0.0
  0
MTEXT
  5
2B1
330
2A7
100
AcDbEntity
  8
치수문자_일반주서
 62
     0
100
AcDbMText
 10
63.56235145856682
 20
95.49710514245828
 30
0.0
 40
3.5
 41
0.0
 71
     2
 72
     1
  1
\A1;%%c14 [0.55]
  7
SLDTEXTSTYLE0
 11
-3.045183153257572E-15
 21
1.0
 31
0.0
 73
     1
 44
1.0
  0
POINT
  5
2B2
330
2A7
100
AcDbEntity
  8
Defpoints
 62
     0
100
AcDbPoint
 10
52.93735145856681
 20
102.4314007607452
 30
0.0
  0
POINT
  5
2B3
330
2A7
100
AcDbEntity
  8
Defpoints
 62
     0
100
AcDbPoint
 10
52.93735145856679
 20
88.43140076074525
 30
0.0
  0
POINT
  5
2B4
330
2A7
100
AcDbEntity
  8
Defpoints
 62
     0
100
AcDbPoint
 10
67.93735145856685
 20
88.4314007607453
 30
0.0
  0
ENDBLK
  5
2A9
330
2A7
100
AcDbEntity
  8
0
100
AcDbBlockEnd
  0
BLOCK
  5
2B6
330
2B5
100
AcDbEntity
  8
0
100
AcDbBlockBegin
  2
*D16
 70
     1
 10
0.0
 20
0.0
 30
0.0
  3
*D16
  1
*D17
  0
LINE
  5
2B8
330
2B5
100
AcDbEntity
  8
치수문자_일반주서
 62
     0
370
    -2
100
AcDbLine
 10
54.42812664023624
 20
85.69226226786647
 30
0.0
 11
70.75447950876209
 21
59.12807837020709
 31
0.0
  0
MTEXT
  5
2B9
330
2B5
100
AcDbEntity
  8
치수문자_일반주서
 62
     0
100
AcDbMText
 10
66.23298985999442
 20
71.49812466836568
 30
0.0
 40
3.5
 41
0.0
 71
     5
 72
     1
  1
\A1;R.50 [R0.02]
  7
SLDTEXTSTYLE0
 11
0.5236126201129557
 21
-0.8519564684057781
 31
0.0
 73
     1
 44
1.0
  0
SOLID
  5
2BA
330
2B5
100
AcDbEntity
  8
치수문자_일반주서
 62
     0
100
AcDbTrace
 10
54.89698668334889
 20
85.98042374646863
 30
0.0
 11
53.95926659712359
 21
85.4041007892643
 31
0.0
 12
52.69915776862327
 22
88.50542252654235
 32
0.0
 13
52.69915776862327
 23
88.50542252654235
 33
0.0
  0
LINE
  5
2BB
330
2B5
100
AcDbEntity
  8
치수문자_일반주서
 62
     0
100
AcDbLine
 10
52.34735145856678
 20
88.93140076074525
 30
0.0
 11
52.52735145856678
 21
88.93140076074525
 31
0.0
  0
LINE
  5
2BC
330
2B5
100
AcDbEntity
  8
치수문자_일반주서
 62
     0
100
AcDbLine
 10
52.43735145856678
 20
88.84140076074524
 30
0.0
 11
52.43735145856678
 21
89.02140076074525
 31
0.0
  0
POINT
  5
2BD
330
2B5
100
AcDbEntity
  8
Defpoints
 62
     0
100
AcDbPoint
 10
52.69915776862327
 20
88.50542252654235
 30
0.0
  0
POINT
  5
2BE
330
2B5
100
AcDbEntity
  8
Defpoints
 62
     0
100
AcDbPoint
 10
52.43735145856678
 20
88.93140076074525
 30
0.0
  0
ENDBLK
  5
2B7
330
2B5
100
AcDbEntity
  8
0
100
AcDbBlockEnd
  0
BLOCK
  5
2EB
330
2EA
100
AcDbEntity
  8
0
100
AcDbBlockBegin
  2
*D17
 70
     1
 10
0.0
 20
0.0
 30
0.0
  3
*D17
  1
*D18
  0
LINE
  5
2ED
330
2EA
100
AcDbEntity
  8
치수문자_일반주서
 62
     0
370
    -2
100
AcDbLine
 10
192.3427820533769
 20
4.366699928723925
 30
0.0
 11
204.2908567754267
 21
4.366699928723971
 31
0.0
  0
LINE
  5
2EE
330
2EA
100
AcDbEntity
  8
치수문자_일반주서
 62
     0
370
    -2
100
AcDbLine
 10
192.3427820533769
 20
-4.36455007127608
 30
0.0
 11
204.2908567754268
 21
-4.364550071276032
 31
0.0
  0
LINE
  5
2EF
330
2EA
100
AcDbEntity
  8
치수문자_일반주서
 62
     0
370
    -2
100
AcDbLine
 10
204.2908567754267
 20
4.366699928723971
 30
0.0
 11
204.2908567754266
 21
34.35619992872397
 31
0.0
  0
LINE
  5
2F0
330
2EA
100
AcDbEntity
  8
치수문자_일반주서
 62
     0
370
    -2
100
AcDbLine
 10
204.2908567754267
 20
1.064699928723972
 30
0.0
 11
204.2908567754268
 21
-1.062550071276032
 31
0.0
  0
SOLID
  5
2F1
330
2EA
100
AcDbEntity
  8
치수문자_일반주서
 62
     0
100
AcDbTrace
 10
204.8411901087601
 20
1.064699928723973
 30
0.0
 11
203.7405234420934
 21
1.06469992872397
 31
0.0
 12
204.2908567754267
 22
4.366699928723971
 32
0.0
 13
204.2908567754267
 23
4.366699928723971
 33
0.0
  0
SOLID
  5
2F2
330
2EA
100
AcDbEntity
  8
치수문자_일반주서
 62
     0
100
AcDbTrace
 10
203.7405234420934
 20
-1.062550071276034
 30
0.0
 11
204.8411901087601
 21
-1.06255007127603
 31
0.0
 12
204.2908567754268
 22
-4.364550071276032
 32
0.0
 13
204.2908567754268
 23
-4.364550071276032
 33
0.0
  0
MTEXT
  5
2F3
330
2EA
100
AcDbEntity
  8
치수문자_일반주서
 62
     0
100
AcDbMText
 10
199.9158567754267
 20
21.01244992872396
 30
0.0
 40
3.5
 41
0.0
 71
     2
 72
     1
  1
\A1;%%c8.73 [0.34]
  7
SLDTEXTSTYLE0
 11
-3.255170729323292E-15
 21
1.0
 31
0.0
 73
     1
 44
1.0
  0
POINT
  5
2F4
330
2EA
100
AcDbEntity
  8
Defpoints
 62
     0
100
AcDbPoint
 10
192.2802820533769
 20
4.366699928723925
 30
0.0
  0
POINT
  5
2F5
330
2EA
100
AcDbEntity
  8
Defpoints
 62
     0
100
AcDbPoint
 10
192.2802820533769
 20
-4.36455007127608
 30
0.0
  0
POINT
  5
2F6
330
2EA
100
AcDbEntity
  8
Defpoints
 62
     0
100
AcDbPoint
 10
204.2908567754268
 20
-4.364550071276034
 30
0.0
  0
ENDBLK
  5
2EC
330
2EA
100
AcDbEntity
  8
0
100
AcDbBlockEnd
  0
BLOCK
  5
2F8
330
2F7
100
AcDbEntity
  8
0
100
AcDbBlockBegin
  2
*D18
 70
     1
 10
0.0
 20
0.0
 30
0.0
  3
*D18
  1
*D19
  0
LINE
  5
2FA
330
2F7
100
AcDbEntity
  8
치수문자_일반주서
 62
     0
370
    -2
100
AcDbLine
 10
192.2802820533769
 20
4.413145742364733
 30
0.0
 11
192.2802820533769
 21
26.61389798496913
 31
0.0
  0
LINE
  5
2FB
330
2F7
100
AcDbEntity
  8
치수문자_일반주서
 62
     0
370
    -2
100
AcDbLine
 10
173.2302820533769
 20
4.355194441883849
 30
0.0
 11
173.2302820533769
 21
26.61389798496913
 31
0.0
  0
LINE
  5
2FC
330
2F7
100
AcDbEntity
  8
치수문자_일반주서
 62
     0
370
    -2
100
AcDbLine
 10
173.2302820533769
 20
26.61389798496913
 30
0.0
 11
143.5923444713637
 21
26.61389798496913
 31
0.0
  0
LINE
  5
2FD
330
2F7
100
AcDbEntity
  8
치수문자_일반주서
 62
     0
370
    -2
100
AcDbLine
 10
188.9782820533769
 20
26.61389798496913
 30
0.0
 11
176.5322820533769
 21
26.61389798496913
 31
0.0
  0
SOLID
  5
2FE
330
2F7
100
AcDbEntity
  8
치수문자_일반주서
 62
     0
100
AcDbTrace
 10
188.9782820533769
 20
26.06356465163579
 30
0.0
 11
188.9782820533769
 21
27.16423131830246
 31
0.0
 12
192.2802820533769
 22
26.61389798496913
 32
0.0
 13
192.2802820533769
 23
26.61389798496913
 33
0.0
  0
SOLID
  5
2FF
330
2F7
100
AcDbEntity
  8
치수문자_일반주서
 62
     0
100
AcDbTrace
 10
176.5322820533769
 20
27.16423131830246
 30
0.0
 11
176.5322820533769
 21
26.06356465163579
 31
0.0
 12
173.2302820533769
 22
26.61389798496913
 32
0.0
 13
173.2302820533769
 23
26.61389798496913
 33
0.0
  0
MTEXT
  5
300
330
2F7
100
AcDbEntity
  8
치수문자_일반주서
 62
     0
100
AcDbMText
 10
156.2798444713637
 20
30.98889798496913
 30
0.0
 40
3.5
 41
0.0
 71
     2
 72
     1
  1
\A1;19.05 [0.75]
  7
SLDTEXTSTYLE0
 73
     1
 44
1.0
  0
POINT
  5
301
330
2F7
100
AcDbEntity
  8
Defpoints
 62
     0
100
AcDbPoint
 10
192.2802820533769
 20
4.350645742364733
 30
0.0
  0
POINT
  5
302
330
2F7
100
AcDbEntity
  8
Defpoints
 62
     0
100
AcDbPoint
 10
173.2302820533769
 20
4.292694441883849
 30
0.0
  0
POINT
  5
303
330
2F7
100
AcDbEntity
  8
Defpoints
 62
     0
100
AcDbPoint
 10
173.2302820533769
 20
26.61389798496913
 30
0.0
  0
ENDBLK
  5
2F9
330
2F7
100
AcDbEntity
  8
0
100
AcDbBlockEnd
  0
BLOCK
  5
305
330
304
100
AcDbEntity
  8
0
100
AcDbBlockBegin
  2
*D19
 70
     1
 10
0.0
 20
0.0
 30
0.0
  3
*D19
  1
*D20
  0
LINE
  5
307
330
304
100
AcDbEntity
  8
치수문자_일반주서
 62
     0
370
    -2
100
AcDbLine
 10
192.2802820533769
 20
4.413145742364733
 30
0.0
 11
192.2802820533769
 21
51.94106468533914
 31
0.0
  0
LINE
  5
308
330
304
100
AcDbEntity
  8
치수문자_일반주서
 62
     0
370
    -2
100
AcDbLine
 10
103.3802820533769
 20
3.873574928723895
 30
0.0
 11
103.3802820533769
 21
51.94106468533914
 31
0.0
  0
LINE
  5
309
330
304
100
AcDbEntity
  8
치수문자_일반주서
 62
     0
370
    -2
100
AcDbLine
 10
188.9782820533769
 20
51.94106468533914
 30
0.0
 11
106.6822820533769
 21
51.94106468533914
 31
0.0
  0
SOLID
  5
30A
330
304
100
AcDbEntity
  8
치수문자_일반주서
 62
     0
100
AcDbTrace
 10
188.9782820533769
 20
51.39073135200581
 30
0.0
 11
188.9782820533769
 21
52.49139801867248
 31
0.0
 12
192.2802820533769
 22
51.94106468533914
 32
0.0
 13
192.2802820533769
 23
51.94106468533914
 33
0.0
  0
SOLID
  5
30B
330
304
100
AcDbEntity
  8
치수문자_일반주서
 62
     0
100
AcDbTrace
 10
106.6822820533769
 20
52.49139801867248
 30
0.0
 11
106.6822820533769
 21
51.39073135200581
 31
0.0
 12
103.3802820533769
 22
51.94106468533914
 32
0.0
 13
103.3802820533769
 23
51.94106468533914
 33
0.0
  0
MTEXT
  5
30C
330
304
100
AcDbEntity
  8
치수문자_일반주서
 62
     0
100
AcDbMText
 10
145.5620028527441
 20
56.31606468533914
 30
0.0
 40
3.5
 41
0.0
 71
     2
 72
     1
  1
\A1;88.9 [3.50]
  7
SLDTEXTSTYLE0
 73
     1
 44
1.0
  0
POINT
  5
30D
330
304
100
AcDbEntity
  8
Defpoints
 62
     0
100
AcDbPoint
 10
192.2802820533769
 20
4.350645742364733
 30
0.0
  0
POINT
  5
30E
330
304
100
AcDbEntity
  8
Defpoints
 62
     0
100
AcDbPoint
 10
103.3802820533769
 20
3.811074928723895
 30
0.0
  0
POINT
  5
30F
330
304
100
AcDbEntity
  8
Defpoints
 62
     0
100
AcDbPoint
 10
103.3802820533769
 20
51.94106468533914
 30
0.0
  0
ENDBLK
  5
306
330
304
100
AcDbEntity
  8
0
100
AcDbBlockEnd
  0
ENDSEC
  0
SECTION
  2
ENTITIES
  0
LINE
  5
96
330
1F
100
AcDbEntity
  8
외형선
  6
Continuous
370
    15
100
AcDbLine
 10
26.27682080853404
 20
-1.291934220011858
 30
0.0
 11
26.30854544147208
 21
-1.3095338208156
 31
0.0
  0
LINE
  5
97
330
1F
100
AcDbEntity
  8
0
  6
Continuous
 62
     1
370
    15
100
AcDbLine
 10
35.88308509852403
 20
4.365625
 30
0.0
 11
33.22080453561129
 21
4.365625
 31
0.0
  0
LINE
  5
98
330
1F
100
AcDbEntity
  8
0
  6
Continuous
 62
     1
370
    15
100
AcDbLine
 10
33.22080453561125
 20
-4.365625000000003
 30
0.0
 11
35.88308509852402
 21
-4.365625000000003
 31
0.0
  0
LINE
  5
99
330
1F
100
AcDbEntity
  8
외형선
  6
Continuous
370
    15
100
AcDbLine
 10
22.91884233574608
 20
-4.76250000000001
 30
0.0
 11
24.40000000000001
 21
-4.365625000000001
 31
0.0
  0
LINE
  5
9A
330
1F
100
AcDbEntity
  8
외형선
  6
Continuous
370
    15
100
AcDbLine
 10
24.40000000000001
 20
4.365624999999998
 30
0.0
 11
22.91884233574608
 21
4.762500000000006
 31
0.0
  0
LINE
  5
9B
330
1F
100
AcDbEntity
  8
외형선
  6
Continuous
370
    15
100
AcDbLine
 10
-22.91884233574607
 20
-4.762500000000006
 30
0.0
 11
22.91884233574608
 21
-4.762500000000006
 31
0.0
  0
LINE
  5
9C
330
1F
100
AcDbEntity
  8
외형선
  6
Continuous
370
    15
100
AcDbLine
 10
22.91884233574608
 20
4.762500000000002
 30
0.0
 11
4.838700000000088
 21
4.762500000000002
 31
0.0
  0
LINE
  5
9F
330
1F
100
AcDbEntity
  8
외형선
  6
Continuous
370
    15
100
AcDbLine
 10
24.40000000000001
 20
-4.365625000000001
 30
0.0
 11
24.89984966415628
 21
-4.365625000000001
 31
0.0
  0
LINE
  5
A0
330
1F
100
AcDbEntity
  8
외형선
  6
Continuous
370
    15
100
AcDbLine
 10
24.89984966415628
 20
4.365624999999998
 30
0.0
 11
24.40000000000001
 21
4.365624999999998
 31
0.0
  0
LINE
  5
A1
330
1F
100
AcDbEntity
  8
0
  6
Continuous
 62
     1
370
    15
100
AcDbLine
 10
44.45000000000001
 20
-3.953865140344617
 30
0.0
 11
44.45000000000001
 21
0.3740526403446666
 31
0.0
  0
SPLINE
  5
A2
330
1F
100
AcDbEntity
  8
0
  6
Continuous
 62
     1
370
    15
100
AcDbSpline
210
0.0
220
0.0
230
1.0
 70
     8
 71
     3
 72
    46
 73
    42
 74
     0
 42
0.000000001
 43
0.00000001
 40
0.0
 40
0.0
 40
0.0
 40
0.0
 40
0.0624999999999997
 40
0.0624999999999997
 40
0.1249999999999994
 40
0.1249999999999994
 40
0.1874999999999992
 40
0.1874999999999992
 40
0.2499999999999989
 40
0.2499999999999989
 40
0.3124999999999986
 40
0.3124999999999986
 40
0.3749999999999983
 40
0.3749999999999983
 40
0.4374999999999981
 40
0.4374999999999981
 40
0.4999999999999978
 40
0.4999999999999978
 40
0.5624999999999976
 40
0.5624999999999976
 40
0.5937499999999973
 40
0.5937499999999973
 40
0.6249999999999972
 40
0.6249999999999972
 40
0.6562499999999971
 40
0.6562499999999971
 40
0.6874999999999969
 40
0.6874999999999969
 40
0.7499999999999982
 40
0.7499999999999982
 40
0.7812499999999989
 40
0.7812499999999989
 40
0.8124999999999994
 40
0.8124999999999994
 40
0.8437500000000001
 40
0.8437500000000001
 40
0.8750000000000008
 40
0.8750000000000008
 40
0.9375000000000003
 40
0.9375000000000003
 40
1.0
 40
1.0
 40
1.0
 40
1.0
 10
44.45000000000002
 20
-3.953865140344617
 30
0.0
 10
44.05600858005861
 20
-3.856954633340871
 30
0.0
 10
43.6563601374386
 20
-3.743221682616339
 30
0.0
 10
42.86048882182327
 20
-3.486003234859259
 30
0.0
 10
42.46746086320366
 20
-3.343008068975304
 30
0.0
 10
41.67214005208201
 20
-3.029519517632589
 30
0.0
 10
41.2722483210519
 20
-2.859222179027954
 30
0.0
 10
40.48277136892402
 20
-2.497994799963249
 30
0.0
 10
40.08483888846867
 20
-2.305824604375387
 30
0.0
 10
39.28855975226764
 20
-1.903903667902903
 30
0.0
 10
38.89527462441771
 20
-1.695069760219777
 30
0.0
 10
38.10064667250371
 20
-1.263747053925579
 30
0.0
 10
37.70058415926437
 20
-1.041439803446055
 30
0.0
 10
36.9097519722282
 20
-0.5918005327107525
 30
0.0
 10
36.51328120613802
 20
-0.3634084752473756
 30
0.0
 10
35.71673717730971
 20
0.095191812591773
 30
0.0
 10
35.32293786448768
 20
0.3241853976935039
 30
0.0
 10
34.52914471257113
 20
0.7788021857602428
 30
0.0
 10
34.12898402724078
 20
1.004433505781309
 30
0.0
 10
33.53494822151114
 20
1.334116856355989
 30
0.0
 10
33.33837783256813
 20
1.442486097891116
 30
0.0
 10
32.94171649431014
 20
1.656667316735252
 30
0.0
 10
32.74250565860875
 20
1.762313407291647
 30
0.0
 10
32.34417274116053
 20
1.969719860975222
 30
0.0
 10
32.1450525758343
 20
2.071479229837407
 30
0.0
 10
31.74875112149857
 20
2.270186258869241
 30
0.0
 10
31.55223184836863
 20
2.367034078568617
 30
0.0
 10
30.95761916641963
 20
2.650781971319136
 30
0.0
 10
30.55743297887713
 20
2.830315295952639
 30
0.0
 10
29.96259081010538
 20
3.080179469988042
 30
0.0
 10
29.76604980699639
 20
3.160139353359438
 30
0.0
 10
29.36991184425266
 20
3.31379469016658
 30
0.0
 10
29.17083555934192
 20
3.387407316178942
 30
0.0
 10
28.77251331861473
 20
3.527480802944833
 30
0.0
 10
28.57326927886016
 20
3.593940977427609
 30
0.0
 10
28.17646547254494
 20
3.719118486989134
 30
0.0
 10
27.97982989688944
 20
3.777755377233076
 30
0.0
 10
27.38605504262594
 20
3.942198944519981
 30
0.0
 10
26.98591603827711
 20
4.03631242483103
 30
0.0
 10
26.1918590390229
 20
4.189929765333686
 30
0.0
 10
25.79823999064589
 20
4.249559144713452
 30
0.0
 10
25.4
 20
4.291619513159953
 30
0.0
  0
SPLINE
  5
A3
330
1F
100
AcDbEntity
  8
0
  6
Continuous
 62
     1
370
    15
100
AcDbSpline
210
0.0
220
0.0
230
1.0
 70
     8
 71
     3
 72
    18
 73
    14
 74
     0
 42
0.000000001
 43
0.00000001
 40
0.0
 40
0.0
 40
0.0
 40
0.0
 40
0.0962958199025682
 40
0.1925141271023936
 40
0.2886932854436786
 40
0.38487195518191
 40
0.4810888002772291
 40
0.5773821956290712
 40
0.6736803906613763
 40
0.779526864089513
 40
0.88535861799185
 40
0.9911803897148894
 40
1.0
 40
1.0
 40
1.0
 40
1.0
 10
44.45000000000002
 20
0.3740526403446665
 30
0.0
 10
43.94155642667943
 20
0.6648527037698855
 30
0.0
 10
42.92507854843221
 20
1.246218752973997
 30
0.0
 10
41.40111560387143
 20
2.064094399149225
 30
0.0
 10
39.87787140653185
 20
2.799309214416061
 30
0.0
 10
38.35463569627003
 20
3.42094370465261
 30
0.0
 10
36.83070284248751
 20
3.904170650964866
 30
0.0
 10
35.30578841072511
 20
4.229488490015378
 30
0.0
 10
33.73007454888047
 20
4.387625213564936
 30
0.0
 10
32.10409437063185
 20
4.356690821399371
 30
0.0
 10
30.42787058987068
 20
4.093557683305199
 30
0.0
 10
29.26391583215859
 20
3.817979445690902
 30
0.0
 10
28.65869013729926
 20
3.590635968621528
 30
0.0
 10
28.61212881127813
 20
3.57314594160431
 30
0.0
  0
SPLINE
  5
A4
330
1F
100
AcDbEntity
  8
0
  6
Continuous
 62
     1
370
    15
100
AcDbSpline
210
0.0
220
0.0
230
1.0
 70
     8
 71
     3
 72
    17
 73
    13
 74
     0
 42
0.000000001
 43
0.00000001
 40
0.0
 40
0.0
 40
0.0
 40
0.0
 40
0.1009670364432209
 40
0.2019564362592407
 40
0.3030086569843972
 40
0.4041286501760728
 40
0.5051747063365664
 40
0.6061609926501738
 40
0.7071279902348554
 40
0.8182231562499617
 40
0.9293285995359848
 40
1.0
 40
1.0
 40
1.0
 40
1.0
 10
25.40000000000004
 20
-0.8004271327796318
 30
0.0
 10
25.90765053504689
 20
-1.085552928331267
 30
0.0
 10
26.92306404558219
 20
-1.655867672466308
 30
0.0
 10
28.44661258149227
 20
-2.435740406281002
 30
0.0
 10
29.97111090671963
 20
-3.119407981616336
 30
0.0
 10
31.49625239114361
 20
-3.675839659436496
 30
0.0
 10
33.02067233822855
 20
-4.084017744204933
 30
0.0
 10
34.54418946490897
 20
-4.326237382145224
 30
0.0
 10
36.118071395396
 20
-4.397321876028295
 30
0.0
 10
37.74329450110201
 20
-4.264332861128439
 30
0.0
 10
39.21606420958678
 20
-3.984278662360951
 30
0.0
 10
40.13022051195038
 20
-3.67921827343282
 30
0.0
 10
40.48562720071367
 20
-3.560616561207615
 30
0.0
  0
SPLINE
  5
A5
330
1F
100
AcDbEntity
  8
외형선
  6
Continuous
370
    15
100
AcDbSpline
210
0.0
220
0.0
230
1.0
 70
    24
 71
     3
 72
    22
 73
    18
 74
     0
 42
0.000000001
 43
0.00000001
 40
0.0
 40
0.0
 40
0.0
 40
0.0
 40
0.0045183889757616
 40
0.0766086063111443
 40
0.150789444832992
 40
0.2228796621683587
 40
0.2970605006901896
 40
0.369150718025558
 40
0.4433315565473903
 40
0.515421773882758
 40
0.5896026124045898
 40
0.6616928297399164
 40
0.7358736682617035
 40
0.8079638855971129
 40
0.8821447241189899
 40
0.9542349414543579
 40
1.0
 40
1.0
 40
1.0
 40
1.0
 10
25.40000000000001
 20
3.752453710328054
 30
0.0
 10
25.4
 20
3.746372135976026
 30
0.0
 10
25.39999999999965
 20
3.64325995643908
 30
0.0
 10
25.40000000000018
 20
3.419394100673451
 30
0.0
 10
25.39999999999994
 20
3.050079198448894
 30
0.0
 10
25.40000000000004
 20
2.641541469452693
 30
0.0
 10
25.4
 20
2.212965741171531
 30
0.0
 10
25.40000000000001
 20
1.768696830683693
 30
0.0
 10
25.4
 20
1.329326511256616
 30
0.0
 10
25.40000000000004
 20
0.8993725107981305
 30
0.0
 10
25.40000000000007
 20
0.498765149546308
 30
0.0
 10
25.40000000000001
 20
0.1315554837490247
 30
0.0
 10
25.39999999999998
 20
-0.1849646945469052
 30
0.0
 10
25.40000000000008
 20
-0.4486129563245309
 30
0.0
 10
25.40000000000001
 20
-0.6431592200983866
 30
0.0
 10
25.39999999999998
 20
-0.7637910168402492
 30
0.0
 10
25.39999999999998
 20
-0.7868583810927001
 30
0.0
 10
25.40000000000001
 20
-0.7958158016885583
 30
0.0
  0
SPLINE
  5
A6
330
1F
100
AcDbEntity
  8
0
  6
Continuous
 62
     1
370
    15
100
AcDbSpline
210
0.0
220
0.0
230
1.0
 70
     8
 71
     3
 72
    46
 73
    42
 74
     0
 42
0.000000001
 43
0.00000001
 40
0.0
 40
0.0
 40
0.0
 40
0.0
 40
0.0624999999999992
 40
0.0624999999999992
 40
0.1249999999999984
 40
0.1249999999999984
 40
0.1874999999999976
 40
0.1874999999999976
 40
0.2499999999999968
 40
0.2499999999999968
 40
0.3124999999999961
 40
0.3124999999999961
 40
0.3749999999999952
 40
0.3749999999999952
 40
0.4374999999999944
 40
0.4374999999999944
 40
0.4999999999999937
 40
0.4999999999999937
 40
0.5624999999999929
 40
0.5624999999999929
 40
0.5937499999999932
 40
0.5937499999999932
 40
0.6249999999999937
 40
0.6249999999999937
 40
0.656249999999994
 40
0.656249999999994
 40
0.6874999999999944
 40
0.6874999999999944
 40
0.7499999999999968
 40
0.7499999999999968
 40
0.7812499999999972
 40
0.7812499999999972
 40
0.8124999999999976
 40
0.8124999999999976
 40
0.843749999999998
 40
0.843749999999998
 40
0.8749999999999983
 40
0.8749999999999983
 40
0.9374999999999991
 40
0.9374999999999991
 40
1.0
 40
1.0
 40
1.0
 40
1.0
 10
44.45000000000002
 20
-4.365624999999975
 30
0.0
 10
44.0560085800586
 20
-4.329985378226385
 30
0.0
 10
43.6563601374386
 20
-4.292308340266871
 30
0.0
 10
42.86048882182328
 20
-4.181811734850323
 30
0.0
 10
42.46746086320364
 20
-4.109307543045777
 30
0.0
 10
41.67214005208199
 20
-3.930446936044716
 30
0.0
 10
41.27224832105187
 20
-3.824116377108002
 30
0.0
 10
40.48277136892398
 20
-3.581819729257813
 30
0.0
 10
40.08483888846867
 20
-3.445041154421776
 30
0.0
 10
39.2885597522676
 20
-3.144034445984328
 30
0.0
 10
38.89527462441771
 20
-2.980539990618838
 30
0.0
 10
38.10064667250374
 20
-2.629234936143682
 30
0.0
 10
37.70058415926438
 20
-2.441512101735323
 30
0.0
 10
36.90975197222821
 20
-2.0489679924962
 30
0.0
 10
36.51328120613802
 20
-1.8432500879636
 30
0.0
 10
35.71673717730977
 20
-1.417632696603497
 30
0.0
 10
35.32293786448769
 20
-1.198884193747662
 30
0.0
 10
34.5291447125711
 20
-0.7521844238971724
 30
0.0
 10
34.12898402724075
 20
-0.5241727510702928
 30
0.0
 10
33.53494822151117
 20
-0.1814973078399664
 30
0.0
 10
33.33837783256815
 20
-0.0672446704839701
 30
0.0
 10
32.94171649431011
 20
0.1618407733398953
 30
0.0
 10
32.74250565860874
 20
0.2765038387472882
 30
0.0
 10
32.34417274116055
 20
0.5050030980205044
 30
0.0
 10
32.14505257583428
 20
0.6188381932781989
 30
0.0
 10
31.74875112149857
 20
0.8446277588376208
 30
0.0
 10
31.55223184836866
 20
0.9564602704169505
 30
0.0
 10
30.95761916641965
 20
1.289605628667672
 30
0.0
 10
30.55743297887713
 20
1.507966459555283
 30
0.0
 10
29.96259081010532
 20
1.823841542679065
 30
0.0
 10
29.76604980699634
 20
1.927056545181298
 30
0.0
 10
29.36991184425264
 20
2.12983433084716
 30
0.0
 10
29.17083555934189
 20
2.229298682600257
 30
0.0
 10
28.77251331861473
 20
2.423429804205385
 30
0.0
 10
28.57326927886013
 20
2.518095631782876
 30
0.0
 10
28.17646547254495
 20
2.701767345528836
 30
0.0
 10
27.97982989688946
 20
2.790642500302429
 30
0.0
 10
27.38605504262596
 20
3.048952851890165
 30
0.0
 10
26.98591603827714
 20
3.209836060319489
 30
0.0
 10
26.1918590390229
 20
3.502927660645778
 30
0.0
 10
25.79823999064589
 20
3.635215601098229
 30
0.0
 10
25.40000000000004
 20
3.752453710328059
 30
0.0
  0
LINE
  5
A7
330
1F
100
AcDbEntity
  8
0
  6
Continuous
 62
     1
370
    15
100
AcDbLine
 10
44.45000000000001
 20
-4.365624999999975
 30
0.0
 11
44.45000000000001
 21
-3.953865140344617
 31
0.0
  0
LINE
  5
A8
330
1F
100
AcDbEntity
  8
외형선
  6
Continuous
370
    15
100
AcDbLine
 10
25.40000000000001
 20
3.752453710328054
 30
0.0
 11
25.4
 21
4.291619513159953
 31
0.0
  0
SPLINE
  5
A9
330
1F
100
AcDbEntity
  8
0
  6
Continuous
 62
     1
370
    15
100
AcDbSpline
210
0.0
220
0.0
230
1.0
 70
     8
 71
     3
 72
    13
 73
     9
 74
     0
 42
0.000000001
 43
0.00000001
 40
0.0
 40
0.0
 40
0.0
 40
0.0
 40
0.0214983504185537
 40
0.2171450157430123
 40
0.4128097800888383
 40
0.6085014037818022
 40
0.8042285963081501
 40
0.9999999999999999
 40
0.9999999999999999
 40
0.9999999999999999
 40
0.9999999999999999
 10
35.88308509852402
 20
4.356226169046777
 30
0.0
 10
35.94446296967941
 20
4.359254336525828
 30
0.0
 10
36.56441280484471
 20
4.389840472769255
 30
0.0
 10
37.74330728686904
 20
4.25653597642166
 30
0.0
 10
39.41947415589814
 20
3.932194052021991
 30
0.0
 10
41.09597661467645
 20
3.394015887440179
 30
0.0
 10
42.77282258779486
 20
2.701340700485221
 30
0.0
 10
43.89089877521763
 20
2.134365787901403
 30
0.0
 10
44.45000000000002
 20
1.85084631792932
 30
0.0
  0
LINE
  5
AA
330
1F
100
AcDbEntity
  8
0
  6
Continuous
 62
     1
370
    15
100
AcDbLine
 10
44.45000000000001
 20
0.3740526403446666
 30
0.0
 11
44.45000000000001
 21
1.85084631792932
 31
0.0
  0
SPLINE
  5
AB
330
1F
100
AcDbEntity
  8
0
  6
Continuous
 62
     1
370
    15
100
AcDbSpline
210
0.0
220
0.0
230
1.0
 70
     8
 71
     3
 72
    12
 73
     8
 74
     0
 42
0.000000001
 43
0.00000001
 40
0.0
 40
0.0
 40
0.0
 40
0.0
 40
0.1427905091782393
 40
0.3571135676035737
 40
0.5714164108182747
 40
0.785708670895877
 40
1.0
 40
1.0
 40
1.0
 40
1.0
 10
33.22080453561125
 20
-4.34179520360187
 30
0.0
 10
32.84854205212449
 20
-4.342023658780908
 30
0.0
 10
31.91752790890173
 20
-4.342595016390697
 30
0.0
 10
30.42787175825389
 20
-4.099916679361376
 30
0.0
 10
28.75183713051818
 20
-3.655014277612191
 30
0.0
 10
27.07590492796817
 20
-3.03081415642082
 30
0.0
 10
25.95863416700723
 20
-2.497665857341222
 30
0.0
 10
25.40000000000004
 20
-2.231092286856408
 30
0.0
  0
LINE
  5
AC
330
1F
100
AcDbEntity
  8
외형선
  6
Continuous
370
    15
100
AcDbLine
 10
25.40000000000001
 20
-2.231092286856403
 30
0.0
 11
25.40000000000003
 21
-0.8004271327796261
 31
0.0
  0
SPLINE
  5
AD
330
1F
100
AcDbEntity
  8
0
  6
Continuous
 62
     1
370
    15
100
AcDbSpline
210
0.0
220
0.0
230
1.0
 70
     8
 71
     3
 72
    10
 73
     6
 74
     0
 42
0.000000001
 43
0.00000001
 40
0.0
 40
0.0
 40
0.0
 40
0.0
 40
0.3846999428720804
 40
0.7690902239919976
 40
1.0
 40
1.0
 40
1.0
 40
1.0
 10
44.45000000000001
 20
4.36562500000003
 30
0.0
 10
43.94155680757834
 20
4.306171993622483
 30
0.0
 10
42.92507969082229
 20
4.219409287187655
 30
0.0
 10
41.60370901688609
 20
3.936134424812511
 30
0.0
 10
40.79072413012921
 20
3.663086117074948
 30
0.0
 10
40.48562720071367
 20
3.560616561207611
 30
0.0
  0
LINE
  5
AE
330
1F
100
AcDbEntity
  8
0
  6
Continuous
 62
     1
370
    15
100
AcDbLine
 10
44.45000000000001
 20
1.836638434010185
 30
0.0
 11
44.44999999999998
 21
4.365625000000029
 31
0.0
  0
SPLINE
  5
AF
330
1F
100
AcDbEntity
  8
0
  6
Continuous
 62
     1
370
    15
100
AcDbSpline
210
0.0
220
0.0
230
1.0
 70
     8
 71
     3
 72
    10
 73
     6
 74
     0
 42
0.000000001
 43
0.00000001
 40
0.0
 40
0.0
 40
0.0
 40
0.0
 40
0.4741423340671124
 40
0.9483896867833643
 40
0.9999999999999999
 40
0.9999999999999999
 40
0.9999999999999999
 40
0.9999999999999999
 10
25.4
 20
-4.291619513159951
 30
0.0
 10
25.90765533231148
 20
-4.218421701568482
 30
0.0
 10
26.92307843843859
 20
-4.072009865668936
 30
0.0
 10
27.99373852008519
 20
-3.801860748782483
 30
0.0
 10
28.55686112930962
 20
-3.593586976019991
 30
0.0
 10
28.61212881127806
 20
-3.573145941604313
 30
0.0
  0
SPLINE
  5
B0
330
1F
100
AcDbEntity
  8
외형선
  6
Continuous
370
    15
100
AcDbSpline
210
0.0
220
0.0
230
1.0
 70
    24
 71
     3
 72
    12
 73
     8
 74
     0
 42
0.000000001
 43
0.00000001
 40
0.0
 40
0.0
 40
0.0
 40
0.0
 40
0.1844164650120503
 40
0.3930945823180708
 40
0.5958915731513557
 40
0.8045696904572477
 40
1.0
 40
1.0
 40
1.0
 40
1.0
 10
25.40000000000001
 20
-2.292469099869487
 30
0.0
 10
25.40000000000004
 20
-2.396461685980039
 30
0.0
 10
25.40000000000008
 20
-2.618128022544036
 30
0.0
 10
25.39999999999997
 20
-3.004532114278808
 30
0.0
 10
25.40000000000001
 20
-3.429832052677114
 30
0.0
 10
25.40000000000007
 20
-3.863242396736394
 30
0.0
 10
25.40000000000003
 20
-4.151982376504559
 30
0.0
 10
25.40000000000001
 20
-4.291619513159953
 30
0.0
  0
LINE
  5
B1
330
1F
100
AcDbEntity
  8
외형선
  6
Continuous
370
    15
100
AcDbLine
 10
24.40000000000001
 20
-0.0000000000000019
 30
0.0
 11
24.40000000000001
 21
4.365624999999999
 31
0.0
  0
LINE
  5
B2
330
1F
100
AcDbEntity
  8
외형선
  6
Continuous
370
    15
100
AcDbLine
 10
24.40000000000001
 20
-4.365625000000005
 30
0.0
 11
24.40000000000001
 21
-0.0000000000000019
 31
0.0
  0
LINE
  5
B3
330
1F
100
AcDbEntity
  8
외형선
  6
Continuous
370
    15
100
AcDbLine
 10
22.91884233574608
 20
-0.0000000000000019
 30
0.0
 11
22.91884233574608
 21
4.762500000000006
 31
0.0
  0
LINE
  5
B4
330
1F
100
AcDbEntity
  8
외형선
  6
Continuous
370
    15
100
AcDbLine
 10
22.91884233574608
 20
-4.76250000000001
 30
0.0
 11
22.91884233574608
 21
-0.0000000000000019
 31
0.0
  0
LINE
  5
B7
330
1F
100
AcDbEntity
  8
외형선
  6
Continuous
370
    15
100
AcDbLine
 10
-44.45
 20
-0.0000000000000019
 30
0.0
 11
-44.45
 21
3.81
 31
0.0
  0
LINE
  5
B8
330
1F
100
AcDbEntity
  8
외형선
  6
Continuous
370
    15
100
AcDbLine
 10
-44.45
 20
-3.810000000000004
 30
0.0
 11
-44.45
 21
-0.0000000000000019
 31
0.0
  0
LINE
  5
B9
330
1F
100
AcDbEntity
  8
외형선
  6
Continuous
370
    15
100
AcDbLine
 10
24.89984966415628
 20
4.335067586475626
 30
0.0
 11
24.89984966415628
 21
4.365624999999998
 31
0.0
  0
SPLINE
  5
BA
330
1F
100
AcDbEntity
  8
외형선
  6
Continuous
370
    15
100
AcDbSpline
210
0.0
220
0.0
230
1.0
 70
     8
 71
     3
 72
     8
 73
     4
 74
     0
 42
0.000000001
 43
0.00000001
 40
0.0
 40
0.0
 40
0.0
 40
0.0
 40
1.0
 40
1.0
 40
1.0
 40
1.0
 10
25.4
 20
4.291619513159956
 30
0.0
 10
25.23325061223957
 20
4.309230855195339
 30
0.0
 10
25.066352329831
 20
4.323727623783305
 30
0.0
 10
24.89984966415628
 20
4.33506714413027
 30
0.0
  0
SPLINE
  5
BB
330
1F
100
AcDbEntity
  8
외형선
  6
Continuous
370
    15
100
AcDbSpline
210
0.0
220
0.0
230
1.0
 70
     8
 71
     3
 72
     8
 73
     4
 74
     0
 42
0.000000001
 43
0.00000001
 40
0.0
 40
0.0
 40
0.0
 40
0.0
 40
1.0
 40
1.0
 40
1.0
 40
1.0
 10
25.4
 20
3.75245371032806
 30
0.0
 10
25.23325061223956
 20
3.801543162405836
 30
0.0
 10
25.06635232983099
 20
3.847919320402425
 30
0.0
 10
24.89984966415626
 20
3.891434950989153
 30
0.0
  0
LINE
  5
BC
330
1F
100
AcDbEntity
  8
외형선
  6
Continuous
370
    15
100
AcDbLine
 10
24.89984966415628
 20
-0.5156264746048406
 30
0.0
 11
24.89984966415628
 21
3.891437804989164
 31
0.0
  0
SPLINE
  5
BD
330
1F
100
AcDbEntity
  8
외형선
  6
Continuous
370
    15
100
AcDbSpline
210
0.0
220
0.0
230
1.0
 70
     8
 71
     3
 72
     8
 73
     4
 74
     0
 42
0.000000001
 43
0.00000001
 40
0.0
 40
0.0
 40
0.0
 40
0.0
 40
1.0
 40
1.0
 40
1.0
 40
1.0
 10
25.4
 20
-0.8004271327795991
 30
0.0
 10
25.23325061223957
 20
-0.70600107444557
 30
0.0
 10
25.066352329831
 20
-0.6109651500828785
 30
0.0
 10
24.89984966415628
 20
-0.5156301935566647
 30
0.0
  0
SPLINE
  5
BE
330
1F
100
AcDbEntity
  8
외형선
  6
Continuous
370
    15
100
AcDbSpline
210
0.0
220
0.0
230
1.0
 70
     8
 71
     3
 72
     8
 73
     4
 74
     0
 42
0.000000001
 43
0.00000001
 40
0.0
 40
0.0
 40
0.0
 40
0.0
 40
1.0
 40
1.0
 40
1.0
 40
1.0
 10
25.4
 20
-2.231092286856395
 30
0.0
 10
25.23325061223956
 20
-2.14852918640896
 30
0.0
 10
25.06635232983099
 20
-2.0643197143263
 30
0.0
 10
24.89984966415626
 20
-1.978740928682926
 30
0.0
  0
LINE
  5
BF
330
1F
100
AcDbEntity
  8
외형선
  6
Continuous
370
    15
100
AcDbLine
 10
24.89984966415628
 20
-4.365625000000001
 30
0.0
 11
24.89984966415628
 21
-1.978735315934412
 31
0.0
  0
SPLINE
  5
C0
330
1F
100
AcDbEntity
  8
외형선
  6
Continuous
370
    15
100
AcDbSpline
210
0.0
220
0.0
230
1.0
 70
     8
 71
     3
 72
     8
 73
     4
 74
     0
 42
0.000000001
 43
0.00000001
 40
0.0
 40
0.0
 40
0.0
 40
0.0
 40
1.0
 40
1.0
 40
1.0
 40
1.0
 10
25.4
 20
-4.291619513159955
 30
0.0
 10
25.23325061223957
 20
-4.309230855195338
 30
0.0
 10
25.066352329831
 20
-4.323727623783303
 30
0.0
 10
24.89984966415628
 20
-4.335067144130269
 30
0.0
  0
SPLINE
  5
C1
330
1F
100
AcDbEntity
  8
외형선
  6
Continuous
370
    15
100
AcDbSpline
210
0.0
220
0.0
230
1.0
 70
    24
 71
     3
 72
    21
 73
    17
 74
     0
 42
0.000000001
 43
0.00000001
 40
0.0
 40
0.0
 40
0.0
 40
0.0
 40
0.0400398551866866
 40
0.1122432010637588
 40
0.1865404488626661
 40
0.2587437947397955
 40
0.3330410425387657
 40
0.4052443884158666
 40
0.4795416362148058
 40
0.5517449820919054
 40
0.626042229890843
 40
0.6982455757679402
 40
0.7725428235668756
 40
0.8447461694439798
 40
0.919043417242923
 40
1.0
 40
1.0
 40
1.0
 40
1.0
 10
25.40000000000003
 20
-0.7953414384853345
 30
0.0
 10
25.40000000000003
 20
-0.7877364173412224
 30
0.0
 10
25.40000000000003
 20
-0.7664173612808857
 30
0.0
 10
25.40000000000003
 20
-0.6524571054486498
 30
0.0
 10
25.39999999999998
 20
-0.4619525303666948
 30
0.0
 10
25.39999999999998
 20
-0.201798861736462
 30
0.0
 10
25.40000000000011
 20
0.1116806934324028
 30
0.0
 10
25.39999999999996
 20
0.4764029771304985
 30
0.0
 10
25.40000000000011
 20
0.8751750951912601
 30
0.0
 10
25.39999999999996
 20
1.303962211265105
 30
0.0
 10
25.40000000000008
 20
1.742915072293799
 30
0.0
 10
25.39999999999994
 20
2.187414578442484
 30
0.0
 10
25.39999999999998
 20
2.617253136201005
 30
0.0
 10
25.39999999999998
 20
3.026595905528756
 30
0.0
 10
25.40000000000007
 20
3.416736497654614
 30
0.0
 10
25.40000000000003
 20
3.637393083112029
 30
0.0
 10
25.4
 20
3.752453710328126
 30
0.0
  0
SPLINE
  5
C2
330
1F
100
AcDbEntity
  8
외형선
  6
Continuous
370
    15
100
AcDbSpline
210
0.0
220
0.0
230
1.0
 70
    24
 71
     3
 72
    12
 73
     8
 74
     0
 42
0.000000001
 43
0.00000001
 40
0.0
 40
0.0
 40
0.0
 40
0.0
 40
0.1936659683958601
 40
0.3924238556614361
 40
0.5953474002716288
 40
0.8041557414225284
 40
1.0
 40
1.0
 40
1.0
 40
1.0
 10
25.4
 20
-4.291619513159953
 30
0.0
 10
25.4
 20
-4.153335567180627
 30
0.0
 10
25.40000000000001
 20
-3.87313187570726
 30
0.0
 10
25.40000000000007
 20
-3.448219752689035
 30
0.0
 10
25.39999999999998
 20
-3.028464330475434
 30
0.0
 10
25.39999999999997
 20
-2.633224384774582
 30
0.0
 10
25.4
 20
-2.403595275934523
 30
0.0
 10
25.40000000000003
 20
-2.292459099869487
 30
0.0
  0
LINE
  5
C3
330
1F
100
AcDbEntity
  8
중심선
 62
     1
100
AcDbLine
 10
-47.45
 20
-0.0000000000000058
 30
0.0
 11
47.45000000000001
 21
0.0000000000000058
 31
0.0
  0
LINE
  5
C4
330
1F
100
AcDbEntity
  8
참조1
100
AcDbLine
 10
4.955880657015618
 20
0.0010749287238892
 30
0.0
 11
4.955880657015622
 21
-39.99892507127611
 31
0.0
  0
LINE
  5
C5
330
1F
100
AcDbEntity
  8
참조1
100
AcDbLine
 10
4.955880657015622
 20
-39.99892507127611
 30
0.0
 11
-29.25297615729306
 21
-39.9989250712761
 31
0.0
  0
CIRCLE
  5
C6
330
1F
100
AcDbEntity
  8
해칭선
100
AcDbCircle
 10
0.0
 20
0.0000000000000001
 30
0.0
 40
3.000000000000004
  0
INSERT
  5
C7
330
1F
100
AcDbEntity
  8
0
  6
Continuous
 62
     7
100
AcDbBlockReference
 66
     1
  2
블럭10
 10
-16.98622765912008
 20
-28.47705696910735
 30
0.0
  0
ATTRIB
  5
C8
330
C7
100
AcDbEntity
  8
FORMAT
 62
     2
100
AcDbText
 10
-26.16752294786136
 20
-26.40169005627516
 30
0.0
 40
4.233333333333333
  1
E5024022 [ 4 FLUTE ]
 41
0.75
  7
SLDTEXTSTYLE0
 11
-26.16752294786136
 21
-28.51835672294183
 31
0.0
100
AcDbAttribute
  2
AUTOATTR0
 70
     0
 74
     1
  0
SEQEND
  5
C9
330
C7
100
AcDbEntity
  8
0
  6
Continuous
 62
     7
  0
HATCH
  5
CA
330
1F
100
AcDbEntity
  8
중심선
100
AcDbHatch
 10
0.0
 20
0.0
 30
0.0
210
0.0
220
0.0
230
1.0
  2
SOLID
 70
     1
 71
     0
 91
        1
 92
        0
 93
        4
 72
     1
 10
-11.27131835473923
 20
-12.22988266746341
 11
-14.71759359857651
 21
-12.22988266746341
 72
     1
 10
-14.71759359857651
 20
-12.22988266746341
 11
-16.84582345778053
 21
-14.76620824803602
 72
     1
 10
-16.84582345778053
 20
-14.76620824803602
 11
-13.3995151288301
 21
-14.76616881873353
 72
     1
 10
-13.3995151288301
 20
-14.76616881873353
 11
-11.27131835473923
 21
-12.22988266746341
 97
        0
 75
     0
 76
     1
 98
        1
 10
-8.00183538401049
 20
23.56904240381269
  0
HATCH
  5
CB
330
1F
100
AcDbEntity
  8
중심선
100
AcDbHatch
 10
0.0
 20
0.0
 30
0.0
210
0.0
220
0.0
230
1.0
  2
SOLID
 70
     1
 71
     0
 91
        1
 92
        0
 93
        4
 72
     1
 10
-6.258554363703221
 20
-12.22988266746339
 11
-9.704829607540532
 21
-12.22988266746341
 72
     1
 10
-9.704829607540532
 20
-12.22988266746341
 11
-14.23596761589795
 21
-17.62988266746343
 72
     1
 10
-14.23596761589795
 20
-17.62988266746343
 11
-10.78969237206067
 21
-17.62988266746343
 72
     1
 10
-10.78969237206067
 20
-17.62988266746343
 11
-6.258554363703221
 21
-12.22988266746339
 97
        0
 75
     0
 76
     1
 98
        1
 10
-8.00183538401049
 20
23.56904240381269
  0
HATCH
  5
CC
330
1F
100
AcDbEntity
  8
중심선
100
AcDbHatch
 10
0.0
 20
0.0
 30
0.0
210
0.0
220
0.0
230
1.0
  2
SOLID
 70
     1
 71
     0
 91
        1
 92
        0
 93
        4
 72
     1
 10
-1.245790372667354
 20
-12.22988266746339
 11
-4.69206561650447
 21
-12.22988266746339
 72
     1
 10
-4.69206561650447
 20
-12.22988266746339
 11
-11.74050251839375
 21
-20.62988266746343
 72
     1
 10
-11.74050251839375
 20
-20.62988266746343
 11
-8.294227274556464
 21
-20.62988266746343
 72
     1
 10
-8.294227274556464
 20
-20.62988266746343
 11
-1.245790372667354
 21
-12.22988266746339
 97
        0
 75
     0
 76
     1
 98
        1
 10
-8.00183538401049
 20
23.56904240381269
  0
HATCH
  5
CD
330
1F
100
AcDbEntity
  8
중심선
100
AcDbHatch
 10
0.0
 20
0.0
 30
0.0
210
0.0
220
0.0
230
1.0
  2
SOLID
 70
     1
 71
     0
 91
        1
 92
        0
 93
        6
 72
     3
 10
3.554100058344817
 20
-16.42988266751469
 11
3.960054785062283
 21
1.540882976769353E-10
 40
0.3939339440162628
 50
17.09539180608436
 51
320.0019657685087
 73
     0
 72
     1
 10
5.237099714045414
 20
-15.01777667210175
 11
7.542401587746451
 21
-13.0834499620538
 72
     3
 10
3.55410005829197
 20
-16.42988266746357
 11
6.600054785286831
 21
-1.278976924368180E-13
 40
0.6363583540795978
 50
39.99873849337411
 51
368.4976242363724
 73
     1
 72
     1
 10
9.97943255019258
 20
-15.46988266739344
 11
2.234167365127893
 21
-15.46988266739344
 72
     1
 10
2.234167365127893
 20
-15.46988266739344
 11
2.23414232068196
 21
-17.38988266739333
 72
     1
 10
2.23414232068196
 20
-17.38988266739333
 11
6.675522090153997
 21
-17.3898826673933
 97
        0
 75
     0
 76
     1
 98
        1
 10
-8.00183538401049
 20
23.56904240381269
  0
DIMENSION
  5
CE
330
1F
100
AcDbEntity
  8
치수문자_일반주서
100
AcDbDimension
  2
_D
 10
56.46057472204984
 20
-4.36562499999993
 30
0.0
 11
56.46057472204975
 21
22.54262500000008
 31
0.0
 70
   160
  1
%%c<>
 71
     2
 42
8.731250000000005
 52
-270.0
  3
SLDDIMSTYLE0
100
AcDbAlignedDimension
 13
44.45000000000001
 23
4.36562500000003
 33
0.0
 14
44.45000000000001
 24
-4.365624999999975
 34
0.0
 50
90.0000000000002
100
AcDbRotatedDimension
1001
ACAD
1000
DSTYLE
1002
{
1070
   171
1070
     6
1070
   273
1070
     5
1002
}
  0
DIMENSION
  5
E2
330
1F
100
AcDbEntity
  8
치수문자_일반주서
100
AcDbDimension
  2
_D_1
 10
25.4
 20
26.61282305624523
 30
0.0
 11
8.449562417986769
 21
26.61282305624523
 31
0.0
 70
   160
  1
<>
 71
     2
 42
19.05000000000001
  3
SLDDIMSTYLE0
100
AcDbAlignedDimension
 13
44.45000000000001
 23
4.349570813640838
 33
0.0
 14
25.4
 24
4.291619513159953
 34
0.0
100
AcDbRotatedDimension
1001
ACAD
1000
DSTYLE
1002
{
1070
   171
1070
     6
1070
   273
1070
     5
1002
}
  0
DIMENSION
  5
F6
330
1F
100
AcDbEntity
  8
치수문자_일반주서
100
AcDbDimension
  2
_D_2
 10
-44.45
 20
51.93998975661525
 30
0.0
 11
-2.268279200632822
 21
51.93998975661525
 31
0.0
 70
   160
  1
<>
 71
     2
 42
88.9
  3
SLDDIMSTYLE0
100
AcDbAlignedDimension
 13
44.45000000000001
 23
4.349570813640838
 33
0.0
 14
-44.45
 24
3.81
 34
0.0
100
AcDbRotatedDimension
1001
ACAD
1000
DSTYLE
1002
{
1070
   171
1070
     6
1070
   273
1070
     5
1002
}
  0
DIMENSION
  5
10A
330
1F
100
AcDbEntity
  8
치수문자_일반주서
100
AcDbDimension
  2
_D_3
 10
-56.64900562884038
 20
-4.762500000000134
 30
0.0
 11
-56.64900562884048
 21
21.40824999999996
 31
0.0
 70
   160
  1
%%c<>
 71
     2
 42
9.525000000000007
 52
-270.0
  3
SLDDIMSTYLE0
100
AcDbAlignedDimension
 13
-22.91884233574611
 23
4.762500000000002
 33
0.0
 14
-22.91884233574607
 24
-4.762500000000006
 34
0.0
 50
90.0000000000002
100
AcDbRotatedDimension
1001
ACAD
1000
DSTYLE
1002
{
1070
   171
1070
     6
1070
   273
1070
     5
1002
}
  0
LINE
  5
11F
330
1F
100
AcDbEntity
  8
참조1
100
AcDbLine
 10
68.7193644723612
 20
7.441074928723896
 30
0.0
 11
68.7193644723612
 21
-7.438925071276109
 31
0.0
  0
LINE
  5
120
330
1F
100
AcDbEntity
  8
참조1
100
AcDbLine
 10
81.41936447236121
 20
5.441074928723896
 30
0.0
 11
68.7193644723612
 21
5.441074928723896
 31
0.0
  0
SOLID
  5
121
330
1F
100
AcDbEntity
  8
참조1
100
AcDbTrace
 10
68.7193644723612
 20
5.441074928723896
 30
0.0
 11
75.0693644723612
 21
4.425074928723896
 31
0.0
 12
75.0693644723612
 22
6.457074928723896
 32
0.0
 13
75.0693644723612
 23
6.457074928723896
 33
0.0
  0
LINE
  5
122
330
1F
100
AcDbEntity
  8
참조1
100
AcDbLine
 10
81.41936447236121
 20
-5.438925071276109
 30
0.0
 11
68.7193644723612
 21
-5.438925071276109
 31
0.0
  0
SOLID
  5
123
330
1F
100
AcDbEntity
  8
참조1
100
AcDbTrace
 10
68.7193644723612
 20
-5.438925071276109
 30
0.0
 11
75.0693644723612
 21
-6.454925071276109
 31
0.0
 12
75.0693644723612
 22
-4.422925071276109
 32
0.0
 13
75.0693644723612
 23
-4.422925071276109
 33
0.0
  0
MTEXT
  5
124
330
1F
100
AcDbEntity
  8
참조1
100
AcDbMText
 10
78.1037146049872
 20
11.01136670591223
 30
0.0
 40
3.5
 41
0.0
 71
     1
 72
     1
  1
A
  7
SLDTEXTSTYLE0
 73
     1
 44
1.0
  0
MTEXT
  5
125
330
1F
100
AcDbEntity
  8
참조1
100
AcDbMText
 10
78.1037146049872
 20
0.1313667059122219
 30
0.0
 40
3.5
 41
0.0
 71
     1
 72
     1
  1
A
  7
SLDTEXTSTYLE0
 73
     1
 44
1.0
  0
INSERT
  5
12C
330
1F
100
AcDbEntity
  8
해칭선
100
AcDbBlockReference
  2
SW_DOWELSYMBOL_0
 10
0.0
 20
0.0000000000000001
 30
0.0
  0
LINE
  5
2C1
330
1F
100
AcDbEntity
  8
외형선
  6
Continuous
370
    15
100
AcDbLine
 10
-26.27682080853405
 20
1.291934220011852
 30
0.0
 11
-26.30854544147208
 21
1.309533820815594
 31
0.0
  0
LINE
  5
2C2
330
1F
100
AcDbEntity
  8
0
  6
Continuous
 62
     1
370
    15
100
AcDbLine
 10
-35.88308509852403
 20
-4.365625000000005
 30
0.0
 11
-33.22080453561129
 21
-4.365625000000005
 31
0.0
  0
LINE
  5
2C3
330
1F
100
AcDbEntity
  8
0
  6
Continuous
 62
     1
370
    15
100
AcDbLine
 10
-33.22080453561126
 20
4.365624999999998
 30
0.0
 11
-35.88308509852403
 21
4.365624999999998
 31
0.0
  0
LINE
  5
2C4
330
1F
100
AcDbEntity
  8
외형선
  6
Continuous
370
    15
100
AcDbLine
 10
-22.91884233574608
 20
4.762500000000004
 30
0.0
 11
-24.40000000000002
 21
4.365624999999995
 31
0.0
  0
LINE
  5
2C5
330
1F
100
AcDbEntity
  8
외형선
  6
Continuous
370
    15
100
AcDbLine
 10
-24.40000000000002
 20
-4.365625000000004
 30
0.0
 11
-22.91884233574608
 21
-4.762500000000013
 31
0.0
  0
LINE
  5
2C6
330
1F
100
AcDbEntity
  8
외형선
  6
Continuous
370
    15
100
AcDbLine
 10
-24.40000000000002
 20
4.365624999999995
 30
0.0
 11
-24.89984966415626
 21
4.365624999999995
 31
0.0
  0
LINE
  5
2C7
330
1F
100
AcDbEntity
  8
외형선
  6
Continuous
370
    15
100
AcDbLine
 10
-24.89984966415626
 20
-4.365625000000004
 30
0.0
 11
-24.40000000000002
 21
-4.365625000000004
 31
0.0
  0
LINE
  5
2C8
330
1F
100
AcDbEntity
  8
0
  6
Continuous
 62
     1
370
    15
100
AcDbLine
 10
-44.45
 20
3.953865140344614
 30
0.0
 11
-44.45
 21
-0.3740526403446702
 31
0.0
  0
SPLINE
  5
2C9
330
1F
100
AcDbEntity
  8
0
  6
Continuous
 62
     1
370
    15
100
AcDbSpline
210
0.0
220
0.0
230
1.0
 70
     8
 71
     3
 72
    46
 73
    42
 74
     0
 42
0.000000001
 43
0.00000001
 40
0.0
 40
0.0
 40
0.0
 40
0.0
 40
0.0624999999999997
 40
0.0624999999999997
 40
0.1249999999999994
 40
0.1249999999999994
 40
0.1874999999999992
 40
0.1874999999999992
 40
0.2499999999999989
 40
0.2499999999999989
 40
0.3124999999999986
 40
0.3124999999999986
 40
0.3749999999999983
 40
0.3749999999999983
 40
0.4374999999999981
 40
0.4374999999999981
 40
0.4999999999999978
 40
0.4999999999999978
 40
0.5624999999999976
 40
0.5624999999999976
 40
0.5937499999999973
 40
0.5937499999999973
 40
0.6249999999999972
 40
0.6249999999999972
 40
0.6562499999999971
 40
0.6562499999999971
 40
0.6874999999999969
 40
0.6874999999999969
 40
0.7499999999999982
 40
0.7499999999999982
 40
0.7812499999999989
 40
0.7812499999999989
 40
0.8124999999999994
 40
0.8124999999999994
 40
0.8437500000000001
 40
0.8437500000000001
 40
0.8750000000000008
 40
0.8750000000000008
 40
0.9375000000000003
 40
0.9375000000000003
 40
1.0
 40
1.0
 40
1.0
 40
1.0
 10
-44.45000000000003
 20
3.953865140344614
 30
0.0
 10
-44.05600858005862
 20
3.856954633340867
 30
0.0
 10
-43.6563601374386
 20
3.743221682616335
 30
0.0
 10
-42.86048882182327
 20
3.486003234859256
 30
0.0
 10
-42.46746086320367
 20
3.343008068975299
 30
0.0
 10
-41.67214005208201
 20
3.029519517632585
 30
0.0
 10
-41.27224832105189
 20
2.85922217902795
 30
0.0
 10
-40.48277136892402
 20
2.497994799963245
 30
0.0
 10
-40.08483888846867
 20
2.305824604375383
 30
0.0
 10
-39.28855975226766
 20
1.903903667902899
 30
0.0
 10
-38.89527462441772
 20
1.695069760219773
 30
0.0
 10
-38.10064667250371
 20
1.263747053925575
 30
0.0
 10
-37.70058415926435
 20
1.04143980344605
 30
0.0
 10
-36.90975197222819
 20
0.5918005327107481
 30
0.0
 10
-36.51328120613802
 20
0.363408475247371
 30
0.0
 10
-35.71673717730972
 20
-0.0951918125917777
 30
0.0
 10
-35.32293786448768
 20
-0.3241853976935086
 30
0.0
 10
-34.52914471257112
 20
-0.7788021857602476
 30
0.0
 10
-34.12898402724078
 20
-1.004433505781315
 30
0.0
 10
-33.53494822151113
 20
-1.334116856355994
 30
0.0
 10
-33.33837783256813
 20
-1.442486097891121
 30
0.0
 10
-32.94171649431014
 20
-1.656667316735257
 30
0.0
 10
-32.74250565860875
 20
-1.762313407291652
 30
0.0
 10
-32.34417274116053
 20
-1.969719860975227
 30
0.0
 10
-32.1450525758343
 20
-2.071479229837411
 30
0.0
 10
-31.74875112149859
 20
-2.270186258869247
 30
0.0
 10
-31.55223184836863
 20
-2.367034078568622
 30
0.0
 10
-30.95761916641963
 20
-2.650781971319142
 30
0.0
 10
-30.55743297887712
 20
-2.830315295952645
 30
0.0
 10
-29.96259081010537
 20
-3.080179469988048
 30
0.0
 10
-29.76604980699638
 20
-3.160139353359443
 30
0.0
 10
-29.36991184425266
 20
-3.313794690166585
 30
0.0
 10
-29.17083555934191
 20
-3.387407316178948
 30
0.0
 10
-28.77251331861474
 20
-3.527480802944838
 30
0.0
 10
-28.57326927886017
 20
-3.593940977427615
 30
0.0
 10
-28.17646547254493
 20
-3.71911848698914
 30
0.0
 10
-27.97982989688946
 20
-3.777755377233082
 30
0.0
 10
-27.38605504262593
 20
-3.942198944519987
 30
0.0
 10
-26.9859160382771
 20
-4.036312424831036
 30
0.0
 10
-26.1918590390229
 20
-4.189929765333693
 30
0.0
 10
-25.79823999064588
 20
-4.249559144713459
 30
0.0
 10
-25.39999999999999
 20
-4.29161951315996
 30
0.0
  0
SPLINE
  5
2CA
330
1F
100
AcDbEntity
  8
0
  6
Continuous
 62
     1
370
    15
100
AcDbSpline
210
0.0
220
0.0
230
1.0
 70
     8
 71
     3
 72
    18
 73
    14
 74
     0
 42
0.000000001
 43
0.00000001
 40
0.0
 40
0.0
 40
0.0
 40
0.0
 40
0.0962958199025682
 40
0.1925141271023936
 40
0.2886932854436786
 40
0.38487195518191
 40
0.4810888002772291
 40
0.5773821956290712
 40
0.6736803906613763
 40
0.779526864089513
 40
0.88535861799185
 40
0.9911803897148894
 40
1.0
 40
1.0
 40
1.0
 40
1.0
 10
-44.45000000000003
 20
-0.3740526403446701
 30
0.0
 10
-43.94155642667944
 20
-0.664852703769889
 30
0.0
 10
-42.92507854843221
 20
-1.246218752974001
 30
0.0
 10
-41.40111560387142
 20
-2.064094399149229
 30
0.0
 10
-39.87787140653184
 20
-2.799309214416065
 30
0.0
 10
-38.35463569627002
 20
-3.420943704652615
 30
0.0
 10
-36.8307028424875
 20
-3.90417065096487
 30
0.0
 10
-35.3057884107251
 20
-4.229488490015383
 30
0.0
 10
-33.73007454888047
 20
-4.387625213564942
 30
0.0
 10
-32.10409437063184
 20
-4.356690821399376
 30
0.0
 10
-30.42787058987069
 20
-4.093557683305204
 30
0.0
 10
-29.26391583215859
 20
-3.817979445690908
 30
0.0
 10
-28.65869013729925
 20
-3.590635968621533
 30
0.0
 10
-28.61212881127814
 20
-3.573145941604316
 30
0.0
  0
SPLINE
  5
2CB
330
1F
100
AcDbEntity
  8
0
  6
Continuous
 62
     1
370
    15
100
AcDbSpline
210
0.0
220
0.0
230
1.0
 70
     8
 71
     3
 72
    17
 73
    13
 74
     0
 42
0.000000001
 43
0.00000001
 40
0.0
 40
0.0
 40
0.0
 40
0.0
 40
0.1009670364432209
 40
0.2019564362592407
 40
0.3030086569843972
 40
0.4041286501760728
 40
0.5051747063365664
 40
0.6061609926501738
 40
0.7071279902348554
 40
0.8182231562499617
 40
0.9293285995359848
 40
1.0
 40
1.0
 40
1.0
 40
1.0
 10
-25.40000000000005
 20
0.800427132779626
 30
0.0
 10
-25.9076505350469
 20
1.085552928331261
 30
0.0
 10
-26.92306404558219
 20
1.655867672466302
 30
0.0
 10
-28.44661258149229
 20
2.435740406280996
 30
0.0
 10
-29.97111090671963
 20
3.119407981616331
 30
0.0
 10
-31.49625239114361
 20
3.675839659436491
 30
0.0
 10
-33.02067233822855
 20
4.084017744204927
 30
0.0
 10
-34.54418946490897
 20
4.326237382145218
 30
0.0
 10
-36.118071395396
 20
4.39732187602829
 30
0.0
 10
-37.743294501102
 20
4.264332861128435
 30
0.0
 10
-39.21606420958678
 20
3.984278662360947
 30
0.0
 10
-40.13022051195038
 20
3.679218273432816
 30
0.0
 10
-40.48562720071367
 20
3.560616561207611
 30
0.0
  0
SPLINE
  5
2CC
330
1F
100
AcDbEntity
  8
외형선
  6
Continuous
370
    15
100
AcDbSpline
210
0.0
220
0.0
230
1.0
 70
    24
 71
     3
 72
    22
 73
    18
 74
     0
 42
0.000000001
 43
0.00000001
 40
0.0
 40
0.0
 40
0.0
 40
0.0
 40
0.0045183889757616
 40
0.0766086063111443
 40
0.150789444832992
 40
0.2228796621683587
 40
0.2970605006901896
 40
0.369150718025558
 40
0.4433315565473903
 40
0.515421773882758
 40
0.5896026124045898
 40
0.6616928297399164
 40
0.7358736682617035
 40
0.8079638855971129
 40
0.8821447241189899
 40
0.9542349414543579
 40
1.0
 40
1.0
 40
1.0
 40
1.0
 10
-25.40000000000002
 20
-3.75245371032806
 30
0.0
 10
-25.39999999999999
 20
-3.746372135976031
 30
0.0
 10
-25.39999999999965
 20
-3.643259956439087
 30
0.0
 10
-25.40000000000019
 20
-3.419394100673457
 30
0.0
 10
-25.39999999999993
 20
-3.0500791984489
 30
0.0
 10
-25.40000000000005
 20
-2.641541469452699
 30
0.0
 10
-25.39999999999999
 20
-2.212965741171537
 30
0.0
 10
-25.40000000000002
 20
-1.768696830683699
 30
0.0
 10
-25.39999999999999
 20
-1.329326511256622
 30
0.0
 10
-25.40000000000005
 20
-0.8993725107981364
 30
0.0
 10
-25.40000000000008
 20
-0.498765149546314
 30
0.0
 10
-25.40000000000002
 20
-0.1315554837490307
 30
0.0
 10
-25.39999999999999
 20
0.1849646945468992
 30
0.0
 10
-25.40000000000008
 20
0.448612956324525
 30
0.0
 10
-25.40000000000002
 20
0.6431592200983807
 30
0.0
 10
-25.39999999999999
 20
0.7637910168402433
 30
0.0
 10
-25.39999999999999
 20
0.7868583810926942
 30
0.0
 10
-25.40000000000002
 20
0.7958158016885524
 30
0.0
  0
SPLINE
  5
2CD
330
1F
100
AcDbEntity
  8
0
  6
Continuous
 62
     1
370
    15
100
AcDbSpline
210
0.0
220
0.0
230
1.0
 70
     8
 71
     3
 72
    46
 73
    42
 74
     0
 42
0.000000001
 43
0.00000001
 40
0.0
 40
0.0
 40
0.0
 40
0.0
 40
0.0624999999999992
 40
0.0624999999999992
 40
0.1249999999999984
 40
0.1249999999999984
 40
0.1874999999999976
 40
0.1874999999999976
 40
0.2499999999999968
 40
0.2499999999999968
 40
0.3124999999999961
 40
0.3124999999999961
 40
0.3749999999999952
 40
0.3749999999999952
 40
0.4374999999999944
 40
0.4374999999999944
 40
0.4999999999999937
 40
0.4999999999999937
 40
0.5624999999999929
 40
0.5624999999999929
 40
0.5937499999999932
 40
0.5937499999999932
 40
0.6249999999999937
 40
0.6249999999999937
 40
0.656249999999994
 40
0.656249999999994
 40
0.6874999999999944
 40
0.6874999999999944
 40
0.7499999999999968
 40
0.7499999999999968
 40
0.7812499999999972
 40
0.7812499999999972
 40
0.8124999999999976
 40
0.8124999999999976
 40
0.843749999999998
 40
0.843749999999998
 40
0.8749999999999983
 40
0.8749999999999983
 40
0.9374999999999991
 40
0.9374999999999991
 40
1.0
 40
1.0
 40
1.0
 40
1.0
 10
-44.45000000000003
 20
4.365624999999971
 30
0.0
 10
-44.05600858005859
 20
4.329985378226381
 30
0.0
 10
-43.6563601374386
 20
4.292308340266866
 30
0.0
 10
-42.86048882182327
 20
4.181811734850319
 30
0.0
 10
-42.46746086320364
 20
4.109307543045772
 30
0.0
 10
-41.67214005208199
 20
3.930446936044712
 30
0.0
 10
-41.27224832105186
 20
3.824116377107998
 30
0.0
 10
-40.48277136892399
 20
3.581819729257808
 30
0.0
 10
-40.08483888846867
 20
3.445041154421772
 30
0.0
 10
-39.2885597522676
 20
3.144034445984324
 30
0.0
 10
-38.89527462441772
 20
2.980539990618833
 30
0.0
 10
-38.10064667250374
 20
2.629234936143678
 30
0.0
 10
-37.70058415926438
 20
2.441512101735318
 30
0.0
 10
-36.90975197222822
 20
2.048967992496196
 30
0.0
 10
-36.51328120613802
 20
1.843250087963596
 30
0.0
 10
-35.71673717730978
 20
1.417632696603492
 30
0.0
 10
-35.32293786448768
 20
1.198884193747658
 30
0.0
 10
-34.5291447125711
 20
0.7521844238971677
 30
0.0
 10
-34.12898402724075
 20
0.524172751070288
 30
0.0
 10
-33.53494822151119
 20
0.1814973078399614
 30
0.0
 10
-33.33837783256816
 20
0.0672446704839651
 30
0.0
 10
-32.94171649431011
 20
-0.1618407733399004
 30
0.0
 10
-32.74250565860872
 20
-0.2765038387472932
 30
0.0
 10
-32.34417274116056
 20
-0.5050030980205094
 30
0.0
 10
-32.14505257583427
 20
-0.6188381932782039
 30
0.0
 10
-31.74875112149859
 20
-0.8446277588376259
 30
0.0
 10
-31.55223184836866
 20
-0.9564602704169556
 30
0.0
 10
-30.95761916641966
 20
-1.289605628667678
 30
0.0
 10
-30.55743297887712
 20
-1.507966459555289
 30
0.0
 10
-29.96259081010531
 20
-1.823841542679071
 30
0.0
 10
-29.76604980699635
 20
-1.927056545181304
 30
0.0
 10
-29.36991184425263
 20
-2.129834330847165
 30
0.0
 10
-29.17083555934188
 20
-2.229298682600263
 30
0.0
 10
-28.77251331861474
 20
-2.423429804205391
 30
0.0
 10
-28.57326927886014
 20
-2.518095631782882
 30
0.0
 10
-28.17646547254496
 20
-2.701767345528842
 30
0.0
 10
-27.97982989688946
 20
-2.790642500302435
 30
0.0
 10
-27.38605504262596
 20
-3.048952851890171
 30
0.0
 10
-26.98591603827713
 20
-3.209836060319494
 30
0.0
 10
-26.1918590390229
 20
-3.502927660645784
 30
0.0
 10
-25.79823999064588
 20
-3.635215601098236
 30
0.0
 10
-25.40000000000005
 20
-3.752453710328065
 30
0.0
  0
LINE
  5
2CE
330
1F
100
AcDbEntity
  8
0
  6
Continuous
 62
     1
370
    15
100
AcDbLine
 10
-44.45
 20
4.365624999999971
 30
0.0
 11
-44.45
 21
3.953865140344614
 31
0.0
  0
LINE
  5
2CF
330
1F
100
AcDbEntity
  8
외형선
  6
Continuous
370
    15
100
AcDbLine
 10
-25.40000000000002
 20
-3.75245371032806
 30
0.0
 11
-25.39999999999999
 21
-4.29161951315996
 31
0.0
  0
SPLINE
  5
2D0
330
1F
100
AcDbEntity
  8
0
  6
Continuous
 62
     1
370
    15
100
AcDbSpline
210
0.0
220
0.0
230
1.0
 70
     8
 71
     3
 72
    13
 73
     9
 74
     0
 42
0.000000001
 43
0.00000001
 40
0.0
 40
0.0
 40
0.0
 40
0.0
 40
0.0214983504185537
 40
0.2171450157430123
 40
0.4128097800888383
 40
0.6085014037818022
 40
0.8042285963081501
 40
0.9999999999999999
 40
0.9999999999999999
 40
0.9999999999999999
 40
0.9999999999999999
 10
-35.88308509852403
 20
-4.356226169046782
 30
0.0
 10
-35.94446296967941
 20
-4.359254336525833
 30
0.0
 10
-36.56441280484471
 20
-4.389840472769261
 30
0.0
 10
-37.74330728686904
 20
-4.256535976421665
 30
0.0
 10
-39.41947415589813
 20
-3.932194052021995
 30
0.0
 10
-41.09597661467645
 20
-3.394015887440183
 30
0.0
 10
-42.77282258779486
 20
-2.701340700485225
 30
0.0
 10
-43.89089877521762
 20
-2.134365787901407
 30
0.0
 10
-44.45000000000003
 20
-1.850846317929324
 30
0.0
  0
LINE
  5
2D1
330
1F
100
AcDbEntity
  8
0
  6
Continuous
 62
     1
370
    15
100
AcDbLine
 10
-44.45
 20
-0.3740526403446702
 30
0.0
 11
-44.45
 21
-1.850846317929324
 31
0.0
  0
SPLINE
  5
2D2
330
1F
100
AcDbEntity
  8
0
  6
Continuous
 62
     1
370
    15
100
AcDbSpline
210
0.0
220
0.0
230
1.0
 70
     8
 71
     3
 72
    12
 73
     8
 74
     0
 42
0.000000001
 43
0.00000001
 40
0.0
 40
0.0
 40
0.0
 40
0.0
 40
0.1427905091782393
 40
0.3571135676035737
 40
0.5714164108182747
 40
0.785708670895877
 40
1.0
 40
1.0
 40
1.0
 40
1.0
 10
-33.22080453561126
 20
4.341795203601865
 30
0.0
 10
-32.84854205212447
 20
4.342023658780903
 30
0.0
 10
-31.91752790890173
 20
4.342595016390692
 30
0.0
 10
-30.42787175825389
 20
4.099916679361371
 30
0.0
 10
-28.75183713051818
 20
3.655014277612185
 30
0.0
 10
-27.07590492796818
 20
3.030814156420814
 30
0.0
 10
-25.95863416700722
 20
2.497665857341216
 30
0.0
 10
-25.40000000000005
 20
2.231092286856402
 30
0.0
  0
LINE
  5
2D3
330
1F
100
AcDbEntity
  8
외형선
  6
Continuous
370
    15
100
AcDbLine
 10
-25.40000000000002
 20
2.231092286856397
 30
0.0
 11
-25.40000000000002
 21
0.8004271327796202
 31
0.0
  0
SPLINE
  5
2D4
330
1F
100
AcDbEntity
  8
0
  6
Continuous
 62
     1
370
    15
100
AcDbSpline
210
0.0
220
0.0
230
1.0
 70
     8
 71
     3
 72
    10
 73
     6
 74
     0
 42
0.000000001
 43
0.00000001
 40
0.0
 40
0.0
 40
0.0
 40
0.0
 40
0.3846999428720804
 40
0.7690902239919976
 40
1.0
 40
1.0
 40
1.0
 40
1.0
 10
-44.45
 20
-4.365625000000033
 30
0.0
 10
-43.94155680757832
 20
-4.306171993622487
 30
0.0
 10
-42.92507969082227
 20
-4.219409287187659
 30
0.0
 10
-41.60370901688607
 20
-3.936134424812515
 30
0.0
 10
-40.79072413012922
 20
-3.663086117074952
 30
0.0
 10
-40.48562720071367
 20
-3.560616561207616
 30
0.0
  0
LINE
  5
2D5
330
1F
100
AcDbEntity
  8
0
  6
Continuous
 62
     1
370
    15
100
AcDbLine
 10
-44.45
 20
-1.836638434010189
 30
0.0
 11
-44.44999999999997
 21
-4.365625000000033
 31
0.0
  0
SPLINE
  5
2D6
330
1F
100
AcDbEntity
  8
0
  6
Continuous
 62
     1
370
    15
100
AcDbSpline
210
0.0
220
0.0
230
1.0
 70
     8
 71
     3
 72
    10
 73
     6
 74
     0
 42
0.000000001
 43
0.00000001
 40
0.0
 40
0.0
 40
0.0
 40
0.0
 40
0.4741423340671124
 40
0.9483896867833643
 40
0.9999999999999999
 40
0.9999999999999999
 40
0.9999999999999999
 40
0.9999999999999999
 10
-25.39999999999999
 20
4.291619513159945
 30
0.0
 10
-25.90765533231148
 20
4.218421701568476
 30
0.0
 10
-26.92307843843859
 20
4.07200986566893
 30
0.0
 10
-27.99373852008519
 20
3.801860748782477
 30
0.0
 10
-28.55686112930961
 20
3.593586976019986
 30
0.0
 10
-28.61212881127805
 20
3.573145941604308
 30
0.0
  0
SPLINE
  5
2D7
330
1F
100
AcDbEntity
  8
외형선
  6
Continuous
370
    15
100
AcDbSpline
210
0.0
220
0.0
230
1.0
 70
    24
 71
     3
 72
    12
 73
     8
 74
     0
 42
0.000000001
 43
0.00000001
 40
0.0
 40
0.0
 40
0.0
 40
0.0
 40
0.1844164650120503
 40
0.3930945823180708
 40
0.5958915731513557
 40
0.8045696904572477
 40
1.0
 40
1.0
 40
1.0
 40
1.0
 10
-25.40000000000002
 20
2.29246909986948
 30
0.0
 10
-25.40000000000005
 20
2.396461685980033
 30
0.0
 10
-25.40000000000008
 20
2.61812802254403
 30
0.0
 10
-25.39999999999996
 20
3.004532114278802
 30
0.0
 10
-25.40000000000002
 20
3.429832052677107
 30
0.0
 10
-25.40000000000008
 20
3.863242396736388
 30
0.0
 10
-25.40000000000002
 20
4.151982376504553
 30
0.0
 10
-25.40000000000002
 20
4.291619513159947
 30
0.0
  0
LINE
  5
2D8
330
1F
100
AcDbEntity
  8
외형선
  6
Continuous
370
    15
100
AcDbLine
 10
-24.40000000000002
 20
-0.0000000000000042
 30
0.0
 11
-24.40000000000002
 21
-4.365625000000005
 31
0.0
  0
LINE
  5
2D9
330
1F
100
AcDbEntity
  8
외형선
  6
Continuous
370
    15
100
AcDbLine
 10
-24.40000000000002
 20
4.365624999999999
 30
0.0
 11
-24.40000000000002
 21
-0.0000000000000042
 31
0.0
  0
LINE
  5
2DA
330
1F
100
AcDbEntity
  8
외형선
  6
Continuous
370
    15
100
AcDbLine
 10
-22.91884233574608
 20
-0.0000000000000044
 30
0.0
 11
-22.91884233574608
 21
-4.762500000000013
 31
0.0
  0
LINE
  5
2DB
330
1F
100
AcDbEntity
  8
외형선
  6
Continuous
370
    15
100
AcDbLine
 10
-22.91884233574608
 20
4.762500000000004
 30
0.0
 11
-22.91884233574608
 21
-0.0000000000000044
 31
0.0
  0
LINE
  5
2DC
330
1F
100
AcDbEntity
  8
외형선
  6
Continuous
370
    15
100
AcDbLine
 10
-24.89984966415626
 20
-4.335067586475632
 30
0.0
 11
-24.89984966415626
 21
-4.365625000000004
 31
0.0
  0
SPLINE
  5
2DD
330
1F
100
AcDbEntity
  8
외형선
  6
Continuous
370
    15
100
AcDbSpline
210
0.0
220
0.0
230
1.0
 70
     8
 71
     3
 72
     8
 73
     4
 74
     0
 42
0.000000001
 43
0.00000001
 40
0.0
 40
0.0
 40
0.0
 40
0.0
 40
1.0
 40
1.0
 40
1.0
 40
1.0
 10
-25.39999999999999
 20
-4.291619513159962
 30
0.0
 10
-25.23325061223956
 20
-4.309230855195345
 30
0.0
 10
-25.06635232983099
 20
-4.323727623783311
 30
0.0
 10
-24.89984966415626
 20
-4.335067144130276
 30
0.0
  0
SPLINE
  5
2DE
330
1F
100
AcDbEntity
  8
외형선
  6
Continuous
370
    15
100
AcDbSpline
210
0.0
220
0.0
230
1.0
 70
     8
 71
     3
 72
     8
 73
     4
 74
     0
 42
0.000000001
 43
0.00000001
 40
0.0
 40
0.0
 40
0.0
 40
0.0
 40
1.0
 40
1.0
 40
1.0
 40
1.0
 10
-25.39999999999999
 20
-3.752453710328067
 30
0.0
 10
-25.23325061223956
 20
-3.801543162405842
 30
0.0
 10
-25.06635232983099
 20
-3.847919320402431
 30
0.0
 10
-24.89984966415626
 20
-3.89143495098916
 30
0.0
  0
LINE
  5
2DF
330
1F
100
AcDbEntity
  8
외형선
  6
Continuous
370
    15
100
AcDbLine
 10
-24.89984966415626
 20
0.5156264746048347
 30
0.0
 11
-24.89984966415626
 21
-3.891437804989169
 31
0.0
  0
SPLINE
  5
2E0
330
1F
100
AcDbEntity
  8
외형선
  6
Continuous
370
    15
100
AcDbSpline
210
0.0
220
0.0
230
1.0
 70
     8
 71
     3
 72
     8
 73
     4
 74
     0
 42
0.000000001
 43
0.00000001
 40
0.0
 40
0.0
 40
0.0
 40
0.0
 40
1.0
 40
1.0
 40
1.0
 40
1.0
 10
-25.39999999999999
 20
0.8004271327795932
 30
0.0
 10
-25.23325061223956
 20
0.7060010744455641
 30
0.0
 10
-25.06635232983099
 20
0.6109651500828727
 30
0.0
 10
-24.89984966415626
 20
0.5156301935566588
 30
0.0
  0
SPLINE
  5
2E1
330
1F
100
AcDbEntity
  8
외형선
  6
Continuous
370
    15
100
AcDbSpline
210
0.0
220
0.0
230
1.0
 70
     8
 71
     3
 72
     8
 73
     4
 74
     0
 42
0.000000001
 43
0.00000001
 40
0.0
 40
0.0
 40
0.0
 40
0.0
 40
1.0
 40
1.0
 40
1.0
 40
1.0
 10
-25.39999999999999
 20
2.23109228685639
 30
0.0
 10
-25.23325061223956
 20
2.148529186408954
 30
0.0
 10
-25.06635232983099
 20
2.064319714326293
 30
0.0
 10
-24.89984966415626
 20
1.978740928682919
 30
0.0
  0
LINE
  5
2E2
330
1F
100
AcDbEntity
  8
외형선
  6
Continuous
370
    15
100
AcDbLine
 10
-24.89984966415626
 20
4.365624999999995
 30
0.0
 11
-24.89984966415626
 21
1.978735315934406
 31
0.0
  0
SPLINE
  5
2E3
330
1F
100
AcDbEntity
  8
외형선
  6
Continuous
370
    15
100
AcDbSpline
210
0.0
220
0.0
230
1.0
 70
     8
 71
     3
 72
     8
 73
     4
 74
     0
 42
0.000000001
 43
0.00000001
 40
0.0
 40
0.0
 40
0.0
 40
0.0
 40
1.0
 40
1.0
 40
1.0
 40
1.0
 10
-25.39999999999999
 20
4.291619513159949
 30
0.0
 10
-25.23325061223956
 20
4.309230855195332
 30
0.0
 10
-25.06635232983099
 20
4.323727623783297
 30
0.0
 10
-24.89984966415626
 20
4.335067144130263
 30
0.0
  0
SPLINE
  5
2E4
330
1F
100
AcDbEntity
  8
외형선
  6
Continuous
370
    15
100
AcDbSpline
210
0.0
220
0.0
230
1.0
 70
    24
 71
     3
 72
    21
 73
    17
 74
     0
 42
0.000000001
 43
0.00000001
 40
0.0
 40
0.0
 40
0.0
 40
0.0
 40
0.0400398551866866
 40
0.1122432010637588
 40
0.1865404488626661
 40
0.2587437947397955
 40
0.3330410425387657
 40
0.4052443884158666
 40
0.4795416362148058
 40
0.5517449820919054
 40
0.626042229890843
 40
0.6982455757679402
 40
0.7725428235668756
 40
0.8447461694439798
 40
0.919043417242923
 40
1.0
 40
1.0
 40
1.0
 40
1.0
 10
-25.40000000000002
 20
0.7953414384853286
 30
0.0
 10
-25.40000000000002
 20
0.7877364173412165
 30
0.0
 10
-25.40000000000002
 20
0.7664173612808798
 30
0.0
 10
-25.40000000000002
 20
0.6524571054486439
 30
0.0
 10
-25.39999999999999
 20
0.4619525303666889
 30
0.0
 10
-25.39999999999999
 20
0.201798861736456
 30
0.0
 10
-25.40000000000011
 20
-0.1116806934324087
 30
0.0
 10
-25.39999999999996
 20
-0.4764029771305044
 30
0.0
 10
-25.40000000000011
 20
-0.875175095191266
 30
0.0
 10
-25.39999999999996
 20
-1.303962211265111
 30
0.0
 10
-25.40000000000008
 20
-1.742915072293805
 30
0.0
 10
-25.39999999999993
 20
-2.18741457844249
 30
0.0
 10
-25.39999999999999
 20
-2.617253136201011
 30
0.0
 10
-25.39999999999999
 20
-3.026595905528762
 30
0.0
 10
-25.40000000000008
 20
-3.41673649765462
 30
0.0
 10
-25.40000000000002
 20
-3.637393083112035
 30
0.0
 10
-25.39999999999999
 20
-3.752453710328132
 30
0.0
  0
SPLINE
  5
2E5
330
1F
100
AcDbEntity
  8
외형선
  6
Continuous
370
    15
100
AcDbSpline
210
0.0
220
0.0
230
1.0
 70
    24
 71
     3
 72
    12
 73
     8
 74
     0
 42
0.000000001
 43
0.00000001
 40
0.0
 40
0.0
 40
0.0
 40
0.0
 40
0.1936659683958601
 40
0.3924238556614361
 40
0.5953474002716288
 40
0.8041557414225284
 40
1.0
 40
1.0
 40
1.0
 40
1.0
 10
-25.39999999999999
 20
4.291619513159946
 30
0.0
 10
-25.39999999999999
 20
4.153335567180621
 30
0.0
 10
-25.40000000000002
 20
3.873131875707254
 30
0.0
 10
-25.40000000000008
 20
3.448219752689029
 30
0.0
 10
-25.39999999999999
 20
3.028464330475428
 30
0.0
 10
-25.39999999999996
 20
2.633224384774576
 30
0.0
 10
-25.39999999999999
 20
2.403595275934517
 30
0.0
 10
-25.40000000000002
 20
2.292459099869482
 30
0.0
  0
LINE
  5
33A
330
1F
100
AcDbEntity
  8
외형선
  6
Continuous
370
    15
100
AcDbLine
 10
-3.568700000000131
 20
3.492500000000021
 30
0.0
 11
3.568699999999996
 21
3.492500000000021
 31
0.0
  0
LINE
  5
33B
330
1F
100
AcDbEntity
  8
외형선
  6
Continuous
370
    15
100
AcDbLine
 10
-3.568700000000131
 20
3.492500000000021
 30
0.0
 11
-4.838700000000113
 21
4.762500000000003
 31
0.0
  0
LINE
  5
33C
330
1F
100
AcDbEntity
  8
외형선
  6
Continuous
370
    15
100
AcDbLine
 10
3.568699999999996
 20
3.492500000000021
 30
0.0
 11
4.838700000000092
 21
4.762500000000003
 31
0.0
  0
LINE
  5
33E
330
1F
100
AcDbEntity
  8
외형선
  6
Continuous
370
    15
100
AcDbLine
 10
-4.838700000000127
 20
4.762500000000002
 30
0.0
 11
-22.91884233574611
 21
4.762500000000002
 31
0.0
  0
ENDSEC
  0
SECTION
  2
OBJECTS
  0
DICTIONARY
  5
C
330
0
100
AcDbDictionary
281
     1
  3
ACAD_GROUP
350
D
  3
ACAD_IMAGE_VARS
350
150
  3
ACAD_LAYOUT
350
1A
  3
ACAD_MLINESTYLE
350
17
  3
ACAD_PLOTSETTINGS
350
19
  3
ACAD_PLOTSTYLENAME
350
E
  3
ACAD_SCALELIST
350
47
  3
APPDATA
350
14E
  3
DWGPROPS
350
363
  0
DICTIONARY
  5
20A
330
2
100
AcDbDictionary
280
     1
281
     1
  3
ACAD_LAYERSTATES
360
20B
  0
DICTIONARY
  5
361
330
1F
100
AcDbDictionary
280
     1
281
     1
  3
DIM_BOUNDING_BOXES_V1
360
362
  0
DICTIONARY
  5
D
102
{ACAD_REACTORS
330
C
102
}
330
C
100
AcDbDictionary
281
     1
  0
RASTERVARIABLES
  5
150
102
{ACAD_REACTORS
330
C
102
}
330
C
100
AcDbRasterVariables
 90
        0
 70
     1
 71
     1
 72
     1
  0
DICTIONARY
  5
1A
102
{ACAD_REACTORS
330
C
102
}
330
C
100
AcDbDictionary
281
     1
  3
Layout1
350
1E
  3
Layout2
350
26
  3
Model
350
22
  0
DICTIONARY
  5
17
102
{ACAD_REACTORS
330
C
102
}
330
C
100
AcDbDictionary
281
     1
  3
Standard
350
18
  0
DICTIONARY
  5
19
102
{ACAD_REACTORS
330
C
102
}
330
C
100
AcDbDictionary
281
     1
  0
ACDBDICTIONARYWDFLT
  5
E
102
{ACAD_REACTORS
330
C
102
}
330
C
100
AcDbDictionary
281
     1
  3
Normal
350
F
100
AcDbDictionaryWithDefault
340
F
  0
DICTIONARY
  5
47
102
{ACAD_REACTORS
330
C
102
}
330
C
100
AcDbDictionary
281
     1
  3
A0
350
48
  3
A1
350
49
  3
A2
350
4A
  3
A3
350
4B
  3
A4
350
4C
  3
A5
350
4D
  3
A6
350
4E
  3
A7
350
4F
  3
A8
350
50
  3
A9
350
51
  3
B0
350
52
  3
B1
350
53
  3
B2
350
54
  3
B3
350
55
  3
B4
350
56
  3
B5
350
57
  3
B6
350
58
  3
B7
350
59
  3
B8
350
5A
  3
B9
350
5B
  3
C0
350
5C
  3
C1
350
5D
  3
C2
350
5E
  3
C3
350
5F
  3
C4
350
60
  3
C5
350
61
  3
C6
350
62
  3
C7
350
63
  3
C8
350
64
  3
C9
350
65
  3
D0
350
66
  3
D1
350
67
  3
D2
350
68
  0
DICTIONARY
  5
14E
102
{ACAD_REACTORS
330
C
102
}
330
C
100
AcDbDictionary
281
     1
  0
XRECORD
  5
363
102
{ACAD_REACTORS
330
C
102
}
330
C
100
AcDbXrecord
280
     1
  1
DWGPROPS COOKIE
  2

  3

  4

  6

  7

  8
12011056
  9

300
=
301
=
302
=
303
=
304
=
305
=
306
=
307
=
308
=
309
=
 40
0.0
 41
2458313.126508252
 42
2459719.277090718
  1

 90
        0
  0
DICTIONARY
  5
20B
102
{ACAD_REACTORS
330
20A
102
}
330
20A
100
AcDbDictionary
281
     1
  0
DICTIONARY
  5
362
102
{ACAD_REACTORS
330
361
102
}
330
361
100
AcDbDictionary
281
     1
  0
LAYOUT
  5
1E
102
{ACAD_REACTORS
330
1A
102
}
330
1A
100
AcDbPlotSettings
  1

  2
none_device
  4

  6

 40
0.0
 41
0.0
 42
0.0
 43
0.0
 44
0.0
 45
0.0
 46
0.0
 47
0.0
 48
0.0
 49
0.0
140
0.0
141
0.0
142
1.0
143
1.0
 70
   688
 72
     1
 73
     0
 74
     5
  7

 75
    16
147
1.0
148
0.0
149
0.0
100
AcDbLayout
  1
Layout1
 70
     1
 71
     1
 10
0.0
 20
0.0
 11
420.0
 21
297.0
 12
0.0
 22
0.0
 32
0.0
 14
1.000000000000000E+20
 24
1.000000000000000E+20
 34
1.000000000000000E+20
 15
-1.000000000000000E+20
 25
-1.000000000000000E+20
 35
-1.000000000000000E+20
146
0.0
 13
0.0
 23
0.0
 33
0.0
 16
1.0
 26
0.0
 36
0.0
 17
0.0
 27
1.0
 37
0.0
 76
     0
330
1B
  0
LAYOUT
  5
26
102
{ACAD_REACTORS
330
1A
102
}
330
1A
100
AcDbPlotSettings
  1

  2
none_device
  4

  6

 40
0.0
 41
0.0
 42
0.0
 43
0.0
 44
0.0
 45
0.0
 46
0.0
 47
0.0
 48
0.0
 49
0.0
140
0.0
141
0.0
142
1.0
143
1.0
 70
   688
 72
     1
 73
     0
 74
     5
  7

 75
    16
147
1.0
148
0.0
149
0.0
100
AcDbLayout
  1
Layout2
 70
     1
 71
     2
 10
0.0
 20
0.0
 11
0.0
 21
0.0
 12
0.0
 22
0.0
 32
0.0
 14
0.0
 24
0.0
 34
0.0
 15
0.0
 25
0.0
 35
0.0
146
0.0
 13
0.0
 23
0.0
 33
0.0
 16
1.0
 26
0.0
 36
0.0
 17
0.0
 27
1.0
 37
0.0
 76
     0
330
23
  0
LAYOUT
  5
22
102
{ACAD_REACTORS
330
1A
102
}
330
1A
100
AcDbPlotSettings
  1

  2
none_device
  4
ANSI_A_(11.00_x_8.50_Inches)
  6

 40
6.35
 41
19.05
 42
6.35000508
 43
19.05000254
 44
279.4
 45
215.9
 46
76.40317549079083
 47
81.11598022881412
 48
0.0
 49
0.0
140
0.0
141
0.0
142
0.0509944409367187
143
1.0
 70
  1696
 72
     0
 73
     0
 74
     0
  7

 75
     0
147
0.0235690232323232
148
0.0
149
0.0
100
AcDbLayout
  1
Model
 70
     1
 71
     0
 10
0.0
 20
0.0
 11
420.0
 21
297.0
 12
0.0
 22
0.0
 32
0.0
 14
-61.02400562884051
 24
-39.99892507127611
 34
0.0
 15
81.4193644723612
 25
56.31498975661525
 35
0.0
146
0.0
 13
0.0
 23
0.0
 33
0.0
 16
1.0
 26
0.0
 36
0.0
 17
0.0
 27
1.0
 37
0.0
 76
     0
330
1F
331
29
  0
MLINESTYLE
  5
18
102
{ACAD_REACTORS
330
17
102
}
330
17
100
AcDbMlineStyle
  2
Standard
 70
     0
  3

 62
   256
 51
90.0
 52
90.0
 71
     2
 49
0.5
 62
   256
  6
BYLAYER
 49
-0.5
 62
   256
  6
BYLAYER
  0
ACDBPLACEHOLDER
  5
F
102
{ACAD_REACTORS
330
E
102
}
330
E
  0
SCALE
  5
48
102
{ACAD_REACTORS
330
47
102
}
330
47
100
AcDbScale
 70
     0
300
1:1
140
1.0
141
1.0
290
     1
  0
SCALE
  5
49
102
{ACAD_REACTORS
330
47
102
}
330
47
100
AcDbScale
 70
     0
300
1:2
140
1.0
141
2.0
290
     0
  0
SCALE
  5
4A
102
{ACAD_REACTORS
330
47
102
}
330
47
100
AcDbScale
 70
     0
300
1:4
140
1.0
141
4.0
290
     0
  0
SCALE
  5
4B
102
{ACAD_REACTORS
330
47
102
}
330
47
100
AcDbScale
 70
     0
300
1:5
140
1.0
141
5.0
290
     0
  0
SCALE
  5
4C
102
{ACAD_REACTORS
330
47
102
}
330
47
100
AcDbScale
 70
     0
300
1:8
140
1.0
141
8.0
290
     0
  0
SCALE
  5
4D
102
{ACAD_REACTORS
330
47
102
}
330
47
100
AcDbScale
 70
     0
300
1:10
140
1.0
141
10.0
290
     0
  0
SCALE
  5
4E
102
{ACAD_REACTORS
330
47
102
}
330
47
100
AcDbScale
 70
     0
300
1:16
140
1.0
141
16.0
290
     0
  0
SCALE
  5
4F
102
{ACAD_REACTORS
330
47
102
}
330
47
100
AcDbScale
 70
     0
300
1:20
140
1.0
141
20.0
290
     0
  0
SCALE
  5
50
102
{ACAD_REACTORS
330
47
102
}
330
47
100
AcDbScale
 70
     0
300
1:30
140
1.0
141
30.0
290
     0
  0
SCALE
  5
51
102
{ACAD_REACTORS
330
47
102
}
330
47
100
AcDbScale
 70
     0
300
1:40
140
1.0
141
40.0
290
     0
  0
SCALE
  5
52
102
{ACAD_REACTORS
330
47
102
}
330
47
100
AcDbScale
 70
     0
300
1:50
140
1.0
141
50.0
290
     0
  0
SCALE
  5
53
102
{ACAD_REACTORS
330
47
102
}
330
47
100
AcDbScale
 70
     0
300
1:100
140
1.0
141
100.0
290
     0
  0
SCALE
  5
54
102
{ACAD_REACTORS
330
47
102
}
330
47
100
AcDbScale
 70
     0
300
2:1
140
2.0
141
1.0
290
     0
  0
SCALE
  5
55
102
{ACAD_REACTORS
330
47
102
}
330
47
100
AcDbScale
 70
     0
300
4:1
140
4.0
141
1.0
290
     0
  0
SCALE
  5
56
102
{ACAD_REACTORS
330
47
102
}
330
47
100
AcDbScale
 70
     0
300
8:1
140
8.0
141
1.0
290
     0
  0
SCALE
  5
57
102
{ACAD_REACTORS
330
47
102
}
330
47
100
AcDbScale
 70
     0
300
10:1
140
10.0
141
1.0
290
     0
  0
SCALE
  5
58
102
{ACAD_REACTORS
330
47
102
}
330
47
100
AcDbScale
 70
     0
300
100:1
140
100.0
141
1.0
290
     0
  0
SCALE
  5
59
102
{ACAD_REACTORS
330
47
102
}
330
47
100
AcDbScale
 70
     0
300
1/128" = 1'-0"
140
0.0078125
141
12.0
290
     0
  0
SCALE
  5
5A
102
{ACAD_REACTORS
330
47
102
}
330
47
100
AcDbScale
 70
     0
300
1/64" = 1'-0"
140
0.015625
141
12.0
290
     0
  0
SCALE
  5
5B
102
{ACAD_REACTORS
330
47
102
}
330
47
100
AcDbScale
 70
     0
300
1/32" = 1'-0"
140
0.03125
141
12.0
290
     0
  0
SCALE
  5
5C
102
{ACAD_REACTORS
330
47
102
}
330
47
100
AcDbScale
 70
     0
300
1/16" = 1'-0"
140
0.0625
141
12.0
290
     0
  0
SCALE
  5
5D
102
{ACAD_REACTORS
330
47
102
}
330
47
100
AcDbScale
 70
     0
300
3/32" = 1'-0"
140
0.09375
141
12.0
290
     0
  0
SCALE
  5
5E
102
{ACAD_REACTORS
330
47
102
}
330
47
100
AcDbScale
 70
     0
300
1/8" = 1'-0"
140
0.125
141
12.0
290
     0
  0
SCALE
  5
5F
102
{ACAD_REACTORS
330
47
102
}
330
47
100
AcDbScale
 70
     0
300
3/16" = 1'-0"
140
0.1875
141
12.0
290
     0
  0
SCALE
  5
60
102
{ACAD_REACTORS
330
47
102
}
330
47
100
AcDbScale
 70
     0
300
1/4" = 1'-0"
140
0.25
141
12.0
290
     0
  0
SCALE
  5
61
102
{ACAD_REACTORS
330
47
102
}
330
47
100
AcDbScale
 70
     0
300
3/8" = 1'-0"
140
0.375
141
12.0
290
     0
  0
SCALE
  5
62
102
{ACAD_REACTORS
330
47
102
}
330
47
100
AcDbScale
 70
     0
300
1/2" = 1'-0"
140
0.5
141
12.0
290
     0
  0
SCALE
  5
63
102
{ACAD_REACTORS
330
47
102
}
330
47
100
AcDbScale
 70
     0
300
3/4" = 1'-0"
140
0.75
141
12.0
290
     0
  0
SCALE
  5
64
102
{ACAD_REACTORS
330
47
102
}
330
47
100
AcDbScale
 70
     0
300
1" = 1'-0"
140
1.0
141
12.0
290
     0
  0
SCALE
  5
65
102
{ACAD_REACTORS
330
47
102
}
330
47
100
AcDbScale
 70
     0
300
1-1/2" = 1'-0"
140
1.5
141
12.0
290
     0
  0
SCALE
  5
66
102
{ACAD_REACTORS
330
47
102
}
330
47
100
AcDbScale
 70
     0
300
3" = 1'-0"
140
3.0
141
12.0
290
     0
  0
SCALE
  5
67
102
{ACAD_REACTORS
330
47
102
}
330
47
100
AcDbScale
 70
     0
300
6" = 1'-0"
140
6.0
141
12.0
290
     0
  0
SCALE
  5
68
102
{ACAD_REACTORS
330
47
102
}
330
47
100
AcDbScale
 70
     0
300
1'-0" = 1'-0"
140
12.0
141
12.0
290
     0
  0
ENDSEC
  0
EOF
