  0
SECTION
  2
HEADER
  9
$ACADVER
  1
AC1015
  9
$ACADMAINTVER
 70
     6
  9
$DWGCODEPAGE
  3
ANSI_949
  9
$INSBASE
 10
0.0
 20
0.0
 30
0.0
  9
$EXTMIN
 10
-57.4802464057306
 20
-39.9989250712761
 30
0.0
  9
$EXTMAX
 10
81.41936447236121
 20
55.52415869958965
 30
0.0
  9
$LIMMIN
 10
0.0
 20
0.0
  9
$LIMMAX
 10
420.0
 20
297.0
  9
$ORTHOMODE
 70
     0
  9
$REGENMODE
 70
     1
  9
$FILLMODE
 70
     1
  9
$QTEXTMODE
 70
     0
  9
$MIRRTEXT
 70
     1
  9
$LTSCALE
 40
1.0
  9
$ATTMODE
 70
     1
  9
$TEXTSIZE
 40
3.5
  9
$TRACEWID
 40
1.0
  9
$TEXTSTYLE
  7
Standard
  9
$CLAYER
  8
0
  9
$CELTYPE
  6
ByLayer
  9
$CECOLOR
 62
   256
  9
$CELTSCALE
 40
1.0
  9
$DISPSILH
 70
     0
  9
$DIMSCALE
 40
1.0
  9
$DIMASZ
 40
3.302
  9
$DIMEXO
 40
1.0
  9
$DIMDLI
 40
3.75
  9
$DIMRND
 40
0.0
  9
$DIMDLE
 40
0.0
  9
$DIMEXE
 40
1.0
  9
$DIMTP
 40
0.0
  9
$DIMTM
 40
0.0
  9
$DIMTXT
 40
3.5
  9
$DIMCEN
 40
2.5
  9
$DIMTSZ
 40
0.0
  9
$DIMTOL
 70
     0
  9
$DIMLIM
 70
     0
  9
$DIMTIH
 70
     1
  9
$DIMTOH
 70
     1
  9
$DIMSE1
 70
     0
  9
$DIMSE2
 70
     0
  9
$DIMTAD
 70
     1
  9
$DIMZIN
 70
     0
  9
$DIMBLK
  1

  9
$DIMASO
 70
     1
  9
$DIMSHO
 70
     1
  9
$DIMPOST
  1

  9
$DIMAPOST
  1

  9
$DIMALT
 70
     0
  9
$DIMALTD
 70
     3
  9
$DIMALTF
 40
0.0393700787401575
  9
$DIMLFAC
 40
1.0
  9
$DIMTOFL
 70
     1
  9
$DIMTVP
 40
0.0
  9
$DIMTIX
 70
     0
  9
$DIMSOXD
 70
     0
  9
$DIMSAH
 70
     0
  9
$DIMBLK1
  1

  9
$DIMBLK2
  1

  9
$DIMSTYLE
  2
ISO-25
  9
$DIMCLRD
 70
     0
  9
$DIMCLRE
 70
     0
  9
$DIMCLRT
 70
     0
  9
$DIMTFAC
 40
1.0
  9
$DIMGAP
 40
1.524
  9
$DIMJUST
 70
     0
  9
$DIMSD1
 70
     0
  9
$DIMSD2
 70
     0
  9
$DIMTOLJ
 70
     0
  9
$DIMTZIN
 70
     0
  9
$DIMALTZ
 70
     0
  9
$DIMALTTZ
 70
     0
  9
$DIMUPT
 70
     0
  9
$DIMDEC
 70
     2
  9
$DIMTDEC
 70
     2
  9
$DIMALTU
 70
     2
  9
$DIMALTTD
 70
     3
  9
$DIMTXSTY
  7
Standard
  9
$DIMAUNIT
 70
     0
  9
$DIMADEC
 70
     2
  9
$DIMALTRND
 40
0.0
  9
$DIMAZIN
 70
     0
  9
$DIMDSEP
 70
    44
  9
$DIMATFIT
 70
     3
  9
$DIMFRAC
 70
     0
  9
$DIMLDRBLK
  1

  9
$DIMLUNIT
 70
     2
  9
$DIMLWD
 70
    -2
  9
$DIMLWE
 70
    -2
  9
$DIMTMOVE
 70
     0
  9
$LUNITS
 70
     2
  9
$LUPREC
 70
     2
  9
$SKETCHINC
 40
1.0
  9
$FILLETRAD
 40
10.0
  9
$AUNITS
 70
     0
  9
$AUPREC
 70
     2
  9
$MENU
  1
.
  9
$ELEVATION
 40
0.0
  9
$PELEVATION
 40
0.0
  9
$THICKNESS
 40
0.0
  9
$LIMCHECK
 70
     0
  9
$CHAMFERA
 40
0.0
  9
$CHAMFERB
 40
0.0
  9
$CHAMFERC
 40
0.0
  9
$CHAMFERD
 40
0.0
  9
$SKPOLY
 70
     0
  9
$TDCREATE
 40
2458313.501083947
  9
$TDUCREATE
 40
2458313.126083947
  9
$TDUPDATE
 40
2459719.651517546
  9
$TDUUPDATE
 40
2459719.276517546
  9
$TDINDWG
 40
0.0006620718
  9
$TDUSRTIMER
 40
0.0001456134
  9
$USRTIMER
 70
     1
  9
$ANGBASE
 50
0.0
  9
$ANGDIR
 70
     0
  9
$PDMODE
 70
     0
  9
$PDSIZE
 40
-1.0
  9
$PLINEWID
 40
0.0
  9
$SPLFRAME
 70
     0
  9
$SPLINETYPE
 70
     6
  9
$SPLINESEGS
 70
     8
  9
$HANDSEED
  5
369
  9
$SURFTAB1
 70
     6
  9
$SURFTAB2
 70
     6
  9
$SURFTYPE
 70
     6
  9
$SURFU
 70
     6
  9
$SURFV
 70
     6
  9
$UCSBASE
  2

  9
$UCSNAME
  2

  9
$UCSORG
 10
0.0
 20
0.0
 30
0.0
  9
$UCSXDIR
 10
1.0
 20
0.0
 30
0.0
  9
$UCSYDIR
 10
0.0
 20
1.0
 30
0.0
  9
$UCSORTHOREF
  2

  9
$UCSORTHOVIEW
 70
     0
  9
$UCSORGTOP
 10
0.0
 20
0.0
 30
0.0
  9
$UCSORGBOTTOM
 10
0.0
 20
0.0
 30
0.0
  9
$UCSORGLEFT
 10
0.0
 20
0.0
 30
0.0
  9
$UCSORGRIGHT
 10
0.0
 20
0.0
 30
0.0
  9
$UCSORGFRONT
 10
0.0
 20
0.0
 30
0.0
  9
$UCSORGBACK
 10
0.0
 20
0.0
 30
0.0
  9
$PUCSBASE
  2

  9
$PUCSNAME
  2

  9
$PUCSORG
 10
0.0
 20
0.0
 30
0.0
  9
$PUCSXDIR
 10
1.0
 20
0.0
 30
0.0
  9
$PUCSYDIR
 10
0.0
 20
1.0
 30
0.0
  9
$PUCSORTHOREF
  2

  9
$PUCSORTHOVIEW
 70
     0
  9
$PUCSORGTOP
 10
0.0
 20
0.0
 30
0.0
  9
$PUCSORGBOTTOM
 10
0.0
 20
0.0
 30
0.0
  9
$PUCSORGLEFT
 10
0.0
 20
0.0
 30
0.0
  9
$PUCSORGRIGHT
 10
0.0
 20
0.0
 30
0.0
  9
$PUCSORGFRONT
 10
0.0
 20
0.0
 30
0.0
  9
$PUCSORGBACK
 10
0.0
 20
0.0
 30
0.0
  9
$USERI1
 70
     0
  9
$USERI2
 70
     0
  9
$USERI3
 70
     0
  9
$USERI4
 70
     0
  9
$USERI5
 70
     0
  9
$USERR1
 40
0.0
  9
$USERR2
 40
0.0
  9
$USERR3
 40
0.0
  9
$USERR4
 40
0.0
  9
$USERR5
 40
0.0
  9
$WORLDVIEW
 70
     1
  9
$SHADEDGE
 70
     3
  9
$SHADEDIF
 70
    70
  9
$TILEMODE
 70
     1
  9
$MAXACTVP
 70
    64
  9
$PINSBASE
 10
0.0
 20
0.0
 30
0.0
  9
$PLIMCHECK
 70
     0
  9
$PEXTMIN
 10
1.000000000000000E+20
 20
1.000000000000000E+20
 30
1.000000000000000E+20
  9
$PEXTMAX
 10
-1.000000000000000E+20
 20
-1.000000000000000E+20
 30
-1.000000000000000E+20
  9
$PLIMMIN
 10
0.0
 20
0.0
  9
$PLIMMAX
 10
0.0
 20
0.0
  9
$UNITMODE
 70
     0
  9
$VISRETAIN
 70
     1
  9
$PLINEGEN
 70
     0
  9
$PSLTSCALE
 70
     1
  9
$TREEDEPTH
 70
  3020
  9
$CMLSTYLE
  2
Standard
  9
$CMLJUST
 70
     0
  9
$CMLSCALE
 40
20.0
  9
$PROXYGRAPHICS
 70
     1
  9
$MEASUREMENT
 70
     1
  9
$CELWEIGHT
370
    -1
  9
$ENDCAPS
280
     0
  9
$JOINSTYLE
280
     0
  9
$LWDISPLAY
290
     1
  9
$INSUNITS
 70
     4
  9
$HYPERLINKBASE
  1

  9
$STYLESHEET
  1

  9
$XEDIT
290
     1
  9
$CEPSNTYPE
380
     0
  9
$PSTYLEMODE
290
     1
  9
$FINGERPRINTGUID
  2
{BE5967E8-D9FF-44F7-87AB-9AAE70FCB127}
  9
$VERSIONGUID
  2
{FAEB1C32-E019-11D5-929B-00C0DF256EC4}
  9
$EXTNAMES
290
     1
  9
$PSVPSCALE
 40
0.0
  9
$OLESTARTUP
290
     0
  0
ENDSEC
  0
SECTION
  2
CLASSES
  0
CLASS
  1
ACDBDICTIONARYWDFLT
  2
AcDbDictionaryWithDefault
  3
ObjectDBX Classes
 90
        0
280
     0
281
     0
  0
CLASS
  1
VISUALSTYLE
  2
AcDbVisualStyle
  3
ObjectDBX Classes
 90
     4095
280
     0
281
     0
  0
CLASS
  1
MATERIAL
  2
AcDbMaterial
  3
ObjectDBX Classes
 90
     1153
280
     0
281
     0
  0
CLASS
  1
SCALE
  2
AcDbScale
  3
ObjectDBX Classes
 90
     1153
280
     0
281
     0
  0
CLASS
  1
SUN
  2
AcDbSun
  3
SCENEOE
 90
     1153
280
     0
281
     0
  0
CLASS
  1
ACDBPLACEHOLDER
  2
AcDbPlaceHolder
  3
ObjectDBX Classes
 90
        0
280
     0
281
     0
  0
CLASS
  1
LAYOUT
  2
AcDbLayout
  3
ObjectDBX Classes
 90
        0
280
     0
281
     0
  0
CLASS
  1
TABLESTYLE
  2
AcDbTableStyle
  3
ObjectDBX Classes
 90
     4095
280
     0
281
     0
  0
CLASS
  1
MLEADERSTYLE
  2
AcDbMLeaderStyle
  3
ACDB_MLEADERSTYLE_CLASS
 90
     4095
280
     0
281
     0
  0
CLASS
  1
RASTERVARIABLES
  2
AcDbRasterVariables
  3
ISM
 90
        0
280
     0
281
     0
  0
ENDSEC
  0
SECTION
  2
TABLES
  0
TABLE
  2
VPORT
  5
8
330
0
100
AcDbSymbolTable
 70
     1
  0
VPORT
  5
29
330
8
100
AcDbSymbolTableRecord
100
AcDbViewportTableRecord
  2
*Active
 70
     0
 10
0.0
 20
0.0
 11
1.0
 21
1.0
 12
3.507796161187414
 22
8.806643931960192
 13
0.0
 23
0.0
 14
10.0
 24
10.0
 15
10.0
 25
10.0
 16
0.0
 26
0.0
 36
1.0
 17
0.0
 27
0.0
 37
0.0
 40
120.6120441301941
 41
1.519944979367263
 42
50.0
 43
0.0
 44
0.0
 50
0.0
 51
0.0
 71
    16
 72
  2000
 73
     1
 74
     3
 75
     0
 76
     0
 77
     0
 78
     0
281
     0
 65
     1
110
0.0
120
0.0
130
0.0
111
1.0
121
0.0
131
0.0
112
0.0
122
1.0
132
0.0
 79
     0
146
0.0
  0
ENDTAB
  0
TABLE
  2
LTYPE
  5
5
330
0
100
AcDbSymbolTable
 70
     6
  0
LTYPE
  5
14
330
5
100
AcDbSymbolTableRecord
100
AcDbLinetypeTableRecord
  2
ByBlock
 70
     0
  3

 72
    65
 73
     0
 40
0.0
  0
LTYPE
  5
15
330
5
100
AcDbSymbolTableRecord
100
AcDbLinetypeTableRecord
  2
ByLayer
 70
     0
  3

 72
    65
 73
     0
 40
0.0
  0
LTYPE
  5
16
330
5
100
AcDbSymbolTableRecord
100
AcDbLinetypeTableRecord
  2
Continuous
 70
     0
  3
Solid line
 72
    65
 73
     0
 40
0.0
  0
LTYPE
  5
6A
330
5
100
AcDbSymbolTableRecord
100
AcDbLinetypeTableRecord
  2
HIDDEN
 70
     0
  3
Hidden __ __ __ __ __ __ __ __ __ __ __ __ __ __
 72
    65
 73
     2
 40
1.905
 49
1.27
 74
     0
 49
-0.635
 74
     0
  0
LTYPE
  5
6B
330
5
100
AcDbSymbolTableRecord
100
AcDbLinetypeTableRecord
  2
PHANTOM
 70
     0
  3
Phantom ______  __  __  ______  __  __  ______
 72
    65
 73
     6
 40
12.7
 49
6.35
 74
     0
 49
-1.27
 74
     0
 49
1.27
 74
     0
 49
-1.27
 74
     0
 49
1.27
 74
     0
 49
-1.27
 74
     0
  0
LTYPE
  5
6C
330
5
100
AcDbSymbolTableRecord
100
AcDbLinetypeTableRecord
  2
CENTER
 70
     0
  3
Center ____ _ ____ _ ____ _ ____ _ ____ _ ____
 72
    65
 73
     4
 40
10.16
 49
6.35
 74
     0
 49
-1.27
 74
     0
 49
1.27
 74
     0
 49
-1.27
 74
     0
  0
LTYPE
  5
6D
330
5
100
AcDbSymbolTableRecord
100
AcDbLinetypeTableRecord
  2
CENTERX2
 70
     0
  3
Center (2x) ________  __  ________  __  _____
 72
    65
 73
     4
 40
20.32
 49
12.7
 74
     0
 49
-2.54
 74
     0
 49
2.54
 74
     0
 49
-2.54
 74
     0
  0
LTYPE
  5
6E
330
5
100
AcDbSymbolTableRecord
100
AcDbLinetypeTableRecord
  2
DOT2
 70
     0
  3
Dot (.5x) ........................................
 72
    65
 73
     2
 40
0.635
 49
0.0
 74
     0
 49
-0.635
 74
     0
  0
ENDTAB
  0
TABLE
  2
LAYER
  5
2
102
{ACAD_XDICTIONARY
360
209
102
}
330
0
100
AcDbSymbolTable
 70
    18
  0
LAYER
  5
10
330
2
100
AcDbSymbolTableRecord
100
AcDbLayerTableRecord
  2
0
 70
     0
 62
     7
  6
Continuous
370
    -3
390
F
  0
LAYER
  5
6F
330
2
100
AcDbSymbolTableRecord
100
AcDbLayerTableRecord
  2
FORMAT
 70
     0
 62
     2
  6
Continuous
370
    -3
390
F
  0
LAYER
  5
70
330
2
100
AcDbSymbolTableRecord
100
AcDbLayerTableRecord
  2
외형선
 70
     0
 62
     4
  6
Continuous
370
    30
390
F
  0
LAYER
  5
71
330
2
100
AcDbSymbolTableRecord
100
AcDbLayerTableRecord
  2
숨은선
 70
     0
 62
     2
  6
HIDDEN
370
    15
390
F
  0
LAYER
  5
72
330
2
100
AcDbSymbolTableRecord
100
AcDbLayerTableRecord
  2
중심선
 70
     0
 62
     1
  6
CENTERX2
370
    -3
390
F
  0
LAYER
  5
73
330
2
100
AcDbSymbolTableRecord
100
AcDbLayerTableRecord
  2
파단선
 70
     0
 62
     4
  6
Continuous
370
    -3
390
F
  0
LAYER
  5
74
330
2
100
AcDbSymbolTableRecord
100
AcDbLayerTableRecord
  2
해칭선
 70
     0
 62
   100
  6
Continuous
370
    -3
390
F
  0
LAYER
  5
75
330
2
100
AcDbSymbolTableRecord
100
AcDbLayerTableRecord
  2
가는실선
 70
     0
 62
     4
  6
Continuous
370
    -3
390
F
  0
LAYER
  5
76
330
2
100
AcDbSymbolTableRecord
100
AcDbLayerTableRecord
  2
치수_보조선
 70
     0
 62
     4
  6
Continuous
370
    -3
390
F
  0
LAYER
  5
77
330
2
100
AcDbSymbolTableRecord
100
AcDbLayerTableRecord
  2
치수문자_일반주서
 70
     0
 62
     7
  6
Continuous
370
    15
390
F
  0
LAYER
  5
78
330
2
100
AcDbSymbolTableRecord
100
AcDbLayerTableRecord
  2
개별주서
 70
     0
 62
   100
  6
Continuous
370
    30
390
F
  0
LAYER
  5
79
330
2
100
AcDbSymbolTableRecord
100
AcDbLayerTableRecord
  2
중간선
 70
     0
 62
     2
  6
Continuous
370
    15
390
F
  0
LAYER
  5
7A
330
2
100
AcDbSymbolTableRecord
100
AcDbLayerTableRecord
  2
윤곽선
 70
     0
 62
     3
  6
Continuous
370
    40
390
F
  0
LAYER
  5
7B
330
2
100
AcDbSymbolTableRecord
100
AcDbLayerTableRecord
  2
중심마크
 70
     0
 62
   100
  6
Continuous
370
    30
390
F
  0
LAYER
  5
7C
330
2
100
AcDbSymbolTableRecord
100
AcDbLayerTableRecord
  2
가상선
 70
     0
 62
     4
  6
PHANTOM
370
    -3
390
F
  0
LAYER
  5
7D
330
2
100
AcDbSymbolTableRecord
100
AcDbLayerTableRecord
  2
특수지정선
 70
     0
 62
     5
  6
CENTERX2
370
    60
390
F
  0
LAYER
  5
7E
330
2
100
AcDbSymbolTableRecord
100
AcDbLayerTableRecord
  2
참조1
 70
     0
 62
    -4
  6
Continuous
370
    -3
390
F
  0
LAYER
  5
151
330
2
100
AcDbSymbolTableRecord
100
AcDbLayerTableRecord
  2
Defpoints
 70
     0
 62
     7
  6
Continuous
290
     0
370
    -3
390
F
  0
ENDTAB
  0
TABLE
  2
STYLE
  5
3
330
0
100
AcDbSymbolTable
 70
     2
  0
STYLE
  5
11
330
3
100
AcDbSymbolTableRecord
100
AcDbTextStyleTableRecord
  2
Standard
 70
     0
 40
0.0
 41
1.0
 50
0.0
 71
     0
 42
3.5
  3
txt
  4

  0
STYLE
  5
94
330
3
100
AcDbSymbolTableRecord
100
AcDbTextStyleTableRecord
  2
SLDTEXTSTYLE0
 70
     0
 40
0.0
 41
0.75
 50
0.0
 71
     0
 42
3.5
  3
TXT
  4

  0
ENDTAB
  0
TABLE
  2
VIEW
  5
6
330
0
100
AcDbSymbolTable
 70
     0
  0
ENDTAB
  0
TABLE
  2
UCS
  5
7
330
0
100
AcDbSymbolTable
 70
     0
  0
ENDTAB
  0
TABLE
  2
APPID
  5
9
330
0
100
AcDbSymbolTable
 70
     3
  0
APPID
  5
12
330
9
100
AcDbSymbolTableRecord
100
AcDbRegAppTableRecord
  2
ACAD
 70
     0
  0
APPID
  5
15D
330
9
100
AcDbSymbolTableRecord
100
AcDbRegAppTableRecord
  2
PE_URL
 70
     0
  0
APPID
  5
15E
330
9
100
AcDbSymbolTableRecord
100
AcDbRegAppTableRecord
  2
ACAD_DSTYLE_DIMRADIAL_EXTENSION
 70
     0
  0
ENDTAB
  0
TABLE
  2
DIMSTYLE
  5
A
330
0
100
AcDbSymbolTable
 70
     4
100
AcDbDimStyleTable
  0
DIMSTYLE
105
27
330
A
100
AcDbSymbolTableRecord
100
AcDbDimStyleTableRecord
  2
ISO-25
 70
     0
 41
2.5
 42
0.625
 43
3.75
 44
1.25
 73
     0
 74
     0
 77
     1
 78
     8
140
2.5
141
2.5
143
0.03937007874016
147
0.625
171
     3
172
     1
178
     0
271
     2
272
     2
274
     3
278
    44
283
     0
284
     8
340
11
  0
DIMSTYLE
105
CE
102
{ACAD_REACTORS
330
CD
330
10A
330
E2
330
F7
102
}
330
A
100
AcDbSymbolTableRecord
100
AcDbDimStyleTableRecord
  2
SLDDIMSTYLE0
 70
     0
 41
3.302
 44
0.0
 45
0.000000001
 73
     0
 74
     0
 77
     1
 78
    12
 79
     3
140
3.5
143
0.0393700787401575
147
0.875
148
0.000000001
170
     1
172
     1
173
     1
178
     0
271
     2
272
     2
276
     2
284
    12
289
     0
340
94
  0
DIMSTYLE
105
E3
102
{ACAD_REACTORS
102
}
330
A
100
AcDbSymbolTableRecord
100
AcDbDimStyleTableRecord
  2
SLDDIMSTYLE1
 70
     0
 41
3.302
 44
0.0
 45
0.000000001
 73
     0
 74
     0
 77
     1
 78
    12
 79
     3
140
3.5
143
0.0393700787401575
147
0.875
148
0.000000001
170
     1
173
     1
178
     0
271
     2
272
     2
276
     2
284
    12
340
94
  0
DIMSTYLE
105
15C
102
{ACAD_REACTORS
102
}
330
A
100
AcDbSymbolTableRecord
100
AcDbDimStyleTableRecord
  2
SLDDIMSTYLE2
 70
     0
 41
3.302
 44
0.0
 45
0.000000001
 73
     0
 74
     0
 77
     1
 78
    12
 79
     3
140
3.5
147
0.875
172
     1
173
     1
178
     0
271
     2
272
     2
276
     2
284
    12
289
     0
340
94
  0
ENDTAB
  0
TABLE
  2
BLOCK_RECORD
  5
1
330
0
100
AcDbSymbolTable
 70
    20
  0
BLOCK_RECORD
  5
1F
102
{ACAD_XDICTIONARY
360
366
102
}
330
1
100
AcDbSymbolTableRecord
100
AcDbBlockTableRecord
  2
*Model_Space
340
22
  0
BLOCK_RECORD
  5
1B
330
1
100
AcDbSymbolTableRecord
100
AcDbBlockTableRecord
  2
*Paper_Space
340
1E
  0
BLOCK_RECORD
  5
23
330
1
100
AcDbSymbolTableRecord
100
AcDbBlockTableRecord
  2
*Paper_Space0
340
26
  0
BLOCK_RECORD
  5
7F
330
1
100
AcDbSymbolTableRecord
100
AcDbBlockTableRecord
  2
블럭10
340
0
102
{BLKREFS
331
C6
102
}
  0
BLOCK_RECORD
  5
CF
330
1
100
AcDbSymbolTableRecord
100
AcDbBlockTableRecord
  2
_D
340
0
  0
BLOCK_RECORD
  5
E4
330
1
100
AcDbSymbolTableRecord
100
AcDbBlockTableRecord
  2
_D_1
340
0
  0
BLOCK_RECORD
  5
F8
330
1
100
AcDbSymbolTableRecord
100
AcDbBlockTableRecord
  2
_D_2
340
0
  0
BLOCK_RECORD
  5
10B
330
1
100
AcDbSymbolTableRecord
100
AcDbBlockTableRecord
  2
_D_3
340
0
  0
BLOCK_RECORD
  5
125
330
1
100
AcDbSymbolTableRecord
100
AcDbBlockTableRecord
  2
SW_DOWELSYMBOL_0
340
0
102
{BLKREFS
331
12B
102
}
  0
BLOCK_RECORD
  5
1E7
330
1
100
AcDbSymbolTableRecord
100
AcDbBlockTableRecord
  2
_D_4
340
0
  0
BLOCK_RECORD
  5
201
330
1
100
AcDbSymbolTableRecord
100
AcDbBlockTableRecord
  2
*D8
340
0
  0
BLOCK_RECORD
  5
20D
330
1
100
AcDbSymbolTableRecord
100
AcDbBlockTableRecord
  2
*D9
340
0
  0
BLOCK_RECORD
  5
219
330
1
100
AcDbSymbolTableRecord
100
AcDbBlockTableRecord
  2
*D10
340
0
  0
BLOCK_RECORD
  5
225
330
1
100
AcDbSymbolTableRecord
100
AcDbBlockTableRecord
  2
*D11
340
0
  0
BLOCK_RECORD
  5
280
330
1
100
AcDbSymbolTableRecord
100
AcDbBlockTableRecord
  2
*D12
340
0
  0
BLOCK_RECORD
  5
28C
330
1
100
AcDbSymbolTableRecord
100
AcDbBlockTableRecord
  2
*D13
340
0
  0
BLOCK_RECORD
  5
298
330
1
100
AcDbSymbolTableRecord
100
AcDbBlockTableRecord
  2
*D14
340
0
  0
BLOCK_RECORD
  5
2A6
330
1
100
AcDbSymbolTableRecord
100
AcDbBlockTableRecord
  2
*D15
340
0
  0
BLOCK_RECORD
  5
2B4
330
1
100
AcDbSymbolTableRecord
100
AcDbBlockTableRecord
  2
*D16
340
0
  0
BLOCK_RECORD
  5
2EA
330
1
100
AcDbSymbolTableRecord
100
AcDbBlockTableRecord
  2
*D17
340
0
  0
BLOCK_RECORD
  5
2F9
330
1
100
AcDbSymbolTableRecord
100
AcDbBlockTableRecord
  2
*D18
340
0
  0
BLOCK_RECORD
  5
308
330
1
100
AcDbSymbolTableRecord
100
AcDbBlockTableRecord
  2
*D19
340
0
  0
ENDTAB
  0
ENDSEC
  0
SECTION
  2
BLOCKS
  0
BLOCK
  5
20
330
1F
100
AcDbEntity
  8
0
100
AcDbBlockBegin
  2
*Model_Space
 70
     0
 10
0.0
 20
0.0
 30
0.0
  3
*Model_Space
  1
*Model_Space
  0
ENDBLK
  5
21
330
1F
100
AcDbEntity
  8
0
100
AcDbBlockEnd
  0
BLOCK
  5
1C
330
1B
100
AcDbEntity
 67
     1
  8
0
100
AcDbBlockBegin
  2
*Paper_Space
 70
     0
 10
0.0
 20
0.0
 30
0.0
  3
*Paper_Space
  1
*Paper_Space
  0
ENDBLK
  5
1D
330
1B
100
AcDbEntity
 67
     1
  8
0
100
AcDbBlockEnd
  0
BLOCK
  5
24
330
23
100
AcDbEntity
  8
0
100
AcDbBlockBegin
  2
*Paper_Space0
 70
     0
 10
0.0
 20
0.0
 30
0.0
  3
*Paper_Space0
  1
*Paper_Space0
  0
ENDBLK
  5
25
330
23
100
AcDbEntity
  8
0
100
AcDbBlockEnd
  0
BLOCK
  5
80
330
7F
100
AcDbEntity
  8
0
100
AcDbBlockBegin
  2
블럭10
 70
     2
 10
0.0
 20
0.0
 30
0.0
  3
블럭10
  1
블럭10
  0
ELLIPSE
  5
82
330
7F
100
AcDbEntity
  8
중심선
100
AcDbEllipse
 10
20.54032771741204
 20
12.0471743016438
 30
0.0
 11
6.600054785286829
 21
-1.261213355974178E-13
 31
0.0
210
0.0
220
0.0
230
1.0
 40
0.636358354079598
 41
0.9219305317359503
 42
6.513795318482858
  0
ELLIPSE
  5
83
330
7F
100
AcDbEntity
  8
중심선
100
AcDbEllipse
 10
20.54032771746488
 20
12.04717430159265
 30
0.0
 11
3.960054785062283
 21
1.540847449632565E-10
 31
0.0
210
0.0
220
0.0
230
1.0
 40
0.3939339440162632
 41
1.131841032648279
 42
5.62031148352944
  0
LINE
  5
84
330
7F
100
AcDbEntity
  8
중심선
100
AcDbLine
 10
2.268634060543552
 20
16.24717430164393
 30
0.0
 11
5.714909304380834
 21
16.24717430164393
 31
0.0
  0
LINE
  5
85
330
7F
100
AcDbEntity
  8
중심선
100
AcDbLine
 10
5.245725140726316
 20
7.84717430164391
 30
0.0
 11
8.692000384563599
 21
7.84717430164391
 31
0.0
  0
LINE
  5
86
330
7F
100
AcDbEntity
  8
중심선
100
AcDbLine
 10
15.74043728645272
 20
16.24717430164393
 30
0.0
 11
8.692000384563599
 21
7.84717430164391
 31
0.0
  0
LINE
  5
87
330
7F
100
AcDbEntity
  8
중심선
100
AcDbLine
 10
0.1404042013395286
 20
13.71084872107135
 30
0.0
 11
3.58671253028996
 21
13.71088815037384
 31
0.0
  0
LINE
  5
88
330
7F
100
AcDbEntity
  8
중심선
100
AcDbLine
 10
2.750260043222114
 20
10.84717430164391
 30
0.0
 11
6.196535287059397
 21
10.84717430164391
 31
0.0
  0
LINE
  5
89
330
7F
100
AcDbEntity
  8
중심선
100
AcDbLine
 10
12.29416204261559
 20
16.24717430164393
 30
0.0
 11
5.245725140726316
 21
7.84717430164391
 31
0.0
  0
LINE
  5
8A
330
7F
100
AcDbEntity
  8
중심선
100
AcDbLine
 10
10.72767329541681
 20
16.24717430164393
 30
0.0
 11
6.196535287059397
 21
10.84717430164391
 31
0.0
  0
LINE
  5
8B
330
7F
100
AcDbEntity
  8
중심선
100
AcDbLine
 10
7.28139805157953
 20
16.24717430164393
 30
0.0
 11
2.750260043222114
 21
10.84717430164391
 31
0.0
  0
LINE
  5
8C
330
7F
100
AcDbEntity
  8
중심선
100
AcDbLine
 10
5.714909304380834
 20
16.24717430164393
 30
0.0
 11
3.58671253028996
 21
13.71088815037384
 31
0.0
  0
LINE
  5
8D
330
7F
100
AcDbEntity
  8
중심선
100
AcDbLine
 10
2.268634060543552
 20
16.24717430164393
 30
0.0
 11
0.1404042013395286
 21
13.71084872107135
 31
0.0
  0
LINE
  5
8E
330
7F
100
AcDbEntity
  8
중심선
100
AcDbLine
 10
7.28139805157953
 20
16.24717430164393
 30
0.0
 11
10.72767329541681
 21
16.24717430164393
 31
0.0
  0
LINE
  5
8F
330
7F
100
AcDbEntity
  8
중심선
100
AcDbLine
 10
12.29416204261559
 20
16.24717430164393
 30
0.0
 11
15.74043728645272
 21
16.24717430164393
 31
0.0
  0
LINE
  5
90
330
7F
100
AcDbEntity
  8
중심선
100
AcDbLine
 10
19.22036997980202
 20
11.08717430171403
 30
0.0
 11
23.66174974927406
 21
11.08717430171406
 31
0.0
  0
LINE
  5
91
330
7F
100
AcDbEntity
  8
중심선
100
AcDbLine
 10
19.22039502424796
 20
13.00717430171391
 30
0.0
 11
19.22036997980202
 21
11.08717430171403
 31
0.0
  0
LINE
  5
92
330
7F
100
AcDbEntity
  8
중심선
100
AcDbLine
 10
19.22039502424796
 20
13.00717430171391
 30
0.0
 11
26.96566020931264
 21
13.00717430171391
 31
0.0
  0
LINE
  5
93
330
7F
100
AcDbEntity
  8
중심선
100
AcDbLine
 10
22.22332737316547
 20
13.45928029700563
 30
0.0
 11
24.52862924686651
 21
15.39360700705356
 31
0.0
  0
ATTDEF
  5
95
330
7F
100
AcDbEntity
  8
FORMAT
 62
     2
100
AcDbText
 10
4.408487351596664
 20
2.075366912832191
 30
0.0
 40
4.233333333333333
  1
E5024018
 41
0.75
  7
SLDTEXTSTYLE0
 11
4.408487351596664
 21
-0.0412997538344756
 31
0.0
100
AcDbAttributeDefinition
  3

  2
AUTOATTR0
 70
     0
 74
     1
  0
ENDBLK
  5
81
330
7F
100
AcDbEntity
  8
0
100
AcDbBlockEnd
  0
BLOCK
  5
D0
330
CF
100
AcDbEntity
  8
0
100
AcDbBlockBegin
  2
_D
 70
     0
 10
0.0
 20
0.0
 30
0.0
  3
_D
  1
_D
  0
LINE
  5
D2
330
CF
100
AcDbEntity
  8
치수문자_일반주서
 62
     0
370
    -2
100
AcDbLine
 10
42.925
 20
3.571875000000024
 30
0.0
 11
56.36002228020147
 21
3.571875000000073
 31
0.0
  0
LINE
  5
D3
330
CF
100
AcDbEntity
  8
치수문자_일반주서
 62
     0
370
    -2
100
AcDbLine
 10
42.925
 20
-3.571874999999975
 30
0.0
 11
56.3600222802015
 21
-3.571874999999928
 31
0.0
  0
LINE
  5
D4
330
CF
100
AcDbEntity
  8
치수문자_일반주서
 62
     0
370
    -2
100
AcDbLine
 10
56.36002228020147
 20
3.571875000000073
 30
0.0
 11
56.36002228020133
 21
38.17587500000008
 31
0.0
  0
LINE
  5
D5
330
CF
100
AcDbEntity
  8
치수문자_일반주서
 62
     0
370
    -2
100
AcDbLine
 10
56.36002228020147
 20
3.571875000000073
 30
0.0
 11
56.3600222802015
 21
-3.571874999999928
 31
0.0
  0
LINE
  5
D6
330
CF
100
AcDbEntity
  8
치수문자_일반주서
 62
     0
370
    -2
100
AcDbLine
 10
56.36002228020146
 20
6.873875000000073
 30
0.0
 11
56.36002228020144
 21
10.17587500000007
 31
0.0
  0
LINE
  5
D7
330
CF
100
AcDbEntity
  8
치수문자_일반주서
 62
     0
370
    -2
100
AcDbLine
 10
56.36002228020151
 20
-6.873874999999927
 30
0.0
 11
56.36002228020153
 21
-10.17587499999993
 31
0.0
  0
SOLID
  5
D8
330
CF
100
AcDbEntity
  8
치수문자_일반주서
 62
     0
100
AcDbTrace
 10
55.80968894686812
 20
6.873875000000071
 30
0.0
 11
56.91035561353479
 21
6.873875000000075
 31
0.0
 12
56.36002228020147
 22
3.571875000000073
 32
0.0
 13
56.36002228020147
 23
3.571875000000073
 33
0.0
  0
SOLID
  5
D9
330
CF
100
AcDbEntity
  8
치수문자_일반주서
 62
     0
100
AcDbTrace
 10
56.91035561353485
 20
-6.873874999999925
 30
0.0
 11
55.80968894686818
 21
-6.873874999999929
 31
0.0
 12
56.3600222802015
 22
-3.571874999999928
 32
0.0
 13
56.3600222802015
 23
-3.571874999999928
 33
0.0
  0
MTEXT
  5
DA
330
CF
100
AcDbEntity
  8
치수문자_일반주서
 62
     0
100
AcDbMText
 10
51.98502228020138
 20
24.17587500000005
 30
0.0
 40
3.5
 41
0.0
 71
     2
 72
     1
  1
\A1;%%c7.14 [9/32]
  7
SLDTEXTSTYLE0
 11
-3.978542002506248E-15
 21
1.0
 31
0.0
 73
     1
 44
1.0
  0
POINT
  5
DB
330
CF
100
AcDbEntity
  8
Defpoints
 62
     0
100
AcDbPoint
 10
42.8625
 20
3.571875000000024
 30
0.0
  0
POINT
  5
DC
330
CF
100
AcDbEntity
  8
Defpoints
 62
     0
100
AcDbPoint
 10
42.8625
 20
-3.571874999999976
 30
0.0
  0
POINT
  5
DD
330
CF
100
AcDbEntity
  8
Defpoints
 62
     0
100
AcDbPoint
 10
56.3600222802015
 20
-3.571874999999925
 30
0.0
  0
ENDBLK
  5
D1
330
CF
100
AcDbEntity
  8
0
100
AcDbBlockEnd
  0
BLOCK
  5
E5
330
E4
100
AcDbEntity
  8
0
100
AcDbBlockBegin
  2
_D_1
 70
     0
 10
0.0
 20
0.0
 30
0.0
  3
_D_1
  1
_D_1
  0
LINE
  5
E7
330
E4
100
AcDbEntity
  8
치수문자_일반주서
 62
     0
370
    -2
100
AcDbLine
 10
42.8625
 20
3.62123975661523
 30
0.0
 11
42.8625
 21
24.7697789331363
 31
0.0
  0
LINE
  5
E8
330
E4
100
AcDbEntity
  8
치수문자_일반주서
 62
     0
370
    -2
100
AcDbLine
 10
25.4
 20
3.609250985486914
 30
0.0
 11
25.4
 21
24.7697789331363
 31
0.0
  0
LINE
  5
E9
330
E4
100
AcDbEntity
  8
치수문자_일반주서
 62
     0
370
    -2
100
AcDbLine
 10
25.4
 20
24.7697789331363
 30
0.0
 11
-9.204
 21
24.7697789331363
 31
0.0
  0
LINE
  5
EA
330
E4
100
AcDbEntity
  8
치수문자_일반주서
 62
     0
370
    -2
100
AcDbLine
 10
42.8625
 20
24.7697789331363
 30
0.0
 11
25.4
 21
24.7697789331363
 31
0.0
  0
LINE
  5
EB
330
E4
100
AcDbEntity
  8
치수문자_일반주서
 62
     0
370
    -2
100
AcDbLine
 10
46.1645
 20
24.7697789331363
 30
0.0
 11
49.4665
 21
24.7697789331363
 31
0.0
  0
LINE
  5
EC
330
E4
100
AcDbEntity
  8
치수문자_일반주서
 62
     0
370
    -2
100
AcDbLine
 10
22.098
 20
24.7697789331363
 30
0.0
 11
18.796
 21
24.7697789331363
 31
0.0
  0
SOLID
  5
ED
330
E4
100
AcDbEntity
  8
치수문자_일반주서
 62
     0
100
AcDbTrace
 10
46.1645
 20
25.32011226646964
 30
0.0
 11
46.1645
 21
24.21944559980297
 31
0.0
 12
42.8625
 22
24.7697789331363
 32
0.0
 13
42.8625
 23
24.7697789331363
 33
0.0
  0
SOLID
  5
EE
330
E4
100
AcDbEntity
  8
치수문자_일반주서
 62
     0
100
AcDbTrace
 10
22.098
 20
24.21944559980297
 30
0.0
 11
22.098
 21
25.32011226646964
 31
0.0
 12
25.4
 22
24.7697789331363
 32
0.0
 13
25.4
 23
24.7697789331363
 33
0.0
  0
MTEXT
  5
EF
330
E4
100
AcDbEntity
  8
치수문자_일반주서
 62
     0
100
AcDbMText
 10
4.795999999999999
 20
29.1447789331363
 30
0.0
 40
3.5
 41
0.0
 71
     2
 72
     1
  1
\A1;17.46 [11/16]
  7
SLDTEXTSTYLE0
 73
     1
 44
1.0
  0
POINT
  5
F0
330
E4
100
AcDbEntity
  8
Defpoints
 62
     0
100
AcDbPoint
 10
42.8625
 20
3.55873975661523
 30
0.0
  0
POINT
  5
F1
330
E4
100
AcDbEntity
  8
Defpoints
 62
     0
100
AcDbPoint
 10
25.4
 20
3.546750985486914
 30
0.0
  0
POINT
  5
F2
330
E4
100
AcDbEntity
  8
Defpoints
 62
     0
100
AcDbPoint
 10
25.4
 20
24.7697789331363
 30
0.0
  0
ENDBLK
  5
E6
330
E4
100
AcDbEntity
  8
0
100
AcDbBlockEnd
  0
BLOCK
  5
F9
330
F8
100
AcDbEntity
  8
0
100
AcDbBlockBegin
  2
_D_2
 70
     0
 10
0.0
 20
0.0
 30
0.0
  3
_D_2
  1
_D_2
  0
LINE
  5
FB
330
F8
100
AcDbEntity
  8
치수문자_일반주서
 62
     0
370
    -2
100
AcDbLine
 10
42.8625
 20
3.62123975661523
 30
0.0
 11
42.8625
 21
51.14915869958964
 31
0.0
  0
LINE
  5
FC
330
F8
100
AcDbEntity
  8
치수문자_일반주서
 62
     0
370
    -2
100
AcDbLine
 10
-42.86249999999999
 20
3.8725
 30
0.0
 11
-42.86249999999999
 21
51.14915869958964
 31
0.0
  0
LINE
  5
FD
330
F8
100
AcDbEntity
  8
치수문자_일반주서
 62
     0
370
    -2
100
AcDbLine
 10
39.5605
 20
51.14915869958964
 30
0.0
 11
-39.56049999999999
 21
51.14915869958964
 31
0.0
  0
SOLID
  5
FE
330
F8
100
AcDbEntity
  8
치수문자_일반주서
 62
     0
100
AcDbTrace
 10
39.5605
 20
50.59882536625631
 30
0.0
 11
39.5605
 21
51.69949203292298
 31
0.0
 12
42.8625
 22
51.14915869958964
 32
0.0
 13
42.8625
 23
51.14915869958964
 33
0.0
  0
SOLID
  5
FF
330
F8
100
AcDbEntity
  8
치수문자_일반주서
 62
     0
100
AcDbTrace
 10
-39.56049999999999
 20
51.69949203292298
 30
0.0
 11
-39.56049999999999
 21
50.59882536625631
 31
0.0
 12
-42.86249999999999
 22
51.14915869958964
 32
0.0
 13
-42.86249999999999
 23
51.14915869958964
 33
0.0
  0
MTEXT
  5
100
330
F8
100
AcDbEntity
  8
치수문자_일반주서
 62
     0
100
AcDbMText
 10
-2.187269229181645
 20
55.52415869958964
 30
0.0
 40
3.5
 41
0.0
 71
     2
 72
     1
  1
\A1;85.73 [3 3/8]
  7
SLDTEXTSTYLE0
 73
     1
 44
1.0
  0
POINT
  5
101
330
F8
100
AcDbEntity
  8
Defpoints
 62
     0
100
AcDbPoint
 10
42.8625
 20
3.55873975661523
 30
0.0
  0
POINT
  5
102
330
F8
100
AcDbEntity
  8
Defpoints
 62
     0
100
AcDbPoint
 10
-42.86249999999999
 20
3.81
 30
0.0
  0
POINT
  5
103
330
F8
100
AcDbEntity
  8
Defpoints
 62
     0
100
AcDbPoint
 10
-42.86249999999999
 20
51.14915869958964
 30
0.0
  0
ENDBLK
  5
FA
330
F8
100
AcDbEntity
  8
0
100
AcDbBlockEnd
  0
BLOCK
  5
10C
330
10B
100
AcDbEntity
  8
0
100
AcDbBlockBegin
  2
_D_3
 70
     0
 10
0.0
 20
0.0
 30
0.0
  3
_D_3
  1
_D_3
  0
LINE
  5
10E
330
10B
100
AcDbEntity
  8
치수문자_일반주서
 62
     0
370
    -2
100
AcDbLine
 10
-20.01902700723828
 20
4.762500000000021
 30
0.0
 11
-53.10524640573049
 21
4.762499999999896
 31
0.0
  0
LINE
  5
10F
330
10B
100
AcDbEntity
  8
치수문자_일반주서
 62
     0
370
    -2
100
AcDbLine
 10
-20.01902700723828
 20
-4.762500000000009
 30
0.0
 11
-53.10524640573045
 21
-4.762500000000134
 31
0.0
  0
LINE
  5
110
330
10B
100
AcDbEntity
  8
치수문자_일반주서
 62
     0
370
    -2
100
AcDbLine
 10
-53.10524640573049
 20
4.762499999999896
 30
0.0
 11
-53.10524640573061
 21
37.83524999999996
 31
0.0
  0
LINE
  5
111
330
10B
100
AcDbEntity
  8
치수문자_일반주서
 62
     0
370
    -2
100
AcDbLine
 10
-53.10524640573049
 20
4.762499999999896
 30
0.0
 11
-53.10524640573045
 21
-4.762500000000134
 31
0.0
  0
LINE
  5
112
330
10B
100
AcDbEntity
  8
치수문자_일반주서
 62
     0
370
    -2
100
AcDbLine
 10
-53.1052464057305
 20
8.064499999999896
 30
0.0
 11
-53.10524640573052
 21
11.3664999999999
 31
0.0
  0
LINE
  5
113
330
10B
100
AcDbEntity
  8
치수문자_일반주서
 62
     0
370
    -2
100
AcDbLine
 10
-53.10524640573044
 20
-8.064500000000134
 30
0.0
 11
-53.10524640573043
 21
-11.36650000000013
 31
0.0
  0
SOLID
  5
114
330
10B
100
AcDbEntity
  8
치수문자_일반주서
 62
     0
100
AcDbTrace
 10
-53.65557973906384
 20
8.064499999999894
 30
0.0
 11
-52.55491307239717
 21
8.064499999999898
 31
0.0
 12
-53.10524640573049
 22
4.762499999999896
 32
0.0
 13
-53.10524640573049
 23
4.762499999999896
 33
0.0
  0
SOLID
  5
115
330
10B
100
AcDbEntity
  8
치수문자_일반주서
 62
     0
100
AcDbTrace
 10
-52.55491307239711
 20
-8.064500000000132
 30
0.0
 11
-53.65557973906377
 21
-8.064500000000136
 31
0.0
 12
-53.10524640573045
 22
-4.762500000000134
 32
0.0
 13
-53.10524640573045
 23
-4.762500000000134
 33
0.0
  0
MTEXT
  5
116
330
10B
100
AcDbEntity
  8
치수문자_일반주서
 62
     0
100
AcDbMText
 10
-57.48024640573056
 20
24.71024999999995
 30
0.0
 40
3.5
 41
0.0
 71
     2
 72
     1
  1
\A1;%%c9.53 [3/8]
  7
SLDTEXTSTYLE0
 11
-3.729883127349596E-15
 21
1.0
 31
0.0
 73
     1
 44
1.0
  0
POINT
  5
2BE
330
10B
100
AcDbEntity
  8
Defpoints
 62
     0
100
AcDbPoint
 10
-19.95652700723828
 20
4.762500000000021
 30
0.0
  0
POINT
  5
2BF
330
10B
100
AcDbEntity
  8
Defpoints
 62
     0
100
AcDbPoint
 10
-19.95652700723828
 20
-4.762500000000009
 30
0.0
  0
POINT
  5
2C0
330
10B
100
AcDbEntity
  8
Defpoints
 62
     0
100
AcDbPoint
 10
-53.10524640573045
 20
-4.762500000000133
 30
0.0
  0
ENDBLK
  5
10D
330
10B
100
AcDbEntity
  8
0
100
AcDbBlockEnd
  0
BLOCK
  5
126
330
125
100
AcDbEntity
  8
0
100
AcDbBlockBegin
  2
SW_DOWELSYMBOL_0
 70
     0
 10
0.0
 20
0.0
 30
0.0
  3
SW_DOWELSYMBOL_0
  1
SW_DOWELSYMBOL_0
  0
CIRCLE
  5
128
330
125
100
AcDbEntity
  8
해칭선
 62
     0
100
AcDbCircle
 10
0.0
 20
0.0
 30
0.0
 40
3.000000000000001
  0
HATCH
  5
129
330
125
100
AcDbEntity
  8
0
  6
Continuous
 62
     0
370
     0
100
AcDbHatch
 10
0.0
 20
0.0
 30
0.0
210
0.0
220
0.0
230
1.0
  2
SOLID
 70
     1
 71
     0
 91
        1
 92
        0
 93
        3
 72
     2
 10
0.0
 20
0.0
 40
3.000000000000001
 50
0.0
 51
90.0
 73
     1
 72
     1
 10
0.0
 20
3.000000000000001
 11
0.0
 21
0.0
 72
     1
 10
0.0
 20
0.0
 11
3.000000000000003
 21
0.0
 97
        0
 75
     0
 76
     1
 98
        1
 10
0.0
 20
0.0
  0
HATCH
  5
12A
330
125
100
AcDbEntity
  8
0
  6
Continuous
 62
     0
370
     0
100
AcDbHatch
 10
0.0
 20
0.0
 30
0.0
210
0.0
220
0.0
230
1.0
  2
SOLID
 70
     1
 71
     0
 91
        1
 92
        0
 93
        3
 72
     2
 10
0.0
 20
0.0
 40
3.000000000000001
 50
180.0
 51
270.0000000000007
 73
     1
 72
     1
 10
0.0
 20
-3.000000000000001
 11
0.0
 21
0.0
 72
     1
 10
0.0
 20
0.0
 11
-3.000000000000003
 21
0.0
 97
        0
 75
     0
 76
     1
 98
        1
 10
0.0
 20
0.0
  0
ENDBLK
  5
127
330
125
100
AcDbEntity
  8
0
100
AcDbBlockEnd
  0
BLOCK
  5
1E8
330
1E7
100
AcDbEntity
  8
0
100
AcDbBlockBegin
  2
_D_4
 70
     0
 10
0.0
 20
0.0
 30
0.0
  3
_D_4
  1
_D_4
  0
LINE
  5
1E9
330
1E7
100
AcDbEntity
  8
치수문자_일반주서
 62
     0
370
    -2
100
AcDbLine
 10
102.4375000000001
 20
36.22143424691529
 30
0.0
 11
117.3750000000001
 21
36.22143424691535
 31
0.0
  0
LINE
  5
1EA
330
1E7
100
AcDbEntity
  8
치수문자_일반주서
 62
     0
370
    -2
100
AcDbLine
 10
102.4375000000001
 20
22.22143424691529
 30
0.0
 11
117.3750000000001
 21
22.22143424691535
 31
0.0
  0
LINE
  5
1EB
330
1E7
100
AcDbEntity
  8
치수문자_일반주서
 62
     0
370
    -2
100
AcDbLine
 10
117.3750000000001
 20
36.22143424691535
 30
0.0
 11
117.3750000000001
 21
22.22143424691535
 31
0.0
  0
LINE
  5
1EC
330
1E7
100
AcDbEntity
  8
치수문자_일반주서
 62
     0
370
    -2
100
AcDbLine
 10
117.3750000000001
 20
39.52343424691535
 30
0.0
 11
117.375
 21
42.82543424691535
 31
0.0
  0
LINE
  5
1ED
330
1E7
100
AcDbEntity
  8
치수문자_일반주서
 62
     0
370
    -2
100
AcDbLine
 10
117.3750000000001
 20
18.91943424691535
 30
0.0
 11
117.3750000000001
 21
15.61743424691535
 31
0.0
  0
SOLID
  5
1EE
330
1E7
100
AcDbEntity
  8
치수문자_일반주서
 62
     0
100
AcDbTrace
 10
116.8246666666667
 20
39.52343424691535
 30
0.0
 11
117.9253333333334
 21
39.52343424691535
 31
0.0
 12
117.3750000000001
 22
36.22143424691535
 32
0.0
 13
117.3750000000001
 23
36.22143424691535
 33
0.0
  0
SOLID
  5
1EF
330
1E7
100
AcDbEntity
  8
치수문자_일반주서
 62
     0
100
AcDbTrace
 10
117.9253333333335
 20
18.91943424691535
 30
0.0
 11
116.8246666666668
 21
18.91943424691535
 31
0.0
 12
117.3750000000001
 22
22.22143424691535
 32
0.0
 13
117.3750000000001
 23
22.22143424691535
 33
0.0
  0
MTEXT
  5
1F0
330
1E7
100
AcDbEntity
  8
치수문자_일반주서
 62
     0
100
AcDbMText
 10
113.0000000000001
 20
29.28713862862833
 30
0.0
 40
3.5
 41
0.0
 71
     2
 72
     1
  1
\A1;%%c14
  7
SLDTEXTSTYLE0
 11
-3.045183153257572E-15
 21
1.0
 31
0.0
 73
     1
 44
1.0
  0
POINT
  5
1F1
330
1E7
100
AcDbEntity
  8
Defpoints
 62
     0
100
AcDbPoint
 10
102.3750000000001
 20
36.22143424691529
 30
0.0
  0
POINT
  5
1F2
330
1E7
100
AcDbEntity
  8
Defpoints
 62
     0
100
AcDbPoint
 10
102.3750000000001
 20
22.22143424691529
 30
0.0
  0
POINT
  5
1F3
330
1E7
100
AcDbEntity
  8
Defpoints
 62
     0
100
AcDbPoint
 10
117.3750000000001
 20
22.22143424691535
 30
0.0
  0
ENDBLK
  5
1F4
330
1E7
100
AcDbEntity
  8
0
100
AcDbBlockEnd
  0
BLOCK
  5
202
330
201
100
AcDbEntity
  8
0
100
AcDbBlockBegin
  2
*D8
 70
     1
 10
0.0
 20
0.0
 30
0.0
  3
*D8
  1
*D8
  0
LINE
  5
203
330
201
100
AcDbEntity
  8
치수문자_일반주서
 62
     0
370
    -2
100
AcDbLine
 10
103.8657751816695
 20
19.48229575403651
 30
0.0
 11
119.6194267469468
 21
-6.150060756304035
 31
0.0
  0
MTEXT
  5
204
330
201
100
AcDbEntity
  8
치수문자_일반주서
 62
     0
100
AcDbMText
 10
115.6706384014277
 20
5.288158154535728
 30
0.0
 40
3.5
 41
0.0
 71
     5
 72
     1
  1
\A1;R.5 [R0.02]
  7
SLDTEXTSTYLE0
 11
0.5236126201129557
 21
-0.8519564684057781
 31
0.0
 73
     1
 44
1.0
  0
SOLID
  5
205
330
201
100
AcDbEntity
  8
치수문자_일반주서
 62
     0
100
AcDbTrace
 10
104.3346352247821
 20
19.77045723263868
 30
0.0
 11
103.3969151385569
 21
19.19413427543435
 31
0.0
 12
102.1368063100565
 22
22.29545601271239
 32
0.0
 13
102.1368063100565
 23
22.29545601271239
 33
0.0
  0
LINE
  5
206
330
201
100
AcDbEntity
  8
치수문자_일반주서
 62
     0
100
AcDbLine
 10
101.785
 20
22.72143424691529
 30
0.0
 11
101.965
 21
22.72143424691529
 31
0.0
  0
LINE
  5
207
330
201
100
AcDbEntity
  8
치수문자_일반주서
 62
     0
100
AcDbLine
 10
101.875
 20
22.63143424691529
 30
0.0
 11
101.875
 21
22.81143424691529
 31
0.0
  0
POINT
  5
233
330
201
100
AcDbEntity
  8
Defpoints
 62
     0
100
AcDbPoint
 10
102.1368063100565
 20
22.29545601271239
 30
0.0
  0
POINT
  5
234
330
201
100
AcDbEntity
  8
Defpoints
 62
     0
100
AcDbPoint
 10
101.875
 20
22.72143424691529
 30
0.0
  0
ENDBLK
  5
208
330
201
100
AcDbEntity
  8
0
100
AcDbBlockEnd
  0
BLOCK
  5
20E
330
20D
100
AcDbEntity
  8
0
100
AcDbBlockBegin
  2
*D9
 70
     1
 10
0.0
 20
0.0
 30
0.0
  3
*D9
  1
*D10
  0
LINE
  5
210
330
20D
100
AcDbEntity
  8
치수문자_일반주서
 62
     0
370
    -2
100
AcDbLine
 10
19.37500000000004
 20
35.78393424691529
 30
0.0
 11
19.37500000000004
 21
70.88391841499404
 31
0.0
  0
LINE
  5
211
330
20D
100
AcDbEntity
  8
치수문자_일반주서
 62
     0
370
    -2
100
AcDbLine
 10
102.3750000000001
 20
36.34643424691529
 30
0.0
 11
102.3750000000001
 21
70.88391841499404
 31
0.0
  0
LINE
  5
212
330
20D
100
AcDbEntity
  8
치수문자_일반주서
 62
     0
370
    -2
100
AcDbLine
 10
22.67700000000004
 20
70.88391841499404
 30
0.0
 11
99.07300000000006
 21
70.88391841499404
 31
0.0
  0
SOLID
  5
213
330
20D
100
AcDbEntity
  8
치수문자_일반주서
 62
     0
100
AcDbTrace
 10
22.67700000000004
 20
71.43425174832737
 30
0.0
 11
22.67700000000004
 21
70.33358508166071
 31
0.0
 12
19.37500000000004
 22
70.88391841499404
 32
0.0
 13
19.37500000000004
 23
70.88391841499404
 33
0.0
  0
SOLID
  5
214
330
20D
100
AcDbEntity
  8
치수문자_일반주서
 62
     0
100
AcDbTrace
 10
99.07300000000006
 20
70.33358508166071
 30
0.0
 11
99.07300000000006
 21
71.43425174832737
 31
0.0
 12
102.3750000000001
 22
70.88391841499404
 32
0.0
 13
102.3750000000001
 23
70.88391841499404
 33
0.0
  0
MTEXT
  5
215
330
20D
100
AcDbEntity
  8
치수문자_일반주서
 62
     0
100
AcDbMText
 10
60.87500000000005
 20
75.25891841499404
 30
0.0
 40
3.5
 41
0.0
 71
     2
 72
     1
  1
\A1;83 [3.27]
  7
SLDTEXTSTYLE0
 73
     1
 44
1.0
  0
POINT
  5
216
330
20D
100
AcDbEntity
  8
Defpoints
 62
     0
100
AcDbPoint
 10
19.37500000000004
 20
35.72143424691529
 30
0.0
  0
POINT
  5
217
330
20D
100
AcDbEntity
  8
Defpoints
 62
     0
100
AcDbPoint
 10
102.3750000000001
 20
36.28393424691529
 30
0.0
  0
POINT
  5
218
330
20D
100
AcDbEntity
  8
Defpoints
 62
     0
100
AcDbPoint
 10
102.3750000000001
 20
70.88391841499404
 30
0.0
  0
ENDBLK
  5
20F
330
20D
100
AcDbEntity
  8
0
100
AcDbBlockEnd
  0
BLOCK
  5
21A
330
219
100
AcDbEntity
  8
0
100
AcDbBlockBegin
  2
*D10
 70
     1
 10
0.0
 20
0.0
 30
0.0
  3
*D10
  1
*D11
  0
LINE
  5
21C
330
219
100
AcDbEntity
  8
치수문자_일반주서
 62
     0
370
    -2
100
AcDbLine
 10
76.37504186422882
 20
28.62038676313042
 30
0.0
 11
76.37504186422882
 21
61.90091383617725
 31
0.0
  0
LINE
  5
21D
330
219
100
AcDbEntity
  8
치수문자_일반주서
 62
     0
370
    -2
100
AcDbLine
 10
102.3750000000001
 20
36.28393424691529
 30
0.0
 11
102.3750000000001
 21
61.90091383617725
 31
0.0
  0
LINE
  5
21E
330
219
100
AcDbEntity
  8
치수문자_일반주서
 62
     0
370
    -2
100
AcDbLine
 10
79.67704186422881
 20
61.90091383617725
 30
0.0
 11
99.07300000000006
 21
61.90091383617725
 31
0.0
  0
SOLID
  5
21F
330
219
100
AcDbEntity
  8
치수문자_일반주서
 62
     0
100
AcDbTrace
 10
79.67704186422881
 20
62.45124716951059
 30
0.0
 11
79.67704186422881
 21
61.35058050284392
 31
0.0
 12
76.37504186422882
 22
61.90091383617725
 32
0.0
 13
76.37504186422882
 23
61.90091383617725
 33
0.0
  0
SOLID
  5
220
330
219
100
AcDbEntity
  8
치수문자_일반주서
 62
     0
100
AcDbTrace
 10
99.07300000000006
 20
61.35058050284392
 30
0.0
 11
99.07300000000006
 21
62.45124716951059
 31
0.0
 12
102.3750000000001
 22
61.90091383617725
 32
0.0
 13
102.3750000000001
 23
61.90091383617725
 33
0.0
  0
MTEXT
  5
221
330
219
100
AcDbEntity
  8
치수문자_일반주서
 62
     0
100
AcDbMText
 10
89.42159572693208
 20
66.27591383617725
 30
0.0
 40
3.5
 41
0.0
 71
     2
 72
     1
  1
\A1;26 [1.02]
  7
SLDTEXTSTYLE0
 73
     1
 44
1.0
  0
POINT
  5
222
330
219
100
AcDbEntity
  8
Defpoints
 62
     0
100
AcDbPoint
 10
76.37504186422882
 20
28.55788676313042
 30
0.0
  0
POINT
  5
223
330
219
100
AcDbEntity
  8
Defpoints
 62
     0
100
AcDbPoint
 10
102.3750000000001
 20
36.22143424691529
 30
0.0
  0
POINT
  5
224
330
219
100
AcDbEntity
  8
Defpoints
 62
     0
100
AcDbPoint
 10
102.3750000000001
 20
61.90091383617725
 30
0.0
  0
ENDBLK
  5
21B
330
219
100
AcDbEntity
  8
0
100
AcDbBlockEnd
  0
BLOCK
  5
226
330
225
100
AcDbEntity
  8
0
100
AcDbBlockBegin
  2
*D11
 70
     1
 10
0.0
 20
0.0
 30
0.0
  3
*D11
  1
*D12
  0
LINE
  5
228
330
225
100
AcDbEntity
  8
치수문자_일반주서
 62
     0
370
    -2
100
AcDbLine
 10
19.81250000000005
 20
36.22143424691529
 30
0.0
 11
4.374999999999983
 21
36.22143424691524
 31
0.0
  0
LINE
  5
229
330
225
100
AcDbEntity
  8
치수문자_일반주서
 62
     0
370
    -2
100
AcDbLine
 10
19.81250000000005
 20
22.22143424691529
 30
0.0
 11
4.375000000000032
 21
22.22143424691524
 31
0.0
  0
LINE
  5
22A
330
225
100
AcDbEntity
  8
치수문자_일반주서
 62
     0
370
    -2
100
AcDbLine
 10
4.374999999999983
 20
36.22143424691524
 30
0.0
 11
4.375000000000032
 21
22.22143424691524
 31
0.0
  0
LINE
  5
22B
330
225
100
AcDbEntity
  8
치수문자_일반주서
 62
     0
370
    -2
100
AcDbLine
 10
4.374999999999972
 20
39.52343424691524
 30
0.0
 11
4.37499999999996
 21
42.82543424691524
 31
0.0
  0
LINE
  5
22C
330
225
100
AcDbEntity
  8
치수문자_일반주서
 62
     0
370
    -2
100
AcDbLine
 10
4.375000000000044
 20
18.91943424691524
 30
0.0
 11
4.375000000000055
 21
15.61743424691524
 31
0.0
  0
SOLID
  5
22D
330
225
100
AcDbEntity
  8
치수문자_일반주서
 62
     0
100
AcDbTrace
 10
3.824666666666638
 20
39.52343424691524
 30
0.0
 11
4.925333333333305
 21
39.52343424691524
 31
0.0
 12
4.374999999999983
 22
36.22143424691524
 32
0.0
 13
4.374999999999983
 23
36.22143424691524
 33
0.0
  0
SOLID
  5
22E
330
225
100
AcDbEntity
  8
치수문자_일반주서
 62
     0
100
AcDbTrace
 10
4.925333333333377
 20
18.91943424691524
 30
0.0
 11
3.82466666666671
 21
18.91943424691523
 31
0.0
 12
4.375000000000032
 22
22.22143424691524
 32
0.0
 13
4.375000000000032
 23
22.22143424691524
 33
0.0
  0
MTEXT
  5
22F
330
225
100
AcDbEntity
  8
치수문자_일반주서
 62
     0
100
AcDbMText
 10
0.0000000000000071
 20
29.22143424691528
 30
0.0
 40
3.5
 41
0.0
 71
     2
 72
     1
  1
\A1;%%c14
  7
SLDTEXTSTYLE0
 11
-3.489272363107635E-15
 21
1.0
 31
0.0
 73
     1
 44
1.0
  0
POINT
  5
230
330
225
100
AcDbEntity
  8
Defpoints
 62
     0
100
AcDbPoint
 10
19.87500000000005
 20
36.22143424691529
 30
0.0
  0
POINT
  5
231
330
225
100
AcDbEntity
  8
Defpoints
 62
     0
100
AcDbPoint
 10
19.87500000000005
 20
22.22143424691529
 30
0.0
  0
POINT
  5
232
330
225
100
AcDbEntity
  8
Defpoints
 62
     0
100
AcDbPoint
 10
4.375000000000043
 20
22.22143424691524
 30
0.0
  0
ENDBLK
  5
227
330
225
100
AcDbEntity
  8
0
100
AcDbBlockEnd
  0
BLOCK
  5
281
330
280
100
AcDbEntity
  8
0
100
AcDbBlockBegin
  2
*D12
 70
     1
 10
0.0
 20
0.0
 30
0.0
  3
*D12
  1
*D13
  0
LINE
  5
283
330
280
100
AcDbEntity
  8
치수문자_일반주서
 62
     0
370
    -2
100
AcDbLine
 10
-46.14066183090262
 20
101.3868270813389
 30
0.0
 11
-46.14066183090262
 21
136.4868112494177
 31
0.0
  0
LINE
  5
284
330
280
100
AcDbEntity
  8
치수문자_일반주서
 62
     0
370
    -2
100
AcDbLine
 10
36.8593381690974
 20
101.9493270813389
 30
0.0
 11
36.8593381690974
 21
136.4868112494177
 31
0.0
  0
LINE
  5
285
330
280
100
AcDbEntity
  8
치수문자_일반주서
 62
     0
370
    -2
100
AcDbLine
 10
-42.83866183090262
 20
136.4868112494177
 30
0.0
 11
33.5573381690974
 21
136.4868112494177
 31
0.0
  0
SOLID
  5
286
330
280
100
AcDbEntity
  8
치수문자_일반주서
 62
     0
100
AcDbTrace
 10
-42.83866183090262
 20
137.037144582751
 30
0.0
 11
-42.83866183090262
 21
135.9364779160843
 31
0.0
 12
-46.14066183090262
 22
136.4868112494177
 32
0.0
 13
-46.14066183090262
 23
136.4868112494177
 33
0.0
  0
SOLID
  5
287
330
280
100
AcDbEntity
  8
치수문자_일반주서
 62
     0
100
AcDbTrace
 10
33.5573381690974
 20
135.9364779160843
 30
0.0
 11
33.5573381690974
 21
137.037144582751
 31
0.0
 12
36.8593381690974
 22
136.4868112494177
 32
0.0
 13
36.8593381690974
 23
136.4868112494177
 33
0.0
  0
MTEXT
  5
288
330
280
100
AcDbEntity
  8
치수문자_일반주서
 62
     0
100
AcDbMText
 10
-4.640661830902609
 20
140.8618112494177
 30
0.0
 40
3.5
 41
0.0
 71
     2
 72
     1
  1
\A1;83 [3.27]
  7
SLDTEXTSTYLE0
 73
     1
 44
1.0
  0
POINT
  5
289
330
280
100
AcDbEntity
  8
Defpoints
 62
     0
100
AcDbPoint
 10
-46.14066183090262
 20
101.3243270813389
 30
0.0
  0
POINT
  5
28A
330
280
100
AcDbEntity
  8
Defpoints
 62
     0
100
AcDbPoint
 10
36.8593381690974
 20
101.8868270813389
 30
0.0
  0
POINT
  5
28B
330
280
100
AcDbEntity
  8
Defpoints
 62
     0
100
AcDbPoint
 10
36.8593381690974
 20
136.4868112494177
 30
0.0
  0
ENDBLK
  5
282
330
280
100
AcDbEntity
  8
0
100
AcDbBlockEnd
  0
BLOCK
  5
28D
330
28C
100
AcDbEntity
  8
0
100
AcDbBlockBegin
  2
*D13
 70
     1
 10
0.0
 20
0.0
 30
0.0
  3
*D13
  1
*D14
  0
LINE
  5
28F
330
28C
100
AcDbEntity
  8
치수문자_일반주서
 62
     0
370
    -2
100
AcDbLine
 10
10.85938003332616
 20
94.22327959755405
 30
0.0
 11
10.85938003332616
 21
127.5038066706009
 31
0.0
  0
LINE
  5
290
330
28C
100
AcDbEntity
  8
치수문자_일반주서
 62
     0
370
    -2
100
AcDbLine
 10
36.8593381690974
 20
101.8868270813389
 30
0.0
 11
36.8593381690974
 21
127.5038066706009
 31
0.0
  0
LINE
  5
291
330
28C
100
AcDbEntity
  8
치수문자_일반주서
 62
     0
370
    -2
100
AcDbLine
 10
14.16138003332616
 20
127.5038066706009
 30
0.0
 11
33.5573381690974
 21
127.5038066706009
 31
0.0
  0
SOLID
  5
292
330
28C
100
AcDbEntity
  8
치수문자_일반주서
 62
     0
100
AcDbTrace
 10
14.16138003332616
 20
128.0541400039342
 30
0.0
 11
14.16138003332616
 21
126.9534733372676
 31
0.0
 12
10.85938003332616
 22
127.5038066706009
 32
0.0
 13
10.85938003332616
 23
127.5038066706009
 33
0.0
  0
SOLID
  5
293
330
28C
100
AcDbEntity
  8
치수문자_일반주서
 62
     0
100
AcDbTrace
 10
33.5573381690974
 20
126.9534733372676
 30
0.0
 11
33.5573381690974
 21
128.0541400039342
 31
0.0
 12
36.8593381690974
 22
127.5038066706009
 32
0.0
 13
36.8593381690974
 23
127.5038066706009
 33
0.0
  0
MTEXT
  5
294
330
28C
100
AcDbEntity
  8
치수문자_일반주서
 62
     0
100
AcDbMText
 10
23.90593389602942
 20
131.8788066706009
 30
0.0
 40
3.5
 41
0.0
 71
     2
 72
     1
  1
\A1;26 [1.02]
  7
SLDTEXTSTYLE0
 73
     1
 44
1.0
  0
POINT
  5
295
330
28C
100
AcDbEntity
  8
Defpoints
 62
     0
100
AcDbPoint
 10
10.85938003332616
 20
94.16077959755405
 30
0.0
  0
POINT
  5
296
330
28C
100
AcDbEntity
  8
Defpoints
 62
     0
100
AcDbPoint
 10
36.8593381690974
 20
101.8243270813389
 30
0.0
  0
POINT
  5
297
330
28C
100
AcDbEntity
  8
Defpoints
 62
     0
100
AcDbPoint
 10
36.8593381690974
 20
127.5038066706009
 30
0.0
  0
ENDBLK
  5
28E
330
28C
100
AcDbEntity
  8
0
100
AcDbBlockEnd
  0
BLOCK
  5
299
330
298
100
AcDbEntity
  8
0
100
AcDbBlockBegin
  2
*D14
 70
     1
 10
0.0
 20
0.0
 30
0.0
  3
*D14
  1
*D15
  0
LINE
  5
29B
330
298
100
AcDbEntity
  8
치수문자_일반주서
 62
     0
370
    -2
100
AcDbLine
 10
-45.70316183090261
 20
101.8243270813389
 30
0.0
 11
-61.14066183090267
 21
101.8243270813389
 31
0.0
  0
LINE
  5
29C
330
298
100
AcDbEntity
  8
치수문자_일반주서
 62
     0
370
    -2
100
AcDbLine
 10
-45.70316183090261
 20
87.82432708133892
 30
0.0
 11
-61.14066183090262
 21
87.82432708133886
 31
0.0
  0
LINE
  5
29D
330
298
100
AcDbEntity
  8
치수문자_일반주서
 62
     0
370
    -2
100
AcDbLine
 10
-61.14066183090267
 20
101.8243270813389
 30
0.0
 11
-61.14066183090262
 21
87.82432708133886
 31
0.0
  0
LINE
  5
29E
330
298
100
AcDbEntity
  8
치수문자_일반주서
 62
     0
370
    -2
100
AcDbLine
 10
-61.14066183090269
 20
105.1263270813389
 30
0.0
 11
-61.1406618309027
 21
108.4283270813389
 31
0.0
  0
LINE
  5
29F
330
298
100
AcDbEntity
  8
치수문자_일반주서
 62
     0
370
    -2
100
AcDbLine
 10
-61.14066183090261
 20
84.52232708133886
 30
0.0
 11
-61.14066183090259
 21
81.22032708133885
 31
0.0
  0
SOLID
  5
2A0
330
298
100
AcDbEntity
  8
치수문자_일반주서
 62
     0
100
AcDbTrace
 10
-61.69099516423602
 20
105.1263270813389
 30
0.0
 11
-60.59032849756935
 21
105.1263270813389
 31
0.0
 12
-61.14066183090267
 22
101.8243270813389
 32
0.0
 13
-61.14066183090267
 23
101.8243270813389
 33
0.0
  0
SOLID
  5
2A1
330
298
100
AcDbEntity
  8
치수문자_일반주서
 62
     0
100
AcDbTrace
 10
-60.59032849756927
 20
84.52232708133886
 30
0.0
 11
-61.69099516423594
 21
84.52232708133886
 31
0.0
 12
-61.14066183090262
 22
87.82432708133886
 32
0.0
 13
-61.14066183090262
 23
87.82432708133886
 33
0.0
  0
MTEXT
  5
2A2
330
298
100
AcDbEntity
  8
치수문자_일반주서
 62
     0
100
AcDbMText
 10
-65.51566183090264
 20
94.82432708133891
 30
0.0
 40
3.5
 41
0.0
 71
     2
 72
     1
  1
\A1;%%c14
  7
SLDTEXTSTYLE0
 11
-3.552713678800501E-15
 21
1.0
 31
0.0
 73
     1
 44
1.0
  0
POINT
  5
2A3
330
298
100
AcDbEntity
  8
Defpoints
 62
     0
100
AcDbPoint
 10
-45.64066183090261
 20
101.8243270813389
 30
0.0
  0
POINT
  5
2A4
330
298
100
AcDbEntity
  8
Defpoints
 62
     0
100
AcDbPoint
 10
-45.64066183090261
 20
87.82432708133892
 30
0.0
  0
POINT
  5
2A5
330
298
100
AcDbEntity
  8
Defpoints
 62
     0
100
AcDbPoint
 10
-61.14066183090263
 20
87.82432708133886
 30
0.0
  0
ENDBLK
  5
29A
330
298
100
AcDbEntity
  8
0
100
AcDbBlockEnd
  0
BLOCK
  5
2A7
330
2A6
100
AcDbEntity
  8
0
100
AcDbBlockBegin
  2
*D15
 70
     1
 10
0.0
 20
0.0
 30
0.0
  3
*D15
  1
*D16
  0
LINE
  5
2A9
330
2A6
100
AcDbEntity
  8
치수문자_일반주서
 62
     0
370
    -2
100
AcDbLine
 10
36.92183816909741
 20
101.8243270813389
 30
0.0
 11
51.85933816909741
 21
101.824327081339
 31
0.0
  0
LINE
  5
2AA
330
2A6
100
AcDbEntity
  8
치수문자_일반주서
 62
     0
370
    -2
100
AcDbLine
 10
36.9218381690974
 20
87.82432708133892
 30
0.0
 11
51.85933816909746
 21
87.82432708133898
 31
0.0
  0
LINE
  5
2AB
330
2A6
100
AcDbEntity
  8
치수문자_일반주서
 62
     0
370
    -2
100
AcDbLine
 10
51.85933816909741
 20
101.824327081339
 30
0.0
 11
51.85933816909746
 21
87.82432708133898
 31
0.0
  0
LINE
  5
2AC
330
2A6
100
AcDbEntity
  8
치수문자_일반주서
 62
     0
370
    -2
100
AcDbLine
 10
51.85933816909739
 20
105.126327081339
 30
0.0
 11
51.85933816909738
 21
108.428327081339
 31
0.0
  0
LINE
  5
2AD
330
2A6
100
AcDbEntity
  8
치수문자_일반주서
 62
     0
370
    -2
100
AcDbLine
 10
51.85933816909747
 20
84.52232708133897
 30
0.0
 11
51.85933816909748
 21
81.22032708133897
 31
0.0
  0
SOLID
  5
2AE
330
2A6
100
AcDbEntity
  8
치수문자_일반주서
 62
     0
100
AcDbTrace
 10
51.30900483576406
 20
105.126327081339
 30
0.0
 11
52.40967150243073
 21
105.126327081339
 31
0.0
 12
51.85933816909741
 22
101.824327081339
 32
0.0
 13
51.85933816909741
 23
101.824327081339
 33
0.0
  0
SOLID
  5
2AF
330
2A6
100
AcDbEntity
  8
치수문자_일반주서
 62
     0
100
AcDbTrace
 10
52.4096715024308
 20
84.52232708133897
 30
0.0
 11
51.30900483576414
 21
84.52232708133897
 31
0.0
 12
51.85933816909746
 22
87.82432708133898
 32
0.0
 13
51.85933816909746
 23
87.82432708133898
 33
0.0
  0
MTEXT
  5
2B0
330
2A6
100
AcDbEntity
  8
치수문자_일반주서
 62
     0
100
AcDbMText
 10
47.48433816909743
 20
94.89003146305195
 30
0.0
 40
3.5
 41
0.0
 71
     2
 72
     1
  1
\A1;%%c14
  7
SLDTEXTSTYLE0
 11
-3.552713678800501E-15
 21
1.0
 31
0.0
 73
     1
 44
1.0
  0
POINT
  5
2B1
330
2A6
100
AcDbEntity
  8
Defpoints
 62
     0
100
AcDbPoint
 10
36.85933816909741
 20
101.8243270813389
 30
0.0
  0
POINT
  5
2B2
330
2A6
100
AcDbEntity
  8
Defpoints
 62
     0
100
AcDbPoint
 10
36.8593381690974
 20
87.82432708133892
 30
0.0
  0
POINT
  5
2B3
330
2A6
100
AcDbEntity
  8
Defpoints
 62
     0
100
AcDbPoint
 10
51.85933816909746
 20
87.82432708133898
 30
0.0
  0
ENDBLK
  5
2A8
330
2A6
100
AcDbEntity
  8
0
100
AcDbBlockEnd
  0
BLOCK
  5
2B5
330
2B4
100
AcDbEntity
  8
0
100
AcDbBlockBegin
  2
*D16
 70
     1
 10
0.0
 20
0.0
 30
0.0
  3
*D16
  1
*D17
  0
LINE
  5
2B7
330
2B4
100
AcDbEntity
  8
치수문자_일반주서
 62
     0
370
    -2
100
AcDbLine
 10
38.35011335076685
 20
85.08518858846014
 30
0.0
 11
54.10376491604414
 21
59.45283207811958
 31
0.0
  0
MTEXT
  5
2B8
330
2B4
100
AcDbEntity
  8
치수문자_일반주서
 62
     0
100
AcDbMText
 10
50.15497657052502
 20
70.89105098895935
 30
0.0
 40
3.5
 41
0.0
 71
     5
 72
     1
  1
\A1;R.5 [R0.02]
  7
SLDTEXTSTYLE0
 11
0.5236126201129557
 21
-0.8519564684057781
 31
0.0
 73
     1
 44
1.0
  0
SOLID
  5
2B9
330
2B4
100
AcDbEntity
  8
치수문자_일반주서
 62
     0
100
AcDbTrace
 10
38.8189733938795
 20
85.3733500670623
 30
0.0
 11
37.8812533076542
 21
84.79702710985798
 31
0.0
 12
36.62114447915387
 22
87.89834884713602
 32
0.0
 13
36.62114447915387
 23
87.89834884713602
 33
0.0
  0
LINE
  5
2BA
330
2B4
100
AcDbEntity
  8
치수문자_일반주서
 62
     0
100
AcDbLine
 10
36.26933816909738
 20
88.32432708133892
 30
0.0
 11
36.44933816909739
 21
88.32432708133892
 31
0.0
  0
LINE
  5
2BB
330
2B4
100
AcDbEntity
  8
치수문자_일반주서
 62
     0
100
AcDbLine
 10
36.35933816909738
 20
88.23432708133892
 30
0.0
 11
36.35933816909738
 21
88.41432708133893
 31
0.0
  0
POINT
  5
2BC
330
2B4
100
AcDbEntity
  8
Defpoints
 62
     0
100
AcDbPoint
 10
36.62114447915387
 20
87.89834884713602
 30
0.0
  0
POINT
  5
2BD
330
2B4
100
AcDbEntity
  8
Defpoints
 62
     0
100
AcDbPoint
 10
36.35933816909738
 20
88.32432708133892
 30
0.0
  0
ENDBLK
  5
2B6
330
2B4
100
AcDbEntity
  8
0
100
AcDbBlockEnd
  0
BLOCK
  5
2EB
330
2EA
100
AcDbEntity
  8
0
100
AcDbBlockBegin
  2
*D17
 70
     1
 10
0.0
 20
0.0
 30
0.0
  3
*D17
  1
*D18
  0
LINE
  5
2ED
330
2EA
100
AcDbEntity
  8
치수문자_일반주서
 62
     0
370
    -2
100
AcDbLine
 10
216.9910326953691
 20
3.572949928723919
 30
0.0
 11
230.4260549755705
 21
3.572949928723968
 31
0.0
  0
LINE
  5
2EE
330
2EA
100
AcDbEntity
  8
치수문자_일반주서
 62
     0
370
    -2
100
AcDbLine
 10
216.9910326953691
 20
-3.570800071276081
 30
0.0
 11
230.4260549755706
 21
-3.570800071276032
 31
0.0
  0
LINE
  5
2EF
330
2EA
100
AcDbEntity
  8
치수문자_일반주서
 62
     0
370
    -2
100
AcDbLine
 10
230.4260549755705
 20
3.572949928723968
 30
0.0
 11
230.4260549755704
 21
35.98944992872397
 31
0.0
  0
LINE
  5
2F0
330
2EA
100
AcDbEntity
  8
치수문자_일반주서
 62
     0
370
    -2
100
AcDbLine
 10
230.4260549755705
 20
3.572949928723968
 30
0.0
 11
230.4260549755706
 21
-3.570800071276032
 31
0.0
  0
LINE
  5
2F1
330
2EA
100
AcDbEntity
  8
치수문자_일반주서
 62
     0
370
    -2
100
AcDbLine
 10
230.4260549755705
 20
6.874949928723968
 30
0.0
 11
230.4260549755705
 21
10.17694992872397
 31
0.0
  0
LINE
  5
2F2
330
2EA
100
AcDbEntity
  8
치수문자_일반주서
 62
     0
370
    -2
100
AcDbLine
 10
230.4260549755706
 20
-6.872800071276032
 30
0.0
 11
230.4260549755706
 21
-10.17480007127603
 31
0.0
  0
SOLID
  5
2F3
330
2EA
100
AcDbEntity
  8
치수문자_일반주서
 62
     0
100
AcDbTrace
 10
229.8757216422372
 20
6.874949928723966
 30
0.0
 11
230.9763883089039
 21
6.87494992872397
 31
0.0
 12
230.4260549755705
 22
3.572949928723968
 32
0.0
 13
230.4260549755705
 23
3.572949928723968
 33
0.0
  0
SOLID
  5
2F4
330
2EA
100
AcDbEntity
  8
치수문자_일반주서
 62
     0
100
AcDbTrace
 10
230.9763883089039
 20
-6.87280007127603
 30
0.0
 11
229.8757216422372
 21
-6.872800071276034
 31
0.0
 12
230.4260549755706
 22
-3.570800071276032
 32
0.0
 13
230.4260549755706
 23
-3.570800071276032
 33
0.0
  0
MTEXT
  5
2F5
330
2EA
100
AcDbEntity
  8
치수문자_일반주서
 62
     0
100
AcDbMText
 10
226.0510549755705
 20
23.08319992872395
 30
0.0
 40
3.5
 41
0.0
 71
     2
 72
     1
  1
\A1;%%c7.14 [0.28]
  7
SLDTEXTSTYLE0
 11
-3.978542002506248E-15
 21
1.0
 31
0.0
 73
     1
 44
1.0
  0
POINT
  5
2F6
330
2EA
100
AcDbEntity
  8
Defpoints
 62
     0
100
AcDbPoint
 10
216.9285326953691
 20
3.572949928723919
 30
0.0
  0
POINT
  5
2F7
330
2EA
100
AcDbEntity
  8
Defpoints
 62
     0
100
AcDbPoint
 10
216.9285326953691
 20
-3.570800071276081
 30
0.0
  0
POINT
  5
2F8
330
2EA
100
AcDbEntity
  8
Defpoints
 62
     0
100
AcDbPoint
 10
230.4260549755706
 20
-3.570800071276031
 30
0.0
  0
ENDBLK
  5
2EC
330
2EA
100
AcDbEntity
  8
0
100
AcDbBlockEnd
  0
BLOCK
  5
2FA
330
2F9
100
AcDbEntity
  8
0
100
AcDbBlockBegin
  2
*D18
 70
     1
 10
0.0
 20
0.0
 30
0.0
  3
*D18
  1
*D19
  0
LINE
  5
2FC
330
2F9
100
AcDbEntity
  8
치수문자_일반주서
 62
     0
370
    -2
100
AcDbLine
 10
216.9285326953691
 20
3.622314685339124
 30
0.0
 11
216.9285326953691
 21
24.7708538618602
 31
0.0
  0
LINE
  5
2FD
330
2F9
100
AcDbEntity
  8
치수문자_일반주서
 62
     0
370
    -2
100
AcDbLine
 10
199.4660326953691
 20
3.610325914210808
 30
0.0
 11
199.4660326953691
 21
24.7708538618602
 31
0.0
  0
LINE
  5
2FE
330
2F9
100
AcDbEntity
  8
치수문자_일반주서
 62
     0
370
    -2
100
AcDbLine
 10
199.4660326953691
 20
24.7708538618602
 30
0.0
 11
166.5885360586911
 21
24.7708538618602
 31
0.0
  0
LINE
  5
2FF
330
2F9
100
AcDbEntity
  8
치수문자_일반주서
 62
     0
370
    -2
100
AcDbLine
 10
216.9285326953691
 20
24.7708538618602
 30
0.0
 11
199.4660326953691
 21
24.7708538618602
 31
0.0
  0
LINE
  5
300
330
2F9
100
AcDbEntity
  8
치수문자_일반주서
 62
     0
370
    -2
100
AcDbLine
 10
220.230532695369
 20
24.7708538618602
 30
0.0
 11
223.532532695369
 21
24.7708538618602
 31
0.0
  0
LINE
  5
301
330
2F9
100
AcDbEntity
  8
치수문자_일반주서
 62
     0
370
    -2
100
AcDbLine
 10
196.1640326953691
 20
24.7708538618602
 30
0.0
 11
192.8620326953691
 21
24.7708538618602
 31
0.0
  0
SOLID
  5
302
330
2F9
100
AcDbEntity
  8
치수문자_일반주서
 62
     0
100
AcDbTrace
 10
220.230532695369
 20
25.32118719519353
 30
0.0
 11
220.230532695369
 21
24.22052052852687
 31
0.0
 12
216.9285326953691
 22
24.7708538618602
 32
0.0
 13
216.9285326953691
 23
24.7708538618602
 33
0.0
  0
SOLID
  5
303
330
2F9
100
AcDbEntity
  8
치수문자_일반주서
 62
     0
100
AcDbTrace
 10
196.1640326953691
 20
24.22052052852687
 30
0.0
 11
196.1640326953691
 21
25.32118719519353
 31
0.0
 12
199.4660326953691
 22
24.7708538618602
 32
0.0
 13
199.4660326953691
 23
24.7708538618602
 33
0.0
  0
MTEXT
  5
304
330
2F9
100
AcDbEntity
  8
치수문자_일반주서
 62
     0
100
AcDbMText
 10
179.4947860586911
 20
29.1458538618602
 30
0.0
 40
3.5
 41
0.0
 71
     2
 72
     1
  1
\A1;17.46 [0.69]
  7
SLDTEXTSTYLE0
 73
     1
 44
1.0
  0
POINT
  5
305
330
2F9
100
AcDbEntity
  8
Defpoints
 62
     0
100
AcDbPoint
 10
216.9285326953691
 20
3.559814685339124
 30
0.0
  0
POINT
  5
306
330
2F9
100
AcDbEntity
  8
Defpoints
 62
     0
100
AcDbPoint
 10
199.4660326953691
 20
3.547825914210808
 30
0.0
  0
POINT
  5
307
330
2F9
100
AcDbEntity
  8
Defpoints
 62
     0
100
AcDbPoint
 10
199.4660326953691
 20
24.7708538618602
 30
0.0
  0
ENDBLK
  5
2FB
330
2F9
100
AcDbEntity
  8
0
100
AcDbBlockEnd
  0
BLOCK
  5
309
330
308
100
AcDbEntity
  8
0
100
AcDbBlockBegin
  2
*D19
 70
     1
 10
0.0
 20
0.0
 30
0.0
  3
*D19
  1
*D20
  0
LINE
  5
30B
330
308
100
AcDbEntity
  8
치수문자_일반주서
 62
     0
370
    -2
100
AcDbLine
 10
216.9285326953691
 20
3.622314685339124
 30
0.0
 11
216.9285326953691
 21
51.15023362831354
 31
0.0
  0
LINE
  5
30C
330
308
100
AcDbEntity
  8
치수문자_일반주서
 62
     0
370
    -2
100
AcDbLine
 10
131.2035326953691
 20
3.873574928723895
 30
0.0
 11
131.2035326953691
 21
51.15023362831354
 31
0.0
  0
LINE
  5
30D
330
308
100
AcDbEntity
  8
치수문자_일반주서
 62
     0
370
    -2
100
AcDbLine
 10
213.6265326953691
 20
51.15023362831354
 30
0.0
 11
134.5055326953691
 21
51.15023362831354
 31
0.0
  0
SOLID
  5
30E
330
308
100
AcDbEntity
  8
치수문자_일반주서
 62
     0
100
AcDbTrace
 10
213.6265326953691
 20
50.5999002949802
 30
0.0
 11
213.6265326953691
 21
51.70056696164687
 31
0.0
 12
216.9285326953691
 22
51.15023362831354
 32
0.0
 13
216.9285326953691
 23
51.15023362831354
 33
0.0
  0
SOLID
  5
30F
330
308
100
AcDbEntity
  8
치수문자_일반주서
 62
     0
100
AcDbTrace
 10
134.5055326953691
 20
51.70056696164687
 30
0.0
 11
134.5055326953691
 21
50.5999002949802
 31
0.0
 12
131.2035326953691
 22
51.15023362831354
 32
0.0
 13
131.2035326953691
 23
51.15023362831354
 33
0.0
  0
MTEXT
  5
310
330
308
100
AcDbEntity
  8
치수문자_일반주서
 62
     0
100
AcDbMText
 10
171.8787634661874
 20
55.52523362831354
 30
0.0
 40
3.5
 41
0.0
 71
     2
 72
     1
  1
\A1;85.73 [3.38]
  7
SLDTEXTSTYLE0
 73
     1
 44
1.0
  0
POINT
  5
311
330
308
100
AcDbEntity
  8
Defpoints
 62
     0
100
AcDbPoint
 10
216.9285326953691
 20
3.559814685339124
 30
0.0
  0
POINT
  5
312
330
308
100
AcDbEntity
  8
Defpoints
 62
     0
100
AcDbPoint
 10
131.2035326953691
 20
3.811074928723895
 30
0.0
  0
POINT
  5
313
330
308
100
AcDbEntity
  8
Defpoints
 62
     0
100
AcDbPoint
 10
131.2035326953691
 20
51.15023362831354
 30
0.0
  0
ENDBLK
  5
30A
330
308
100
AcDbEntity
  8
0
100
AcDbBlockEnd
  0
ENDSEC
  0
SECTION
  2
ENTITIES
  0
LINE
  5
96
330
1F
100
AcDbEntity
  8
0
  6
Continuous
 62
     1
370
    15
100
AcDbLine
 10
33.67555628545731
 20
-3.571875000000003
 30
0.0
 11
35.85198905891556
 21
-3.571875000000003
 31
0.0
  0
LINE
  5
97
330
1F
100
AcDbEntity
  8
0
  6
Continuous
 62
     1
370
    15
100
AcDbLine
 10
26.13445354279501
 20
3.571875
 30
0.0
 11
25.4
 21
3.571875
 31
0.0
  0
LINE
  5
98
330
1F
100
AcDbEntity
  8
0
  6
Continuous
 62
     1
370
    15
100
AcDbLine
 10
35.85198905891555
 20
3.571875
 30
0.0
 11
33.67555628545738
 21
3.571875
 31
0.0
  0
LINE
  5
99
330
1F
100
AcDbEntity
  8
0
  6
Continuous
 62
     1
370
    15
100
AcDbLine
 10
25.4
 20
-3.571875000000003
 30
0.0
 11
26.13445354279497
 21
-3.571875000000003
 31
0.0
  0
LINE
  5
9A
330
1F
100
AcDbEntity
  8
외형선
  6
Continuous
370
    15
100
AcDbLine
 10
19.95652700723829
 20
-4.76250000000001
 30
0.0
 11
24.4
 21
-3.571875000000003
 31
0.0
  0
LINE
  5
9B
330
1F
100
AcDbEntity
  8
외형선
  6
Continuous
370
    15
100
AcDbLine
 10
24.4
 20
3.571874999999999
 30
0.0
 11
19.95652700723829
 21
4.762500000000006
 31
0.0
  0
LINE
  5
9C
330
1F
100
AcDbEntity
  8
외형선
  6
Continuous
370
    15
100
AcDbLine
 10
-19.95652700723828
 20
-4.762500000000006
 30
0.0
 11
19.95652700723829
 21
-4.762500000000006
 31
0.0
  0
LINE
  5
9D
330
1F
100
AcDbEntity
  8
외형선
  6
Continuous
370
    15
100
AcDbLine
 10
19.95652700723829
 20
4.762500000000002
 30
0.0
 11
4.838700000000104
 21
4.762500000000002
 31
0.0
  0
LINE
  5
A0
330
1F
100
AcDbEntity
  8
외형선
  6
Continuous
370
    15
100
AcDbLine
 10
24.4
 20
-3.571875000000002
 30
0.0
 11
25.4
 21
-3.571875000000002
 31
0.0
  0
LINE
  5
A1
330
1F
100
AcDbEntity
  8
외형선
  6
Continuous
370
    15
100
AcDbLine
 10
25.4
 20
3.571874999999999
 30
0.0
 11
24.4
 21
3.571874999999999
 31
0.0
  0
SPLINE
  5
A2
330
1F
100
AcDbEntity
  8
0
  6
Continuous
 62
     1
370
    15
100
AcDbSpline
210
0.0
220
0.0
230
1.0
 70
     8
 71
     3
 72
    17
 73
    13
 74
     0
 42
0.000000001
 43
0.00000001
 40
0.0
 40
0.0
 40
0.0
 40
0.0
 40
0.0981737418219812
 40
0.1964093195760686
 40
0.2945956628883532
 40
0.3927253670321442
 40
0.4908237253949748
 40
0.5889162234968469
 40
0.6870283828373696
 40
0.7949749291986559
 40
0.9029290552192191
 40
1.0
 40
1.0
 40
1.0
 40
1.0
 10
25.39999999999998
 20
0.422904791380499
 30
0.0
 10
25.86576779507433
 20
0.1538230990466678
 30
0.0
 10
26.79759675476584
 20
-0.3845097700162043
 30
0.0
 10
28.19557968869717
 20
-1.177639244518812
 30
0.0
 10
29.59310117715041
 20
-1.909743149450099
 30
0.0
 10
30.98981710812138
 20
-2.545174211251396
 30
0.0
 10
32.38599219514555
 20
-3.051302463147655
 30
0.0
 10
33.78208544469039
 20
-3.40230368096559
 30
0.0
 10
35.22488531528256
 20
-3.587639423823024
 30
0.0
 10
36.71488626861872
 20
-3.570979723216632
 30
0.0
 10
38.19985223539266
 20
-3.358547955857604
 30
0.0
 10
39.17268036628077
 20
-3.058765826327536
 30
0.0
 10
39.63327450438074
 20
-2.916831308621288
 30
0.0
  0
SPLINE
  5
A3
330
1F
100
AcDbEntity
  8
외형선
  6
Continuous
370
    15
100
AcDbSpline
210
0.0
220
0.0
230
1.0
 70
    24
 71
     3
 72
    19
 73
    15
 74
     0
 42
0.000000001
 43
0.00000001
 40
0.0
 40
0.0
 40
0.0
 40
0.0
 40
0.1371465771864338
 40
0.2153529735972098
 40
0.295827360801976
 40
0.3740337572127532
 40
0.4545081444175209
 40
0.5327145408282999
 40
0.6131889280330693
 40
0.691395324443845
 40
0.7718697116486111
 40
0.8500761080593898
 40
0.9305504952641592
 40
1.0
 40
1.0
 40
1.0
 40
1.0
 10
25.39999999999998
 20
3.475068217944628
 30
0.0
 10
25.40000000000001
 20
3.28686568647265
 30
0.0
 10
25.40000000000004
 20
2.991342636444813
 30
0.0
 10
25.39999999999998
 20
2.543949683230397
 30
0.0
 10
25.40000000000001
 20
2.183364577251581
 30
0.0
 10
25.39999999999998
 20
1.824312750587517
 30
0.0
 10
25.40000000000004
 20
1.484294863416054
 30
0.0
 10
25.40000000000008
 20
1.166589527056515
 30
0.0
 10
25.39999999999991
 20
0.8859337393299354
 30
0.0
 10
25.40000000000007
 20
0.6453407738855614
 30
0.0
 10
25.3999999999999
 20
0.4554429537804367
 30
0.0
 10
25.40000000000007
 20
0.320112574289049
 30
0.0
 10
25.39999999999993
 20
0.2414957582710744
 30
0.0
 10
25.39999999999997
 20
0.2384062966491612
 30
0.0
 10
25.4
 20
0.236975159978648
 30
0.0
  0
SPLINE
  5
A4
330
1F
100
AcDbEntity
  8
0
  6
Continuous
 62
     1
370
    15
100
AcDbSpline
210
0.0
220
0.0
230
1.0
 70
     8
 71
     3
 72
    40
 73
    36
 74
     0
 42
0.000000001
 43
0.00000001
 40
0.0
 40
0.0
 40
0.0
 40
0.0
 40
0.0625
 40
0.0625
 40
0.125
 40
0.125
 40
0.1875
 40
0.1875
 40
0.25
 40
0.25
 40
0.3125
 40
0.3125
 40
0.375
 40
0.375
 40
0.4375
 40
0.4375
 40
0.5
 40
0.5
 40
0.5625
 40
0.5625
 40
0.625
 40
0.625
 40
0.6875
 40
0.6875
 40
0.75
 40
0.75
 40
0.8125
 40
0.8125
 40
0.875
 40
0.875
 40
0.90625
 40
0.90625
 40
0.9375
 40
0.9375
 40
1.0
 40
1.0
 40
1.0
 40
1.0
 10
42.86249999999999
 20
-3.571874999999976
 30
0.0
 10
42.5018378839
 20
-3.540795863752137
 30
0.0
 10
42.13488326143514
 20
-3.504254091962143
 30
0.0
 10
41.4053459845467
 20
-3.395257972945964
 30
0.0
 10
41.0457158371842
 20
-3.323159403570916
 30
0.0
 10
40.31591620360738
 20
-3.144617275533201
 30
0.0
 10
39.94986027121123
 20
-3.038344891685245
 30
0.0
 10
39.22775848641657
 20
-2.796608891924466
 30
0.0
 10
38.86067889641554
 20
-2.659900264154894
 30
0.0
 10
38.13143824798075
 20
-2.360857646978527
 30
0.0
 10
37.77174882918844
 20
-2.199017745256659
 30
0.0
 10
37.04172115185094
 20
-1.85266998588058
 30
0.0
 10
36.67650564118394
 20
-1.668890200022179
 30
0.0
 10
35.95365941648981
 20
-1.287317019129672
 30
0.0
 10
35.58647235506365
 20
-1.087831404823433
 30
0.0
 10
34.85756256032991
 20
-0.6806011293462587
 30
0.0
 10
34.49775460795889
 20
-0.473274111651544
 30
0.0
 10
33.76753323558216
 20
-0.0538563533603736
 30
0.0
 10
33.40309974746675
 20
0.1570887734536571
 30
0.0
 10
32.67954231095943
 20
0.5741688153158969
 30
0.0
 10
32.31226529143732
 20
0.7818530126955514
 30
0.0
 10
31.58372052379415
 20
1.185839287249266
 30
0.0
 10
31.22373479425468
 20
1.381951618978161
 30
0.0
 10
30.4933541059733
 20
1.759691206377875
 30
0.0
 10
30.12964411938958
 20
1.940109049640244
 30
0.0
 10
29.4054088095319
 20
2.278578212843204
 30
0.0
 10
29.03805935966032
 20
2.437629712594307
 30
0.0
 10
28.30991373531661
 20
2.727865548292683
 30
0.0
 10
27.94969101284994
 20
2.859109764140091
 30
0.0
 10
27.40181181282809
 20
3.033635763530955
 30
0.0
 10
27.21897401547362
 20
3.087957572767818
 30
0.0
 10
26.85500737625587
 20
3.188288307669429
 30
0.0
 10
26.6749203590873
 20
3.234221627001334
 30
0.0
 10
26.13126055452328
 20
3.359609419765933
 30
0.0
 10
25.76385621366015
 20
3.426498966114323
 30
0.0
 10
25.4
 20
3.475068217944629
 30
0.0
  0
LINE
  5
A5
330
1F
100
AcDbEntity
  8
0
  6
Continuous
 62
     1
370
    15
100
AcDbLine
 10
42.8625
 20
-3.234980569372866
 30
0.0
 11
42.8625
 21
0.3060430693729086
 31
0.0
  0
SPLINE
  5
A6
330
1F
100
AcDbEntity
  8
0
  6
Continuous
 62
     1
370
    15
100
AcDbSpline
210
0.0
220
0.0
230
1.0
 70
     8
 71
     3
 72
    19
 73
    15
 74
     0
 42
0.000000001
 43
0.00000001
 40
0.0
 40
0.0
 40
0.0
 40
0.0
 40
0.0396285692848981
 40
0.1232155588790814
 40
0.2067606557204678
 40
0.2902575592525092
 40
0.3737277911903388
 40
0.4571930367313551
 40
0.5406750116873971
 40
0.6325249000243487
 40
0.7243812377650266
 40
0.816245133501877
 40
0.9081176893460693
 40
1.0
 40
1.0
 40
1.0
 40
1.0
 10
26.13445354279501
 20
3.549191511300303
 30
0.0
 10
26.35541593571822
 20
3.553935146797224
 30
0.0
 10
27.04244565257634
 20
3.568684346917719
 30
0.0
 10
28.19558540281477
 20
3.398308212326302
 30
0.0
 10
29.59309964776464
 20
3.056109951490132
 30
0.0
 10
30.98981751612097
 20
2.548874928917141
 30
0.0
 10
32.38599209163936
 20
1.914980717988005
 30
0.0
 10
33.78208545080548
 20
1.183204773575218
 30
0.0
 10
35.22488539680725
 20
0.3651528740684678
 30
0.0
 10
36.71488589638626
 20
-0.5014072816644695
 30
0.0
 10
38.25153353555174
 20
-1.36536969476819
 30
0.0
 10
39.78836481474258
 20
-2.141738209677106
 30
0.0
 10
41.32535890577079
 20
-2.800930471497495
 30
0.0
 10
42.35010150209716
 20
-3.090292083064818
 30
0.0
 10
42.8625
 20
-3.234980569372867
 30
0.0
  0
SPLINE
  5
A7
330
1F
100
AcDbEntity
  8
0
  6
Continuous
 62
     1
370
    15
100
AcDbSpline
210
0.0
220
0.0
230
1.0
 70
     8
 71
     3
 72
    17
 73
    13
 74
     0
 42
0.000000001
 43
0.00000001
 40
0.0
 40
0.0
 40
0.0
 40
0.0
 40
0.1078091159958849
 40
0.2155448956123865
 40
0.323234968709557
 40
0.4309072449347031
 40
0.538589743157233
 40
0.6463104194933835
 40
0.7540969961414556
 40
0.8726309934016471
 40
0.9911587452044964
 40
1.0
 40
1.0
 40
1.0
 40
1.0
 10
42.86249999999999
 20
0.3060430693729089
 30
0.0
 10
42.39645652506931
 20
0.5724275785178212
 30
0.0
 10
41.46468659794559
 20
1.105015390652266
 30
0.0
 10
40.06764739113873
 20
1.843855253328281
 30
0.0
 10
38.6712995506182
 20
2.490072613548487
 30
0.0
 10
37.27523384957695
 20
3.009492568537468
 30
0.0
 10
35.87900569848328
 20
3.376574214724684
 30
0.0
 10
34.48219318832633
 20
3.571104548811906
 30
0.0
 10
33.03827148125107
 20
3.589244577477215
 30
0.0
 10
31.54749799037456
 20
3.385868475819375
 30
0.0
 10
30.48449418427914
 20
3.144833014017733
 30
0.0
 10
29.93390900507953
 20
2.934659560818826
 30
0.0
 10
29.8956904149693
 20
2.920070477488358
 30
0.0
  0
SPLINE
  5
A8
330
1F
100
AcDbEntity
  8
0
  6
Continuous
 62
     1
370
    15
100
AcDbSpline
210
0.0
220
0.0
230
1.0
 70
     8
 71
     3
 72
    13
 73
     9
 74
     0
 42
0.000000001
 43
0.00000001
 40
0.0
 40
0.0
 40
0.0
 40
0.0
 40
0.0714001347238693
 40
0.2571490966824819
 40
0.4428882716833859
 40
0.6286083332940361
 40
0.8143114988121417
 40
0.9999999999999999
 40
0.9999999999999999
 40
0.9999999999999999
 40
0.9999999999999999
 10
33.67555628545731
 20
-3.549672699514449
 30
0.0
 10
33.47860924577204
 20
-3.554872435804473
 30
0.0
 10
32.76930031315988
 20
-3.573599396126582
 30
0.0
 10
31.5474893507118
 20
-3.389755528261791
 30
0.0
 10
30.01039638203128
 20
-2.996304174356772
 30
0.0
 10
28.47344529062867
 20
-2.405730320433525
 30
0.0
 10
26.93666479078431
 20
-1.674424398677367
 30
0.0
 10
25.9122081134349
 20
-1.10876674671332
 30
0.0
 10
25.4
 20
-0.8259490881744025
 30
0.0
  0
LINE
  5
A9
330
1F
100
AcDbEntity
  8
외형선
  6
Continuous
370
    15
100
AcDbLine
 10
25.39999999999998
 20
-0.8259490881744019
 30
0.0
 11
25.39999999999998
 21
0.422904791380499
 31
0.0
  0
LINE
  5
AA
330
1F
100
AcDbEntity
  8
0
  6
Continuous
 62
     1
370
    15
100
AcDbLine
 10
42.8625
 20
-3.571874999999976
 30
0.0
 11
42.8625
 21
-3.234980569372866
 31
0.0
  0
LINE
  5
AB
330
1F
100
AcDbEntity
  8
외형선
  6
Continuous
370
    15
100
AcDbLine
 10
25.39999999999998
 20
3.475068217944628
 30
0.0
 11
25.4
 21
3.571875
 31
0.0
  0
SPLINE
  5
AC
330
1F
100
AcDbEntity
  8
0
  6
Continuous
 62
     1
370
    15
100
AcDbSpline
210
0.0
220
0.0
230
1.0
 70
     8
 71
     3
 72
    12
 73
     8
 74
     0
 42
0.000000001
 43
0.00000001
 40
0.0
 40
0.0
 40
0.0
 40
0.0
 40
0.1230831865202566
 40
0.3422827105010942
 40
0.5615002703540818
 40
0.7807384960800362
 40
1.0
 40
1.0
 40
1.0
 40
1.0
 10
35.85198905891555
 20
3.544786775398465
 30
0.0
 10
36.13960344859033
 20
3.548623703573135
 30
0.0
 10
36.93943188706513
 20
3.559293838241837
 30
0.0
 10
38.2515393240743
 20
3.334646693234647
 30
0.0
 10
39.78836327092589
 20
2.903363260183711
 30
0.0
 10
41.32535929178791
 20
2.29031045538221
 30
0.0
 10
42.35010163077409
 20
1.772998509519373
 30
0.0
 10
42.8625
 20
1.514328805578532
 30
0.0
  0
LINE
  5
AD
330
1F
100
AcDbEntity
  8
0
  6
Continuous
 62
     1
370
    15
100
AcDbLine
 10
42.8625
 20
0.3060430693729089
 30
0.0
 11
42.8625
 21
1.514328805578532
 31
0.0
  0
SPLINE
  5
AE
330
1F
100
AcDbEntity
  8
0
  6
Continuous
 62
     1
370
    15
100
AcDbSpline
210
0.0
220
0.0
230
1.0
 70
     8
 71
     3
 72
    11
 73
     7
 74
     0
 42
0.000000001
 43
0.00000001
 40
0.0
 40
0.0
 40
0.0
 40
0.0
 40
0.3108343545082095
 40
0.6218644918366004
 40
0.9327387447538105
 40
1.0
 40
1.0
 40
1.0
 40
1.0
 10
25.39999999999998
 20
-3.546750985486918
 30
0.0
 10
25.86576837274133
 20
-3.56174259486613
 30
0.0
 10
26.79759848813066
 20
-3.591735256273095
 30
0.0
 10
28.19557275159172
 20
-3.394594889090813
 30
0.0
 10
29.22832763158512
 20
-3.165120752853356
 30
0.0
 10
29.79490912915256
 20
-2.957076559421463
 30
0.0
 10
29.89569041496926
 20
-2.92007047748836
 30
0.0
  0
SPLINE
  5
AF
330
1F
100
AcDbEntity
  8
외형선
  6
Continuous
370
    15
100
AcDbSpline
210
0.0
220
0.0
230
1.0
 70
    24
 71
     3
 72
    17
 73
    13
 74
     0
 42
0.000000001
 43
0.00000001
 40
0.0
 40
0.0
 40
0.0
 40
0.0
 40
0.0044521839140934
 40
0.1262001710343288
 40
0.2445169631673518
 40
0.3662649502875817
 40
0.4845817424206093
 40
0.6063297295408441
 40
0.7246465216737428
 40
0.846394508794102
 40
0.9227496691494775
 40
1.0
 40
1.0
 40
1.0
 40
1.0
 10
25.40000000000003
 20
-0.8851843086661229
 30
0.0
 10
25.40000000000003
 20
-0.8873617489046703
 30
0.0
 10
25.39999999999982
 20
-0.94908276848157
 30
0.0
 10
25.40000000000001
 20
-1.116216388717483
 30
0.0
 10
25.40000000000006
 20
-1.385225562253398
 30
0.0
 10
25.39999999999993
 20
-1.693878061652152
 30
0.0
 10
25.40000000000007
 20
-2.031467185982413
 30
0.0
 10
25.39999999999994
 20
-2.384353150891939
 30
0.0
 10
25.4
 20
-2.748441383798388
 30
0.0
 10
25.40000000000007
 20
-3.064760059535946
 30
0.0
 10
25.3999999999999
 20
-3.332599551981716
 30
0.0
 10
25.39999999999996
 20
-3.475090375227986
 30
0.0
 10
25.39999999999998
 20
-3.546750985486918
 30
0.0
  0
SPLINE
  5
B0
330
1F
100
AcDbEntity
  8
0
  6
Continuous
 62
     1
370
    15
100
AcDbSpline
210
0.0
220
0.0
230
1.0
 70
     8
 71
     3
 72
    10
 73
     6
 74
     0
 42
0.000000001
 43
0.00000001
 40
0.0
 40
0.0
 40
0.0
 40
0.0
 40
0.4329098457406759
 40
0.8655252076578513
 40
1.0
 40
1.0
 40
1.0
 40
1.0
 10
42.8625
 20
3.571875000000024
 30
0.0
 10
42.3964576367058
 20
3.516208110963092
 30
0.0
 10
41.46468993209885
 20
3.431173751506303
 30
0.0
 10
40.38834007768943
 20
3.188273622201366
 30
0.0
 10
39.77800420712212
 20
2.968860916041636
 30
0.0
 10
39.63327450438076
 20
2.916831308621285
 30
0.0
  0
LINE
  5
B1
330
1F
100
AcDbEntity
  8
0
  6
Continuous
 62
     1
370
    15
100
AcDbLine
 10
42.8625
 20
1.514328805578532
 30
0.0
 11
42.86250000000002
 21
3.571875000000024
 31
0.0
  0
LINE
  5
B2
330
1F
100
AcDbEntity
  8
외형선
  6
Continuous
370
    15
100
AcDbLine
 10
24.4
 20
-0.0000000000000017
 30
0.0
 11
24.4
 21
3.571874999999999
 31
0.0
  0
LINE
  5
B3
330
1F
100
AcDbEntity
  8
외형선
  6
Continuous
370
    15
100
AcDbLine
 10
24.4
 20
-3.571875000000004
 30
0.0
 11
24.4
 21
-0.0000000000000017
 31
0.0
  0
LINE
  5
B4
330
1F
100
AcDbEntity
  8
외형선
  6
Continuous
370
    15
100
AcDbLine
 10
19.95652700723829
 20
-0.0000000000000017
 30
0.0
 11
19.95652700723829
 21
4.76250000000001
 31
0.0
  0
LINE
  5
B5
330
1F
100
AcDbEntity
  8
외형선
  6
Continuous
370
    15
100
AcDbLine
 10
19.95652700723829
 20
-4.76250000000002
 30
0.0
 11
19.95652700723829
 21
-0.0000000000000017
 31
0.0
  0
SPLINE
  5
BA
330
1F
100
AcDbEntity
  8
외형선
  6
Continuous
370
    15
100
AcDbSpline
210
0.0
220
0.0
230
1.0
 70
     8
 71
     3
 72
     8
 73
     4
 74
     0
 42
0.000000001
 43
0.00000001
 40
0.0
 40
0.0
 40
0.0
 40
0.0
 40
1.0
 40
1.0
 40
1.0
 40
1.0
 10
25.4
 20
3.475068217944626
 30
0.0
 10
25.23258018006497
 20
3.497416208965615
 30
0.0
 10
25.0667832707968
 20
3.515886280296028
 30
0.0
 10
24.90012657473874
 20
3.530526777233914
 30
0.0
  0
LINE
  5
BB
330
1F
100
AcDbEntity
  8
외형선
  6
Continuous
370
    15
100
AcDbLine
 10
24.90012657473874
 20
0.7086222795325489
 30
0.0
 11
24.90012657473874
 21
3.530528528909987
 31
0.0
  0
SPLINE
  5
BC
330
1F
100
AcDbEntity
  8
외형선
  6
Continuous
370
    15
100
AcDbSpline
210
0.0
220
0.0
230
1.0
 70
     8
 71
     3
 72
     8
 73
     4
 74
     0
 42
0.000000001
 43
0.00000001
 40
0.0
 40
0.0
 40
0.0
 40
0.0
 40
1.0
 40
1.0
 40
1.0
 40
1.0
 10
25.39999999999998
 20
0.422904791380499
 30
0.0
 10
25.23258018006497
 20
0.5188704632508317
 30
0.0
 10
25.06678327079675
 20
0.6140626733031048
 30
0.0
 10
24.90012657473876
 20
0.7086430865973982
 30
0.0
  0
SPLINE
  5
BD
330
1F
100
AcDbEntity
  8
외형선
  6
Continuous
370
    15
100
AcDbSpline
210
0.0
220
0.0
230
1.0
 70
     8
 71
     3
 72
     8
 73
     4
 74
     0
 42
0.000000001
 43
0.00000001
 40
0.0
 40
0.0
 40
0.0
 40
0.0
 40
1.0
 40
1.0
 40
1.0
 40
1.0
 10
25.4
 20
-0.8259490881744063
 30
0.0
 10
25.23258018006497
 20
-0.7319229618139964
 30
0.0
 10
25.0667832707968
 20
-0.6372963675747311
 30
0.0
 10
24.90012657473874
 20
-0.5419148372754633
 30
0.0
  0
LINE
  5
BE
330
1F
100
AcDbEntity
  8
외형선
  6
Continuous
370
    15
100
AcDbLine
 10
24.90012657473874
 20
-3.50087781571638
 30
0.0
 11
24.90012657473874
 21
-0.5419034251392567
 31
0.0
  0
SPLINE
  5
BF
330
1F
100
AcDbEntity
  8
외형선
  6
Continuous
370
    15
100
AcDbSpline
210
0.0
220
0.0
230
1.0
 70
     8
 71
     3
 72
     8
 73
     4
 74
     0
 42
0.000000001
 43
0.00000001
 40
0.0
 40
0.0
 40
0.0
 40
0.0
 40
1.0
 40
1.0
 40
1.0
 40
1.0
 10
25.39999999999998
 20
-3.546750985486918
 30
0.0
 10
25.23258018006497
 20
-3.535308303830358
 30
0.0
 10
25.06678327079675
 20
-3.520018470030188
 30
0.0
 10
24.90012657473876
 20
-3.500873604036956
 30
0.0
  0
SPLINE
  5
C0
330
1F
100
AcDbEntity
  8
외형선
  6
Continuous
370
    15
100
AcDbSpline
210
0.0
220
0.0
230
1.0
 70
    24
 71
     3
 72
    20
 73
    16
 74
     0
 42
0.000000001
 43
0.00000001
 40
0.0
 40
0.0
 40
0.0
 40
0.0
 40
0.044451101184451
 40
0.1239101554651726
 40
0.2033692097459276
 40
0.2828282640266829
 40
0.3622873183074233
 40
0.4417463725881638
 40
0.5212054268689018
 40
0.6006644811496398
 40
0.6801235354303734
 40
0.759582589711107
 40
0.8390416439918524
 40
0.918500698272598
 40
1.0
 40
1.0
 40
1.0
 40
1.0
 10
25.4
 20
0.241505251369132
 30
0.0
 10
25.4
 20
0.2395356238713452
 30
0.0
 10
25.40000000000003
 20
0.2340451671007354
 30
0.0
 10
25.4
 20
0.2914890242464183
 30
0.0
 10
25.4
 20
0.4085064086132641
 30
0.0
 10
25.39999999999997
 20
0.5831229385121202
 30
0.0
 10
25.39999999999997
 20
0.808935064078718
 30
0.0
 10
25.40000000000001
 20
1.078545019898101
 30
0.0
 10
25.40000000000001
 20
1.385709660665543
 30
0.0
 10
25.40000000000001
 20
1.720455230793566
 30
0.0
 10
25.40000000000003
 20
2.07417086254824
 30
0.0
 10
25.39999999999998
 20
2.436457521718548
 30
0.0
 10
25.4
 20
2.796434437361279
 30
0.0
 10
25.39999999999994
 20
3.149915159207207
 30
0.0
 10
25.39999999999997
 20
3.365771825786445
 30
0.0
 10
25.39999999999997
 20
3.475068217944687
 30
0.0
  0
SPLINE
  5
C1
330
1F
100
AcDbEntity
  8
외형선
  6
Continuous
370
    15
100
AcDbSpline
210
0.0
220
0.0
230
1.0
 70
    24
 71
     3
 72
    16
 73
    12
 74
     0
 42
0.000000001
 43
0.00000001
 40
0.0
 40
0.0
 40
0.0
 40
0.0
 40
0.1188284213144795
 40
0.2376568426289593
 40
0.3573322298102108
 40
0.4770076169914622
 40
0.596683004172764
 40
0.716358391354066
 40
0.8360337785353458
 40
0.9557091657166255
 40
1.0
 40
1.0
 40
1.0
 40
1.0
 10
25.39999999999998
 20
-3.546750985486917
 30
0.0
 10
25.39999999999998
 20
-3.435256543155965
 30
0.0
 10
25.39999999999997
 20
-3.212267658494062
 30
0.0
 10
25.39999999999998
 20
-2.855229676539739
 30
0.0
 10
25.40000000000003
 20
-2.493702830393156
 30
0.0
 10
25.40000000000004
 20
-2.135567636085071
 30
0.0
 10
25.4
 20
-1.793178959312188
 30
0.0
 10
25.39999999999997
 20
-1.474132214382324
 30
0.0
 10
25.39999999999998
 20
-1.192981495074659
 30
0.0
 10
25.4
 20
-0.9933487099172402
 30
0.0
 10
25.4
 20
-0.9081801773619393
 30
0.0
 10
25.4
 20
-0.885174308666123
 30
0.0
  0
LINE
  5
C2
330
1F
100
AcDbEntity
  8
중심선
 62
     1
100
AcDbLine
 10
-45.8625
 20
-0.0000000000000056
 30
0.0
 11
45.8625
 21
0.0000000000000056
 31
0.0
  0
LINE
  5
C3
330
1F
100
AcDbEntity
  8
참조1
100
AcDbLine
 10
3.368380657015613
 20
0.0010749287238892
 30
0.0
 11
3.368380657015616
 21
-39.99892507127611
 31
0.0
  0
LINE
  5
C4
330
1F
100
AcDbEntity
  8
참조1
100
AcDbLine
 10
3.368380657015616
 20
-39.99892507127611
 30
0.0
 11
-29.25297615729306
 21
-39.9989250712761
 31
0.0
  0
CIRCLE
  5
C5
330
1F
100
AcDbEntity
  8
해칭선
100
AcDbCircle
 10
0.0
 20
0.0000000000000003
 30
0.0
 40
3.000000000000001
  0
INSERT
  5
C6
330
1F
100
AcDbEntity
  8
0
  6
Continuous
 62
     7
100
AcDbBlockReference
 66
     1
  2
블럭10
 10
-13.7466306135121
 20
-30.52842841263619
 30
0.0
  0
ATTRIB
  5
C7
330
C6
100
AcDbEntity
  8
FORMAT
 62
     2
100
AcDbText
 10
-22.92792590225338
 20
-28.453061499804
 30
0.0
 40
4.233333333333333
  1
E5024018 [ 4 FLUTE ]
 41
0.75
  7
SLDTEXTSTYLE0
 11
-22.92792590225338
 21
-30.56972816647067
 31
0.0
100
AcDbAttribute
  2
AUTOATTR0
 70
     0
 74
     1
  0
SEQEND
  5
C8
330
C6
100
AcDbEntity
  8
0
  6
Continuous
 62
     7
  0
HATCH
  5
C9
330
1F
100
AcDbEntity
  8
중심선
100
AcDbHatch
 10
0.0
 20
0.0
 30
0.0
210
0.0
220
0.0
230
1.0
  2
SOLID
 70
     1
 71
     0
 91
        1
 92
        0
 93
        4
 72
     1
 10
-8.031721309131264
 20
-14.28125411099225
 11
-11.47799655296854
 21
-14.28125411099225
 72
     1
 10
-11.47799655296854
 20
-14.28125411099225
 11
-13.60622641217257
 21
-16.81757969156482
 72
     1
 10
-13.60622641217257
 20
-16.81757969156482
 11
-10.15991808322214
 21
-16.81754026226233
 72
     1
 10
-10.15991808322214
 20
-16.81754026226233
 11
-8.031721309131264
 21
-14.28125411099225
 97
        0
 75
     0
 76
     1
 98
        1
 10
-3.174738338402506
 20
21.51767096028385
  0
HATCH
  5
CA
330
1F
100
AcDbEntity
  8
중심선
100
AcDbHatch
 10
0.0
 20
0.0
 30
0.0
210
0.0
220
0.0
230
1.0
  2
SOLID
 70
     1
 71
     0
 91
        1
 92
        0
 93
        4
 72
     1
 10
-3.018957318095284
 20
-14.28125411099225
 11
-6.465232561932594
 21
-14.28125411099225
 72
     1
 10
-6.465232561932594
 20
-14.28125411099225
 11
-10.99637057028998
 21
-19.68125411099227
 72
     1
 10
-10.99637057028998
 20
-19.68125411099227
 11
-7.550095326452701
 21
-19.68125411099227
 72
     1
 10
-7.5500953264527
 20
-19.68125411099227
 11
-3.018957318095284
 21
-14.28125411099225
 97
        0
 75
     0
 76
     1
 98
        1
 10
-3.174738338402506
 20
21.51767096028385
  0
HATCH
  5
CB
330
1F
100
AcDbEntity
  8
중심선
100
AcDbHatch
 10
0.0
 20
0.0
 30
0.0
210
0.0
220
0.0
230
1.0
  2
SOLID
 70
     1
 71
     0
 91
        1
 92
        0
 93
        4
 72
     1
 10
1.993806672940612
 20
-14.28125411099223
 11
-1.452468570896476
 21
-14.28125411099223
 72
     1
 10
-1.452468570896476
 20
-14.28125411099223
 11
-8.50090547278578
 21
-22.68125411099227
 72
     1
 10
-8.500905472785782
 20
-22.68125411099227
 11
-5.054630228948499
 21
-22.68125411099227
 72
     1
 10
-5.054630228948499
 20
-22.68125411099227
 11
1.993806672940611
 21
-14.28125411099223
 97
        0
 75
     0
 76
     1
 98
        1
 10
-3.174738338402506
 20
21.51767096028385
  0
HATCH
  5
CC
330
1F
100
AcDbEntity
  8
중심선
100
AcDbHatch
 10
0.0
 20
0.0
 30
0.0
210
0.0
220
0.0
230
1.0
  2
SOLID
 70
     1
 71
     0
 91
        1
 92
        0
 93
        6
 72
     3
 10
6.793697103952784
 20
-18.48125411104353
 11
3.960054785062283
 21
1.540882976769353E-10
 40
0.3939339440162628
 50
17.09539180608436
 51
320.0019657685078
 73
     0
 72
     1
 10
8.476696759653379
 20
-17.06914811563055
 11
10.78199863335444
 21
-15.13482140558263
 72
     3
 10
6.793697103899937
 20
-18.4812541109924
 11
6.600054785286829
 21
-1.278976924368180E-13
 40
0.636358354079598
 50
39.99873849337385
 51
368.4976242363724
 73
     1
 72
     1
 10
13.21902959580055
 20
-17.52125411092228
 11
5.473764410735859
 21
-17.52125411092228
 72
     1
 10
5.473764410735859
 20
-17.52125411092228
 11
5.473739366289925
 21
-19.44125411092217
 72
     1
 10
5.473739366289925
 20
-19.44125411092217
 11
9.915119135761962
 21
-19.44125411092214
 97
        0
 75
     0
 76
     1
 98
        1
 10
-3.174738338402506
 20
21.51767096028385
  0
DIMENSION
  5
CD
330
1F
100
AcDbEntity
  8
치수문자_일반주서
100
AcDbDimension
  2
_D
 10
56.3600222802015
 20
-3.571874999999928
 30
0.0
 11
56.36002228020138
 21
24.17587500000007
 31
0.0
 70
   160
  1
%%c<>
 71
     2
 42
7.14375
 52
-270.0
  3
SLDDIMSTYLE0
100
AcDbAlignedDimension
 13
42.8625
 23
3.571875000000024
 33
0.0
 14
42.8625
 24
-3.571874999999976
 34
0.0
 50
90.0000000000002
100
AcDbRotatedDimension
1001
ACAD
1000
DSTYLE
1002
{
1070
   171
1070
     6
1070
   273
1070
     5
1002
}
  0
DIMENSION
  5
E2
330
1F
100
AcDbEntity
  8
치수문자_일반주서
100
AcDbDimension
  2
_D_1
 10
25.4
 20
24.7697789331363
 30
0.0
 11
4.795999999999999
 21
24.7697789331363
 31
0.0
 70
   160
  1
<>
 71
     2
 42
17.46250000000001
  3
SLDDIMSTYLE0
100
AcDbAlignedDimension
 13
42.8625
 23
3.55873975661523
 33
0.0
 14
25.4
 24
3.546750985486914
 34
0.0
 50
0.0000000000000233
100
AcDbRotatedDimension
1001
ACAD
1000
DSTYLE
1002
{
1070
   171
1070
     6
1070
   273
1070
     5
1002
}
  0
DIMENSION
  5
F7
330
1F
100
AcDbEntity
  8
치수문자_일반주서
100
AcDbDimension
  2
_D_2
 10
-42.86249999999999
 20
51.14915869958964
 30
0.0
 11
-2.187269229181645
 21
51.14915869958964
 31
0.0
 70
   160
  1
<>
 71
     2
 42
85.725
  3
SLDDIMSTYLE0
100
AcDbAlignedDimension
 13
42.8625
 23
3.55873975661523
 33
0.0
 14
-42.86249999999999
 24
3.81
 34
0.0
100
AcDbRotatedDimension
1001
ACAD
1000
DSTYLE
1002
{
1070
   171
1070
     6
1070
   273
1070
     5
1002
}
  0
DIMENSION
  5
10A
330
1F
100
AcDbEntity
  8
치수문자_일반주서
100
AcDbDimension
  2
_D_3
 10
-53.10524640573045
 20
-4.762500000000134
 30
0.0
 11
-53.10524640573056
 21
24.71024999999996
 31
0.0
 70
   160
  1
%%c<>
 71
     2
 42
9.52500000000003
 52
-270.0
  3
SLDDIMSTYLE0
100
AcDbAlignedDimension
 13
-19.95652700723828
 23
4.762500000000021
 33
0.0
 14
-19.95652700723828
 24
-4.762500000000009
 34
0.0
 50
90.0000000000002
100
AcDbRotatedDimension
1001
ACAD
1000
DSTYLE
1002
{
1070
   171
1070
     6
1070
   273
1070
     5
1002
}
  0
LINE
  5
11E
330
1F
100
AcDbEntity
  8
참조1
100
AcDbLine
 10
68.7193644723612
 20
7.441074928723896
 30
0.0
 11
68.7193644723612
 21
-7.438925071276109
 31
0.0
  0
LINE
  5
11F
330
1F
100
AcDbEntity
  8
참조1
100
AcDbLine
 10
81.41936447236121
 20
5.441074928723896
 30
0.0
 11
68.7193644723612
 21
5.441074928723896
 31
0.0
  0
SOLID
  5
120
330
1F
100
AcDbEntity
  8
참조1
100
AcDbTrace
 10
68.7193644723612
 20
5.441074928723896
 30
0.0
 11
75.0693644723612
 21
4.425074928723896
 31
0.0
 12
75.0693644723612
 22
6.457074928723896
 32
0.0
 13
75.0693644723612
 23
6.457074928723896
 33
0.0
  0
LINE
  5
121
330
1F
100
AcDbEntity
  8
참조1
100
AcDbLine
 10
81.41936447236121
 20
-5.438925071276109
 30
0.0
 11
68.7193644723612
 21
-5.438925071276109
 31
0.0
  0
SOLID
  5
122
330
1F
100
AcDbEntity
  8
참조1
100
AcDbTrace
 10
68.7193644723612
 20
-5.438925071276109
 30
0.0
 11
75.0693644723612
 21
-6.454925071276109
 31
0.0
 12
75.0693644723612
 22
-4.422925071276109
 32
0.0
 13
75.0693644723612
 23
-4.422925071276109
 33
0.0
  0
MTEXT
  5
123
330
1F
100
AcDbEntity
  8
참조1
100
AcDbMText
 10
78.1037146049872
 20
11.01136670591223
 30
0.0
 40
3.5
 41
0.0
 71
     1
 72
     1
  1
A
  7
SLDTEXTSTYLE0
 73
     1
 44
1.0
  0
MTEXT
  5
124
330
1F
100
AcDbEntity
  8
참조1
100
AcDbMText
 10
78.1037146049872
 20
0.1313667059122219
 30
0.0
 40
3.5
 41
0.0
 71
     1
 72
     1
  1
A
  7
SLDTEXTSTYLE0
 73
     1
 44
1.0
  0
INSERT
  5
12B
330
1F
100
AcDbEntity
  8
해칭선
100
AcDbBlockReference
  2
SW_DOWELSYMBOL_0
 10
0.0
 20
0.0000000000000003
 30
0.0
  0
LINE
  5
2C2
330
1F
100
AcDbEntity
  8
0
  6
Continuous
 62
     1
370
    15
100
AcDbLine
 10
-33.67555628545732
 20
3.571875000000005
 30
0.0
 11
-35.85198905891555
 21
3.571875000000006
 31
0.0
  0
LINE
  5
2C3
330
1F
100
AcDbEntity
  8
0
  6
Continuous
 62
     1
370
    15
100
AcDbLine
 10
-26.13445354279501
 20
-3.571874999999998
 30
0.0
 11
-25.39999999999999
 21
-3.571874999999998
 31
0.0
  0
LINE
  5
2C4
330
1F
100
AcDbEntity
  8
0
  6
Continuous
 62
     1
370
    15
100
AcDbLine
 10
-35.85198905891555
 20
-3.571874999999997
 30
0.0
 11
-33.67555628545738
 21
-3.571874999999997
 31
0.0
  0
LINE
  5
2C5
330
1F
100
AcDbEntity
  8
0
  6
Continuous
 62
     1
370
    15
100
AcDbLine
 10
-25.39999999999999
 20
3.571875000000004
 30
0.0
 11
-26.13445354279496
 21
3.571875000000004
 31
0.0
  0
LINE
  5
2C6
330
1F
100
AcDbEntity
  8
외형선
  6
Continuous
370
    15
100
AcDbLine
 10
-19.95652700723828
 20
4.762500000000011
 30
0.0
 11
-24.39999999999999
 21
3.571875000000004
 31
0.0
  0
LINE
  5
2C7
330
1F
100
AcDbEntity
  8
외형선
  6
Continuous
370
    15
100
AcDbLine
 10
-24.39999999999999
 20
-3.571874999999998
 30
0.0
 11
-19.95652700723828
 21
-4.762500000000006
 31
0.0
  0
LINE
  5
2C8
330
1F
100
AcDbEntity
  8
외형선
  6
Continuous
370
    15
100
AcDbLine
 10
-24.39999999999999
 20
3.571875000000003
 30
0.0
 11
-25.39999999999999
 21
3.571875000000003
 31
0.0
  0
LINE
  5
2C9
330
1F
100
AcDbEntity
  8
외형선
  6
Continuous
370
    15
100
AcDbLine
 10
-25.39999999999999
 20
-3.571874999999997
 30
0.0
 11
-24.39999999999999
 21
-3.571874999999997
 31
0.0
  0
SPLINE
  5
2CA
330
1F
100
AcDbEntity
  8
0
  6
Continuous
 62
     1
370
    15
100
AcDbSpline
210
0.0
220
0.0
230
1.0
 70
     8
 71
     3
 72
    17
 73
    13
 74
     0
 42
0.000000001
 43
0.00000001
 40
0.0
 40
0.0
 40
0.0
 40
0.0
 40
0.0981737418219812
 40
0.1964093195760686
 40
0.2945956628883532
 40
0.3927253670321442
 40
0.4908237253949748
 40
0.5889162234968469
 40
0.6870283828373696
 40
0.7949749291986559
 40
0.9029290552192191
 40
1.0
 40
1.0
 40
1.0
 40
1.0
 10
-25.39999999999999
 20
-0.4229047913804975
 30
0.0
 10
-25.86576779507432
 20
-0.1538230990466663
 30
0.0
 10
-26.79759675476585
 20
0.3845097700162059
 30
0.0
 10
-28.19557968869718
 20
1.177639244518814
 30
0.0
 10
-29.59310117715042
 20
1.9097431494501
 30
0.0
 10
-30.98981710812139
 20
2.545174211251398
 30
0.0
 10
-32.38599219514556
 20
3.051302463147657
 30
0.0
 10
-33.7820854446904
 20
3.402303680965592
 30
0.0
 10
-35.22488531528255
 20
3.587639423823027
 30
0.0
 10
-36.71488626861871
 20
3.570979723216635
 30
0.0
 10
-38.19985223539267
 20
3.358547955857607
 30
0.0
 10
-39.17268036628077
 20
3.058765826327539
 30
0.0
 10
-39.63327450438074
 20
2.916831308621291
 30
0.0
  0
SPLINE
  5
2CB
330
1F
100
AcDbEntity
  8
외형선
  6
Continuous
370
    15
100
AcDbSpline
210
0.0
220
0.0
230
1.0
 70
    24
 71
     3
 72
    19
 73
    15
 74
     0
 42
0.000000001
 43
0.00000001
 40
0.0
 40
0.0
 40
0.0
 40
0.0
 40
0.1371465771864338
 40
0.2153529735972098
 40
0.295827360801976
 40
0.3740337572127532
 40
0.4545081444175209
 40
0.5327145408282999
 40
0.6131889280330693
 40
0.691395324443845
 40
0.7718697116486111
 40
0.8500761080593898
 40
0.9305504952641592
 40
1.0
 40
1.0
 40
1.0
 40
1.0
 10
-25.39999999999999
 20
-3.475068217944626
 30
0.0
 10
-25.40000000000002
 20
-3.286865686472648
 30
0.0
 10
-25.40000000000005
 20
-2.991342636444811
 30
0.0
 10
-25.39999999999999
 20
-2.543949683230395
 30
0.0
 10
-25.40000000000002
 20
-2.18336457725158
 30
0.0
 10
-25.39999999999999
 20
-1.824312750587515
 30
0.0
 10
-25.40000000000005
 20
-1.484294863416053
 30
0.0
 10
-25.40000000000008
 20
-1.166589527056513
 30
0.0
 10
-25.39999999999991
 20
-0.8859337393299338
 30
0.0
 10
-25.40000000000008
 20
-0.6453407738855599
 30
0.0
 10
-25.39999999999991
 20
-0.4554429537804353
 30
0.0
 10
-25.40000000000008
 20
-0.3201125742890476
 30
0.0
 10
-25.39999999999993
 20
-0.241495758271073
 30
0.0
 10
-25.39999999999996
 20
-0.2384062966491597
 30
0.0
 10
-25.39999999999999
 20
-0.2369751599786466
 30
0.0
  0
SPLINE
  5
2CC
330
1F
100
AcDbEntity
  8
0
  6
Continuous
 62
     1
370
    15
100
AcDbSpline
210
0.0
220
0.0
230
1.0
 70
     8
 71
     3
 72
    40
 73
    36
 74
     0
 42
0.000000001
 43
0.00000001
 40
0.0
 40
0.0
 40
0.0
 40
0.0
 40
0.0625
 40
0.0625
 40
0.125
 40
0.125
 40
0.1875
 40
0.1875
 40
0.25
 40
0.25
 40
0.3125
 40
0.3125
 40
0.375
 40
0.375
 40
0.4375
 40
0.4375
 40
0.5
 40
0.5
 40
0.5625
 40
0.5625
 40
0.625
 40
0.625
 40
0.6875
 40
0.6875
 40
0.75
 40
0.75
 40
0.8125
 40
0.8125
 40
0.875
 40
0.875
 40
0.90625
 40
0.90625
 40
0.9375
 40
0.9375
 40
1.0
 40
1.0
 40
1.0
 40
1.0
 10
-42.8625
 20
3.571874999999979
 30
0.0
 10
-42.5018378839
 20
3.540795863752141
 30
0.0
 10
-42.13488326143515
 20
3.504254091962147
 30
0.0
 10
-41.40534598454668
 20
3.395257972945968
 30
0.0
 10
-41.0457158371842
 20
3.32315940357092
 30
0.0
 10
-40.31591620360739
 20
3.144617275533204
 30
0.0
 10
-39.94986027121122
 20
3.038344891685248
 30
0.0
 10
-39.22775848641656
 20
2.796608891924469
 30
0.0
 10
-38.86067889641554
 20
2.659900264154898
 30
0.0
 10
-38.13143824798074
 20
2.360857646978531
 30
0.0
 10
-37.77174882918844
 20
2.199017745256662
 30
0.0
 10
-37.04172115185095
 20
1.852669985880583
 30
0.0
 10
-36.67650564118394
 20
1.668890200022181
 30
0.0
 10
-35.9536594164898
 20
1.287317019129674
 30
0.0
 10
-35.58647235506363
 20
1.087831404823436
 30
0.0
 10
-34.8575625603299
 20
0.6806011293462614
 30
0.0
 10
-34.4977546079589
 20
0.4732741116515466
 30
0.0
 10
-33.76753323558215
 20
0.0538563533603761
 30
0.0
 10
-33.40309974746675
 20
-0.1570887734536547
 30
0.0
 10
-32.67954231095943
 20
-0.5741688153158945
 30
0.0
 10
-32.31226529143733
 20
-0.781853012695549
 30
0.0
 10
-31.58372052379416
 20
-1.185839287249264
 30
0.0
 10
-31.22373479425467
 20
-1.381951618978159
 30
0.0
 10
-30.4933541059733
 20
-1.759691206377873
 30
0.0
 10
-30.1296441193896
 20
-1.940109049640242
 30
0.0
 10
-29.40540880953189
 20
-2.278578212843202
 30
0.0
 10
-29.03805935966032
 20
-2.437629712594305
 30
0.0
 10
-28.30991373531661
 20
-2.727865548292681
 30
0.0
 10
-27.94969101284993
 20
-2.859109764140089
 30
0.0
 10
-27.40181181282809
 20
-3.033635763530953
 30
0.0
 10
-27.21897401547362
 20
-3.087957572767816
 30
0.0
 10
-26.85500737625587
 20
-3.188288307669428
 30
0.0
 10
-26.6749203590873
 20
-3.234221627001332
 30
0.0
 10
-26.13126055452328
 20
-3.359609419765932
 30
0.0
 10
-25.76385621366016
 20
-3.426498966114322
 30
0.0
 10
-25.39999999999999
 20
-3.475068217944628
 30
0.0
  0
LINE
  5
2CD
330
1F
100
AcDbEntity
  8
0
  6
Continuous
 62
     1
370
    15
100
AcDbLine
 10
-42.8625
 20
3.234980569372869
 30
0.0
 11
-42.8625
 21
-0.306043069372905
 31
0.0
  0
SPLINE
  5
2CE
330
1F
100
AcDbEntity
  8
0
  6
Continuous
 62
     1
370
    15
100
AcDbSpline
210
0.0
220
0.0
230
1.0
 70
     8
 71
     3
 72
    19
 73
    15
 74
     0
 42
0.000000001
 43
0.00000001
 40
0.0
 40
0.0
 40
0.0
 40
0.0
 40
0.0396285692848981
 40
0.1232155588790814
 40
0.2067606557204678
 40
0.2902575592525092
 40
0.3737277911903388
 40
0.4571930367313551
 40
0.5406750116873971
 40
0.6325249000243487
 40
0.7243812377650266
 40
0.816245133501877
 40
0.9081176893460693
 40
1.0
 40
1.0
 40
1.0
 40
1.0
 10
-26.13445354279501
 20
-3.549191511300302
 30
0.0
 10
-26.35541593571823
 20
-3.553935146797222
 30
0.0
 10
-27.04244565257635
 20
-3.568684346917717
 30
0.0
 10
-28.19558540281476
 20
-3.398308212326299
 30
0.0
 10
-29.59309964776465
 20
-3.05610995149013
 30
0.0
 10
-30.98981751612097
 20
-2.548874928917138
 30
0.0
 10
-32.38599209163935
 20
-1.914980717988003
 30
0.0
 10
-33.78208545080547
 20
-1.183204773575215
 30
0.0
 10
-35.22488539680724
 20
-0.3651528740684651
 30
0.0
 10
-36.71488589638626
 20
0.5014072816644725
 30
0.0
 10
-38.25153353555173
 20
1.365369694768193
 30
0.0
 10
-39.78836481474259
 20
2.141738209677109
 30
0.0
 10
-41.32535890577078
 20
2.800930471497498
 30
0.0
 10
-42.35010150209716
 20
3.090292083064822
 30
0.0
 10
-42.8625
 20
3.23498056937287
 30
0.0
  0
SPLINE
  5
2CF
330
1F
100
AcDbEntity
  8
0
  6
Continuous
 62
     1
370
    15
100
AcDbSpline
210
0.0
220
0.0
230
1.0
 70
     8
 71
     3
 72
    17
 73
    13
 74
     0
 42
0.000000001
 43
0.00000001
 40
0.0
 40
0.0
 40
0.0
 40
0.0
 40
0.1078091159958849
 40
0.2155448956123865
 40
0.323234968709557
 40
0.4309072449347031
 40
0.538589743157233
 40
0.6463104194933835
 40
0.7540969961414556
 40
0.8726309934016471
 40
0.9911587452044964
 40
1.0
 40
1.0
 40
1.0
 40
1.0
 10
-42.8625
 20
-0.3060430693729053
 30
0.0
 10
-42.39645652506933
 20
-0.5724275785178176
 30
0.0
 10
-41.46468659794557
 20
-1.105015390652263
 30
0.0
 10
-40.06764739113875
 20
-1.843855253328278
 30
0.0
 10
-38.6712995506182
 20
-2.490072613548483
 30
0.0
 10
-37.27523384957694
 20
-3.009492568537465
 30
0.0
 10
-35.87900569848328
 20
-3.376574214724682
 30
0.0
 10
-34.48219318832632
 20
-3.571104548811903
 30
0.0
 10
-33.03827148125107
 20
-3.589244577477213
 30
0.0
 10
-31.54749799037457
 20
-3.385868475819372
 30
0.0
 10
-30.48449418427914
 20
-3.144833014017732
 30
0.0
 10
-29.93390900507954
 20
-2.934659560818824
 30
0.0
 10
-29.89569041496931
 20
-2.920070477488356
 30
0.0
  0
SPLINE
  5
2D0
330
1F
100
AcDbEntity
  8
0
  6
Continuous
 62
     1
370
    15
100
AcDbSpline
210
0.0
220
0.0
230
1.0
 70
     8
 71
     3
 72
    13
 73
     9
 74
     0
 42
0.000000001
 43
0.00000001
 40
0.0
 40
0.0
 40
0.0
 40
0.0
 40
0.0714001347238693
 40
0.2571490966824819
 40
0.4428882716833859
 40
0.6286083332940361
 40
0.8143114988121417
 40
0.9999999999999999
 40
0.9999999999999999
 40
0.9999999999999999
 40
0.9999999999999999
 10
-33.67555628545732
 20
3.549672699514451
 30
0.0
 10
-33.47860924577203
 20
3.554872435804476
 30
0.0
 10
-32.76930031315989
 20
3.573599396126585
 30
0.0
 10
-31.54748935071179
 20
3.389755528261794
 30
0.0
 10
-30.01039638203129
 20
2.996304174356774
 30
0.0
 10
-28.47344529062867
 20
2.405730320433527
 30
0.0
 10
-26.93666479078429
 20
1.674424398677369
 30
0.0
 10
-25.91220811343489
 20
1.108766746713322
 30
0.0
 10
-25.39999999999999
 20
0.825949088174404
 30
0.0
  0
LINE
  5
2D1
330
1F
100
AcDbEntity
  8
외형선
  6
Continuous
370
    15
100
AcDbLine
 10
-25.39999999999999
 20
0.8259490881744035
 30
0.0
 11
-25.39999999999999
 21
-0.4229047913804975
 31
0.0
  0
LINE
  5
2D2
330
1F
100
AcDbEntity
  8
0
  6
Continuous
 62
     1
370
    15
100
AcDbLine
 10
-42.8625
 20
3.571874999999979
 30
0.0
 11
-42.8625
 21
3.234980569372869
 31
0.0
  0
LINE
  5
2D3
330
1F
100
AcDbEntity
  8
외형선
  6
Continuous
370
    15
100
AcDbLine
 10
-25.39999999999999
 20
-3.475068217944626
 30
0.0
 11
-25.39999999999999
 21
-3.571874999999998
 31
0.0
  0
SPLINE
  5
2D4
330
1F
100
AcDbEntity
  8
0
  6
Continuous
 62
     1
370
    15
100
AcDbSpline
210
0.0
220
0.0
230
1.0
 70
     8
 71
     3
 72
    12
 73
     8
 74
     0
 42
0.000000001
 43
0.00000001
 40
0.0
 40
0.0
 40
0.0
 40
0.0
 40
0.1230831865202566
 40
0.3422827105010942
 40
0.5615002703540818
 40
0.7807384960800362
 40
1.0
 40
1.0
 40
1.0
 40
1.0
 10
-35.85198905891555
 20
-3.544786775398462
 30
0.0
 10
-36.13960344859034
 20
-3.548623703573132
 30
0.0
 10
-36.93943188706514
 20
-3.559293838241834
 30
0.0
 10
-38.2515393240743
 20
-3.334646693234644
 30
0.0
 10
-39.7883632709259
 20
-2.903363260183708
 30
0.0
 10
-41.3253592917879
 20
-2.290310455382206
 30
0.0
 10
-42.35010163077409
 20
-1.772998509519369
 30
0.0
 10
-42.8625
 20
-1.514328805578528
 30
0.0
  0
LINE
  5
2D5
330
1F
100
AcDbEntity
  8
0
  6
Continuous
 62
     1
370
    15
100
AcDbLine
 10
-42.8625
 20
-0.3060430693729053
 30
0.0
 11
-42.8625
 21
-1.514328805578529
 31
0.0
  0
SPLINE
  5
2D6
330
1F
100
AcDbEntity
  8
0
  6
Continuous
 62
     1
370
    15
100
AcDbSpline
210
0.0
220
0.0
230
1.0
 70
     8
 71
     3
 72
    11
 73
     7
 74
     0
 42
0.000000001
 43
0.00000001
 40
0.0
 40
0.0
 40
0.0
 40
0.0
 40
0.3108343545082095
 40
0.6218644918366004
 40
0.9327387447538105
 40
1.0
 40
1.0
 40
1.0
 40
1.0
 10
-25.39999999999999
 20
3.546750985486919
 30
0.0
 10
-25.86576837274133
 20
3.561742594866132
 30
0.0
 10
-26.79759848813065
 20
3.591735256273096
 30
0.0
 10
-28.19557275159171
 20
3.394594889090815
 30
0.0
 10
-29.22832763158512
 20
3.165120752853358
 30
0.0
 10
-29.79490912915257
 20
2.957076559421465
 30
0.0
 10
-29.89569041496925
 20
2.920070477488362
 30
0.0
  0
SPLINE
  5
2D7
330
1F
100
AcDbEntity
  8
외형선
  6
Continuous
370
    15
100
AcDbSpline
210
0.0
220
0.0
230
1.0
 70
    24
 71
     3
 72
    17
 73
    13
 74
     0
 42
0.000000001
 43
0.00000001
 40
0.0
 40
0.0
 40
0.0
 40
0.0
 40
0.0044521839140934
 40
0.1262001710343288
 40
0.2445169631673518
 40
0.3662649502875817
 40
0.4845817424206093
 40
0.6063297295408441
 40
0.7246465216737428
 40
0.846394508794102
 40
0.9227496691494775
 40
1.0
 40
1.0
 40
1.0
 40
1.0
 10
-25.40000000000002
 20
0.8851843086661244
 30
0.0
 10
-25.40000000000002
 20
0.8873617489046719
 30
0.0
 10
-25.39999999999982
 20
0.9490827684815716
 30
0.0
 10
-25.40000000000002
 20
1.116216388717485
 30
0.0
 10
-25.40000000000005
 20
1.3852255622534
 30
0.0
 10
-25.39999999999993
 20
1.693878061652153
 30
0.0
 10
-25.40000000000008
 20
2.031467185982415
 30
0.0
 10
-25.39999999999993
 20
2.384353150891941
 30
0.0
 10
-25.39999999999999
 20
2.74844138379839
 30
0.0
 10
-25.40000000000008
 20
3.064760059535948
 30
0.0
 10
-25.39999999999991
 20
3.332599551981718
 30
0.0
 10
-25.39999999999996
 20
3.475090375227988
 30
0.0
 10
-25.39999999999999
 20
3.546750985486919
 30
0.0
  0
SPLINE
  5
2D8
330
1F
100
AcDbEntity
  8
0
  6
Continuous
 62
     1
370
    15
100
AcDbSpline
210
0.0
220
0.0
230
1.0
 70
     8
 71
     3
 72
    10
 73
     6
 74
     0
 42
0.000000001
 43
0.00000001
 40
0.0
 40
0.0
 40
0.0
 40
0.0
 40
0.4329098457406759
 40
0.8655252076578513
 40
1.0
 40
1.0
 40
1.0
 40
1.0
 10
-42.8625
 20
-3.57187500000002
 30
0.0
 10
-42.39645763670582
 20
-3.516208110963089
 30
0.0
 10
-41.46468993209886
 20
-3.4311737515063
 30
0.0
 10
-40.38834007768942
 20
-3.188273622201363
 30
0.0
 10
-39.77800420712212
 20
-2.968860916041633
 30
0.0
 10
-39.63327450438076
 20
-2.916831308621281
 30
0.0
  0
LINE
  5
2D9
330
1F
100
AcDbEntity
  8
0
  6
Continuous
 62
     1
370
    15
100
AcDbLine
 10
-42.8625
 20
-1.514328805578529
 30
0.0
 11
-42.86250000000003
 21
-3.57187500000002
 31
0.0
  0
LINE
  5
2DA
330
1F
100
AcDbEntity
  8
외형선
  6
Continuous
370
    15
100
AcDbLine
 10
-24.39999999999999
 20
0.000000000000003
 30
0.0
 11
-24.39999999999999
 21
-3.571874999999998
 31
0.0
  0
LINE
  5
2DB
330
1F
100
AcDbEntity
  8
외형선
  6
Continuous
370
    15
100
AcDbLine
 10
-24.39999999999999
 20
3.571875000000006
 30
0.0
 11
-24.39999999999999
 21
0.000000000000003
 31
0.0
  0
LINE
  5
2DC
330
1F
100
AcDbEntity
  8
외형선
  6
Continuous
370
    15
100
AcDbLine
 10
-19.95652700723828
 20
0.0000000000000025
 30
0.0
 11
-19.95652700723828
 21
-4.762500000000009
 31
0.0
  0
LINE
  5
2DD
330
1F
100
AcDbEntity
  8
외형선
  6
Continuous
370
    15
100
AcDbLine
 10
-19.95652700723828
 20
4.762500000000021
 30
0.0
 11
-19.95652700723828
 21
0.0000000000000025
 31
0.0
  0
SPLINE
  5
2DE
330
1F
100
AcDbEntity
  8
외형선
  6
Continuous
370
    15
100
AcDbSpline
210
0.0
220
0.0
230
1.0
 70
     8
 71
     3
 72
     8
 73
     4
 74
     0
 42
0.000000001
 43
0.00000001
 40
0.0
 40
0.0
 40
0.0
 40
0.0
 40
1.0
 40
1.0
 40
1.0
 40
1.0
 10
-25.39999999999999
 20
-3.475068217944624
 30
0.0
 10
-25.23258018006497
 20
-3.497416208965614
 30
0.0
 10
-25.06678327079682
 20
-3.515886280296027
 30
0.0
 10
-24.90012657473874
 20
-3.530526777233912
 30
0.0
  0
LINE
  5
2DF
330
1F
100
AcDbEntity
  8
외형선
  6
Continuous
370
    15
100
AcDbLine
 10
-24.90012657473874
 20
-0.7086222795325474
 30
0.0
 11
-24.90012657473874
 21
-3.530528528909986
 31
0.0
  0
SPLINE
  5
2E0
330
1F
100
AcDbEntity
  8
외형선
  6
Continuous
370
    15
100
AcDbSpline
210
0.0
220
0.0
230
1.0
 70
     8
 71
     3
 72
     8
 73
     4
 74
     0
 42
0.000000001
 43
0.00000001
 40
0.0
 40
0.0
 40
0.0
 40
0.0
 40
1.0
 40
1.0
 40
1.0
 40
1.0
 10
-25.39999999999999
 20
-0.4229047913804975
 30
0.0
 10
-25.23258018006497
 20
-0.5188704632508302
 30
0.0
 10
-25.06678327079676
 20
-0.6140626733031033
 30
0.0
 10
-24.90012657473876
 20
-0.7086430865973967
 30
0.0
  0
SPLINE
  5
2E1
330
1F
100
AcDbEntity
  8
외형선
  6
Continuous
370
    15
100
AcDbSpline
210
0.0
220
0.0
230
1.0
 70
     8
 71
     3
 72
     8
 73
     4
 74
     0
 42
0.000000001
 43
0.00000001
 40
0.0
 40
0.0
 40
0.0
 40
0.0
 40
1.0
 40
1.0
 40
1.0
 40
1.0
 10
-25.39999999999999
 20
0.8259490881744078
 30
0.0
 10
-25.23258018006497
 20
0.731922961813998
 30
0.0
 10
-25.06678327079682
 20
0.6372963675747326
 30
0.0
 10
-24.90012657473874
 20
0.5419148372754647
 30
0.0
  0
LINE
  5
2E2
330
1F
100
AcDbEntity
  8
외형선
  6
Continuous
370
    15
100
AcDbLine
 10
-24.90012657473874
 20
3.500877815716381
 30
0.0
 11
-24.90012657473874
 21
0.5419034251392582
 31
0.0
  0
SPLINE
  5
2E3
330
1F
100
AcDbEntity
  8
외형선
  6
Continuous
370
    15
100
AcDbSpline
210
0.0
220
0.0
230
1.0
 70
     8
 71
     3
 72
     8
 73
     4
 74
     0
 42
0.000000001
 43
0.00000001
 40
0.0
 40
0.0
 40
0.0
 40
0.0
 40
1.0
 40
1.0
 40
1.0
 40
1.0
 10
-25.39999999999999
 20
3.546750985486919
 30
0.0
 10
-25.23258018006497
 20
3.53530830383036
 30
0.0
 10
-25.06678327079676
 20
3.52001847003019
 30
0.0
 10
-24.90012657473876
 20
3.500873604036958
 30
0.0
  0
SPLINE
  5
2E4
330
1F
100
AcDbEntity
  8
외형선
  6
Continuous
370
    15
100
AcDbSpline
210
0.0
220
0.0
230
1.0
 70
    24
 71
     3
 72
    20
 73
    16
 74
     0
 42
0.000000001
 43
0.00000001
 40
0.0
 40
0.0
 40
0.0
 40
0.0
 40
0.044451101184451
 40
0.1239101554651726
 40
0.2033692097459276
 40
0.2828282640266829
 40
0.3622873183074233
 40
0.4417463725881638
 40
0.5212054268689018
 40
0.6006644811496398
 40
0.6801235354303734
 40
0.759582589711107
 40
0.8390416439918524
 40
0.918500698272598
 40
1.0
 40
1.0
 40
1.0
 40
1.0
 10
-25.39999999999999
 20
-0.2415052513691306
 30
0.0
 10
-25.39999999999999
 20
-0.2395356238713438
 30
0.0
 10
-25.40000000000002
 20
-0.2340451671007339
 30
0.0
 10
-25.39999999999999
 20
-0.2914890242464169
 30
0.0
 10
-25.39999999999999
 20
-0.4085064086132627
 30
0.0
 10
-25.39999999999996
 20
-0.5831229385121186
 30
0.0
 10
-25.39999999999996
 20
-0.8089350640787164
 30
0.0
 10
-25.40000000000002
 20
-1.0785450198981
 30
0.0
 10
-25.40000000000002
 20
-1.385709660665542
 30
0.0
 10
-25.40000000000002
 20
-1.720455230793565
 30
0.0
 10
-25.40000000000002
 20
-2.074170862548239
 30
0.0
 10
-25.39999999999999
 20
-2.436457521718547
 30
0.0
 10
-25.39999999999999
 20
-2.796434437361277
 30
0.0
 10
-25.39999999999993
 20
-3.149915159207205
 30
0.0
 10
-25.39999999999996
 20
-3.365771825786443
 30
0.0
 10
-25.39999999999996
 20
-3.475068217944685
 30
0.0
  0
SPLINE
  5
2E5
330
1F
100
AcDbEntity
  8
외형선
  6
Continuous
370
    15
100
AcDbSpline
210
0.0
220
0.0
230
1.0
 70
    24
 71
     3
 72
    16
 73
    12
 74
     0
 42
0.000000001
 43
0.00000001
 40
0.0
 40
0.0
 40
0.0
 40
0.0
 40
0.1188284213144795
 40
0.2376568426289593
 40
0.3573322298102108
 40
0.4770076169914622
 40
0.596683004172764
 40
0.716358391354066
 40
0.8360337785353458
 40
0.9557091657166255
 40
1.0
 40
1.0
 40
1.0
 40
1.0
 10
-25.39999999999999
 20
3.546750985486919
 30
0.0
 10
-25.39999999999999
 20
3.435256543155967
 30
0.0
 10
-25.39999999999996
 20
3.212267658494063
 30
0.0
 10
-25.39999999999999
 20
2.855229676539741
 30
0.0
 10
-25.40000000000002
 20
2.493702830393157
 30
0.0
 10
-25.40000000000005
 20
2.135567636085073
 30
0.0
 10
-25.39999999999999
 20
1.793178959312189
 30
0.0
 10
-25.39999999999996
 20
1.474132214382325
 30
0.0
 10
-25.39999999999999
 20
1.192981495074661
 30
0.0
 10
-25.39999999999999
 20
0.9933487099172418
 30
0.0
 10
-25.39999999999999
 20
0.9081801773619409
 30
0.0
 10
-25.39999999999999
 20
0.8851743086661246
 30
0.0
  0
LINE
  5
33E
330
1F
100
AcDbEntity
  8
외형선
  6
Continuous
370
    15
100
AcDbLine
 10
-3.568700000000117
 20
3.492500000000021
 30
0.0
 11
3.56870000000001
 21
3.492500000000021
 31
0.0
  0
LINE
  5
33F
330
1F
100
AcDbEntity
  8
외형선
  6
Continuous
370
    15
100
AcDbLine
 10
-3.568700000000117
 20
3.492500000000021
 30
0.0
 11
-4.838700000000099
 21
4.762500000000003
 31
0.0
  0
LINE
  5
340
330
1F
100
AcDbEntity
  8
외형선
  6
Continuous
370
    15
100
AcDbLine
 10
3.56870000000001
 20
3.492500000000021
 30
0.0
 11
4.838700000000106
 21
4.762500000000003
 31
0.0
  0
LINE
  5
342
330
1F
100
AcDbEntity
  8
외형선
  6
Continuous
370
    15
100
AcDbLine
 10
-4.838700000000099
 20
4.762500000000002
 30
0.0
 11
-19.95652700723828
 21
4.762500000000002
 31
0.0
  0
ENDSEC
  0
SECTION
  2
OBJECTS
  0
DICTIONARY
  5
C
330
0
100
AcDbDictionary
281
     1
  3
ACAD_GROUP
350
D
  3
ACAD_IMAGE_VARS
350
14F
  3
ACAD_LAYOUT
350
1A
  3
ACAD_MLINESTYLE
350
17
  3
ACAD_PLOTSETTINGS
350
19
  3
ACAD_PLOTSTYLENAME
350
E
  3
ACAD_SCALELIST
350
47
  3
APPDATA
350
14D
  3
DWGPROPS
350
368
  0
DICTIONARY
  5
209
330
2
100
AcDbDictionary
280
     1
281
     1
  3
ACAD_LAYERSTATES
360
20A
  0
DICTIONARY
  5
366
330
1F
100
AcDbDictionary
280
     1
281
     1
  3
DIM_BOUNDING_BOXES_V1
360
367
  0
DICTIONARY
  5
D
102
{ACAD_REACTORS
330
C
102
}
330
C
100
AcDbDictionary
281
     1
  0
RASTERVARIABLES
  5
14F
102
{ACAD_REACTORS
330
C
102
}
330
C
100
AcDbRasterVariables
 90
        0
 70
     1
 71
     1
 72
     1
  0
DICTIONARY
  5
1A
102
{ACAD_REACTORS
330
C
102
}
330
C
100
AcDbDictionary
281
     1
  3
Layout1
350
1E
  3
Layout2
350
26
  3
Model
350
22
  0
DICTIONARY
  5
17
102
{ACAD_REACTORS
330
C
102
}
330
C
100
AcDbDictionary
281
     1
  3
Standard
350
18
  0
DICTIONARY
  5
19
102
{ACAD_REACTORS
330
C
102
}
330
C
100
AcDbDictionary
281
     1
  0
ACDBDICTIONARYWDFLT
  5
E
102
{ACAD_REACTORS
330
C
102
}
330
C
100
AcDbDictionary
281
     1
  3
Normal
350
F
100
AcDbDictionaryWithDefault
340
F
  0
DICTIONARY
  5
47
102
{ACAD_REACTORS
330
C
102
}
330
C
100
AcDbDictionary
281
     1
  3
A0
350
48
  3
A1
350
49
  3
A2
350
4A
  3
A3
350
4B
  3
A4
350
4C
  3
A5
350
4D
  3
A6
350
4E
  3
A7
350
4F
  3
A8
350
50
  3
A9
350
51
  3
B0
350
52
  3
B1
350
53
  3
B2
350
54
  3
B3
350
55
  3
B4
350
56
  3
B5
350
57
  3
B6
350
58
  3
B7
350
59
  3
B8
350
5A
  3
B9
350
5B
  3
C0
350
5C
  3
C1
350
5D
  3
C2
350
5E
  3
C3
350
5F
  3
C4
350
60
  3
C5
350
61
  3
C6
350
62
  3
C7
350
63
  3
C8
350
64
  3
C9
350
65
  3
D0
350
66
  3
D1
350
67
  3
D2
350
68
  0
DICTIONARY
  5
14D
102
{ACAD_REACTORS
330
C
102
}
330
C
100
AcDbDictionary
281
     1
  0
XRECORD
  5
368
102
{ACAD_REACTORS
330
C
102
}
330
C
100
AcDbXrecord
280
     1
  1
DWGPROPS COOKIE
  2

  3

  4

  6

  7

  8
12011056
  9

300
=
301
=
302
=
303
=
304
=
305
=
306
=
307
=
308
=
309
=
 40
0.0
 41
2458313.126083947
 42
2459719.276517546
  1

 90
        0
  0
DICTIONARY
  5
20A
102
{ACAD_REACTORS
330
209
102
}
330
209
100
AcDbDictionary
281
     1
  0
DICTIONARY
  5
367
102
{ACAD_REACTORS
330
366
102
}
330
366
100
AcDbDictionary
281
     1
  0
LAYOUT
  5
1E
102
{ACAD_REACTORS
330
1A
102
}
330
1A
100
AcDbPlotSettings
  1

  2
none_device
  4

  6

 40
0.0
 41
0.0
 42
0.0
 43
0.0
 44
0.0
 45
0.0
 46
0.0
 47
0.0
 48
0.0
 49
0.0
140
0.0
141
0.0
142
1.0
143
1.0
 70
   688
 72
     1
 73
     0
 74
     5
  7

 75
    16
147
1.0
148
0.0
149
0.0
100
AcDbLayout
  1
Layout1
 70
     1
 71
     1
 10
0.0
 20
0.0
 11
420.0
 21
297.0
 12
0.0
 22
0.0
 32
0.0
 14
1.000000000000000E+20
 24
1.000000000000000E+20
 34
1.000000000000000E+20
 15
-1.000000000000000E+20
 25
-1.000000000000000E+20
 35
-1.000000000000000E+20
146
0.0
 13
0.0
 23
0.0
 33
0.0
 16
1.0
 26
0.0
 36
0.0
 17
0.0
 27
1.0
 37
0.0
 76
     0
330
1B
  0
LAYOUT
  5
26
102
{ACAD_REACTORS
330
1A
102
}
330
1A
100
AcDbPlotSettings
  1

  2
none_device
  4

  6

 40
0.0
 41
0.0
 42
0.0
 43
0.0
 44
0.0
 45
0.0
 46
0.0
 47
0.0
 48
0.0
 49
0.0
140
0.0
141
0.0
142
1.0
143
1.0
 70
   688
 72
     1
 73
     0
 74
     5
  7

 75
    16
147
1.0
148
0.0
149
0.0
100
AcDbLayout
  1
Layout2
 70
     1
 71
     2
 10
0.0
 20
0.0
 11
0.0
 21
0.0
 12
0.0
 22
0.0
 32
0.0
 14
0.0
 24
0.0
 34
0.0
 15
0.0
 25
0.0
 35
0.0
146
0.0
 13
0.0
 23
0.0
 33
0.0
 16
1.0
 26
0.0
 36
0.0
 17
0.0
 27
1.0
 37
0.0
 76
     0
330
23
  0
LAYOUT
  5
22
102
{ACAD_REACTORS
330
1A
102
}
330
1A
100
AcDbPlotSettings
  1

  2
none_device
  4
ANSI_A_(11.00_x_8.50_Inches)
  6

 40
6.35
 41
19.05
 42
6.35000508
 43
19.05000254
 44
279.4
 45
215.9
 46
80.80318609916893
 47
81.23485985894456
 48
0.0
 49
0.0
140
0.0
141
0.0
142
0.0537523885999552
143
1.0
 70
  1696
 72
     0
 73
     0
 74
     0
  7

 75
     0
147
0.0235690232323232
148
0.0
149
0.0
100
AcDbLayout
  1
Model
 70
     1
 71
     0
 10
0.0
 20
0.0
 11
420.0
 21
297.0
 12
0.0
 22
0.0
 32
0.0
 14
-57.4802464057306
 24
-39.9989250712761
 34
0.0
 15
81.41936447236121
 25
55.52415869958965
 35
0.0
146
0.0
 13
0.0
 23
0.0
 33
0.0
 16
1.0
 26
0.0
 36
0.0
 17
0.0
 27
1.0
 37
0.0
 76
     0
330
1F
331
29
  0
MLINESTYLE
  5
18
102
{ACAD_REACTORS
330
17
102
}
330
17
100
AcDbMlineStyle
  2
Standard
 70
     0
  3

 62
   256
 51
90.0
 52
90.0
 71
     2
 49
0.5
 62
   256
  6
BYLAYER
 49
-0.5
 62
   256
  6
BYLAYER
  0
ACDBPLACEHOLDER
  5
F
102
{ACAD_REACTORS
330
E
102
}
330
E
  0
SCALE
  5
48
102
{ACAD_REACTORS
330
47
102
}
330
47
100
AcDbScale
 70
     0
300
1:1
140
1.0
141
1.0
290
     1
  0
SCALE
  5
49
102
{ACAD_REACTORS
330
47
102
}
330
47
100
AcDbScale
 70
     0
300
1:2
140
1.0
141
2.0
290
     0
  0
SCALE
  5
4A
102
{ACAD_REACTORS
330
47
102
}
330
47
100
AcDbScale
 70
     0
300
1:4
140
1.0
141
4.0
290
     0
  0
SCALE
  5
4B
102
{ACAD_REACTORS
330
47
102
}
330
47
100
AcDbScale
 70
     0
300
1:5
140
1.0
141
5.0
290
     0
  0
SCALE
  5
4C
102
{ACAD_REACTORS
330
47
102
}
330
47
100
AcDbScale
 70
     0
300
1:8
140
1.0
141
8.0
290
     0
  0
SCALE
  5
4D
102
{ACAD_REACTORS
330
47
102
}
330
47
100
AcDbScale
 70
     0
300
1:10
140
1.0
141
10.0
290
     0
  0
SCALE
  5
4E
102
{ACAD_REACTORS
330
47
102
}
330
47
100
AcDbScale
 70
     0
300
1:16
140
1.0
141
16.0
290
     0
  0
SCALE
  5
4F
102
{ACAD_REACTORS
330
47
102
}
330
47
100
AcDbScale
 70
     0
300
1:20
140
1.0
141
20.0
290
     0
  0
SCALE
  5
50
102
{ACAD_REACTORS
330
47
102
}
330
47
100
AcDbScale
 70
     0
300
1:30
140
1.0
141
30.0
290
     0
  0
SCALE
  5
51
102
{ACAD_REACTORS
330
47
102
}
330
47
100
AcDbScale
 70
     0
300
1:40
140
1.0
141
40.0
290
     0
  0
SCALE
  5
52
102
{ACAD_REACTORS
330
47
102
}
330
47
100
AcDbScale
 70
     0
300
1:50
140
1.0
141
50.0
290
     0
  0
SCALE
  5
53
102
{ACAD_REACTORS
330
47
102
}
330
47
100
AcDbScale
 70
     0
300
1:100
140
1.0
141
100.0
290
     0
  0
SCALE
  5
54
102
{ACAD_REACTORS
330
47
102
}
330
47
100
AcDbScale
 70
     0
300
2:1
140
2.0
141
1.0
290
     0
  0
SCALE
  5
55
102
{ACAD_REACTORS
330
47
102
}
330
47
100
AcDbScale
 70
     0
300
4:1
140
4.0
141
1.0
290
     0
  0
SCALE
  5
56
102
{ACAD_REACTORS
330
47
102
}
330
47
100
AcDbScale
 70
     0
300
8:1
140
8.0
141
1.0
290
     0
  0
SCALE
  5
57
102
{ACAD_REACTORS
330
47
102
}
330
47
100
AcDbScale
 70
     0
300
10:1
140
10.0
141
1.0
290
     0
  0
SCALE
  5
58
102
{ACAD_REACTORS
330
47
102
}
330
47
100
AcDbScale
 70
     0
300
100:1
140
100.0
141
1.0
290
     0
  0
SCALE
  5
59
102
{ACAD_REACTORS
330
47
102
}
330
47
100
AcDbScale
 70
     0
300
1/128" = 1'-0"
140
0.0078125
141
12.0
290
     0
  0
SCALE
  5
5A
102
{ACAD_REACTORS
330
47
102
}
330
47
100
AcDbScale
 70
     0
300
1/64" = 1'-0"
140
0.015625
141
12.0
290
     0
  0
SCALE
  5
5B
102
{ACAD_REACTORS
330
47
102
}
330
47
100
AcDbScale
 70
     0
300
1/32" = 1'-0"
140
0.03125
141
12.0
290
     0
  0
SCALE
  5
5C
102
{ACAD_REACTORS
330
47
102
}
330
47
100
AcDbScale
 70
     0
300
1/16" = 1'-0"
140
0.0625
141
12.0
290
     0
  0
SCALE
  5
5D
102
{ACAD_REACTORS
330
47
102
}
330
47
100
AcDbScale
 70
     0
300
3/32" = 1'-0"
140
0.09375
141
12.0
290
     0
  0
SCALE
  5
5E
102
{ACAD_REACTORS
330
47
102
}
330
47
100
AcDbScale
 70
     0
300
1/8" = 1'-0"
140
0.125
141
12.0
290
     0
  0
SCALE
  5
5F
102
{ACAD_REACTORS
330
47
102
}
330
47
100
AcDbScale
 70
     0
300
3/16" = 1'-0"
140
0.1875
141
12.0
290
     0
  0
SCALE
  5
60
102
{ACAD_REACTORS
330
47
102
}
330
47
100
AcDbScale
 70
     0
300
1/4" = 1'-0"
140
0.25
141
12.0
290
     0
  0
SCALE
  5
61
102
{ACAD_REACTORS
330
47
102
}
330
47
100
AcDbScale
 70
     0
300
3/8" = 1'-0"
140
0.375
141
12.0
290
     0
  0
SCALE
  5
62
102
{ACAD_REACTORS
330
47
102
}
330
47
100
AcDbScale
 70
     0
300
1/2" = 1'-0"
140
0.5
141
12.0
290
     0
  0
SCALE
  5
63
102
{ACAD_REACTORS
330
47
102
}
330
47
100
AcDbScale
 70
     0
300
3/4" = 1'-0"
140
0.75
141
12.0
290
     0
  0
SCALE
  5
64
102
{ACAD_REACTORS
330
47
102
}
330
47
100
AcDbScale
 70
     0
300
1" = 1'-0"
140
1.0
141
12.0
290
     0
  0
SCALE
  5
65
102
{ACAD_REACTORS
330
47
102
}
330
47
100
AcDbScale
 70
     0
300
1-1/2" = 1'-0"
140
1.5
141
12.0
290
     0
  0
SCALE
  5
66
102
{ACAD_REACTORS
330
47
102
}
330
47
100
AcDbScale
 70
     0
300
3" = 1'-0"
140
3.0
141
12.0
290
     0
  0
SCALE
  5
67
102
{ACAD_REACTORS
330
47
102
}
330
47
100
AcDbScale
 70
     0
300
6" = 1'-0"
140
6.0
141
12.0
290
     0
  0
SCALE
  5
68
102
{ACAD_REACTORS
330
47
102
}
330
47
100
AcDbScale
 70
     0
300
1'-0" = 1'-0"
140
12.0
141
12.0
290
     0
  0
ENDSEC
  0
EOF
