  0
SECTION
  2
HEADER
  9
$ACADVER
  1
AC1015
  9
$ACADMAINTVER
 70
     6
  9
$DWGCODEPAGE
  3
ANSI_949
  9
$INSBASE
 10
0.0
 20
0.0
 30
0.0
  9
$EXTMIN
 10
-60.63625000000015
 20
-39.99892507127611
 30
0.0
  9
$EXTMAX
 10
81.41936447236121
 20
54.73332764256403
 30
0.0
  9
$LIMMIN
 10
0.0
 20
0.0
  9
$LIMMAX
 10
420.0
 20
297.0
  9
$ORTHOMODE
 70
     1
  9
$REGENMODE
 70
     1
  9
$FILLMODE
 70
     1
  9
$QTEXTMODE
 70
     0
  9
$MIRRTEXT
 70
     1
  9
$LTSCALE
 40
1.0
  9
$ATTMODE
 70
     1
  9
$TEXTSIZE
 40
3.5
  9
$TRACEWID
 40
1.0
  9
$TEXTSTYLE
  7
Standard
  9
$CLAYER
  8
0
  9
$CELTYPE
  6
ByLayer
  9
$CECOLOR
 62
   256
  9
$CELTSCALE
 40
1.0
  9
$DISPSILH
 70
     0
  9
$DIMSCALE
 40
1.0
  9
$DIMASZ
 40
3.302
  9
$DIMEXO
 40
1.0
  9
$DIMDLI
 40
3.75
  9
$DIMRND
 40
0.0
  9
$DIMDLE
 40
0.0
  9
$DIMEXE
 40
1.0
  9
$DIMTP
 40
0.0
  9
$DIMTM
 40
0.0
  9
$DIMTXT
 40
3.5
  9
$DIMCEN
 40
2.5
  9
$DIMTSZ
 40
0.0
  9
$DIMTOL
 70
     0
  9
$DIMLIM
 70
     0
  9
$DIMTIH
 70
     1
  9
$DIMTOH
 70
     1
  9
$DIMSE1
 70
     0
  9
$DIMSE2
 70
     0
  9
$DIMTAD
 70
     1
  9
$DIMZIN
 70
     0
  9
$DIMBLK
  1

  9
$DIMASO
 70
     1
  9
$DIMSHO
 70
     1
  9
$DIMPOST
  1

  9
$DIMAPOST
  1

  9
$DIMALT
 70
     0
  9
$DIMALTD
 70
     3
  9
$DIMALTF
 40
0.0393700787401575
  9
$DIMLFAC
 40
1.0
  9
$DIMTOFL
 70
     1
  9
$DIMTVP
 40
0.0
  9
$DIMTIX
 70
     0
  9
$DIMSOXD
 70
     0
  9
$DIMSAH
 70
     0
  9
$DIMBLK1
  1

  9
$DIMBLK2
  1

  9
$DIMSTYLE
  2
ISO-25
  9
$DIMCLRD
 70
     0
  9
$DIMCLRE
 70
     0
  9
$DIMCLRT
 70
     0
  9
$DIMTFAC
 40
1.0
  9
$DIMGAP
 40
1.524
  9
$DIMJUST
 70
     0
  9
$DIMSD1
 70
     0
  9
$DIMSD2
 70
     0
  9
$DIMTOLJ
 70
     0
  9
$DIMTZIN
 70
     0
  9
$DIMALTZ
 70
     0
  9
$DIMALTTZ
 70
     0
  9
$DIMUPT
 70
     0
  9
$DIMDEC
 70
     2
  9
$DIMTDEC
 70
     2
  9
$DIMALTU
 70
     2
  9
$DIMALTTD
 70
     3
  9
$DIMTXSTY
  7
Standard
  9
$DIMAUNIT
 70
     0
  9
$DIMADEC
 70
     2
  9
$DIMALTRND
 40
0.0
  9
$DIMAZIN
 70
     0
  9
$DIMDSEP
 70
    44
  9
$DIMATFIT
 70
     3
  9
$DIMFRAC
 70
     0
  9
$DIMLDRBLK
  1

  9
$DIMLUNIT
 70
     2
  9
$DIMLWD
 70
    -2
  9
$DIMLWE
 70
    -2
  9
$DIMTMOVE
 70
     0
  9
$LUNITS
 70
     2
  9
$LUPREC
 70
     2
  9
$SKETCHINC
 40
1.0
  9
$FILLETRAD
 40
10.0
  9
$AUNITS
 70
     0
  9
$AUPREC
 70
     2
  9
$MENU
  1
.
  9
$ELEVATION
 40
0.0
  9
$PELEVATION
 40
0.0
  9
$THICKNESS
 40
0.0
  9
$LIMCHECK
 70
     0
  9
$CHAMFERA
 40
0.0
  9
$CHAMFERB
 40
0.0
  9
$CHAMFERC
 40
0.0
  9
$CHAMFERD
 40
0.0
  9
$SKPOLY
 70
     0
  9
$TDCREATE
 40
2458313.500660197
  9
$TDUCREATE
 40
2458313.125660197
  9
$TDUPDATE
 40
2459719.651085417
  9
$TDUUPDATE
 40
2459719.276085417
  9
$TDINDWG
 40
0.0008837153
  9
$TDUSRTIMER
 40
0.0002532639
  9
$USRTIMER
 70
     1
  9
$ANGBASE
 50
0.0
  9
$ANGDIR
 70
     0
  9
$PDMODE
 70
     0
  9
$PDSIZE
 40
-1.0
  9
$PLINEWID
 40
0.0
  9
$SPLFRAME
 70
     0
  9
$SPLINETYPE
 70
     6
  9
$SPLINESEGS
 70
     8
  9
$HANDSEED
  5
375
  9
$SURFTAB1
 70
     6
  9
$SURFTAB2
 70
     6
  9
$SURFTYPE
 70
     6
  9
$SURFU
 70
     6
  9
$SURFV
 70
     6
  9
$UCSBASE
  2

  9
$UCSNAME
  2

  9
$UCSORG
 10
0.0
 20
0.0
 30
0.0
  9
$UCSXDIR
 10
1.0
 20
0.0
 30
0.0
  9
$UCSYDIR
 10
0.0
 20
1.0
 30
0.0
  9
$UCSORTHOREF
  2

  9
$UCSORTHOVIEW
 70
     0
  9
$UCSORGTOP
 10
0.0
 20
0.0
 30
0.0
  9
$UCSORGBOTTOM
 10
0.0
 20
0.0
 30
0.0
  9
$UCSORGLEFT
 10
0.0
 20
0.0
 30
0.0
  9
$UCSORGRIGHT
 10
0.0
 20
0.0
 30
0.0
  9
$UCSORGFRONT
 10
0.0
 20
0.0
 30
0.0
  9
$UCSORGBACK
 10
0.0
 20
0.0
 30
0.0
  9
$PUCSBASE
  2

  9
$PUCSNAME
  2

  9
$PUCSORG
 10
0.0
 20
0.0
 30
0.0
  9
$PUCSXDIR
 10
1.0
 20
0.0
 30
0.0
  9
$PUCSYDIR
 10
0.0
 20
1.0
 30
0.0
  9
$PUCSORTHOREF
  2

  9
$PUCSORTHOVIEW
 70
     0
  9
$PUCSORGTOP
 10
0.0
 20
0.0
 30
0.0
  9
$PUCSORGBOTTOM
 10
0.0
 20
0.0
 30
0.0
  9
$PUCSORGLEFT
 10
0.0
 20
0.0
 30
0.0
  9
$PUCSORGRIGHT
 10
0.0
 20
0.0
 30
0.0
  9
$PUCSORGFRONT
 10
0.0
 20
0.0
 30
0.0
  9
$PUCSORGBACK
 10
0.0
 20
0.0
 30
0.0
  9
$USERI1
 70
     0
  9
$USERI2
 70
     0
  9
$USERI3
 70
     0
  9
$USERI4
 70
     0
  9
$USERI5
 70
     0
  9
$USERR1
 40
0.0
  9
$USERR2
 40
0.0
  9
$USERR3
 40
0.0
  9
$USERR4
 40
0.0
  9
$USERR5
 40
0.0
  9
$WORLDVIEW
 70
     1
  9
$SHADEDGE
 70
     3
  9
$SHADEDIF
 70
    70
  9
$TILEMODE
 70
     1
  9
$MAXACTVP
 70
    64
  9
$PINSBASE
 10
0.0
 20
0.0
 30
0.0
  9
$PLIMCHECK
 70
     0
  9
$PEXTMIN
 10
1.000000000000000E+20
 20
1.000000000000000E+20
 30
1.000000000000000E+20
  9
$PEXTMAX
 10
-1.000000000000000E+20
 20
-1.000000000000000E+20
 30
-1.000000000000000E+20
  9
$PLIMMIN
 10
0.0
 20
0.0
  9
$PLIMMAX
 10
0.0
 20
0.0
  9
$UNITMODE
 70
     0
  9
$VISRETAIN
 70
     1
  9
$PLINEGEN
 70
     0
  9
$PSLTSCALE
 70
     1
  9
$TREEDEPTH
 70
  3020
  9
$CMLSTYLE
  2
Standard
  9
$CMLJUST
 70
     0
  9
$CMLSCALE
 40
20.0
  9
$PROXYGRAPHICS
 70
     1
  9
$MEASUREMENT
 70
     1
  9
$CELWEIGHT
370
    -1
  9
$ENDCAPS
280
     0
  9
$JOINSTYLE
280
     0
  9
$LWDISPLAY
290
     1
  9
$INSUNITS
 70
     4
  9
$HYPERLINKBASE
  1

  9
$STYLESHEET
  1

  9
$XEDIT
290
     1
  9
$CEPSNTYPE
380
     0
  9
$PSTYLEMODE
290
     1
  9
$FINGERPRINTGUID
  2
{5A5E74E5-070A-415B-9EE2-61BA6A06B01F}
  9
$VERSIONGUID
  2
{FAEB1C32-E019-11D5-929B-00C0DF256EC4}
  9
$EXTNAMES
290
     1
  9
$PSVPSCALE
 40
0.0
  9
$OLESTARTUP
290
     0
  0
ENDSEC
  0
SECTION
  2
CLASSES
  0
CLASS
  1
ACDBDICTIONARYWDFLT
  2
AcDbDictionaryWithDefault
  3
ObjectDBX Classes
 90
        0
280
     0
281
     0
  0
CLASS
  1
VISUALSTYLE
  2
AcDbVisualStyle
  3
ObjectDBX Classes
 90
     4095
280
     0
281
     0
  0
CLASS
  1
MATERIAL
  2
AcDbMaterial
  3
ObjectDBX Classes
 90
     1153
280
     0
281
     0
  0
CLASS
  1
SCALE
  2
AcDbScale
  3
ObjectDBX Classes
 90
     1153
280
     0
281
     0
  0
CLASS
  1
SUN
  2
AcDbSun
  3
SCENEOE
 90
     1153
280
     0
281
     0
  0
CLASS
  1
ACDBPLACEHOLDER
  2
AcDbPlaceHolder
  3
ObjectDBX Classes
 90
        0
280
     0
281
     0
  0
CLASS
  1
LAYOUT
  2
AcDbLayout
  3
ObjectDBX Classes
 90
        0
280
     0
281
     0
  0
CLASS
  1
TABLESTYLE
  2
AcDbTableStyle
  3
ObjectDBX Classes
 90
     4095
280
     0
281
     0
  0
CLASS
  1
MLEADERSTYLE
  2
AcDbMLeaderStyle
  3
ACDB_MLEADERSTYLE_CLASS
 90
     4095
280
     0
281
     0
  0
CLASS
  1
RASTERVARIABLES
  2
AcDbRasterVariables
  3
ISM
 90
        0
280
     0
281
     0
  0
ENDSEC
  0
SECTION
  2
TABLES
  0
TABLE
  2
VPORT
  5
8
330
0
100
AcDbSymbolTable
 70
     1
  0
VPORT
  5
29
330
8
100
AcDbSymbolTableRecord
100
AcDbViewportTableRecord
  2
*Active
 70
     0
 10
0.0
 20
0.0
 11
1.0
 21
1.0
 12
0.0869823533571861
 22
11.36699861549391
 13
0.0
 23
0.0
 14
10.0
 24
10.0
 15
10.0
 25
10.0
 16
0.0
 26
0.0
 36
1.0
 17
0.0
 27
0.0
 37
0.0
 40
95.82045477266783
 41
1.519944979367263
 42
50.0
 43
0.0
 44
0.0
 50
0.0
 51
0.0
 71
    16
 72
  2000
 73
     1
 74
     3
 75
     0
 76
     0
 77
     0
 78
     0
281
     0
 65
     1
110
0.0
120
0.0
130
0.0
111
1.0
121
0.0
131
0.0
112
0.0
122
1.0
132
0.0
 79
     0
146
0.0
  0
ENDTAB
  0
TABLE
  2
LTYPE
  5
5
330
0
100
AcDbSymbolTable
 70
     6
  0
LTYPE
  5
14
330
5
100
AcDbSymbolTableRecord
100
AcDbLinetypeTableRecord
  2
ByBlock
 70
     0
  3

 72
    65
 73
     0
 40
0.0
  0
LTYPE
  5
15
330
5
100
AcDbSymbolTableRecord
100
AcDbLinetypeTableRecord
  2
ByLayer
 70
     0
  3

 72
    65
 73
     0
 40
0.0
  0
LTYPE
  5
16
330
5
100
AcDbSymbolTableRecord
100
AcDbLinetypeTableRecord
  2
Continuous
 70
     0
  3
Solid line
 72
    65
 73
     0
 40
0.0
  0
LTYPE
  5
6A
330
5
100
AcDbSymbolTableRecord
100
AcDbLinetypeTableRecord
  2
HIDDEN
 70
     0
  3
Hidden __ __ __ __ __ __ __ __ __ __ __ __ __ __
 72
    65
 73
     2
 40
1.905
 49
1.27
 74
     0
 49
-0.635
 74
     0
  0
LTYPE
  5
6B
330
5
100
AcDbSymbolTableRecord
100
AcDbLinetypeTableRecord
  2
PHANTOM
 70
     0
  3
Phantom ______  __  __  ______  __  __  ______
 72
    65
 73
     6
 40
12.7
 49
6.35
 74
     0
 49
-1.27
 74
     0
 49
1.27
 74
     0
 49
-1.27
 74
     0
 49
1.27
 74
     0
 49
-1.27
 74
     0
  0
LTYPE
  5
6C
330
5
100
AcDbSymbolTableRecord
100
AcDbLinetypeTableRecord
  2
CENTER
 70
     0
  3
Center ____ _ ____ _ ____ _ ____ _ ____ _ ____
 72
    65
 73
     4
 40
10.16
 49
6.35
 74
     0
 49
-1.27
 74
     0
 49
1.27
 74
     0
 49
-1.27
 74
     0
  0
LTYPE
  5
6D
330
5
100
AcDbSymbolTableRecord
100
AcDbLinetypeTableRecord
  2
CENTERX2
 70
     0
  3
Center (2x) ________  __  ________  __  _____
 72
    65
 73
     4
 40
20.32
 49
12.7
 74
     0
 49
-2.54
 74
     0
 49
2.54
 74
     0
 49
-2.54
 74
     0
  0
LTYPE
  5
6E
330
5
100
AcDbSymbolTableRecord
100
AcDbLinetypeTableRecord
  2
DOT2
 70
     0
  3
Dot (.5x) ........................................
 72
    65
 73
     2
 40
0.635
 49
0.0
 74
     0
 49
-0.635
 74
     0
  0
ENDTAB
  0
TABLE
  2
LAYER
  5
2
102
{ACAD_XDICTIONARY
360
20F
102
}
330
0
100
AcDbSymbolTable
 70
    18
  0
LAYER
  5
10
330
2
100
AcDbSymbolTableRecord
100
AcDbLayerTableRecord
  2
0
 70
     0
 62
     7
  6
Continuous
370
    -3
390
F
  0
LAYER
  5
6F
330
2
100
AcDbSymbolTableRecord
100
AcDbLayerTableRecord
  2
FORMAT
 70
     0
 62
     2
  6
Continuous
370
    -3
390
F
  0
LAYER
  5
70
330
2
100
AcDbSymbolTableRecord
100
AcDbLayerTableRecord
  2
외형선
 70
     0
 62
     4
  6
Continuous
370
    30
390
F
  0
LAYER
  5
71
330
2
100
AcDbSymbolTableRecord
100
AcDbLayerTableRecord
  2
숨은선
 70
     0
 62
     2
  6
HIDDEN
370
    15
390
F
  0
LAYER
  5
72
330
2
100
AcDbSymbolTableRecord
100
AcDbLayerTableRecord
  2
중심선
 70
     0
 62
     1
  6
CENTERX2
370
    -3
390
F
  0
LAYER
  5
73
330
2
100
AcDbSymbolTableRecord
100
AcDbLayerTableRecord
  2
파단선
 70
     0
 62
     4
  6
Continuous
370
    -3
390
F
  0
LAYER
  5
74
330
2
100
AcDbSymbolTableRecord
100
AcDbLayerTableRecord
  2
해칭선
 70
     0
 62
   100
  6
Continuous
370
    -3
390
F
  0
LAYER
  5
75
330
2
100
AcDbSymbolTableRecord
100
AcDbLayerTableRecord
  2
가는실선
 70
     0
 62
     4
  6
Continuous
370
    -3
390
F
  0
LAYER
  5
76
330
2
100
AcDbSymbolTableRecord
100
AcDbLayerTableRecord
  2
치수_보조선
 70
     0
 62
     4
  6
Continuous
370
    -3
390
F
  0
LAYER
  5
77
330
2
100
AcDbSymbolTableRecord
100
AcDbLayerTableRecord
  2
치수문자_일반주서
 70
     0
 62
     7
  6
Continuous
370
    15
390
F
  0
LAYER
  5
78
330
2
100
AcDbSymbolTableRecord
100
AcDbLayerTableRecord
  2
개별주서
 70
     0
 62
   100
  6
Continuous
370
    30
390
F
  0
LAYER
  5
79
330
2
100
AcDbSymbolTableRecord
100
AcDbLayerTableRecord
  2
중간선
 70
     0
 62
     2
  6
Continuous
370
    15
390
F
  0
LAYER
  5
7A
330
2
100
AcDbSymbolTableRecord
100
AcDbLayerTableRecord
  2
윤곽선
 70
     0
 62
     3
  6
Continuous
370
    40
390
F
  0
LAYER
  5
7B
330
2
100
AcDbSymbolTableRecord
100
AcDbLayerTableRecord
  2
중심마크
 70
     0
 62
   100
  6
Continuous
370
    30
390
F
  0
LAYER
  5
7C
330
2
100
AcDbSymbolTableRecord
100
AcDbLayerTableRecord
  2
가상선
 70
     0
 62
     4
  6
PHANTOM
370
    -3
390
F
  0
LAYER
  5
7D
330
2
100
AcDbSymbolTableRecord
100
AcDbLayerTableRecord
  2
특수지정선
 70
     0
 62
     5
  6
CENTERX2
370
    60
390
F
  0
LAYER
  5
7E
330
2
100
AcDbSymbolTableRecord
100
AcDbLayerTableRecord
  2
참조1
 70
     0
 62
    -4
  6
Continuous
370
    -3
390
F
  0
LAYER
  5
157
330
2
100
AcDbSymbolTableRecord
100
AcDbLayerTableRecord
  2
Defpoints
 70
     0
 62
     7
  6
Continuous
290
     0
370
    -3
390
F
  0
ENDTAB
  0
TABLE
  2
STYLE
  5
3
330
0
100
AcDbSymbolTable
 70
     2
  0
STYLE
  5
11
330
3
100
AcDbSymbolTableRecord
100
AcDbTextStyleTableRecord
  2
Standard
 70
     0
 40
0.0
 41
1.0
 50
0.0
 71
     0
 42
3.5
  3
txt
  4

  0
STYLE
  5
94
330
3
100
AcDbSymbolTableRecord
100
AcDbTextStyleTableRecord
  2
SLDTEXTSTYLE0
 70
     0
 40
0.0
 41
0.75
 50
0.0
 71
     0
 42
3.5
  3
TXT
  4

  0
ENDTAB
  0
TABLE
  2
VIEW
  5
6
330
0
100
AcDbSymbolTable
 70
     0
  0
ENDTAB
  0
TABLE
  2
UCS
  5
7
330
0
100
AcDbSymbolTable
 70
     0
  0
ENDTAB
  0
TABLE
  2
APPID
  5
9
330
0
100
AcDbSymbolTable
 70
     3
  0
APPID
  5
12
330
9
100
AcDbSymbolTableRecord
100
AcDbRegAppTableRecord
  2
ACAD
 70
     0
  0
APPID
  5
163
330
9
100
AcDbSymbolTableRecord
100
AcDbRegAppTableRecord
  2
PE_URL
 70
     0
  0
APPID
  5
164
330
9
100
AcDbSymbolTableRecord
100
AcDbRegAppTableRecord
  2
ACAD_DSTYLE_DIMRADIAL_EXTENSION
 70
     0
  0
ENDTAB
  0
TABLE
  2
DIMSTYLE
  5
A
330
0
100
AcDbSymbolTable
 70
     4
100
AcDbDimStyleTable
  0
DIMSTYLE
105
27
330
A
100
AcDbSymbolTableRecord
100
AcDbDimStyleTableRecord
  2
ISO-25
 70
     0
 41
2.5
 42
0.625
 43
3.75
 44
1.25
 73
     0
 74
     0
 77
     1
 78
     8
140
2.5
141
2.5
143
0.03937007874016
147
0.625
171
     3
172
     1
178
     0
271
     2
272
     2
274
     3
278
    44
283
     0
284
     8
340
11
  0
DIMSTYLE
105
D4
102
{ACAD_REACTORS
330
D3
330
110
330
E8
330
FD
102
}
330
A
100
AcDbSymbolTableRecord
100
AcDbDimStyleTableRecord
  2
SLDDIMSTYLE0
 70
     0
 41
3.302
 44
0.0
 45
0.000000001
 73
     0
 74
     0
 77
     1
 78
    12
 79
     3
140
3.5
143
0.0393700787401575
147
0.875
148
0.000000001
170
     1
172
     1
173
     1
178
     0
271
     2
272
     2
276
     2
284
    12
289
     0
340
94
  0
DIMSTYLE
105
E9
102
{ACAD_REACTORS
102
}
330
A
100
AcDbSymbolTableRecord
100
AcDbDimStyleTableRecord
  2
SLDDIMSTYLE1
 70
     0
 41
3.302
 44
0.0
 45
0.000000001
 73
     0
 74
     0
 77
     1
 78
    12
 79
     3
140
3.5
143
0.0393700787401575
147
0.875
148
0.000000001
170
     1
173
     1
178
     0
271
     2
272
     2
276
     2
284
    12
340
94
  0
DIMSTYLE
105
162
102
{ACAD_REACTORS
102
}
330
A
100
AcDbSymbolTableRecord
100
AcDbDimStyleTableRecord
  2
SLDDIMSTYLE2
 70
     0
 41
3.302
 44
0.0
 45
0.000000001
 73
     0
 74
     0
 77
     1
 78
    12
 79
     3
140
3.5
147
0.875
172
     1
173
     1
178
     0
271
     2
272
     2
276
     2
284
    12
289
     0
340
94
  0
ENDTAB
  0
TABLE
  2
BLOCK_RECORD
  5
1
330
0
100
AcDbSymbolTable
 70
    20
  0
BLOCK_RECORD
  5
1F
102
{ACAD_XDICTIONARY
360
372
102
}
330
1
100
AcDbSymbolTableRecord
100
AcDbBlockTableRecord
  2
*Model_Space
340
22
  0
BLOCK_RECORD
  5
1B
330
1
100
AcDbSymbolTableRecord
100
AcDbBlockTableRecord
  2
*Paper_Space
340
1E
  0
BLOCK_RECORD
  5
23
330
1
100
AcDbSymbolTableRecord
100
AcDbBlockTableRecord
  2
*Paper_Space0
340
26
  0
BLOCK_RECORD
  5
7F
330
1
100
AcDbSymbolTableRecord
100
AcDbBlockTableRecord
  2
블럭10
340
0
102
{BLKREFS
331
CC
102
}
  0
BLOCK_RECORD
  5
D5
330
1
100
AcDbSymbolTableRecord
100
AcDbBlockTableRecord
  2
_D
340
0
  0
BLOCK_RECORD
  5
EA
330
1
100
AcDbSymbolTableRecord
100
AcDbBlockTableRecord
  2
_D_1
340
0
  0
BLOCK_RECORD
  5
FE
330
1
100
AcDbSymbolTableRecord
100
AcDbBlockTableRecord
  2
_D_2
340
0
  0
BLOCK_RECORD
  5
111
330
1
100
AcDbSymbolTableRecord
100
AcDbBlockTableRecord
  2
_D_3
340
0
  0
BLOCK_RECORD
  5
12B
330
1
100
AcDbSymbolTableRecord
100
AcDbBlockTableRecord
  2
SW_DOWELSYMBOL_0
340
0
102
{BLKREFS
331
131
102
}
  0
BLOCK_RECORD
  5
1ED
330
1
100
AcDbSymbolTableRecord
100
AcDbBlockTableRecord
  2
_D_4
340
0
  0
BLOCK_RECORD
  5
207
330
1
100
AcDbSymbolTableRecord
100
AcDbBlockTableRecord
  2
*D8
340
0
  0
BLOCK_RECORD
  5
213
330
1
100
AcDbSymbolTableRecord
100
AcDbBlockTableRecord
  2
*D9
340
0
  0
BLOCK_RECORD
  5
21F
330
1
100
AcDbSymbolTableRecord
100
AcDbBlockTableRecord
  2
*D10
340
0
  0
BLOCK_RECORD
  5
22B
330
1
100
AcDbSymbolTableRecord
100
AcDbBlockTableRecord
  2
*D11
340
0
  0
BLOCK_RECORD
  5
286
330
1
100
AcDbSymbolTableRecord
100
AcDbBlockTableRecord
  2
*D12
340
0
  0
BLOCK_RECORD
  5
292
330
1
100
AcDbSymbolTableRecord
100
AcDbBlockTableRecord
  2
*D13
340
0
  0
BLOCK_RECORD
  5
29E
330
1
100
AcDbSymbolTableRecord
100
AcDbBlockTableRecord
  2
*D14
340
0
  0
BLOCK_RECORD
  5
2AC
330
1
100
AcDbSymbolTableRecord
100
AcDbBlockTableRecord
  2
*D15
340
0
  0
BLOCK_RECORD
  5
2BA
330
1
100
AcDbSymbolTableRecord
100
AcDbBlockTableRecord
  2
*D16
340
0
  0
BLOCK_RECORD
  5
2F6
330
1
100
AcDbSymbolTableRecord
100
AcDbBlockTableRecord
  2
*D17
340
0
  0
BLOCK_RECORD
  5
305
330
1
100
AcDbSymbolTableRecord
100
AcDbBlockTableRecord
  2
*D18
340
0
  0
BLOCK_RECORD
  5
314
330
1
100
AcDbSymbolTableRecord
100
AcDbBlockTableRecord
  2
*D19
340
0
  0
ENDTAB
  0
ENDSEC
  0
SECTION
  2
BLOCKS
  0
BLOCK
  5
20
330
1F
100
AcDbEntity
  8
0
100
AcDbBlockBegin
  2
*Model_Space
 70
     0
 10
0.0
 20
0.0
 30
0.0
  3
*Model_Space
  1
*Model_Space
  0
ENDBLK
  5
21
330
1F
100
AcDbEntity
  8
0
100
AcDbBlockEnd
  0
BLOCK
  5
1C
330
1B
100
AcDbEntity
 67
     1
  8
0
100
AcDbBlockBegin
  2
*Paper_Space
 70
     0
 10
0.0
 20
0.0
 30
0.0
  3
*Paper_Space
  1
*Paper_Space
  0
ENDBLK
  5
1D
330
1B
100
AcDbEntity
 67
     1
  8
0
100
AcDbBlockEnd
  0
BLOCK
  5
24
330
23
100
AcDbEntity
  8
0
100
AcDbBlockBegin
  2
*Paper_Space0
 70
     0
 10
0.0
 20
0.0
 30
0.0
  3
*Paper_Space0
  1
*Paper_Space0
  0
ENDBLK
  5
25
330
23
100
AcDbEntity
  8
0
100
AcDbBlockEnd
  0
BLOCK
  5
80
330
7F
100
AcDbEntity
  8
0
100
AcDbBlockBegin
  2
블럭10
 70
     2
 10
0.0
 20
0.0
 30
0.0
  3
블럭10
  1
블럭10
  0
ELLIPSE
  5
82
330
7F
100
AcDbEntity
  8
중심선
100
AcDbEllipse
 10
20.54032771741204
 20
12.0471743016438
 30
0.0
 11
6.600054785286829
 21
-1.261213355974178E-13
 31
0.0
210
0.0
220
0.0
230
1.0
 40
0.636358354079598
 41
0.9219305317359503
 42
6.513795318482858
  0
ELLIPSE
  5
83
330
7F
100
AcDbEntity
  8
중심선
100
AcDbEllipse
 10
20.54032771746488
 20
12.04717430159265
 30
0.0
 11
3.960054785062283
 21
1.540847449632565E-10
 31
0.0
210
0.0
220
0.0
230
1.0
 40
0.3939339440162632
 41
1.131841032648279
 42
5.62031148352944
  0
LINE
  5
84
330
7F
100
AcDbEntity
  8
중심선
100
AcDbLine
 10
2.268634060543552
 20
16.24717430164393
 30
0.0
 11
5.714909304380834
 21
16.24717430164393
 31
0.0
  0
LINE
  5
85
330
7F
100
AcDbEntity
  8
중심선
100
AcDbLine
 10
5.245725140726316
 20
7.84717430164391
 30
0.0
 11
8.692000384563599
 21
7.84717430164391
 31
0.0
  0
LINE
  5
86
330
7F
100
AcDbEntity
  8
중심선
100
AcDbLine
 10
15.74043728645272
 20
16.24717430164393
 30
0.0
 11
8.692000384563599
 21
7.84717430164391
 31
0.0
  0
LINE
  5
87
330
7F
100
AcDbEntity
  8
중심선
100
AcDbLine
 10
0.1404042013395286
 20
13.71084872107135
 30
0.0
 11
3.58671253028996
 21
13.71088815037384
 31
0.0
  0
LINE
  5
88
330
7F
100
AcDbEntity
  8
중심선
100
AcDbLine
 10
2.750260043222114
 20
10.84717430164391
 30
0.0
 11
6.196535287059397
 21
10.84717430164391
 31
0.0
  0
LINE
  5
89
330
7F
100
AcDbEntity
  8
중심선
100
AcDbLine
 10
12.29416204261559
 20
16.24717430164393
 30
0.0
 11
5.245725140726316
 21
7.84717430164391
 31
0.0
  0
LINE
  5
8A
330
7F
100
AcDbEntity
  8
중심선
100
AcDbLine
 10
10.72767329541681
 20
16.24717430164393
 30
0.0
 11
6.196535287059397
 21
10.84717430164391
 31
0.0
  0
LINE
  5
8B
330
7F
100
AcDbEntity
  8
중심선
100
AcDbLine
 10
7.28139805157953
 20
16.24717430164393
 30
0.0
 11
2.750260043222114
 21
10.84717430164391
 31
0.0
  0
LINE
  5
8C
330
7F
100
AcDbEntity
  8
중심선
100
AcDbLine
 10
5.714909304380834
 20
16.24717430164393
 30
0.0
 11
3.58671253028996
 21
13.71088815037384
 31
0.0
  0
LINE
  5
8D
330
7F
100
AcDbEntity
  8
중심선
100
AcDbLine
 10
2.268634060543552
 20
16.24717430164393
 30
0.0
 11
0.1404042013395286
 21
13.71084872107135
 31
0.0
  0
LINE
  5
8E
330
7F
100
AcDbEntity
  8
중심선
100
AcDbLine
 10
7.28139805157953
 20
16.24717430164393
 30
0.0
 11
10.72767329541681
 21
16.24717430164393
 31
0.0
  0
LINE
  5
8F
330
7F
100
AcDbEntity
  8
중심선
100
AcDbLine
 10
12.29416204261559
 20
16.24717430164393
 30
0.0
 11
15.74043728645272
 21
16.24717430164393
 31
0.0
  0
LINE
  5
90
330
7F
100
AcDbEntity
  8
중심선
100
AcDbLine
 10
19.22036997980202
 20
11.08717430171403
 30
0.0
 11
23.66174974927406
 21
11.08717430171406
 31
0.0
  0
LINE
  5
91
330
7F
100
AcDbEntity
  8
중심선
100
AcDbLine
 10
19.22039502424796
 20
13.00717430171391
 30
0.0
 11
19.22036997980202
 21
11.08717430171403
 31
0.0
  0
LINE
  5
92
330
7F
100
AcDbEntity
  8
중심선
100
AcDbLine
 10
19.22039502424796
 20
13.00717430171391
 30
0.0
 11
26.96566020931264
 21
13.00717430171391
 31
0.0
  0
LINE
  5
93
330
7F
100
AcDbEntity
  8
중심선
100
AcDbLine
 10
22.22332737316547
 20
13.45928029700563
 30
0.0
 11
24.52862924686651
 21
15.39360700705356
 31
0.0
  0
ATTDEF
  5
95
330
7F
100
AcDbEntity
  8
FORMAT
 62
     2
100
AcDbText
 10
4.408487351596664
 20
2.075366912832191
 30
0.0
 40
4.233333333333333
  1
E5024014
 41
0.75
  7
SLDTEXTSTYLE0
 11
4.408487351596664
 21
-0.0412997538344756
 31
0.0
100
AcDbAttributeDefinition
  3

  2
AUTOATTR0
 70
     0
 74
     1
  0
ENDBLK
  5
81
330
7F
100
AcDbEntity
  8
0
100
AcDbBlockEnd
  0
BLOCK
  5
D6
330
D5
100
AcDbEntity
  8
0
100
AcDbBlockBegin
  2
_D
 70
     0
 10
0.0
 20
0.0
 30
0.0
  3
_D
  1
_D
  0
LINE
  5
D8
330
D5
100
AcDbEntity
  8
치수문자_일반주서
 62
     0
370
    -2
100
AcDbLine
 10
42.925
 20
2.77812500000002
 30
0.0
 11
55.11632071814357
 21
2.778125000000067
 31
0.0
  0
LINE
  5
D9
330
D5
100
AcDbEntity
  8
치수문자_일반주서
 62
     0
370
    -2
100
AcDbLine
 10
42.925
 20
-2.778124999999984
 30
0.0
 11
55.11632071814359
 21
-2.778124999999939
 31
0.0
  0
LINE
  5
DA
330
D5
100
AcDbEntity
  8
치수문자_일반주서
 62
     0
370
    -2
100
AcDbLine
 10
55.11632071814357
 20
2.778125000000067
 30
0.0
 11
55.11632071814343
 21
38.25712500000007
 31
0.0
  0
LINE
  5
DB
330
D5
100
AcDbEntity
  8
치수문자_일반주서
 62
     0
370
    -2
100
AcDbLine
 10
55.11632071814357
 20
2.778125000000067
 30
0.0
 11
55.11632071814359
 21
-2.778124999999939
 31
0.0
  0
LINE
  5
DC
330
D5
100
AcDbEntity
  8
치수문자_일반주서
 62
     0
370
    -2
100
AcDbLine
 10
55.11632071814356
 20
6.080125000000066
 30
0.0
 11
55.11632071814354
 21
9.382125000000066
 31
0.0
  0
LINE
  5
DD
330
D5
100
AcDbEntity
  8
치수문자_일반주서
 62
     0
370
    -2
100
AcDbLine
 10
55.11632071814361
 20
-6.080124999999938
 30
0.0
 11
55.11632071814362
 21
-9.382124999999938
 31
0.0
  0
SOLID
  5
DE
330
D5
100
AcDbEntity
  8
치수문자_일반주서
 62
     0
100
AcDbTrace
 10
54.56598738481022
 20
6.080125000000065
 30
0.0
 11
55.66665405147689
 21
6.080125000000068
 31
0.0
 12
55.11632071814357
 22
2.778125000000067
 32
0.0
 13
55.11632071814357
 23
2.778125000000067
 33
0.0
  0
SOLID
  5
DF
330
D5
100
AcDbEntity
  8
치수문자_일반주서
 62
     0
100
AcDbTrace
 10
55.66665405147694
 20
-6.080124999999937
 30
0.0
 11
54.56598738481027
 21
-6.08012499999994
 31
0.0
 12
55.11632071814359
 22
-2.778124999999939
 32
0.0
 13
55.11632071814359
 23
-2.778124999999939
 33
0.0
  0
MTEXT
  5
E0
330
D5
100
AcDbEntity
  8
치수문자_일반주서
 62
     0
100
AcDbMText
 10
50.74132071814348
 20
23.81962500000005
 30
0.0
 40
3.5
 41
0.0
 71
     2
 72
     1
  1
\A1;%%c5.56 [7/32]
  7
SLDTEXTSTYLE0
 11
-3.836451216702450E-15
 21
1.0
 31
0.0
 73
     1
 44
1.0
  0
POINT
  5
E1
330
D5
100
AcDbEntity
  8
Defpoints
 62
     0
100
AcDbPoint
 10
42.8625
 20
2.77812500000002
 30
0.0
  0
POINT
  5
E2
330
D5
100
AcDbEntity
  8
Defpoints
 62
     0
100
AcDbPoint
 10
42.8625
 20
-2.778124999999984
 30
0.0
  0
POINT
  5
E3
330
D5
100
AcDbEntity
  8
Defpoints
 62
     0
100
AcDbPoint
 10
55.11632071814359
 20
-2.778124999999938
 30
0.0
  0
ENDBLK
  5
D7
330
D5
100
AcDbEntity
  8
0
100
AcDbBlockEnd
  0
BLOCK
  5
EB
330
EA
100
AcDbEntity
  8
0
100
AcDbBlockBegin
  2
_D_1
 70
     0
 10
0.0
 20
0.0
 30
0.0
  3
_D_1
  1
_D_1
  0
LINE
  5
ED
330
EA
100
AcDbEntity
  8
치수문자_일반주서
 62
     0
370
    -2
100
AcDbLine
 10
42.8625
 20
2.830408699589624
 30
0.0
 11
42.8625
 21
26.58630187324108
 31
0.0
  0
LINE
  5
EE
330
EA
100
AcDbEntity
  8
치수문자_일반주서
 62
     0
370
    -2
100
AcDbLine
 10
28.57500000000001
 20
2.830242951574446
 30
0.0
 11
28.57500000000001
 21
26.58630187324108
 31
0.0
  0
LINE
  5
EF
330
EA
100
AcDbEntity
  8
치수문자_일반주서
 62
     0
370
    -2
100
AcDbLine
 10
28.57500000000001
 20
26.58630187324108
 30
0.0
 11
-5.153999999999989
 21
26.58630187324108
 31
0.0
  0
LINE
  5
F0
330
EA
100
AcDbEntity
  8
치수문자_일반주서
 62
     0
370
    -2
100
AcDbLine
 10
42.8625
 20
26.58630187324108
 30
0.0
 11
28.57500000000001
 21
26.58630187324108
 31
0.0
  0
LINE
  5
F1
330
EA
100
AcDbEntity
  8
치수문자_일반주서
 62
     0
370
    -2
100
AcDbLine
 10
46.1645
 20
26.58630187324108
 30
0.0
 11
49.4665
 21
26.58630187324108
 31
0.0
  0
LINE
  5
F2
330
EA
100
AcDbEntity
  8
치수문자_일반주서
 62
     0
370
    -2
100
AcDbLine
 10
25.27300000000001
 20
26.58630187324108
 30
0.0
 11
21.97100000000001
 21
26.58630187324108
 31
0.0
  0
SOLID
  5
F3
330
EA
100
AcDbEntity
  8
치수문자_일반주서
 62
     0
100
AcDbTrace
 10
46.1645
 20
27.13663520657441
 30
0.0
 11
46.1645
 21
26.03596853990774
 31
0.0
 12
42.8625
 22
26.58630187324108
 32
0.0
 13
42.8625
 23
26.58630187324108
 33
0.0
  0
SOLID
  5
F4
330
EA
100
AcDbEntity
  8
치수문자_일반주서
 62
     0
100
AcDbTrace
 10
25.27300000000001
 20
26.03596853990774
 30
0.0
 11
25.27300000000001
 21
27.13663520657441
 31
0.0
 12
28.57500000000001
 22
26.58630187324108
 32
0.0
 13
28.57500000000001
 23
26.58630187324108
 33
0.0
  0
MTEXT
  5
F5
330
EA
100
AcDbEntity
  8
치수문자_일반주서
 62
     0
100
AcDbMText
 10
8.40850000000001
 20
30.96130187324108
 30
0.0
 40
3.5
 41
0.0
 71
     2
 72
     1
  1
\A1;14.29 [9/16]
  7
SLDTEXTSTYLE0
 73
     1
 44
1.0
  0
POINT
  5
F6
330
EA
100
AcDbEntity
  8
Defpoints
 62
     0
100
AcDbPoint
 10
42.8625
 20
2.767908699589624
 30
0.0
  0
POINT
  5
F7
330
EA
100
AcDbEntity
  8
Defpoints
 62
     0
100
AcDbPoint
 10
28.57500000000001
 20
2.767742951574446
 30
0.0
  0
POINT
  5
F8
330
EA
100
AcDbEntity
  8
Defpoints
 62
     0
100
AcDbPoint
 10
28.57500000000001
 20
26.58630187324108
 30
0.0
  0
ENDBLK
  5
EC
330
EA
100
AcDbEntity
  8
0
100
AcDbBlockEnd
  0
BLOCK
  5
FF
330
FE
100
AcDbEntity
  8
0
100
AcDbBlockBegin
  2
_D_2
 70
     0
 10
0.0
 20
0.0
 30
0.0
  3
_D_2
  1
_D_2
  0
LINE
  5
101
330
FE
100
AcDbEntity
  8
치수문자_일반주서
 62
     0
370
    -2
100
AcDbLine
 10
42.8625
 20
2.830408699589624
 30
0.0
 11
42.8625
 21
50.35832764256403
 31
0.0
  0
LINE
  5
102
330
FE
100
AcDbEntity
  8
치수문자_일반주서
 62
     0
370
    -2
100
AcDbLine
 10
-42.8625
 20
2.840624999999981
 30
0.0
 11
-42.8625
 21
50.35832764256403
 31
0.0
  0
LINE
  5
103
330
FE
100
AcDbEntity
  8
치수문자_일반주서
 62
     0
370
    -2
100
AcDbLine
 10
39.5605
 20
50.35832764256403
 30
0.0
 11
-39.5605
 21
50.35832764256403
 31
0.0
  0
SOLID
  5
104
330
FE
100
AcDbEntity
  8
치수문자_일반주서
 62
     0
100
AcDbTrace
 10
39.5605
 20
49.8079943092307
 30
0.0
 11
39.5605
 21
50.90866097589737
 31
0.0
 12
42.8625
 22
50.35832764256403
 32
0.0
 13
42.8625
 23
50.35832764256403
 33
0.0
  0
SOLID
  5
105
330
FE
100
AcDbEntity
  8
치수문자_일반주서
 62
     0
100
AcDbTrace
 10
-39.5605
 20
50.90866097589737
 30
0.0
 11
-39.5605
 21
49.8079943092307
 31
0.0
 12
-42.8625
 22
50.35832764256403
 32
0.0
 13
-42.8625
 23
50.35832764256403
 33
0.0
  0
MTEXT
  5
106
330
FE
100
AcDbEntity
  8
치수문자_일반주서
 62
     0
100
AcDbMText
 10
-2.187269229181645
 20
54.73332764256403
 30
0.0
 40
3.5
 41
0.0
 71
     2
 72
     1
  1
\A1;85.73 [3 3/8]
  7
SLDTEXTSTYLE0
 73
     1
 44
1.0
  0
POINT
  5
107
330
FE
100
AcDbEntity
  8
Defpoints
 62
     0
100
AcDbPoint
 10
42.8625
 20
2.767908699589624
 30
0.0
  0
POINT
  5
108
330
FE
100
AcDbEntity
  8
Defpoints
 62
     0
100
AcDbPoint
 10
-42.8625
 20
2.778124999999981
 30
0.0
  0
POINT
  5
109
330
FE
100
AcDbEntity
  8
Defpoints
 62
     0
100
AcDbPoint
 10
-42.8625
 20
50.35832764256403
 30
0.0
  0
ENDBLK
  5
100
330
FE
100
AcDbEntity
  8
0
100
AcDbBlockEnd
  0
BLOCK
  5
112
330
111
100
AcDbEntity
  8
0
100
AcDbBlockBegin
  2
_D_3
 70
     0
 10
0.0
 20
0.0
 30
0.0
  3
_D_3
  1
_D_3
  0
LINE
  5
114
330
111
100
AcDbEntity
  8
치수문자_일반주서
 62
     0
370
    -2
100
AcDbLine
 10
-20.23171167873049
 20
4.762500000000004
 30
0.0
 11
-56.26125000000003
 21
4.762499999999868
 31
0.0
  0
LINE
  5
115
330
111
100
AcDbEntity
  8
치수문자_일반주서
 62
     0
370
    -2
100
AcDbLine
 10
-20.23171167873052
 20
-4.762500000000006
 30
0.0
 11
-56.26124999999999
 21
-4.762500000000141
 31
0.0
  0
LINE
  5
116
330
111
100
AcDbEntity
  8
치수문자_일반주서
 62
     0
370
    -2
100
AcDbLine
 10
-56.26125000000003
 20
4.762499999999868
 30
0.0
 11
-56.26125000000015
 21
37.83524999999996
 31
0.0
  0
LINE
  5
117
330
111
100
AcDbEntity
  8
치수문자_일반주서
 62
     0
370
    -2
100
AcDbLine
 10
-56.26125000000003
 20
4.762499999999868
 30
0.0
 11
-56.26124999999999
 21
-4.762500000000141
 31
0.0
  0
LINE
  5
118
330
111
100
AcDbEntity
  8
치수문자_일반주서
 62
     0
370
    -2
100
AcDbLine
 10
-56.26125000000004
 20
8.064499999999867
 30
0.0
 11
-56.26125000000005
 21
11.36649999999987
 31
0.0
  0
LINE
  5
119
330
111
100
AcDbEntity
  8
치수문자_일반주서
 62
     0
370
    -2
100
AcDbLine
 10
-56.26124999999998
 20
-8.064500000000141
 30
0.0
 11
-56.26124999999996
 21
-11.36650000000014
 31
0.0
  0
SOLID
  5
11A
330
111
100
AcDbEntity
  8
치수문자_일반주서
 62
     0
100
AcDbTrace
 10
-56.81158333333337
 20
8.064499999999866
 30
0.0
 11
-55.71091666666671
 21
8.06449999999987
 31
0.0
 12
-56.26125000000003
 22
4.762499999999868
 32
0.0
 13
-56.26125000000003
 23
4.762499999999868
 33
0.0
  0
SOLID
  5
11B
330
111
100
AcDbEntity
  8
치수문자_일반주서
 62
     0
100
AcDbTrace
 10
-55.71091666666664
 20
-8.06450000000014
 30
0.0
 11
-56.81158333333331
 21
-8.064500000000143
 31
0.0
 12
-56.26124999999999
 22
-4.762500000000141
 32
0.0
 13
-56.26124999999999
 23
-4.762500000000141
 33
0.0
  0
MTEXT
  5
11C
330
111
100
AcDbEntity
  8
치수문자_일반주서
 62
     0
100
AcDbMText
 10
-60.6362500000001
 20
24.71024999999993
 30
0.0
 40
3.5
 41
0.0
 71
     2
 72
     1
  1
\A1;%%c9.53 [3/8]
  7
SLDTEXTSTYLE0
 11
-3.729883127349603E-15
 21
1.0
 31
0.0
 73
     1
 44
1.0
  0
POINT
  5
2C4
330
111
100
AcDbEntity
  8
Defpoints
 62
     0
100
AcDbPoint
 10
-20.16921167873049
 20
4.762500000000004
 30
0.0
  0
POINT
  5
2C5
330
111
100
AcDbEntity
  8
Defpoints
 62
     0
100
AcDbPoint
 10
-20.16921167873052
 20
-4.762500000000006
 30
0.0
  0
POINT
  5
2C6
330
111
100
AcDbEntity
  8
Defpoints
 62
     0
100
AcDbPoint
 10
-56.26124999999999
 20
-4.762500000000141
 30
0.0
  0
ENDBLK
  5
113
330
111
100
AcDbEntity
  8
0
100
AcDbBlockEnd
  0
BLOCK
  5
12C
330
12B
100
AcDbEntity
  8
0
100
AcDbBlockBegin
  2
SW_DOWELSYMBOL_0
 70
     0
 10
0.0
 20
0.0
 30
0.0
  3
SW_DOWELSYMBOL_0
  1
SW_DOWELSYMBOL_0
  0
CIRCLE
  5
12E
330
12B
100
AcDbEntity
  8
해칭선
 62
     0
100
AcDbCircle
 10
0.0
 20
0.0
 30
0.0
 40
3.000000000000001
  0
HATCH
  5
12F
330
12B
100
AcDbEntity
  8
0
  6
Continuous
 62
     0
370
     0
100
AcDbHatch
 10
0.0
 20
0.0
 30
0.0
210
0.0
220
0.0
230
1.0
  2
SOLID
 70
     1
 71
     0
 91
        1
 92
        0
 93
        3
 72
     2
 10
0.0
 20
0.0
 40
3.000000000000001
 50
0.0
 51
90.0
 73
     1
 72
     1
 10
0.0
 20
3.000000000000001
 11
0.0
 21
0.0
 72
     1
 10
0.0
 20
0.0
 11
3.000000000000003
 21
0.0
 97
        0
 75
     0
 76
     1
 98
        1
 10
0.0
 20
0.0
  0
HATCH
  5
130
330
12B
100
AcDbEntity
  8
0
  6
Continuous
 62
     0
370
     0
100
AcDbHatch
 10
0.0
 20
0.0
 30
0.0
210
0.0
220
0.0
230
1.0
  2
SOLID
 70
     1
 71
     0
 91
        1
 92
        0
 93
        3
 72
     2
 10
0.0
 20
0.0
 40
3.000000000000001
 50
180.0
 51
270.0000000000007
 73
     1
 72
     1
 10
0.0
 20
-3.000000000000001
 11
0.0
 21
0.0
 72
     1
 10
0.0
 20
0.0
 11
-3.000000000000003
 21
0.0
 97
        0
 75
     0
 76
     1
 98
        1
 10
0.0
 20
0.0
  0
ENDBLK
  5
12D
330
12B
100
AcDbEntity
  8
0
100
AcDbBlockEnd
  0
BLOCK
  5
1EE
330
1ED
100
AcDbEntity
  8
0
100
AcDbBlockBegin
  2
_D_4
 70
     0
 10
0.0
 20
0.0
 30
0.0
  3
_D_4
  1
_D_4
  0
LINE
  5
1EF
330
1ED
100
AcDbEntity
  8
치수문자_일반주서
 62
     0
370
    -2
100
AcDbLine
 10
102.4375000000001
 20
36.22143424691529
 30
0.0
 11
117.3750000000001
 21
36.22143424691535
 31
0.0
  0
LINE
  5
1F0
330
1ED
100
AcDbEntity
  8
치수문자_일반주서
 62
     0
370
    -2
100
AcDbLine
 10
102.4375000000001
 20
22.22143424691529
 30
0.0
 11
117.3750000000001
 21
22.22143424691535
 31
0.0
  0
LINE
  5
1F1
330
1ED
100
AcDbEntity
  8
치수문자_일반주서
 62
     0
370
    -2
100
AcDbLine
 10
117.3750000000001
 20
36.22143424691535
 30
0.0
 11
117.3750000000001
 21
22.22143424691535
 31
0.0
  0
LINE
  5
1F2
330
1ED
100
AcDbEntity
  8
치수문자_일반주서
 62
     0
370
    -2
100
AcDbLine
 10
117.3750000000001
 20
39.52343424691535
 30
0.0
 11
117.375
 21
42.82543424691535
 31
0.0
  0
LINE
  5
1F3
330
1ED
100
AcDbEntity
  8
치수문자_일반주서
 62
     0
370
    -2
100
AcDbLine
 10
117.3750000000001
 20
18.91943424691535
 30
0.0
 11
117.3750000000001
 21
15.61743424691535
 31
0.0
  0
SOLID
  5
1F4
330
1ED
100
AcDbEntity
  8
치수문자_일반주서
 62
     0
100
AcDbTrace
 10
116.8246666666667
 20
39.52343424691535
 30
0.0
 11
117.9253333333334
 21
39.52343424691535
 31
0.0
 12
117.3750000000001
 22
36.22143424691535
 32
0.0
 13
117.3750000000001
 23
36.22143424691535
 33
0.0
  0
SOLID
  5
1F5
330
1ED
100
AcDbEntity
  8
치수문자_일반주서
 62
     0
100
AcDbTrace
 10
117.9253333333335
 20
18.91943424691535
 30
0.0
 11
116.8246666666668
 21
18.91943424691535
 31
0.0
 12
117.3750000000001
 22
22.22143424691535
 32
0.0
 13
117.3750000000001
 23
22.22143424691535
 33
0.0
  0
MTEXT
  5
1F6
330
1ED
100
AcDbEntity
  8
치수문자_일반주서
 62
     0
100
AcDbMText
 10
113.0000000000001
 20
29.28713862862833
 30
0.0
 40
3.5
 41
0.0
 71
     2
 72
     1
  1
\A1;%%c14
  7
SLDTEXTSTYLE0
 11
-3.045183153257572E-15
 21
1.0
 31
0.0
 73
     1
 44
1.0
  0
POINT
  5
1F7
330
1ED
100
AcDbEntity
  8
Defpoints
 62
     0
100
AcDbPoint
 10
102.3750000000001
 20
36.22143424691529
 30
0.0
  0
POINT
  5
1F8
330
1ED
100
AcDbEntity
  8
Defpoints
 62
     0
100
AcDbPoint
 10
102.3750000000001
 20
22.22143424691529
 30
0.0
  0
POINT
  5
1F9
330
1ED
100
AcDbEntity
  8
Defpoints
 62
     0
100
AcDbPoint
 10
117.3750000000001
 20
22.22143424691535
 30
0.0
  0
ENDBLK
  5
1FA
330
1ED
100
AcDbEntity
  8
0
100
AcDbBlockEnd
  0
BLOCK
  5
208
330
207
100
AcDbEntity
  8
0
100
AcDbBlockBegin
  2
*D8
 70
     1
 10
0.0
 20
0.0
 30
0.0
  3
*D8
  1
*D8
  0
LINE
  5
209
330
207
100
AcDbEntity
  8
치수문자_일반주서
 62
     0
370
    -2
100
AcDbLine
 10
103.8657751816695
 20
19.48229575403651
 30
0.0
 11
119.6194267469468
 21
-6.150060756304035
 31
0.0
  0
MTEXT
  5
20A
330
207
100
AcDbEntity
  8
치수문자_일반주서
 62
     0
100
AcDbMText
 10
115.6706384014277
 20
5.288158154535728
 30
0.0
 40
3.5
 41
0.0
 71
     5
 72
     1
  1
\A1;R.5 [R0.02]
  7
SLDTEXTSTYLE0
 11
0.5236126201129557
 21
-0.8519564684057781
 31
0.0
 73
     1
 44
1.0
  0
SOLID
  5
20B
330
207
100
AcDbEntity
  8
치수문자_일반주서
 62
     0
100
AcDbTrace
 10
104.3346352247821
 20
19.77045723263868
 30
0.0
 11
103.3969151385569
 21
19.19413427543435
 31
0.0
 12
102.1368063100565
 22
22.29545601271239
 32
0.0
 13
102.1368063100565
 23
22.29545601271239
 33
0.0
  0
LINE
  5
20C
330
207
100
AcDbEntity
  8
치수문자_일반주서
 62
     0
100
AcDbLine
 10
101.785
 20
22.72143424691529
 30
0.0
 11
101.965
 21
22.72143424691529
 31
0.0
  0
LINE
  5
20D
330
207
100
AcDbEntity
  8
치수문자_일반주서
 62
     0
100
AcDbLine
 10
101.875
 20
22.63143424691529
 30
0.0
 11
101.875
 21
22.81143424691529
 31
0.0
  0
POINT
  5
239
330
207
100
AcDbEntity
  8
Defpoints
 62
     0
100
AcDbPoint
 10
102.1368063100565
 20
22.29545601271239
 30
0.0
  0
POINT
  5
23A
330
207
100
AcDbEntity
  8
Defpoints
 62
     0
100
AcDbPoint
 10
101.875
 20
22.72143424691529
 30
0.0
  0
ENDBLK
  5
20E
330
207
100
AcDbEntity
  8
0
100
AcDbBlockEnd
  0
BLOCK
  5
214
330
213
100
AcDbEntity
  8
0
100
AcDbBlockBegin
  2
*D9
 70
     1
 10
0.0
 20
0.0
 30
0.0
  3
*D9
  1
*D10
  0
LINE
  5
216
330
213
100
AcDbEntity
  8
치수문자_일반주서
 62
     0
370
    -2
100
AcDbLine
 10
19.37500000000004
 20
35.78393424691529
 30
0.0
 11
19.37500000000004
 21
70.88391841499404
 31
0.0
  0
LINE
  5
217
330
213
100
AcDbEntity
  8
치수문자_일반주서
 62
     0
370
    -2
100
AcDbLine
 10
102.3750000000001
 20
36.34643424691529
 30
0.0
 11
102.3750000000001
 21
70.88391841499404
 31
0.0
  0
LINE
  5
218
330
213
100
AcDbEntity
  8
치수문자_일반주서
 62
     0
370
    -2
100
AcDbLine
 10
22.67700000000004
 20
70.88391841499404
 30
0.0
 11
99.07300000000006
 21
70.88391841499404
 31
0.0
  0
SOLID
  5
219
330
213
100
AcDbEntity
  8
치수문자_일반주서
 62
     0
100
AcDbTrace
 10
22.67700000000004
 20
71.43425174832737
 30
0.0
 11
22.67700000000004
 21
70.33358508166071
 31
0.0
 12
19.37500000000004
 22
70.88391841499404
 32
0.0
 13
19.37500000000004
 23
70.88391841499404
 33
0.0
  0
SOLID
  5
21A
330
213
100
AcDbEntity
  8
치수문자_일반주서
 62
     0
100
AcDbTrace
 10
99.07300000000006
 20
70.33358508166071
 30
0.0
 11
99.07300000000006
 21
71.43425174832737
 31
0.0
 12
102.3750000000001
 22
70.88391841499404
 32
0.0
 13
102.3750000000001
 23
70.88391841499404
 33
0.0
  0
MTEXT
  5
21B
330
213
100
AcDbEntity
  8
치수문자_일반주서
 62
     0
100
AcDbMText
 10
60.87500000000005
 20
75.25891841499404
 30
0.0
 40
3.5
 41
0.0
 71
     2
 72
     1
  1
\A1;83 [3.27]
  7
SLDTEXTSTYLE0
 73
     1
 44
1.0
  0
POINT
  5
21C
330
213
100
AcDbEntity
  8
Defpoints
 62
     0
100
AcDbPoint
 10
19.37500000000004
 20
35.72143424691529
 30
0.0
  0
POINT
  5
21D
330
213
100
AcDbEntity
  8
Defpoints
 62
     0
100
AcDbPoint
 10
102.3750000000001
 20
36.28393424691529
 30
0.0
  0
POINT
  5
21E
330
213
100
AcDbEntity
  8
Defpoints
 62
     0
100
AcDbPoint
 10
102.3750000000001
 20
70.88391841499404
 30
0.0
  0
ENDBLK
  5
215
330
213
100
AcDbEntity
  8
0
100
AcDbBlockEnd
  0
BLOCK
  5
220
330
21F
100
AcDbEntity
  8
0
100
AcDbBlockBegin
  2
*D10
 70
     1
 10
0.0
 20
0.0
 30
0.0
  3
*D10
  1
*D11
  0
LINE
  5
222
330
21F
100
AcDbEntity
  8
치수문자_일반주서
 62
     0
370
    -2
100
AcDbLine
 10
76.37504186422882
 20
28.62038676313042
 30
0.0
 11
76.37504186422882
 21
61.90091383617725
 31
0.0
  0
LINE
  5
223
330
21F
100
AcDbEntity
  8
치수문자_일반주서
 62
     0
370
    -2
100
AcDbLine
 10
102.3750000000001
 20
36.28393424691529
 30
0.0
 11
102.3750000000001
 21
61.90091383617725
 31
0.0
  0
LINE
  5
224
330
21F
100
AcDbEntity
  8
치수문자_일반주서
 62
     0
370
    -2
100
AcDbLine
 10
79.67704186422881
 20
61.90091383617725
 30
0.0
 11
99.07300000000006
 21
61.90091383617725
 31
0.0
  0
SOLID
  5
225
330
21F
100
AcDbEntity
  8
치수문자_일반주서
 62
     0
100
AcDbTrace
 10
79.67704186422881
 20
62.45124716951059
 30
0.0
 11
79.67704186422881
 21
61.35058050284392
 31
0.0
 12
76.37504186422882
 22
61.90091383617725
 32
0.0
 13
76.37504186422882
 23
61.90091383617725
 33
0.0
  0
SOLID
  5
226
330
21F
100
AcDbEntity
  8
치수문자_일반주서
 62
     0
100
AcDbTrace
 10
99.07300000000006
 20
61.35058050284392
 30
0.0
 11
99.07300000000006
 21
62.45124716951059
 31
0.0
 12
102.3750000000001
 22
61.90091383617725
 32
0.0
 13
102.3750000000001
 23
61.90091383617725
 33
0.0
  0
MTEXT
  5
227
330
21F
100
AcDbEntity
  8
치수문자_일반주서
 62
     0
100
AcDbMText
 10
89.42159572693208
 20
66.27591383617725
 30
0.0
 40
3.5
 41
0.0
 71
     2
 72
     1
  1
\A1;26 [1.02]
  7
SLDTEXTSTYLE0
 73
     1
 44
1.0
  0
POINT
  5
228
330
21F
100
AcDbEntity
  8
Defpoints
 62
     0
100
AcDbPoint
 10
76.37504186422882
 20
28.55788676313042
 30
0.0
  0
POINT
  5
229
330
21F
100
AcDbEntity
  8
Defpoints
 62
     0
100
AcDbPoint
 10
102.3750000000001
 20
36.22143424691529
 30
0.0
  0
POINT
  5
22A
330
21F
100
AcDbEntity
  8
Defpoints
 62
     0
100
AcDbPoint
 10
102.3750000000001
 20
61.90091383617725
 30
0.0
  0
ENDBLK
  5
221
330
21F
100
AcDbEntity
  8
0
100
AcDbBlockEnd
  0
BLOCK
  5
22C
330
22B
100
AcDbEntity
  8
0
100
AcDbBlockBegin
  2
*D11
 70
     1
 10
0.0
 20
0.0
 30
0.0
  3
*D11
  1
*D12
  0
LINE
  5
22E
330
22B
100
AcDbEntity
  8
치수문자_일반주서
 62
     0
370
    -2
100
AcDbLine
 10
19.81250000000005
 20
36.22143424691529
 30
0.0
 11
4.374999999999983
 21
36.22143424691524
 31
0.0
  0
LINE
  5
22F
330
22B
100
AcDbEntity
  8
치수문자_일반주서
 62
     0
370
    -2
100
AcDbLine
 10
19.81250000000005
 20
22.22143424691529
 30
0.0
 11
4.375000000000032
 21
22.22143424691524
 31
0.0
  0
LINE
  5
230
330
22B
100
AcDbEntity
  8
치수문자_일반주서
 62
     0
370
    -2
100
AcDbLine
 10
4.374999999999983
 20
36.22143424691524
 30
0.0
 11
4.375000000000032
 21
22.22143424691524
 31
0.0
  0
LINE
  5
231
330
22B
100
AcDbEntity
  8
치수문자_일반주서
 62
     0
370
    -2
100
AcDbLine
 10
4.374999999999972
 20
39.52343424691524
 30
0.0
 11
4.37499999999996
 21
42.82543424691524
 31
0.0
  0
LINE
  5
232
330
22B
100
AcDbEntity
  8
치수문자_일반주서
 62
     0
370
    -2
100
AcDbLine
 10
4.375000000000044
 20
18.91943424691524
 30
0.0
 11
4.375000000000055
 21
15.61743424691524
 31
0.0
  0
SOLID
  5
233
330
22B
100
AcDbEntity
  8
치수문자_일반주서
 62
     0
100
AcDbTrace
 10
3.824666666666638
 20
39.52343424691524
 30
0.0
 11
4.925333333333305
 21
39.52343424691524
 31
0.0
 12
4.374999999999983
 22
36.22143424691524
 32
0.0
 13
4.374999999999983
 23
36.22143424691524
 33
0.0
  0
SOLID
  5
234
330
22B
100
AcDbEntity
  8
치수문자_일반주서
 62
     0
100
AcDbTrace
 10
4.925333333333377
 20
18.91943424691524
 30
0.0
 11
3.82466666666671
 21
18.91943424691523
 31
0.0
 12
4.375000000000032
 22
22.22143424691524
 32
0.0
 13
4.375000000000032
 23
22.22143424691524
 33
0.0
  0
MTEXT
  5
235
330
22B
100
AcDbEntity
  8
치수문자_일반주서
 62
     0
100
AcDbMText
 10
0.0000000000000071
 20
29.22143424691528
 30
0.0
 40
3.5
 41
0.0
 71
     2
 72
     1
  1
\A1;%%c14
  7
SLDTEXTSTYLE0
 11
-3.489272363107635E-15
 21
1.0
 31
0.0
 73
     1
 44
1.0
  0
POINT
  5
236
330
22B
100
AcDbEntity
  8
Defpoints
 62
     0
100
AcDbPoint
 10
19.87500000000005
 20
36.22143424691529
 30
0.0
  0
POINT
  5
237
330
22B
100
AcDbEntity
  8
Defpoints
 62
     0
100
AcDbPoint
 10
19.87500000000005
 20
22.22143424691529
 30
0.0
  0
POINT
  5
238
330
22B
100
AcDbEntity
  8
Defpoints
 62
     0
100
AcDbPoint
 10
4.375000000000043
 20
22.22143424691524
 30
0.0
  0
ENDBLK
  5
22D
330
22B
100
AcDbEntity
  8
0
100
AcDbBlockEnd
  0
BLOCK
  5
287
330
286
100
AcDbEntity
  8
0
100
AcDbBlockBegin
  2
*D12
 70
     1
 10
0.0
 20
0.0
 30
0.0
  3
*D12
  1
*D13
  0
LINE
  5
289
330
286
100
AcDbEntity
  8
치수문자_일반주서
 62
     0
370
    -2
100
AcDbLine
 10
-74.28457145003755
 20
108.370305434254
 30
0.0
 11
-74.28457145003755
 21
143.4702896023327
 31
0.0
  0
LINE
  5
28A
330
286
100
AcDbEntity
  8
치수문자_일반주서
 62
     0
370
    -2
100
AcDbLine
 10
8.715428549962468
 20
108.932805434254
 30
0.0
 11
8.715428549962468
 21
143.4702896023327
 31
0.0
  0
LINE
  5
28B
330
286
100
AcDbEntity
  8
치수문자_일반주서
 62
     0
370
    -2
100
AcDbLine
 10
-70.98257145003754
 20
143.4702896023327
 30
0.0
 11
5.413428549962468
 21
143.4702896023327
 31
0.0
  0
SOLID
  5
28C
330
286
100
AcDbEntity
  8
치수문자_일반주서
 62
     0
100
AcDbTrace
 10
-70.98257145003754
 20
144.0206229356661
 30
0.0
 11
-70.98257145003754
 21
142.9199562689994
 31
0.0
 12
-74.28457145003755
 22
143.4702896023327
 32
0.0
 13
-74.28457145003755
 23
143.4702896023327
 33
0.0
  0
SOLID
  5
28D
330
286
100
AcDbEntity
  8
치수문자_일반주서
 62
     0
100
AcDbTrace
 10
5.413428549962468
 20
142.9199562689994
 30
0.0
 11
5.413428549962468
 21
144.0206229356661
 31
0.0
 12
8.715428549962468
 22
143.4702896023327
 32
0.0
 13
8.715428549962468
 23
143.4702896023327
 33
0.0
  0
MTEXT
  5
28E
330
286
100
AcDbEntity
  8
치수문자_일반주서
 62
     0
100
AcDbMText
 10
-32.78457145003754
 20
147.8452896023327
 30
0.0
 40
3.5
 41
0.0
 71
     2
 72
     1
  1
\A1;83 [3.27]
  7
SLDTEXTSTYLE0
 73
     1
 44
1.0
  0
POINT
  5
28F
330
286
100
AcDbEntity
  8
Defpoints
 62
     0
100
AcDbPoint
 10
-74.28457145003755
 20
108.307805434254
 30
0.0
  0
POINT
  5
290
330
286
100
AcDbEntity
  8
Defpoints
 62
     0
100
AcDbPoint
 10
8.715428549962468
 20
108.870305434254
 30
0.0
  0
POINT
  5
291
330
286
100
AcDbEntity
  8
Defpoints
 62
     0
100
AcDbPoint
 10
8.715428549962468
 20
143.4702896023327
 30
0.0
  0
ENDBLK
  5
288
330
286
100
AcDbEntity
  8
0
100
AcDbBlockEnd
  0
BLOCK
  5
293
330
292
100
AcDbEntity
  8
0
100
AcDbBlockBegin
  2
*D13
 70
     1
 10
0.0
 20
0.0
 30
0.0
  3
*D13
  1
*D14
  0
LINE
  5
295
330
292
100
AcDbEntity
  8
치수문자_일반주서
 62
     0
370
    -2
100
AcDbLine
 10
-17.28452958580877
 20
101.2067579504691
 30
0.0
 11
-17.28452958580877
 21
134.4872850235159
 31
0.0
  0
LINE
  5
296
330
292
100
AcDbEntity
  8
치수문자_일반주서
 62
     0
370
    -2
100
AcDbLine
 10
8.715428549962468
 20
108.870305434254
 30
0.0
 11
8.715428549962468
 21
134.4872850235159
 31
0.0
  0
LINE
  5
297
330
292
100
AcDbEntity
  8
치수문자_일반주서
 62
     0
370
    -2
100
AcDbLine
 10
-13.98252958580877
 20
134.4872850235159
 30
0.0
 11
5.413428549962468
 21
134.4872850235159
 31
0.0
  0
SOLID
  5
298
330
292
100
AcDbEntity
  8
치수문자_일반주서
 62
     0
100
AcDbTrace
 10
-13.98252958580877
 20
135.0376183568493
 30
0.0
 11
-13.98252958580877
 21
133.9369516901826
 31
0.0
 12
-17.28452958580877
 22
134.4872850235159
 32
0.0
 13
-17.28452958580877
 23
134.4872850235159
 33
0.0
  0
SOLID
  5
299
330
292
100
AcDbEntity
  8
치수문자_일반주서
 62
     0
100
AcDbTrace
 10
5.413428549962468
 20
133.9369516901826
 30
0.0
 11
5.413428549962468
 21
135.0376183568493
 31
0.0
 12
8.715428549962468
 22
134.4872850235159
 32
0.0
 13
8.715428549962468
 23
134.4872850235159
 33
0.0
  0
MTEXT
  5
29A
330
292
100
AcDbEntity
  8
치수문자_일반주서
 62
     0
100
AcDbMText
 10
-4.237975723105507
 20
138.8622850235159
 30
0.0
 40
3.5
 41
0.0
 71
     2
 72
     1
  1
\A1;26 [1.02]
  7
SLDTEXTSTYLE0
 73
     1
 44
1.0
  0
POINT
  5
29B
330
292
100
AcDbEntity
  8
Defpoints
 62
     0
100
AcDbPoint
 10
-17.28452958580877
 20
101.1442579504691
 30
0.0
  0
POINT
  5
29C
330
292
100
AcDbEntity
  8
Defpoints
 62
     0
100
AcDbPoint
 10
8.715428549962468
 20
108.807805434254
 30
0.0
  0
POINT
  5
29D
330
292
100
AcDbEntity
  8
Defpoints
 62
     0
100
AcDbPoint
 10
8.715428549962468
 20
134.4872850235159
 30
0.0
  0
ENDBLK
  5
294
330
292
100
AcDbEntity
  8
0
100
AcDbBlockEnd
  0
BLOCK
  5
29F
330
29E
100
AcDbEntity
  8
0
100
AcDbBlockBegin
  2
*D14
 70
     1
 10
0.0
 20
0.0
 30
0.0
  3
*D14
  1
*D15
  0
LINE
  5
2A1
330
29E
100
AcDbEntity
  8
치수문자_일반주서
 62
     0
370
    -2
100
AcDbLine
 10
-73.84707145003753
 20
108.807805434254
 30
0.0
 11
-89.2845714500376
 21
108.8078054342539
 31
0.0
  0
LINE
  5
2A2
330
29E
100
AcDbEntity
  8
치수문자_일반주서
 62
     0
370
    -2
100
AcDbLine
 10
-73.84707145003753
 20
94.80780543425399
 30
0.0
 11
-89.28457145003756
 21
94.80780543425394
 31
0.0
  0
LINE
  5
2A3
330
29E
100
AcDbEntity
  8
치수문자_일반주서
 62
     0
370
    -2
100
AcDbLine
 10
-89.2845714500376
 20
108.8078054342539
 30
0.0
 11
-89.28457145003756
 21
94.80780543425394
 31
0.0
  0
LINE
  5
2A4
330
29E
100
AcDbEntity
  8
치수문자_일반주서
 62
     0
370
    -2
100
AcDbLine
 10
-89.28457145003762
 20
112.1098054342539
 30
0.0
 11
-89.28457145003763
 21
115.4118054342539
 31
0.0
  0
LINE
  5
2A5
330
29E
100
AcDbEntity
  8
치수문자_일반주서
 62
     0
370
    -2
100
AcDbLine
 10
-89.28457145003755
 20
91.50580543425393
 30
0.0
 11
-89.28457145003753
 21
88.20380543425392
 31
0.0
  0
SOLID
  5
2A6
330
29E
100
AcDbEntity
  8
치수문자_일반주서
 62
     0
100
AcDbTrace
 10
-89.83490478337094
 20
112.1098054342539
 30
0.0
 11
-88.73423811670429
 21
112.1098054342539
 31
0.0
 12
-89.2845714500376
 22
108.8078054342539
 32
0.0
 13
-89.2845714500376
 23
108.8078054342539
 33
0.0
  0
SOLID
  5
2A7
330
29E
100
AcDbEntity
  8
치수문자_일반주서
 62
     0
100
AcDbTrace
 10
-88.73423811670422
 20
91.50580543425393
 30
0.0
 11
-89.83490478337087
 21
91.50580543425393
 31
0.0
 12
-89.28457145003756
 22
94.80780543425394
 32
0.0
 13
-89.28457145003756
 23
94.80780543425394
 33
0.0
  0
MTEXT
  5
2A8
330
29E
100
AcDbEntity
  8
치수문자_일반주서
 62
     0
100
AcDbMText
 10
-93.65957145003759
 20
101.807805434254
 30
0.0
 40
3.5
 41
0.0
 71
     2
 72
     1
  1
\A1;%%c14
  7
SLDTEXTSTYLE0
 11
-3.045183153257572E-15
 21
1.0
 31
0.0
 73
     1
 44
1.0
  0
POINT
  5
2A9
330
29E
100
AcDbEntity
  8
Defpoints
 62
     0
100
AcDbPoint
 10
-73.78457145003753
 20
108.807805434254
 30
0.0
  0
POINT
  5
2AA
330
29E
100
AcDbEntity
  8
Defpoints
 62
     0
100
AcDbPoint
 10
-73.78457145003753
 20
94.80780543425399
 30
0.0
  0
POINT
  5
2AB
330
29E
100
AcDbEntity
  8
Defpoints
 62
     0
100
AcDbPoint
 10
-89.28457145003756
 20
94.80780543425394
 30
0.0
  0
ENDBLK
  5
2A0
330
29E
100
AcDbEntity
  8
0
100
AcDbBlockEnd
  0
BLOCK
  5
2AD
330
2AC
100
AcDbEntity
  8
0
100
AcDbBlockBegin
  2
*D15
 70
     1
 10
0.0
 20
0.0
 30
0.0
  3
*D15
  1
*D16
  0
LINE
  5
2AF
330
2AC
100
AcDbEntity
  8
치수문자_일반주서
 62
     0
370
    -2
100
AcDbLine
 10
8.777928549962482
 20
108.807805434254
 30
0.0
 11
23.71542854996247
 21
108.807805434254
 31
0.0
  0
LINE
  5
2B0
330
2AC
100
AcDbEntity
  8
치수문자_일반주서
 62
     0
370
    -2
100
AcDbLine
 10
8.777928549962468
 20
94.80780543425399
 30
0.0
 11
23.71542854996252
 21
94.80780543425405
 31
0.0
  0
LINE
  5
2B1
330
2AC
100
AcDbEntity
  8
치수문자_일반주서
 62
     0
370
    -2
100
AcDbLine
 10
23.71542854996247
 20
108.807805434254
 30
0.0
 11
23.71542854996252
 21
94.80780543425405
 31
0.0
  0
LINE
  5
2B2
330
2AC
100
AcDbEntity
  8
치수문자_일반주서
 62
     0
370
    -2
100
AcDbLine
 10
23.71542854996246
 20
112.1098054342541
 30
0.0
 11
23.71542854996245
 21
115.4118054342541
 31
0.0
  0
LINE
  5
2B3
330
2AC
100
AcDbEntity
  8
치수문자_일반주서
 62
     0
370
    -2
100
AcDbLine
 10
23.71542854996253
 20
91.50580543425404
 30
0.0
 11
23.71542854996254
 21
88.20380543425404
 31
0.0
  0
SOLID
  5
2B4
330
2AC
100
AcDbEntity
  8
치수문자_일반주서
 62
     0
100
AcDbTrace
 10
23.16509521662913
 20
112.1098054342541
 30
0.0
 11
24.2657618832958
 21
112.1098054342541
 31
0.0
 12
23.71542854996247
 22
108.807805434254
 32
0.0
 13
23.71542854996247
 23
108.807805434254
 33
0.0
  0
SOLID
  5
2B5
330
2AC
100
AcDbEntity
  8
치수문자_일반주서
 62
     0
100
AcDbTrace
 10
24.26576188329587
 20
91.50580543425404
 30
0.0
 11
23.1650952166292
 21
91.50580543425404
 31
0.0
 12
23.71542854996252
 22
94.80780543425405
 32
0.0
 13
23.71542854996252
 23
94.80780543425405
 33
0.0
  0
MTEXT
  5
2B6
330
2AC
100
AcDbEntity
  8
치수문자_일반주서
 62
     0
100
AcDbMText
 10
19.3404285499625
 20
101.873509815967
 30
0.0
 40
3.5
 41
0.0
 71
     2
 72
     1
  1
\A1;%%c14
  7
SLDTEXTSTYLE0
 11
-3.552713678800501E-15
 21
1.0
 31
0.0
 73
     1
 44
1.0
  0
POINT
  5
2B7
330
2AC
100
AcDbEntity
  8
Defpoints
 62
     0
100
AcDbPoint
 10
8.715428549962482
 20
108.807805434254
 30
0.0
  0
POINT
  5
2B8
330
2AC
100
AcDbEntity
  8
Defpoints
 62
     0
100
AcDbPoint
 10
8.715428549962468
 20
94.80780543425399
 30
0.0
  0
POINT
  5
2B9
330
2AC
100
AcDbEntity
  8
Defpoints
 62
     0
100
AcDbPoint
 10
23.71542854996252
 20
94.80780543425405
 30
0.0
  0
ENDBLK
  5
2AE
330
2AC
100
AcDbEntity
  8
0
100
AcDbBlockEnd
  0
BLOCK
  5
2BB
330
2BA
100
AcDbEntity
  8
0
100
AcDbBlockBegin
  2
*D16
 70
     1
 10
0.0
 20
0.0
 30
0.0
  3
*D16
  1
*D17
  0
LINE
  5
2BD
330
2BA
100
AcDbEntity
  8
치수문자_일반주서
 62
     0
370
    -2
100
AcDbLine
 10
10.20620373163192
 20
92.06866694137521
 30
0.0
 11
25.95985529690921
 21
66.43631043103466
 31
0.0
  0
MTEXT
  5
2BE
330
2BA
100
AcDbEntity
  8
치수문자_일반주서
 62
     0
100
AcDbMText
 10
22.01106695139008
 20
77.87452934187442
 30
0.0
 40
3.5
 41
0.0
 71
     5
 72
     1
  1
\A1;R.5 [R0.02]
  7
SLDTEXTSTYLE0
 11
0.5236126201129557
 21
-0.8519564684057781
 31
0.0
 73
     1
 44
1.0
  0
SOLID
  5
2BF
330
2BA
100
AcDbEntity
  8
치수문자_일반주서
 62
     0
100
AcDbTrace
 10
10.67506377474457
 20
92.35682841997738
 30
0.0
 11
9.737343688519271
 21
91.78050546277305
 31
0.0
 12
8.477234860018939
 22
94.88182720005109
 32
0.0
 13
8.477234860018939
 23
94.88182720005109
 33
0.0
  0
LINE
  5
2C0
330
2BA
100
AcDbEntity
  8
치수문자_일반주서
 62
     0
100
AcDbLine
 10
8.125428549962454
 20
95.30780543425399
 30
0.0
 11
8.305428549962453
 21
95.30780543425399
 31
0.0
  0
LINE
  5
2C1
330
2BA
100
AcDbEntity
  8
치수문자_일반주서
 62
     0
100
AcDbLine
 10
8.215428549962454
 20
95.21780543425399
 30
0.0
 11
8.215428549962454
 21
95.397805434254
 31
0.0
  0
POINT
  5
2C2
330
2BA
100
AcDbEntity
  8
Defpoints
 62
     0
100
AcDbPoint
 10
8.477234860018939
 20
94.88182720005109
 30
0.0
  0
POINT
  5
2C3
330
2BA
100
AcDbEntity
  8
Defpoints
 62
     0
100
AcDbPoint
 10
8.215428549962454
 20
95.30780543425399
 30
0.0
  0
ENDBLK
  5
2BC
330
2BA
100
AcDbEntity
  8
0
100
AcDbBlockEnd
  0
BLOCK
  5
2F7
330
2F6
100
AcDbEntity
  8
0
100
AcDbBlockBegin
  2
*D17
 70
     1
 10
0.0
 20
0.0
 30
0.0
  3
*D17
  1
*D18
  0
LINE
  5
2F9
330
2F6
100
AcDbEntity
  8
치수문자_일반주서
 62
     0
370
    -2
100
AcDbLine
 10
195.8315317051554
 20
2.779199928723915
 30
0.0
 11
208.022852423299
 21
2.779199928723962
 31
0.0
  0
LINE
  5
2FA
330
2F6
100
AcDbEntity
  8
치수문자_일반주서
 62
     0
370
    -2
100
AcDbLine
 10
195.8315317051554
 20
-2.777050071276089
 30
0.0
 11
208.0228524232991
 21
-2.777050071276044
 31
0.0
  0
LINE
  5
2FB
330
2F6
100
AcDbEntity
  8
치수문자_일반주서
 62
     0
370
    -2
100
AcDbLine
 10
208.022852423299
 20
2.779199928723962
 30
0.0
 11
208.0228524232989
 21
36.07069992872396
 31
0.0
  0
LINE
  5
2FC
330
2F6
100
AcDbEntity
  8
치수문자_일반주서
 62
     0
370
    -2
100
AcDbLine
 10
208.022852423299
 20
2.779199928723962
 30
0.0
 11
208.0228524232991
 21
-2.777050071276044
 31
0.0
  0
LINE
  5
2FD
330
2F6
100
AcDbEntity
  8
치수문자_일반주서
 62
     0
370
    -2
100
AcDbLine
 10
208.022852423299
 20
6.081199928723962
 30
0.0
 11
208.022852423299
 21
9.383199928723961
 31
0.0
  0
LINE
  5
2FE
330
2F6
100
AcDbEntity
  8
치수문자_일반주서
 62
     0
370
    -2
100
AcDbLine
 10
208.0228524232991
 20
-6.079050071276043
 30
0.0
 11
208.0228524232991
 21
-9.381050071276043
 31
0.0
  0
SOLID
  5
2FF
330
2F6
100
AcDbEntity
  8
치수문자_일반주서
 62
     0
100
AcDbTrace
 10
207.4725190899657
 20
6.081199928723959
 30
0.0
 11
208.5731857566323
 21
6.081199928723964
 31
0.0
 12
208.022852423299
 22
2.779199928723962
 32
0.0
 13
208.022852423299
 23
2.779199928723962
 33
0.0
  0
SOLID
  5
300
330
2F6
100
AcDbEntity
  8
치수문자_일반주서
 62
     0
100
AcDbTrace
 10
208.5731857566324
 20
-6.079050071276041
 30
0.0
 11
207.4725190899658
 21
-6.079050071276046
 31
0.0
 12
208.0228524232991
 22
-2.777050071276044
 32
0.0
 13
208.0228524232991
 23
-2.777050071276044
 33
0.0
  0
MTEXT
  5
301
330
2F6
100
AcDbEntity
  8
치수문자_일반주서
 62
     0
100
AcDbMText
 10
203.6478524232989
 20
22.72694992872394
 30
0.0
 40
3.5
 41
0.0
 71
     2
 72
     1
  1
\A1;%%c5.56 [0.22]
  7
SLDTEXTSTYLE0
 11
-5.115268288936601E-15
 21
1.0
 31
0.0
 73
     1
 44
1.0
  0
POINT
  5
302
330
2F6
100
AcDbEntity
  8
Defpoints
 62
     0
100
AcDbPoint
 10
195.7690317051554
 20
2.779199928723914
 30
0.0
  0
POINT
  5
303
330
2F6
100
AcDbEntity
  8
Defpoints
 62
     0
100
AcDbPoint
 10
195.7690317051554
 20
-2.777050071276089
 30
0.0
  0
POINT
  5
304
330
2F6
100
AcDbEntity
  8
Defpoints
 62
     0
100
AcDbPoint
 10
208.022852423299
 20
-2.777050071276044
 30
0.0
  0
ENDBLK
  5
2F8
330
2F6
100
AcDbEntity
  8
0
100
AcDbBlockEnd
  0
BLOCK
  5
306
330
305
100
AcDbEntity
  8
0
100
AcDbBlockBegin
  2
*D18
 70
     1
 10
0.0
 20
0.0
 30
0.0
  3
*D18
  1
*D19
  0
LINE
  5
308
330
305
100
AcDbEntity
  8
치수문자_일반주서
 62
     0
370
    -2
100
AcDbLine
 10
195.7690317051554
 20
2.831483628313519
 30
0.0
 11
195.7690317051554
 21
26.58737680196497
 31
0.0
  0
LINE
  5
309
330
305
100
AcDbEntity
  8
치수문자_일반주서
 62
     0
370
    -2
100
AcDbLine
 10
181.4815317051554
 20
2.83131788029834
 30
0.0
 11
181.4815317051554
 21
26.58737680196497
 31
0.0
  0
LINE
  5
30A
330
305
100
AcDbEntity
  8
치수문자_일반주서
 62
     0
370
    -2
100
AcDbLine
 10
181.4815317051554
 20
26.58737680196497
 30
0.0
 11
149.0650317051554
 21
26.58737680196497
 31
0.0
  0
LINE
  5
30B
330
305
100
AcDbEntity
  8
치수문자_일반주서
 62
     0
370
    -2
100
AcDbLine
 10
195.7690317051554
 20
26.58737680196497
 30
0.0
 11
181.4815317051554
 21
26.58737680196497
 31
0.0
  0
LINE
  5
30C
330
305
100
AcDbEntity
  8
치수문자_일반주서
 62
     0
370
    -2
100
AcDbLine
 10
199.0710317051554
 20
26.58737680196497
 30
0.0
 11
202.3730317051554
 21
26.58737680196497
 31
0.0
  0
LINE
  5
30D
330
305
100
AcDbEntity
  8
치수문자_일반주서
 62
     0
370
    -2
100
AcDbLine
 10
178.1795317051555
 20
26.58737680196497
 30
0.0
 11
174.8775317051555
 21
26.58737680196497
 31
0.0
  0
SOLID
  5
30E
330
305
100
AcDbEntity
  8
치수문자_일반주서
 62
     0
100
AcDbTrace
 10
199.0710317051554
 20
27.13771013529831
 30
0.0
 11
199.0710317051554
 21
26.03704346863164
 31
0.0
 12
195.7690317051554
 22
26.58737680196497
 32
0.0
 13
195.7690317051554
 23
26.58737680196497
 33
0.0
  0
SOLID
  5
30F
330
305
100
AcDbEntity
  8
치수문자_일반주서
 62
     0
100
AcDbTrace
 10
178.1795317051555
 20
26.03704346863164
 30
0.0
 11
178.1795317051555
 21
27.13771013529831
 31
0.0
 12
181.4815317051554
 22
26.58737680196497
 32
0.0
 13
181.4815317051554
 23
26.58737680196497
 33
0.0
  0
MTEXT
  5
310
330
305
100
AcDbEntity
  8
치수문자_일반주서
 62
     0
100
AcDbMText
 10
161.9712817051554
 20
30.96237680196497
 30
0.0
 40
3.5
 41
0.0
 71
     2
 72
     1
  1
\A1;14.29 [0.56]
  7
SLDTEXTSTYLE0
 73
     1
 44
1.0
  0
POINT
  5
311
330
305
100
AcDbEntity
  8
Defpoints
 62
     0
100
AcDbPoint
 10
195.7690317051554
 20
2.768983628313519
 30
0.0
  0
POINT
  5
312
330
305
100
AcDbEntity
  8
Defpoints
 62
     0
100
AcDbPoint
 10
181.4815317051554
 20
2.76881788029834
 30
0.0
  0
POINT
  5
313
330
305
100
AcDbEntity
  8
Defpoints
 62
     0
100
AcDbPoint
 10
181.4815317051554
 20
26.58737680196497
 30
0.0
  0
ENDBLK
  5
307
330
305
100
AcDbEntity
  8
0
100
AcDbBlockEnd
  0
BLOCK
  5
315
330
314
100
AcDbEntity
  8
0
100
AcDbBlockBegin
  2
*D19
 70
     1
 10
0.0
 20
0.0
 30
0.0
  3
*D19
  1
*D20
  0
LINE
  5
317
330
314
100
AcDbEntity
  8
치수문자_일반주서
 62
     0
370
    -2
100
AcDbLine
 10
195.7690317051554
 20
2.831483628313519
 30
0.0
 11
195.7690317051554
 21
50.35940257128793
 31
0.0
  0
LINE
  5
318
330
314
100
AcDbEntity
  8
치수문자_일반주서
 62
     0
370
    -2
100
AcDbLine
 10
110.0440317051554
 20
3.873574928723895
 30
0.0
 11
110.0440317051554
 21
50.35940257128793
 31
0.0
  0
LINE
  5
319
330
314
100
AcDbEntity
  8
치수문자_일반주서
 62
     0
370
    -2
100
AcDbLine
 10
192.4670317051554
 20
50.35940257128793
 30
0.0
 11
113.3460317051554
 21
50.35940257128793
 31
0.0
  0
SOLID
  5
31A
330
314
100
AcDbEntity
  8
치수문자_일반주서
 62
     0
100
AcDbTrace
 10
192.4670317051554
 20
49.8090692379546
 30
0.0
 11
192.4670317051554
 21
50.90973590462126
 31
0.0
 12
195.7690317051554
 22
50.35940257128793
 32
0.0
 13
195.7690317051554
 23
50.35940257128793
 33
0.0
  0
SOLID
  5
31B
330
314
100
AcDbEntity
  8
치수문자_일반주서
 62
     0
100
AcDbTrace
 10
113.3460317051554
 20
50.90973590462126
 30
0.0
 11
113.3460317051554
 21
49.8090692379546
 31
0.0
 12
110.0440317051554
 22
50.35940257128793
 32
0.0
 13
110.0440317051554
 23
50.35940257128793
 33
0.0
  0
MTEXT
  5
31C
330
314
100
AcDbEntity
  8
치수문자_일반주서
 62
     0
100
AcDbMText
 10
150.7192624759738
 20
54.73440257128793
 30
0.0
 40
3.5
 41
0.0
 71
     2
 72
     1
  1
\A1;85.73 [3.38]
  7
SLDTEXTSTYLE0
 73
     1
 44
1.0
  0
POINT
  5
31D
330
314
100
AcDbEntity
  8
Defpoints
 62
     0
100
AcDbPoint
 10
195.7690317051554
 20
2.768983628313519
 30
0.0
  0
POINT
  5
31E
330
314
100
AcDbEntity
  8
Defpoints
 62
     0
100
AcDbPoint
 10
110.0440317051554
 20
3.811074928723895
 30
0.0
  0
POINT
  5
31F
330
314
100
AcDbEntity
  8
Defpoints
 62
     0
100
AcDbPoint
 10
110.0440317051554
 20
50.35940257128793
 30
0.0
  0
ENDBLK
  5
316
330
314
100
AcDbEntity
  8
0
100
AcDbBlockEnd
  0
ENDSEC
  0
SECTION
  2
ENTITIES
  0
LINE
  5
96
330
1F
100
AcDbEntity
  8
0
  6
Continuous
 62
     1
370
    15
100
AcDbLine
 10
34.30486582419697
 20
0.8049391503131775
 30
0.0
 11
34.25161991674951
 21
0.8334091369036322
 31
0.0
  0
LINE
  5
97
330
1F
100
AcDbEntity
  8
0
  6
Continuous
 62
     1
370
    15
100
AcDbLine
 10
35.716560153783
 20
-2.778125000000003
 30
0.0
 11
37.41070993213037
 21
-2.778125000000003
 31
0.0
  0
LINE
  5
98
330
1F
100
AcDbEntity
  8
0
  6
Continuous
 62
     1
370
    15
100
AcDbLine
 10
29.85295999877979
 20
2.778125
 30
0.0
 11
28.57500000000001
 21
2.778125
 31
0.0
  0
LINE
  5
99
330
1F
100
AcDbEntity
  8
0
  6
Continuous
 62
     1
370
    15
100
AcDbLine
 10
37.41070993213037
 20
2.778125
 30
0.0
 11
35.71656015378303
 21
2.778125
 31
0.0
  0
LINE
  5
9A
330
1F
100
AcDbEntity
  8
0
  6
Continuous
 62
     1
370
    15
100
AcDbLine
 10
28.57500000000001
 20
-2.778125000000003
 30
0.0
 11
29.85295999877976
 21
-2.778125000000003
 31
0.0
  0
LINE
  5
9B
330
1F
100
AcDbEntity
  8
외형선
  6
Continuous
370
    15
100
AcDbLine
 10
20.1692116787305
 20
-4.76250000000001
 30
0.0
 11
27.57500000000001
 21
-2.778125000000002
 31
0.0
  0
LINE
  5
9C
330
1F
100
AcDbEntity
  8
외형선
  6
Continuous
370
    15
100
AcDbLine
 10
27.57500000000001
 20
2.778124999999999
 30
0.0
 11
20.1692116787305
 21
4.762500000000006
 31
0.0
  0
LINE
  5
9D
330
1F
100
AcDbEntity
  8
외형선
  6
Continuous
370
    15
100
AcDbLine
 10
-20.16921167873052
 20
-4.762500000000006
 30
0.0
 11
20.1692116787305
 21
-4.762500000000006
 31
0.0
  0
LINE
  5
9E
330
1F
100
AcDbEntity
  8
외형선
  6
Continuous
370
    15
100
AcDbLine
 10
20.1692116787305
 20
4.762500000000002
 30
0.0
 11
4.838700000000109
 21
4.762500000000002
 31
0.0
  0
LINE
  5
A1
330
1F
100
AcDbEntity
  8
외형선
  6
Continuous
370
    15
100
AcDbLine
 10
28.15768323129906
 20
-2.778125000000002
 30
0.0
 11
28.57500000000001
 21
-2.778125000000002
 31
0.0
  0
LINE
  5
A2
330
1F
100
AcDbEntity
  8
외형선
  6
Continuous
370
    15
100
AcDbLine
 10
27.57500000000001
 20
-2.778125000000002
 30
0.0
 11
28.0748206658148
 21
-2.778125000000002
 31
0.0
  0
LINE
  5
A3
330
1F
100
AcDbEntity
  8
외형선
  6
Continuous
370
    15
100
AcDbLine
 10
28.0748206658148
 20
2.778124999999999
 30
0.0
 11
27.57500000000001
 21
2.778124999999999
 31
0.0
  0
LINE
  5
A4
330
1F
100
AcDbEntity
  8
외형선
  6
Continuous
370
    15
100
AcDbLine
 10
28.57500000000001
 20
2.778124999999999
 30
0.0
 11
28.15768323129906
 21
2.778124999999999
 31
0.0
  0
SPLINE
  5
A5
330
1F
100
AcDbEntity
  8
0
  6
Continuous
 62
     1
370
    15
100
AcDbSpline
210
0.0
220
0.0
230
1.0
 70
     8
 71
     3
 72
    17
 73
    13
 74
     0
 42
0.000000001
 43
0.00000001
 40
0.0
 40
0.0
 40
0.0
 40
0.0
 40
0.1131739394212013
 40
0.2263471071434178
 40
0.3395198144395223
 40
0.4526923727406145
 40
0.565865093529006
 40
0.6790382882311617
 40
0.7857321721074813
 40
0.8924398935929337
 40
0.9991687741416231
 40
1.0
 40
1.0
 40
1.0
 40
1.0
 10
28.57499999999998
 20
0.7290795520264871
 30
0.0
 10
29.01945886047196
 20
0.4760276103357062
 30
0.0
 10
29.9083735507849
 20
-0.0300745475609294
 30
0.0
 10
31.24174017523285
 20
-0.8018359907598351
 30
0.0
 10
32.57509881310463
 20
-1.508440390988897
 30
0.0
 10
33.90846152237995
 20
-2.100906529643847
 30
0.0
 10
35.2418032947873
 20
-2.533140885086778
 30
0.0
 10
36.54978850541752
 20
-2.766219985641323
 30
0.0
 10
37.83208217561974
 20
-2.802066399211635
 30
0.0
 10
39.08919433459702
 20
-2.629467741526072
 30
0.0
 10
39.93059293713988
 20
-2.438385094340822
 30
0.0
 10
40.35300004299879
 20
-2.274097777114783
 30
0.0
 10
40.35626441043836
 20
-2.272828162656009
 30
0.0
  0
SPLINE
  5
A6
330
1F
100
AcDbEntity
  8
외형선
  6
Continuous
370
    15
100
AcDbSpline
210
0.0
220
0.0
230
1.0
 70
    24
 71
     3
 72
    11
 73
     7
 74
     0
 42
0.000000001
 43
0.00000001
 40
0.0
 40
0.0
 40
0.0
 40
0.0
 40
0.2559587439586211
 40
0.5090541892665583
 40
0.762149634574507
 40
1.0
 40
1.0
 40
1.0
 40
1.0
 10
28.57500000000001
 20
2.767742951574446
 30
0.0
 10
28.57499999999997
 20
2.585118132651146
 30
0.0
 10
28.57499999999994
 20
2.221911438872475
 30
0.0
 10
28.57500000000004
 20
1.651863061516472
 30
0.0
 10
28.57499999999994
 20
1.141353243594353
 30
0.0
 10
28.575
 20
0.9035258872898873
 30
0.0
 10
28.57500000000004
 20
0.7883047725182017
 30
0.0
  0
SPLINE
  5
A7
330
1F
100
AcDbEntity
  8
0
  6
Continuous
 62
     1
370
    15
100
AcDbSpline
210
0.0
220
0.0
230
1.0
 70
     8
 71
     3
 72
    50
 73
    46
 74
     0
 42
0.000000001
 43
0.00000001
 40
0.0
 40
0.0
 40
0.0
 40
0.0
 40
0.0625000000000007
 40
0.0625000000000007
 40
0.1250000000000014
 40
0.1250000000000014
 40
0.1875000000000021
 40
0.1875000000000021
 40
0.2500000000000028
 40
0.2500000000000028
 40
0.3125000000000034
 40
0.3125000000000034
 40
0.3750000000000042
 40
0.3750000000000042
 40
0.4062500000000045
 40
0.4062500000000045
 40
0.4375000000000049
 40
0.4375000000000049
 40
0.4687500000000052
 40
0.4687500000000052
 40
0.5000000000000056
 40
0.5000000000000056
 40
0.5625000000000062
 40
0.5625000000000062
 40
0.5937500000000054
 40
0.5937500000000054
 40
0.6250000000000047
 40
0.6250000000000047
 40
0.656250000000004
 40
0.656250000000004
 40
0.6875000000000032
 40
0.6875000000000032
 40
0.7500000000000017
 40
0.7500000000000017
 40
0.781250000000002
 40
0.781250000000002
 40
0.8125000000000023
 40
0.8125000000000023
 40
0.8437500000000027
 40
0.8437500000000027
 40
0.875000000000003
 40
0.875000000000003
 40
0.9375000000000016
 40
0.9375000000000016
 40
1.0
 40
1.0
 40
1.0
 40
1.0
 10
42.8625
 20
-2.778124999999984
 30
0.0
 10
42.56785916597951
 20
-2.753233475588661
 30
0.0
 10
42.26731125793584
 20
-2.722543209632359
 30
0.0
 10
41.66974826758984
 20
-2.630271091774385
 30
0.0
 10
41.37611424021454
 20
-2.569068426075099
 30
0.0
 10
40.77920025925855
 20
-2.417303586114364
 30
0.0
 10
40.47836861930541
 20
-2.326765427951639
 30
0.0
 10
39.88735050383114
 20
-2.121283355941741
 30
0.0
 10
39.58879415037097
 20
-2.005423992582614
 30
0.0
 10
38.9907690957691
 20
-1.751825221599641
 30
0.0
 10
38.69679698374413
 20
-1.614965873898365
 30
0.0
 10
38.10071827998871
 20
-1.323110963985969
 30
0.0
 10
37.79969850708441
 20
-1.168194072706622
 30
0.0
 10
37.35526770186263
 20
-0.9283537918841732
 30
0.0
 10
37.20816642338806
 20
-0.8471561492868291
 30
0.0
 10
36.91037068377225
 20
-0.6819084360008228
 30
0.0
 10
36.76065140364602
 20
-0.5980330272147141
 30
0.0
 10
36.4615015581699
 20
-0.4288540083088335
 30
0.0
 10
36.31207376973185
 20
-0.3435519774458738
 30
0.0
 10
36.01543152713091
 20
-0.172631698715884
 30
0.0
 10
35.86851419869092
 20
-0.0870722998099717
 30
0.0
 10
35.42222067683741
 20
0.1706776004934308
 30
0.0
 10
35.12110857104201
 20
0.3431973591838407
 30
0.0
 10
34.67564686873254
 20
0.5963752228096826
 30
0.0
 10
34.52881797464544
 20
0.6797239405134868
 30
0.0
 10
34.23157872858089
 20
0.844907951619566
 30
0.0
 10
34.08198909411752
 20
0.9265840868458983
 30
0.0
 10
33.78279578799891
 20
1.087034075320972
 30
0.0
 10
33.63319489607257
 20
1.165806437246665
 30
0.0
 10
33.33591110182417
 20
1.319450032462046
 30
0.0
 10
33.18907510357155
 20
1.394187110910601
 30
0.0
 10
32.74368533957225
 20
1.612917882716552
 30
0.0
 10
32.44257679970105
 20
1.750934987137591
 30
0.0
 10
31.99622158894584
 20
1.940916096693135
 30
0.0
 10
31.84928294984404
 20
2.001298198491342
 30
0.0
 10
31.55269206437707
 20
2.116541452667836
 30
0.0
 10
31.40327901811843
 20
2.171353645805076
 30
0.0
 10
31.1041361543492
 20
2.274600157922475
 30
0.0
 10
30.95440911329798
 20
2.32303347989373
 30
0.0
 10
30.65657568068168
 20
2.412923631345179
 30
0.0
 10
30.50943889055183
 20
2.454301529934984
 30
0.0
 10
30.06509019848481
 20
2.568025879615086
 30
0.0
 10
29.76408111953833
 20
2.629862434209839
 30
0.0
 10
29.16793391525634
 20
2.722223487314156
 30
0.0
 10
28.87399857118928
 20
2.752876936858542
 30
0.0
 10
28.57500000000008
 20
2.767742951573914
 30
0.0
  0
LINE
  5
A8
330
1F
100
AcDbEntity
  8
0
  6
Continuous
 62
     1
370
    15
100
AcDbLine
 10
42.8625
 20
-2.51609599840112
 30
0.0
 11
42.8625
 21
0.2380334984011519
 31
0.0
  0
SPLINE
  5
A9
330
1F
100
AcDbEntity
  8
0
  6
Continuous
 62
     1
370
    15
100
AcDbSpline
210
0.0
220
0.0
230
1.0
 70
     8
 71
     3
 72
    18
 73
    14
 74
     0
 42
0.000000001
 43
0.00000001
 40
0.0
 40
0.0
 40
0.0
 40
0.0
 40
0.0042595513895379
 40
0.1067483958601677
 40
0.2092368233720653
 40
0.3117251159551032
 40
0.4142135556855241
 40
0.5167024245890003
 40
0.6133236740481226
 40
0.7099574547511689
 40
0.8066103969567568
 40
0.903289077179132
 40
1.0
 40
1.0
 40
1.0
 40
1.0
 10
29.85295999877979
 20
2.773899407057545
 30
0.0
 10
29.87143207743048
 20
2.775299136007569
 30
0.0
 10
30.33435987987632
 20
2.810377670432822
 30
0.0
 10
31.24174007415893
 20
2.682226709438541
 30
0.0
 10
32.57509884872798
 20
2.379415507502101
 30
0.0
 10
33.90846148096028
 20
1.870865091428532
 30
0.0
 10
35.24180342484306
 20
1.226038991451409
 30
0.0
 10
36.54978803823162
 20
0.4999906824810602
 30
0.0
 10
37.83208380698457
 20
-0.2459772077245417
 30
0.0
 10
39.08918823331827
 20
-0.9614359177616345
 30
0.0
 10
40.34657201475588
 20
-1.60836881259247
 30
0.0
 10
41.60435575960892
 20
-2.158425787525657
 30
0.0
 10
42.44307197529185
 20
-2.396859343947404
 30
0.0
 10
42.8625
 20
-2.51609599840112
 30
0.0
  0
SPLINE
  5
AA
330
1F
100
AcDbEntity
  8
0
  6
Continuous
 62
     1
370
    15
100
AcDbSpline
210
0.0
220
0.0
230
1.0
 70
     8
 71
     3
 72
    15
 73
    11
 74
     0
 42
0.000000001
 43
0.00000001
 40
0.0
 40
0.0
 40
0.0
 40
0.0
 40
0.1324858183803611
 40
0.2649659298551756
 40
0.3974406843158036
 40
0.5299104334683863
 40
0.662375530717902
 40
0.7948363310509826
 40
0.9197305077395196
 40
1.0
 40
1.0
 40
1.0
 40
1.0
 10
42.86249999999999
 20
0.2380334984011514
 30
0.0
 10
42.41785150135575
 20
0.4919797900281205
 30
0.0
 10
41.52857365756623
 20
0.9998614343942746
 30
0.0
 10
40.19469888393449
 20
1.680472790393936
 30
0.0
 10
38.86088897765604
 20
2.23424276777027
 30
0.0
 10
37.5271357833559
 20
2.616629268688969
 30
0.0
 10
36.19345349218867
 20
2.801253949484938
 30
0.0
 10
34.88514959645703
 20
2.765810871911187
 30
0.0
 10
33.7521997620439
 20
2.582295740113629
 30
0.0
 10
33.063755771481
 20
2.353069531096255
 30
0.0
 10
32.79440472187584
 20
2.263385663066035
 30
0.0
  0
SPLINE
  5
AB
330
1F
100
AcDbEntity
  8
0
  6
Continuous
 62
     1
370
    15
100
AcDbSpline
210
0.0
220
0.0
230
1.0
 70
     8
 71
     3
 72
    13
 73
     9
 74
     0
 42
0.000000001
 43
0.00000001
 40
0.0
 40
0.0
 40
0.0
 40
0.0
 40
0.1199535701799956
 40
0.2960063014198229
 40
0.4720251985572199
 40
0.6480223458845923
 40
0.8240098888626828
 40
1.0
 40
1.0
 40
1.0
 40
1.0
 10
35.716560153783
 20
-2.753664434897151
 30
0.0
 10
35.43096434826926
 20
-2.75490864395681
 30
0.0
 10
34.72620701620924
 20
-2.757978946252858
 30
0.0
 10
33.60253967041366
 20
-2.538241200878489
 30
0.0
 10
32.34546423275145
 20
-2.149613171731837
 30
0.0
 10
31.08858630537518
 20
-1.606889013096489
 30
0.0
 10
29.8317890504466
 20
-0.9583779942704495
 30
0.0
 10
28.99393172125466
 20
-0.4794292010558686
 30
0.0
 10
28.57500000000008
 20
-0.2399530571547542
 30
0.0
  0
LINE
  5
AC
330
1F
100
AcDbEntity
  8
외형선
  6
Continuous
370
    15
100
AcDbLine
 10
28.57500000000001
 20
-0.2399530571549282
 30
0.0
 11
28.575
 21
0.7290795520264806
 31
0.0
  0
LINE
  5
AD
330
1F
100
AcDbEntity
  8
0
  6
Continuous
 62
     1
370
    15
100
AcDbLine
 10
42.86250000000002
 20
-2.778124999999984
 30
0.0
 11
42.8625
 21
-2.51609599840112
 31
0.0
  0
LINE
  5
AE
330
1F
100
AcDbEntity
  8
외형선
  6
Continuous
370
    15
100
AcDbLine
 10
28.57500000000001
 20
2.767742951574446
 30
0.0
 11
28.57500000000001
 21
2.778125
 31
0.0
  0
SPLINE
  5
AF
330
1F
100
AcDbEntity
  8
0
  6
Continuous
 62
     1
370
    15
100
AcDbSpline
210
0.0
220
0.0
230
1.0
 70
     8
 71
     3
 72
    12
 73
     8
 74
     0
 42
0.000000001
 43
0.00000001
 40
0.0
 40
0.0
 40
0.0
 40
0.0
 40
0.0772914376460956
 40
0.3078843415375698
 40
0.5385229696724959
 40
0.7692230152950503
 40
1.0
 40
1.0
 40
1.0
 40
1.0
 10
37.41070993213037
 20
2.757033875704321
 30
0.0
 10
37.55115566270994
 20
2.762832472322629
 30
0.0
 10
38.11061014561464
 20
2.785930724289998
 30
0.0
 10
39.08918573557566
 20
2.632601732726584
 30
0.0
 10
40.34657268106705
 20
2.303860420010735
 30
0.0
 10
41.60435559294782
 20
1.81142258913804
 30
0.0
 10
42.44307191973198
 20
1.389038532319048
 30
0.0
 10
42.86250000000002
 20
1.177811293227748
 30
0.0
  0
LINE
  5
B0
330
1F
100
AcDbEntity
  8
0
  6
Continuous
 62
     1
370
    15
100
AcDbLine
 10
42.8625
 20
0.2380334984011518
 30
0.0
 11
42.8625
 21
1.177811293227748
 31
0.0
  0
SPLINE
  5
B1
330
1F
100
AcDbEntity
  8
0
  6
Continuous
 62
     1
370
    15
100
AcDbSpline
210
0.0
220
0.0
230
1.0
 70
     8
 71
     3
 72
    11
 73
     7
 74
     0
 42
0.000000001
 43
0.00000001
 40
0.0
 40
0.0
 40
0.0
 40
0.0
 40
0.3160101151102503
 40
0.6320180754427691
 40
0.9480247501497256
 40
0.9999999999999999
 40
0.9999999999999999
 40
0.9999999999999999
 40
0.9999999999999999
 10
28.57500000000001
 20
-2.680750179043522
 30
0.0
 10
29.01945888402489
 20
-2.728970015559361
 30
0.0
 10
29.90837362144349
 20
-2.825409359794509
 30
0.0
 10
31.24173989260145
 20
-2.685244382483248
 30
0.0
 10
32.20374900604351
 20
-2.488443635330651
 30
0.0
 10
32.7213032718311
 20
-2.291239561158751
 30
0.0
 10
32.79440472187581
 20
-2.263385663066039
 30
0.0
  0
SPLINE
  5
B2
330
1F
100
AcDbEntity
  8
외형선
  6
Continuous
370
    15
100
AcDbSpline
210
0.0
220
0.0
230
1.0
 70
    24
 71
     3
 72
    20
 73
    16
 74
     0
 42
0.000000001
 43
0.00000001
 40
0.0
 40
0.0
 40
0.0
 40
0.0
 40
0.0480965291418402
 40
0.1285356827428944
 40
0.2067078385303576
 40
0.2871469921314155
 40
0.3653191479189514
 40
0.4457583015199312
 40
0.5239304573073381
 40
0.6043696109083341
 40
0.6825417666958522
 40
0.7629809202969694
 40
0.8411530760842607
 40
0.9215922296854901
 40
1.0
 40
1.0
 40
1.0
 40
1.0
 10
28.575
 20
-0.1196542418090711
 30
0.0
 10
28.575
 20
-0.1200036828022311
 30
0.0
 10
28.57500000000001
 20
-0.1209375472085734
 30
0.0
 10
28.575
 20
-0.1753036045705832
 30
0.0
 10
28.57500000000002
 20
-0.2763780793869168
 30
0.0
 10
28.57499999999994
 20
-0.4210377209141722
 30
0.0
 10
28.57500000000009
 20
-0.6052498772386651
 30
0.0
 10
28.57500000000005
 20
-0.8211653778355869
 30
0.0
 10
28.57500000000001
 20
-1.066373218645504
 30
0.0
 10
28.57499999999994
 20
-1.329580179677468
 30
0.0
 10
28.57500000000006
 20
-1.608015919764612
 30
0.0
 10
28.57500000000006
 20
-1.888957069553302
 30
0.0
 10
28.57499999999998
 20
-2.16888790746097
 30
0.0
 10
28.57500000000005
 20
-2.437420487021166
 30
0.0
 10
28.57500000000004
 20
-2.600334747582033
 30
0.0
 10
28.57500000000002
 20
-2.680750179043522
 30
0.0
  0
SPLINE
  5
B3
330
1F
100
AcDbEntity
  8
0
  6
Continuous
 62
     1
370
    15
100
AcDbSpline
210
0.0
220
0.0
230
1.0
 70
     8
 71
     3
 72
     9
 73
     5
 74
     0
 42
0.000000001
 43
0.00000001
 40
0.0
 40
0.0
 40
0.0
 40
0.0
 40
0.5322475431936969
 40
1.0
 40
1.0
 40
1.0
 40
1.0
 10
42.86249999999999
 20
2.77812500000002
 30
0.0
 10
42.41785128793724
 20
2.728570817528461
 30
0.0
 10
41.58243416342652
 20
2.654661820551003
 30
0.0
 10
40.74702779275271
 20
2.394513281112798
 30
0.0
 10
40.35626441043837
 20
2.272828162656005
 30
0.0
  0
LINE
  5
B4
330
1F
100
AcDbEntity
  8
0
  6
Continuous
 62
     1
370
    15
100
AcDbLine
 10
42.8625
 20
1.170450988471605
 30
0.0
 11
42.8625
 21
2.77812500000002
 31
0.0
  0
LINE
  5
B5
330
1F
100
AcDbEntity
  8
외형선
  6
Continuous
370
    15
100
AcDbLine
 10
28.57500000000001
 20
-2.778125000000003
 30
0.0
 11
28.57500000000002
 21
-2.680750179043522
 31
0.0
  0
LINE
  5
B6
330
1F
100
AcDbEntity
  8
외형선
  6
Continuous
370
    15
100
AcDbLine
 10
27.57500000000001
 20
-0.0000000000000017
 30
0.0
 11
27.57500000000001
 21
2.778124999999999
 31
0.0
  0
LINE
  5
B7
330
1F
100
AcDbEntity
  8
외형선
  6
Continuous
370
    15
100
AcDbLine
 10
27.57500000000001
 20
-2.778125000000002
 30
0.0
 11
27.57500000000001
 21
-0.0000000000000017
 31
0.0
  0
LINE
  5
B8
330
1F
100
AcDbEntity
  8
외형선
  6
Continuous
370
    15
100
AcDbLine
 10
20.1692116787305
 20
-0.0000000000000017
 30
0.0
 11
20.1692116787305
 21
4.76250000000001
 31
0.0
  0
LINE
  5
B9
330
1F
100
AcDbEntity
  8
외형선
  6
Continuous
370
    15
100
AcDbLine
 10
20.1692116787305
 20
-4.76250000000002
 30
0.0
 11
20.1692116787305
 21
-0.0000000000000017
 31
0.0
  0
SPLINE
  5
BE
330
1F
100
AcDbEntity
  8
외형선
  6
Continuous
370
    15
100
AcDbSpline
210
0.0
220
0.0
230
1.0
 70
    24
 71
     3
 72
    14
 73
    10
 74
     0
 42
0.000000001
 43
0.00000001
 40
0.0
 40
0.0
 40
0.0
 40
0.0
 40
0.1286864858994951
 40
0.2871718696042606
 40
0.4456572533090255
 40
0.6041426370137885
 40
0.7626280207185575
 40
0.9211134044233177
 40
1.0
 40
1.0
 40
1.0
 40
1.0
 10
28.575
 20
-2.680750179043518
 30
0.0
 10
28.575
 20
-2.546295406274724
 30
0.0
 10
28.575
 20
-2.246251246988362
 30
0.0
 10
28.57499999999991
 20
-1.710639323778879
 30
0.0
 10
28.57500000000019
 20
-1.154729227923825
 30
0.0
 10
28.57499999999998
 20
-0.6649515099306942
 30
0.0
 10
28.57499999999998
 20
-0.3112600688281248
 30
0.0
 10
28.575
 20
-0.12425160517256
 30
0.0
 10
28.575
 20
-0.1344461660209859
 30
0.0
 10
28.575
 20
-0.137834157312823
 30
0.0
  0
SPLINE
  5
BF
330
1F
100
AcDbEntity
  8
외형선
  6
Continuous
370
    15
100
AcDbSpline
210
0.0
220
0.0
230
1.0
 70
     8
 71
     3
 72
     8
 73
     4
 74
     0
 42
0.000000001
 43
0.00000001
 40
0.0
 40
0.0
 40
0.0
 40
0.0
 40
1.0
 40
1.0
 40
1.0
 40
1.0
 10
28.575
 20
-2.680750179043518
 30
0.0
 10
28.40820755933466
 20
-2.655553085999545
 30
0.0
 10
28.24103355128096
 20
-2.625521235354197
 30
0.0
 10
28.07482066581481
 20
-2.590912341802114
 30
0.0
  0
SPLINE
  5
C0
330
1F
100
AcDbEntity
  8
외형선
  6
Continuous
370
    15
100
AcDbSpline
210
0.0
220
0.0
230
1.0
 70
     8
 71
     3
 72
     8
 73
     4
 74
     0
 42
0.000000001
 43
0.00000001
 40
0.0
 40
0.0
 40
0.0
 40
0.0
 40
1.0
 40
1.0
 40
1.0
 40
1.0
 10
28.57500000000002
 20
-0.2399530571547182
 30
0.0
 10
28.40820755933469
 20
-0.1442994669823248
 30
0.0
 10
28.24103355128097
 20
-0.0481425505418906
 30
0.0
 10
28.07482066581483
 20
0.0477444063812774
 30
0.0
  0
SPLINE
  5
C1
330
1F
100
AcDbEntity
  8
외형선
  6
Continuous
370
    15
100
AcDbSpline
210
0.0
220
0.0
230
1.0
 70
     8
 71
     3
 72
     8
 73
     4
 74
     0
 42
0.000000001
 43
0.00000001
 40
0.0
 40
0.0
 40
0.0
 40
0.0
 40
1.0
 40
1.0
 40
1.0
 40
1.0
 10
28.57500000000002
 20
2.767742951573917
 30
0.0
 10
28.40820755933469
 20
2.776035763367237
 30
0.0
 10
28.24103355128097
 20
2.77936284700819
 30
0.0
 10
28.07482066581483
 20
2.777714705884011
 30
0.0
  0
LINE
  5
C2
330
1F
100
AcDbEntity
  8
외형선
  6
Continuous
370
    15
100
AcDbLine
 10
28.0748206658148
 20
1.002550836461171
 30
0.0
 11
28.0748206658148
 21
2.778124999999999
 31
0.0
  0
SPLINE
  5
C3
330
1F
100
AcDbEntity
  8
외형선
  6
Continuous
370
    15
100
AcDbSpline
210
0.0
220
0.0
230
1.0
 70
     8
 71
     3
 72
     8
 73
     4
 74
     0
 42
0.000000001
 43
0.00000001
 40
0.0
 40
0.0
 40
0.0
 40
0.0
 40
1.0
 40
1.0
 40
1.0
 40
1.0
 10
28.575
 20
0.7290795520264827
 30
0.0
 10
28.40820755933466
 20
0.8217266596037833
 30
0.0
 10
28.24103355128096
 20
0.9131340444898036
 30
0.0
 10
28.07482066581481
 20
1.002572567309952
 30
0.0
  0
LINE
  5
C4
330
1F
100
AcDbEntity
  8
외형선
  6
Continuous
370
    15
100
AcDbLine
 10
28.0748206658148
 20
-2.59092075060894
 30
0.0
 11
28.0748206658148
 21
0.0477623995514418
 31
0.0
  0
LINE
  5
C5
330
1F
100
AcDbEntity
  8
외형선
  6
Continuous
370
    15
100
AcDbLine
 10
28.15768323129906
 20
-2.777446787305748
 30
0.0
 11
28.07482066581483
 21
-2.777714705884014
 31
0.0
  0
LINE
  5
C6
330
1F
100
AcDbEntity
  8
외형선
  6
Continuous
370
    15
100
AcDbLine
 10
28.0748206658148
 20
-2.778125000000002
 30
0.0
 11
28.0748206658148
 21
-2.777714396552335
 31
0.0
  0
SPLINE
  5
C7
330
1F
100
AcDbEntity
  8
외형선
  6
Continuous
370
    15
100
AcDbSpline
210
0.0
220
0.0
230
1.0
 70
    24
 71
     3
 72
    12
 73
     8
 74
     0
 42
0.000000001
 43
0.00000001
 40
0.0
 40
0.0
 40
0.0
 40
0.0
 40
0.0737491734687499
 40
0.3243038324968755
 40
0.5748584915249868
 40
0.8254131505527584
 40
1.0
 40
1.0
 40
1.0
 40
1.0
 10
28.57500000000004
 20
0.7883147725182036
 30
0.0
 10
28.57500000000004
 20
0.8153707258441968
 30
0.0
 10
28.57499999999997
 20
0.934346287776348
 30
0.0
 10
28.57500000000001
 20
1.298545981783302
 30
0.0
 10
28.57500000000001
 20
1.824089938681278
 30
0.0
 10
28.575
 20
2.342646959482169
 30
0.0
 10
28.57500000000002
 20
2.643993308937287
 30
0.0
 10
28.57500000000002
 20
2.767742951573955
 30
0.0
  0
LINE
  5
C8
330
1F
100
AcDbEntity
  8
중심선
 62
     1
100
AcDbLine
 10
-45.8625
 20
-0.0000000000000056
 30
0.0
 11
45.8625
 21
0.0000000000000056
 31
0.0
  0
LINE
  5
C9
330
1F
100
AcDbEntity
  8
참조1
100
AcDbLine
 10
3.368380657015613
 20
0.0010749287238892
 30
0.0
 11
3.368380657015616
 21
-39.99892507127611
 31
0.0
  0
LINE
  5
CA
330
1F
100
AcDbEntity
  8
참조1
100
AcDbLine
 10
3.368380657015616
 20
-39.99892507127611
 30
0.0
 11
-29.25297615729306
 21
-39.9989250712761
 31
0.0
  0
CIRCLE
  5
CB
330
1F
100
AcDbEntity
  8
해칭선
100
AcDbCircle
 10
0.0
 20
0.0000000000000003
 30
0.0
 40
3.000000000000001
  0
INSERT
  5
CC
330
1F
100
AcDbEntity
  8
0
  6
Continuous
 62
     7
100
AcDbBlockReference
 66
     1
  2
블럭10
 10
-10.57189227510959
 20
-32.14892867986872
 30
0.0
  0
ATTRIB
  5
CD
330
CC
100
AcDbEntity
  8
FORMAT
 62
     2
100
AcDbText
 10
-19.75318756385088
 20
-30.07356176703653
 30
0.0
 40
4.233333333333333
  1
E5024014 [ 4 FLUTE ]
 41
0.75
  7
SLDTEXTSTYLE0
 11
-19.75318756385088
 21
-32.1902284337032
 31
0.0
100
AcDbAttribute
  2
AUTOATTR0
 70
     0
 74
     1
  0
SEQEND
  5
CE
330
CC
100
AcDbEntity
  8
0
  6
Continuous
 62
     7
  0
HATCH
  5
CF
330
1F
100
AcDbEntity
  8
중심선
100
AcDbHatch
 10
0.0
 20
0.0
 30
0.0
210
0.0
220
0.0
230
1.0
  2
SOLID
 70
     1
 71
     0
 91
        1
 92
        0
 93
        4
 72
     1
 10
-4.856982970728757
 20
-15.90175437822478
 11
-8.30325821456604
 21
-15.90175437822478
 72
     1
 10
-8.30325821456604
 20
-15.90175437822478
 11
-10.43148807377006
 21
-18.43807995879735
 72
     1
 10
-10.43148807377006
 20
-18.43807995879735
 11
-6.98517974481963
 21
-18.43804052949486
 72
     1
 10
-6.98517974481963
 20
-18.43804052949486
 11
-4.856982970728757
 21
-15.90175437822478
 97
        0
 75
     0
 76
     1
 98
        1
 10
0.0
 20
19.89717069305132
  0
HATCH
  5
D0
330
1F
100
AcDbEntity
  8
중심선
100
AcDbHatch
 10
0.0
 20
0.0
 30
0.0
210
0.0
220
0.0
230
1.0
  2
SOLID
 70
     1
 71
     0
 91
        1
 92
        0
 93
        4
 72
     1
 10
0.1557810203072219
 20
-15.90175437822478
 11
-3.290494223530088
 21
-15.90175437822478
 72
     1
 10
-3.290494223530088
 20
-15.90175437822478
 11
-7.821632231887476
 21
-21.3017543782248
 72
     1
 10
-7.821632231887476
 20
-21.3017543782248
 11
-4.375356988050195
 21
-21.3017543782248
 72
     1
 10
-4.375356988050195
 20
-21.3017543782248
 11
0.1557810203072219
 21
-15.90175437822478
 97
        0
 75
     0
 76
     1
 98
        1
 10
0.0
 20
19.89717069305132
  0
HATCH
  5
D1
330
1F
100
AcDbEntity
  8
중심선
100
AcDbHatch
 10
0.0
 20
0.0
 30
0.0
210
0.0
220
0.0
230
1.0
  2
SOLID
 70
     1
 71
     0
 91
        1
 92
        0
 93
        4
 72
     1
 10
5.168545011343118
 20
-15.90175437822476
 11
1.722269767506029
 21
-15.90175437822476
 72
     1
 10
1.722269767506029
 20
-15.90175437822476
 11
-5.326167134383275
 21
-24.3017543782248
 72
     1
 10
-5.326167134383275
 20
-24.3017543782248
 11
-1.879891890545993
 21
-24.3017543782248
 72
     1
 10
-1.879891890545993
 20
-24.3017543782248
 11
5.168545011343117
 21
-15.90175437822476
 97
        0
 75
     0
 76
     1
 98
        1
 10
0.0
 20
19.89717069305132
  0
HATCH
  5
D2
330
1F
100
AcDbEntity
  8
중심선
100
AcDbHatch
 10
0.0
 20
0.0
 30
0.0
210
0.0
220
0.0
230
1.0
  2
SOLID
 70
     1
 71
     0
 91
        1
 92
        0
 93
        6
 72
     3
 10
9.96843544235529
 20
-20.10175437827606
 11
3.960054785062283
 21
1.540882976769353E-10
 40
0.3939339440162628
 50
17.09539180608436
 51
320.0019657685078
 73
     0
 72
     1
 10
11.65143509805588
 20
-18.68964838286308
 11
13.95673697175695
 21
-16.75532167281516
 72
     3
 10
9.968435442302443
 20
-20.10175437822493
 11
6.600054785286829
 21
-1.278976924368180E-13
 40
0.636358354079598
 50
39.99873849337385
 51
368.4976242363724
 73
     1
 72
     1
 10
16.39376793420305
 20
-19.14175437815481
 11
8.648502749138364
 21
-19.14175437815481
 72
     1
 10
8.648502749138364
 20
-19.14175437815481
 11
8.64847770469243
 21
-21.0617543781547
 72
     1
 10
8.64847770469243
 20
-21.0617543781547
 11
13.08985747416447
 21
-21.06175437815467
 97
        0
 75
     0
 76
     1
 98
        1
 10
0.0
 20
19.89717069305132
  0
DIMENSION
  5
D3
330
1F
100
AcDbEntity
  8
치수문자_일반주서
100
AcDbDimension
  2
_D
 10
55.11632071814359
 20
-2.778124999999939
 30
0.0
 11
55.11632071814348
 21
23.81962500000007
 31
0.0
 70
   160
  1
%%c<>
 71
     2
 42
5.556250000000004
 52
-270.0
  3
SLDDIMSTYLE0
100
AcDbAlignedDimension
 13
42.8625
 23
2.77812500000002
 33
0.0
 14
42.8625
 24
-2.778124999999984
 34
0.0
 50
90.0000000000002
100
AcDbRotatedDimension
1001
ACAD
1000
DSTYLE
1002
{
1070
   171
1070
     6
1070
   273
1070
     5
1002
}
  0
DIMENSION
  5
E8
330
1F
100
AcDbEntity
  8
치수문자_일반주서
100
AcDbDimension
  2
_D_1
 10
28.57500000000001
 20
26.58630187324108
 30
0.0
 11
8.40850000000001
 21
26.58630187324108
 31
0.0
 70
   160
  1
<>
 71
     2
 42
14.28749999999999
  3
SLDDIMSTYLE0
100
AcDbAlignedDimension
 13
42.8625
 23
2.767908699589624
 33
0.0
 14
28.57500000000001
 24
2.767742951574446
 34
0.0
100
AcDbRotatedDimension
1001
ACAD
1000
DSTYLE
1002
{
1070
   171
1070
     6
1070
   273
1070
     5
1002
}
  0
DIMENSION
  5
FD
330
1F
100
AcDbEntity
  8
치수문자_일반주서
100
AcDbDimension
  2
_D_2
 10
-42.8625
 20
50.35832764256403
 30
0.0
 11
-2.187269229181645
 21
50.35832764256403
 31
0.0
 70
   160
  1
<>
 71
     2
 42
85.725
  3
SLDDIMSTYLE0
100
AcDbAlignedDimension
 13
42.8625
 23
2.767908699589624
 33
0.0
 14
-42.8625
 24
2.778124999999981
 34
0.0
100
AcDbRotatedDimension
1001
ACAD
1000
DSTYLE
1002
{
1070
   171
1070
     6
1070
   273
1070
     5
1002
}
  0
DIMENSION
  5
110
330
1F
100
AcDbEntity
  8
치수문자_일반주서
100
AcDbDimension
  2
_D_3
 10
-56.26124999999999
 20
-4.762500000000141
 30
0.0
 11
-56.2612500000001
 21
24.71024999999995
 31
0.0
 70
   160
  1
%%c<>
 71
     2
 42
9.52500000000001
 52
-270.0
  3
SLDDIMSTYLE0
100
AcDbAlignedDimension
 13
-20.16921167873049
 23
4.762500000000004
 33
0.0
 14
-20.16921167873052
 24
-4.762500000000006
 34
0.0
 50
90.0000000000002
100
AcDbRotatedDimension
1001
ACAD
1000
DSTYLE
1002
{
1070
   171
1070
     6
1070
   273
1070
     5
1002
}
  0
LINE
  5
124
330
1F
100
AcDbEntity
  8
참조1
100
AcDbLine
 10
68.7193644723612
 20
7.441074928723896
 30
0.0
 11
68.7193644723612
 21
-7.438925071276109
 31
0.0
  0
LINE
  5
125
330
1F
100
AcDbEntity
  8
참조1
100
AcDbLine
 10
81.41936447236121
 20
5.441074928723896
 30
0.0
 11
68.7193644723612
 21
5.441074928723896
 31
0.0
  0
SOLID
  5
126
330
1F
100
AcDbEntity
  8
참조1
100
AcDbTrace
 10
68.7193644723612
 20
5.441074928723896
 30
0.0
 11
75.0693644723612
 21
4.425074928723896
 31
0.0
 12
75.0693644723612
 22
6.457074928723896
 32
0.0
 13
75.0693644723612
 23
6.457074928723896
 33
0.0
  0
LINE
  5
127
330
1F
100
AcDbEntity
  8
참조1
100
AcDbLine
 10
81.41936447236121
 20
-5.438925071276109
 30
0.0
 11
68.7193644723612
 21
-5.438925071276109
 31
0.0
  0
SOLID
  5
128
330
1F
100
AcDbEntity
  8
참조1
100
AcDbTrace
 10
68.7193644723612
 20
-5.438925071276109
 30
0.0
 11
75.0693644723612
 21
-6.454925071276109
 31
0.0
 12
75.0693644723612
 22
-4.422925071276109
 32
0.0
 13
75.0693644723612
 23
-4.422925071276109
 33
0.0
  0
MTEXT
  5
129
330
1F
100
AcDbEntity
  8
참조1
100
AcDbMText
 10
78.1037146049872
 20
11.01136670591223
 30
0.0
 40
3.5
 41
0.0
 71
     1
 72
     1
  1
A
  7
SLDTEXTSTYLE0
 73
     1
 44
1.0
  0
MTEXT
  5
12A
330
1F
100
AcDbEntity
  8
참조1
100
AcDbMText
 10
78.1037146049872
 20
0.1313667059122219
 30
0.0
 40
3.5
 41
0.0
 71
     1
 72
     1
  1
A
  7
SLDTEXTSTYLE0
 73
     1
 44
1.0
  0
INSERT
  5
131
330
1F
100
AcDbEntity
  8
해칭선
100
AcDbBlockReference
  2
SW_DOWELSYMBOL_0
 10
0.0
 20
0.0000000000000003
 30
0.0
  0
LINE
  5
2C8
330
1F
100
AcDbEntity
  8
0
  6
Continuous
 62
     1
370
    15
100
AcDbLine
 10
-34.30486582419697
 20
-0.8049391503131815
 30
0.0
 11
-34.2516199167495
 21
-0.8334091369036363
 31
0.0
  0
LINE
  5
2C9
330
1F
100
AcDbEntity
  8
0
  6
Continuous
 62
     1
370
    15
100
AcDbLine
 10
-35.71656015378299
 20
2.778124999999999
 30
0.0
 11
-37.41070993213036
 21
2.778124999999999
 31
0.0
  0
LINE
  5
2CA
330
1F
100
AcDbEntity
  8
0
  6
Continuous
 62
     1
370
    15
100
AcDbLine
 10
-29.85295999877978
 20
-2.778125000000004
 30
0.0
 11
-28.575
 21
-2.778125000000004
 31
0.0
  0
LINE
  5
2CB
330
1F
100
AcDbEntity
  8
0
  6
Continuous
 62
     1
370
    15
100
AcDbLine
 10
-37.41070993213036
 20
-2.778125000000003
 30
0.0
 11
-35.71656015378302
 21
-2.778125000000003
 31
0.0
  0
LINE
  5
2CC
330
1F
100
AcDbEntity
  8
0
  6
Continuous
 62
     1
370
    15
100
AcDbLine
 10
-28.575
 20
2.778124999999998
 30
0.0
 11
-29.85295999877975
 21
2.778124999999998
 31
0.0
  0
LINE
  5
2CD
330
1F
100
AcDbEntity
  8
외형선
  6
Continuous
370
    15
100
AcDbLine
 10
-20.16921167873049
 20
4.762500000000004
 30
0.0
 11
-27.575
 21
2.778124999999998
 31
0.0
  0
LINE
  5
2CE
330
1F
100
AcDbEntity
  8
외형선
  6
Continuous
370
    15
100
AcDbLine
 10
-27.575
 20
-2.778125000000004
 30
0.0
 11
-20.16921167873049
 21
-4.762500000000013
 31
0.0
  0
LINE
  5
2CF
330
1F
100
AcDbEntity
  8
외형선
  6
Continuous
370
    15
100
AcDbLine
 10
-28.15768323129906
 20
2.778124999999997
 30
0.0
 11
-28.575
 21
2.778124999999997
 31
0.0
  0
LINE
  5
2D0
330
1F
100
AcDbEntity
  8
외형선
  6
Continuous
370
    15
100
AcDbLine
 10
-27.575
 20
2.778124999999997
 30
0.0
 11
-28.07482066581478
 21
2.778124999999997
 31
0.0
  0
LINE
  5
2D1
330
1F
100
AcDbEntity
  8
외형선
  6
Continuous
370
    15
100
AcDbLine
 10
-28.07482066581478
 20
-2.778125000000003
 30
0.0
 11
-27.575
 21
-2.778125000000003
 31
0.0
  0
LINE
  5
2D2
330
1F
100
AcDbEntity
  8
외형선
  6
Continuous
370
    15
100
AcDbLine
 10
-28.575
 20
-2.778125000000003
 30
0.0
 11
-28.15768323129906
 21
-2.778125000000003
 31
0.0
  0
SPLINE
  5
2D3
330
1F
100
AcDbEntity
  8
0
  6
Continuous
 62
     1
370
    15
100
AcDbSpline
210
0.0
220
0.0
230
1.0
 70
     8
 71
     3
 72
    17
 73
    13
 74
     0
 42
0.000000001
 43
0.00000001
 40
0.0
 40
0.0
 40
0.0
 40
0.0
 40
0.1131739394212013
 40
0.2263471071434178
 40
0.3395198144395223
 40
0.4526923727406145
 40
0.565865093529006
 40
0.6790382882311617
 40
0.7857321721074813
 40
0.8924398935929337
 40
0.9991687741416231
 40
1.0
 40
1.0
 40
1.0
 40
1.0
 10
-28.57499999999997
 20
-0.7290795520264919
 30
0.0
 10
-29.01945886047197
 20
-0.4760276103357111
 30
0.0
 10
-29.9083735507849
 20
0.0300745475609247
 30
0.0
 10
-31.24174017523283
 20
0.8018359907598307
 30
0.0
 10
-32.57509881310465
 20
1.508440390988893
 30
0.0
 10
-33.90846152237997
 20
2.100906529643843
 30
0.0
 10
-35.24180329478729
 20
2.533140885086774
 30
0.0
 10
-36.54978850541751
 20
2.766219985641319
 30
0.0
 10
-37.83208217561973
 20
2.802066399211631
 30
0.0
 10
-39.08919433459702
 20
2.629467741526069
 30
0.0
 10
-39.93059293713988
 20
2.438385094340819
 30
0.0
 10
-40.3530000429988
 20
2.274097777114779
 30
0.0
 10
-40.35626441043836
 20
2.272828162656005
 30
0.0
  0
SPLINE
  5
2D4
330
1F
100
AcDbEntity
  8
외형선
  6
Continuous
370
    15
100
AcDbSpline
210
0.0
220
0.0
230
1.0
 70
    24
 71
     3
 72
    11
 73
     7
 74
     0
 42
0.000000001
 43
0.00000001
 40
0.0
 40
0.0
 40
0.0
 40
0.0
 40
0.2559587439586211
 40
0.5090541892665583
 40
0.762149634574507
 40
1.0
 40
1.0
 40
1.0
 40
1.0
 10
-28.575
 20
-2.76774295157445
 30
0.0
 10
-28.57499999999997
 20
-2.585118132651151
 30
0.0
 10
-28.57499999999995
 20
-2.22191143887248
 30
0.0
 10
-28.57500000000003
 20
-1.651863061516476
 30
0.0
 10
-28.57499999999995
 20
-1.141353243594358
 30
0.0
 10
-28.575
 20
-0.903525887289892
 30
0.0
 10
-28.57500000000003
 20
-0.7883047725182065
 30
0.0
  0
SPLINE
  5
2D5
330
1F
100
AcDbEntity
  8
0
  6
Continuous
 62
     1
370
    15
100
AcDbSpline
210
0.0
220
0.0
230
1.0
 70
     8
 71
     3
 72
    50
 73
    46
 74
     0
 42
0.000000001
 43
0.00000001
 40
0.0
 40
0.0
 40
0.0
 40
0.0
 40
0.0625000000000007
 40
0.0625000000000007
 40
0.1250000000000014
 40
0.1250000000000014
 40
0.1875000000000021
 40
0.1875000000000021
 40
0.2500000000000028
 40
0.2500000000000028
 40
0.3125000000000034
 40
0.3125000000000034
 40
0.3750000000000042
 40
0.3750000000000042
 40
0.4062500000000045
 40
0.4062500000000045
 40
0.4375000000000049
 40
0.4375000000000049
 40
0.4687500000000052
 40
0.4687500000000052
 40
0.5000000000000056
 40
0.5000000000000056
 40
0.5625000000000062
 40
0.5625000000000062
 40
0.5937500000000054
 40
0.5937500000000054
 40
0.6250000000000047
 40
0.6250000000000047
 40
0.656250000000004
 40
0.656250000000004
 40
0.6875000000000032
 40
0.6875000000000032
 40
0.7500000000000017
 40
0.7500000000000017
 40
0.781250000000002
 40
0.781250000000002
 40
0.8125000000000023
 40
0.8125000000000023
 40
0.8437500000000027
 40
0.8437500000000027
 40
0.875000000000003
 40
0.875000000000003
 40
0.9375000000000016
 40
0.9375000000000016
 40
1.0
 40
1.0
 40
1.0
 40
1.0
 10
-42.8625
 20
2.778124999999981
 30
0.0
 10
-42.56785916597953
 20
2.753233475588658
 30
0.0
 10
-42.26731125793584
 20
2.722543209632356
 30
0.0
 10
-41.66974826758984
 20
2.630271091774382
 30
0.0
 10
-41.37611424021453
 20
2.569068426075096
 30
0.0
 10
-40.77920025925856
 20
2.417303586114361
 30
0.0
 10
-40.47836861930541
 20
2.326765427951635
 30
0.0
 10
-39.88735050383114
 20
2.121283355941738
 30
0.0
 10
-39.58879415037096
 20
2.005423992582611
 30
0.0
 10
-38.9907690957691
 20
1.751825221599638
 30
0.0
 10
-38.69679698374414
 20
1.614965873898361
 30
0.0
 10
-38.1007182799887
 20
1.323110963985966
 30
0.0
 10
-37.79969850708441
 20
1.168194072706618
 30
0.0
 10
-37.35526770186264
 20
0.9283537918841696
 30
0.0
 10
-37.20816642338805
 20
0.8471561492868255
 30
0.0
 10
-36.91037068377226
 20
0.6819084360008191
 30
0.0
 10
-36.76065140364601
 20
0.5980330272147103
 30
0.0
 10
-36.4615015581699
 20
0.4288540083088296
 30
0.0
 10
-36.31207376973184
 20
0.3435519774458699
 30
0.0
 10
-36.01543152713093
 20
0.1726316987158801
 30
0.0
 10
-35.86851419869093
 20
0.0870722998099678
 30
0.0
 10
-35.4222206768374
 20
-0.1706776004934348
 30
0.0
 10
-35.121108571042
 20
-0.3431973591838448
 30
0.0
 10
-34.67564686873253
 20
-0.5963752228096866
 30
0.0
 10
-34.52881797464543
 20
-0.6797239405134908
 30
0.0
 10
-34.23157872858089
 20
-0.8449079516195701
 30
0.0
 10
-34.08198909411753
 20
-0.9265840868459024
 30
0.0
 10
-33.78279578799892
 20
-1.087034075320977
 30
0.0
 10
-33.63319489607257
 20
-1.165806437246669
 30
0.0
 10
-33.33591110182418
 20
-1.31945003246205
 30
0.0
 10
-33.18907510357154
 20
-1.394187110910605
 30
0.0
 10
-32.74368533957225
 20
-1.612917882716556
 30
0.0
 10
-32.44257679970106
 20
-1.750934987137595
 30
0.0
 10
-31.99622158894583
 20
-1.940916096693139
 30
0.0
 10
-31.84928294984404
 20
-2.001298198491347
 30
0.0
 10
-31.55269206437707
 20
-2.11654145266784
 30
0.0
 10
-31.40327901811843
 20
-2.171353645805081
 30
0.0
 10
-31.10413615434921
 20
-2.274600157922479
 30
0.0
 10
-30.95440911329798
 20
-2.323033479893735
 30
0.0
 10
-30.65657568068168
 20
-2.412923631345183
 30
0.0
 10
-30.50943889055183
 20
-2.454301529934988
 30
0.0
 10
-30.06509019848481
 20
-2.568025879615091
 30
0.0
 10
-29.76408111953832
 20
-2.629862434209844
 30
0.0
 10
-29.16793391525634
 20
-2.722223487314161
 30
0.0
 10
-28.87399857118929
 20
-2.752876936858546
 30
0.0
 10
-28.57500000000009
 20
-2.767742951573918
 30
0.0
  0
LINE
  5
2D6
330
1F
100
AcDbEntity
  8
0
  6
Continuous
 62
     1
370
    15
100
AcDbLine
 10
-42.8625
 20
2.516095998401118
 30
0.0
 11
-42.8625
 21
-0.238033498401155
 31
0.0
  0
SPLINE
  5
2D7
330
1F
100
AcDbEntity
  8
0
  6
Continuous
 62
     1
370
    15
100
AcDbSpline
210
0.0
220
0.0
230
1.0
 70
     8
 71
     3
 72
    18
 73
    14
 74
     0
 42
0.000000001
 43
0.00000001
 40
0.0
 40
0.0
 40
0.0
 40
0.0
 40
0.0042595513895379
 40
0.1067483958601677
 40
0.2092368233720653
 40
0.3117251159551032
 40
0.4142135556855241
 40
0.5167024245890003
 40
0.6133236740481226
 40
0.7099574547511689
 40
0.8066103969567568
 40
0.903289077179132
 40
1.0
 40
1.0
 40
1.0
 40
1.0
 10
-29.85295999877978
 20
-2.77389940705755
 30
0.0
 10
-29.87143207743047
 20
-2.775299136007573
 30
0.0
 10
-30.33435987987632
 20
-2.810377670432826
 30
0.0
 10
-31.24174007415893
 20
-2.682226709438546
 30
0.0
 10
-32.57509884872799
 20
-2.379415507502106
 30
0.0
 10
-33.90846148096027
 20
-1.870865091428537
 30
0.0
 10
-35.24180342484304
 20
-1.226038991451413
 30
0.0
 10
-36.54978803823163
 20
-0.4999906824810641
 30
0.0
 10
-37.83208380698458
 20
0.245977207724538
 30
0.0
 10
-39.08918823331827
 20
0.9614359177616311
 30
0.0
 10
-40.34657201475589
 20
1.608368812592466
 30
0.0
 10
-41.60435575960894
 20
2.158425787525654
 30
0.0
 10
-42.44307197529186
 20
2.396859343947401
 30
0.0
 10
-42.8625
 20
2.516095998401117
 30
0.0
  0
SPLINE
  5
2D8
330
1F
100
AcDbEntity
  8
0
  6
Continuous
 62
     1
370
    15
100
AcDbSpline
210
0.0
220
0.0
230
1.0
 70
     8
 71
     3
 72
    15
 73
    11
 74
     0
 42
0.000000001
 43
0.00000001
 40
0.0
 40
0.0
 40
0.0
 40
0.0
 40
0.1324858183803611
 40
0.2649659298551756
 40
0.3974406843158036
 40
0.5299104334683863
 40
0.662375530717902
 40
0.7948363310509826
 40
0.9197305077395196
 40
1.0
 40
1.0
 40
1.0
 40
1.0
 10
-42.8625
 20
-0.2380334984011545
 30
0.0
 10
-42.41785150135574
 20
-0.4919797900281237
 30
0.0
 10
-41.52857365756624
 20
-0.9998614343942778
 30
0.0
 10
-40.19469888393449
 20
-1.680472790393939
 30
0.0
 10
-38.86088897765605
 20
-2.234242767770273
 30
0.0
 10
-37.52713578335589
 20
-2.616629268688972
 30
0.0
 10
-36.19345349218868
 20
-2.801253949484942
 30
0.0
 10
-34.88514959645703
 20
-2.765810871911191
 30
0.0
 10
-33.7521997620439
 20
-2.582295740113633
 30
0.0
 10
-33.06375577148098
 20
-2.353069531096259
 30
0.0
 10
-32.79440472187584
 20
-2.263385663066039
 30
0.0
  0
SPLINE
  5
2D9
330
1F
100
AcDbEntity
  8
0
  6
Continuous
 62
     1
370
    15
100
AcDbSpline
210
0.0
220
0.0
230
1.0
 70
     8
 71
     3
 72
    13
 73
     9
 74
     0
 42
0.000000001
 43
0.00000001
 40
0.0
 40
0.0
 40
0.0
 40
0.0
 40
0.1199535701799956
 40
0.2960063014198229
 40
0.4720251985572199
 40
0.6480223458845923
 40
0.8240098888626828
 40
1.0
 40
1.0
 40
1.0
 40
1.0
 10
-35.71656015378299
 20
2.753664434897147
 30
0.0
 10
-35.43096434826926
 20
2.754908643956806
 30
0.0
 10
-34.72620701620924
 20
2.757978946252854
 30
0.0
 10
-33.60253967041366
 20
2.538241200878484
 30
0.0
 10
-32.34546423275144
 20
2.149613171731832
 30
0.0
 10
-31.08858630537519
 20
1.606889013096484
 30
0.0
 10
-29.8317890504466
 20
0.9583779942704449
 30
0.0
 10
-28.99393172125467
 20
0.4794292010558638
 30
0.0
 10
-28.57500000000009
 20
0.2399530571547493
 30
0.0
  0
LINE
  5
2DA
330
1F
100
AcDbEntity
  8
외형선
  6
Continuous
370
    15
100
AcDbLine
 10
-28.575
 20
0.2399530571549233
 30
0.0
 11
-28.575
 21
-0.7290795520264853
 31
0.0
  0
LINE
  5
2DB
330
1F
100
AcDbEntity
  8
0
  6
Continuous
 62
     1
370
    15
100
AcDbLine
 10
-42.86250000000003
 20
2.778124999999981
 30
0.0
 11
-42.8625
 21
2.516095998401118
 31
0.0
  0
LINE
  5
2DC
330
1F
100
AcDbEntity
  8
외형선
  6
Continuous
370
    15
100
AcDbLine
 10
-28.575
 20
-2.76774295157445
 30
0.0
 11
-28.575
 21
-2.778125000000004
 31
0.0
  0
SPLINE
  5
2DD
330
1F
100
AcDbEntity
  8
0
  6
Continuous
 62
     1
370
    15
100
AcDbSpline
210
0.0
220
0.0
230
1.0
 70
     8
 71
     3
 72
    12
 73
     8
 74
     0
 42
0.000000001
 43
0.00000001
 40
0.0
 40
0.0
 40
0.0
 40
0.0
 40
0.0772914376460956
 40
0.3078843415375698
 40
0.5385229696724959
 40
0.7692230152950503
 40
1.0
 40
1.0
 40
1.0
 40
1.0
 10
-37.41070993213036
 20
-2.757033875704325
 30
0.0
 10
-37.55115566270995
 20
-2.762832472322632
 30
0.0
 10
-38.11061014561464
 20
-2.785930724290001
 30
0.0
 10
-39.08918573557567
 20
-2.632601732726588
 30
0.0
 10
-40.34657268106706
 20
-2.303860420010738
 30
0.0
 10
-41.60435559294781
 20
-1.811422589138043
 30
0.0
 10
-42.44307191973199
 20
-1.389038532319051
 30
0.0
 10
-42.86250000000003
 20
-1.177811293227751
 30
0.0
  0
LINE
  5
2DE
330
1F
100
AcDbEntity
  8
0
  6
Continuous
 62
     1
370
    15
100
AcDbLine
 10
-42.8625
 20
-0.2380334984011549
 30
0.0
 11
-42.8625
 21
-1.177811293227751
 31
0.0
  0
SPLINE
  5
2DF
330
1F
100
AcDbEntity
  8
0
  6
Continuous
 62
     1
370
    15
100
AcDbSpline
210
0.0
220
0.0
230
1.0
 70
     8
 71
     3
 72
    11
 73
     7
 74
     0
 42
0.000000001
 43
0.00000001
 40
0.0
 40
0.0
 40
0.0
 40
0.0
 40
0.3160101151102503
 40
0.6320180754427691
 40
0.9480247501497256
 40
0.9999999999999999
 40
0.9999999999999999
 40
0.9999999999999999
 40
0.9999999999999999
 10
-28.575
 20
2.680750179043517
 30
0.0
 10
-29.0194588840249
 20
2.728970015559356
 30
0.0
 10
-29.90837362144349
 20
2.825409359794504
 30
0.0
 10
-31.24173989260144
 20
2.685244382483244
 30
0.0
 10
-32.20374900604351
 20
2.488443635330646
 30
0.0
 10
-32.7213032718311
 20
2.291239561158747
 30
0.0
 10
-32.79440472187581
 20
2.263385663066035
 30
0.0
  0
SPLINE
  5
2E0
330
1F
100
AcDbEntity
  8
외형선
  6
Continuous
370
    15
100
AcDbSpline
210
0.0
220
0.0
230
1.0
 70
    24
 71
     3
 72
    20
 73
    16
 74
     0
 42
0.000000001
 43
0.00000001
 40
0.0
 40
0.0
 40
0.0
 40
0.0
 40
0.0480965291418402
 40
0.1285356827428944
 40
0.2067078385303576
 40
0.2871469921314155
 40
0.3653191479189514
 40
0.4457583015199312
 40
0.5239304573073381
 40
0.6043696109083341
 40
0.6825417666958522
 40
0.7629809202969694
 40
0.8411530760842607
 40
0.9215922296854901
 40
1.0
 40
1.0
 40
1.0
 40
1.0
 10
-28.575
 20
0.1196542418090663
 30
0.0
 10
-28.575
 20
0.1200036828022262
 30
0.0
 10
-28.575
 20
0.1209375472085686
 30
0.0
 10
-28.575
 20
0.1753036045705784
 30
0.0
 10
-28.57500000000003
 20
0.2763780793869119
 30
0.0
 10
-28.57499999999995
 20
0.4210377209141673
 30
0.0
 10
-28.57500000000009
 20
0.6052498772386603
 30
0.0
 10
-28.57500000000006
 20
0.8211653778355821
 30
0.0
 10
-28.575
 20
1.066373218645499
 30
0.0
 10
-28.57499999999995
 20
1.329580179677463
 30
0.0
 10
-28.57500000000006
 20
1.608015919764607
 30
0.0
 10
-28.57500000000006
 20
1.888957069553297
 30
0.0
 10
-28.57499999999997
 20
2.168887907460965
 30
0.0
 10
-28.57500000000006
 20
2.437420487021161
 30
0.0
 10
-28.57500000000003
 20
2.600334747582028
 30
0.0
 10
-28.57500000000003
 20
2.680750179043518
 30
0.0
  0
SPLINE
  5
2E1
330
1F
100
AcDbEntity
  8
0
  6
Continuous
 62
     1
370
    15
100
AcDbSpline
210
0.0
220
0.0
230
1.0
 70
     8
 71
     3
 72
     9
 73
     5
 74
     0
 42
0.000000001
 43
0.00000001
 40
0.0
 40
0.0
 40
0.0
 40
0.0
 40
0.5322475431936969
 40
1.0
 40
1.0
 40
1.0
 40
1.0
 10
-42.8625
 20
-2.778125000000023
 30
0.0
 10
-42.41785128793724
 20
-2.728570817528464
 30
0.0
 10
-41.58243416342653
 20
-2.654661820551005
 30
0.0
 10
-40.74702779275272
 20
-2.394513281112801
 30
0.0
 10
-40.35626441043836
 20
-2.272828162656009
 30
0.0
  0
LINE
  5
2E2
330
1F
100
AcDbEntity
  8
0
  6
Continuous
 62
     1
370
    15
100
AcDbLine
 10
-42.8625
 20
-1.170450988471609
 30
0.0
 11
-42.8625
 21
-2.778125000000023
 31
0.0
  0
LINE
  5
2E3
330
1F
100
AcDbEntity
  8
외형선
  6
Continuous
370
    15
100
AcDbLine
 10
-28.575
 20
2.778124999999998
 30
0.0
 11
-28.57500000000003
 21
2.680750179043518
 31
0.0
  0
LINE
  5
2E4
330
1F
100
AcDbEntity
  8
외형선
  6
Continuous
370
    15
100
AcDbLine
 10
-27.575
 20
-0.0000000000000032
 30
0.0
 11
-27.575
 21
-2.778125000000004
 31
0.0
  0
LINE
  5
2E5
330
1F
100
AcDbEntity
  8
외형선
  6
Continuous
370
    15
100
AcDbLine
 10
-27.575
 20
2.778124999999998
 30
0.0
 11
-27.575
 21
-0.0000000000000032
 31
0.0
  0
LINE
  5
2E6
330
1F
100
AcDbEntity
  8
외형선
  6
Continuous
370
    15
100
AcDbLine
 10
-20.16921167873049
 20
-0.0000000000000042
 30
0.0
 11
-20.16921167873049
 21
-4.762500000000016
 31
0.0
  0
LINE
  5
2E7
330
1F
100
AcDbEntity
  8
외형선
  6
Continuous
370
    15
100
AcDbLine
 10
-20.16921167873049
 20
4.762500000000014
 30
0.0
 11
-20.16921167873049
 21
-0.0000000000000042
 31
0.0
  0
SPLINE
  5
2E8
330
1F
100
AcDbEntity
  8
외형선
  6
Continuous
370
    15
100
AcDbSpline
210
0.0
220
0.0
230
1.0
 70
    24
 71
     3
 72
    14
 73
    10
 74
     0
 42
0.000000001
 43
0.00000001
 40
0.0
 40
0.0
 40
0.0
 40
0.0
 40
0.1286864858994951
 40
0.2871718696042606
 40
0.4456572533090255
 40
0.6041426370137885
 40
0.7626280207185575
 40
0.9211134044233177
 40
1.0
 40
1.0
 40
1.0
 40
1.0
 10
-28.575
 20
2.680750179043514
 30
0.0
 10
-28.575
 20
2.54629540627472
 30
0.0
 10
-28.575
 20
2.246251246988357
 30
0.0
 10
-28.57499999999992
 20
1.710639323778874
 30
0.0
 10
-28.5750000000002
 20
1.15472922792382
 30
0.0
 10
-28.57499999999997
 20
0.6649515099306894
 30
0.0
 10
-28.57499999999997
 20
0.31126006882812
 30
0.0
 10
-28.575
 20
0.1242516051725552
 30
0.0
 10
-28.575
 20
0.1344461660209811
 30
0.0
 10
-28.575
 20
0.1378341573128182
 30
0.0
  0
SPLINE
  5
2E9
330
1F
100
AcDbEntity
  8
외형선
  6
Continuous
370
    15
100
AcDbSpline
210
0.0
220
0.0
230
1.0
 70
     8
 71
     3
 72
     8
 73
     4
 74
     0
 42
0.000000001
 43
0.00000001
 40
0.0
 40
0.0
 40
0.0
 40
0.0
 40
1.0
 40
1.0
 40
1.0
 40
1.0
 10
-28.575
 20
2.680750179043514
 30
0.0
 10
-28.40820755933466
 20
2.65555308599954
 30
0.0
 10
-28.24103355128095
 20
2.625521235354193
 30
0.0
 10
-28.07482066581481
 20
2.590912341802109
 30
0.0
  0
SPLINE
  5
2EA
330
1F
100
AcDbEntity
  8
외형선
  6
Continuous
370
    15
100
AcDbSpline
210
0.0
220
0.0
230
1.0
 70
     8
 71
     3
 72
     8
 73
     4
 74
     0
 42
0.000000001
 43
0.00000001
 40
0.0
 40
0.0
 40
0.0
 40
0.0
 40
1.0
 40
1.0
 40
1.0
 40
1.0
 10
-28.57500000000003
 20
0.2399530571547134
 30
0.0
 10
-28.40820755933468
 20
0.1442994669823199
 30
0.0
 10
-28.24103355128098
 20
0.0481425505418857
 30
0.0
 10
-28.07482066581484
 20
-0.0477444063812823
 30
0.0
  0
SPLINE
  5
2EB
330
1F
100
AcDbEntity
  8
외형선
  6
Continuous
370
    15
100
AcDbSpline
210
0.0
220
0.0
230
1.0
 70
     8
 71
     3
 72
     8
 73
     4
 74
     0
 42
0.000000001
 43
0.00000001
 40
0.0
 40
0.0
 40
0.0
 40
0.0
 40
1.0
 40
1.0
 40
1.0
 40
1.0
 10
-28.57500000000003
 20
-2.767742951573922
 30
0.0
 10
-28.40820755933468
 20
-2.776035763367241
 30
0.0
 10
-28.24103355128098
 20
-2.779362847008195
 30
0.0
 10
-28.07482066581484
 20
-2.777714705884015
 30
0.0
  0
LINE
  5
2EC
330
1F
100
AcDbEntity
  8
외형선
  6
Continuous
370
    15
100
AcDbLine
 10
-28.07482066581478
 20
-1.002550836461176
 30
0.0
 11
-28.07482066581478
 21
-2.778125000000003
 31
0.0
  0
SPLINE
  5
2ED
330
1F
100
AcDbEntity
  8
외형선
  6
Continuous
370
    15
100
AcDbSpline
210
0.0
220
0.0
230
1.0
 70
     8
 71
     3
 72
     8
 73
     4
 74
     0
 42
0.000000001
 43
0.00000001
 40
0.0
 40
0.0
 40
0.0
 40
0.0
 40
1.0
 40
1.0
 40
1.0
 40
1.0
 10
-28.575
 20
-0.7290795520264874
 30
0.0
 10
-28.40820755933466
 20
-0.8217266596037881
 30
0.0
 10
-28.24103355128095
 20
-0.9131340444898084
 30
0.0
 10
-28.07482066581481
 20
-1.002572567309957
 30
0.0
  0
LINE
  5
2EE
330
1F
100
AcDbEntity
  8
외형선
  6
Continuous
370
    15
100
AcDbLine
 10
-28.07482066581478
 20
2.590920750608936
 30
0.0
 11
-28.07482066581478
 21
-0.0477623995514467
 31
0.0
  0
LINE
  5
2EF
330
1F
100
AcDbEntity
  8
외형선
  6
Continuous
370
    15
100
AcDbLine
 10
-28.15768323129906
 20
2.777446787305744
 30
0.0
 11
-28.07482066581484
 21
2.777714705884009
 31
0.0
  0
LINE
  5
2F0
330
1F
100
AcDbEntity
  8
외형선
  6
Continuous
370
    15
100
AcDbLine
 10
-28.07482066581478
 20
2.778124999999997
 30
0.0
 11
-28.07482066581478
 21
2.77771439655233
 31
0.0
  0
SPLINE
  5
2F1
330
1F
100
AcDbEntity
  8
외형선
  6
Continuous
370
    15
100
AcDbSpline
210
0.0
220
0.0
230
1.0
 70
    24
 71
     3
 72
    12
 73
     8
 74
     0
 42
0.000000001
 43
0.00000001
 40
0.0
 40
0.0
 40
0.0
 40
0.0
 40
0.0737491734687499
 40
0.3243038324968755
 40
0.5748584915249868
 40
0.8254131505527584
 40
1.0
 40
1.0
 40
1.0
 40
1.0
 10
-28.57500000000003
 20
-0.7883147725182084
 30
0.0
 10
-28.57500000000003
 20
-0.8153707258442016
 30
0.0
 10
-28.57499999999997
 20
-0.9343462877763528
 30
0.0
 10
-28.575
 20
-1.298545981783306
 30
0.0
 10
-28.575
 20
-1.824089938681283
 30
0.0
 10
-28.575
 20
-2.342646959482174
 30
0.0
 10
-28.57500000000003
 20
-2.643993308937292
 30
0.0
 10
-28.57500000000003
 20
-2.76774295157396
 30
0.0
  0
LINE
  5
34A
330
1F
100
AcDbEntity
  8
외형선
  6
Continuous
370
    15
100
AcDbLine
 10
-3.56870000000011
 20
3.492500000000021
 30
0.0
 11
3.568700000000018
 21
3.492500000000021
 31
0.0
  0
LINE
  5
34B
330
1F
100
AcDbEntity
  8
외형선
  6
Continuous
370
    15
100
AcDbLine
 10
-3.56870000000011
 20
3.492500000000021
 30
0.0
 11
-4.838700000000092
 21
4.762500000000003
 31
0.0
  0
LINE
  5
34C
330
1F
100
AcDbEntity
  8
외형선
  6
Continuous
370
    15
100
AcDbLine
 10
3.568700000000018
 20
3.492500000000021
 30
0.0
 11
4.838700000000113
 21
4.762500000000003
 31
0.0
  0
LINE
  5
34E
330
1F
100
AcDbEntity
  8
외형선
  6
Continuous
370
    15
100
AcDbLine
 10
-4.838700000000091
 20
4.762500000000002
 30
0.0
 11
-20.16921167873048
 21
4.762500000000002
 31
0.0
  0
ENDSEC
  0
SECTION
  2
OBJECTS
  0
DICTIONARY
  5
C
330
0
100
AcDbDictionary
281
     1
  3
ACAD_GROUP
350
D
  3
ACAD_IMAGE_VARS
350
155
  3
ACAD_LAYOUT
350
1A
  3
ACAD_MLINESTYLE
350
17
  3
ACAD_PLOTSETTINGS
350
19
  3
ACAD_PLOTSTYLENAME
350
E
  3
ACAD_SCALELIST
350
47
  3
APPDATA
350
153
  3
DWGPROPS
350
374
  0
DICTIONARY
  5
20F
330
2
100
AcDbDictionary
280
     1
281
     1
  3
ACAD_LAYERSTATES
360
210
  0
DICTIONARY
  5
372
330
1F
100
AcDbDictionary
280
     1
281
     1
  3
DIM_BOUNDING_BOXES_V1
360
373
  0
DICTIONARY
  5
D
102
{ACAD_REACTORS
330
C
102
}
330
C
100
AcDbDictionary
281
     1
  0
RASTERVARIABLES
  5
155
102
{ACAD_REACTORS
330
C
102
}
330
C
100
AcDbRasterVariables
 90
        0
 70
     1
 71
     1
 72
     1
  0
DICTIONARY
  5
1A
102
{ACAD_REACTORS
330
C
102
}
330
C
100
AcDbDictionary
281
     1
  3
Layout1
350
1E
  3
Layout2
350
26
  3
Model
350
22
  0
DICTIONARY
  5
17
102
{ACAD_REACTORS
330
C
102
}
330
C
100
AcDbDictionary
281
     1
  3
Standard
350
18
  0
DICTIONARY
  5
19
102
{ACAD_REACTORS
330
C
102
}
330
C
100
AcDbDictionary
281
     1
  0
ACDBDICTIONARYWDFLT
  5
E
102
{ACAD_REACTORS
330
C
102
}
330
C
100
AcDbDictionary
281
     1
  3
Normal
350
F
100
AcDbDictionaryWithDefault
340
F
  0
DICTIONARY
  5
47
102
{ACAD_REACTORS
330
C
102
}
330
C
100
AcDbDictionary
281
     1
  3
A0
350
48
  3
A1
350
49
  3
A2
350
4A
  3
A3
350
4B
  3
A4
350
4C
  3
A5
350
4D
  3
A6
350
4E
  3
A7
350
4F
  3
A8
350
50
  3
A9
350
51
  3
B0
350
52
  3
B1
350
53
  3
B2
350
54
  3
B3
350
55
  3
B4
350
56
  3
B5
350
57
  3
B6
350
58
  3
B7
350
59
  3
B8
350
5A
  3
B9
350
5B
  3
C0
350
5C
  3
C1
350
5D
  3
C2
350
5E
  3
C3
350
5F
  3
C4
350
60
  3
C5
350
61
  3
C6
350
62
  3
C7
350
63
  3
C8
350
64
  3
C9
350
65
  3
D0
350
66
  3
D1
350
67
  3
D2
350
68
  0
DICTIONARY
  5
153
102
{ACAD_REACTORS
330
C
102
}
330
C
100
AcDbDictionary
281
     1
  0
XRECORD
  5
374
102
{ACAD_REACTORS
330
C
102
}
330
C
100
AcDbXrecord
280
     1
  1
DWGPROPS COOKIE
  2

  3

  4

  6

  7

  8
12011056
  9

300
=
301
=
302
=
303
=
304
=
305
=
306
=
307
=
308
=
309
=
 40
0.0
 41
2458313.125660197
 42
2459719.276085417
  1

 90
        0
  0
DICTIONARY
  5
210
102
{ACAD_REACTORS
330
20F
102
}
330
20F
100
AcDbDictionary
281
     1
  0
DICTIONARY
  5
373
102
{ACAD_REACTORS
330
372
102
}
330
372
100
AcDbDictionary
281
     1
  0
LAYOUT
  5
1E
102
{ACAD_REACTORS
330
1A
102
}
330
1A
100
AcDbPlotSettings
  1

  2
none_device
  4

  6

 40
0.0
 41
0.0
 42
0.0
 43
0.0
 44
0.0
 45
0.0
 46
0.0
 47
0.0
 48
0.0
 49
0.0
140
0.0
141
0.0
142
1.0
143
1.0
 70
   688
 72
     1
 73
     0
 74
     5
  7

 75
    16
147
1.0
148
0.0
149
0.0
100
AcDbLayout
  1
Layout1
 70
     1
 71
     1
 10
0.0
 20
0.0
 11
420.0
 21
297.0
 12
0.0
 22
0.0
 32
0.0
 14
1.000000000000000E+20
 24
1.000000000000000E+20
 34
1.000000000000000E+20
 15
-1.000000000000000E+20
 25
-1.000000000000000E+20
 35
-1.000000000000000E+20
146
0.0
 13
0.0
 23
0.0
 33
0.0
 16
1.0
 26
0.0
 36
0.0
 17
0.0
 27
1.0
 37
0.0
 76
     0
330
1B
  0
LAYOUT
  5
26
102
{ACAD_REACTORS
330
1A
102
}
330
1A
100
AcDbPlotSettings
  1

  2
none_device
  4

  6

 40
0.0
 41
0.0
 42
0.0
 43
0.0
 44
0.0
 45
0.0
 46
0.0
 47
0.0
 48
0.0
 49
0.0
140
0.0
141
0.0
142
1.0
143
1.0
 70
   688
 72
     1
 73
     0
 74
     5
  7

 75
    16
147
1.0
148
0.0
149
0.0
100
AcDbLayout
  1
Layout2
 70
     1
 71
     2
 10
0.0
 20
0.0
 11
0.0
 21
0.0
 12
0.0
 22
0.0
 32
0.0
 14
0.0
 24
0.0
 34
0.0
 15
0.0
 25
0.0
 35
0.0
146
0.0
 13
0.0
 23
0.0
 33
0.0
 16
1.0
 26
0.0
 36
0.0
 17
0.0
 27
1.0
 37
0.0
 76
     0
330
23
  0
LAYOUT
  5
22
102
{ACAD_REACTORS
330
1A
102
}
330
1A
100
AcDbPlotSettings
  1

  2
none_device
  4
ANSI_A_(11.00_x_8.50_Inches)
  6

 40
6.35
 41
19.05
 42
6.35000508
 43
19.05000254
 44
279.4
 45
215.9
 46
87.93950234277877
 47
81.18178568188709
 48
0.0
 49
0.0
140
0.0
141
0.0
142
0.0582254657036114
143
1.0
 70
  1696
 72
     0
 73
     0
 74
     0
  7

 75
     0
147
0.0235690232323232
148
0.0
149
0.0
100
AcDbLayout
  1
Model
 70
     1
 71
     0
 10
0.0
 20
0.0
 11
420.0
 21
297.0
 12
0.0
 22
0.0
 32
0.0
 14
-60.63625000000015
 24
-39.99892507127611
 34
0.0
 15
81.41936447236121
 25
54.73332764256403
 35
0.0
146
0.0
 13
0.0
 23
0.0
 33
0.0
 16
1.0
 26
0.0
 36
0.0
 17
0.0
 27
1.0
 37
0.0
 76
     0
330
1F
331
29
  0
MLINESTYLE
  5
18
102
{ACAD_REACTORS
330
17
102
}
330
17
100
AcDbMlineStyle
  2
Standard
 70
     0
  3

 62
   256
 51
90.0
 52
90.0
 71
     2
 49
0.5
 62
   256
  6
BYLAYER
 49
-0.5
 62
   256
  6
BYLAYER
  0
ACDBPLACEHOLDER
  5
F
102
{ACAD_REACTORS
330
E
102
}
330
E
  0
SCALE
  5
48
102
{ACAD_REACTORS
330
47
102
}
330
47
100
AcDbScale
 70
     0
300
1:1
140
1.0
141
1.0
290
     1
  0
SCALE
  5
49
102
{ACAD_REACTORS
330
47
102
}
330
47
100
AcDbScale
 70
     0
300
1:2
140
1.0
141
2.0
290
     0
  0
SCALE
  5
4A
102
{ACAD_REACTORS
330
47
102
}
330
47
100
AcDbScale
 70
     0
300
1:4
140
1.0
141
4.0
290
     0
  0
SCALE
  5
4B
102
{ACAD_REACTORS
330
47
102
}
330
47
100
AcDbScale
 70
     0
300
1:5
140
1.0
141
5.0
290
     0
  0
SCALE
  5
4C
102
{ACAD_REACTORS
330
47
102
}
330
47
100
AcDbScale
 70
     0
300
1:8
140
1.0
141
8.0
290
     0
  0
SCALE
  5
4D
102
{ACAD_REACTORS
330
47
102
}
330
47
100
AcDbScale
 70
     0
300
1:10
140
1.0
141
10.0
290
     0
  0
SCALE
  5
4E
102
{ACAD_REACTORS
330
47
102
}
330
47
100
AcDbScale
 70
     0
300
1:16
140
1.0
141
16.0
290
     0
  0
SCALE
  5
4F
102
{ACAD_REACTORS
330
47
102
}
330
47
100
AcDbScale
 70
     0
300
1:20
140
1.0
141
20.0
290
     0
  0
SCALE
  5
50
102
{ACAD_REACTORS
330
47
102
}
330
47
100
AcDbScale
 70
     0
300
1:30
140
1.0
141
30.0
290
     0
  0
SCALE
  5
51
102
{ACAD_REACTORS
330
47
102
}
330
47
100
AcDbScale
 70
     0
300
1:40
140
1.0
141
40.0
290
     0
  0
SCALE
  5
52
102
{ACAD_REACTORS
330
47
102
}
330
47
100
AcDbScale
 70
     0
300
1:50
140
1.0
141
50.0
290
     0
  0
SCALE
  5
53
102
{ACAD_REACTORS
330
47
102
}
330
47
100
AcDbScale
 70
     0
300
1:100
140
1.0
141
100.0
290
     0
  0
SCALE
  5
54
102
{ACAD_REACTORS
330
47
102
}
330
47
100
AcDbScale
 70
     0
300
2:1
140
2.0
141
1.0
290
     0
  0
SCALE
  5
55
102
{ACAD_REACTORS
330
47
102
}
330
47
100
AcDbScale
 70
     0
300
4:1
140
4.0
141
1.0
290
     0
  0
SCALE
  5
56
102
{ACAD_REACTORS
330
47
102
}
330
47
100
AcDbScale
 70
     0
300
8:1
140
8.0
141
1.0
290
     0
  0
SCALE
  5
57
102
{ACAD_REACTORS
330
47
102
}
330
47
100
AcDbScale
 70
     0
300
10:1
140
10.0
141
1.0
290
     0
  0
SCALE
  5
58
102
{ACAD_REACTORS
330
47
102
}
330
47
100
AcDbScale
 70
     0
300
100:1
140
100.0
141
1.0
290
     0
  0
SCALE
  5
59
102
{ACAD_REACTORS
330
47
102
}
330
47
100
AcDbScale
 70
     0
300
1/128" = 1'-0"
140
0.0078125
141
12.0
290
     0
  0
SCALE
  5
5A
102
{ACAD_REACTORS
330
47
102
}
330
47
100
AcDbScale
 70
     0
300
1/64" = 1'-0"
140
0.015625
141
12.0
290
     0
  0
SCALE
  5
5B
102
{ACAD_REACTORS
330
47
102
}
330
47
100
AcDbScale
 70
     0
300
1/32" = 1'-0"
140
0.03125
141
12.0
290
     0
  0
SCALE
  5
5C
102
{ACAD_REACTORS
330
47
102
}
330
47
100
AcDbScale
 70
     0
300
1/16" = 1'-0"
140
0.0625
141
12.0
290
     0
  0
SCALE
  5
5D
102
{ACAD_REACTORS
330
47
102
}
330
47
100
AcDbScale
 70
     0
300
3/32" = 1'-0"
140
0.09375
141
12.0
290
     0
  0
SCALE
  5
5E
102
{ACAD_REACTORS
330
47
102
}
330
47
100
AcDbScale
 70
     0
300
1/8" = 1'-0"
140
0.125
141
12.0
290
     0
  0
SCALE
  5
5F
102
{ACAD_REACTORS
330
47
102
}
330
47
100
AcDbScale
 70
     0
300
3/16" = 1'-0"
140
0.1875
141
12.0
290
     0
  0
SCALE
  5
60
102
{ACAD_REACTORS
330
47
102
}
330
47
100
AcDbScale
 70
     0
300
1/4" = 1'-0"
140
0.25
141
12.0
290
     0
  0
SCALE
  5
61
102
{ACAD_REACTORS
330
47
102
}
330
47
100
AcDbScale
 70
     0
300
3/8" = 1'-0"
140
0.375
141
12.0
290
     0
  0
SCALE
  5
62
102
{ACAD_REACTORS
330
47
102
}
330
47
100
AcDbScale
 70
     0
300
1/2" = 1'-0"
140
0.5
141
12.0
290
     0
  0
SCALE
  5
63
102
{ACAD_REACTORS
330
47
102
}
330
47
100
AcDbScale
 70
     0
300
3/4" = 1'-0"
140
0.75
141
12.0
290
     0
  0
SCALE
  5
64
102
{ACAD_REACTORS
330
47
102
}
330
47
100
AcDbScale
 70
     0
300
1" = 1'-0"
140
1.0
141
12.0
290
     0
  0
SCALE
  5
65
102
{ACAD_REACTORS
330
47
102
}
330
47
100
AcDbScale
 70
     0
300
1-1/2" = 1'-0"
140
1.5
141
12.0
290
     0
  0
SCALE
  5
66
102
{ACAD_REACTORS
330
47
102
}
330
47
100
AcDbScale
 70
     0
300
3" = 1'-0"
140
3.0
141
12.0
290
     0
  0
SCALE
  5
67
102
{ACAD_REACTORS
330
47
102
}
330
47
100
AcDbScale
 70
     0
300
6" = 1'-0"
140
6.0
141
12.0
290
     0
  0
SCALE
  5
68
102
{ACAD_REACTORS
330
47
102
}
330
47
100
AcDbScale
 70
     0
300
1'-0" = 1'-0"
140
12.0
141
12.0
290
     0
  0
ENDSEC
  0
EOF
