  0
SECTION
  2
HEADER
  9
$ACADVER
  1
AC1015
  9
$ACADMAINTVER
 70
     6
  9
$DWGCODEPAGE
  3
ANSI_949
  9
$INSBASE
 10
0.0
 20
0.0
 30
0.0
  9
$EXTMIN
 10
-57.46125000000013
 20
-39.99892507127611
 30
0.0
  9
$EXTMAX
 10
81.4193644723612
 20
53.94249658553842
 30
0.0
  9
$LIMMIN
 10
0.0
 20
0.0
  9
$LIMMAX
 10
420.0
 20
297.0
  9
$ORTHOMODE
 70
     1
  9
$REGENMODE
 70
     1
  9
$FILLMODE
 70
     1
  9
$QTEXTMODE
 70
     0
  9
$MIRRTEXT
 70
     1
  9
$LTSCALE
 40
1.0
  9
$ATTMODE
 70
     1
  9
$TEXTSIZE
 40
3.5
  9
$TRACEWID
 40
1.0
  9
$TEXTSTYLE
  7
Standard
  9
$CLAYER
  8
0
  9
$CELTYPE
  6
ByLayer
  9
$CECOLOR
 62
   256
  9
$CELTSCALE
 40
1.0
  9
$DISPSILH
 70
     0
  9
$DIMSCALE
 40
1.0
  9
$DIMASZ
 40
3.302
  9
$DIMEXO
 40
1.0
  9
$DIMDLI
 40
3.75
  9
$DIMRND
 40
0.0
  9
$DIMDLE
 40
0.0
  9
$DIMEXE
 40
1.0
  9
$DIMTP
 40
0.0
  9
$DIMTM
 40
0.0
  9
$DIMTXT
 40
3.5
  9
$DIMCEN
 40
2.5
  9
$DIMTSZ
 40
0.0
  9
$DIMTOL
 70
     0
  9
$DIMLIM
 70
     0
  9
$DIMTIH
 70
     1
  9
$DIMTOH
 70
     1
  9
$DIMSE1
 70
     0
  9
$DIMSE2
 70
     0
  9
$DIMTAD
 70
     1
  9
$DIMZIN
 70
     0
  9
$DIMBLK
  1

  9
$DIMASO
 70
     1
  9
$DIMSHO
 70
     1
  9
$DIMPOST
  1

  9
$DIMAPOST
  1

  9
$DIMALT
 70
     0
  9
$DIMALTD
 70
     3
  9
$DIMALTF
 40
0.0393700787401575
  9
$DIMLFAC
 40
1.0
  9
$DIMTOFL
 70
     1
  9
$DIMTVP
 40
0.0
  9
$DIMTIX
 70
     0
  9
$DIMSOXD
 70
     0
  9
$DIMSAH
 70
     0
  9
$DIMBLK1
  1

  9
$DIMBLK2
  1

  9
$DIMSTYLE
  2
ISO-25
  9
$DIMCLRD
 70
     0
  9
$DIMCLRE
 70
     0
  9
$DIMCLRT
 70
     0
  9
$DIMTFAC
 40
1.0
  9
$DIMGAP
 40
1.524
  9
$DIMJUST
 70
     0
  9
$DIMSD1
 70
     0
  9
$DIMSD2
 70
     0
  9
$DIMTOLJ
 70
     0
  9
$DIMTZIN
 70
     0
  9
$DIMALTZ
 70
     0
  9
$DIMALTTZ
 70
     0
  9
$DIMUPT
 70
     0
  9
$DIMDEC
 70
     2
  9
$DIMTDEC
 70
     2
  9
$DIMALTU
 70
     2
  9
$DIMALTTD
 70
     3
  9
$DIMTXSTY
  7
Standard
  9
$DIMAUNIT
 70
     0
  9
$DIMADEC
 70
     2
  9
$DIMALTRND
 40
0.0
  9
$DIMAZIN
 70
     0
  9
$DIMDSEP
 70
    44
  9
$DIMATFIT
 70
     3
  9
$DIMFRAC
 70
     0
  9
$DIMLDRBLK
  1

  9
$DIMLUNIT
 70
     2
  9
$DIMLWD
 70
    -2
  9
$DIMLWE
 70
    -2
  9
$DIMTMOVE
 70
     0
  9
$LUNITS
 70
     2
  9
$LUPREC
 70
     2
  9
$SKETCHINC
 40
1.0
  9
$FILLETRAD
 40
10.0
  9
$AUNITS
 70
     0
  9
$AUPREC
 70
     2
  9
$MENU
  1
.
  9
$ELEVATION
 40
0.0
  9
$PELEVATION
 40
0.0
  9
$THICKNESS
 40
0.0
  9
$LIMCHECK
 70
     0
  9
$CHAMFERA
 40
0.0
  9
$CHAMFERB
 40
0.0
  9
$CHAMFERC
 40
0.0
  9
$CHAMFERD
 40
0.0
  9
$SKPOLY
 70
     0
  9
$TDCREATE
 40
2458313.500236968
  9
$TDUCREATE
 40
2458313.125236968
  9
$TDUPDATE
 40
2459719.650485012
  9
$TDUUPDATE
 40
2459719.275485012
  9
$TDINDWG
 40
0.0004691088
  9
$TDUSRTIMER
 40
0.0001687847
  9
$USRTIMER
 70
     1
  9
$ANGBASE
 50
0.0
  9
$ANGDIR
 70
     0
  9
$PDMODE
 70
     0
  9
$PDSIZE
 40
-1.0
  9
$PLINEWID
 40
0.0
  9
$SPLFRAME
 70
     0
  9
$SPLINETYPE
 70
     6
  9
$SPLINESEGS
 70
     8
  9
$HANDSEED
  5
39D
  9
$SURFTAB1
 70
     6
  9
$SURFTAB2
 70
     6
  9
$SURFTYPE
 70
     6
  9
$SURFU
 70
     6
  9
$SURFV
 70
     6
  9
$UCSBASE
  2

  9
$UCSNAME
  2

  9
$UCSORG
 10
0.0
 20
0.0
 30
0.0
  9
$UCSXDIR
 10
1.0
 20
0.0
 30
0.0
  9
$UCSYDIR
 10
0.0
 20
1.0
 30
0.0
  9
$UCSORTHOREF
  2

  9
$UCSORTHOVIEW
 70
     0
  9
$UCSORGTOP
 10
0.0
 20
0.0
 30
0.0
  9
$UCSORGBOTTOM
 10
0.0
 20
0.0
 30
0.0
  9
$UCSORGLEFT
 10
0.0
 20
0.0
 30
0.0
  9
$UCSORGRIGHT
 10
0.0
 20
0.0
 30
0.0
  9
$UCSORGFRONT
 10
0.0
 20
0.0
 30
0.0
  9
$UCSORGBACK
 10
0.0
 20
0.0
 30
0.0
  9
$PUCSBASE
  2

  9
$PUCSNAME
  2

  9
$PUCSORG
 10
0.0
 20
0.0
 30
0.0
  9
$PUCSXDIR
 10
1.0
 20
0.0
 30
0.0
  9
$PUCSYDIR
 10
0.0
 20
1.0
 30
0.0
  9
$PUCSORTHOREF
  2

  9
$PUCSORTHOVIEW
 70
     0
  9
$PUCSORGTOP
 10
0.0
 20
0.0
 30
0.0
  9
$PUCSORGBOTTOM
 10
0.0
 20
0.0
 30
0.0
  9
$PUCSORGLEFT
 10
0.0
 20
0.0
 30
0.0
  9
$PUCSORGRIGHT
 10
0.0
 20
0.0
 30
0.0
  9
$PUCSORGFRONT
 10
0.0
 20
0.0
 30
0.0
  9
$PUCSORGBACK
 10
0.0
 20
0.0
 30
0.0
  9
$USERI1
 70
     0
  9
$USERI2
 70
     0
  9
$USERI3
 70
     0
  9
$USERI4
 70
     0
  9
$USERI5
 70
     0
  9
$USERR1
 40
0.0
  9
$USERR2
 40
0.0
  9
$USERR3
 40
0.0
  9
$USERR4
 40
0.0
  9
$USERR5
 40
0.0
  9
$WORLDVIEW
 70
     1
  9
$SHADEDGE
 70
     3
  9
$SHADEDIF
 70
    70
  9
$TILEMODE
 70
     1
  9
$MAXACTVP
 70
    64
  9
$PINSBASE
 10
0.0
 20
0.0
 30
0.0
  9
$PLIMCHECK
 70
     0
  9
$PEXTMIN
 10
1.000000000000000E+20
 20
1.000000000000000E+20
 30
1.000000000000000E+20
  9
$PEXTMAX
 10
-1.000000000000000E+20
 20
-1.000000000000000E+20
 30
-1.000000000000000E+20
  9
$PLIMMIN
 10
0.0
 20
0.0
  9
$PLIMMAX
 10
0.0
 20
0.0
  9
$UNITMODE
 70
     0
  9
$VISRETAIN
 70
     1
  9
$PLINEGEN
 70
     0
  9
$PSLTSCALE
 70
     1
  9
$TREEDEPTH
 70
  3020
  9
$CMLSTYLE
  2
Standard
  9
$CMLJUST
 70
     0
  9
$CMLSCALE
 40
20.0
  9
$PROXYGRAPHICS
 70
     1
  9
$MEASUREMENT
 70
     1
  9
$CELWEIGHT
370
    -1
  9
$ENDCAPS
280
     0
  9
$JOINSTYLE
280
     0
  9
$LWDISPLAY
290
     1
  9
$INSUNITS
 70
     4
  9
$HYPERLINKBASE
  1

  9
$STYLESHEET
  1

  9
$XEDIT
290
     1
  9
$CEPSNTYPE
380
     0
  9
$PSTYLEMODE
290
     1
  9
$FINGERPRINTGUID
  2
{951B8461-AD71-4159-8E18-1524C9FCFE4F}
  9
$VERSIONGUID
  2
{FAEB1C32-E019-11D5-929B-00C0DF256EC4}
  9
$EXTNAMES
290
     1
  9
$PSVPSCALE
 40
0.0
  9
$OLESTARTUP
290
     0
  0
ENDSEC
  0
SECTION
  2
CLASSES
  0
CLASS
  1
ACDBDICTIONARYWDFLT
  2
AcDbDictionaryWithDefault
  3
ObjectDBX Classes
 90
        0
280
     0
281
     0
  0
CLASS
  1
VISUALSTYLE
  2
AcDbVisualStyle
  3
ObjectDBX Classes
 90
     4095
280
     0
281
     0
  0
CLASS
  1
MATERIAL
  2
AcDbMaterial
  3
ObjectDBX Classes
 90
     1153
280
     0
281
     0
  0
CLASS
  1
SCALE
  2
AcDbScale
  3
ObjectDBX Classes
 90
     1153
280
     0
281
     0
  0
CLASS
  1
SUN
  2
AcDbSun
  3
SCENEOE
 90
     1153
280
     0
281
     0
  0
CLASS
  1
ACDBPLACEHOLDER
  2
AcDbPlaceHolder
  3
ObjectDBX Classes
 90
        0
280
     0
281
     0
  0
CLASS
  1
LAYOUT
  2
AcDbLayout
  3
ObjectDBX Classes
 90
        0
280
     0
281
     0
  0
CLASS
  1
TABLESTYLE
  2
AcDbTableStyle
  3
ObjectDBX Classes
 90
     4095
280
     0
281
     0
  0
CLASS
  1
MLEADERSTYLE
  2
AcDbMLeaderStyle
  3
ACDB_MLEADERSTYLE_CLASS
 90
     4095
280
     0
281
     0
  0
CLASS
  1
RASTERVARIABLES
  2
AcDbRasterVariables
  3
ISM
 90
        0
280
     0
281
     0
  0
ENDSEC
  0
SECTION
  2
TABLES
  0
TABLE
  2
VPORT
  5
8
330
0
100
AcDbSymbolTable
 70
     1
  0
VPORT
  5
29
330
8
100
AcDbSymbolTableRecord
100
AcDbViewportTableRecord
  2
*Active
 70
     0
 10
0.0
 20
0.0
 11
1.0
 21
1.0
 12
2.058717833027426
 22
7.65072691078246
 13
0.0
 23
0.0
 14
10.0
 24
10.0
 15
10.0
 25
10.0
 16
0.0
 26
0.0
 36
1.0
 17
0.0
 27
0.0
 37
0.0
 40
118.9390928014748
 41
1.519944979367263
 42
50.0
 43
0.0
 44
0.0
 50
0.0
 51
0.0
 71
    16
 72
  2000
 73
     1
 74
     3
 75
     0
 76
     0
 77
     0
 78
     0
281
     0
 65
     1
110
0.0
120
0.0
130
0.0
111
1.0
121
0.0
131
0.0
112
0.0
122
1.0
132
0.0
 79
     0
146
0.0
  0
ENDTAB
  0
TABLE
  2
LTYPE
  5
5
330
0
100
AcDbSymbolTable
 70
     6
  0
LTYPE
  5
14
330
5
100
AcDbSymbolTableRecord
100
AcDbLinetypeTableRecord
  2
ByBlock
 70
     0
  3

 72
    65
 73
     0
 40
0.0
  0
LTYPE
  5
15
330
5
100
AcDbSymbolTableRecord
100
AcDbLinetypeTableRecord
  2
ByLayer
 70
     0
  3

 72
    65
 73
     0
 40
0.0
  0
LTYPE
  5
16
330
5
100
AcDbSymbolTableRecord
100
AcDbLinetypeTableRecord
  2
Continuous
 70
     0
  3
Solid line
 72
    65
 73
     0
 40
0.0
  0
LTYPE
  5
6A
330
5
100
AcDbSymbolTableRecord
100
AcDbLinetypeTableRecord
  2
HIDDEN
 70
     0
  3
Hidden __ __ __ __ __ __ __ __ __ __ __ __ __ __
 72
    65
 73
     2
 40
1.905
 49
1.27
 74
     0
 49
-0.635
 74
     0
  0
LTYPE
  5
6B
330
5
100
AcDbSymbolTableRecord
100
AcDbLinetypeTableRecord
  2
PHANTOM
 70
     0
  3
Phantom ______  __  __  ______  __  __  ______
 72
    65
 73
     6
 40
12.7
 49
6.35
 74
     0
 49
-1.27
 74
     0
 49
1.27
 74
     0
 49
-1.27
 74
     0
 49
1.27
 74
     0
 49
-1.27
 74
     0
  0
LTYPE
  5
6C
330
5
100
AcDbSymbolTableRecord
100
AcDbLinetypeTableRecord
  2
CENTER
 70
     0
  3
Center ____ _ ____ _ ____ _ ____ _ ____ _ ____
 72
    65
 73
     4
 40
10.16
 49
6.35
 74
     0
 49
-1.27
 74
     0
 49
1.27
 74
     0
 49
-1.27
 74
     0
  0
LTYPE
  5
6D
330
5
100
AcDbSymbolTableRecord
100
AcDbLinetypeTableRecord
  2
CENTERX2
 70
     0
  3
Center (2x) ________  __  ________  __  _____
 72
    65
 73
     4
 40
20.32
 49
12.7
 74
     0
 49
-2.54
 74
     0
 49
2.54
 74
     0
 49
-2.54
 74
     0
  0
LTYPE
  5
6E
330
5
100
AcDbSymbolTableRecord
100
AcDbLinetypeTableRecord
  2
DOT2
 70
     0
  3
Dot (.5x) ........................................
 72
    65
 73
     2
 40
0.635
 49
0.0
 74
     0
 49
-0.635
 74
     0
  0
ENDTAB
  0
TABLE
  2
LAYER
  5
2
102
{ACAD_XDICTIONARY
360
17B
102
}
330
0
100
AcDbSymbolTable
 70
    18
  0
LAYER
  5
10
330
2
100
AcDbSymbolTableRecord
100
AcDbLayerTableRecord
  2
0
 70
     0
 62
     7
  6
Continuous
370
    -3
390
F
  0
LAYER
  5
6F
330
2
100
AcDbSymbolTableRecord
100
AcDbLayerTableRecord
  2
FORMAT
 70
     0
 62
     2
  6
Continuous
370
    -3
390
F
  0
LAYER
  5
70
330
2
100
AcDbSymbolTableRecord
100
AcDbLayerTableRecord
  2
외형선
 70
     0
 62
     4
  6
Continuous
370
    30
390
F
  0
LAYER
  5
71
330
2
100
AcDbSymbolTableRecord
100
AcDbLayerTableRecord
  2
숨은선
 70
     0
 62
     2
  6
HIDDEN
370
    15
390
F
  0
LAYER
  5
72
330
2
100
AcDbSymbolTableRecord
100
AcDbLayerTableRecord
  2
중심선
 70
     0
 62
     1
  6
CENTERX2
370
    -3
390
F
  0
LAYER
  5
73
330
2
100
AcDbSymbolTableRecord
100
AcDbLayerTableRecord
  2
파단선
 70
     0
 62
     4
  6
Continuous
370
    -3
390
F
  0
LAYER
  5
74
330
2
100
AcDbSymbolTableRecord
100
AcDbLayerTableRecord
  2
해칭선
 70
     0
 62
   100
  6
Continuous
370
    -3
390
F
  0
LAYER
  5
75
330
2
100
AcDbSymbolTableRecord
100
AcDbLayerTableRecord
  2
가는실선
 70
     0
 62
     4
  6
Continuous
370
    -3
390
F
  0
LAYER
  5
76
330
2
100
AcDbSymbolTableRecord
100
AcDbLayerTableRecord
  2
치수_보조선
 70
     0
 62
     4
  6
Continuous
370
    -3
390
F
  0
LAYER
  5
77
330
2
100
AcDbSymbolTableRecord
100
AcDbLayerTableRecord
  2
치수문자_일반주서
 70
     0
 62
     7
  6
Continuous
370
    15
390
F
  0
LAYER
  5
78
330
2
100
AcDbSymbolTableRecord
100
AcDbLayerTableRecord
  2
개별주서
 70
     0
 62
   100
  6
Continuous
370
    30
390
F
  0
LAYER
  5
79
330
2
100
AcDbSymbolTableRecord
100
AcDbLayerTableRecord
  2
중간선
 70
     0
 62
     2
  6
Continuous
370
    15
390
F
  0
LAYER
  5
7A
330
2
100
AcDbSymbolTableRecord
100
AcDbLayerTableRecord
  2
윤곽선
 70
     0
 62
     3
  6
Continuous
370
    40
390
F
  0
LAYER
  5
7B
330
2
100
AcDbSymbolTableRecord
100
AcDbLayerTableRecord
  2
중심마크
 70
     0
 62
   100
  6
Continuous
370
    30
390
F
  0
LAYER
  5
7C
330
2
100
AcDbSymbolTableRecord
100
AcDbLayerTableRecord
  2
가상선
 70
     0
 62
     4
  6
PHANTOM
370
    -3
390
F
  0
LAYER
  5
7D
330
2
100
AcDbSymbolTableRecord
100
AcDbLayerTableRecord
  2
특수지정선
 70
     0
 62
     5
  6
CENTERX2
370
    60
390
F
  0
LAYER
  5
7E
330
2
100
AcDbSymbolTableRecord
100
AcDbLayerTableRecord
  2
참조1
 70
     0
 62
    -4
  6
Continuous
370
    -3
390
F
  0
LAYER
  5
180
330
2
100
AcDbSymbolTableRecord
100
AcDbLayerTableRecord
  2
Defpoints
 70
     0
 62
     7
  6
Continuous
290
     0
370
    -3
390
F
  0
ENDTAB
  0
TABLE
  2
STYLE
  5
3
330
0
100
AcDbSymbolTable
 70
     2
  0
STYLE
  5
11
330
3
100
AcDbSymbolTableRecord
100
AcDbTextStyleTableRecord
  2
Standard
 70
     0
 40
0.0
 41
1.0
 50
0.0
 71
     0
 42
3.5
  3
txt
  4

  0
STYLE
  5
94
330
3
100
AcDbSymbolTableRecord
100
AcDbTextStyleTableRecord
  2
SLDTEXTSTYLE0
 70
     0
 40
0.0
 41
0.75
 50
0.0
 71
     0
 42
3.5
  3
TXT
  4

  0
ENDTAB
  0
TABLE
  2
VIEW
  5
6
330
0
100
AcDbSymbolTable
 70
     0
  0
ENDTAB
  0
TABLE
  2
UCS
  5
7
330
0
100
AcDbSymbolTable
 70
     0
  0
ENDTAB
  0
TABLE
  2
APPID
  5
9
330
0
100
AcDbSymbolTable
 70
     3
  0
APPID
  5
12
330
9
100
AcDbSymbolTableRecord
100
AcDbRegAppTableRecord
  2
ACAD
 70
     0
  0
APPID
  5
18C
330
9
100
AcDbSymbolTableRecord
100
AcDbRegAppTableRecord
  2
PE_URL
 70
     0
  0
APPID
  5
18D
330
9
100
AcDbSymbolTableRecord
100
AcDbRegAppTableRecord
  2
ACAD_DSTYLE_DIMRADIAL_EXTENSION
 70
     0
  0
ENDTAB
  0
TABLE
  2
DIMSTYLE
  5
A
330
0
100
AcDbSymbolTable
 70
     4
100
AcDbDimStyleTable
  0
DIMSTYLE
105
27
330
A
100
AcDbSymbolTableRecord
100
AcDbDimStyleTableRecord
  2
ISO-25
 70
     0
 41
2.5
 42
0.625
 43
3.75
 44
1.25
 73
     0
 74
     0
 77
     1
 78
     8
140
2.5
141
2.5
143
0.03937007874016
147
0.625
171
     3
172
     1
178
     0
271
     2
272
     2
274
     3
278
    44
283
     0
284
     8
340
11
  0
DIMSTYLE
105
D4
102
{ACAD_REACTORS
330
D3
330
110
330
E8
330
FD
102
}
330
A
100
AcDbSymbolTableRecord
100
AcDbDimStyleTableRecord
  2
SLDDIMSTYLE0
 70
     0
 41
3.302
 44
0.0
 45
0.000000001
 73
     0
 74
     0
 77
     1
 78
    12
 79
     3
140
3.5
143
0.0393700787401575
147
0.875
148
0.000000001
170
     1
172
     1
173
     1
178
     0
271
     2
272
     2
276
     2
284
    12
289
     0
340
94
  0
DIMSTYLE
105
E9
102
{ACAD_REACTORS
102
}
330
A
100
AcDbSymbolTableRecord
100
AcDbDimStyleTableRecord
  2
SLDDIMSTYLE1
 70
     0
 41
3.302
 44
0.0
 45
0.000000001
 73
     0
 74
     0
 77
     1
 78
    12
 79
     3
140
3.5
143
0.0393700787401575
147
0.875
148
0.000000001
170
     1
173
     1
178
     0
271
     2
272
     2
276
     2
284
    12
340
94
  0
DIMSTYLE
105
18B
102
{ACAD_REACTORS
102
}
330
A
100
AcDbSymbolTableRecord
100
AcDbDimStyleTableRecord
  2
SLDDIMSTYLE2
 70
     0
 41
3.302
 44
0.0
 45
0.000000001
 73
     0
 74
     0
 77
     1
 78
    12
 79
     3
140
3.5
147
0.875
172
     1
173
     1
178
     0
271
     2
272
     2
276
     2
284
    12
289
     0
340
94
  0
ENDTAB
  0
TABLE
  2
BLOCK_RECORD
  5
1
330
0
100
AcDbSymbolTable
 70
    20
  0
BLOCK_RECORD
  5
1F
102
{ACAD_XDICTIONARY
360
39A
102
}
330
1
100
AcDbSymbolTableRecord
100
AcDbBlockTableRecord
  2
*Model_Space
340
22
  0
BLOCK_RECORD
  5
1B
330
1
100
AcDbSymbolTableRecord
100
AcDbBlockTableRecord
  2
*Paper_Space
340
1E
  0
BLOCK_RECORD
  5
23
330
1
100
AcDbSymbolTableRecord
100
AcDbBlockTableRecord
  2
*Paper_Space0
340
26
  0
BLOCK_RECORD
  5
7F
330
1
100
AcDbSymbolTableRecord
100
AcDbBlockTableRecord
  2
블럭10
340
0
102
{BLKREFS
331
CC
102
}
  0
BLOCK_RECORD
  5
D5
330
1
100
AcDbSymbolTableRecord
100
AcDbBlockTableRecord
  2
_D
340
0
  0
BLOCK_RECORD
  5
EA
330
1
100
AcDbSymbolTableRecord
100
AcDbBlockTableRecord
  2
_D_1
340
0
  0
BLOCK_RECORD
  5
FE
330
1
100
AcDbSymbolTableRecord
100
AcDbBlockTableRecord
  2
_D_2
340
0
  0
BLOCK_RECORD
  5
111
330
1
100
AcDbSymbolTableRecord
100
AcDbBlockTableRecord
  2
_D_3
340
0
  0
BLOCK_RECORD
  5
12B
330
1
100
AcDbSymbolTableRecord
100
AcDbBlockTableRecord
  2
SW_DOWELSYMBOL_0
340
0
102
{BLKREFS
331
131
102
}
  0
BLOCK_RECORD
  5
216
330
1
100
AcDbSymbolTableRecord
100
AcDbBlockTableRecord
  2
_D_4
340
0
  0
BLOCK_RECORD
  5
230
330
1
100
AcDbSymbolTableRecord
100
AcDbBlockTableRecord
  2
*D8
340
0
  0
BLOCK_RECORD
  5
23A
330
1
100
AcDbSymbolTableRecord
100
AcDbBlockTableRecord
  2
*D9
340
0
  0
BLOCK_RECORD
  5
246
330
1
100
AcDbSymbolTableRecord
100
AcDbBlockTableRecord
  2
*D10
340
0
  0
BLOCK_RECORD
  5
252
330
1
100
AcDbSymbolTableRecord
100
AcDbBlockTableRecord
  2
*D11
340
0
  0
BLOCK_RECORD
  5
2AD
330
1
100
AcDbSymbolTableRecord
100
AcDbBlockTableRecord
  2
*D12
340
0
  0
BLOCK_RECORD
  5
2B9
330
1
100
AcDbSymbolTableRecord
100
AcDbBlockTableRecord
  2
*D13
340
0
  0
BLOCK_RECORD
  5
2C5
330
1
100
AcDbSymbolTableRecord
100
AcDbBlockTableRecord
  2
*D14
340
0
  0
BLOCK_RECORD
  5
2D3
330
1
100
AcDbSymbolTableRecord
100
AcDbBlockTableRecord
  2
*D15
340
0
  0
BLOCK_RECORD
  5
2E1
330
1
100
AcDbSymbolTableRecord
100
AcDbBlockTableRecord
  2
*D16
340
0
  0
BLOCK_RECORD
  5
31D
330
1
100
AcDbSymbolTableRecord
100
AcDbBlockTableRecord
  2
*D17
340
0
  0
BLOCK_RECORD
  5
32C
330
1
100
AcDbSymbolTableRecord
100
AcDbBlockTableRecord
  2
*D18
340
0
  0
BLOCK_RECORD
  5
33B
330
1
100
AcDbSymbolTableRecord
100
AcDbBlockTableRecord
  2
*D19
340
0
  0
ENDTAB
  0
ENDSEC
  0
SECTION
  2
BLOCKS
  0
BLOCK
  5
20
330
1F
100
AcDbEntity
  8
0
100
AcDbBlockBegin
  2
*Model_Space
 70
     0
 10
0.0
 20
0.0
 30
0.0
  3
*Model_Space
  1
*Model_Space
  0
ENDBLK
  5
21
330
1F
100
AcDbEntity
  8
0
100
AcDbBlockEnd
  0
BLOCK
  5
1C
330
1B
100
AcDbEntity
 67
     1
  8
0
100
AcDbBlockBegin
  2
*Paper_Space
 70
     0
 10
0.0
 20
0.0
 30
0.0
  3
*Paper_Space
  1
*Paper_Space
  0
ENDBLK
  5
1D
330
1B
100
AcDbEntity
 67
     1
  8
0
100
AcDbBlockEnd
  0
BLOCK
  5
24
330
23
100
AcDbEntity
  8
0
100
AcDbBlockBegin
  2
*Paper_Space0
 70
     0
 10
0.0
 20
0.0
 30
0.0
  3
*Paper_Space0
  1
*Paper_Space0
  0
ENDBLK
  5
25
330
23
100
AcDbEntity
  8
0
100
AcDbBlockEnd
  0
BLOCK
  5
80
330
7F
100
AcDbEntity
  8
0
100
AcDbBlockBegin
  2
블럭10
 70
     2
 10
0.0
 20
0.0
 30
0.0
  3
블럭10
  1
블럭10
  0
ELLIPSE
  5
82
330
7F
100
AcDbEntity
  8
중심선
100
AcDbEllipse
 10
20.54032771741204
 20
12.0471743016438
 30
0.0
 11
6.600054785286829
 21
-1.261213355974178E-13
 31
0.0
210
0.0
220
0.0
230
1.0
 40
0.636358354079598
 41
0.9219305317359503
 42
6.513795318482858
  0
ELLIPSE
  5
83
330
7F
100
AcDbEntity
  8
중심선
100
AcDbEllipse
 10
20.54032771746488
 20
12.04717430159265
 30
0.0
 11
3.960054785062283
 21
1.540847449632565E-10
 31
0.0
210
0.0
220
0.0
230
1.0
 40
0.3939339440162632
 41
1.131841032648279
 42
5.62031148352944
  0
LINE
  5
84
330
7F
100
AcDbEntity
  8
중심선
100
AcDbLine
 10
2.268634060543552
 20
16.24717430164393
 30
0.0
 11
5.714909304380834
 21
16.24717430164393
 31
0.0
  0
LINE
  5
85
330
7F
100
AcDbEntity
  8
중심선
100
AcDbLine
 10
5.245725140726316
 20
7.84717430164391
 30
0.0
 11
8.692000384563599
 21
7.84717430164391
 31
0.0
  0
LINE
  5
86
330
7F
100
AcDbEntity
  8
중심선
100
AcDbLine
 10
15.74043728645272
 20
16.24717430164393
 30
0.0
 11
8.692000384563599
 21
7.84717430164391
 31
0.0
  0
LINE
  5
87
330
7F
100
AcDbEntity
  8
중심선
100
AcDbLine
 10
0.1404042013395286
 20
13.71084872107135
 30
0.0
 11
3.58671253028996
 21
13.71088815037384
 31
0.0
  0
LINE
  5
88
330
7F
100
AcDbEntity
  8
중심선
100
AcDbLine
 10
2.750260043222114
 20
10.84717430164391
 30
0.0
 11
6.196535287059397
 21
10.84717430164391
 31
0.0
  0
LINE
  5
89
330
7F
100
AcDbEntity
  8
중심선
100
AcDbLine
 10
12.29416204261559
 20
16.24717430164393
 30
0.0
 11
5.245725140726316
 21
7.84717430164391
 31
0.0
  0
LINE
  5
8A
330
7F
100
AcDbEntity
  8
중심선
100
AcDbLine
 10
10.72767329541681
 20
16.24717430164393
 30
0.0
 11
6.196535287059397
 21
10.84717430164391
 31
0.0
  0
LINE
  5
8B
330
7F
100
AcDbEntity
  8
중심선
100
AcDbLine
 10
7.28139805157953
 20
16.24717430164393
 30
0.0
 11
2.750260043222114
 21
10.84717430164391
 31
0.0
  0
LINE
  5
8C
330
7F
100
AcDbEntity
  8
중심선
100
AcDbLine
 10
5.714909304380834
 20
16.24717430164393
 30
0.0
 11
3.58671253028996
 21
13.71088815037384
 31
0.0
  0
LINE
  5
8D
330
7F
100
AcDbEntity
  8
중심선
100
AcDbLine
 10
2.268634060543552
 20
16.24717430164393
 30
0.0
 11
0.1404042013395286
 21
13.71084872107135
 31
0.0
  0
LINE
  5
8E
330
7F
100
AcDbEntity
  8
중심선
100
AcDbLine
 10
7.28139805157953
 20
16.24717430164393
 30
0.0
 11
10.72767329541681
 21
16.24717430164393
 31
0.0
  0
LINE
  5
8F
330
7F
100
AcDbEntity
  8
중심선
100
AcDbLine
 10
12.29416204261559
 20
16.24717430164393
 30
0.0
 11
15.74043728645272
 21
16.24717430164393
 31
0.0
  0
LINE
  5
90
330
7F
100
AcDbEntity
  8
중심선
100
AcDbLine
 10
19.22036997980202
 20
11.08717430171403
 30
0.0
 11
23.66174974927406
 21
11.08717430171406
 31
0.0
  0
LINE
  5
91
330
7F
100
AcDbEntity
  8
중심선
100
AcDbLine
 10
19.22039502424796
 20
13.00717430171391
 30
0.0
 11
19.22036997980202
 21
11.08717430171403
 31
0.0
  0
LINE
  5
92
330
7F
100
AcDbEntity
  8
중심선
100
AcDbLine
 10
19.22039502424796
 20
13.00717430171391
 30
0.0
 11
26.96566020931264
 21
13.00717430171391
 31
0.0
  0
LINE
  5
93
330
7F
100
AcDbEntity
  8
중심선
100
AcDbLine
 10
22.22332737316547
 20
13.45928029700563
 30
0.0
 11
24.52862924686651
 21
15.39360700705356
 31
0.0
  0
ATTDEF
  5
95
330
7F
100
AcDbEntity
  8
FORMAT
 62
     2
100
AcDbText
 10
4.408487351596664
 20
2.075366912832191
 30
0.0
 40
4.233333333333333
  1
E5024010
 41
0.75
  7
SLDTEXTSTYLE0
 11
4.408487351596664
 21
-0.0412997538344756
 31
0.0
100
AcDbAttributeDefinition
  3

  2
AUTOATTR0
 70
     0
 74
     1
  0
ENDBLK
  5
81
330
7F
100
AcDbEntity
  8
0
100
AcDbBlockEnd
  0
BLOCK
  5
D6
330
D5
100
AcDbEntity
  8
0
100
AcDbBlockBegin
  2
_D
 70
     0
 10
0.0
 20
0.0
 30
0.0
  3
_D
  1
_D
  0
LINE
  5
D8
330
D5
100
AcDbEntity
  8
치수문자_일반주서
 62
     0
370
    -2
100
AcDbLine
 10
39.75000000000001
 20
1.984375000000013
 30
0.0
 11
53.86865547914029
 21
1.984375000000068
 31
0.0
  0
LINE
  5
D9
330
D5
100
AcDbEntity
  8
치수문자_일반주서
 62
     0
370
    -2
100
AcDbLine
 10
39.75000000000001
 20
-1.984374999999988
 30
0.0
 11
53.86865547914031
 21
-1.984374999999936
 31
0.0
  0
LINE
  5
DA
330
D5
100
AcDbEntity
  8
치수문자_일반주서
 62
     0
370
    -2
100
AcDbLine
 10
53.86865547914029
 20
1.984375000000068
 30
0.0
 11
53.86865547914017
 21
37.46337500000007
 31
0.0
  0
LINE
  5
DB
330
D5
100
AcDbEntity
  8
치수문자_일반주서
 62
     0
370
    -2
100
AcDbLine
 10
53.86865547914029
 20
1.984375000000068
 30
0.0
 11
53.86865547914031
 21
-1.984374999999936
 31
0.0
  0
LINE
  5
DC
330
D5
100
AcDbEntity
  8
치수문자_일반주서
 62
     0
370
    -2
100
AcDbLine
 10
53.86865547914028
 20
5.286375000000067
 30
0.0
 11
53.86865547914027
 21
8.588375000000067
 31
0.0
  0
LINE
  5
DD
330
D5
100
AcDbEntity
  8
치수문자_일반주서
 62
     0
370
    -2
100
AcDbLine
 10
53.86865547914032
 20
-5.286374999999936
 30
0.0
 11
53.86865547914034
 21
-8.588374999999935
 31
0.0
  0
SOLID
  5
DE
330
D5
100
AcDbEntity
  8
치수문자_일반주서
 62
     0
100
AcDbTrace
 10
53.31832214580695
 20
5.286375000000065
 30
0.0
 11
54.41898881247361
 21
5.286375000000069
 31
0.0
 12
53.86865547914029
 22
1.984375000000068
 32
0.0
 13
53.86865547914029
 23
1.984375000000068
 33
0.0
  0
SOLID
  5
DF
330
D5
100
AcDbEntity
  8
치수문자_일반주서
 62
     0
100
AcDbTrace
 10
54.41898881247366
 20
-5.286374999999934
 30
0.0
 11
53.31832214580699
 21
-5.286374999999937
 31
0.0
 12
53.86865547914031
 22
-1.984374999999936
 32
0.0
 13
53.86865547914031
 23
-1.984374999999936
 33
0.0
  0
MTEXT
  5
E0
330
D5
100
AcDbEntity
  8
치수문자_일반주서
 62
     0
100
AcDbMText
 10
49.49365547914022
 20
23.02587500000005
 30
0.0
 40
3.5
 41
0.0
 71
     2
 72
     1
  1
\A1;%%c3.97 [5/32]
  7
SLDTEXTSTYLE0
 11
-3.580687802255622E-15
 21
1.0
 31
0.0
 73
     1
 44
1.0
  0
POINT
  5
E1
330
D5
100
AcDbEntity
  8
Defpoints
 62
     0
100
AcDbPoint
 10
39.68750000000001
 20
1.984375000000013
 30
0.0
  0
POINT
  5
E2
330
D5
100
AcDbEntity
  8
Defpoints
 62
     0
100
AcDbPoint
 10
39.68750000000001
 20
-1.984374999999989
 30
0.0
  0
POINT
  5
E3
330
D5
100
AcDbEntity
  8
Defpoints
 62
     0
100
AcDbPoint
 10
53.86865547914031
 20
-1.984374999999936
 30
0.0
  0
ENDBLK
  5
D7
330
D5
100
AcDbEntity
  8
0
100
AcDbBlockEnd
  0
BLOCK
  5
EB
330
EA
100
AcDbEntity
  8
0
100
AcDbBlockBegin
  2
_D_1
 70
     0
 10
0.0
 20
0.0
 30
0.0
  3
_D_1
  1
_D_1
  0
LINE
  5
ED
330
EA
100
AcDbEntity
  8
치수문자_일반주서
 62
     0
370
    -2
100
AcDbLine
 10
39.68750000000001
 20
2.039577642564017
 30
0.0
 11
39.68750000000001
 21
20.30663628773583
 31
0.0
  0
LINE
  5
EE
330
EA
100
AcDbEntity
  8
치수문자_일반주서
 62
     0
370
    -2
100
AcDbLine
 10
28.57500000000004
 20
2.01566951540909
 30
0.0
 11
28.57500000000004
 21
20.30663628773583
 31
0.0
  0
LINE
  5
EF
330
EA
100
AcDbEntity
  8
치수문자_일반주서
 62
     0
370
    -2
100
AcDbLine
 10
28.57500000000004
 20
20.30663628773583
 30
0.0
 11
-2.528999999999961
 21
20.30663628773583
 31
0.0
  0
LINE
  5
F0
330
EA
100
AcDbEntity
  8
치수문자_일반주서
 62
     0
370
    -2
100
AcDbLine
 10
39.68750000000001
 20
20.30663628773583
 30
0.0
 11
28.57500000000004
 21
20.30663628773583
 31
0.0
  0
LINE
  5
F1
330
EA
100
AcDbEntity
  8
치수문자_일반주서
 62
     0
370
    -2
100
AcDbLine
 10
42.98950000000001
 20
20.30663628773583
 30
0.0
 11
46.29150000000001
 21
20.30663628773583
 31
0.0
  0
LINE
  5
F2
330
EA
100
AcDbEntity
  8
치수문자_일반주서
 62
     0
370
    -2
100
AcDbLine
 10
25.27300000000004
 20
20.30663628773583
 30
0.0
 11
21.97100000000004
 21
20.30663628773583
 31
0.0
  0
SOLID
  5
F3
330
EA
100
AcDbEntity
  8
치수문자_일반주서
 62
     0
100
AcDbTrace
 10
42.98950000000001
 20
20.85696962106917
 30
0.0
 11
42.98950000000001
 21
19.7563029544025
 31
0.0
 12
39.68750000000001
 22
20.30663628773583
 32
0.0
 13
39.68750000000001
 23
20.30663628773583
 33
0.0
  0
SOLID
  5
F4
330
EA
100
AcDbEntity
  8
치수문자_일반주서
 62
     0
100
AcDbTrace
 10
25.27300000000004
 20
19.7563029544025
 30
0.0
 11
25.27300000000004
 21
20.85696962106917
 31
0.0
 12
28.57500000000004
 22
20.30663628773583
 32
0.0
 13
28.57500000000004
 23
20.30663628773583
 33
0.0
  0
MTEXT
  5
F5
330
EA
100
AcDbEntity
  8
치수문자_일반주서
 62
     0
100
AcDbMText
 10
9.72100000000004
 20
24.68163628773583
 30
0.0
 40
3.5
 41
0.0
 71
     2
 72
     1
  1
\A1;11.11 [7/16]
  7
SLDTEXTSTYLE0
 73
     1
 44
1.0
  0
POINT
  5
F6
330
EA
100
AcDbEntity
  8
Defpoints
 62
     0
100
AcDbPoint
 10
39.68750000000001
 20
1.977077642564017
 30
0.0
  0
POINT
  5
F7
330
EA
100
AcDbEntity
  8
Defpoints
 62
     0
100
AcDbPoint
 10
28.57500000000004
 20
1.953169515409089
 30
0.0
  0
POINT
  5
F8
330
EA
100
AcDbEntity
  8
Defpoints
 62
     0
100
AcDbPoint
 10
28.57500000000004
 20
20.30663628773583
 30
0.0
  0
ENDBLK
  5
EC
330
EA
100
AcDbEntity
  8
0
100
AcDbBlockEnd
  0
BLOCK
  5
FF
330
FE
100
AcDbEntity
  8
0
100
AcDbBlockBegin
  2
_D_2
 70
     0
 10
0.0
 20
0.0
 30
0.0
  3
_D_2
  1
_D_2
  0
LINE
  5
101
330
FE
100
AcDbEntity
  8
치수문자_일반주서
 62
     0
370
    -2
100
AcDbLine
 10
39.68750000000001
 20
2.039577642564017
 30
0.0
 11
39.6875
 21
49.56749658553842
 31
0.0
  0
LINE
  5
102
330
FE
100
AcDbEntity
  8
치수문자_일반주서
 62
     0
370
    -2
100
AcDbLine
 10
-39.6875
 20
2.046874999999987
 30
0.0
 11
-39.68750000000001
 21
49.56749658553842
 31
0.0
  0
LINE
  5
103
330
FE
100
AcDbEntity
  8
치수문자_일반주서
 62
     0
370
    -2
100
AcDbLine
 10
36.3855
 20
49.56749658553842
 30
0.0
 11
-36.38550000000001
 21
49.56749658553842
 31
0.0
  0
SOLID
  5
104
330
FE
100
AcDbEntity
  8
치수문자_일반주서
 62
     0
100
AcDbTrace
 10
36.3855
 20
49.01716325220509
 30
0.0
 11
36.3855
 21
50.11782991887176
 31
0.0
 12
39.6875
 22
49.56749658553842
 32
0.0
 13
39.6875
 23
49.56749658553842
 33
0.0
  0
SOLID
  5
105
330
FE
100
AcDbEntity
  8
치수문자_일반주서
 62
     0
100
AcDbTrace
 10
-36.38550000000001
 20
50.11782991887176
 30
0.0
 11
-36.38550000000001
 21
49.01716325220509
 31
0.0
 12
-39.68750000000001
 22
49.56749658553842
 32
0.0
 13
-39.68750000000001
 23
49.56749658553842
 33
0.0
  0
MTEXT
  5
106
330
FE
100
AcDbEntity
  8
치수문자_일반주서
 62
     0
100
AcDbMText
 10
-2.025249286279307
 20
53.94249658553842
 30
0.0
 40
3.5
 41
0.0
 71
     2
 72
     1
  1
\A1;79.38 [3 1/8]
  7
SLDTEXTSTYLE0
 73
     1
 44
1.0
  0
POINT
  5
107
330
FE
100
AcDbEntity
  8
Defpoints
 62
     0
100
AcDbPoint
 10
39.68750000000001
 20
1.977077642564017
 30
0.0
  0
POINT
  5
108
330
FE
100
AcDbEntity
  8
Defpoints
 62
     0
100
AcDbPoint
 10
-39.6875
 20
1.984374999999987
 30
0.0
  0
POINT
  5
109
330
FE
100
AcDbEntity
  8
Defpoints
 62
     0
100
AcDbPoint
 10
-39.6875
 20
49.56749658553842
 30
0.0
  0
ENDBLK
  5
100
330
FE
100
AcDbEntity
  8
0
100
AcDbBlockEnd
  0
BLOCK
  5
112
330
111
100
AcDbEntity
  8
0
100
AcDbBlockBegin
  2
_D_3
 70
     0
 10
0.0
 20
0.0
 30
0.0
  3
_D_3
  1
_D_3
  0
LINE
  5
114
330
111
100
AcDbEntity
  8
치수문자_일반주서
 62
     0
370
    -2
100
AcDbLine
 10
-17.26939635022271
 20
4.762500000000004
 30
0.0
 11
-53.08625000000003
 21
4.762499999999868
 31
0.0
  0
LINE
  5
115
330
111
100
AcDbEntity
  8
치수문자_일반주서
 62
     0
370
    -2
100
AcDbLine
 10
-17.26939635022271
 20
-4.762500000000005
 30
0.0
 11
-53.08624999999999
 21
-4.762500000000138
 31
0.0
  0
LINE
  5
116
330
111
100
AcDbEntity
  8
치수문자_일반주서
 62
     0
370
    -2
100
AcDbLine
 10
-53.08625000000003
 20
4.762499999999868
 30
0.0
 11
-53.08625000000015
 21
37.83524999999995
 31
0.0
  0
LINE
  5
117
330
111
100
AcDbEntity
  8
치수문자_일반주서
 62
     0
370
    -2
100
AcDbLine
 10
-53.08625000000003
 20
4.762499999999868
 30
0.0
 11
-53.08624999999999
 21
-4.762500000000138
 31
0.0
  0
LINE
  5
118
330
111
100
AcDbEntity
  8
치수문자_일반주서
 62
     0
370
    -2
100
AcDbLine
 10
-53.08625000000004
 20
8.064499999999867
 30
0.0
 11
-53.08625000000006
 21
11.36649999999987
 31
0.0
  0
LINE
  5
119
330
111
100
AcDbEntity
  8
치수문자_일반주서
 62
     0
370
    -2
100
AcDbLine
 10
-53.08624999999998
 20
-8.064500000000137
 30
0.0
 11
-53.08624999999996
 21
-11.36650000000014
 31
0.0
  0
SOLID
  5
11A
330
111
100
AcDbEntity
  8
치수문자_일반주서
 62
     0
100
AcDbTrace
 10
-53.63658333333338
 20
8.064499999999866
 30
0.0
 11
-52.53591666666671
 21
8.06449999999987
 31
0.0
 12
-53.08625000000003
 22
4.762499999999868
 32
0.0
 13
-53.08625000000003
 23
4.762499999999868
 33
0.0
  0
SOLID
  5
11B
330
111
100
AcDbEntity
  8
치수문자_일반주서
 62
     0
100
AcDbTrace
 10
-52.53591666666664
 20
-8.064500000000136
 30
0.0
 11
-53.63658333333331
 21
-8.06450000000014
 31
0.0
 12
-53.08624999999999
 22
-4.762500000000138
 32
0.0
 13
-53.08624999999999
 23
-4.762500000000138
 33
0.0
  0
MTEXT
  5
11C
330
111
100
AcDbEntity
  8
치수문자_일반주서
 62
     0
100
AcDbMText
 10
-57.4612500000001
 20
24.71024999999993
 30
0.0
 40
3.5
 41
0.0
 71
     2
 72
     1
  1
\A1;%%c9.53 [3/8]
  7
SLDTEXTSTYLE0
 11
-3.729883127349603E-15
 21
1.0
 31
0.0
 73
     1
 44
1.0
  0
POINT
  5
2EB
330
111
100
AcDbEntity
  8
Defpoints
 62
     0
100
AcDbPoint
 10
-17.20689635022271
 20
4.762500000000004
 30
0.0
  0
POINT
  5
2EC
330
111
100
AcDbEntity
  8
Defpoints
 62
     0
100
AcDbPoint
 10
-17.20689635022271
 20
-4.762500000000005
 30
0.0
  0
POINT
  5
2ED
330
111
100
AcDbEntity
  8
Defpoints
 62
     0
100
AcDbPoint
 10
-53.08624999999999
 20
-4.762500000000139
 30
0.0
  0
ENDBLK
  5
113
330
111
100
AcDbEntity
  8
0
100
AcDbBlockEnd
  0
BLOCK
  5
12C
330
12B
100
AcDbEntity
  8
0
100
AcDbBlockBegin
  2
SW_DOWELSYMBOL_0
 70
     0
 10
0.0
 20
0.0
 30
0.0
  3
SW_DOWELSYMBOL_0
  1
SW_DOWELSYMBOL_0
  0
CIRCLE
  5
12E
330
12B
100
AcDbEntity
  8
해칭선
 62
     0
100
AcDbCircle
 10
0.0
 20
0.0
 30
0.0
 40
3.000000000000001
  0
HATCH
  5
12F
330
12B
100
AcDbEntity
  8
0
  6
Continuous
 62
     0
370
     0
100
AcDbHatch
 10
0.0
 20
0.0
 30
0.0
210
0.0
220
0.0
230
1.0
  2
SOLID
 70
     1
 71
     0
 91
        1
 92
        0
 93
        3
 72
     2
 10
0.0
 20
0.0
 40
3.000000000000001
 50
0.0
 51
90.0
 73
     1
 72
     1
 10
0.0
 20
3.000000000000001
 11
0.0
 21
0.0
 72
     1
 10
0.0
 20
0.0
 11
3.000000000000003
 21
0.0
 97
        0
 75
     0
 76
     1
 98
        1
 10
0.0
 20
0.0
  0
HATCH
  5
130
330
12B
100
AcDbEntity
  8
0
  6
Continuous
 62
     0
370
     0
100
AcDbHatch
 10
0.0
 20
0.0
 30
0.0
210
0.0
220
0.0
230
1.0
  2
SOLID
 70
     1
 71
     0
 91
        1
 92
        0
 93
        3
 72
     2
 10
0.0
 20
0.0
 40
3.000000000000001
 50
180.0
 51
270.0000000000007
 73
     1
 72
     1
 10
0.0
 20
-3.000000000000001
 11
0.0
 21
0.0
 72
     1
 10
0.0
 20
0.0
 11
-3.000000000000001
 21
0.0
 97
        0
 75
     0
 76
     1
 98
        1
 10
0.0
 20
0.0
  0
ENDBLK
  5
12D
330
12B
100
AcDbEntity
  8
0
100
AcDbBlockEnd
  0
BLOCK
  5
217
330
216
100
AcDbEntity
  8
0
100
AcDbBlockBegin
  2
_D_4
 70
     0
 10
0.0
 20
0.0
 30
0.0
  3
_D_4
  1
_D_4
  0
LINE
  5
218
330
216
100
AcDbEntity
  8
치수문자_일반주서
 62
     0
370
    -2
100
AcDbLine
 10
102.4375000000001
 20
36.22143424691529
 30
0.0
 11
117.3750000000001
 21
36.22143424691535
 31
0.0
  0
LINE
  5
219
330
216
100
AcDbEntity
  8
치수문자_일반주서
 62
     0
370
    -2
100
AcDbLine
 10
102.4375000000001
 20
22.22143424691529
 30
0.0
 11
117.3750000000001
 21
22.22143424691535
 31
0.0
  0
LINE
  5
21A
330
216
100
AcDbEntity
  8
치수문자_일반주서
 62
     0
370
    -2
100
AcDbLine
 10
117.3750000000001
 20
36.22143424691535
 30
0.0
 11
117.3750000000001
 21
22.22143424691535
 31
0.0
  0
LINE
  5
21B
330
216
100
AcDbEntity
  8
치수문자_일반주서
 62
     0
370
    -2
100
AcDbLine
 10
117.3750000000001
 20
39.52343424691535
 30
0.0
 11
117.375
 21
42.82543424691535
 31
0.0
  0
LINE
  5
21C
330
216
100
AcDbEntity
  8
치수문자_일반주서
 62
     0
370
    -2
100
AcDbLine
 10
117.3750000000001
 20
18.91943424691535
 30
0.0
 11
117.3750000000001
 21
15.61743424691535
 31
0.0
  0
SOLID
  5
21D
330
216
100
AcDbEntity
  8
치수문자_일반주서
 62
     0
100
AcDbTrace
 10
116.8246666666667
 20
39.52343424691535
 30
0.0
 11
117.9253333333334
 21
39.52343424691535
 31
0.0
 12
117.3750000000001
 22
36.22143424691535
 32
0.0
 13
117.3750000000001
 23
36.22143424691535
 33
0.0
  0
SOLID
  5
21E
330
216
100
AcDbEntity
  8
치수문자_일반주서
 62
     0
100
AcDbTrace
 10
117.9253333333335
 20
18.91943424691535
 30
0.0
 11
116.8246666666668
 21
18.91943424691535
 31
0.0
 12
117.3750000000001
 22
22.22143424691535
 32
0.0
 13
117.3750000000001
 23
22.22143424691535
 33
0.0
  0
MTEXT
  5
21F
330
216
100
AcDbEntity
  8
치수문자_일반주서
 62
     0
100
AcDbMText
 10
113.0000000000001
 20
29.28713862862833
 30
0.0
 40
3.5
 41
0.0
 71
     2
 72
     1
  1
\A1;%%c14
  7
SLDTEXTSTYLE0
 11
-3.045183153257572E-15
 21
1.0
 31
0.0
 73
     1
 44
1.0
  0
POINT
  5
220
330
216
100
AcDbEntity
  8
Defpoints
 62
     0
100
AcDbPoint
 10
102.3750000000001
 20
36.22143424691529
 30
0.0
  0
POINT
  5
221
330
216
100
AcDbEntity
  8
Defpoints
 62
     0
100
AcDbPoint
 10
102.3750000000001
 20
22.22143424691529
 30
0.0
  0
POINT
  5
222
330
216
100
AcDbEntity
  8
Defpoints
 62
     0
100
AcDbPoint
 10
117.3750000000001
 20
22.22143424691535
 30
0.0
  0
ENDBLK
  5
223
330
216
100
AcDbEntity
  8
0
100
AcDbBlockEnd
  0
BLOCK
  5
231
330
230
100
AcDbEntity
  8
0
100
AcDbBlockBegin
  2
*D8
 70
     1
 10
0.0
 20
0.0
 30
0.0
  3
*D8
  1
*D8
  0
LINE
  5
232
330
230
100
AcDbEntity
  8
치수문자_일반주서
 62
     0
370
    -2
100
AcDbLine
 10
103.8657751816695
 20
19.48229575403651
 30
0.0
 11
119.6194267469468
 21
-6.150060756304035
 31
0.0
  0
MTEXT
  5
233
330
230
100
AcDbEntity
  8
치수문자_일반주서
 62
     0
100
AcDbMText
 10
115.6706384014277
 20
5.288158154535728
 30
0.0
 40
3.5
 41
0.0
 71
     5
 72
     1
  1
\A1;R.5 [R0.02]
  7
SLDTEXTSTYLE0
 11
0.5236126201129557
 21
-0.8519564684057781
 31
0.0
 73
     1
 44
1.0
  0
SOLID
  5
234
330
230
100
AcDbEntity
  8
치수문자_일반주서
 62
     0
100
AcDbTrace
 10
104.3346352247821
 20
19.77045723263868
 30
0.0
 11
103.3969151385569
 21
19.19413427543435
 31
0.0
 12
102.1368063100565
 22
22.29545601271239
 32
0.0
 13
102.1368063100565
 23
22.29545601271239
 33
0.0
  0
LINE
  5
235
330
230
100
AcDbEntity
  8
치수문자_일반주서
 62
     0
100
AcDbLine
 10
101.785
 20
22.72143424691529
 30
0.0
 11
101.965
 21
22.72143424691529
 31
0.0
  0
LINE
  5
236
330
230
100
AcDbEntity
  8
치수문자_일반주서
 62
     0
100
AcDbLine
 10
101.875
 20
22.63143424691529
 30
0.0
 11
101.875
 21
22.81143424691529
 31
0.0
  0
POINT
  5
260
330
230
100
AcDbEntity
  8
Defpoints
 62
     0
100
AcDbPoint
 10
102.1368063100565
 20
22.29545601271239
 30
0.0
  0
POINT
  5
261
330
230
100
AcDbEntity
  8
Defpoints
 62
     0
100
AcDbPoint
 10
101.875
 20
22.72143424691529
 30
0.0
  0
ENDBLK
  5
237
330
230
100
AcDbEntity
  8
0
100
AcDbBlockEnd
  0
BLOCK
  5
23B
330
23A
100
AcDbEntity
  8
0
100
AcDbBlockBegin
  2
*D9
 70
     1
 10
0.0
 20
0.0
 30
0.0
  3
*D9
  1
*D11
  0
LINE
  5
23D
330
23A
100
AcDbEntity
  8
치수문자_일반주서
 62
     0
370
    -2
100
AcDbLine
 10
19.37500000000004
 20
35.78393424691529
 30
0.0
 11
19.37500000000004
 21
70.88391841499404
 31
0.0
  0
LINE
  5
23E
330
23A
100
AcDbEntity
  8
치수문자_일반주서
 62
     0
370
    -2
100
AcDbLine
 10
102.3750000000001
 20
36.34643424691529
 30
0.0
 11
102.3750000000001
 21
70.88391841499404
 31
0.0
  0
LINE
  5
23F
330
23A
100
AcDbEntity
  8
치수문자_일반주서
 62
     0
370
    -2
100
AcDbLine
 10
22.67700000000004
 20
70.88391841499404
 30
0.0
 11
99.07300000000006
 21
70.88391841499404
 31
0.0
  0
SOLID
  5
240
330
23A
100
AcDbEntity
  8
치수문자_일반주서
 62
     0
100
AcDbTrace
 10
22.67700000000004
 20
71.43425174832737
 30
0.0
 11
22.67700000000004
 21
70.33358508166071
 31
0.0
 12
19.37500000000004
 22
70.88391841499404
 32
0.0
 13
19.37500000000004
 23
70.88391841499404
 33
0.0
  0
SOLID
  5
241
330
23A
100
AcDbEntity
  8
치수문자_일반주서
 62
     0
100
AcDbTrace
 10
99.07300000000006
 20
70.33358508166071
 30
0.0
 11
99.07300000000006
 21
71.43425174832737
 31
0.0
 12
102.3750000000001
 22
70.88391841499404
 32
0.0
 13
102.3750000000001
 23
70.88391841499404
 33
0.0
  0
MTEXT
  5
242
330
23A
100
AcDbEntity
  8
치수문자_일반주서
 62
     0
100
AcDbMText
 10
60.87500000000005
 20
75.25891841499404
 30
0.0
 40
3.5
 41
0.0
 71
     2
 72
     1
  1
\A1;83 [3.27]
  7
SLDTEXTSTYLE0
 73
     1
 44
1.0
  0
POINT
  5
243
330
23A
100
AcDbEntity
  8
Defpoints
 62
     0
100
AcDbPoint
 10
19.37500000000004
 20
35.72143424691529
 30
0.0
  0
POINT
  5
244
330
23A
100
AcDbEntity
  8
Defpoints
 62
     0
100
AcDbPoint
 10
102.3750000000001
 20
36.28393424691529
 30
0.0
  0
POINT
  5
245
330
23A
100
AcDbEntity
  8
Defpoints
 62
     0
100
AcDbPoint
 10
102.3750000000001
 20
70.88391841499404
 30
0.0
  0
ENDBLK
  5
23C
330
23A
100
AcDbEntity
  8
0
100
AcDbBlockEnd
  0
BLOCK
  5
247
330
246
100
AcDbEntity
  8
0
100
AcDbBlockBegin
  2
*D10
 70
     1
 10
0.0
 20
0.0
 30
0.0
  3
*D10
  1
*D12
  0
LINE
  5
249
330
246
100
AcDbEntity
  8
치수문자_일반주서
 62
     0
370
    -2
100
AcDbLine
 10
76.37504186422882
 20
28.62038676313042
 30
0.0
 11
76.37504186422882
 21
61.90091383617725
 31
0.0
  0
LINE
  5
24A
330
246
100
AcDbEntity
  8
치수문자_일반주서
 62
     0
370
    -2
100
AcDbLine
 10
102.3750000000001
 20
36.28393424691529
 30
0.0
 11
102.3750000000001
 21
61.90091383617725
 31
0.0
  0
LINE
  5
24B
330
246
100
AcDbEntity
  8
치수문자_일반주서
 62
     0
370
    -2
100
AcDbLine
 10
79.67704186422881
 20
61.90091383617725
 30
0.0
 11
99.07300000000006
 21
61.90091383617725
 31
0.0
  0
SOLID
  5
24C
330
246
100
AcDbEntity
  8
치수문자_일반주서
 62
     0
100
AcDbTrace
 10
79.67704186422881
 20
62.45124716951059
 30
0.0
 11
79.67704186422881
 21
61.35058050284392
 31
0.0
 12
76.37504186422882
 22
61.90091383617725
 32
0.0
 13
76.37504186422882
 23
61.90091383617725
 33
0.0
  0
SOLID
  5
24D
330
246
100
AcDbEntity
  8
치수문자_일반주서
 62
     0
100
AcDbTrace
 10
99.07300000000006
 20
61.35058050284392
 30
0.0
 11
99.07300000000006
 21
62.45124716951059
 31
0.0
 12
102.3750000000001
 22
61.90091383617725
 32
0.0
 13
102.3750000000001
 23
61.90091383617725
 33
0.0
  0
MTEXT
  5
24E
330
246
100
AcDbEntity
  8
치수문자_일반주서
 62
     0
100
AcDbMText
 10
89.42159572693208
 20
66.27591383617725
 30
0.0
 40
3.5
 41
0.0
 71
     2
 72
     1
  1
\A1;26 [1.02]
  7
SLDTEXTSTYLE0
 73
     1
 44
1.0
  0
POINT
  5
24F
330
246
100
AcDbEntity
  8
Defpoints
 62
     0
100
AcDbPoint
 10
76.37504186422882
 20
28.55788676313042
 30
0.0
  0
POINT
  5
250
330
246
100
AcDbEntity
  8
Defpoints
 62
     0
100
AcDbPoint
 10
102.3750000000001
 20
36.22143424691529
 30
0.0
  0
POINT
  5
251
330
246
100
AcDbEntity
  8
Defpoints
 62
     0
100
AcDbPoint
 10
102.3750000000001
 20
61.90091383617725
 30
0.0
  0
ENDBLK
  5
248
330
246
100
AcDbEntity
  8
0
100
AcDbBlockEnd
  0
BLOCK
  5
253
330
252
100
AcDbEntity
  8
0
100
AcDbBlockBegin
  2
*D11
 70
     1
 10
0.0
 20
0.0
 30
0.0
  3
*D11
  1
*D13
  0
LINE
  5
255
330
252
100
AcDbEntity
  8
치수문자_일반주서
 62
     0
370
    -2
100
AcDbLine
 10
19.81250000000005
 20
36.22143424691529
 30
0.0
 11
4.374999999999983
 21
36.22143424691524
 31
0.0
  0
LINE
  5
256
330
252
100
AcDbEntity
  8
치수문자_일반주서
 62
     0
370
    -2
100
AcDbLine
 10
19.81250000000005
 20
22.22143424691529
 30
0.0
 11
4.375000000000032
 21
22.22143424691524
 31
0.0
  0
LINE
  5
257
330
252
100
AcDbEntity
  8
치수문자_일반주서
 62
     0
370
    -2
100
AcDbLine
 10
4.374999999999983
 20
36.22143424691524
 30
0.0
 11
4.375000000000032
 21
22.22143424691524
 31
0.0
  0
LINE
  5
258
330
252
100
AcDbEntity
  8
치수문자_일반주서
 62
     0
370
    -2
100
AcDbLine
 10
4.374999999999972
 20
39.52343424691524
 30
0.0
 11
4.37499999999996
 21
42.82543424691524
 31
0.0
  0
LINE
  5
259
330
252
100
AcDbEntity
  8
치수문자_일반주서
 62
     0
370
    -2
100
AcDbLine
 10
4.375000000000044
 20
18.91943424691524
 30
0.0
 11
4.375000000000055
 21
15.61743424691524
 31
0.0
  0
SOLID
  5
25A
330
252
100
AcDbEntity
  8
치수문자_일반주서
 62
     0
100
AcDbTrace
 10
3.824666666666638
 20
39.52343424691524
 30
0.0
 11
4.925333333333305
 21
39.52343424691524
 31
0.0
 12
4.374999999999983
 22
36.22143424691524
 32
0.0
 13
4.374999999999983
 23
36.22143424691524
 33
0.0
  0
SOLID
  5
25B
330
252
100
AcDbEntity
  8
치수문자_일반주서
 62
     0
100
AcDbTrace
 10
4.925333333333377
 20
18.91943424691524
 30
0.0
 11
3.82466666666671
 21
18.91943424691523
 31
0.0
 12
4.375000000000032
 22
22.22143424691524
 32
0.0
 13
4.375000000000032
 23
22.22143424691524
 33
0.0
  0
MTEXT
  5
25C
330
252
100
AcDbEntity
  8
치수문자_일반주서
 62
     0
100
AcDbMText
 10
0.0000000000000071
 20
29.22143424691528
 30
0.0
 40
3.5
 41
0.0
 71
     2
 72
     1
  1
\A1;%%c14
  7
SLDTEXTSTYLE0
 11
-3.489272363107635E-15
 21
1.0
 31
0.0
 73
     1
 44
1.0
  0
POINT
  5
25D
330
252
100
AcDbEntity
  8
Defpoints
 62
     0
100
AcDbPoint
 10
19.87500000000005
 20
36.22143424691529
 30
0.0
  0
POINT
  5
25E
330
252
100
AcDbEntity
  8
Defpoints
 62
     0
100
AcDbPoint
 10
19.87500000000005
 20
22.22143424691529
 30
0.0
  0
POINT
  5
25F
330
252
100
AcDbEntity
  8
Defpoints
 62
     0
100
AcDbPoint
 10
4.375000000000043
 20
22.22143424691524
 30
0.0
  0
ENDBLK
  5
254
330
252
100
AcDbEntity
  8
0
100
AcDbBlockEnd
  0
BLOCK
  5
2AE
330
2AD
100
AcDbEntity
  8
0
100
AcDbBlockBegin
  2
*D12
 70
     1
 10
0.0
 20
0.0
 30
0.0
  3
*D12
  1
*D14
  0
LINE
  5
2B0
330
2AD
100
AcDbEntity
  8
치수문자_일반주서
 62
     0
370
    -2
100
AcDbLine
 10
-55.06191586762417
 20
122.315500628067
 30
0.0
 11
-55.06191586762417
 21
157.4154847961457
 31
0.0
  0
LINE
  5
2B1
330
2AD
100
AcDbEntity
  8
치수문자_일반주서
 62
     0
370
    -2
100
AcDbLine
 10
27.93808413237585
 20
122.878000628067
 30
0.0
 11
27.93808413237585
 21
157.4154847961457
 31
0.0
  0
LINE
  5
2B2
330
2AD
100
AcDbEntity
  8
치수문자_일반주서
 62
     0
370
    -2
100
AcDbLine
 10
-51.75991586762417
 20
157.4154847961457
 30
0.0
 11
24.63608413237585
 21
157.4154847961457
 31
0.0
  0
SOLID
  5
2B3
330
2AD
100
AcDbEntity
  8
치수문자_일반주서
 62
     0
100
AcDbTrace
 10
-51.75991586762417
 20
157.9658181294791
 30
0.0
 11
-51.75991586762417
 21
156.8651514628124
 31
0.0
 12
-55.06191586762417
 22
157.4154847961457
 32
0.0
 13
-55.06191586762417
 23
157.4154847961457
 33
0.0
  0
SOLID
  5
2B4
330
2AD
100
AcDbEntity
  8
치수문자_일반주서
 62
     0
100
AcDbTrace
 10
24.63608413237585
 20
156.8651514628124
 30
0.0
 11
24.63608413237585
 21
157.9658181294791
 31
0.0
 12
27.93808413237585
 22
157.4154847961457
 32
0.0
 13
27.93808413237585
 23
157.4154847961457
 33
0.0
  0
MTEXT
  5
2B5
330
2AD
100
AcDbEntity
  8
치수문자_일반주서
 62
     0
100
AcDbMText
 10
-13.56191586762416
 20
161.7904847961457
 30
0.0
 40
3.5
 41
0.0
 71
     2
 72
     1
  1
\A1;83 [3.27]
  7
SLDTEXTSTYLE0
 73
     1
 44
1.0
  0
POINT
  5
2B6
330
2AD
100
AcDbEntity
  8
Defpoints
 62
     0
100
AcDbPoint
 10
-55.06191586762417
 20
122.253000628067
 30
0.0
  0
POINT
  5
2B7
330
2AD
100
AcDbEntity
  8
Defpoints
 62
     0
100
AcDbPoint
 10
27.93808413237585
 20
122.815500628067
 30
0.0
  0
POINT
  5
2B8
330
2AD
100
AcDbEntity
  8
Defpoints
 62
     0
100
AcDbPoint
 10
27.93808413237585
 20
157.4154847961457
 30
0.0
  0
ENDBLK
  5
2AF
330
2AD
100
AcDbEntity
  8
0
100
AcDbBlockEnd
  0
BLOCK
  5
2BA
330
2B9
100
AcDbEntity
  8
0
100
AcDbBlockBegin
  2
*D13
 70
     1
 10
0.0
 20
0.0
 30
0.0
  3
*D13
  1
*D15
  0
LINE
  5
2BC
330
2B9
100
AcDbEntity
  8
치수문자_일반주서
 62
     0
370
    -2
100
AcDbLine
 10
1.938125996604612
 20
115.1519531442821
 30
0.0
 11
1.938125996604612
 21
148.4324802173289
 31
0.0
  0
LINE
  5
2BD
330
2B9
100
AcDbEntity
  8
치수문자_일반주서
 62
     0
370
    -2
100
AcDbLine
 10
27.93808413237585
 20
122.815500628067
 30
0.0
 11
27.93808413237585
 21
148.4324802173289
 31
0.0
  0
LINE
  5
2BE
330
2B9
100
AcDbEntity
  8
치수문자_일반주서
 62
     0
370
    -2
100
AcDbLine
 10
5.240125996604611
 20
148.4324802173289
 30
0.0
 11
24.63608413237585
 21
148.4324802173289
 31
0.0
  0
SOLID
  5
2BF
330
2B9
100
AcDbEntity
  8
치수문자_일반주서
 62
     0
100
AcDbTrace
 10
5.240125996604611
 20
148.9828135506623
 30
0.0
 11
5.240125996604611
 21
147.8821468839956
 31
0.0
 12
1.938125996604612
 22
148.4324802173289
 32
0.0
 13
1.938125996604612
 23
148.4324802173289
 33
0.0
  0
SOLID
  5
2C0
330
2B9
100
AcDbEntity
  8
치수문자_일반주서
 62
     0
100
AcDbTrace
 10
24.63608413237585
 20
147.8821468839956
 30
0.0
 11
24.63608413237585
 21
148.9828135506623
 31
0.0
 12
27.93808413237585
 22
148.4324802173289
 32
0.0
 13
27.93808413237585
 23
148.4324802173289
 33
0.0
  0
MTEXT
  5
2C1
330
2B9
100
AcDbEntity
  8
치수문자_일반주서
 62
     0
100
AcDbMText
 10
14.98467985930787
 20
152.8074802173289
 30
0.0
 40
3.5
 41
0.0
 71
     2
 72
     1
  1
\A1;26 [1.02]
  7
SLDTEXTSTYLE0
 73
     1
 44
1.0
  0
POINT
  5
2C2
330
2B9
100
AcDbEntity
  8
Defpoints
 62
     0
100
AcDbPoint
 10
1.938125996604612
 20
115.0894531442821
 30
0.0
  0
POINT
  5
2C3
330
2B9
100
AcDbEntity
  8
Defpoints
 62
     0
100
AcDbPoint
 10
27.93808413237585
 20
122.753000628067
 30
0.0
  0
POINT
  5
2C4
330
2B9
100
AcDbEntity
  8
Defpoints
 62
     0
100
AcDbPoint
 10
27.93808413237585
 20
148.4324802173289
 30
0.0
  0
ENDBLK
  5
2BB
330
2B9
100
AcDbEntity
  8
0
100
AcDbBlockEnd
  0
BLOCK
  5
2C6
330
2C5
100
AcDbEntity
  8
0
100
AcDbBlockBegin
  2
*D14
 70
     1
 10
0.0
 20
0.0
 30
0.0
  3
*D14
  1
*D16
  0
LINE
  5
2C8
330
2C5
100
AcDbEntity
  8
치수문자_일반주서
 62
     0
370
    -2
100
AcDbLine
 10
-54.62441586762416
 20
122.753000628067
 30
0.0
 11
-70.06191586762422
 21
122.7530006280669
 31
0.0
  0
LINE
  5
2C9
330
2C5
100
AcDbEntity
  8
치수문자_일반주서
 62
     0
370
    -2
100
AcDbLine
 10
-54.62441586762416
 20
108.753000628067
 30
0.0
 11
-70.06191586762418
 21
108.7530006280669
 31
0.0
  0
LINE
  5
2CA
330
2C5
100
AcDbEntity
  8
치수문자_일반주서
 62
     0
370
    -2
100
AcDbLine
 10
-70.06191586762422
 20
122.7530006280669
 30
0.0
 11
-70.06191586762418
 21
108.7530006280669
 31
0.0
  0
LINE
  5
2CB
330
2C5
100
AcDbEntity
  8
치수문자_일반주서
 62
     0
370
    -2
100
AcDbLine
 10
-70.06191586762424
 20
126.0550006280669
 30
0.0
 11
-70.06191586762425
 21
129.3570006280669
 31
0.0
  0
LINE
  5
2CC
330
2C5
100
AcDbEntity
  8
치수문자_일반주서
 62
     0
370
    -2
100
AcDbLine
 10
-70.06191586762417
 20
105.4510006280669
 30
0.0
 11
-70.06191586762415
 21
102.1490006280669
 31
0.0
  0
SOLID
  5
2CD
330
2C5
100
AcDbEntity
  8
치수문자_일반주서
 62
     0
100
AcDbTrace
 10
-70.61224920095756
 20
126.0550006280669
 30
0.0
 11
-69.51158253429091
 21
126.0550006280669
 31
0.0
 12
-70.06191586762422
 22
122.7530006280669
 32
0.0
 13
-70.06191586762422
 23
122.7530006280669
 33
0.0
  0
SOLID
  5
2CE
330
2C5
100
AcDbEntity
  8
치수문자_일반주서
 62
     0
100
AcDbTrace
 10
-69.51158253429084
 20
105.4510006280669
 30
0.0
 11
-70.61224920095749
 21
105.4510006280669
 31
0.0
 12
-70.06191586762418
 22
108.7530006280669
 32
0.0
 13
-70.06191586762418
 23
108.7530006280669
 33
0.0
  0
MTEXT
  5
2CF
330
2C5
100
AcDbEntity
  8
치수문자_일반주서
 62
     0
100
AcDbMText
 10
-74.43691586762421
 20
115.753000628067
 30
0.0
 40
3.5
 41
0.0
 71
     2
 72
     1
  1
\A1;%%c14
  7
SLDTEXTSTYLE0
 11
-3.045183153257572E-15
 21
1.0
 31
0.0
 73
     1
 44
1.0
  0
POINT
  5
2D0
330
2C5
100
AcDbEntity
  8
Defpoints
 62
     0
100
AcDbPoint
 10
-54.56191586762416
 20
122.753000628067
 30
0.0
  0
POINT
  5
2D1
330
2C5
100
AcDbEntity
  8
Defpoints
 62
     0
100
AcDbPoint
 10
-54.56191586762416
 20
108.753000628067
 30
0.0
  0
POINT
  5
2D2
330
2C5
100
AcDbEntity
  8
Defpoints
 62
     0
100
AcDbPoint
 10
-70.06191586762418
 20
108.7530006280669
 30
0.0
  0
ENDBLK
  5
2C7
330
2C5
100
AcDbEntity
  8
0
100
AcDbBlockEnd
  0
BLOCK
  5
2D4
330
2D3
100
AcDbEntity
  8
0
100
AcDbBlockBegin
  2
*D15
 70
     1
 10
0.0
 20
0.0
 30
0.0
  3
*D15
  1
*D17
  0
LINE
  5
2D6
330
2D3
100
AcDbEntity
  8
치수문자_일반주서
 62
     0
370
    -2
100
AcDbLine
 10
28.00058413237586
 20
122.753000628067
 30
0.0
 11
42.93808413237586
 21
122.753000628067
 31
0.0
  0
LINE
  5
2D7
330
2D3
100
AcDbEntity
  8
치수문자_일반주서
 62
     0
370
    -2
100
AcDbLine
 10
28.00058413237585
 20
108.753000628067
 30
0.0
 11
42.93808413237591
 21
108.753000628067
 31
0.0
  0
LINE
  5
2D8
330
2D3
100
AcDbEntity
  8
치수문자_일반주서
 62
     0
370
    -2
100
AcDbLine
 10
42.93808413237586
 20
122.753000628067
 30
0.0
 11
42.93808413237591
 21
108.753000628067
 31
0.0
  0
LINE
  5
2D9
330
2D3
100
AcDbEntity
  8
치수문자_일반주서
 62
     0
370
    -2
100
AcDbLine
 10
42.93808413237584
 20
126.055000628067
 30
0.0
 11
42.93808413237583
 21
129.357000628067
 31
0.0
  0
LINE
  5
2DA
330
2D3
100
AcDbEntity
  8
치수문자_일반주서
 62
     0
370
    -2
100
AcDbLine
 10
42.93808413237592
 20
105.451000628067
 30
0.0
 11
42.93808413237593
 21
102.149000628067
 31
0.0
  0
SOLID
  5
2DB
330
2D3
100
AcDbEntity
  8
치수문자_일반주서
 62
     0
100
AcDbTrace
 10
42.38775079904251
 20
126.055000628067
 30
0.0
 11
43.48841746570918
 21
126.055000628067
 31
0.0
 12
42.93808413237586
 22
122.753000628067
 32
0.0
 13
42.93808413237586
 23
122.753000628067
 33
0.0
  0
SOLID
  5
2DC
330
2D3
100
AcDbEntity
  8
치수문자_일반주서
 62
     0
100
AcDbTrace
 10
43.48841746570925
 20
105.451000628067
 30
0.0
 11
42.38775079904259
 21
105.451000628067
 31
0.0
 12
42.93808413237591
 22
108.753000628067
 32
0.0
 13
42.93808413237591
 23
108.753000628067
 33
0.0
  0
MTEXT
  5
2DD
330
2D3
100
AcDbEntity
  8
치수문자_일반주서
 62
     0
100
AcDbMText
 10
38.56308413237588
 20
115.81870500978
 30
0.0
 40
3.5
 41
0.0
 71
     2
 72
     1
  1
\A1;%%c14
  7
SLDTEXTSTYLE0
 11
-3.552713678800501E-15
 21
1.0
 31
0.0
 73
     1
 44
1.0
  0
POINT
  5
2DE
330
2D3
100
AcDbEntity
  8
Defpoints
 62
     0
100
AcDbPoint
 10
27.93808413237586
 20
122.753000628067
 30
0.0
  0
POINT
  5
2DF
330
2D3
100
AcDbEntity
  8
Defpoints
 62
     0
100
AcDbPoint
 10
27.93808413237585
 20
108.753000628067
 30
0.0
  0
POINT
  5
2E0
330
2D3
100
AcDbEntity
  8
Defpoints
 62
     0
100
AcDbPoint
 10
42.93808413237591
 20
108.753000628067
 30
0.0
  0
ENDBLK
  5
2D5
330
2D3
100
AcDbEntity
  8
0
100
AcDbBlockEnd
  0
BLOCK
  5
2E2
330
2E1
100
AcDbEntity
  8
0
100
AcDbBlockBegin
  2
*D16
 70
     1
 10
0.0
 20
0.0
 30
0.0
  3
*D16
  1
*D18
  0
LINE
  5
2E4
330
2E1
100
AcDbEntity
  8
치수문자_일반주서
 62
     0
370
    -2
100
AcDbLine
 10
29.4288593140453
 20
106.0138621351882
 30
0.0
 11
45.18251087932259
 21
80.38150562484763
 31
0.0
  0
MTEXT
  5
2E5
330
2E1
100
AcDbEntity
  8
치수문자_일반주서
 62
     0
100
AcDbMText
 10
41.23372253380347
 20
91.8197245356874
 30
0.0
 40
3.5
 41
0.0
 71
     5
 72
     1
  1
\A1;R.5 [R0.02]
  7
SLDTEXTSTYLE0
 11
0.5236126201129557
 21
-0.8519564684057781
 31
0.0
 73
     1
 44
1.0
  0
SOLID
  5
2E6
330
2E1
100
AcDbEntity
  8
치수문자_일반주서
 62
     0
100
AcDbTrace
 10
29.89771935715795
 20
106.3020236137904
 30
0.0
 11
28.95999927093266
 21
105.725700656586
 31
0.0
 12
27.69989044243232
 22
108.8270223938641
 32
0.0
 13
27.69989044243232
 23
108.8270223938641
 33
0.0
  0
LINE
  5
2E7
330
2E1
100
AcDbEntity
  8
치수문자_일반주서
 62
     0
100
AcDbLine
 10
27.34808413237583
 20
109.253000628067
 30
0.0
 11
27.52808413237583
 21
109.253000628067
 31
0.0
  0
LINE
  5
2E8
330
2E1
100
AcDbEntity
  8
치수문자_일반주서
 62
     0
100
AcDbLine
 10
27.43808413237583
 20
109.163000628067
 30
0.0
 11
27.43808413237583
 21
109.343000628067
 31
0.0
  0
POINT
  5
2E9
330
2E1
100
AcDbEntity
  8
Defpoints
 62
     0
100
AcDbPoint
 10
27.69989044243232
 20
108.8270223938641
 30
0.0
  0
POINT
  5
2EA
330
2E1
100
AcDbEntity
  8
Defpoints
 62
     0
100
AcDbPoint
 10
27.43808413237583
 20
109.253000628067
 30
0.0
  0
ENDBLK
  5
2E3
330
2E1
100
AcDbEntity
  8
0
100
AcDbBlockEnd
  0
BLOCK
  5
31E
330
31D
100
AcDbEntity
  8
0
100
AcDbBlockBegin
  2
*D17
 70
     1
 10
0.0
 20
0.0
 30
0.0
  3
*D17
  1
*D19
  0
LINE
  5
320
330
31D
100
AcDbEntity
  8
치수문자_일반주서
 62
     0
370
    -2
100
AcDbLine
 10
146.5917879311719
 20
1.985449928723908
 30
0.0
 11
160.7104434103121
 21
1.985449928723963
 31
0.0
  0
LINE
  5
321
330
31D
100
AcDbEntity
  8
치수문자_일반주서
 62
     0
370
    -2
100
AcDbLine
 10
146.5917879311719
 20
-1.983300071276094
 30
0.0
 11
160.7104434103121
 21
-1.983300071276041
 31
0.0
  0
LINE
  5
322
330
31D
100
AcDbEntity
  8
치수문자_일반주서
 62
     0
370
    -2
100
AcDbLine
 10
160.7104434103121
 20
1.985449928723963
 30
0.0
 11
160.7104434103121
 21
37.46444992872397
 31
0.0
  0
LINE
  5
323
330
31D
100
AcDbEntity
  8
치수문자_일반주서
 62
     0
370
    -2
100
AcDbLine
 10
160.7104434103121
 20
1.985449928723963
 30
0.0
 11
160.7104434103121
 21
-1.983300071276041
 31
0.0
  0
LINE
  5
324
330
31D
100
AcDbEntity
  8
치수문자_일반주서
 62
     0
370
    -2
100
AcDbLine
 10
160.7104434103121
 20
5.287449928723962
 30
0.0
 11
160.7104434103121
 21
8.589449928723962
 31
0.0
  0
LINE
  5
325
330
31D
100
AcDbEntity
  8
치수문자_일반주서
 62
     0
370
    -2
100
AcDbLine
 10
160.7104434103121
 20
-5.285300071276041
 30
0.0
 11
160.7104434103121
 21
-8.58730007127604
 31
0.0
  0
SOLID
  5
326
330
31D
100
AcDbEntity
  8
치수문자_일반주서
 62
     0
100
AcDbTrace
 10
160.1601100769787
 20
5.287449928723962
 30
0.0
 11
161.2607767436454
 21
5.287449928723962
 31
0.0
 12
160.7104434103121
 22
1.985449928723963
 32
0.0
 13
160.7104434103121
 23
1.985449928723963
 33
0.0
  0
SOLID
  5
327
330
31D
100
AcDbEntity
  8
치수문자_일반주서
 62
     0
100
AcDbTrace
 10
161.2607767436454
 20
-5.285300071276041
 30
0.0
 11
160.1601100769787
 21
-5.285300071276041
 31
0.0
 12
160.7104434103121
 22
-1.983300071276041
 32
0.0
 13
160.7104434103121
 23
-1.983300071276041
 33
0.0
  0
MTEXT
  5
328
330
31D
100
AcDbEntity
  8
치수문자_일반주서
 62
     0
100
AcDbMText
 10
156.3354434103121
 20
23.02694992872396
 30
0.0
 40
3.5
 41
0.0
 71
     2
 72
     1
  1
\A1;%%c3.97 [5/32]
  7
SLDTEXTSTYLE0
 11
0.0
 21
1.0
 31
0.0
 73
     1
 44
1.0
  0
POINT
  5
329
330
31D
100
AcDbEntity
  8
Defpoints
 62
     0
100
AcDbPoint
 10
146.5292879311719
 20
1.985449928723908
 30
0.0
  0
POINT
  5
32A
330
31D
100
AcDbEntity
  8
Defpoints
 62
     0
100
AcDbPoint
 10
146.5292879311719
 20
-1.983300071276094
 30
0.0
  0
POINT
  5
32B
330
31D
100
AcDbEntity
  8
Defpoints
 62
     0
100
AcDbPoint
 10
160.7104434103122
 20
-1.983300071276041
 30
0.0
  0
ENDBLK
  5
31F
330
31D
100
AcDbEntity
  8
0
100
AcDbBlockEnd
  0
BLOCK
  5
32D
330
32C
100
AcDbEntity
  8
0
100
AcDbBlockBegin
  2
*D18
 70
     1
 10
0.0
 20
0.0
 30
0.0
  3
*D18
  1
*D20
  0
LINE
  5
32F
330
32C
100
AcDbEntity
  8
치수문자_일반주서
 62
     0
370
    -2
100
AcDbLine
 10
146.5292879311719
 20
2.040652571287911
 30
0.0
 11
146.5292879311719
 21
20.30771121645973
 31
0.0
  0
LINE
  5
330
330
32C
100
AcDbEntity
  8
치수문자_일반주서
 62
     0
370
    -2
100
AcDbLine
 10
135.4167879311719
 20
2.016744444132984
 30
0.0
 11
135.4167879311719
 21
20.30771121645973
 31
0.0
  0
LINE
  5
331
330
32C
100
AcDbEntity
  8
치수문자_일반주서
 62
     0
370
    -2
100
AcDbLine
 10
135.4167879311719
 20
20.30771121645973
 30
0.0
 11
104.3127879311719
 21
20.30771121645973
 31
0.0
  0
LINE
  5
332
330
32C
100
AcDbEntity
  8
치수문자_일반주서
 62
     0
370
    -2
100
AcDbLine
 10
146.5292879311719
 20
20.30771121645973
 30
0.0
 11
135.4167879311719
 21
20.30771121645973
 31
0.0
  0
LINE
  5
333
330
32C
100
AcDbEntity
  8
치수문자_일반주서
 62
     0
370
    -2
100
AcDbLine
 10
149.8312879311719
 20
20.30771121645973
 30
0.0
 11
153.1332879311719
 21
20.30771121645973
 31
0.0
  0
LINE
  5
334
330
32C
100
AcDbEntity
  8
치수문자_일반주서
 62
     0
370
    -2
100
AcDbLine
 10
132.1147879311719
 20
20.30771121645973
 30
0.0
 11
128.8127879311719
 21
20.30771121645973
 31
0.0
  0
SOLID
  5
335
330
32C
100
AcDbEntity
  8
치수문자_일반주서
 62
     0
100
AcDbTrace
 10
149.8312879311719
 20
20.85804454979306
 30
0.0
 11
149.8312879311719
 21
19.75737788312639
 31
0.0
 12
146.5292879311719
 22
20.30771121645973
 32
0.0
 13
146.5292879311719
 23
20.30771121645973
 33
0.0
  0
SOLID
  5
336
330
32C
100
AcDbEntity
  8
치수문자_일반주서
 62
     0
100
AcDbTrace
 10
132.1147879311719
 20
19.75737788312639
 30
0.0
 11
132.1147879311719
 21
20.85804454979306
 31
0.0
 12
135.4167879311719
 22
20.30771121645973
 32
0.0
 13
135.4167879311719
 23
20.30771121645973
 33
0.0
  0
MTEXT
  5
337
330
32C
100
AcDbEntity
  8
치수문자_일반주서
 62
     0
100
AcDbMText
 10
116.5627879311719
 20
24.68271121645973
 30
0.0
 40
3.5
 41
0.0
 71
     2
 72
     1
  1
\A1;11.11 [7/16]
  7
SLDTEXTSTYLE0
 73
     1
 44
1.0
  0
POINT
  5
338
330
32C
100
AcDbEntity
  8
Defpoints
 62
     0
100
AcDbPoint
 10
146.5292879311719
 20
1.978152571287911
 30
0.0
  0
POINT
  5
339
330
32C
100
AcDbEntity
  8
Defpoints
 62
     0
100
AcDbPoint
 10
135.4167879311719
 20
1.954244444132984
 30
0.0
  0
POINT
  5
33A
330
32C
100
AcDbEntity
  8
Defpoints
 62
     0
100
AcDbPoint
 10
135.4167879311719
 20
20.30771121645973
 30
0.0
  0
ENDBLK
  5
32E
330
32C
100
AcDbEntity
  8
0
100
AcDbBlockEnd
  0
BLOCK
  5
33C
330
33B
100
AcDbEntity
  8
0
100
AcDbBlockBegin
  2
*D19
 70
     1
 10
0.0
 20
0.0
 30
0.0
  3
*D19
  1
*D21
  0
LINE
  5
33E
330
33B
100
AcDbEntity
  8
치수문자_일반주서
 62
     0
370
    -2
100
AcDbLine
 10
146.5292879311719
 20
2.040652571287911
 30
0.0
 11
146.5292879311719
 21
49.56857151426232
 31
0.0
  0
LINE
  5
33F
330
33B
100
AcDbEntity
  8
치수문자_일반주서
 62
     0
370
    -2
100
AcDbLine
 10
67.15428793117187
 20
3.873574928723895
 30
0.0
 11
67.15428793117187
 21
49.56857151426232
 31
0.0
  0
LINE
  5
340
330
33B
100
AcDbEntity
  8
치수문자_일반주서
 62
     0
370
    -2
100
AcDbLine
 10
143.2272879311719
 20
49.56857151426232
 30
0.0
 11
70.45628793117186
 21
49.56857151426232
 31
0.0
  0
SOLID
  5
341
330
33B
100
AcDbEntity
  8
치수문자_일반주서
 62
     0
100
AcDbTrace
 10
143.2272879311719
 20
49.01823818092898
 30
0.0
 11
143.2272879311719
 21
50.11890484759565
 31
0.0
 12
146.5292879311719
 22
49.56857151426232
 32
0.0
 13
146.5292879311719
 23
49.56857151426232
 33
0.0
  0
SOLID
  5
342
330
33B
100
AcDbEntity
  8
치수문자_일반주서
 62
     0
100
AcDbTrace
 10
70.45628793117186
 20
50.11890484759565
 30
0.0
 11
70.45628793117186
 21
49.01823818092898
 31
0.0
 12
67.15428793117187
 22
49.56857151426232
 32
0.0
 13
67.15428793117187
 23
49.56857151426232
 33
0.0
  0
MTEXT
  5
343
330
33B
100
AcDbEntity
  8
치수문자_일반주서
 62
     0
100
AcDbMText
 10
104.8165386448925
 20
53.94357151426232
 30
0.0
 40
3.5
 41
0.0
 71
     2
 72
     1
  1
\A1;79.38 [3 1/8]
  7
SLDTEXTSTYLE0
 73
     1
 44
1.0
  0
POINT
  5
344
330
33B
100
AcDbEntity
  8
Defpoints
 62
     0
100
AcDbPoint
 10
146.5292879311719
 20
1.978152571287911
 30
0.0
  0
POINT
  5
345
330
33B
100
AcDbEntity
  8
Defpoints
 62
     0
100
AcDbPoint
 10
67.15428793117187
 20
3.811074928723895
 30
0.0
  0
POINT
  5
346
330
33B
100
AcDbEntity
  8
Defpoints
 62
     0
100
AcDbPoint
 10
67.15428793117187
 20
49.56857151426232
 30
0.0
  0
ENDBLK
  5
33D
330
33B
100
AcDbEntity
  8
0
100
AcDbBlockEnd
  0
ENDSEC
  0
SECTION
  2
ENTITIES
  0
LINE
  5
96
330
1F
100
AcDbEntity
  8
외형선
  6
Continuous
370
    15
100
AcDbLine
 10
36.7907733287321
 20
-0.5685041487803563
 30
0.0
 11
36.83979121440214
 21
-0.5951605481005539
 31
0.0
  0
LINE
  5
97
330
1F
100
AcDbEntity
  8
0
  6
Continuous
 62
     1
370
    15
100
AcDbLine
 10
38.9808128881694
 20
0.5700667631248985
 30
0.0
 11
38.94533727518687
 21
0.589283501577375
 31
0.0
  0
LINE
  5
98
330
1F
100
AcDbEntity
  8
외형선
  6
Continuous
370
    15
100
AcDbLine
 10
28.60041242979997
 20
0.3359148325520309
 30
0.0
 11
28.57500000000002
 21
0.3484125698696499
 31
0.0
  0
LINE
  5
99
330
1F
100
AcDbEntity
  8
0
  6
Continuous
 62
     1
370
    15
100
AcDbLine
 10
34.58212812502583
 20
-1.984375000000002
 30
0.0
 11
35.79275411161543
 21
-1.984375000000002
 31
0.0
  0
LINE
  5
9A
330
1F
100
AcDbEntity
  8
0
  6
Continuous
 62
     1
370
    15
100
AcDbLine
 10
30.39581496138659
 20
1.984374999999999
 30
0.0
 11
29.1855489755354
 21
1.984374999999999
 31
0.0
  0
LINE
  5
9B
330
1F
100
AcDbEntity
  8
0
  6
Continuous
 62
     1
370
    15
100
AcDbLine
 10
35.79275411161542
 20
1.984374999999999
 30
0.0
 11
34.58212812502585
 21
1.984374999999999
 31
0.0
  0
LINE
  5
9C
330
1F
100
AcDbEntity
  8
0
  6
Continuous
 62
     1
370
    15
100
AcDbLine
 10
29.1855489755354
 20
-1.984375000000002
 30
0.0
 11
30.39581496138658
 21
-1.984375000000002
 31
0.0
  0
LINE
  5
9D
330
1F
100
AcDbEntity
  8
외형선
  6
Continuous
370
    15
100
AcDbLine
 10
17.20689635022272
 20
-4.762500000000009
 30
0.0
 11
27.57500000000001
 21
-1.984375000000002
 31
0.0
  0
LINE
  5
9E
330
1F
100
AcDbEntity
  8
외형선
  6
Continuous
370
    15
100
AcDbLine
 10
27.57500000000001
 20
1.984374999999999
 30
0.0
 11
17.20689635022272
 21
4.762500000000007
 31
0.0
  0
LINE
  5
9F
330
1F
100
AcDbEntity
  8
외형선
  6
Continuous
370
    15
100
AcDbLine
 10
-17.20689635022271
 20
-4.762500000000005
 30
0.0
 11
17.20689635022271
 21
-4.762500000000005
 31
0.0
  0
LINE
  5
A0
330
1F
100
AcDbEntity
  8
외형선
  6
Continuous
370
    15
100
AcDbLine
 10
17.20689635022272
 20
4.762500000000003
 30
0.0
 11
4.838700000000101
 21
4.762500000000003
 31
0.0
  0
LINE
  5
A3
330
1F
100
AcDbEntity
  8
외형선
  6
Continuous
370
    15
100
AcDbLine
 10
27.57500000000001
 20
-1.984375000000001
 30
0.0
 11
28.07483056792439
 21
-1.984375000000001
 31
0.0
  0
LINE
  5
A4
330
1F
100
AcDbEntity
  8
외형선
  6
Continuous
370
    15
100
AcDbLine
 10
28.07483056792439
 20
1.984374999999999
 30
0.0
 11
27.57500000000001
 21
1.984374999999999
 31
0.0
  0
LINE
  5
A5
330
1F
100
AcDbEntity
  8
0
  6
Continuous
 62
     1
370
    15
100
AcDbLine
 10
39.68750000000001
 20
-1.797211427429372
 30
0.0
 11
39.68750000000001
 21
0.1700239274293935
 31
0.0
  0
SPLINE
  5
A6
330
1F
100
AcDbEntity
  8
0
  6
Continuous
 62
     1
370
    15
100
AcDbSpline
210
0.0
220
0.0
230
1.0
 70
     8
 71
     3
 72
    17
 73
    13
 74
     0
 42
0.000000001
 43
0.00000001
 40
0.0
 40
0.0
 40
0.0
 40
0.0
 40
0.0272694045559232
 40
0.1388759728286181
 40
0.2504805367897022
 40
0.36208397871492
 40
0.4736871817040905
 40
0.5788941920561139
 40
0.6841170019313801
 40
0.7893676513334732
 40
0.8946580643074938
 40
1.0
 40
1.0
 40
1.0
 40
1.0
 10
30.39581496138659
 20
1.967748483349536
 30
0.0
 10
30.4802779197716
 20
1.972759957254919
 30
0.0
 10
30.91042576145426
 20
1.998282088201637
 30
0.0
 10
31.68624545737712
 20
1.865099103515316
 30
0.0
 10
32.72327939493842
 20
1.572204042033684
 30
0.0
 10
33.76027802099334
 20
1.122842362999279
 30
0.0
 10
34.7775428937887
 20
0.5862807673578667
 30
0.0
 10
35.7747552491268
 20
0.0106625260594798
 30
0.0
 10
36.75240041929865
 20
-0.5548682251595194
 30
0.0
 10
37.73033769944011
 20
-1.07313416388619
 30
0.0
 10
38.70871480700657
 20
-1.515513568755045
 30
0.0
 10
39.36118506881422
 20
-1.703296830001344
 30
0.0
 10
39.68750000000002
 20
-1.797211427429372
 30
0.0
  0
SPLINE
  5
A7
330
1F
100
AcDbEntity
  8
0
  6
Continuous
 62
     1
370
    15
100
AcDbSpline
210
0.0
220
0.0
230
1.0
 70
     8
 71
     3
 72
    15
 73
    11
 74
     0
 42
0.000000001
 43
0.00000001
 40
0.0
 40
0.0
 40
0.0
 40
0.0
 40
0.1437465866698494
 40
0.2874800879598588
 40
0.4312015893385996
 40
0.574912184950015
 40
0.718612976844907
 40
0.8623050742002252
 40
0.9977703409798414
 40
1.0
 40
1.0
 40
1.0
 40
1.0
 10
39.68750000000002
 20
0.1700239274293937
 30
0.0
 10
39.34158623297535
 20
0.3674339142049268
 30
0.0
 10
38.64979018776438
 20
0.7622359173490357
 30
0.0
 10
37.61216469123402
 20
1.281345006675279
 30
0.0
 10
36.57464282774485
 20
1.685998950332724
 30
0.0
 10
35.53721117764535
 20
1.936794353500795
 30
0.0
 10
34.49988142328515
 20
2.016825668369198
 30
0.0
 10
33.48234138398733
 20
1.900956754485433
 30
0.0
 10
32.80538697258606
 20
1.75248011908916
 30
0.0
 10
32.47412548164272
 20
1.621826857415656
 30
0.0
 10
32.46876144831307
 20
1.619711222277241
 30
0.0
  0
SPLINE
  5
A8
330
1F
100
AcDbEntity
  8
0
  6
Continuous
 62
     1
370
    15
100
AcDbSpline
210
0.0
220
0.0
230
1.0
 70
     8
 71
     3
 72
    17
 73
    13
 74
     0
 42
0.000000001
 43
0.00000001
 40
0.0
 40
0.0
 40
0.0
 40
0.0
 40
0.1112513961106981
 40
0.2224990406184625
 40
0.3337438093629825
 40
0.4449865802933496
 40
0.5562282328251995
 40
0.6674696471955709
 40
0.7723356037252687
 40
0.8772173085602553
 40
0.9821267626735483
 40
1.0
 40
1.0
 40
1.0
 40
1.0
 10
28.57499999999955
 20
1.002489289544786
 30
0.0
 10
28.92070810432448
 20
0.8213779676693566
 30
0.0
 10
29.61211265505733
 20
0.4591614313273951
 30
0.0
 10
30.64919581227143
 20
-0.1499414513507444
 30
0.0
 10
31.68624582109598
 20
-0.7389983468668239
 30
0.0
 10
32.72327932478914
 20
-1.262940492707313
 30
0.0
 10
33.7602779378793
 20
-1.672519272549748
 30
0.0
 10
34.77754328711384
 20
-1.925232837725788
 30
0.0
 10
35.77475385277128
 20
-2.013216850176422
 30
0.0
 10
36.75240564837956
 20
-1.926228399471247
 30
0.0
 10
37.45976946885779
 20
-1.782015093714721
 30
0.0
 10
37.84130389475334
 20
-1.636310107163958
 30
0.0
 10
37.89684311825691
 20
-1.615100115969497
 30
0.0
  0
SPLINE
  5
A9
330
1F
100
AcDbEntity
  8
외형선
  6
Continuous
370
    15
100
AcDbSpline
210
0.0
220
0.0
230
1.0
 70
    24
 71
     3
 72
    12
 73
     8
 74
     0
 42
0.000000001
 43
0.00000001
 40
0.0
 40
0.0
 40
0.0
 40
0.0
 40
0.1980023248130388
 40
0.4012480077811344
 40
0.60800690069957
 40
0.820761815519477
 40
0.9999999999999999
 40
0.9999999999999999
 40
0.9999999999999999
 40
0.9999999999999999
 10
28.57500000000004
 20
1.953169515409089
 30
0.0
 10
28.57500000000004
 20
1.890130822679166
 30
0.0
 10
28.57500000000001
 20
1.7623840909431
 30
0.0
 10
28.57499999999998
 20
1.568620710222503
 30
0.0
 10
28.57500000000004
 20
1.377359039233298
 30
0.0
 10
28.57499999999995
 20
1.202862699170157
 30
0.0
 10
28.575
 20
1.103075030663399
 30
0.0
 10
28.57500000000002
 20
1.057447287295939
 30
0.0
  0
SPLINE
  5
AA
330
1F
100
AcDbEntity
  8
0
  6
Continuous
 62
     1
370
    15
100
AcDbSpline
210
0.0
220
0.0
230
1.0
 70
     8
 71
     3
 72
    42
 73
    38
 74
     0
 42
0.000000001
 43
0.00000001
 40
0.0
 40
0.0
 40
0.0
 40
0.0
 40
0.0625000000000017
 40
0.0625000000000017
 40
0.1250000000000035
 40
0.1250000000000035
 40
0.1875000000000052
 40
0.1875000000000052
 40
0.2500000000000069
 40
0.2500000000000069
 40
0.3125000000000087
 40
0.3125000000000087
 40
0.3750000000000104
 40
0.3750000000000104
 40
0.4062500000000099
 40
0.4062500000000099
 40
0.4375000000000094
 40
0.4375000000000094
 40
0.4687500000000088
 40
0.4687500000000088
 40
0.5000000000000083
 40
0.5000000000000083
 40
0.5625000000000073
 40
0.5625000000000073
 40
0.6250000000000062
 40
0.6250000000000062
 40
0.6875000000000052
 40
0.6875000000000052
 40
0.7500000000000041
 40
0.7500000000000041
 40
0.8125000000000031
 40
0.8125000000000031
 40
0.8750000000000021
 40
0.8750000000000021
 40
0.937500000000001
 40
0.937500000000001
 40
1.0
 40
1.0
 40
1.0
 40
1.0
 10
39.68750000000001
 20
-1.984374999999989
 30
0.0
 10
39.45881625021322
 20
-1.965671110868074
 30
0.0
 10
39.22463112206307
 20
-1.94068915529852
 30
0.0
 10
38.7594046473337
 20
-1.864642667857356
 30
0.0
 10
38.53164122284176
 20
-1.813963240454453
 30
0.0
 10
38.06727900051842
 20
-1.688055814482845
 30
0.0
 10
37.83273762399448
 20
-1.612832202625349
 30
0.0
 10
37.37315122871203
 20
-1.442638899564287
 30
0.0
 10
37.14148538427779
 20
-1.346921883338925
 30
0.0
 10
36.67573370324787
 20
-1.138061518580849
 30
0.0
 10
36.44734965889661
 20
-1.025849110551976
 30
0.0
 10
35.98418863488142
 20
-0.7880371645750901
 30
0.0
 10
35.74946519018288
 20
-0.6623658644354172
 30
0.0
 10
35.40335529168517
 20
-0.4694615341091828
 30
0.0
 10
35.28945186892524
 20
-0.4045302535315557
 30
0.0
 10
35.0582343946438
 20
-0.2728751821651105
 30
0.0
 10
34.94174343121801
 20
-0.2063031489851145
 30
0.0
 10
34.7087751499183
 20
-0.0726826045857507
 30
0.0
 10
34.59230087746828
 20
-0.0056358403237555
 30
0.0
 10
34.36114932114862
 20
0.1279038581484148
 30
0.0
 10
34.24726078019873
 20
0.1942457728818497
 30
0.0
 10
33.90104143703336
 20
0.3928200796498994
 30
0.0
 10
33.66631055968406
 20
0.5241548964121346
 30
0.0
 10
33.20326720168488
 20
0.7767332664660632
 30
0.0
 10
32.97480174314754
 20
0.8980597401169258
 30
0.0
 10
32.50902107422714
 20
1.12838273404117
 30
0.0
 10
32.27754143657093
 20
1.236354537258258
 30
0.0
 10
31.81778120644712
 20
1.43368617129022
 30
0.0
 10
31.58321755056804
 20
1.523878298976236
 30
0.0
 10
31.11894444938783
 20
1.681647666721651
 30
0.0
 10
30.89115236585869
 20
1.749171697596879
 30
0.0
 10
30.42586798597135
 20
1.860477847999451
 30
0.0
 10
30.19192085045526
 20
1.903787214391423
 30
0.0
 10
29.73435202416554
 20
1.96358968346964
 30
0.0
 10
29.50012982564947
 20
1.980533282057991
 30
0.0
 10
29.03496371089011
 20
1.987043457258746
 30
0.0
 10
28.80722445193198
 20
1.976806419671692
 30
0.0
 10
28.57499999999997
 20
1.953169515406296
 30
0.0
  0
SPLINE
  5
AB
330
1F
100
AcDbEntity
  8
0
  6
Continuous
 62
     1
370
    15
100
AcDbSpline
210
0.0
220
0.0
230
1.0
 70
     8
 71
     3
 72
    11
 73
     7
 74
     0
 42
0.000000001
 43
0.00000001
 40
0.0
 40
0.0
 40
0.0
 40
0.0
 40
0.2663528459431626
 40
0.5326967099755076
 40
0.7990336889911138
 40
1.0
 40
1.0
 40
1.0
 40
1.0
 10
28.57499999999955
 20
-1.712530106296817
 30
0.0
 10
28.92070813108995
 20
-1.798504806346269
 30
0.0
 10
29.61211273535289
 20
-1.970451307219202
 30
0.0
 10
30.64919549110522
 20
-2.004243290719338
 30
0.0
 10
31.60140761986584
 20
-1.895938744427289
 30
0.0
 10
32.20792525439831
 20
-1.702780130454091
 30
0.0
 10
32.46876144831305
 20
-1.619711222277243
 30
0.0
  0
SPLINE
  5
AC
330
1F
100
AcDbEntity
  8
외형선
  6
Continuous
370
    15
100
AcDbSpline
210
0.0
220
0.0
230
1.0
 70
    24
 71
     3
 72
    19
 73
    15
 74
     0
 42
0.000000001
 43
0.00000001
 40
0.0
 40
0.0
 40
0.0
 40
0.0
 40
0.0834903701495918
 40
0.1648896461092985
 40
0.2486495065862162
 40
0.3300487825460335
 40
0.4138086430228408
 40
0.4952079189824359
 40
0.5789677794592313
 40
0.6603670554190467
 40
0.744126915896082
 40
0.8255261918556516
 40
0.9092860523327075
 40
1.0
 40
1.0
 40
1.0
 40
1.0
 10
28.57500000000001
 20
0.2827756528677365
 30
0.0
 10
28.575
 20
0.25568441207
 30
0.0
 10
28.57499999999997
 20
0.2021804558676645
 30
0.0
 10
28.57500000000002
 20
0.0835048268293539
 30
0.0
 10
28.57500000000001
 20
-0.0577782215788083
 30
0.0
 10
28.57500000000001
 20
-0.2230050083076493
 30
0.0
 10
28.57500000000004
 20
-0.4037447383927614
 30
0.0
 10
28.57500000000002
 20
-0.5983410236929778
 30
0.0
 10
28.57499999999994
 20
-0.7977395289411551
 30
0.0
 10
28.57500000000006
 20
-0.9998547127243764
 30
0.0
 10
28.57500000000004
 20
-1.195493300710775
 30
0.0
 10
28.575
 20
-1.382006785161332
 30
0.0
 10
28.57500000000004
 20
-1.559581731142968
 30
0.0
 10
28.57500000000002
 20
-1.660210379629888
 30
0.0
 10
28.575
 20
-1.712530106296945
 30
0.0
  0
SPLINE
  5
AD
330
1F
100
AcDbEntity
  8
0
  6
Continuous
 62
     1
370
    15
100
AcDbSpline
210
0.0
220
0.0
230
1.0
 70
     8
 71
     3
 72
    14
 73
    10
 74
     0
 42
0.000000001
 43
0.00000001
 40
0.0
 40
0.0
 40
0.0
 40
0.0
 40
0.0136941891940001
 40
0.1863405391725907
 40
0.3491023353244317
 40
0.5118304730002153
 40
0.6745436352176086
 40
0.8372605675994629
 40
1.0
 40
1.0
 40
1.0
 40
1.0
 10
34.58212812502583
 20
-1.977814670996506
 30
0.0
 10
34.55470276215637
 20
-1.979968076869239
 30
0.0
 10
34.18151842596097
 20
-2.009270053473906
 30
0.0
 10
33.48233931340189
 20
-1.899355626241149
 30
0.0
 10
32.48492178200026
 20
-1.651141415594822
 30
0.0
 10
31.50738842538909
 20
-1.257427350171876
 30
0.0
 10
30.52997423925372
 20
-0.7678684979988266
 30
0.0
 10
29.55253317901974
 20
-0.2132912220522482
 30
0.0
 10
28.90085941055684
 20
0.1625825510143752
 30
0.0
 10
28.57499999999997
 20
0.350532430329257
 30
0.0
  0
LINE
  5
AE
330
1F
100
AcDbEntity
  8
외형선
  6
Continuous
370
    15
100
AcDbLine
 10
28.57500000000004
 20
0.350532430328868
 30
0.0
 11
28.575
 21
1.002489289544567
 31
0.0
  0
LINE
  5
AF
330
1F
100
AcDbEntity
  8
0
  6
Continuous
 62
     1
370
    15
100
AcDbLine
 10
39.68749999999999
 20
-1.984374999999989
 30
0.0
 11
39.68750000000001
 21
-1.797211427429372
 31
0.0
  0
SPLINE
  5
B0
330
1F
100
AcDbEntity
  8
0
  6
Continuous
 62
     1
370
    15
100
AcDbSpline
210
0.0
220
0.0
230
1.0
 70
     8
 71
     3
 72
    11
 73
     7
 74
     0
 42
0.000000001
 43
0.00000001
 40
0.0
 40
0.0
 40
0.0
 40
0.0
 40
0.2463996050692381
 40
0.4974955217253992
 40
0.748686302124439
 40
1.0
 40
1.0
 40
1.0
 40
1.0
 10
35.79275411161542
 20
1.982930308679167
 30
0.0
 10
36.11260601649207
 20
1.968601309731233
 30
0.0
 10
36.75840611932402
 20
1.939670204888748
 30
0.0
 10
37.73033896869067
 20
1.697202103557174
 30
0.0
 10
38.70871448946279
 20
1.333417367766119
 30
0.0
 10
39.36118496294907
 20
1.005361725038954
 30
0.0
 10
39.68750000000002
 20
0.8412937808769632
 30
0.0
  0
LINE
  5
B1
330
1F
100
AcDbEntity
  8
0
  6
Continuous
 62
     1
370
    15
100
AcDbLine
 10
39.68750000000001
 20
0.1700239274293934
 30
0.0
 11
39.68750000000001
 21
0.8412937808769632
 31
0.0
  0
SPLINE
  5
B2
330
1F
100
AcDbEntity
  8
0
  6
Continuous
 62
     1
370
    15
100
AcDbSpline
210
0.0
220
0.0
230
1.0
 70
     8
 71
     3
 72
     9
 73
     5
 74
     0
 42
0.000000001
 43
0.00000001
 40
0.0
 40
0.0
 40
0.0
 40
0.0
 40
0.5795244258197714
 40
1.0
 40
1.0
 40
1.0
 40
1.0
 10
39.68750000000002
 20
1.984375000000013
 30
0.0
 10
39.34158574725684
 20
1.946481635742038
 30
0.0
 10
38.74469243727449
 20
1.893686610271457
 30
0.0
 10
38.14781535298754
 20
1.697564621716506
 30
0.0
 10
37.89684311825694
 20
1.615100115969494
 30
0.0
  0
LINE
  5
B3
330
1F
100
AcDbEntity
  8
0
  6
Continuous
 62
     1
370
    15
100
AcDbLine
 10
29.1855489755354
 20
-1.965580731294936
 30
0.0
 11
28.57499999999997
 21
-1.953169515406299
 31
0.0
  0
LINE
  5
B4
330
1F
100
AcDbEntity
  8
0
  6
Continuous
 62
     1
370
    15
100
AcDbLine
 10
39.68750000000001
 20
0.8412937808769632
 30
0.0
 11
39.68750000000001
 21
1.984375000000013
 31
0.0
  0
LINE
  5
B5
330
1F
100
AcDbEntity
  8
외형선
  6
Continuous
370
    15
100
AcDbLine
 10
28.57500000000004
 20
-1.953169515409092
 30
0.0
 11
28.575
 21
-1.712530106296945
 31
0.0
  0
LINE
  5
B6
330
1F
100
AcDbEntity
  8
외형선
  6
Continuous
370
    15
100
AcDbLine
 10
27.57500000000001
 20
-0.0000000000000013
 30
0.0
 11
27.57500000000001
 21
1.984374999999999
 31
0.0
  0
LINE
  5
B7
330
1F
100
AcDbEntity
  8
외형선
  6
Continuous
370
    15
100
AcDbLine
 10
27.57500000000001
 20
-1.984375000000002
 30
0.0
 11
27.57500000000001
 21
-0.0000000000000013
 31
0.0
  0
LINE
  5
B8
330
1F
100
AcDbEntity
  8
외형선
  6
Continuous
370
    15
100
AcDbLine
 10
17.20689635022272
 20
-0.0000000000000013
 30
0.0
 11
17.20689635022272
 21
4.762500000000007
 31
0.0
  0
LINE
  5
B9
330
1F
100
AcDbEntity
  8
외형선
  6
Continuous
370
    15
100
AcDbLine
 10
17.20689635022272
 20
-4.762500000000009
 30
0.0
 11
17.20689635022272
 21
-0.0000000000000013
 31
0.0
  0
SPLINE
  5
BE
330
1F
100
AcDbEntity
  8
외형선
  6
Continuous
370
    15
100
AcDbSpline
210
0.0
220
0.0
230
1.0
 70
     8
 71
     3
 72
     8
 73
     4
 74
     0
 42
0.000000001
 43
0.00000001
 40
0.0
 40
0.0
 40
0.0
 40
0.0
 40
1.0
 40
1.0
 40
1.0
 40
1.0
 10
28.57499999999984
 20
1.953169515406282
 30
0.0
 10
28.40858399267445
 20
1.936230906226006
 30
0.0
 10
28.24098426745681
 20
1.912375397580327
 30
0.0
 10
28.0748305679244
 20
1.881987869186203
 30
0.0
  0
LINE
  5
BF
330
1F
100
AcDbEntity
  8
외형선
  6
Continuous
370
    15
100
AcDbLine
 10
28.0748305679244
 20
1.239505459224737
 30
0.0
 11
28.07483056792439
 21
1.984374999999999
 31
0.0
  0
SPLINE
  5
C0
330
1F
100
AcDbEntity
  8
외형선
  6
Continuous
370
    15
100
AcDbSpline
210
0.0
220
0.0
230
1.0
 70
     8
 71
     3
 72
     8
 73
     4
 74
     0
 42
0.000000001
 43
0.00000001
 40
0.0
 40
0.0
 40
0.0
 40
0.0
 40
1.0
 40
1.0
 40
1.0
 40
1.0
 10
28.57499999999958
 20
1.002489289544766
 30
0.0
 10
28.40858399267428
 20
1.08524305401886
 30
0.0
 10
28.24098426745673
 20
1.164661446037624
 30
0.0
 10
28.0748305679244
 20
1.23950444568574
 30
0.0
  0
SPLINE
  5
C1
330
1F
100
AcDbEntity
  8
외형선
  6
Continuous
370
    15
100
AcDbSpline
210
0.0
220
0.0
230
1.0
 70
     8
 71
     3
 72
     8
 73
     4
 74
     0
 42
0.000000001
 43
0.00000001
 40
0.0
 40
0.0
 40
0.0
 40
0.0
 40
1.0
 40
1.0
 40
1.0
 40
1.0
 10
28.57499999999984
 20
0.3505324303293307
 30
0.0
 10
28.40858399267445
 20
0.4449144966426106
 30
0.0
 10
28.24098426745681
 20
0.5382840460242884
 30
0.0
 10
28.0748305679244
 20
0.6291786716513685
 30
0.0
  0
LINE
  5
C2
330
1F
100
AcDbEntity
  8
외형선
  6
Continuous
370
    15
100
AcDbLine
 10
28.0748305679244
 20
-1.549635556244455
 30
0.0
 11
28.07483056792439
 21
0.6291848795708672
 31
0.0
  0
SPLINE
  5
C3
330
1F
100
AcDbEntity
  8
외형선
  6
Continuous
370
    15
100
AcDbSpline
210
0.0
220
0.0
230
1.0
 70
     8
 71
     3
 72
     8
 73
     4
 74
     0
 42
0.000000001
 43
0.00000001
 40
0.0
 40
0.0
 40
0.0
 40
0.0
 40
1.0
 40
1.0
 40
1.0
 40
1.0
 10
28.57499999999958
 20
-1.712530106296827
 30
0.0
 10
28.40858399267428
 20
-1.664087300970512
 30
0.0
 10
28.24098426745673
 20
-1.609500882754751
 30
0.0
 10
28.0748305679244
 20
-1.549636366942347
 30
0.0
  0
SPLINE
  5
C4
330
1F
100
AcDbEntity
  8
외형선
  6
Continuous
370
    15
100
AcDbSpline
210
0.0
220
0.0
230
1.0
 70
     8
 71
     3
 72
     8
 73
     4
 74
     0
 42
0.000000001
 43
0.00000001
 40
0.0
 40
0.0
 40
0.0
 40
0.0
 40
1.0
 40
1.0
 40
1.0
 40
1.0
 10
28.57499999999984
 20
-1.953169515406285
 30
0.0
 10
28.40858399267445
 20
-1.936230906226009
 30
0.0
 10
28.24098426745681
 20
-1.91237539758033
 30
0.0
 10
28.0748305679244
 20
-1.881987869186205
 30
0.0
  0
LINE
  5
C5
330
1F
100
AcDbEntity
  8
외형선
  6
Continuous
370
    15
100
AcDbLine
 10
28.07483056792439
 20
-1.984375000000001
 30
0.0
 11
28.07483056792439
 21
-1.881985793767956
 31
0.0
  0
SPLINE
  5
C6
330
1F
100
AcDbEntity
  8
외형선
  6
Continuous
370
    15
100
AcDbSpline
210
0.0
220
0.0
230
1.0
 70
    24
 71
     3
 72
    15
 73
    11
 74
     0
 42
0.000000001
 43
0.00000001
 40
0.0
 40
0.0
 40
0.0
 40
0.0
 40
0.0520718248007378
 40
0.2006652717927887
 40
0.3492587187848225
 40
0.4978521657768795
 40
0.6464456127689295
 40
0.7950390597609738
 40
0.9436325067529852
 40
1.0
 40
1.0
 40
1.0
 40
1.0
 10
28.575
 20
-1.712530106296954
 30
0.0
 10
28.575
 20
-1.679910393377747
 30
0.0
 10
28.575
 20
-1.554206260984012
 30
0.0
 10
28.57499999999997
 20
-1.278933230393232
 30
0.0
 10
28.57500000000002
 20
-0.8813231376178474
 30
0.0
 10
28.57499999999998
 20
-0.4773964877532724
 30
0.0
 10
28.57500000000002
 20
-0.1113216897209182
 30
0.0
 10
28.57500000000001
 20
0.1652622210688821
 30
0.0
 10
28.575
 20
0.320717649139708
 30
0.0
 10
28.57500000000001
 20
0.3307092150678848
 30
0.0
 10
28.57500000000001
 20
0.3334570533844285
 30
0.0
  0
SPLINE
  5
C7
330
1F
100
AcDbEntity
  8
외형선
  6
Continuous
370
    15
100
AcDbSpline
210
0.0
220
0.0
230
1.0
 70
    24
 71
     3
 72
    13
 73
     9
 74
     0
 42
0.000000001
 43
0.00000001
 40
0.0
 40
0.0
 40
0.0
 40
0.0
 40
0.0971030654414456
 40
0.303411683129221
 40
0.5157032647062751
 40
0.722011882394151
 40
0.9343034639713149
 40
1.0
 40
1.0
 40
1.0
 40
1.0
 10
28.57500000000001
 20
1.057437287295957
 30
0.0
 10
28.57500000000001
 20
1.081007261272523
 30
0.0
 10
28.57500000000001
 20
1.154654838133568
 30
0.0
 10
28.57500000000004
 20
1.301415357956021
 30
0.0
 10
28.575
 20
1.489024598371056
 30
0.0
 10
28.57500000000004
 20
1.688425351620134
 30
0.0
 10
28.57500000000005
 20
1.844025670811786
 30
0.0
 10
28.575
 20
1.932306283810564
 30
0.0
 10
28.57500000000001
 20
1.953169515384843
 30
0.0
  0
LINE
  5
C8
330
1F
100
AcDbEntity
  8
중심선
 62
     1
100
AcDbLine
 10
-42.6875
 20
-0.0000000000000052
 30
0.0
 11
42.68750000000001
 21
0.0000000000000052
 31
0.0
  0
LINE
  5
C9
330
1F
100
AcDbEntity
  8
참조1
100
AcDbLine
 10
0.1933806570156155
 20
0.0010749287238892
 30
0.0
 11
0.1933806570156224
 21
-39.99892507127611
 31
0.0
  0
LINE
  5
CA
330
1F
100
AcDbEntity
  8
참조1
100
AcDbLine
 10
0.1933806570156224
 20
-39.99892507127611
 30
0.0
 11
-29.25297615729306
 21
-39.9989250712761
 31
0.0
  0
CIRCLE
  5
CB
330
1F
100
AcDbEntity
  8
해칭선
100
AcDbCircle
 10
0.0
 20
0.0000000000000007
 30
0.0
 40
3.000000000000003
  0
INSERT
  5
CC
330
1F
100
AcDbEntity
  8
0
  6
Continuous
 62
     7
100
AcDbBlockReference
 66
     1
  2
블럭10
 10
-13.74689227510959
 20
-34.30544859526627
 30
0.0
  0
ATTRIB
  5
CD
330
CC
100
AcDbEntity
  8
FORMAT
 62
     2
100
AcDbText
 10
-22.92818756385087
 20
-32.23008168243408
 30
0.0
 40
4.233333333333333
  1
E5024010 [ 4 FLUTE ]
 41
0.75
  7
SLDTEXTSTYLE0
 11
-22.92818756385087
 21
-34.34674834910075
 31
0.0
100
AcDbAttribute
  2
AUTOATTR0
 70
     0
 74
     1
  0
SEQEND
  5
CE
330
CC
100
AcDbEntity
  8
0
  6
Continuous
 62
     7
  0
HATCH
  5
CF
330
1F
100
AcDbEntity
  8
중심선
100
AcDbHatch
 10
0.0
 20
0.0
 30
0.0
210
0.0
220
0.0
230
1.0
  2
SOLID
 70
     1
 71
     0
 91
        1
 92
        0
 93
        4
 72
     1
 10
-8.031982970728741
 20
-18.05827429362233
 11
-11.47825821456602
 21
-18.05827429362233
 72
     1
 10
-11.47825821456602
 20
-18.05827429362233
 11
-13.60648807377004
 21
-20.59459987419496
 72
     1
 10
-13.60648807377004
 20
-20.59459987419496
 11
-10.16017974481961
 21
-20.59456044489247
 72
     1
 10
-10.16017974481961
 20
-20.59456044489247
 11
-8.031982970728741
 21
-18.05827429362233
 97
        0
 75
     0
 76
     1
 98
        1
 10
0.0
 20
17.74065077765377
  0
HATCH
  5
D0
330
1F
100
AcDbEntity
  8
중심선
100
AcDbHatch
 10
0.0
 20
0.0
 30
0.0
210
0.0
220
0.0
230
1.0
  2
SOLID
 70
     1
 71
     0
 91
        1
 92
        0
 93
        4
 72
     1
 10
-3.019218979692762
 20
-18.05827429362233
 11
-6.465494223530044
 21
-18.05827429362233
 72
     1
 10
-6.465494223530044
 20
-18.05827429362233
 11
-10.99663223188746
 21
-23.45827429362235
 72
     1
 10
-10.99663223188746
 20
-23.45827429362235
 11
-7.550356988050178
 21
-23.45827429362235
 72
     1
 10
-7.550356988050178
 20
-23.45827429362235
 11
-3.019218979692761
 21
-18.05827429362233
 97
        0
 75
     0
 76
     1
 98
        1
 10
0.0
 20
17.74065077765377
  0
HATCH
  5
D1
330
1F
100
AcDbEntity
  8
중심선
100
AcDbHatch
 10
0.0
 20
0.0
 30
0.0
210
0.0
220
0.0
230
1.0
  2
SOLID
 70
     1
 71
     0
 91
        1
 92
        0
 93
        4
 72
     1
 10
1.993545011343134
 20
-18.05827429362233
 11
-1.452730232493954
 21
-18.05827429362231
 72
     1
 10
-1.452730232493954
 20
-18.05827429362231
 11
-8.501167134383259
 21
-26.45827429362235
 72
     1
 10
-8.501167134383259
 20
-26.45827429362235
 11
-5.054891890545976
 21
-26.45827429362235
 72
     1
 10
-5.054891890545976
 20
-26.45827429362235
 11
1.993545011343134
 21
-18.05827429362233
 97
        0
 75
     0
 76
     1
 98
        1
 10
0.0
 20
17.74065077765377
  0
HATCH
  5
D2
330
1F
100
AcDbEntity
  8
중심선
100
AcDbHatch
 10
0.0
 20
0.0
 30
0.0
210
0.0
220
0.0
230
1.0
  2
SOLID
 70
     1
 71
     0
 91
        1
 92
        0
 93
        6
 72
     3
 10
6.793435442355306
 20
-22.25827429367361
 11
3.960054785062284
 21
1.540882976769353E-10
 40
0.3939339440162627
 50
17.09539180608436
 51
320.0019657685081
 73
     0
 72
     1
 10
8.476435098055902
 20
-20.84616829826064
 11
10.78173697175697
 21
-18.91184158821269
 72
     3
 10
6.793435442302459
 20
-22.25827429362248
 11
6.60005478528683
 21
-1.278976924368180E-13
 40
0.636358354079598
 50
39.99873849337413
 51
368.4976242363724
 73
     1
 72
     1
 10
13.21876793420307
 20
-21.29827429355236
 11
5.473502749138381
 21
-21.29827429355236
 72
     1
 10
5.473502749138381
 20
-21.29827429355236
 11
5.473477704692447
 21
-23.21827429355225
 72
     1
 10
5.473477704692447
 20
-23.21827429355225
 11
9.914857474164485
 21
-23.21827429355222
 97
        0
 75
     0
 76
     1
 98
        1
 10
0.0
 20
17.74065077765377
  0
DIMENSION
  5
D3
330
1F
100
AcDbEntity
  8
치수문자_일반주서
100
AcDbDimension
  2
_D
 10
53.86865547914031
 20
-1.984374999999936
 30
0.0
 11
53.86865547914022
 21
23.02587500000007
 31
0.0
 70
   160
  1
%%c<>
 71
     2
 42
3.968750000000002
 52
-270.0
  3
SLDDIMSTYLE0
100
AcDbAlignedDimension
 13
39.68750000000001
 23
1.984375000000013
 33
0.0
 14
39.68750000000001
 24
-1.984374999999989
 34
0.0
 50
90.0000000000002
100
AcDbRotatedDimension
1001
ACAD
1000
DSTYLE
1002
{
1070
   171
1070
     6
1070
   273
1070
     5
1002
}
  0
DIMENSION
  5
E8
330
1F
100
AcDbEntity
  8
치수문자_일반주서
100
AcDbDimension
  2
_D_1
 10
28.57500000000004
 20
20.30663628773583
 30
0.0
 11
9.72100000000004
 21
20.30663628773583
 31
0.0
 70
   160
  1
<>
 71
     2
 42
11.11249999999997
  3
SLDDIMSTYLE0
100
AcDbAlignedDimension
 13
39.68750000000001
 23
1.977077642564017
 33
0.0
 14
28.57500000000004
 24
1.953169515409089
 34
0.0
100
AcDbRotatedDimension
1001
ACAD
1000
DSTYLE
1002
{
1070
   171
1070
     6
1070
   273
1070
     5
1002
}
  0
DIMENSION
  5
FD
330
1F
100
AcDbEntity
  8
치수문자_일반주서
100
AcDbDimension
  2
_D_2
 10
-39.68750000000001
 20
49.56749658553842
 30
0.0
 11
-2.025249286279307
 21
49.56749658553842
 31
0.0
 70
   160
  1
<>
 71
     2
 42
79.375
  3
SLDDIMSTYLE0
100
AcDbAlignedDimension
 13
39.68750000000001
 23
1.977077642564017
 33
0.0
 14
-39.6875
 24
1.984374999999987
 34
0.0
100
AcDbRotatedDimension
1001
ACAD
1000
DSTYLE
1002
{
1070
   171
1070
     6
1070
   273
1070
     5
1002
}
  0
DIMENSION
  5
110
330
1F
100
AcDbEntity
  8
치수문자_일반주서
100
AcDbDimension
  2
_D_3
 10
-53.08624999999999
 20
-4.762500000000138
 30
0.0
 11
-53.0862500000001
 21
24.71024999999995
 31
0.0
 70
   160
  1
%%c<>
 71
     2
 42
9.52500000000001
 52
-270.0
  3
SLDDIMSTYLE0
100
AcDbAlignedDimension
 13
-17.20689635022271
 23
4.762500000000004
 33
0.0
 14
-17.20689635022271
 24
-4.762500000000005
 34
0.0
 50
90.0000000000002
100
AcDbRotatedDimension
1001
ACAD
1000
DSTYLE
1002
{
1070
   171
1070
     6
1070
   273
1070
     5
1002
}
  0
LINE
  5
124
330
1F
100
AcDbEntity
  8
참조1
100
AcDbLine
 10
68.7193644723612
 20
7.441074928723896
 30
0.0
 11
68.7193644723612
 21
-7.438925071276109
 31
0.0
  0
LINE
  5
125
330
1F
100
AcDbEntity
  8
참조1
100
AcDbLine
 10
81.41936447236121
 20
5.441074928723896
 30
0.0
 11
68.7193644723612
 21
5.441074928723896
 31
0.0
  0
SOLID
  5
126
330
1F
100
AcDbEntity
  8
참조1
100
AcDbTrace
 10
68.7193644723612
 20
5.441074928723896
 30
0.0
 11
75.0693644723612
 21
4.425074928723896
 31
0.0
 12
75.0693644723612
 22
6.457074928723896
 32
0.0
 13
75.0693644723612
 23
6.457074928723896
 33
0.0
  0
LINE
  5
127
330
1F
100
AcDbEntity
  8
참조1
100
AcDbLine
 10
81.41936447236121
 20
-5.438925071276109
 30
0.0
 11
68.7193644723612
 21
-5.438925071276109
 31
0.0
  0
SOLID
  5
128
330
1F
100
AcDbEntity
  8
참조1
100
AcDbTrace
 10
68.7193644723612
 20
-5.438925071276109
 30
0.0
 11
75.0693644723612
 21
-6.454925071276109
 31
0.0
 12
75.0693644723612
 22
-4.422925071276109
 32
0.0
 13
75.0693644723612
 23
-4.422925071276109
 33
0.0
  0
MTEXT
  5
129
330
1F
100
AcDbEntity
  8
참조1
100
AcDbMText
 10
78.1037146049872
 20
11.01136670591223
 30
0.0
 40
3.5
 41
0.0
 71
     1
 72
     1
  1
A
  7
SLDTEXTSTYLE0
 73
     1
 44
1.0
  0
MTEXT
  5
12A
330
1F
100
AcDbEntity
  8
참조1
100
AcDbMText
 10
78.1037146049872
 20
0.1313667059122219
 30
0.0
 40
3.5
 41
0.0
 71
     1
 72
     1
  1
A
  7
SLDTEXTSTYLE0
 73
     1
 44
1.0
  0
INSERT
  5
131
330
1F
100
AcDbEntity
  8
해칭선
100
AcDbBlockReference
  2
SW_DOWELSYMBOL_0
 10
0.0
 20
0.0000000000000007
 30
0.0
  0
LINE
  5
2EF
330
1F
100
AcDbEntity
  8
외형선
  6
Continuous
370
    15
100
AcDbLine
 10
-36.79077332873209
 20
0.5685041487803537
 30
0.0
 11
-36.83979121440214
 21
0.5951605481005513
 31
0.0
  0
LINE
  5
2F0
330
1F
100
AcDbEntity
  8
0
  6
Continuous
 62
     1
370
    15
100
AcDbLine
 10
-38.98081288816937
 20
-0.5700667631249007
 30
0.0
 11
-38.94533727518686
 21
-0.5892835015773772
 31
0.0
  0
LINE
  5
2F1
330
1F
100
AcDbEntity
  8
외형선
  6
Continuous
370
    15
100
AcDbLine
 10
-28.60041242979995
 20
-0.3359148325520344
 30
0.0
 11
-28.57500000000002
 21
-0.3484125698696534
 31
0.0
  0
LINE
  5
2F2
330
1F
100
AcDbEntity
  8
0
  6
Continuous
 62
     1
370
    15
100
AcDbLine
 10
-34.58212812502583
 20
1.984374999999999
 30
0.0
 11
-35.79275411161541
 21
1.984374999999999
 31
0.0
  0
LINE
  5
2F3
330
1F
100
AcDbEntity
  8
0
  6
Continuous
 62
     1
370
    15
100
AcDbLine
 10
-30.39581496138658
 20
-1.984375000000002
 30
0.0
 11
-29.1855489755354
 21
-1.984375000000002
 31
0.0
  0
LINE
  5
2F4
330
1F
100
AcDbEntity
  8
0
  6
Continuous
 62
     1
370
    15
100
AcDbLine
 10
-35.79275411161541
 20
-1.984375000000002
 30
0.0
 11
-34.58212812502583
 21
-1.984375000000002
 31
0.0
  0
LINE
  5
2F5
330
1F
100
AcDbEntity
  8
0
  6
Continuous
 62
     1
370
    15
100
AcDbLine
 10
-29.1855489755354
 20
1.984374999999998
 30
0.0
 11
-30.39581496138658
 21
1.984374999999999
 31
0.0
  0
LINE
  5
2F6
330
1F
100
AcDbEntity
  8
외형선
  6
Continuous
370
    15
100
AcDbLine
 10
-17.20689635022271
 20
4.762500000000004
 30
0.0
 11
-27.57499999999999
 21
1.984374999999998
 31
0.0
  0
LINE
  5
2F7
330
1F
100
AcDbEntity
  8
외형선
  6
Continuous
370
    15
100
AcDbLine
 10
-27.57499999999999
 20
-1.984375000000003
 30
0.0
 11
-17.20689635022271
 21
-4.762500000000013
 31
0.0
  0
LINE
  5
2F8
330
1F
100
AcDbEntity
  8
외형선
  6
Continuous
370
    15
100
AcDbLine
 10
-27.57499999999999
 20
1.984374999999998
 30
0.0
 11
-28.07483056792438
 21
1.984374999999998
 31
0.0
  0
LINE
  5
2F9
330
1F
100
AcDbEntity
  8
외형선
  6
Continuous
370
    15
100
AcDbLine
 10
-28.07483056792438
 20
-1.984375000000002
 30
0.0
 11
-27.57499999999999
 21
-1.984375000000002
 31
0.0
  0
LINE
  5
2FA
330
1F
100
AcDbEntity
  8
0
  6
Continuous
 62
     1
370
    15
100
AcDbLine
 10
-39.6875
 20
1.79721142742937
 30
0.0
 11
-39.6875
 21
-0.1700239274293956
 31
0.0
  0
SPLINE
  5
2FB
330
1F
100
AcDbEntity
  8
0
  6
Continuous
 62
     1
370
    15
100
AcDbSpline
210
0.0
220
0.0
230
1.0
 70
     8
 71
     3
 72
    17
 73
    13
 74
     0
 42
0.000000001
 43
0.00000001
 40
0.0
 40
0.0
 40
0.0
 40
0.0
 40
0.0272694045559232
 40
0.1388759728286181
 40
0.2504805367897022
 40
0.36208397871492
 40
0.4736871817040905
 40
0.5788941920561139
 40
0.6841170019313801
 40
0.7893676513334732
 40
0.8946580643074938
 40
1.0
 40
1.0
 40
1.0
 40
1.0
 10
-30.39581496138658
 20
-1.967748483349539
 30
0.0
 10
-30.48027791977159
 20
-1.972759957254922
 30
0.0
 10
-30.91042576145423
 20
-1.998282088201641
 30
0.0
 10
-31.68624545737711
 20
-1.865099103515319
 30
0.0
 10
-32.7232793949384
 20
-1.572204042033687
 30
0.0
 10
-33.76027802099333
 20
-1.122842362999282
 30
0.0
 10
-34.77754289378868
 20
-0.5862807673578695
 30
0.0
 10
-35.7747552491268
 20
-0.0106625260594824
 30
0.0
 10
-36.75240041929862
 20
0.5548682251595168
 30
0.0
 10
-37.7303376994401
 20
1.073134163886188
 30
0.0
 10
-38.70871480700654
 20
1.515513568755043
 30
0.0
 10
-39.36118506881419
 20
1.703296830001342
 30
0.0
 10
-39.6875
 20
1.79721142742937
 30
0.0
  0
SPLINE
  5
2FC
330
1F
100
AcDbEntity
  8
0
  6
Continuous
 62
     1
370
    15
100
AcDbSpline
210
0.0
220
0.0
230
1.0
 70
     8
 71
     3
 72
    15
 73
    11
 74
     0
 42
0.000000001
 43
0.00000001
 40
0.0
 40
0.0
 40
0.0
 40
0.0
 40
0.1437465866698494
 40
0.2874800879598588
 40
0.4312015893385996
 40
0.574912184950015
 40
0.718612976844907
 40
0.8623050742002252
 40
0.9977703409798414
 40
1.0
 40
1.0
 40
1.0
 40
1.0
 10
-39.6875
 20
-0.1700239274293958
 30
0.0
 10
-39.34158623297535
 20
-0.367433914204929
 30
0.0
 10
-38.64979018776435
 20
-0.7622359173490381
 30
0.0
 10
-37.612164691234
 20
-1.281345006675282
 30
0.0
 10
-36.57464282774484
 20
-1.685998950332727
 30
0.0
 10
-35.53721117764533
 20
-1.936794353500797
 30
0.0
 10
-34.49988142328513
 20
-2.0168256683692
 30
0.0
 10
-33.48234138398732
 20
-1.900956754485436
 30
0.0
 10
-32.80538697258604
 20
-1.752480119089163
 30
0.0
 10
-32.47412548164272
 20
-1.621826857415659
 30
0.0
 10
-32.46876144831307
 20
-1.619711222277244
 30
0.0
  0
SPLINE
  5
2FD
330
1F
100
AcDbEntity
  8
0
  6
Continuous
 62
     1
370
    15
100
AcDbSpline
210
0.0
220
0.0
230
1.0
 70
     8
 71
     3
 72
    17
 73
    13
 74
     0
 42
0.000000001
 43
0.00000001
 40
0.0
 40
0.0
 40
0.0
 40
0.0
 40
0.1112513961106981
 40
0.2224990406184625
 40
0.3337438093629825
 40
0.4449865802933496
 40
0.5562282328251995
 40
0.6674696471955709
 40
0.7723356037252687
 40
0.8772173085602553
 40
0.9821267626735483
 40
1.0
 40
1.0
 40
1.0
 40
1.0
 10
-28.57499999999953
 20
-1.002489289544789
 30
0.0
 10
-28.92070810432446
 20
-0.82137796766936
 30
0.0
 10
-29.6121126550573
 20
-0.4591614313273985
 30
0.0
 10
-30.64919581227142
 20
0.1499414513507411
 30
0.0
 10
-31.68624582109595
 20
0.7389983468668208
 30
0.0
 10
-32.72327932478913
 20
1.26294049270731
 30
0.0
 10
-33.76027793787929
 20
1.672519272549745
 30
0.0
 10
-34.77754328711384
 20
1.925232837725785
 30
0.0
 10
-35.77475385277128
 20
2.01321685017642
 30
0.0
 10
-36.75240564837955
 20
1.926228399471244
 30
0.0
 10
-37.45976946885779
 20
1.782015093714719
 30
0.0
 10
-37.84130389475334
 20
1.636310107163956
 30
0.0
 10
-37.8968431182569
 20
1.615100115969494
 30
0.0
  0
SPLINE
  5
2FE
330
1F
100
AcDbEntity
  8
외형선
  6
Continuous
370
    15
100
AcDbSpline
210
0.0
220
0.0
230
1.0
 70
    24
 71
     3
 72
    12
 73
     8
 74
     0
 42
0.000000001
 43
0.00000001
 40
0.0
 40
0.0
 40
0.0
 40
0.0
 40
0.1980023248130388
 40
0.4012480077811344
 40
0.60800690069957
 40
0.820761815519477
 40
0.9999999999999999
 40
0.9999999999999999
 40
0.9999999999999999
 40
0.9999999999999999
 10
-28.57500000000002
 20
-1.953169515409093
 30
0.0
 10
-28.57500000000002
 20
-1.89013082267917
 30
0.0
 10
-28.57499999999999
 20
-1.762384090943103
 30
0.0
 10
-28.57499999999996
 20
-1.568620710222506
 30
0.0
 10
-28.57500000000002
 20
-1.377359039233301
 30
0.0
 10
-28.57499999999993
 20
-1.20286269917016
 30
0.0
 10
-28.57499999999999
 20
-1.103075030663403
 30
0.0
 10
-28.57500000000002
 20
-1.057447287295942
 30
0.0
  0
SPLINE
  5
2FF
330
1F
100
AcDbEntity
  8
0
  6
Continuous
 62
     1
370
    15
100
AcDbSpline
210
0.0
220
0.0
230
1.0
 70
     8
 71
     3
 72
    42
 73
    38
 74
     0
 42
0.000000001
 43
0.00000001
 40
0.0
 40
0.0
 40
0.0
 40
0.0
 40
0.0625000000000017
 40
0.0625000000000017
 40
0.1250000000000035
 40
0.1250000000000035
 40
0.1875000000000052
 40
0.1875000000000052
 40
0.2500000000000069
 40
0.2500000000000069
 40
0.3125000000000087
 40
0.3125000000000087
 40
0.3750000000000104
 40
0.3750000000000104
 40
0.4062500000000099
 40
0.4062500000000099
 40
0.4375000000000094
 40
0.4375000000000094
 40
0.4687500000000088
 40
0.4687500000000088
 40
0.5000000000000083
 40
0.5000000000000083
 40
0.5625000000000073
 40
0.5625000000000073
 40
0.6250000000000062
 40
0.6250000000000062
 40
0.6875000000000052
 40
0.6875000000000052
 40
0.7500000000000041
 40
0.7500000000000041
 40
0.8125000000000031
 40
0.8125000000000031
 40
0.8750000000000021
 40
0.8750000000000021
 40
0.937500000000001
 40
0.937500000000001
 40
1.0
 40
1.0
 40
1.0
 40
1.0
 10
-39.6875
 20
1.984374999999987
 30
0.0
 10
-39.4588162502132
 20
1.965671110868072
 30
0.0
 10
-39.22463112206307
 20
1.940689155298518
 30
0.0
 10
-38.7594046473337
 20
1.864642667857354
 30
0.0
 10
-38.53164122284173
 20
1.813963240454451
 30
0.0
 10
-38.0672790005184
 20
1.688055814482842
 30
0.0
 10
-37.83273762399446
 20
1.612832202625346
 30
0.0
 10
-37.37315122871203
 20
1.442638899564285
 30
0.0
 10
-37.14148538427779
 20
1.346921883338922
 30
0.0
 10
-36.67573370324786
 20
1.138061518580847
 30
0.0
 10
-36.4473496588966
 20
1.025849110551974
 30
0.0
 10
-35.98418863488141
 20
0.7880371645750875
 30
0.0
 10
-35.74946519018286
 20
0.6623658644354146
 30
0.0
 10
-35.40335529168516
 20
0.4694615341091801
 30
0.0
 10
-35.28945186892523
 20
0.404530253531553
 30
0.0
 10
-35.05823439464379
 20
0.2728751821651078
 30
0.0
 10
-34.94174343121799
 20
0.2063031489851118
 30
0.0
 10
-34.7087751499183
 20
0.072682604585748
 30
0.0
 10
-34.59230087746826
 20
0.0056358403237528
 30
0.0
 10
-34.36114932114862
 20
-0.1279038581484176
 30
0.0
 10
-34.24726078019873
 20
-0.1942457728818524
 30
0.0
 10
-33.90104143703334
 20
-0.3928200796499023
 30
0.0
 10
-33.66631055968404
 20
-0.5241548964121375
 30
0.0
 10
-33.20326720168487
 20
-0.7767332664660662
 30
0.0
 10
-32.97480174314754
 20
-0.8980597401169288
 30
0.0
 10
-32.50902107422712
 20
-1.128382734041173
 30
0.0
 10
-32.27754143657091
 20
-1.236354537258261
 30
0.0
 10
-31.81778120644711
 20
-1.433686171290224
 30
0.0
 10
-31.58321755056804
 20
-1.523878298976239
 30
0.0
 10
-31.11894444938781
 20
-1.681647666721654
 30
0.0
 10
-30.89115236585869
 20
-1.749171697596882
 30
0.0
 10
-30.42586798597134
 20
-1.860477847999455
 30
0.0
 10
-30.19192085045526
 20
-1.903787214391427
 30
0.0
 10
-29.73435202416553
 20
-1.963589683469643
 30
0.0
 10
-29.50012982564945
 20
-1.980533282057994
 30
0.0
 10
-29.03496371089011
 20
-1.987043457258749
 30
0.0
 10
-28.80722445193197
 20
-1.976806419671695
 30
0.0
 10
-28.57499999999996
 20
-1.9531695154063
 30
0.0
  0
SPLINE
  5
300
330
1F
100
AcDbEntity
  8
0
  6
Continuous
 62
     1
370
    15
100
AcDbSpline
210
0.0
220
0.0
230
1.0
 70
     8
 71
     3
 72
    11
 73
     7
 74
     0
 42
0.000000001
 43
0.00000001
 40
0.0
 40
0.0
 40
0.0
 40
0.0
 40
0.2663528459431626
 40
0.5326967099755076
 40
0.7990336889911138
 40
1.0
 40
1.0
 40
1.0
 40
1.0
 10
-28.57499999999953
 20
1.712530106296813
 30
0.0
 10
-28.92070813108992
 20
1.798504806346265
 30
0.0
 10
-29.61211273535287
 20
1.970451307219198
 30
0.0
 10
-30.64919549110522
 20
2.004243290719335
 30
0.0
 10
-31.60140761986582
 20
1.895938744427286
 30
0.0
 10
-32.2079252543983
 20
1.702780130454088
 30
0.0
 10
-32.46876144831302
 20
1.61971122227724
 30
0.0
  0
SPLINE
  5
301
330
1F
100
AcDbEntity
  8
외형선
  6
Continuous
370
    15
100
AcDbSpline
210
0.0
220
0.0
230
1.0
 70
    24
 71
     3
 72
    19
 73
    15
 74
     0
 42
0.000000001
 43
0.00000001
 40
0.0
 40
0.0
 40
0.0
 40
0.0
 40
0.0834903701495918
 40
0.1648896461092985
 40
0.2486495065862162
 40
0.3300487825460335
 40
0.4138086430228408
 40
0.4952079189824359
 40
0.5789677794592313
 40
0.6603670554190467
 40
0.744126915896082
 40
0.8255261918556516
 40
0.9092860523327075
 40
1.0
 40
1.0
 40
1.0
 40
1.0
 10
-28.57499999999999
 20
-0.28277565286774
 30
0.0
 10
-28.57499999999999
 20
-0.2556844120700035
 30
0.0
 10
-28.57499999999996
 20
-0.202180455867668
 30
0.0
 10
-28.57500000000002
 20
-0.0835048268293574
 30
0.0
 10
-28.57499999999999
 20
0.0577782215788048
 30
0.0
 10
-28.57499999999999
 20
0.2230050083076458
 30
0.0
 10
-28.57500000000002
 20
0.4037447383927579
 30
0.0
 10
-28.57500000000002
 20
0.5983410236929743
 30
0.0
 10
-28.57499999999993
 20
0.7977395289411515
 30
0.0
 10
-28.57500000000005
 20
0.9998547127243729
 30
0.0
 10
-28.57500000000002
 20
1.195493300710772
 30
0.0
 10
-28.57499999999999
 20
1.382006785161328
 30
0.0
 10
-28.57500000000002
 20
1.559581731142965
 30
0.0
 10
-28.57500000000002
 20
1.660210379629885
 30
0.0
 10
-28.57499999999999
 20
1.712530106296941
 30
0.0
  0
SPLINE
  5
302
330
1F
100
AcDbEntity
  8
0
  6
Continuous
 62
     1
370
    15
100
AcDbSpline
210
0.0
220
0.0
230
1.0
 70
     8
 71
     3
 72
    14
 73
    10
 74
     0
 42
0.000000001
 43
0.00000001
 40
0.0
 40
0.0
 40
0.0
 40
0.0
 40
0.0136941891940001
 40
0.1863405391725907
 40
0.3491023353244317
 40
0.5118304730002153
 40
0.6745436352176086
 40
0.8372605675994629
 40
1.0
 40
1.0
 40
1.0
 40
1.0
 10
-34.58212812502583
 20
1.977814670996504
 30
0.0
 10
-34.55470276215635
 20
1.979968076869236
 30
0.0
 10
-34.18151842596095
 20
2.009270053473903
 30
0.0
 10
-33.48233931340187
 20
1.899355626241146
 30
0.0
 10
-32.48492178200024
 20
1.651141415594819
 30
0.0
 10
-31.50738842538908
 20
1.257427350171872
 30
0.0
 10
-30.5299742392537
 20
0.7678684979988234
 30
0.0
 10
-29.55253317901972
 20
0.2132912220522448
 30
0.0
 10
-28.90085941055682
 20
-0.1625825510143787
 30
0.0
 10
-28.57499999999996
 20
-0.3505324303292605
 30
0.0
  0
LINE
  5
303
330
1F
100
AcDbEntity
  8
외형선
  6
Continuous
370
    15
100
AcDbLine
 10
-28.57500000000002
 20
-0.3505324303288715
 30
0.0
 11
-28.57499999999999
 21
-1.00248928954457
 31
0.0
  0
LINE
  5
304
330
1F
100
AcDbEntity
  8
0
  6
Continuous
 62
     1
370
    15
100
AcDbLine
 10
-39.68749999999997
 20
1.984374999999987
 30
0.0
 11
-39.6875
 21
1.79721142742937
 31
0.0
  0
SPLINE
  5
305
330
1F
100
AcDbEntity
  8
0
  6
Continuous
 62
     1
370
    15
100
AcDbSpline
210
0.0
220
0.0
230
1.0
 70
     8
 71
     3
 72
    11
 73
     7
 74
     0
 42
0.000000001
 43
0.00000001
 40
0.0
 40
0.0
 40
0.0
 40
0.0
 40
0.2463996050692381
 40
0.4974955217253992
 40
0.748686302124439
 40
1.0
 40
1.0
 40
1.0
 40
1.0
 10
-35.79275411161541
 20
-1.982930308679169
 30
0.0
 10
-36.11260601649204
 20
-1.968601309731235
 30
0.0
 10
-36.75840611932401
 20
-1.93967020488875
 30
0.0
 10
-37.73033896869066
 20
-1.697202103557176
 30
0.0
 10
-38.70871448946278
 20
-1.333417367766121
 30
0.0
 10
-39.36118496294907
 20
-1.005361725038956
 30
0.0
 10
-39.6875
 20
-0.8412937808769653
 30
0.0
  0
LINE
  5
306
330
1F
100
AcDbEntity
  8
0
  6
Continuous
 62
     1
370
    15
100
AcDbLine
 10
-39.6875
 20
-0.1700239274293955
 30
0.0
 11
-39.6875
 21
-0.8412937808769653
 31
0.0
  0
SPLINE
  5
307
330
1F
100
AcDbEntity
  8
0
  6
Continuous
 62
     1
370
    15
100
AcDbSpline
210
0.0
220
0.0
230
1.0
 70
     8
 71
     3
 72
     9
 73
     5
 74
     0
 42
0.000000001
 43
0.00000001
 40
0.0
 40
0.0
 40
0.0
 40
0.0
 40
0.5795244258197714
 40
1.0
 40
1.0
 40
1.0
 40
1.0
 10
-39.6875
 20
-1.984375000000015
 30
0.0
 10
-39.34158574725683
 20
-1.94648163574204
 30
0.0
 10
-38.74469243727449
 20
-1.893686610271459
 30
0.0
 10
-38.14781535298752
 20
-1.697564621716508
 30
0.0
 10
-37.89684311825692
 20
-1.615100115969496
 30
0.0
  0
LINE
  5
308
330
1F
100
AcDbEntity
  8
0
  6
Continuous
 62
     1
370
    15
100
AcDbLine
 10
-29.1855489755354
 20
1.965580731294933
 30
0.0
 11
-28.57499999999996
 21
1.953169515406296
 31
0.0
  0
LINE
  5
309
330
1F
100
AcDbEntity
  8
0
  6
Continuous
 62
     1
370
    15
100
AcDbLine
 10
-39.6875
 20
-0.8412937808769653
 30
0.0
 11
-39.6875
 21
-1.984375000000015
 31
0.0
  0
LINE
  5
30A
330
1F
100
AcDbEntity
  8
외형선
  6
Continuous
370
    15
100
AcDbLine
 10
-28.57500000000002
 20
1.953169515409089
 30
0.0
 11
-28.57499999999999
 21
1.712530106296941
 31
0.0
  0
LINE
  5
30B
330
1F
100
AcDbEntity
  8
외형선
  6
Continuous
370
    15
100
AcDbLine
 10
-27.57499999999999
 20
-0.0000000000000023
 30
0.0
 11
-27.57499999999999
 21
-1.984375000000003
 31
0.0
  0
LINE
  5
30C
330
1F
100
AcDbEntity
  8
외형선
  6
Continuous
370
    15
100
AcDbLine
 10
-27.57499999999999
 20
1.984374999999998
 30
0.0
 11
-27.57499999999999
 21
-0.0000000000000023
 31
0.0
  0
LINE
  5
30D
330
1F
100
AcDbEntity
  8
외형선
  6
Continuous
370
    15
100
AcDbLine
 10
-17.20689635022271
 20
-0.0000000000000035
 30
0.0
 11
-17.20689635022271
 21
-4.762500000000013
 31
0.0
  0
LINE
  5
30E
330
1F
100
AcDbEntity
  8
외형선
  6
Continuous
370
    15
100
AcDbLine
 10
-17.20689635022271
 20
4.762500000000004
 30
0.0
 11
-17.20689635022271
 21
-0.0000000000000035
 31
0.0
  0
SPLINE
  5
30F
330
1F
100
AcDbEntity
  8
외형선
  6
Continuous
370
    15
100
AcDbSpline
210
0.0
220
0.0
230
1.0
 70
     8
 71
     3
 72
     8
 73
     4
 74
     0
 42
0.000000001
 43
0.00000001
 40
0.0
 40
0.0
 40
0.0
 40
0.0
 40
1.0
 40
1.0
 40
1.0
 40
1.0
 10
-28.57499999999982
 20
-1.953169515406286
 30
0.0
 10
-28.40858399267444
 20
-1.936230906226009
 30
0.0
 10
-28.24098426745681
 20
-1.912375397580331
 30
0.0
 10
-28.07483056792438
 20
-1.881987869186206
 30
0.0
  0
LINE
  5
310
330
1F
100
AcDbEntity
  8
외형선
  6
Continuous
370
    15
100
AcDbLine
 10
-28.07483056792438
 20
-1.239505459224741
 30
0.0
 11
-28.07483056792438
 21
-1.984375000000002
 31
0.0
  0
SPLINE
  5
311
330
1F
100
AcDbEntity
  8
외형선
  6
Continuous
370
    15
100
AcDbSpline
210
0.0
220
0.0
230
1.0
 70
     8
 71
     3
 72
     8
 73
     4
 74
     0
 42
0.000000001
 43
0.00000001
 40
0.0
 40
0.0
 40
0.0
 40
0.0
 40
1.0
 40
1.0
 40
1.0
 40
1.0
 10
-28.57499999999956
 20
-1.002489289544769
 30
0.0
 10
-28.40858399267427
 20
-1.085243054018864
 30
0.0
 10
-28.24098426745672
 20
-1.164661446037627
 30
0.0
 10
-28.07483056792438
 20
-1.239504445685743
 30
0.0
  0
SPLINE
  5
312
330
1F
100
AcDbEntity
  8
외형선
  6
Continuous
370
    15
100
AcDbSpline
210
0.0
220
0.0
230
1.0
 70
     8
 71
     3
 72
     8
 73
     4
 74
     0
 42
0.000000001
 43
0.00000001
 40
0.0
 40
0.0
 40
0.0
 40
0.0
 40
1.0
 40
1.0
 40
1.0
 40
1.0
 10
-28.57499999999982
 20
-0.3505324303293342
 30
0.0
 10
-28.40858399267444
 20
-0.4449144966426142
 30
0.0
 10
-28.24098426745681
 20
-0.5382840460242919
 30
0.0
 10
-28.07483056792438
 20
-0.6291786716513721
 30
0.0
  0
LINE
  5
313
330
1F
100
AcDbEntity
  8
외형선
  6
Continuous
370
    15
100
AcDbLine
 10
-28.07483056792438
 20
1.549635556244451
 30
0.0
 11
-28.07483056792438
 21
-0.6291848795708708
 31
0.0
  0
SPLINE
  5
314
330
1F
100
AcDbEntity
  8
외형선
  6
Continuous
370
    15
100
AcDbSpline
210
0.0
220
0.0
230
1.0
 70
     8
 71
     3
 72
     8
 73
     4
 74
     0
 42
0.000000001
 43
0.00000001
 40
0.0
 40
0.0
 40
0.0
 40
0.0
 40
1.0
 40
1.0
 40
1.0
 40
1.0
 10
-28.57499999999956
 20
1.712530106296824
 30
0.0
 10
-28.40858399267427
 20
1.664087300970509
 30
0.0
 10
-28.24098426745672
 20
1.609500882754747
 30
0.0
 10
-28.07483056792438
 20
1.549636366942344
 30
0.0
  0
SPLINE
  5
315
330
1F
100
AcDbEntity
  8
외형선
  6
Continuous
370
    15
100
AcDbSpline
210
0.0
220
0.0
230
1.0
 70
     8
 71
     3
 72
     8
 73
     4
 74
     0
 42
0.000000001
 43
0.00000001
 40
0.0
 40
0.0
 40
0.0
 40
0.0
 40
1.0
 40
1.0
 40
1.0
 40
1.0
 10
-28.57499999999982
 20
1.953169515406282
 30
0.0
 10
-28.40858399267444
 20
1.936230906226005
 30
0.0
 10
-28.24098426745681
 20
1.912375397580327
 30
0.0
 10
-28.07483056792438
 20
1.881987869186202
 30
0.0
  0
LINE
  5
316
330
1F
100
AcDbEntity
  8
외형선
  6
Continuous
370
    15
100
AcDbLine
 10
-28.07483056792438
 20
1.984374999999998
 30
0.0
 11
-28.07483056792438
 21
1.881985793767953
 31
0.0
  0
SPLINE
  5
317
330
1F
100
AcDbEntity
  8
외형선
  6
Continuous
370
    15
100
AcDbSpline
210
0.0
220
0.0
230
1.0
 70
    24
 71
     3
 72
    15
 73
    11
 74
     0
 42
0.000000001
 43
0.00000001
 40
0.0
 40
0.0
 40
0.0
 40
0.0
 40
0.0520718248007378
 40
0.2006652717927887
 40
0.3492587187848225
 40
0.4978521657768795
 40
0.6464456127689295
 40
0.7950390597609738
 40
0.9436325067529852
 40
1.0
 40
1.0
 40
1.0
 40
1.0
 10
-28.57499999999999
 20
1.71253010629695
 30
0.0
 10
-28.57499999999999
 20
1.679910393377744
 30
0.0
 10
-28.57499999999999
 20
1.554206260984008
 30
0.0
 10
-28.57499999999996
 20
1.278933230393228
 30
0.0
 10
-28.57500000000002
 20
0.8813231376178439
 30
0.0
 10
-28.57499999999996
 20
0.4773964877532689
 30
0.0
 10
-28.57500000000002
 20
0.1113216897209147
 30
0.0
 10
-28.57499999999999
 20
-0.1652622210688856
 30
0.0
 10
-28.57499999999999
 20
-0.3207176491397115
 30
0.0
 10
-28.57499999999999
 20
-0.3307092150678883
 30
0.0
 10
-28.57499999999999
 20
-0.333457053384432
 30
0.0
  0
SPLINE
  5
318
330
1F
100
AcDbEntity
  8
외형선
  6
Continuous
370
    15
100
AcDbSpline
210
0.0
220
0.0
230
1.0
 70
    24
 71
     3
 72
    13
 73
     9
 74
     0
 42
0.000000001
 43
0.00000001
 40
0.0
 40
0.0
 40
0.0
 40
0.0
 40
0.0971030654414456
 40
0.303411683129221
 40
0.5157032647062751
 40
0.722011882394151
 40
0.9343034639713149
 40
1.0
 40
1.0
 40
1.0
 40
1.0
 10
-28.57499999999999
 20
-1.05743728729596
 30
0.0
 10
-28.57499999999999
 20
-1.081007261272527
 30
0.0
 10
-28.57499999999999
 20
-1.154654838133572
 30
0.0
 10
-28.57500000000002
 20
-1.301415357956025
 30
0.0
 10
-28.57499999999999
 20
-1.489024598371059
 30
0.0
 10
-28.57500000000002
 20
-1.688425351620137
 30
0.0
 10
-28.57500000000005
 20
-1.844025670811789
 30
0.0
 10
-28.57499999999999
 20
-1.932306283810568
 30
0.0
 10
-28.57499999999999
 20
-1.953169515384847
 30
0.0
  0
LINE
  5
372
330
1F
100
AcDbEntity
  8
외형선
  6
Continuous
370
    15
100
AcDbLine
 10
-3.568700000000121
 20
3.492500000000021
 30
0.0
 11
3.568700000000007
 21
3.492500000000021
 31
0.0
  0
LINE
  5
373
330
1F
100
AcDbEntity
  8
외형선
  6
Continuous
370
    15
100
AcDbLine
 10
-3.568700000000121
 20
3.492500000000021
 30
0.0
 11
-4.838700000000102
 21
4.762500000000003
 31
0.0
  0
LINE
  5
374
330
1F
100
AcDbEntity
  8
외형선
  6
Continuous
370
    15
100
AcDbLine
 10
3.568700000000007
 20
3.492500000000021
 30
0.0
 11
4.838700000000102
 21
4.762500000000003
 31
0.0
  0
LINE
  5
376
330
1F
100
AcDbEntity
  8
외형선
  6
Continuous
370
    15
100
AcDbLine
 10
-4.838700000000102
 20
4.762500000000003
 30
0.0
 11
-17.20689635022272
 21
4.762500000000003
 31
0.0
  0
ENDSEC
  0
SECTION
  2
OBJECTS
  0
DICTIONARY
  5
C
330
0
100
AcDbDictionary
281
     1
  3
ACAD_GROUP
350
D
  3
ACAD_IMAGE_VARS
350
155
  3
ACAD_LAYOUT
350
1A
  3
ACAD_MLINESTYLE
350
17
  3
ACAD_PLOTSETTINGS
350
19
  3
ACAD_PLOTSTYLENAME
350
E
  3
ACAD_SCALELIST
350
47
  3
APPDATA
350
153
  3
DWGPROPS
350
39C
  0
DICTIONARY
  5
17B
330
2
100
AcDbDictionary
280
     1
281
     1
  3
ACAD_LAYERSTATES
360
17C
  0
DICTIONARY
  5
39A
330
1F
100
AcDbDictionary
280
     1
281
     1
  3
DIM_BOUNDING_BOXES_V1
360
39B
  0
DICTIONARY
  5
D
102
{ACAD_REACTORS
330
C
102
}
330
C
100
AcDbDictionary
281
     1
  0
RASTERVARIABLES
  5
155
102
{ACAD_REACTORS
330
C
102
}
330
C
100
AcDbRasterVariables
 90
        0
 70
     1
 71
     1
 72
     1
  0
DICTIONARY
  5
1A
102
{ACAD_REACTORS
330
C
102
}
330
C
100
AcDbDictionary
281
     1
  3
Layout1
350
1E
  3
Layout2
350
26
  3
Model
350
22
  0
DICTIONARY
  5
17
102
{ACAD_REACTORS
330
C
102
}
330
C
100
AcDbDictionary
281
     1
  3
Standard
350
18
  0
DICTIONARY
  5
19
102
{ACAD_REACTORS
330
C
102
}
330
C
100
AcDbDictionary
281
     1
  0
ACDBDICTIONARYWDFLT
  5
E
102
{ACAD_REACTORS
330
C
102
}
330
C
100
AcDbDictionary
281
     1
  3
Normal
350
F
100
AcDbDictionaryWithDefault
340
F
  0
DICTIONARY
  5
47
102
{ACAD_REACTORS
330
C
102
}
330
C
100
AcDbDictionary
281
     1
  3
A0
350
48
  3
A1
350
49
  3
A2
350
4A
  3
A3
350
4B
  3
A4
350
4C
  3
A5
350
4D
  3
A6
350
4E
  3
A7
350
4F
  3
A8
350
50
  3
A9
350
51
  3
B0
350
52
  3
B1
350
53
  3
B2
350
54
  3
B3
350
55
  3
B4
350
56
  3
B5
350
57
  3
B6
350
58
  3
B7
350
59
  3
B8
350
5A
  3
B9
350
5B
  3
C0
350
5C
  3
C1
350
5D
  3
C2
350
5E
  3
C3
350
5F
  3
C4
350
60
  3
C5
350
61
  3
C6
350
62
  3
C7
350
63
  3
C8
350
64
  3
C9
350
65
  3
D0
350
66
  3
D1
350
67
  3
D2
350
68
  0
DICTIONARY
  5
153
102
{ACAD_REACTORS
330
C
102
}
330
C
100
AcDbDictionary
281
     1
  0
XRECORD
  5
39C
102
{ACAD_REACTORS
330
C
102
}
330
C
100
AcDbXrecord
280
     1
  1
DWGPROPS COOKIE
  2

  3

  4

  6

  7

  8
12011056
  9

300
=
301
=
302
=
303
=
304
=
305
=
306
=
307
=
308
=
309
=
 40
0.0
 41
2458313.125236968
 42
2459719.275485012
  1

 90
        0
  0
DICTIONARY
  5
17C
102
{ACAD_REACTORS
330
17B
102
}
330
17B
100
AcDbDictionary
281
     1
  0
DICTIONARY
  5
39B
102
{ACAD_REACTORS
330
39A
102
}
330
39A
100
AcDbDictionary
281
     1
  0
LAYOUT
  5
1E
102
{ACAD_REACTORS
330
1A
102
}
330
1A
100
AcDbPlotSettings
  1

  2
none_device
  4

  6

 40
0.0
 41
0.0
 42
0.0
 43
0.0
 44
0.0
 45
0.0
 46
0.0
 47
0.0
 48
0.0
 49
0.0
140
0.0
141
0.0
142
1.0
143
1.0
 70
   688
 72
     1
 73
     0
 74
     5
  7

 75
    16
147
1.0
148
0.0
149
0.0
100
AcDbLayout
  1
Layout1
 70
     1
 71
     1
 10
0.0
 20
0.0
 11
420.0
 21
297.0
 12
0.0
 22
0.0
 32
0.0
 14
1.000000000000000E+20
 24
1.000000000000000E+20
 34
1.000000000000000E+20
 15
-1.000000000000000E+20
 25
-1.000000000000000E+20
 35
-1.000000000000000E+20
146
0.0
 13
0.0
 23
0.0
 33
0.0
 16
1.0
 26
0.0
 36
0.0
 17
0.0
 27
1.0
 37
0.0
 76
     0
330
1B
  0
LAYOUT
  5
26
102
{ACAD_REACTORS
330
1A
102
}
330
1A
100
AcDbPlotSettings
  1

  2
none_device
  4

  6

 40
0.0
 41
0.0
 42
0.0
 43
0.0
 44
0.0
 45
0.0
 46
0.0
 47
0.0
 48
0.0
 49
0.0
140
0.0
141
0.0
142
1.0
143
1.0
 70
   688
 72
     1
 73
     0
 74
     5
  7

 75
    16
147
1.0
148
0.0
149
0.0
100
AcDbLayout
  1
Layout2
 70
     1
 71
     2
 10
0.0
 20
0.0
 11
0.0
 21
0.0
 12
0.0
 22
0.0
 32
0.0
 14
0.0
 24
0.0
 34
0.0
 15
0.0
 25
0.0
 35
0.0
146
0.0
 13
0.0
 23
0.0
 33
0.0
 16
1.0
 26
0.0
 36
0.0
 17
0.0
 27
1.0
 37
0.0
 76
     0
330
23
  0
LAYOUT
  5
22
102
{ACAD_REACTORS
330
1A
102
}
330
1A
100
AcDbPlotSettings
  1

  2
none_device
  4
ANSI_A_(11.00_x_8.50_Inches)
  6

 40
6.35
 41
19.05
 42
6.35000508
 43
19.05000254
 44
279.4
 45
215.9
 46
100.2680213088346
 47
80.8198418762144
 48
0.0
 49
0.0
140
0.0
141
0.0
142
0.0659530402710132
143
1.0
 70
  1696
 72
     0
 73
     0
 74
     0
  7

 75
     0
147
0.0235690232323232
148
0.0
149
0.0
100
AcDbLayout
  1
Model
 70
     1
 71
     0
 10
0.0
 20
0.0
 11
420.0
 21
297.0
 12
0.0
 22
0.0
 32
0.0
 14
-57.46125000000013
 24
-39.99892507127611
 34
0.0
 15
81.4193644723612
 25
53.94249658553842
 35
0.0
146
0.0
 13
0.0
 23
0.0
 33
0.0
 16
1.0
 26
0.0
 36
0.0
 17
0.0
 27
1.0
 37
0.0
 76
     0
330
1F
331
29
  0
MLINESTYLE
  5
18
102
{ACAD_REACTORS
330
17
102
}
330
17
100
AcDbMlineStyle
  2
Standard
 70
     0
  3

 62
   256
 51
90.0
 52
90.0
 71
     2
 49
0.5
 62
   256
  6
BYLAYER
 49
-0.5
 62
   256
  6
BYLAYER
  0
ACDBPLACEHOLDER
  5
F
102
{ACAD_REACTORS
330
E
102
}
330
E
  0
SCALE
  5
48
102
{ACAD_REACTORS
330
47
102
}
330
47
100
AcDbScale
 70
     0
300
1:1
140
1.0
141
1.0
290
     1
  0
SCALE
  5
49
102
{ACAD_REACTORS
330
47
102
}
330
47
100
AcDbScale
 70
     0
300
1:2
140
1.0
141
2.0
290
     0
  0
SCALE
  5
4A
102
{ACAD_REACTORS
330
47
102
}
330
47
100
AcDbScale
 70
     0
300
1:4
140
1.0
141
4.0
290
     0
  0
SCALE
  5
4B
102
{ACAD_REACTORS
330
47
102
}
330
47
100
AcDbScale
 70
     0
300
1:5
140
1.0
141
5.0
290
     0
  0
SCALE
  5
4C
102
{ACAD_REACTORS
330
47
102
}
330
47
100
AcDbScale
 70
     0
300
1:8
140
1.0
141
8.0
290
     0
  0
SCALE
  5
4D
102
{ACAD_REACTORS
330
47
102
}
330
47
100
AcDbScale
 70
     0
300
1:10
140
1.0
141
10.0
290
     0
  0
SCALE
  5
4E
102
{ACAD_REACTORS
330
47
102
}
330
47
100
AcDbScale
 70
     0
300
1:16
140
1.0
141
16.0
290
     0
  0
SCALE
  5
4F
102
{ACAD_REACTORS
330
47
102
}
330
47
100
AcDbScale
 70
     0
300
1:20
140
1.0
141
20.0
290
     0
  0
SCALE
  5
50
102
{ACAD_REACTORS
330
47
102
}
330
47
100
AcDbScale
 70
     0
300
1:30
140
1.0
141
30.0
290
     0
  0
SCALE
  5
51
102
{ACAD_REACTORS
330
47
102
}
330
47
100
AcDbScale
 70
     0
300
1:40
140
1.0
141
40.0
290
     0
  0
SCALE
  5
52
102
{ACAD_REACTORS
330
47
102
}
330
47
100
AcDbScale
 70
     0
300
1:50
140
1.0
141
50.0
290
     0
  0
SCALE
  5
53
102
{ACAD_REACTORS
330
47
102
}
330
47
100
AcDbScale
 70
     0
300
1:100
140
1.0
141
100.0
290
     0
  0
SCALE
  5
54
102
{ACAD_REACTORS
330
47
102
}
330
47
100
AcDbScale
 70
     0
300
2:1
140
2.0
141
1.0
290
     0
  0
SCALE
  5
55
102
{ACAD_REACTORS
330
47
102
}
330
47
100
AcDbScale
 70
     0
300
4:1
140
4.0
141
1.0
290
     0
  0
SCALE
  5
56
102
{ACAD_REACTORS
330
47
102
}
330
47
100
AcDbScale
 70
     0
300
8:1
140
8.0
141
1.0
290
     0
  0
SCALE
  5
57
102
{ACAD_REACTORS
330
47
102
}
330
47
100
AcDbScale
 70
     0
300
10:1
140
10.0
141
1.0
290
     0
  0
SCALE
  5
58
102
{ACAD_REACTORS
330
47
102
}
330
47
100
AcDbScale
 70
     0
300
100:1
140
100.0
141
1.0
290
     0
  0
SCALE
  5
59
102
{ACAD_REACTORS
330
47
102
}
330
47
100
AcDbScale
 70
     0
300
1/128" = 1'-0"
140
0.0078125
141
12.0
290
     0
  0
SCALE
  5
5A
102
{ACAD_REACTORS
330
47
102
}
330
47
100
AcDbScale
 70
     0
300
1/64" = 1'-0"
140
0.015625
141
12.0
290
     0
  0
SCALE
  5
5B
102
{ACAD_REACTORS
330
47
102
}
330
47
100
AcDbScale
 70
     0
300
1/32" = 1'-0"
140
0.03125
141
12.0
290
     0
  0
SCALE
  5
5C
102
{ACAD_REACTORS
330
47
102
}
330
47
100
AcDbScale
 70
     0
300
1/16" = 1'-0"
140
0.0625
141
12.0
290
     0
  0
SCALE
  5
5D
102
{ACAD_REACTORS
330
47
102
}
330
47
100
AcDbScale
 70
     0
300
3/32" = 1'-0"
140
0.09375
141
12.0
290
     0
  0
SCALE
  5
5E
102
{ACAD_REACTORS
330
47
102
}
330
47
100
AcDbScale
 70
     0
300
1/8" = 1'-0"
140
0.125
141
12.0
290
     0
  0
SCALE
  5
5F
102
{ACAD_REACTORS
330
47
102
}
330
47
100
AcDbScale
 70
     0
300
3/16" = 1'-0"
140
0.1875
141
12.0
290
     0
  0
SCALE
  5
60
102
{ACAD_REACTORS
330
47
102
}
330
47
100
AcDbScale
 70
     0
300
1/4" = 1'-0"
140
0.25
141
12.0
290
     0
  0
SCALE
  5
61
102
{ACAD_REACTORS
330
47
102
}
330
47
100
AcDbScale
 70
     0
300
3/8" = 1'-0"
140
0.375
141
12.0
290
     0
  0
SCALE
  5
62
102
{ACAD_REACTORS
330
47
102
}
330
47
100
AcDbScale
 70
     0
300
1/2" = 1'-0"
140
0.5
141
12.0
290
     0
  0
SCALE
  5
63
102
{ACAD_REACTORS
330
47
102
}
330
47
100
AcDbScale
 70
     0
300
3/4" = 1'-0"
140
0.75
141
12.0
290
     0
  0
SCALE
  5
64
102
{ACAD_REACTORS
330
47
102
}
330
47
100
AcDbScale
 70
     0
300
1" = 1'-0"
140
1.0
141
12.0
290
     0
  0
SCALE
  5
65
102
{ACAD_REACTORS
330
47
102
}
330
47
100
AcDbScale
 70
     0
300
1-1/2" = 1'-0"
140
1.5
141
12.0
290
     0
  0
SCALE
  5
66
102
{ACAD_REACTORS
330
47
102
}
330
47
100
AcDbScale
 70
     0
300
3" = 1'-0"
140
3.0
141
12.0
290
     0
  0
SCALE
  5
67
102
{ACAD_REACTORS
330
47
102
}
330
47
100
AcDbScale
 70
     0
300
6" = 1'-0"
140
6.0
141
12.0
290
     0
  0
SCALE
  5
68
102
{ACAD_REACTORS
330
47
102
}
330
47
100
AcDbScale
 70
     0
300
1'-0" = 1'-0"
140
12.0
141
12.0
290
     0
  0
ENDSEC
  0
EOF
