  0
SECTION
  2
HEADER
  9
$ACADVER
  1
AC1015
  9
$ACADMAINTVER
 70
     6
  9
$DWGCODEPAGE
  3
ANSI_949
  9
$INSBASE
 10
0.0
 20
0.0
 30
0.0
  9
$EXTMIN
 10
-48.63500012815006
 20
-50.28867796974448
 30
0.0
  9
$EXTMAX
 10
83.30129069423859
 20
42.69626436759789
 30
0.0
  9
$LIMMIN
 10
0.0
 20
0.0
  9
$LIMMAX
 10
420.0
 20
297.0
  9
$ORTHOMODE
 70
     1
  9
$REGENMODE
 70
     1
  9
$FILLMODE
 70
     1
  9
$QTEXTMODE
 70
     0
  9
$MIRRTEXT
 70
     1
  9
$LTSCALE
 40
1.0
  9
$ATTMODE
 70
     1
  9
$TEXTSIZE
 40
3.5
  9
$TRACEWID
 40
1.0
  9
$TEXTSTYLE
  7
Standard
  9
$CLAYER
  8
0
  9
$CELTYPE
  6
ByLayer
  9
$CECOLOR
 62
   256
  9
$CELTSCALE
 40
1.0
  9
$DISPSILH
 70
     0
  9
$DIMSCALE
 40
1.0
  9
$DIMASZ
 40
3.302
  9
$DIMEXO
 40
1.0
  9
$DIMDLI
 40
3.75
  9
$DIMRND
 40
0.0
  9
$DIMDLE
 40
0.0
  9
$DIMEXE
 40
1.0
  9
$DIMTP
 40
0.0
  9
$DIMTM
 40
0.0
  9
$DIMTXT
 40
3.5
  9
$DIMCEN
 40
2.5
  9
$DIMTSZ
 40
0.0
  9
$DIMTOL
 70
     0
  9
$DIMLIM
 70
     0
  9
$DIMTIH
 70
     1
  9
$DIMTOH
 70
     1
  9
$DIMSE1
 70
     0
  9
$DIMSE2
 70
     0
  9
$DIMTAD
 70
     1
  9
$DIMZIN
 70
     0
  9
$DIMBLK
  1

  9
$DIMASO
 70
     1
  9
$DIMSHO
 70
     1
  9
$DIMPOST
  1

  9
$DIMAPOST
  1

  9
$DIMALT
 70
     0
  9
$DIMALTD
 70
     3
  9
$DIMALTF
 40
0.0393700787401575
  9
$DIMLFAC
 40
1.0
  9
$DIMTOFL
 70
     1
  9
$DIMTVP
 40
0.0
  9
$DIMTIX
 70
     0
  9
$DIMSOXD
 70
     0
  9
$DIMSAH
 70
     0
  9
$DIMBLK1
  1

  9
$DIMBLK2
  1

  9
$DIMSTYLE
  2
ISO-25
  9
$DIMCLRD
 70
     0
  9
$DIMCLRE
 70
     0
  9
$DIMCLRT
 70
     0
  9
$DIMTFAC
 40
1.0
  9
$DIMGAP
 40
1.524
  9
$DIMJUST
 70
     0
  9
$DIMSD1
 70
     0
  9
$DIMSD2
 70
     0
  9
$DIMTOLJ
 70
     0
  9
$DIMTZIN
 70
     0
  9
$DIMALTZ
 70
     0
  9
$DIMALTTZ
 70
     0
  9
$DIMUPT
 70
     0
  9
$DIMDEC
 70
     2
  9
$DIMTDEC
 70
     2
  9
$DIMALTU
 70
     2
  9
$DIMALTTD
 70
     3
  9
$DIMTXSTY
  7
Standard
  9
$DIMAUNIT
 70
     0
  9
$DIMADEC
 70
     2
  9
$DIMALTRND
 40
0.0
  9
$DIMAZIN
 70
     0
  9
$DIMDSEP
 70
    44
  9
$DIMATFIT
 70
     3
  9
$DIMFRAC
 70
     0
  9
$DIMLDRBLK
  1

  9
$DIMLUNIT
 70
     2
  9
$DIMLWD
 70
    -2
  9
$DIMLWE
 70
    -2
  9
$DIMTMOVE
 70
     0
  9
$LUNITS
 70
     2
  9
$LUPREC
 70
     2
  9
$SKETCHINC
 40
1.0
  9
$FILLETRAD
 40
10.0
  9
$AUNITS
 70
     0
  9
$AUPREC
 70
     2
  9
$MENU
  1
.
  9
$ELEVATION
 40
0.0
  9
$PELEVATION
 40
0.0
  9
$THICKNESS
 40
0.0
  9
$LIMCHECK
 70
     0
  9
$CHAMFERA
 40
0.0
  9
$CHAMFERB
 40
0.0
  9
$CHAMFERC
 40
0.0
  9
$CHAMFERD
 40
0.0
  9
$SKPOLY
 70
     0
  9
$TDCREATE
 40
2458299.347337049
  9
$TDUCREATE
 40
2458298.972337049
  9
$TDUPDATE
 40
2458319.40034
  9
$TDUUPDATE
 40
2458319.02534
  9
$TDINDWG
 40
0.0021881134
  9
$TDUSRTIMER
 40
2458319.023732153
  9
$USRTIMER
 70
     1
  9
$ANGBASE
 50
0.0
  9
$ANGDIR
 70
     0
  9
$PDMODE
 70
     0
  9
$PDSIZE
 40
-1.0
  9
$PLINEWID
 40
0.0
  9
$SPLFRAME
 70
     0
  9
$SPLINETYPE
 70
     6
  9
$SPLINESEGS
 70
     8
  9
$HANDSEED
  5
340
  9
$SURFTAB1
 70
     6
  9
$SURFTAB2
 70
     6
  9
$SURFTYPE
 70
     6
  9
$SURFU
 70
     6
  9
$SURFV
 70
     6
  9
$UCSBASE
  2

  9
$UCSNAME
  2

  9
$UCSORG
 10
0.0
 20
0.0
 30
0.0
  9
$UCSXDIR
 10
1.0
 20
0.0
 30
0.0
  9
$UCSYDIR
 10
0.0
 20
1.0
 30
0.0
  9
$UCSORTHOREF
  2

  9
$UCSORTHOVIEW
 70
     0
  9
$UCSORGTOP
 10
0.0
 20
0.0
 30
0.0
  9
$UCSORGBOTTOM
 10
0.0
 20
0.0
 30
0.0
  9
$UCSORGLEFT
 10
0.0
 20
0.0
 30
0.0
  9
$UCSORGRIGHT
 10
0.0
 20
0.0
 30
0.0
  9
$UCSORGFRONT
 10
0.0
 20
0.0
 30
0.0
  9
$UCSORGBACK
 10
0.0
 20
0.0
 30
0.0
  9
$PUCSBASE
  2

  9
$PUCSNAME
  2

  9
$PUCSORG
 10
0.0
 20
0.0
 30
0.0
  9
$PUCSXDIR
 10
1.0
 20
0.0
 30
0.0
  9
$PUCSYDIR
 10
0.0
 20
1.0
 30
0.0
  9
$PUCSORTHOREF
  2

  9
$PUCSORTHOVIEW
 70
     0
  9
$PUCSORGTOP
 10
0.0
 20
0.0
 30
0.0
  9
$PUCSORGBOTTOM
 10
0.0
 20
0.0
 30
0.0
  9
$PUCSORGLEFT
 10
0.0
 20
0.0
 30
0.0
  9
$PUCSORGRIGHT
 10
0.0
 20
0.0
 30
0.0
  9
$PUCSORGFRONT
 10
0.0
 20
0.0
 30
0.0
  9
$PUCSORGBACK
 10
0.0
 20
0.0
 30
0.0
  9
$USERI1
 70
     0
  9
$USERI2
 70
     0
  9
$USERI3
 70
     0
  9
$USERI4
 70
     0
  9
$USERI5
 70
     0
  9
$USERR1
 40
0.0
  9
$USERR2
 40
0.0
  9
$USERR3
 40
0.0
  9
$USERR4
 40
0.0
  9
$USERR5
 40
0.0
  9
$WORLDVIEW
 70
     1
  9
$SHADEDGE
 70
     3
  9
$SHADEDIF
 70
    70
  9
$TILEMODE
 70
     1
  9
$MAXACTVP
 70
    64
  9
$PINSBASE
 10
0.0
 20
0.0
 30
0.0
  9
$PLIMCHECK
 70
     0
  9
$PEXTMIN
 10
1.000000000000000E+20
 20
1.000000000000000E+20
 30
1.000000000000000E+20
  9
$PEXTMAX
 10
-1.000000000000000E+20
 20
-1.000000000000000E+20
 30
-1.000000000000000E+20
  9
$PLIMMIN
 10
0.0
 20
0.0
  9
$PLIMMAX
 10
0.0
 20
0.0
  9
$UNITMODE
 70
     0
  9
$VISRETAIN
 70
     1
  9
$PLINEGEN
 70
     0
  9
$PSLTSCALE
 70
     1
  9
$TREEDEPTH
 70
  3020
  9
$CMLSTYLE
  2
Standard
  9
$CMLJUST
 70
     0
  9
$CMLSCALE
 40
20.0
  9
$PROXYGRAPHICS
 70
     1
  9
$MEASUREMENT
 70
     1
  9
$CELWEIGHT
370
    -1
  9
$ENDCAPS
280
     0
  9
$JOINSTYLE
280
     0
  9
$LWDISPLAY
290
     1
  9
$INSUNITS
 70
     4
  9
$HYPERLINKBASE
  1

  9
$STYLESHEET
  1

  9
$XEDIT
290
     1
  9
$CEPSNTYPE
380
     0
  9
$PSTYLEMODE
290
     1
  9
$FINGERPRINTGUID
  2
{5A7426E7-C273-4484-92FA-BA71FBF2A27C}
  9
$VERSIONGUID
  2
{FAEB1C32-E019-11D5-929B-00C0DF256EC4}
  9
$EXTNAMES
290
     1
  9
$PSVPSCALE
 40
0.0
  9
$OLESTARTUP
290
     0
  0
ENDSEC
  0
SECTION
  2
CLASSES
  0
CLASS
  1
ACDBDICTIONARYWDFLT
  2
AcDbDictionaryWithDefault
  3
ObjectDBX Classes
 90
        0
280
     0
281
     0
  0
CLASS
  1
VISUALSTYLE
  2
AcDbVisualStyle
  3
ObjectDBX Classes
 90
     4095
280
     0
281
     0
  0
CLASS
  1
MATERIAL
  2
AcDbMaterial
  3
ObjectDBX Classes
 90
     1153
280
     0
281
     0
  0
CLASS
  1
SCALE
  2
AcDbScale
  3
ObjectDBX Classes
 90
     1153
280
     0
281
     0
  0
CLASS
  1
SUN
  2
AcDbSun
  3
SCENEOE
 90
     1153
280
     0
281
     0
  0
CLASS
  1
ACDBPLACEHOLDER
  2
AcDbPlaceHolder
  3
ObjectDBX Classes
 90
        0
280
     0
281
     0
  0
CLASS
  1
LAYOUT
  2
AcDbLayout
  3
ObjectDBX Classes
 90
        0
280
     0
281
     0
  0
CLASS
  1
TABLESTYLE
  2
AcDbTableStyle
  3
ObjectDBX Classes
 90
     4095
280
     0
281
     0
  0
CLASS
  1
MLEADERSTYLE
  2
AcDbMLeaderStyle
  3
ACDB_MLEADERSTYLE_CLASS
 90
     4095
280
     0
281
     0
  0
CLASS
  1
RASTERVARIABLES
  2
AcDbRasterVariables
  3
ISM
 90
        0
280
     0
281
     0
  0
ENDSEC
  0
SECTION
  2
TABLES
  0
TABLE
  2
VPORT
  5
8
330
0
100
AcDbSymbolTable
 70
     1
  0
VPORT
  5
29
330
8
100
AcDbSymbolTableRecord
100
AcDbViewportTableRecord
  2
*Active
 70
     0
 10
0.0
 20
0.0
 11
1.0
 21
1.0
 12
34.4989865742155
 22
-19.37757592067707
 13
0.0
 23
0.0
 14
10.0
 24
10.0
 15
10.0
 25
10.0
 16
0.0
 26
0.0
 36
1.0
 17
0.0
 27
0.0
 37
0.0
 40
202.2458604188527
 41
1.694390715667311
 42
50.0
 43
0.0
 44
0.0
 50
0.0
 51
0.0
 71
    16
 72
  2000
 73
     1
 74
     3
 75
     0
 76
     0
 77
     0
 78
     0
281
     0
 65
     1
110
0.0
120
0.0
130
0.0
111
1.0
121
0.0
131
0.0
112
0.0
122
1.0
132
0.0
 79
     0
146
0.0
  0
ENDTAB
  0
TABLE
  2
LTYPE
  5
5
330
0
100
AcDbSymbolTable
 70
     6
  0
LTYPE
  5
14
330
5
100
AcDbSymbolTableRecord
100
AcDbLinetypeTableRecord
  2
ByBlock
 70
     0
  3

 72
    65
 73
     0
 40
0.0
  0
LTYPE
  5
15
330
5
100
AcDbSymbolTableRecord
100
AcDbLinetypeTableRecord
  2
ByLayer
 70
     0
  3

 72
    65
 73
     0
 40
0.0
  0
LTYPE
  5
16
330
5
100
AcDbSymbolTableRecord
100
AcDbLinetypeTableRecord
  2
Continuous
 70
     0
  3
Solid line
 72
    65
 73
     0
 40
0.0
  0
LTYPE
  5
6A
330
5
100
AcDbSymbolTableRecord
100
AcDbLinetypeTableRecord
  2
HIDDEN
 70
     0
  3
Hidden __ __ __ __ __ __ __ __ __ __ __ __ __ __
 72
    65
 73
     2
 40
1.905
 49
1.27
 74
     0
 49
-0.635
 74
     0
  0
LTYPE
  5
6B
330
5
100
AcDbSymbolTableRecord
100
AcDbLinetypeTableRecord
  2
PHANTOM
 70
     0
  3
Phantom ______  __  __  ______  __  __  ______
 72
    65
 73
     6
 40
12.7
 49
6.35
 74
     0
 49
-1.27
 74
     0
 49
1.27
 74
     0
 49
-1.27
 74
     0
 49
1.27
 74
     0
 49
-1.27
 74
     0
  0
LTYPE
  5
6C
330
5
100
AcDbSymbolTableRecord
100
AcDbLinetypeTableRecord
  2
CENTER
 70
     0
  3
Center ____ _ ____ _ ____ _ ____ _ ____ _ ____
 72
    65
 73
     4
 40
10.16
 49
6.35
 74
     0
 49
-1.27
 74
     0
 49
1.27
 74
     0
 49
-1.27
 74
     0
  0
LTYPE
  5
6D
330
5
100
AcDbSymbolTableRecord
100
AcDbLinetypeTableRecord
  2
CENTERX2
 70
     0
  3
Center (2x) ________  __  ________  __  _____
 72
    65
 73
     4
 40
20.32
 49
12.7
 74
     0
 49
-2.54
 74
     0
 49
2.54
 74
     0
 49
-2.54
 74
     0
  0
LTYPE
  5
6E
330
5
100
AcDbSymbolTableRecord
100
AcDbLinetypeTableRecord
  2
DOT2
 70
     0
  3
Dot (.5x) ........................................
 72
    65
 73
     2
 40
0.635
 49
0.0
 74
     0
 49
-0.635
 74
     0
  0
ENDTAB
  0
TABLE
  2
LAYER
  5
2
330
0
100
AcDbSymbolTable
 70
    18
  0
LAYER
  5
10
330
2
100
AcDbSymbolTableRecord
100
AcDbLayerTableRecord
  2
0
 70
     0
 62
     7
  6
Continuous
370
    -3
390
F
  0
LAYER
  5
6F
330
2
100
AcDbSymbolTableRecord
100
AcDbLayerTableRecord
  2
FORMAT
 70
     0
 62
     2
  6
Continuous
370
    -3
390
F
  0
LAYER
  5
70
330
2
100
AcDbSymbolTableRecord
100
AcDbLayerTableRecord
  2
외형선
 70
     0
 62
     4
  6
Continuous
370
    30
390
F
  0
LAYER
  5
71
330
2
100
AcDbSymbolTableRecord
100
AcDbLayerTableRecord
  2
숨은선
 70
     0
 62
     2
  6
HIDDEN
370
    15
390
F
  0
LAYER
  5
72
330
2
100
AcDbSymbolTableRecord
100
AcDbLayerTableRecord
  2
중심선
 70
     0
 62
     1
  6
CENTERX2
370
    -3
390
F
  0
LAYER
  5
73
330
2
100
AcDbSymbolTableRecord
100
AcDbLayerTableRecord
  2
파단선
 70
     0
 62
     4
  6
Continuous
370
    -3
390
F
  0
LAYER
  5
74
330
2
100
AcDbSymbolTableRecord
100
AcDbLayerTableRecord
  2
해칭선
 70
     0
 62
   100
  6
Continuous
370
    -3
390
F
  0
LAYER
  5
75
330
2
100
AcDbSymbolTableRecord
100
AcDbLayerTableRecord
  2
가는실선
 70
     0
 62
     4
  6
Continuous
370
    -3
390
F
  0
LAYER
  5
76
330
2
100
AcDbSymbolTableRecord
100
AcDbLayerTableRecord
  2
치수_보조선
 70
     0
 62
     4
  6
Continuous
370
    -3
390
F
  0
LAYER
  5
77
330
2
100
AcDbSymbolTableRecord
100
AcDbLayerTableRecord
  2
치수문자_일반주서
 70
     0
 62
     7
  6
Continuous
370
    15
390
F
  0
LAYER
  5
78
330
2
100
AcDbSymbolTableRecord
100
AcDbLayerTableRecord
  2
개별주서
 70
     0
 62
   100
  6
Continuous
370
    30
390
F
  0
LAYER
  5
79
330
2
100
AcDbSymbolTableRecord
100
AcDbLayerTableRecord
  2
중간선
 70
     0
 62
     2
  6
Continuous
370
    15
390
F
  0
LAYER
  5
7A
330
2
100
AcDbSymbolTableRecord
100
AcDbLayerTableRecord
  2
윤곽선
 70
     0
 62
     3
  6
Continuous
370
    40
390
F
  0
LAYER
  5
7B
330
2
100
AcDbSymbolTableRecord
100
AcDbLayerTableRecord
  2
중심마크
 70
     0
 62
   100
  6
Continuous
370
    30
390
F
  0
LAYER
  5
7C
330
2
100
AcDbSymbolTableRecord
100
AcDbLayerTableRecord
  2
가상선
 70
     0
 62
     4
  6
PHANTOM
370
    -3
390
F
  0
LAYER
  5
7D
330
2
100
AcDbSymbolTableRecord
100
AcDbLayerTableRecord
  2
특수지정선
 70
     0
 62
     5
  6
CENTERX2
370
    60
390
F
  0
LAYER
  5
7E
330
2
100
AcDbSymbolTableRecord
100
AcDbLayerTableRecord
  2
참조1
 70
     0
 62
    -4
  6
Continuous
370
    -3
390
F
  0
LAYER
  5
314
330
2
100
AcDbSymbolTableRecord
100
AcDbLayerTableRecord
  2
Defpoints
 70
     0
 62
     7
  6
Continuous
290
     0
370
    -3
390
F
  0
ENDTAB
  0
TABLE
  2
STYLE
  5
3
330
0
100
AcDbSymbolTable
 70
     2
  0
STYLE
  5
11
330
3
100
AcDbSymbolTableRecord
100
AcDbTextStyleTableRecord
  2
Standard
 70
     0
 40
0.0
 41
1.0
 50
0.0
 71
     0
 42
3.5
  3
txt
  4

  0
STYLE
  5
94
330
3
100
AcDbSymbolTableRecord
100
AcDbTextStyleTableRecord
  2
SLDTEXTSTYLE0
 70
     0
 40
0.0
 41
0.75
 50
0.0
 71
     0
 42
3.5
  3
TXT
  4

  0
ENDTAB
  0
TABLE
  2
VIEW
  5
6
330
0
100
AcDbSymbolTable
 70
     0
  0
ENDTAB
  0
TABLE
  2
UCS
  5
7
330
0
100
AcDbSymbolTable
 70
     0
  0
ENDTAB
  0
TABLE
  2
APPID
  5
9
330
0
100
AcDbSymbolTable
 70
     1
  0
APPID
  5
12
330
9
100
AcDbSymbolTableRecord
100
AcDbRegAppTableRecord
  2
ACAD
 70
     0
  0
ENDTAB
  0
TABLE
  2
DIMSTYLE
  5
A
330
0
100
AcDbSymbolTable
 70
     4
100
AcDbDimStyleTable
  0
DIMSTYLE
105
27
330
A
100
AcDbSymbolTableRecord
100
AcDbDimStyleTableRecord
  2
ISO-25
 70
     0
 41
2.5
 42
0.625
 43
3.75
 44
1.25
 73
     0
 74
     0
 77
     1
 78
     8
140
2.5
141
2.5
143
0.03937007874016
147
0.625
171
     3
172
     1
178
     0
271
     2
272
     2
274
     3
278
    44
283
     0
284
     8
340
11
  0
DIMSTYLE
105
293
102
{ACAD_REACTORS
330
292
330
2BA
102
}
330
A
100
AcDbSymbolTableRecord
100
AcDbDimStyleTableRecord
  2
SLDDIMSTYLE0
 70
     0
 41
3.302
 44
0.0
 45
0.000000001
 73
     0
 74
     0
 77
     1
 78
    12
 79
     3
140
3.5
143
0.0393700787401575
147
0.875
148
0.000000001
170
     1
173
     1
178
     0
271
     2
272
     2
276
     2
284
    12
340
94
  0
DIMSTYLE
105
2A6
102
{ACAD_REACTORS
330
2A5
102
}
330
A
100
AcDbSymbolTableRecord
100
AcDbDimStyleTableRecord
  2
SLDDIMSTYLE1
 70
     0
 41
3.302
 44
0.0
 45
0.000000001
 73
     0
 74
     0
 77
     1
 78
    12
 79
     3
140
3.5
143
0.0393700787401575
147
0.875
148
0.000000001
170
     1
172
     1
173
     1
178
     0
271
     2
272
     2
276
     2
284
    12
289
     0
340
94
  0
DIMSTYLE
105
2CF
102
{ACAD_REACTORS
330
2CE
102
}
330
A
100
AcDbSymbolTableRecord
100
AcDbDimStyleTableRecord
  2
SLDDIMSTYLE2
 70
     0
 41
3.302
 44
0.0
 45
0.000000001
 73
     0
 74
     0
 77
     1
 78
     4
 79
     1
140
3.5
143
0.0393700787401575
147
0.875
148
0.000000001
170
     1
173
     1
178
     0
271
     2
272
     2
276
     2
284
    12
340
94
  0
ENDTAB
  0
TABLE
  2
BLOCK_RECORD
  5
1
330
0
100
AcDbSymbolTable
 70
     7
  0
BLOCK_RECORD
  5
1F
330
1
100
AcDbSymbolTableRecord
100
AcDbBlockTableRecord
  2
*Model_Space
340
22
  0
BLOCK_RECORD
  5
1B
330
1
100
AcDbSymbolTableRecord
100
AcDbBlockTableRecord
  2
*Paper_Space
340
1E
  0
BLOCK_RECORD
  5
23
330
1
100
AcDbSymbolTableRecord
100
AcDbBlockTableRecord
  2
*Paper_Space0
340
26
  0
BLOCK_RECORD
  5
7F
330
1
100
AcDbSymbolTableRecord
100
AcDbBlockTableRecord
  2
블럭10
340
0
102
{BLKREFS
331
28A
102
}
  0
BLOCK_RECORD
  5
294
330
1
100
AcDbSymbolTableRecord
100
AcDbBlockTableRecord
  2
_D
340
0
  0
BLOCK_RECORD
  5
2A7
330
1
100
AcDbSymbolTableRecord
100
AcDbBlockTableRecord
  2
_D_1
340
0
  0
BLOCK_RECORD
  5
2BB
330
1
100
AcDbSymbolTableRecord
100
AcDbBlockTableRecord
  2
_D_2
340
0
  0
BLOCK_RECORD
  5
2D0
330
1
100
AcDbSymbolTableRecord
100
AcDbBlockTableRecord
  2
_D_3
340
0
  0
BLOCK_RECORD
  5
2E9
330
1
100
AcDbSymbolTableRecord
100
AcDbBlockTableRecord
  2
SW_DOWELSYMBOL_0
340
0
102
{BLKREFS
331
2EF
102
}
  0
ENDTAB
  0
ENDSEC
  0
SECTION
  2
BLOCKS
  0
BLOCK
  5
20
330
1F
100
AcDbEntity
  8
0
100
AcDbBlockBegin
  2
*Model_Space
 70
     0
 10
0.0
 20
0.0
 30
0.0
  3
*Model_Space
  1
*Model_Space
  0
ENDBLK
  5
21
330
1F
100
AcDbEntity
  8
0
100
AcDbBlockEnd
  0
BLOCK
  5
1C
330
1B
100
AcDbEntity
 67
     1
  8
0
100
AcDbBlockBegin
  2
*Paper_Space
 70
     0
 10
0.0
 20
0.0
 30
0.0
  3
*Paper_Space
  1
*Paper_Space
  0
ENDBLK
  5
1D
330
1B
100
AcDbEntity
 67
     1
  8
0
100
AcDbBlockEnd
  0
BLOCK
  5
24
330
23
100
AcDbEntity
  8
0
100
AcDbBlockBegin
  2
*Paper_Space0
 70
     0
 10
0.0
 20
0.0
 30
0.0
  3
*Paper_Space0
  1
*Paper_Space0
  0
ENDBLK
  5
25
330
23
100
AcDbEntity
  8
0
100
AcDbBlockEnd
  0
BLOCK
  5
80
330
7F
100
AcDbEntity
  8
0
100
AcDbBlockBegin
  2
블럭10
 70
     2
 10
0.0
 20
0.0
 30
0.0
  3
블럭10
  1
블럭10
  0
ELLIPSE
  5
82
330
7F
100
AcDbEntity
  8
중심선
100
AcDbEllipse
 10
20.54032771741204
 20
12.0471743016438
 30
0.0
 11
6.600054785286829
 21
-1.261213355974178E-13
 31
0.0
210
0.0
220
0.0
230
1.0
 40
0.636358354079598
 41
0.9219305317359503
 42
6.513795318482858
  0
ELLIPSE
  5
83
330
7F
100
AcDbEntity
  8
중심선
100
AcDbEllipse
 10
20.54032771746488
 20
12.04717430159265
 30
0.0
 11
3.960054785062283
 21
1.540847449632565E-10
 31
0.0
210
0.0
220
0.0
230
1.0
 40
0.3939339440162632
 41
1.131841032648279
 42
5.62031148352944
  0
LINE
  5
84
330
7F
100
AcDbEntity
  8
중심선
100
AcDbLine
 10
2.268634060543552
 20
16.24717430164393
 30
0.0
 11
5.714909304380834
 21
16.24717430164393
 31
0.0
  0
LINE
  5
85
330
7F
100
AcDbEntity
  8
중심선
100
AcDbLine
 10
5.245725140726316
 20
7.84717430164391
 30
0.0
 11
8.692000384563599
 21
7.84717430164391
 31
0.0
  0
LINE
  5
86
330
7F
100
AcDbEntity
  8
중심선
100
AcDbLine
 10
15.74043728645272
 20
16.24717430164393
 30
0.0
 11
8.692000384563599
 21
7.84717430164391
 31
0.0
  0
LINE
  5
87
330
7F
100
AcDbEntity
  8
중심선
100
AcDbLine
 10
0.1404042013395286
 20
13.71084872107135
 30
0.0
 11
3.58671253028996
 21
13.71088815037384
 31
0.0
  0
LINE
  5
88
330
7F
100
AcDbEntity
  8
중심선
100
AcDbLine
 10
2.750260043222114
 20
10.84717430164391
 30
0.0
 11
6.196535287059397
 21
10.84717430164391
 31
0.0
  0
LINE
  5
89
330
7F
100
AcDbEntity
  8
중심선
100
AcDbLine
 10
12.29416204261559
 20
16.24717430164393
 30
0.0
 11
5.245725140726316
 21
7.84717430164391
 31
0.0
  0
LINE
  5
8A
330
7F
100
AcDbEntity
  8
중심선
100
AcDbLine
 10
10.72767329541681
 20
16.24717430164393
 30
0.0
 11
6.196535287059397
 21
10.84717430164391
 31
0.0
  0
LINE
  5
8B
330
7F
100
AcDbEntity
  8
중심선
100
AcDbLine
 10
7.28139805157953
 20
16.24717430164393
 30
0.0
 11
2.750260043222114
 21
10.84717430164391
 31
0.0
  0
LINE
  5
8C
330
7F
100
AcDbEntity
  8
중심선
100
AcDbLine
 10
5.714909304380834
 20
16.24717430164393
 30
0.0
 11
3.58671253028996
 21
13.71088815037384
 31
0.0
  0
LINE
  5
8D
330
7F
100
AcDbEntity
  8
중심선
100
AcDbLine
 10
2.268634060543552
 20
16.24717430164393
 30
0.0
 11
0.1404042013395286
 21
13.71084872107135
 31
0.0
  0
LINE
  5
8E
330
7F
100
AcDbEntity
  8
중심선
100
AcDbLine
 10
7.28139805157953
 20
16.24717430164393
 30
0.0
 11
10.72767329541681
 21
16.24717430164393
 31
0.0
  0
LINE
  5
8F
330
7F
100
AcDbEntity
  8
중심선
100
AcDbLine
 10
12.29416204261559
 20
16.24717430164393
 30
0.0
 11
15.74043728645272
 21
16.24717430164393
 31
0.0
  0
LINE
  5
90
330
7F
100
AcDbEntity
  8
중심선
100
AcDbLine
 10
19.22036997980202
 20
11.08717430171403
 30
0.0
 11
23.66174974927406
 21
11.08717430171406
 31
0.0
  0
LINE
  5
91
330
7F
100
AcDbEntity
  8
중심선
100
AcDbLine
 10
19.22039502424796
 20
13.00717430171391
 30
0.0
 11
19.22036997980202
 21
11.08717430171403
 31
0.0
  0
LINE
  5
92
330
7F
100
AcDbEntity
  8
중심선
100
AcDbLine
 10
19.22039502424796
 20
13.00717430171391
 30
0.0
 11
26.96566020931264
 21
13.00717430171391
 31
0.0
  0
LINE
  5
93
330
7F
100
AcDbEntity
  8
중심선
100
AcDbLine
 10
22.22332737316547
 20
13.45928029700563
 30
0.0
 11
24.52862924686651
 21
15.39360700705356
 31
0.0
  0
ATTDEF
  5
95
330
7F
100
AcDbEntity
  8
FORMAT
 62
     2
100
AcDbText
 10
-9.522313950597932
 20
2.075366912832191
 30
0.0
 40
4.233333333333333
  1
EH969024 [ 4 FLUTE ]
 41
0.75
  7
SLDTEXTSTYLE0
 11
-9.522313950597932
 21
-0.0412997538344756
 31
0.0
100
AcDbAttributeDefinition
  3

  2
AUTOATTR0
 70
     0
 74
     1
  0
ENDBLK
  5
81
330
7F
100
AcDbEntity
  8
0
100
AcDbBlockEnd
  0
BLOCK
  5
295
330
294
100
AcDbEntity
  8
0
100
AcDbBlockBegin
  2
_D
 70
     0
 10
0.0
 20
0.0
 30
0.0
  3
_D
  1
_D
  0
LINE
  5
297
330
294
100
AcDbEntity
  8
치수문자_일반주서
 62
     0
370
    -2
100
AcDbLine
 10
29.1125
 20
4.7625
 30
0.0
 11
45.95805971856321
 21
4.762500000000063
 31
0.0
  0
LINE
  5
298
330
294
100
AcDbEntity
  8
치수문자_일반주서
 62
     0
370
    -2
100
AcDbLine
 10
29.1125
 20
-4.7625
 30
0.0
 11
45.95805971856325
 21
-4.762499999999935
 31
0.0
  0
LINE
  5
299
330
294
100
AcDbEntity
  8
치수문자_일반주서
 62
     0
370
    -2
100
AcDbLine
 10
45.95805971856321
 20
4.762500000000063
 30
0.0
 11
45.9580597185631
 21
34.53325000000015
 31
0.0
  0
LINE
  5
29A
330
294
100
AcDbEntity
  8
치수문자_일반주서
 62
     0
370
    -2
100
AcDbLine
 10
45.95805971856323
 20
1.460500000000063
 30
0.0
 11
45.95805971856323
 21
-1.460499999999935
 31
0.0
  0
SOLID
  5
29B
330
294
100
AcDbEntity
  8
치수문자_일반주서
 62
     0
100
AcDbTrace
 10
46.50839305189656
 20
1.460500000000065
 30
0.0
 11
45.40772638522989
 21
1.460500000000061
 31
0.0
 12
45.95805971856321
 22
4.762500000000063
 32
0.0
 13
45.95805971856321
 23
4.762500000000063
 33
0.0
  0
SOLID
  5
29C
330
294
100
AcDbEntity
  8
치수문자_일반주서
 62
     0
100
AcDbTrace
 10
45.4077263852299
 20
-1.460499999999937
 30
0.0
 11
46.50839305189657
 21
-1.460499999999933
 31
0.0
 12
45.95805971856325
 22
-4.762499999999935
 32
0.0
 13
45.95805971856325
 23
-4.762499999999935
 33
0.0
  0
MTEXT
  5
29D
330
294
100
AcDbEntity
  8
치수문자_일반주서
 62
     0
100
AcDbMText
 10
41.58305971856315
 20
21.40825000000014
 30
0.0
 40
3.5
 41
0.0
 71
     2
 72
     1
  1
\A1;%%c9.53 [3/8]
  7
SLDTEXTSTYLE0
 11
-3.729883127349606E-15
 21
1.0
 31
0.0
 73
     1
 44
1.0
  0
POINT
  5
29E
330
294
100
AcDbEntity
  8
Defpoints
 62
     0
100
AcDbPoint
 10
29.05
 20
4.7625
 30
0.0
  0
POINT
  5
29F
330
294
100
AcDbEntity
  8
Defpoints
 62
     0
100
AcDbPoint
 10
29.05
 20
-4.7625
 30
0.0
  0
POINT
  5
2A0
330
294
100
AcDbEntity
  8
Defpoints
 62
     0
100
AcDbPoint
 10
45.95805971856325
 20
-4.762499999999937
 30
0.0
  0
ENDBLK
  5
296
330
294
100
AcDbEntity
  8
0
100
AcDbBlockEnd
  0
BLOCK
  5
2A8
330
2A7
100
AcDbEntity
  8
0
100
AcDbBlockBegin
  2
_D_1
 70
     0
 10
0.0
 20
0.0
 30
0.0
  3
_D_1
  1
_D_1
  0
LINE
  5
2AA
330
2A7
100
AcDbEntity
  8
치수문자_일반주서
 62
     0
370
    -2
100
AcDbLine
 10
-33.51250012814998
 20
4.762499999999997
 30
0.0
 11
-44.26000012815003
 21
4.762499999999956
 31
0.0
  0
LINE
  5
2AB
330
2A7
100
AcDbEntity
  8
치수문자_일반주서
 62
     0
370
    -2
100
AcDbLine
 10
-33.51250012814998
 20
-4.76250000000001
 30
0.0
 11
-44.26000012815
 21
-4.762500000000051
 31
0.0
  0
LINE
  5
2AC
330
2A7
100
AcDbEntity
  8
치수문자_일반주서
 62
     0
370
    -2
100
AcDbLine
 10
-44.26000012815002
 20
1.460499999999956
 30
0.0
 11
-44.26000012815001
 21
-1.460500000000051
 31
0.0
  0
SOLID
  5
2AD
330
2A7
100
AcDbEntity
  8
치수문자_일반주서
 62
     0
100
AcDbTrace
 10
-43.70966679481668
 20
1.460499999999958
 30
0.0
 11
-44.81033346148335
 21
1.460499999999954
 31
0.0
 12
-44.26000012815003
 22
4.762499999999956
 32
0.0
 13
-44.26000012815003
 23
4.762499999999956
 33
0.0
  0
SOLID
  5
2AE
330
2A7
100
AcDbEntity
  8
치수문자_일반주서
 62
     0
100
AcDbTrace
 10
-44.81033346148335
 20
-1.460500000000053
 30
0.0
 11
-43.70966679481668
 21
-1.460500000000049
 31
0.0
 12
-44.26000012815
 22
-4.762500000000051
 32
0.0
 13
-44.26000012815
 23
-4.762500000000051
 33
0.0
  0
MTEXT
  5
2AF
330
2A7
100
AcDbEntity
  8
치수문자_일반주서
 62
     0
100
AcDbMText
 10
-48.63500012815001
 20
-0.7630082607154826
 30
0.0
 40
3.5
 41
0.0
 71
     2
 72
     1
  1
\A1;%%c9.53 [3/8]
  7
SLDTEXTSTYLE0
 11
-3.729883127349605E-15
 21
1.0
 31
0.0
 73
     1
 44
1.0
  0
POINT
  5
2B0
330
2A7
100
AcDbEntity
  8
Defpoints
 62
     0
100
AcDbPoint
 10
-33.45000012814998
 20
4.762499999999997
 30
0.0
  0
POINT
  5
2B1
330
2A7
100
AcDbEntity
  8
Defpoints
 62
     0
100
AcDbPoint
 10
-33.45000012814998
 20
-4.76250000000001
 30
0.0
  0
POINT
  5
2B2
330
2A7
100
AcDbEntity
  8
Defpoints
 62
     0
100
AcDbPoint
 10
-44.26000012815
 20
-4.76250000000005
 30
0.0
  0
ENDBLK
  5
2A9
330
2A7
100
AcDbEntity
  8
0
100
AcDbBlockEnd
  0
BLOCK
  5
2BC
330
2BB
100
AcDbEntity
  8
0
100
AcDbBlockBegin
  2
_D_2
 70
     0
 10
0.0
 20
0.0
 30
0.0
  3
_D_2
  1
_D_2
  0
LINE
  5
2BE
330
2BB
100
AcDbEntity
  8
치수문자_일반주서
 62
     0
370
    -2
100
AcDbLine
 10
29.04999986239488
 20
4.3863842039739
 30
0.0
 11
29.04999725047502
 21
21.65159936660185
 31
0.0
  0
LINE
  5
2BF
330
2BB
100
AcDbEntity
  8
치수문자_일반주서
 62
     0
370
    -2
100
AcDbLine
 10
9.999999990544863
 20
4.824999999999999
 30
0.0
 11
9.999997444980206
 21
21.65159648467583
 31
0.0
  0
LINE
  5
2C0
330
2BB
100
AcDbEntity
  8
치수문자_일반주서
 62
     0
370
    -2
100
AcDbLine
 10
25.74799725047506
 20
21.651598867068
 30
0.0
 11
13.30199744498017
 21
21.65159698420968
 31
0.0
  0
SOLID
  5
2C1
330
2BB
100
AcDbEntity
  8
치수문자_일반주서
 62
     0
100
AcDbTrace
 10
25.7479973337307
 20
21.10126553373468
 30
0.0
 11
25.74799716721942
 21
22.20193220040133
 31
0.0
 12
29.04999725047502
 22
21.65159936660185
 32
0.0
 13
29.04999725047502
 23
21.65159936660185
 33
0.0
  0
SOLID
  5
2C2
330
2BB
100
AcDbEntity
  8
치수문자_일반주서
 62
     0
100
AcDbTrace
 10
13.30199736172453
 20
22.20193031754301
 30
0.0
 11
13.30199752823581
 21
21.10126365087635
 31
0.0
 12
9.999997444980206
 22
21.65159648467583
 32
0.0
 13
9.999997444980206
 23
21.65159648467583
 33
0.0
  0
MTEXT
  5
2C3
330
2BB
100
AcDbEntity
  8
치수문자_일반주서
 62
     0
100
AcDbMText
 10
17.93749660884621
 20
26.02659768547828
 30
0.0
 40
3.5
 41
0.0
 71
     2
 72
     1
  1
\A1;19.05 [3/4]
  7
SLDTEXTSTYLE0
 11
0.9999999999999887
 21
1.512822076245067E-7
 31
0.0
 73
     1
 44
1.0
  0
POINT
  5
2C4
330
2BB
100
AcDbEntity
  8
Defpoints
 62
     0
100
AcDbPoint
 10
29.04999987185002
 20
4.323884203973901
 30
0.0
  0
POINT
  5
2C5
330
2BB
100
AcDbEntity
  8
Defpoints
 62
     0
100
AcDbPoint
 10
10.0
 20
4.7625
 30
0.0
  0
POINT
  5
2C6
330
2BB
100
AcDbEntity
  8
Defpoints
 62
     0
100
AcDbPoint
 10
9.9999974449802
 20
21.65159648467583
 30
0.0
  0
ENDBLK
  5
2BD
330
2BB
100
AcDbEntity
  8
0
100
AcDbBlockEnd
  0
BLOCK
  5
2D1
330
2D0
100
AcDbEntity
  8
0
100
AcDbBlockBegin
  2
_D_3
 70
     0
 10
0.0
 20
0.0
 30
0.0
  3
_D_3
  1
_D_3
  0
LINE
  5
2D3
330
2D0
100
AcDbEntity
  8
치수문자_일반주서
 62
     0
370
    -2
100
AcDbLine
 10
29.04999987185002
 20
4.386384203973901
 30
0.0
 11
29.04999987185002
 21
38.32126436759789
 31
0.0
  0
LINE
  5
2D4
330
2D0
100
AcDbEntity
  8
치수문자_일반주서
 62
     0
370
    -2
100
AcDbLine
 10
-34.45000012814998
 20
3.824999999999989
 30
0.0
 11
-34.45000012814997
 21
38.32126436759789
 31
0.0
  0
LINE
  5
2D5
330
2D0
100
AcDbEntity
  8
치수문자_일반주서
 62
     0
370
    -2
100
AcDbLine
 10
25.74799987185002
 20
38.32126436759789
 30
0.0
 11
-31.14800012814997
 21
38.32126436759789
 31
0.0
  0
SOLID
  5
2D6
330
2D0
100
AcDbEntity
  8
치수문자_일반주서
 62
     0
100
AcDbTrace
 10
25.74799987185002
 20
37.77093103426456
 30
0.0
 11
25.74799987185002
 21
38.87159770093123
 31
0.0
 12
29.04999987185002
 22
38.32126436759789
 32
0.0
 13
29.04999987185002
 23
38.32126436759789
 33
0.0
  0
SOLID
  5
2D7
330
2D0
100
AcDbEntity
  8
치수문자_일반주서
 62
     0
100
AcDbTrace
 10
-31.14800012814997
 20
38.87159770093123
 30
0.0
 11
-31.14800012814997
 21
37.77093103426456
 31
0.0
 12
-34.45000012814997
 22
38.32126436759789
 32
0.0
 13
-34.45000012814997
 23
38.32126436759789
 33
0.0
  0
MTEXT
  5
2D8
330
2D0
100
AcDbEntity
  8
치수문자_일반주서
 62
     0
100
AcDbMText
 10
0.0762865975475315
 20
42.69626436759789
 30
0.0
 40
3.5
 41
0.0
 71
     2
 72
     1
  1
\A1;63.50 [2 1/2]
  7
SLDTEXTSTYLE0
 73
     1
 44
1.0
  0
POINT
  5
2D9
330
2D0
100
AcDbEntity
  8
Defpoints
 62
     0
100
AcDbPoint
 10
29.04999987185002
 20
4.323884203973901
 30
0.0
  0
POINT
  5
2DA
330
2D0
100
AcDbEntity
  8
Defpoints
 62
     0
100
AcDbPoint
 10
-34.45000012814998
 20
3.762499999999989
 30
0.0
  0
POINT
  5
2DB
330
2D0
100
AcDbEntity
  8
Defpoints
 62
     0
100
AcDbPoint
 10
-34.45000012814998
 20
38.32126436759789
 30
0.0
  0
ENDBLK
  5
2D2
330
2D0
100
AcDbEntity
  8
0
100
AcDbBlockEnd
  0
BLOCK
  5
2EA
330
2E9
100
AcDbEntity
  8
0
100
AcDbBlockBegin
  2
SW_DOWELSYMBOL_0
 70
     0
 10
0.0
 20
0.0
 30
0.0
  3
SW_DOWELSYMBOL_0
  1
SW_DOWELSYMBOL_0
  0
CIRCLE
  5
2EC
330
2E9
100
AcDbEntity
  8
해칭선
 62
     0
100
AcDbCircle
 10
0.0
 20
0.0
 30
0.0
 40
3.000000000000004
  0
HATCH
  5
2ED
330
2E9
100
AcDbEntity
  8
0
  6
Continuous
 62
     0
370
     0
100
AcDbHatch
 10
0.0
 20
0.0
 30
0.0
210
0.0
220
0.0
230
1.0
  2
SOLID
 70
     1
 71
     0
 91
        1
 92
        0
 93
        3
 72
     2
 10
0.0000000000000104
 20
-0.0000000000000035
 40
3.000000000000004
 50
0.0
 51
90.0
 73
     1
 72
     1
 10
0.0000000000000104
 20
3.000000000000001
 11
0.0000000000000104
 21
-0.0000000000000036
 72
     1
 10
0.0000000000000104
 20
-0.0000000000000035
 11
3.000000000000015
 21
-0.0000000000000035
 97
        0
 75
     0
 76
     1
 98
        1
 10
0.0
 20
0.0
  0
HATCH
  5
2EE
330
2E9
100
AcDbEntity
  8
0
  6
Continuous
 62
     0
370
     0
100
AcDbHatch
 10
0.0
 20
0.0
 30
0.0
210
0.0
220
0.0
230
1.0
  2
SOLID
 70
     1
 71
     0
 91
        1
 92
        0
 93
        3
 72
     2
 10
0.0000000000000104
 20
-0.0000000000000035
 40
3.000000000000004
 50
180.0
 51
270.0000000000007
 73
     1
 72
     1
 10
0.0000000000000104
 20
-3.000000000000008
 11
0.0000000000000104
 21
-0.0000000000000036
 72
     1
 10
0.0000000000000104
 20
-0.0000000000000035
 11
-2.999999999999994
 21
-0.0000000000000035
 97
        0
 75
     0
 76
     1
 98
        1
 10
0.0
 20
0.0
  0
ENDBLK
  5
2EB
330
2E9
100
AcDbEntity
  8
0
100
AcDbBlockEnd
  0
ENDSEC
  0
SECTION
  2
ENTITIES
  0
LINE
  5
96
330
1F
100
AcDbEntity
  8
외형선
  6
Continuous
370
    15
100
AcDbLine
 10
10.0
 20
4.7625
 30
0.0
 11
-33.45000186264514
 21
4.76250005885958
 31
0.0
  0
LINE
  5
99
330
1F
100
AcDbEntity
  8
외형선
  6
Continuous
370
    15
100
AcDbLine
 10
-33.45000186264514
 20
-4.762500058859593
 30
0.0
 11
10.0
 21
-4.7625
 31
0.0
  0
LINE
  5
9A
330
1F
100
AcDbEntity
  8
외형선
  6
Continuous
370
    15
100
AcDbLine
 10
-33.45000186264514
 20
4.76250005885958
 30
0.0
 11
-34.45000016391278
 21
3.762499894946807
 31
0.0
  0
LINE
  5
9B
330
1F
100
AcDbEntity
  8
외형선
  6
Continuous
370
    15
100
AcDbLine
 10
-34.45000016391278
 20
-3.762499894946819
 30
0.0
 11
-33.45000186264514
 21
-4.762500058859593
 31
0.0
  0
LINE
  5
9C
330
1F
100
AcDbEntity
  8
외형선
  6
Continuous
 62
     1
370
    15
100
AcDbLine
 10
22.7952394515276
 20
4.67643560841679
 30
0.0
 11
22.75164424180985
 21
4.705500788986677
 31
0.0
  0
LINE
  5
9D
330
1F
100
AcDbEntity
  8
외형선
  6
Continuous
 62
     1
370
    15
100
AcDbLine
 10
15.30815659761429
 20
4.669401329010719
 30
0.0
 11
15.2516448751092
 21
4.705500788986677
 31
0.0
  0
SPLINE
  5
9F
330
1F
100
AcDbEntity
  8
외형선
  6
Continuous
 62
     1
370
    15
100
AcDbSpline
210
0.0
220
0.0
230
1.0
 70
     8
 71
     3
 72
     9
 73
     5
 74
     0
 42
0.000000001
 43
0.00000001
 40
0.0
 40
0.0
 40
0.0
 40
0.0
 40
0.4982452857612906
 40
1.0
 40
1.0
 40
1.0
 40
1.0
 10
22.75164424180985
 20
4.705500788986677
 30
0.0
 10
22.72654911915764
 20
4.721933009211268
 30
0.0
 10
22.67618211445256
 20
4.754913191250486
 30
0.0
 10
22.61740050631508
 20
4.759965193110151
 30
0.0
 10
22.58790655732155
 20
4.76250005885958
 30
0.0
  0
SPLINE
  5
A0
330
1F
100
AcDbEntity
  8
외형선
  6
Continuous
 62
     1
370
    15
100
AcDbSpline
210
0.0
220
0.0
230
1.0
 70
     8
 71
     3
 72
     9
 73
     5
 74
     0
 42
0.000000001
 43
0.00000001
 40
0.0
 40
0.0
 40
0.0
 40
0.0
 40
0.4982464040356857
 40
1.0
 40
1.0
 40
1.0
 40
1.0
 10
15.2516448751092
 20
4.705500788986677
 30
0.0
 10
15.22654939809675
 20
4.721933008999718
 30
0.0
 10
15.17618179522158
 20
4.754913116592959
 30
0.0
 10
15.11740015743461
 20
4.759965171928141
 30
0.0
 10
15.08790625929833
 20
4.76250005885958
 30
0.0
  0
SPLINE
  5
A2
330
1F
100
AcDbEntity
  8
외형선
  6
Continuous
 62
     1
370
    15
100
AcDbSpline
210
0.0
220
0.0
230
1.0
 70
     8
 71
     3
 72
    11
 73
     7
 74
     0
 42
0.000000001
 43
0.00000001
 40
0.0
 40
0.0
 40
0.0
 40
0.0
 40
0.15185436487732
 40
0.4390224248099825
 40
0.7262120466483682
 40
1.0
 40
1.0
 40
1.0
 40
1.0
 10
13.05738555938006
 20
-4.674257244914777
 30
0.0
 10
13.08227711142246
 20
-4.658655720510501
 30
0.0
 10
13.15424046620495
 20
-4.613550536472944
 30
0.0
 10
13.29915691549194
 20
-4.594372899027237
 30
0.0
 10
13.46592474549899
 20
-4.618823534498362
 30
0.0
 10
13.55700502820906
 20
-4.677701842421499
 30
0.0
 10
13.60145722255111
 20
-4.706437699496752
 30
0.0
  0
LINE
  5
A3
330
1F
100
AcDbEntity
  8
외형선
  6
Continuous
 62
     1
370
    15
100
AcDbLine
 10
22.58786557912827
 20
4.76250005885958
 30
0.0
 11
22.01311289072037
 21
4.76250005885958
 31
0.0
  0
SPLINE
  5
A4
330
1F
100
AcDbEntity
  8
외형선
  6
Continuous
 62
     1
370
    15
100
AcDbSpline
210
0.0
220
0.0
230
1.0
 70
     8
 71
     3
 72
    11
 73
     7
 74
     0
 42
0.000000001
 43
0.00000001
 40
0.0
 40
0.0
 40
0.0
 40
0.0
 40
0.1608565760231981
 40
0.4449419076331294
 40
0.7290496258620677
 40
1.0
 40
1.0
 40
1.0
 40
1.0
 10
20.55247871875763
 20
-4.677156452089554
 30
0.0
 10
20.57907822813931
 20
-4.660423571612292
 30
0.0
 10
20.65265455768074
 20
-4.614139111605657
 30
0.0
 10
20.7994815318365
 20
-4.594331031684672
 30
0.0
 10
20.96626671868083
 20
-4.618987823821063
 30
0.0
 10
21.05726286728134
 20
-4.677851259046943
 30
0.0
 10
21.1016824349761
 20
-4.706585314124829
 30
0.0
  0
LINE
  5
A5
330
1F
100
AcDbEntity
  8
외형선
  6
Continuous
 62
     1
370
    15
100
AcDbLine
 10
15.08784479200841
 20
4.76250005885958
 30
0.0
 11
14.51308930963278
 21
4.76250005885958
 31
0.0
  0
SPLINE
  5
A6
330
1F
100
AcDbEntity
  8
외형선
  6
Continuous
 62
     1
370
    15
100
AcDbSpline
210
0.0
220
0.0
230
1.0
 70
     8
 71
     3
 72
    11
 73
     7
 74
     0
 42
0.000000001
 43
0.00000001
 40
0.0
 40
0.0
 40
0.0
 40
0.0
 40
0.1740496112098005
 40
0.453634295661995
 40
0.7332440473059452
 40
0.9999999999999999
 40
0.9999999999999999
 40
0.9999999999999999
 40
0.9999999999999999
 10
28.04479746818543
 20
-4.681561607867486
 30
0.0
 10
28.0739703684584
 20
-4.66310593532864
 30
0.0
 10
28.15000517241896
 20
-4.615003983506207
 30
0.0
 10
28.29973426441706
 20
-4.594231512749787
 30
0.0
 10
28.46656269132651
 20
-4.619135430601281
 30
0.0
 10
28.55747298423594
 20
-4.677971875013167
 30
0.0
 10
28.60185875296593
 20
-4.706698004156357
 30
0.0
  0
SPLINE
  5
A8
330
1F
100
AcDbEntity
  8
외형선
  6
Continuous
 62
     1
370
    15
100
AcDbSpline
210
0.0
220
0.0
230
1.0
 70
     8
 71
     3
 72
     9
 73
     5
 74
     0
 42
0.000000001
 43
0.00000001
 40
0.0
 40
0.0
 40
0.0
 40
0.0
 40
0.4989205591095898
 40
1.0
 40
1.0
 40
1.0
 40
1.0
 10
13.60003369599581
 20
-4.70540905371309
 30
0.0
 10
13.62547299904649
 20
-4.722048772892326
 30
0.0
 10
13.67646168369014
 20
-4.755400213067357
 30
0.0
 10
13.73600427803756
 20
-4.76003325198665
 30
0.0
 10
13.76583984792233
 20
-4.762354772537953
 30
0.0
  0
SPLINE
  5
A9
330
1F
100
AcDbEntity
  8
외형선
  6
Continuous
 62
     1
370
    15
100
AcDbSpline
210
0.0
220
0.0
230
1.0
 70
     8
 71
     3
 72
     9
 73
     5
 74
     0
 42
0.000000001
 43
0.00000001
 40
0.0
 40
0.0
 40
0.0
 40
0.0
 40
0.498918315462715
 40
1.0
 40
1.0
 40
1.0
 40
1.0
 10
21.10002840608359
 20
-4.705404862761504
 30
0.0
 10
21.12546047519235
 20
-4.722041796497656
 30
0.0
 10
21.17643488988219
 20
-4.755387803690684
 30
0.0
 10
21.23596442172255
 20
-4.760033755898627
 30
0.0
 10
21.26579357981682
 20
-4.762361757457263
 30
0.0
  0
SPLINE
  5
AA
330
1F
100
AcDbEntity
  8
외형선
  6
Continuous
 62
     1
370
    15
100
AcDbSpline
210
0.0
220
0.0
230
1.0
 70
     8
 71
     3
 72
     9
 73
     5
 74
     0
 42
0.000000001
 43
0.00000001
 40
0.0
 40
0.0
 40
0.0
 40
0.0
 40
0.8682769192448677
 40
1.0
 40
1.0
 40
1.0
 40
1.0
 10
28.60003336071969
 20
-4.70540905371309
 30
0.0
 10
28.62193674659567
 20
-4.721764762864626
 30
0.0
 10
28.64716301414983
 20
-4.740601736172358
 30
0.0
 10
28.67682196777618
 20
-4.746533906226658
 30
0.0
 10
28.68072873651982
 20
-4.747315309941775
 30
0.0
  0
SPLINE
  5
AB
330
1F
100
AcDbEntity
  8
외형선
  6
Continuous
 62
     1
370
    15
100
AcDbSpline
210
0.0
220
0.0
230
1.0
 70
     8
 71
     3
 72
     9
 73
     5
 74
     0
 42
0.000000001
 43
0.00000001
 40
0.0
 40
0.0
 40
0.0
 40
0.0
 40
0.5010863366244599
 40
0.9999999999999999
 40
0.9999999999999999
 40
0.9999999999999999
 40
0.9999999999999999
 10
22.01215549111366
 20
4.762362688779825
 30
0.0
 10
21.98284283513164
 20
4.759645868829415
 30
0.0
 10
21.92434462067324
 20
4.754224008858713
 30
0.0
 10
21.87442447344064
 20
4.721382180414744
 30
0.0
 10
21.84951862990857
 20
4.704996943473811
 30
0.0
  0
SPLINE
  5
AC
330
1F
100
AcDbEntity
  8
외형선
  6
Continuous
 62
     1
370
    15
100
AcDbSpline
210
0.0
220
0.0
230
1.0
 70
     8
 71
     3
 72
     9
 73
     5
 74
     0
 42
0.000000001
 43
0.00000001
 40
0.0
 40
0.0
 40
0.0
 40
0.0
 40
0.5010994702795778
 40
1.0
 40
1.0
 40
1.0
 40
1.0
 10
14.51230327337981
 20
4.762384109199041
 30
0.0
 10
14.48292124331751
 20
4.759662473734265
 30
0.0
 10
14.4242861183474
 20
4.754231145971621
 30
0.0
 10
14.37422293458974
 20
4.721232972601201
 30
0.0
 10
14.34924638569356
 20
4.704770166426892
 30
0.0
  0
LINE
  5
AE
330
1F
100
AcDbEntity
  8
외형선
  6
Continuous
 62
     1
370
    15
100
AcDbLine
 10
13.76294064074755
 20
-4.762500058859593
 30
0.0
 11
14.33680577874184
 21
-4.762500058859593
 31
0.0
  0
LINE
  5
AF
330
1F
100
AcDbEntity
  8
외형선
  6
Continuous
 62
     1
370
    15
100
AcDbLine
 10
21.26290834248066
 20
-4.762500058859593
 30
0.0
 11
21.83682470321655
 21
-4.762500058859593
 31
0.0
  0
SPLINE
  5
B0
330
1F
100
AcDbEntity
  8
외형선
  6
Continuous
 62
     1
370
    15
100
AcDbSpline
210
0.0
220
0.0
230
1.0
 70
     8
 71
     3
 72
    11
 73
     7
 74
     0
 42
0.000000001
 43
0.00000001
 40
0.0
 40
0.0
 40
0.0
 40
0.0
 40
0.2448146100909787
 40
0.5001278439751721
 40
0.7553836794704902
 40
1.0
 40
1.0
 40
1.0
 40
1.0
 10
21.85145578086376
 20
4.706437233835453
 30
0.0
 10
21.80748150143115
 20
4.67796279663334
 30
0.0
 10
21.71764715063475
 20
4.61979282515571
 30
0.0
 10
21.55091444037105
 20
4.593668515777486
 30
0.0
 10
21.38417818047911
 20
4.619800489037656
 30
0.0
 10
21.29424835240087
 20
4.678025743991518
 30
0.0
 10
21.25024049282075
 20
4.706518724560732
 30
0.0
  0
LINE
  5
B1
330
1F
100
AcDbEntity
  8
외형선
  6
Continuous
 62
     1
370
    15
100
AcDbLine
 10
28.688756737113
 20
-4.743743687868125
 30
0.0
 11
29.05
 21
-4.382499959319836
 31
0.0
  0
SPLINE
  5
B2
330
1F
100
AcDbEntity
  8
외형선
  6
Continuous
 62
     1
370
    15
100
AcDbSpline
210
0.0
220
0.0
230
1.0
 70
     8
 71
     3
 72
    11
 73
     7
 74
     0
 42
0.000000001
 43
0.00000001
 40
0.0
 40
0.0
 40
0.0
 40
0.0
 40
0.2448246109549875
 40
0.5001290878413069
 40
0.7553765372865742
 40
1.0
 40
1.0
 40
1.0
 40
1.0
 10
14.35139401555062
 20
4.706395789980882
 30
0.0
 10
14.30742474854662
 20
4.677930579596178
 30
0.0
 10
14.21760408340195
 20
4.619781688235213
 30
0.0
 10
14.05087794881849
 20
4.593668817035521
 30
0.0
 10
13.88414764922181
 20
4.619811599437382
 30
0.0
 10
13.79423155295554
 20
4.678034103579961
 30
0.0
 10
13.75022901892663
 20
4.706526640802617
 30
0.0
  0
SPLINE
  5
B4
330
1F
100
AcDbEntity
  8
외형선
  6
Continuous
 62
     1
370
    15
100
AcDbSpline
210
0.0
220
0.0
230
1.0
 70
     8
 71
     3
 72
     9
 73
     5
 74
     0
 42
0.000000001
 43
0.00000001
 40
0.0
 40
0.0
 40
0.0
 40
0.0
 40
0.5019270478503162
 40
1.0
 40
1.0
 40
1.0
 40
1.0
 10
14.3364146232605
 20
-4.762407392263419
 30
0.0
 10
14.366153053921
 20
-4.760049465931108
 30
0.0
 10
14.42540156580708
 20
-4.755351718833382
 30
0.0
 10
14.47628734770669
 20
-4.722081542712694
 30
0.0
 10
14.50163217931986
 20
-4.705510567873723
 30
0.0
  0
SPLINE
  5
B6
330
1F
100
AcDbEntity
  8
외형선
  6
Continuous
 62
     1
370
    15
100
AcDbSpline
210
0.0
220
0.0
230
1.0
 70
     8
 71
     3
 72
     9
 73
     5
 74
     0
 42
0.000000001
 43
0.00000001
 40
0.0
 40
0.0
 40
0.0
 40
0.0
 40
0.5019525694865505
 40
1.0
 40
1.0
 40
1.0
 40
1.0
 10
21.83619326651097
 20
-4.762378055602318
 30
0.0
 10
21.8659690954147
 20
-4.760050516291952
 30
0.0
 10
21.92528910035897
 20
-4.755413545685854
 30
0.0
 10
21.97625288788449
 20
-4.722100287747034
 30
0.0
 10
22.00163527131081
 20
-4.705508705228573
 30
0.0
  0
LINE
  5
B7
330
1F
100
AcDbEntity
  8
외형선
  6
Continuous
 62
     1
370
    15
100
AcDbLine
 10
29.05
 20
4.382499959319824
 30
0.0
 11
28.69643083512783
 21
4.736068192869419
 31
0.0
  0
SPLINE
  5
B8
330
1F
100
AcDbEntity
  8
외형선
  6
Continuous
 62
     1
370
    15
100
AcDbSpline
210
0.0
220
0.0
230
1.0
 70
     8
 71
     3
 72
     9
 73
     5
 74
     0
 42
0.000000001
 43
0.00000001
 40
0.0
 40
0.0
 40
0.0
 40
0.0
 40
0.4984825658930221
 40
0.9999999999999999
 40
0.9999999999999999
 40
0.9999999999999999
 40
0.9999999999999999
 10
21.25181442797185
 20
4.705366678535932
 30
0.0
 10
21.22700553191377
 20
4.721646805226658
 30
0.0
 10
21.17723669794537
 20
4.754306175492821
 30
0.0
 10
21.11898255983014
 20
4.759667104500272
 30
0.0
 10
21.08976709395647
 20
4.762355703860515
 30
0.0
  0
SPLINE
  5
B9
330
1F
100
AcDbEntity
  8
외형선
  6
Continuous
 62
     1
370
    15
100
AcDbSpline
210
0.0
220
0.0
230
1.0
 70
     8
 71
     3
 72
     9
 73
     5
 74
     0
 42
0.000000001
 43
0.00000001
 40
0.0
 40
0.0
 40
0.0
 40
0.0
 40
0.4985380946158935
 40
1.0
 40
1.0
 40
1.0
 40
1.0
 10
13.75145463943482
 20
4.705648403614754
 30
0.0
 10
13.72670603367114
 20
4.721854336833259
 30
0.0
 10
13.67706367728761
 20
4.754361247325204
 30
0.0
 10
13.61891838925997
 20
4.75968631606602
 30
0.0
 10
13.58976074233652
 20
4.76235663518309
 30
0.0
  0
SPLINE
  5
BB
330
1F
100
AcDbEntity
  8
외형선
  6
Continuous
 62
     1
370
    15
100
AcDbSpline
210
0.0
220
0.0
230
1.0
 70
     8
 71
     3
 72
     9
 73
     5
 74
     0
 42
0.000000001
 43
0.00000001
 40
0.0
 40
0.0
 40
0.0
 40
0.0
 40
0.4939020030540943
 40
1.0
 40
1.0
 40
1.0
 40
1.0
 10
14.49962983578444
 20
-4.706909414380794
 30
0.0
 10
14.54396879854536
 20
-4.677479940035263
 30
0.0
 10
14.63374159251408
 20
-4.617894285060085
 30
0.0
 10
14.74302054627573
 20
-4.608062710790955
 30
0.0
 10
14.79832640588284
 20
-4.603086970746523
 30
0.0
  0
SPLINE
  5
BC
330
1F
100
AcDbEntity
  8
외형선
  6
Continuous
 62
     1
370
    15
100
AcDbSpline
210
0.0
220
0.0
230
1.0
 70
     8
 71
     3
 72
     9
 73
     5
 74
     0
 42
0.000000001
 43
0.00000001
 40
0.0
 40
0.0
 40
0.0
 40
0.0
 40
0.2099876162790711
 40
0.9999999999999999
 40
0.9999999999999999
 40
0.9999999999999999
 40
0.9999999999999999
 10
28.69488111436368
 20
4.736661911010737
 30
0.0
 10
28.68818378788024
 20
4.740610045238895
 30
0.0
 10
28.65628987621953
 20
4.759411793161545
 30
0.0
 10
28.61898053328388
 20
4.761077496309947
 30
0.0
 10
28.58950569033624
 20
4.762393422424787
 30
0.0
  0
LINE
  5
BD
330
1F
100
AcDbEntity
  8
외형선
  6
Continuous
 62
     1
370
    15
100
AcDbLine
 10
28.58780882060528
 20
4.76250005885958
 30
0.0
 11
28.01395578980446
 21
4.76250005885958
 31
0.0
  0
SPLINE
  5
BE
330
1F
100
AcDbEntity
  8
외형선
  6
Continuous
 62
     1
370
    15
100
AcDbSpline
210
0.0
220
0.0
230
1.0
 70
     8
 71
     3
 72
     9
 73
     5
 74
     0
 42
0.000000001
 43
0.00000001
 40
0.0
 40
0.0
 40
0.0
 40
0.0
 40
0.5051284949534123
 40
1.0
 40
1.0
 40
1.0
 40
1.0
 10
21.99976890087128
 20
-4.706822801381356
 30
0.0
 10
22.04410203586687
 20
-4.677301179527547
 30
0.0
 10
22.13186809032331
 20
-4.618857393146954
 30
0.0
 10
22.23864706276412
 20
-4.609106098489287
 30
0.0
 10
22.29148893356323
 20
-4.604280460625893
 30
0.0
  0
LINE
  5
BF
330
1F
100
AcDbEntity
  8
외형선
  6
Continuous
 62
     1
370
    15
100
AcDbLine
 10
21.08712120652199
 20
4.76250005885958
 30
0.0
 11
20.51396946161986
 21
4.76250005885958
 31
0.0
  0
LINE
  5
C0
330
1F
100
AcDbEntity
  8
외형선
  6
Continuous
 62
     1
370
    15
100
AcDbLine
 10
13.58715397045017
 20
4.76250005885958
 30
0.0
 11
13.01397847682238
 21
4.76250005885958
 31
0.0
  0
LINE
  5
CA
330
1F
100
AcDbEntity
  8
외형선
  6
Continuous
370
    15
100
AcDbLine
 10
-33.45000186264514
 20
4.76250005885958
 30
0.0
 11
-33.45000186264514
 21
-4.762500058859593
 31
0.0
  0
LINE
  5
CE
330
1F
100
AcDbEntity
  8
외형선
  6
Continuous
370
    15
100
AcDbLine
 10
-34.45000016391278
 20
3.762499894946807
 30
0.0
 11
-34.45000016391278
 21
-3.762499894946819
 31
0.0
  0
SPLINE
  5
D0
330
1F
100
AcDbEntity
  8
외형선
  6
Continuous
 62
     1
370
    15
100
AcDbSpline
210
0.0
220
0.0
230
1.0
 70
     8
 71
     3
 72
    14
 73
    10
 74
     0
 42
0.000000001
 43
0.00000001
 40
0.0
 40
0.0
 40
0.0
 40
0.0
 40
0.0000774639406452
 40
0.0000774639406452
 40
0.0000774639406452
 40
0.0001596261908222
 40
0.0001596261908222
 40
0.0001596261908222
 40
0.0002439474106489
 40
0.0002439474106489
 40
0.0002439474106489
 40
0.0002439474106489
 10
14.17370912571692
 20
-1.133645578755992
 30
0.0
 10
14.15825224404376
 20
-1.119695582193295
 30
0.0
 10
14.14188624666509
 20
-1.104624359666003
 30
0.0
 10
14.12505169667017
 20
-1.088853598436481
 30
0.0
 10
14.10719509649361
 20
-1.072125371199015
 30
0.0
 10
14.08868915831545
 20
-1.054486151713214
 30
0.0
 10
14.06989056379061
 20
-1.036355391466945
 30
0.0
 10
14.0505987111343
 20
-1.017748896457138
 30
0.0
 10
14.03086797821685
 20
-0.9985002210289428
 30
0.0
 10
14.01103888238401
 20
-0.9790046830239281
 30
0.0
  0
SPLINE
  5
D1
330
1F
100
AcDbEntity
  8
외형선
  6
Continuous
 62
     1
370
    15
100
AcDbSpline
210
0.0
220
0.0
230
1.0
 70
     8
 71
     3
 72
    12
 73
     8
 74
     0
 42
0.000000001
 43
0.00000001
 40
0.0
 40
0.0
 40
0.0
 40
0.0
 40
0.2500000000000001
 40
0.2500000000000001
 40
0.5
 40
0.5
 40
1.0
 40
1.0
 40
1.0
 40
1.0
 10
14.01103882427282
 20
-0.9790035016464866
 30
0.0
 10
14.00222540725519
 20
-0.7998301597826027
 30
0.0
 10
13.99362937331153
 20
-0.6199481564218964
 30
0.0
 10
13.97553776874328
 20
-0.2522044352380212
 30
0.0
 10
13.96624015727483
 20
-0.0656628822564879
 30
0.0
 10
13.93785533149327
 20
0.4963617962902713
 30
0.0
 10
13.91827275695621
 20
0.8742039282700663
 30
0.0
 10
13.89884263085243
 20
1.239289700202165
 30
0.0
  0
SPLINE
  5
D2
330
1F
100
AcDbEntity
  8
외형선
  6
Continuous
 62
     1
370
    15
100
AcDbSpline
210
0.0
220
0.0
230
1.0
 70
     8
 71
     3
 72
    14
 73
    10
 74
     0
 42
0.000000001
 43
0.00000001
 40
0.0
 40
0.0
 40
0.0
 40
0.0
 40
0.0000835178459695
 40
0.0000835178459695
 40
0.0000835178459695
 40
0.0001566789112429
 40
0.0001566789112429
 40
0.0001566789112429
 40
0.0002323646009647
 40
0.0002323646009647
 40
0.0002323646009647
 40
0.0002323646009647
 10
13.8988423098916
 20
1.239295730995307
 30
0.0
 10
13.91850894099485
 20
1.220270504449786
 30
0.0
 10
13.93839127158912
 20
1.200737327204648
 30
0.0
 10
13.95813287476095
 20
1.181116283910111
 30
0.0
 10
13.97543192305005
 20
1.16392287907461
 30
0.0
 10
13.9927376020515
 20
1.146548044141522
 30
0.0
 10
14.00971450516517
 20
1.129386726726281
 30
0.0
 10
14.02725130421555
 20
1.111659431415952
 30
0.0
 10
14.04460779145387
 20
1.093986802735295
 30
0.0
 10
14.06114052621502
 20
1.077104888335009
 30
0.0
  0
SPLINE
  5
D3
330
1F
100
AcDbEntity
  8
외형선
  6
Continuous
 62
     1
370
    15
100
AcDbSpline
210
0.0
220
0.0
230
1.0
 70
     8
 71
     3
 72
    12
 73
     8
 74
     0
 42
0.000000001
 43
0.00000001
 40
0.0
 40
0.0
 40
0.0
 40
0.0
 40
0.25
 40
0.25
 40
0.5
 40
0.5
 40
1.0
 40
1.0
 40
1.0
 40
1.0
 10
14.17370912571682
 20
-1.133645578753964
 30
0.0
 10
14.16463790349108
 20
-0.9551057957140355
 30
0.0
 10
14.15602838578191
 20
-0.7770103415211835
 30
0.0
 10
14.13807981177682
 20
-0.413341255117583
 30
0.0
 10
14.12882463782144
 20
-0.228285267823241
 30
0.0
 10
14.10047426853743
 20
0.3310181109694926
 30
0.0
 10
14.08078856791029
 20
0.7094011113202839
 30
0.0
 10
14.06114052621632
 20
1.07710488831143
 30
0.0
  0
SPLINE
  5
D4
330
1F
100
AcDbEntity
  8
외형선
  6
Continuous
 62
     1
370
    15
100
AcDbSpline
210
0.0
220
0.0
230
1.0
 70
     8
 71
     3
 72
    14
 73
    10
 74
     0
 42
0.000000001
 43
0.00000001
 40
0.0
 40
0.0
 40
0.0
 40
0.0
 40
0.0000770831688956
 40
0.0000770831688956
 40
0.0000770831688956
 40
0.000158879815403
 40
0.000158879815403
 40
0.000158879815403
 40
0.0002428445135846
 40
0.0002428445135846
 40
0.0002428445135846
 40
0.0002428445135846
 10
21.67464547733877
 20
-1.152053182429083
 30
0.0
 10
21.65921980972241
 20
-1.138305005659191
 30
0.0
 10
21.64287921143547
 20
-1.123442875095823
 30
0.0
 10
21.62606042104148
 20
-1.107883279510347
 30
0.0
 10
21.60821249195893
 20
-1.091371595134861
 30
0.0
 10
21.58969818773915
 20
-1.07395699392105
 30
0.0
 10
21.57089547527749
 20
-1.056035279645348
 30
0.0
 10
21.55159511906822
 20
-1.037639238642899
 30
0.0
 10
21.53186046388015
 20
-1.018584847922329
 30
0.0
 10
21.5120368409479
 20
-0.9992669272212283
 30
0.0
  0
SPLINE
  5
D5
330
1F
100
AcDbEntity
  8
외형선
  6
Continuous
 62
     1
370
    15
100
AcDbSpline
210
0.0
220
0.0
230
1.0
 70
     8
 71
     3
 72
    12
 73
     8
 74
     0
 42
0.000000001
 43
0.00000001
 40
0.0
 40
0.0
 40
0.0
 40
0.0
 40
0.2500000000000001
 40
0.2500000000000001
 40
0.5000000000000001
 40
0.5000000000000001
 40
1.0
 40
1.0
 40
1.0
 40
1.0
 10
21.51203679554648
 20
-0.9992660066021861
 30
0.0
 10
21.50320262979556
 20
-0.8201283653797757
 30
0.0
 10
21.49463343924846
 20
-0.6405521170308561
 30
0.0
 10
21.47658104974641
 20
-0.2732372728738374
 30
0.0
 10
21.46730003954539
 20
-0.0868436097610276
 30
0.0
 10
21.43895436195608
 20
0.4749591329070941
 30
0.0
 10
21.41938339775114
 20
0.8529545167786098
 30
0.0
 10
21.39994884892152
 20
1.218493681676831
 30
0.0
  0
SPLINE
  5
D6
330
1F
100
AcDbEntity
  8
외형선
  6
Continuous
 62
     1
370
    15
100
AcDbSpline
210
0.0
220
0.0
230
1.0
 70
     8
 71
     3
 72
    14
 73
    10
 74
     0
 42
0.000000001
 43
0.00000001
 40
0.0
 40
0.0
 40
0.0
 40
0.0
 40
0.0000829593681411
 40
0.0000829593681411
 40
0.0000829593681411
 40
0.0001559742325412
 40
0.0001559742325412
 40
0.0001559742325412
 40
0.0002315418283832
 40
0.0002315418283832
 40
0.0002315418283832
 40
0.0002315418283832
 10
21.39994880693331
 20
1.218494471421805
 30
0.0
 10
21.41952962173182
 20
1.199617824950052
 30
0.0
 10
21.43933321552723
 20
1.180256193566908
 30
0.0
 10
21.45900452008192
 20
1.160826064959362
 30
0.0
 10
21.47632268722855
 20
1.143720223607029
 30
0.0
 10
21.49365406076509
 20
1.126446988124757
 30
0.0
 10
21.51065767609331
 20
1.109404695890101
 30
0.0
 10
21.52822931808151
 20
1.091793084945877
 30
0.0
 10
21.5456239127092
 20
1.074254073781334
 30
0.0
 10
21.56218600503978
 20
1.057529964453654
 30
0.0
  0
SPLINE
  5
D7
330
1F
100
AcDbEntity
  8
외형선
  6
Continuous
 62
     1
370
    15
100
AcDbSpline
210
0.0
220
0.0
230
1.0
 70
     8
 71
     3
 72
    12
 73
     8
 74
     0
 42
0.000000001
 43
0.00000001
 40
0.0
 40
0.0
 40
0.0
 40
0.0
 40
0.25
 40
0.25
 40
0.5
 40
0.5
 40
1.0
 40
1.0
 40
1.0
 40
1.0
 10
21.67464547733869
 20
-1.15205318242631
 30
0.0
 10
21.66555860001901
 20
-0.9736255427385093
 30
0.0
 10
21.65693827007535
 20
-0.79562537517362
 30
0.0
 10
21.63903354269355
 20
-0.4325039997857795
 30
0.0
 10
21.62979776098435
 20
-0.2476639176371558
 30
0.0
 10
21.60149609201651
 20
0.3111935799712411
 30
0.0
 10
21.58182996159485
 20
0.6895537730056344
 30
0.0
 10
21.56218600504225
 20
1.057529964407878
 30
0.0
  0
SPLINE
  5
D8
330
1F
100
AcDbEntity
  8
외형선
  6
Continuous
 62
     1
370
    15
100
AcDbSpline
210
0.0
220
0.0
230
1.0
 70
     8
 71
     3
 72
    14
 73
    10
 74
     0
 42
0.000000001
 43
0.00000001
 40
0.0
 40
0.0
 40
0.0
 40
0.0
 40
0.0000825708095055
 40
0.0000825708095055
 40
0.0000825708095055
 40
0.0001555326320944
 40
0.0001555326320944
 40
0.0001555326320944
 40
0.0002310552253596
 40
0.0002310552253596
 40
0.0002310552253596
 40
0.0002310552253596
 10
28.41000261759788
 20
-0.4229106423779667
 30
0.0
 10
28.39050776643741
 20
-0.4035580520905774
 30
0.0
 10
28.37079276778322
 20
-0.3840876146024911
 30
0.0
 10
28.35121122718481
 20
-0.3649528606921413
 30
0.0
 10
28.33390389030725
 20
-0.3480404206146512
 30
0.0
 10
28.3165846528837
 20
-0.3312767425415873
 30
0.0
 10
28.29959564302621
 20
-0.3151055074207604
 30
0.0
 10
28.28203679242028
 20
-0.2983918611292923
 30
0.0
 10
28.26465733731083
 20
-0.2821459713467989
 30
0.0
 10
28.24811317673265
 20
-0.2671763624919243
 30
0.0
  0
SPLINE
  5
D9
330
1F
100
AcDbEntity
  8
외형선
  6
Continuous
 62
     1
370
    15
100
AcDbSpline
210
0.0
220
0.0
230
1.0
 70
     8
 71
     3
 72
    10
 73
     6
 74
     0
 42
0.000000001
 43
0.00000001
 40
0.0
 40
0.0
 40
0.0
 40
0.0
 40
0.5000000000000001
 40
0.5000000000000001
 40
1.0
 40
1.0
 40
1.0
 40
1.0
 10
28.24811317809968
 20
-0.2671763897655394
 30
0.0
 10
28.22973603252272
 20
0.0992752066926575
 30
0.0
 10
28.21044163697408
 20
0.4742302901827681
 30
0.0
 10
28.17156507412539
 20
1.210034991716606
 30
0.0
 10
28.15199804399123
 20
1.570593315876367
 30
0.0
 10
28.13311198065706
 20
1.909158454136543
 30
0.0
  0
SPLINE
  5
DA
330
1F
100
AcDbEntity
  8
외형선
  6
Continuous
 62
     1
370
    15
100
AcDbSpline
210
0.0
220
0.0
230
1.0
 70
     8
 71
     3
 72
    14
 73
    10
 74
     0
 42
0.000000001
 43
0.00000001
 40
0.0
 40
0.0
 40
0.0
 40
0.0
 40
0.0000773236163103
 40
0.0000773236163103
 40
0.0000773236163103
 40
0.0001592876546558
 40
0.0001592876546558
 40
0.0001592876546558
 40
0.0002434134918074
 40
0.0002434134918074
 40
0.0002434134918074
 40
0.0002434134918074
 10
28.13311198065482
 20
1.909158454142157
 30
0.0
 10
28.14858711558903
 20
1.898142558038298
 30
0.0
 10
28.16497951865489
 20
1.88572091050273
 30
0.0
 10
28.18185097527684
 20
1.872298327371009
 30
0.0
 10
28.19973584011681
 20
1.858069497549546
 30
0.0
 10
28.21828689018941
 20
1.842615265626338
 30
0.0
 10
28.23712697890495
 20
1.826314731572835
 30
0.0
 10
28.2564633130932
 20
1.809584843584287
 30
0.0
 10
28.27623415281464
 20
1.791851437416284
 30
0.0
 10
28.29609563291902
 20
1.773478810658502
 30
0.0
  0
SPLINE
  5
DB
330
1F
100
AcDbEntity
  8
외형선
  6
Continuous
 62
     1
370
    15
100
AcDbSpline
210
0.0
220
0.0
230
1.0
 70
     8
 71
     3
 72
    10
 73
     6
 74
     0
 42
0.000000001
 43
0.00000001
 40
0.0
 40
0.0
 40
0.0
 40
0.0
 40
0.5
 40
0.5
 40
1.0
 40
1.0
 40
1.0
 40
1.0
 10
28.41000292083049
 20
-0.422916802200723
 30
0.0
 10
28.39201097404342
 20
-0.057430178884956
 30
0.0
 10
28.37302209589434
 20
0.3185456157703748
 30
0.0
 10
28.33452139598548
 20
1.061086720054626
 30
0.0
 10
28.31502391984074
 20
1.42736648289904
 30
0.0
 10
28.29608150509153
 20
1.773737146190046
 30
0.0
  0
SPLINE
  5
DC
330
1F
100
AcDbEntity
  8
외형선
  6
Continuous
 62
     1
370
    15
100
AcDbSpline
210
0.0
220
0.0
230
1.0
 70
     8
 71
     3
 72
    14
 73
    10
 74
     0
 42
0.000000001
 43
0.00000001
 40
0.0
 40
0.0
 40
0.0
 40
0.0
 40
0.0000833544657104
 40
0.0000833544657104
 40
0.0000833544657104
 40
0.0001564333610495
 40
0.0001564333610495
 40
0.0001564333610495
 40
0.0002320617510058
 40
0.0002320617510058
 40
0.0002320617510058
 40
0.0002320617510058
 10
20.90903179260793
 20
-0.4031987390394163
 30
0.0
 10
20.88944625307068
 20
-0.3835615527138613
 30
0.0
 10
20.86964818902796
 20
-0.3638030054510796
 30
0.0
 10
20.84996852803414
 20
-0.3444082874195095
 30
0.0
 10
20.83270971284459
 20
-0.3273993636242553
 30
0.0
 10
20.8154315094752
 20
-0.3105525919738202
 30
0.0
 10
20.79847281815521
 20
-0.2943119289514323
 30
0.0
 10
20.78094893961568
 20
-0.277530008646639
 30
0.0
 10
20.76359390725435
 20
-0.2612302827861647
 30
0.0
 10
20.74706191514199
 20
-0.246224073235125
 30
0.0
  0
SPLINE
  5
DD
330
1F
100
AcDbEntity
  8
외형선
  6
Continuous
 62
     1
370
    15
100
AcDbSpline
210
0.0
220
0.0
230
1.0
 70
     8
 71
     3
 72
    10
 73
     6
 74
     0
 42
0.000000001
 43
0.00000001
 40
0.0
 40
0.0
 40
0.0
 40
0.0
 40
0.5
 40
0.5
 40
1.0
 40
1.0
 40
1.0
 40
1.0
 10
20.74706191739305
 20
-0.2462241180821887
 30
0.0
 10
20.72864758020121
 20
0.1206009958216435
 30
0.0
 10
20.7093290072105
 20
0.4956488512055148
 30
0.0
 10
20.67043642295638
 20
1.231015090128424
 30
0.0
 10
20.65087758701363
 20
1.591042314526613
 30
0.0
 10
20.63201477799158
 20
1.928816832414677
 30
0.0
  0
SPLINE
  5
DE
330
1F
100
AcDbEntity
  8
외형선
  6
Continuous
 62
     1
370
    15
100
AcDbSpline
210
0.0
220
0.0
230
1.0
 70
     8
 71
     3
 72
    14
 73
    10
 74
     0
 42
0.000000001
 43
0.00000001
 40
0.0
 40
0.0
 40
0.0
 40
0.0
 40
0.0000774290020068
 40
0.0000774290020068
 40
0.0000774290020068
 40
0.000159655336858
 40
0.000159655336858
 40
0.000159655336858
 40
0.0002440432775616
 40
0.0002440432775616
 40
0.0002440432775616
 40
0.0002440432775616
 10
20.6320147779926
 20
1.92881683241797
 30
0.0
 10
20.64749481245771
 20
1.917839212030999
 30
0.0
 10
20.66388684268122
 20
1.905439547278144
 30
0.0
 10
20.68074993955292
 20
1.892024310835492
 30
0.0
 10
20.69865870397046
 20
1.877777205995554
 30
0.0
 10
20.71722684941294
 20
1.862283952974376
 30
0.0
 10
20.73607490375291
 20
1.845926587880595
 30
0.0
 10
20.7554180268473
 20
1.829139575237182
 30
0.0
 10
20.77518556858529
 20
1.811330500782911
 30
0.0
 10
20.79503493470777
 20
1.792864361120333
 30
0.0
  0
SPLINE
  5
DF
330
1F
100
AcDbEntity
  8
외형선
  6
Continuous
 62
     1
370
    15
100
AcDbSpline
210
0.0
220
0.0
230
1.0
 70
     8
 71
     3
 72
    10
 73
     6
 74
     0
 42
0.000000001
 43
0.00000001
 40
0.0
 40
0.0
 40
0.0
 40
0.0
 40
0.4999999999999999
 40
0.4999999999999999
 40
1.0
 40
1.0
 40
1.0
 40
1.0
 10
20.90903178781789
 20
-0.4031986418270004
 30
0.0
 10
20.89099847591506
 20
-0.0372183568840904
 30
0.0
 10
20.87197921455259
 20
0.3390022804019767
 30
0.0
 10
20.83344736141357
 20
1.081438417664898
 30
0.0
 10
20.81394918598284
 20
1.447367779606084
 30
0.0
 10
20.79502095358693
 20
1.7931197485874
 30
0.0
  0
SPLINE
  5
E0
330
1F
100
AcDbEntity
  8
외형선
  6
Continuous
 62
     1
370
    15
100
AcDbSpline
210
0.0
220
0.0
230
1.0
 70
     8
 71
     3
 72
    14
 73
    10
 74
     0
 42
0.000000001
 43
0.00000001
 40
0.0
 40
0.0
 40
0.0
 40
0.0
 40
0.0000825981393153
 40
0.0000825981393153
 40
0.0000825981393153
 40
0.0001555663176032
 40
0.0001555663176032
 40
0.0001555663176032
 40
0.0002310937605346
 40
0.0002310937605346
 40
0.0002310937605346
 40
0.0002310937605346
 10
13.40803906787157
 20
-0.3830614295800753
 30
0.0
 10
13.38853742226903
 20
-0.363688965421113
 30
0.0
 10
13.36881605002208
 20
-0.3442164163861957
 30
0.0
 10
13.34922868193114
 20
-0.3250990855003478
 30
0.0
 10
13.3319203814998
 20
-0.3082061315883621
 30
0.0
 10
13.31460059836907
 20
-0.2914772445566602
 30
0.0
 10
13.29761121795494
 20
-0.27535777725698
 30
0.0
 10
13.28005236253856
 20
-0.2586979939803101
 30
0.0
 10
13.26267318552852
 20
-0.2425247277268328
 30
0.0
 10
13.24612903950292
 20
-0.2276488568402354
 30
0.0
  0
SPLINE
  5
E1
330
1F
100
AcDbEntity
  8
외형선
  6
Continuous
 62
     1
370
    15
100
AcDbSpline
210
0.0
220
0.0
230
1.0
 70
     8
 71
     3
 72
    10
 73
     6
 74
     0
 42
0.000000001
 43
0.00000001
 40
0.0
 40
0.0
 40
0.0
 40
0.0
 40
0.5
 40
0.5
 40
1.0
 40
1.0
 40
1.0
 40
1.0
 10
13.24612903950277
 20
-0.2276488568391133
 30
0.0
 10
13.22768988549405
 20
0.1393446719615838
 30
0.0
 10
13.2083588613226
 20
0.5143043582311164
 30
0.0
 10
13.16946956440755
 20
1.248967772398405
 30
0.0
 10
13.14992646618254
 20
1.608381105422672
 30
0.0
 10
13.13109144889793
 20
1.945343083412093
 30
0.0
  0
SPLINE
  5
E2
330
1F
100
AcDbEntity
  8
외형선
  6
Continuous
 62
     1
370
    15
100
AcDbSpline
210
0.0
220
0.0
230
1.0
 70
     8
 71
     3
 72
    14
 73
    10
 74
     0
 42
0.000000001
 43
0.00000001
 40
0.0
 40
0.0
 40
0.0
 40
0.0
 40
0.0000773409744664
 40
0.0000773409744664
 40
0.0000773409744664
 40
0.0001593059771871
 40
0.0001593059771871
 40
0.0001593059771871
 40
0.0002434322609844
 40
0.0002434322609844
 40
0.0002434322609844
 40
0.0002434322609844
 10
13.13109144889533
 20
1.94534308342074
 30
0.0
 10
13.14656699274871
 20
1.93446793524575
 30
0.0
 10
13.16296002721948
 20
1.922173544531012
 30
0.0
 10
13.17983244971583
 20
1.908863959203515
 30
0.0
 10
13.1977145548453
 20
1.894757899204862
 30
0.0
 10
13.21626294456609
 20
1.879411807398282
 30
0.0
 10
13.23510078249628
 20
1.863203580016019
 30
0.0
 10
13.25443467270884
 20
1.846568545257246
 30
0.0
 10
13.2742034514949
 20
1.828913993948526
 30
0.0
 10
13.29406341311324
 20
1.810602410416792
 30
0.0
  0
SPLINE
  5
E3
330
1F
100
AcDbEntity
  8
외형선
  6
Continuous
 62
     1
370
    15
100
AcDbSpline
210
0.0
220
0.0
230
1.0
 70
     8
 71
     3
 72
    10
 73
     6
 74
     0
 42
0.000000001
 43
0.00000001
 40
0.0
 40
0.0
 40
0.0
 40
0.0
 40
0.5000000000000001
 40
0.5000000000000001
 40
1.0
 40
1.0
 40
1.0
 40
1.0
 10
13.40803929844679
 20
-0.3830661045180311
 30
0.0
 10
13.38998123602643
 20
-0.0169368561013664
 30
0.0
 10
13.37095038830127
 20
0.3591583058263904
 30
0.0
 10
13.33242504491627
 20
1.100785855825049
 30
0.0
 10
13.3129449655439
 20
1.46603289369236
 30
0.0
 10
13.29404741133539
 20
1.810894429218322
 30
0.0
  0
SPLINE
  5
E4
330
1F
100
AcDbEntity
  8
외형선
  6
Continuous
 62
     1
370
    15
100
AcDbSpline
210
0.0
220
0.0
230
1.0
 70
     8
 71
     3
 72
     8
 73
     4
 74
     0
 42
0.000000001
 43
0.00000001
 40
0.0
 40
0.0
 40
0.0
 40
0.0
 40
1.0
 40
1.0
 40
1.0
 40
1.0
 10
21.51203683811678
 20
-0.9992669244623349
 30
0.0
 10
21.30999792748655
 20
-0.8023820428262245
 30
0.0
 10
21.10819647179279
 20
-0.6028886128256701
 30
0.0
 10
20.90903177315365
 20
-0.403198719533831
 30
0.0
  0
SPLINE
  5
E5
330
1F
100
AcDbEntity
  8
외형선
  6
Continuous
 62
     1
370
    15
100
AcDbSpline
210
0.0
220
0.0
230
1.0
 70
     8
 71
     3
 72
     8
 73
     4
 74
     0
 42
0.000000001
 43
0.00000001
 40
0.0
 40
0.0
 40
0.0
 40
0.0
 40
1.0
 40
1.0
 40
1.0
 40
1.0
 10
21.3999487667644
 20
1.218494510146028
 30
0.0
 10
21.19681259874769
 20
1.414325463114178
 30
0.0
 10
20.9956883192222
 20
1.606201674433939
 30
0.0
 10
20.79465508387978
 20
1.793217734096346
 30
0.0
  0
SPLINE
  5
E6
330
1F
100
AcDbEntity
  8
외형선
  6
Continuous
 62
     1
370
    15
100
AcDbSpline
210
0.0
220
0.0
230
1.0
 70
     8
 71
     3
 72
     8
 73
     4
 74
     0
 42
0.000000001
 43
0.00000001
 40
0.0
 40
0.0
 40
0.0
 40
0.0
 40
1.0
 40
1.0
 40
1.0
 40
1.0
 10
15.59082637293835
 20
-2.444455698146121
 30
0.0
 10
15.3892656502584
 20
-2.27095695740242
 30
0.0
 10
15.18865608666106
 20
-2.091137720805503
 30
0.0
 10
14.98547726403125
 20
-1.905368288544069
 30
0.0
  0
SPLINE
  5
E7
330
1F
100
AcDbEntity
  8
외형선
  6
Continuous
 62
     1
370
    15
100
AcDbSpline
210
0.0
220
0.0
230
1.0
 70
     8
 71
     3
 72
    10
 73
     6
 74
     0
 42
0.000000001
 43
0.00000001
 40
0.0
 40
0.0
 40
0.0
 40
0.0
 40
0.5000000000000001
 40
0.5000000000000001
 40
1.0
 40
1.0
 40
1.0
 40
1.0
 10
14.98547729482425
 20
-1.905368854216165
 30
0.0
 10
14.96625716688778
 20
-1.558741135193191
 30
0.0
 10
14.94759352387374
 20
-1.197343032027123
 30
0.0
 10
14.91275796232934
 20
-0.4763664037367739
 30
0.0
 10
14.8941735433711
 20
-0.1004569592229955
 30
0.0
 10
14.87497339936967
 20
0.2769882588532264
 30
0.0
  0
SPLINE
  5
E8
330
1F
100
AcDbEntity
  8
외형선
  6
Continuous
 62
     1
370
    15
100
AcDbSpline
210
0.0
220
0.0
230
1.0
 70
     8
 71
     3
 72
     8
 73
     4
 74
     0
 42
0.000000001
 43
0.00000001
 40
0.0
 40
0.0
 40
0.0
 40
0.0
 40
1.0
 40
1.0
 40
1.0
 40
1.0
 10
15.4792234950574
 20
-0.3273962377144451
 30
0.0
 10
15.27931043225276
 20
-0.1267733404160231
 30
0.0
 10
15.07762196972446
 20
0.0753209037504786
 30
0.0
 10
14.87497439618817
 20
0.2769888907175612
 30
0.0
  0
SPLINE
  5
E9
330
1F
100
AcDbEntity
  8
외형선
  6
Continuous
 62
     1
370
    15
100
AcDbSpline
210
0.0
220
0.0
230
1.0
 70
     8
 71
     3
 72
    10
 73
     6
 74
     0
 42
0.000000001
 43
0.00000001
 40
0.0
 40
0.0
 40
0.0
 40
0.0
 40
0.5
 40
0.5
 40
1.0
 40
1.0
 40
1.0
 40
1.0
 10
15.59046686452928
 20
-2.444471562926464
 30
0.0
 10
15.57094292679616
 20
-2.118601418545874
 30
0.0
 10
15.55152781717319
 20
-1.769810361476045
 30
0.0
 10
15.5144918027537
 20
-1.057223053308397
 30
0.0
 10
15.49757651304858
 20
-0.6985288539286549
 30
0.0
 10
15.47922296916106
 20
-0.327396276812963
 30
0.0
  0
LINE
  5
EA
330
1F
100
AcDbEntity
  8
외형선
  6
Continuous
 62
     1
370
    15
100
AcDbLine
 10
28.66999990046025
 20
-0.680442841257906
 30
0.0
 11
28.66999990046025
 21
1.422380562871688
 31
0.0
  0
SPLINE
  5
EB
330
1F
100
AcDbEntity
  8
외형선
  6
Continuous
 62
     1
370
    15
100
AcDbSpline
210
0.0
220
0.0
230
1.0
 70
     8
 71
     3
 72
     8
 73
     4
 74
     0
 42
0.000000001
 43
0.00000001
 40
0.0
 40
0.0
 40
0.0
 40
0.0
 40
1.0
 40
1.0
 40
1.0
 40
1.0
 10
28.66999987185004
 20
-0.6804428426201543
 30
0.0
 10
28.58349376356671
 20
-0.5949461775132713
 30
0.0
 10
28.49676541769237
 20
-0.5090402967350021
 30
0.0
 10
28.4100072059994
 20
-0.4229151972954275
 30
0.0
  0
SPLINE
  5
EC
330
1F
100
AcDbEntity
  8
외형선
  6
Continuous
 62
     1
370
    15
100
AcDbSpline
210
0.0
220
0.0
230
1.0
 70
     8
 71
     3
 72
     8
 73
     4
 74
     0
 42
0.000000001
 43
0.00000001
 40
0.0
 40
0.0
 40
0.0
 40
0.0
 40
1.0
 40
1.0
 40
1.0
 40
1.0
 10
28.66999987185115
 20
1.422380561271041
 30
0.0
 10
28.54550965230182
 20
1.54101966653719
 30
0.0
 10
28.42055896315701
 20
1.658348961430268
 30
0.0
 10
28.29572192688217
 20
1.773824497782831
 30
0.0
  0
SPLINE
  5
ED
330
1F
100
AcDbEntity
  8
외형선
  6
Continuous
 62
     1
370
    15
100
AcDbSpline
210
0.0
220
0.0
230
1.0
 70
     8
 71
     3
 72
     8
 73
     4
 74
     0
 42
0.000000001
 43
0.00000001
 40
0.0
 40
0.0
 40
0.0
 40
0.0
 40
1.0
 40
1.0
 40
1.0
 40
1.0
 10
14.01103888712951
 20
-0.9790046876896007
 30
0.0
 10
13.81164648280832
 20
-0.7829663897862125
 30
0.0
 10
13.6098475556778
 20
-0.5835331005686409
 30
0.0
 10
13.40804233991006
 20
-0.3830646799440621
 30
0.0
  0
SPLINE
  5
EE
330
1F
100
AcDbEntity
  8
외형선
  6
Continuous
 62
     1
370
    15
100
AcDbSpline
210
0.0
220
0.0
230
1.0
 70
     8
 71
     3
 72
     8
 73
     4
 74
     0
 42
0.000000001
 43
0.00000001
 40
0.0
 40
0.0
 40
0.0
 40
0.0
 40
1.0
 40
1.0
 40
1.0
 40
1.0
 10
13.898845847904
 20
1.239292308368233
 30
0.0
 10
13.69828705380077
 20
1.433310161862251
 30
0.0
 10
13.49575759712499
 20
1.624638980691292
 30
0.0
 10
13.29368517573047
 20
1.810951153249256
 30
0.0
  0
SPLINE
  5
F3
330
1F
100
AcDbEntity
  8
외형선
  6
Continuous
 62
     1
370
    15
100
AcDbSpline
210
0.0
220
0.0
230
1.0
 70
     8
 71
     3
 72
     8
 73
     4
 74
     0
 42
0.000000001
 43
0.00000001
 40
0.0
 40
0.0
 40
0.0
 40
0.0
 40
1.0
 40
1.0
 40
1.0
 40
1.0
 10
23.09179285359727
 20
-2.460605255766869
 30
0.0
 10
22.88989746355757
 20
-2.288231762531526
 30
0.0
 10
22.68735072443735
 20
-2.109053481752071
 30
0.0
 10
22.48658137032007
 20
-1.92525350893384
 30
0.0
  0
SPLINE
  5
F4
330
1F
100
AcDbEntity
  8
외형선
  6
Continuous
 62
     1
370
    15
100
AcDbSpline
210
0.0
220
0.0
230
1.0
 70
     8
 71
     3
 72
    10
 73
     6
 74
     0
 42
0.000000001
 43
0.00000001
 40
0.0
 40
0.0
 40
0.0
 40
0.0
 40
0.4999999999999999
 40
0.4999999999999999
 40
1.0
 40
1.0
 40
1.0
 40
1.0
 10
22.48658140242609
 20
-1.925254081928955
 30
0.0
 10
22.4673362617756
 20
-1.579113890368204
 30
0.0
 10
22.44863240458709
 20
-1.217889319399193
 30
0.0
 10
22.41369613056317
 20
-0.4966856467674007
 30
0.0
 10
22.39523090223401
 20
-0.1216213413471135
 30
0.0
 10
22.37604692123425
 20
0.2558741807326175
 30
0.0
  0
SPLINE
  5
F5
330
1F
100
AcDbEntity
  8
외형선
  6
Continuous
 62
     1
370
    15
100
AcDbSpline
210
0.0
220
0.0
230
1.0
 70
     8
 71
     3
 72
     8
 73
     4
 74
     0
 42
0.000000001
 43
0.00000001
 40
0.0
 40
0.0
 40
0.0
 40
0.0
 40
1.0
 40
1.0
 40
1.0
 40
1.0
 10
22.98017431034037
 20
-0.3470109049483953
 30
0.0
 10
22.77819326396187
 20
-0.1462392699355884
 30
0.0
 10
22.57601262403917
 20
0.055528259390761
 30
0.0
 10
22.37604692060466
 20
0.255874177580738
 30
0.0
  0
SPLINE
  5
F6
330
1F
100
AcDbEntity
  8
외형선
  6
Continuous
 62
     1
370
    15
100
AcDbSpline
210
0.0
220
0.0
230
1.0
 70
     8
 71
     3
 72
    10
 73
     6
 74
     0
 42
0.000000001
 43
0.00000001
 40
0.0
 40
0.0
 40
0.0
 40
0.0
 40
0.5
 40
0.5
 40
1.0
 40
1.0
 40
1.0
 40
1.0
 10
23.09143562874592
 20
-2.460620983989009
 30
0.0
 10
23.07191919385018
 20
-2.135683020421876
 30
0.0
 10
23.05249732439675
 20
-1.787608514621986
 30
0.0
 10
23.01542138522978
 20
-1.075921373322672
 30
0.0
 10
22.99850229614897
 20
-0.7176046780552121
 30
0.0
 10
22.98019216539105
 20
-0.3470038427625444
 30
0.0
  0
SPLINE
  5
F7
330
1F
100
AcDbEntity
  8
외형선
  6
Continuous
 62
     1
370
    15
100
AcDbSpline
210
0.0
220
0.0
230
1.0
 70
     8
 71
     3
 72
     9
 73
     5
 74
     0
 42
0.000000001
 43
0.00000001
 40
0.0
 40
0.0
 40
0.0
 40
0.0
 40
0.9198297076636267
 40
1.0
 40
1.0
 40
1.0
 40
1.0
 10
25.11507644057274
 20
-4.087511450052268
 30
0.0
 10
25.17324385469745
 20
-4.027201258795254
 30
0.0
 10
25.23648101005358
 20
-3.961634566662425
 30
0.0
 10
25.3023727615701
 20
-3.92653939279956
 30
0.0
 10
25.30765532255173
 20
-3.923725802451378
 30
0.0
  0
SPLINE
  5
F8
330
1F
100
AcDbEntity
  8
외형선
  6
Continuous
 62
     1
370
    15
100
AcDbSpline
210
0.0
220
0.0
230
1.0
 70
     8
 71
     3
 72
    14
 73
    10
 74
     0
 42
0.000000001
 43
0.00000001
 40
0.0
 40
0.0
 40
0.0
 40
0.0
 40
0.0000836926509638
 40
0.0000836926509638
 40
0.0000836926509638
 40
0.0001568235353281
 40
0.0001568235353281
 40
0.0001568235353281
 40
0.0002324950665655
 40
0.0002324950665655
 40
0.0002324950665655
 40
0.0002324950665655
 10
24.95278229863079
 20
-4.208510792521709
 30
0.0
 10
24.97244633133396
 20
-4.199247674166394
 30
0.0
 10
24.99232584639481
 20
-4.188066214926152
 30
0.0
 10
25.0120864181407
 20
-4.175057557044602
 30
0.0
 10
25.02935876107416
 20
-4.163686934629235
 30
0.0
 10
25.04665041605472
 20
-4.150842454824858
 30
0.0
 10
25.06362373072855
 20
-4.136573700498441
 30
0.0
 10
25.08116029783317
 20
-4.121831443458309
 30
0.0
 10
25.09852889660693
 20
-4.105421558717974
 30
0.0
 10
25.11507665314438
 20
-4.087511514585509
 30
0.0
  0
SPLINE
  5
F9
330
1F
100
AcDbEntity
  8
외형선
  6
Continuous
 62
     1
370
    15
100
AcDbSpline
210
0.0
220
0.0
230
1.0
 70
     8
 71
     3
 72
     8
 73
     4
 74
     0
 42
0.000000001
 43
0.00000001
 40
0.0
 40
0.0
 40
0.0
 40
0.0
 40
1.0
 40
1.0
 40
1.0
 40
1.0
 10
24.95270572146106
 20
-4.208546865066885
 30
0.0
 10
24.75289892995966
 20
-4.302666583557358
 30
0.0
 10
24.55042477535864
 20
-4.385905428675883
 30
0.0
 10
24.34770641432125
 20
-4.457093676550998
 30
0.0
  0
SPLINE
  5
FA
330
1F
100
AcDbEntity
  8
외형선
  6
Continuous
 62
     1
370
    15
100
AcDbSpline
210
0.0
220
0.0
230
1.0
 70
     8
 71
     3
 72
    14
 73
    10
 74
     0
 42
0.000000001
 43
0.00000001
 40
0.0
 40
0.0
 40
0.0
 40
0.0
 40
0.0000771920700499
 40
0.0000771920700499
 40
0.0000771920700499
 40
0.0001591328833914
 40
0.0001591328833914
 40
0.0001591328833914
 40
0.0002432398638302
 40
0.0002432398638302
 40
0.0002432398638302
 40
0.0002432398638302
 10
24.18518218392075
 20
-4.463654786870286
 30
0.0
 10
24.20063461763764
 20
-4.469060282643264
 30
0.0
 10
24.21700289179416
 20
-4.472348555712984
 30
0.0
 10
24.23384895111596
 20
-4.473703909766437
 30
0.0
 10
24.25173210711585
 20
-4.47514270370097
 30
0.0
 10
24.27028174769861
 20
-4.474415500166519
 30
0.0
 10
24.28911927518581
 20
-4.471681500181425
 30
0.0
 10
24.30845416071263
 20
-4.468875315729777
 30
0.0
 10
24.32822264068767
 20
-4.463937199821777
 30
0.0
 10
24.34807997375562
 20
-4.456962480664211
 30
0.0
  0
SPLINE
  5
FB
330
1F
100
AcDbEntity
  8
외형선
  6
Continuous
 62
     1
370
    15
100
AcDbSpline
210
0.0
220
0.0
230
1.0
 70
     8
 71
     3
 72
    10
 73
     6
 74
     0
 42
0.000000001
 43
0.00000001
 40
0.0
 40
0.0
 40
0.0
 40
0.0
 40
0.5
 40
0.5
 40
1.0
 40
1.0
 40
1.0
 40
1.0
 10
23.53600096120314
 20
-4.62631828668226
 30
0.0
 10
23.63995652293352
 20
-4.532629922041939
 30
0.0
 10
23.75747456102291
 20
-4.48029722385659
 30
0.0
 10
23.9811095980137
 20
-4.429630742440239
 30
0.0
 10
24.09027983348717
 20
-4.430456504739367
 30
0.0
 10
24.18518218392151
 20
-4.463654786869127
 30
0.0
  0
SPLINE
  5
FC
330
1F
100
AcDbEntity
  8
외형선
  6
Continuous
 62
     1
370
    15
100
AcDbSpline
210
0.0
220
0.0
230
1.0
 70
     8
 71
     3
 72
    14
 73
    10
 74
     0
 42
0.000000001
 43
0.00000001
 40
0.0
 40
0.0
 40
0.0
 40
0.0
 40
0.0000828077821379
 40
0.0000828077821379
 40
0.0000828077821379
 40
0.0001558367657269
 40
0.0001558367657269
 40
0.0001558367657269
 40
0.0002314123918217
 40
0.0002314123918217
 40
0.0002314123918217
 40
0.0002314123918217
 10
23.37431793008089
 20
-4.705006011455774
 30
0.0
 10
23.39382658856663
 20
-4.701980935930946
 30
0.0
 10
23.41354973651464
 20
-4.696804755591033
 30
0.0
 10
23.43313375470942
 20
-4.689401340292925
 30
0.0
 10
23.45040989646663
 20
-4.68287037964402
 30
0.0
 10
23.46769323660265
 20
-4.674561909127491
 30
0.0
 10
23.48464494777469
 20
-4.664370845249722
 30
0.0
 10
23.50216174807611
 20
-4.65384005995057
 30
0.0
 10
23.51949630667254
 20
-4.641192854874548
 30
0.0
 10
23.53600096120312
 20
-4.626318286682299
 30
0.0
  0
SPLINE
  5
FD
330
1F
100
AcDbEntity
  8
외형선
  6
Continuous
 62
     1
370
    15
100
AcDbSpline
210
0.0
220
0.0
230
1.0
 70
     8
 71
     3
 72
     8
 73
     4
 74
     0
 42
0.000000001
 43
0.00000001
 40
0.0
 40
0.0
 40
0.0
 40
0.0
 40
1.0
 40
1.0
 40
1.0
 40
1.0
 10
23.37430516704555
 20
-4.705007990514574
 30
0.0
 10
23.17402478356466
 20
-4.736063573871939
 30
0.0
 10
22.97196594262969
 20
-4.754655544635728
 30
0.0
 10
22.77053997287304
 20
-4.760490150647017
 30
0.0
  0
SPLINE
  5
FE
330
1F
100
AcDbEntity
  8
외형선
  6
Continuous
 62
     1
370
    15
100
AcDbSpline
210
0.0
220
0.0
230
1.0
 70
     8
 71
     3
 72
    14
 73
    10
 74
     0
 42
0.000000001
 43
0.00000001
 40
0.0
 40
0.0
 40
0.0
 40
0.0
 40
0.0000773960648032
 40
0.0000773960648032
 40
0.0000773960648032
 40
0.000159308161792
 40
0.000159308161792
 40
0.000159308161792
 40
0.0002433787086392
 40
0.0002433787086392
 40
0.0002433787086392
 40
0.0002433787086392
 10
22.60801835010788
 20
-4.70906004063869
 30
0.0
 10
22.6235013029448
 20
-4.720641413568454
 30
0.0
 10
22.63990207113002
 20
-4.730204125227052
 30
0.0
 10
22.65678289062034
 20
-4.737799106119565
 30
0.0
 10
22.6746497229009
 20
-4.745837711701386
 30
0.0
 10
22.693181865352
 20
-4.751731208988313
 30
0.0
 10
22.71200386973251
 20
-4.755507420322892
 30
0.0
 10
22.73132110288608
 20
-4.759382988158949
 30
0.0
 10
22.75107347081755
 20
-4.761055575021808
 30
0.0
 10
22.7709176929714
 20
-4.760479194544762
 30
0.0
  0
SPLINE
  5
FF
330
1F
100
AcDbEntity
  8
외형선
  6
Continuous
 62
     1
370
    15
100
AcDbSpline
210
0.0
220
0.0
230
1.0
 70
     8
 71
     3
 72
    10
 73
     6
 74
     0
 42
0.000000001
 43
0.00000001
 40
0.0
 40
0.0
 40
0.0
 40
0.0
 40
0.5
 40
0.5
 40
1.0
 40
1.0
 40
1.0
 40
1.0
 10
21.957454473344
 20
-4.660631467313475
 30
0.0
 10
22.06194125699324
 20
-4.59609401767174
 30
0.0
 10
22.17989834963541
 20
-4.578364484115925
 30
0.0
 10
22.40358970790317
 20
-4.599243151184938
 30
0.0
 10
22.51292185100185
 20
-4.637927096421164
 30
0.0
 10
22.60801835010748
 20
-4.709060040638364
 30
0.0
  0
SPLINE
  5
100
330
1F
100
AcDbEntity
  8
외형선
  6
Continuous
 62
     1
370
    15
100
AcDbSpline
210
0.0
220
0.0
230
1.0
 70
     8
 71
     3
 72
    14
 73
    10
 74
     0
 42
0.000000001
 43
0.00000001
 40
0.0
 40
0.0
 40
0.0
 40
0.0
 40
0.0000830902061258
 40
0.0000830902061258
 40
0.0000830902061258
 40
0.0001561462835063
 40
0.0001561462835063
 40
0.0001561462835063
 40
0.0002317446088393
 40
0.0002317446088393
 40
0.0002317446088393
 40
0.0002317446088393
 10
21.79521228039781
 20
-4.688936492935826
 30
0.0
 10
21.81481914425639
 20
-4.692361512367026
 30
0.0
 10
21.83464416560138
 20
-4.693612879450511
 30
0.0
 10
21.8543318119038
 20
-4.692457053023755
 30
0.0
 10
21.87164703147125
 20
-4.69144050751833
 30
0.0
 10
21.88897143211757
 20
-4.68855507012796
 30
0.0
 10
21.90596600551354
 20
-4.683541089932635
 30
0.0
 10
21.92352573632019
 20
-4.678360368978462
 30
0.0
 10
21.94090538704122
 20
-4.670853198584923
 30
0.0
 10
21.95745447334395
 20
-4.660631467313503
 30
0.0
  0
SPLINE
  5
101
330
1F
100
AcDbEntity
  8
외형선
  6
Continuous
 62
     1
370
    15
100
AcDbSpline
210
0.0
220
0.0
230
1.0
 70
     8
 71
     3
 72
     8
 73
     4
 74
     0
 42
0.000000001
 43
0.00000001
 40
0.0
 40
0.0
 40
0.0
 40
0.0
 40
1.0
 40
1.0
 40
1.0
 40
1.0
 10
21.79559375232066
 20
-4.689003115402066
 30
0.0
 10
21.59391816707454
 20
-4.653789172065717
 30
0.0
 10
21.3913334041511
 20
-4.605917043274013
 30
0.0
 10
21.19026992054947
 20
-4.545998651130879
 30
0.0
  0
SPLINE
  5
102
330
1F
100
AcDbEntity
  8
외형선
  6
Continuous
 62
     1
370
    15
100
AcDbSpline
210
0.0
220
0.0
230
1.0
 70
     8
 71
     3
 72
    14
 73
    10
 74
     0
 42
0.000000001
 43
0.00000001
 40
0.0
 40
0.0
 40
0.0
 40
0.0
 40
0.0000777380005401
 40
0.0000777380005401
 40
0.0000777380005401
 40
0.0001598285635507
 40
0.0001598285635507
 40
0.0001598285635507
 40
0.0002440683946728
 40
0.0002440683946728
 40
0.0002440683946728
 40
0.0002440683946728
 10
21.02714679029626
 20
-4.441615166783936
 30
0.0
 10
21.04267664076679
 20
-4.458189222060983
 30
0.0
 10
21.0591266093672
 20
-4.473058704472404
 30
0.0
 10
21.07605794262482
 20
-4.486136844768587
 30
0.0
 10
21.09393859423061
 20
-4.499948259778246
 30
0.0
 10
21.11248329945144
 20
-4.511861615892812
 30
0.0
 10
21.13131910392438
 20
-4.521774367824669
 30
0.0
 10
21.15064734140361
 20
-4.531946273340403
 30
0.0
 10
21.17041119707855
 20
-4.540080605975142
 30
0.0
 10
21.19026992670132
 20
-4.545998652965313
 30
0.0
  0
SPLINE
  5
103
330
1F
100
AcDbEntity
  8
외형선
  6
Continuous
 62
     1
370
    15
100
AcDbSpline
210
0.0
220
0.0
230
1.0
 70
     8
 71
     3
 72
    10
 73
     6
 74
     0
 42
0.000000001
 43
0.00000001
 40
0.0
 40
0.0
 40
0.0
 40
0.0
 40
0.5
 40
0.5
 40
1.0
 40
1.0
 40
1.0
 40
1.0
 10
20.37687901844816
 20
-4.186748423087074
 30
0.0
 10
20.48136321153133
 20
-4.158337369627117
 30
0.0
 10
20.59959894521678
 20
-4.176856241942986
 30
0.0
 10
20.8234744067314
 20
-4.26749423655407
 30
0.0
 10
20.9322561427632
 20
-4.340344208607534
 30
0.0
 10
21.02714679029533
 20
-4.441615166783012
 30
0.0
  0
SPLINE
  5
104
330
1F
100
AcDbEntity
  8
외형선
  6
Continuous
 62
     1
370
    15
100
AcDbSpline
210
0.0
220
0.0
230
1.0
 70
     8
 71
     3
 72
    14
 73
    10
 74
     0
 42
0.000000001
 43
0.00000001
 40
0.0
 40
0.0
 40
0.0
 40
0.0
 40
0.0000826216054695
 40
0.0000826216054695
 40
0.0000826216054695
 40
0.0001555938486495
 40
0.0001555938486495
 40
0.0001555938486495
 40
0.0002311245824471
 40
0.0002311245824471
 40
0.0002311245824471
 40
0.0002311245824471
 10
20.21494784745658
 20
-4.161862275160724
 30
0.0
 10
20.23445502573786
 20
-4.171313273806907
 30
0.0
 10
20.25418191962982
 20
-4.178820984248645
 30
0.0
 10
20.27377470036904
 20
-4.184025048670689
 30
0.0
 10
20.29108385433281
 20
-4.18862255596266
 30
0.0
 10
20.30840442521289
 20
-4.191452820503015
 30
0.0
 10
20.32539464320651
 20
-4.19213328054395
 30
0.0
 10
20.34295415839189
 20
-4.19283654099807
 30
0.0
 10
20.36033400961692
 20
-4.191247296237704
 30
0.0
 10
20.37687901845119
 20
-4.186748423091274
 30
0.0
  0
SPLINE
  5
105
330
1F
100
AcDbEntity
  8
외형선
  6
Continuous
 62
     1
370
    15
100
AcDbSpline
210
0.0
220
0.0
230
1.0
 70
     8
 71
     3
 72
     8
 73
     4
 74
     0
 42
0.000000001
 43
0.00000001
 40
0.0
 40
0.0
 40
0.0
 40
0.0
 40
1.0
 40
1.0
 40
1.0
 40
1.0
 10
20.21494682477219
 20
-4.161861779683564
 30
0.0
 10
20.01302012916198
 20
-4.064030630911832
 30
0.0
 10
19.81107550983084
 20
-3.955007779757648
 30
0.0
 10
19.61151845874604
 20
-3.836222400043939
 30
0.0
  0
SPLINE
  5
106
330
1F
100
AcDbEntity
  8
외형선
  6
Continuous
 62
     1
370
    15
100
AcDbSpline
210
0.0
220
0.0
230
1.0
 70
     8
 71
     3
 72
    14
 73
    10
 74
     0
 42
0.000000001
 43
0.00000001
 40
0.0
 40
0.0
 40
0.0
 40
0.0
 40
0.0000774535624717
 40
0.0000774535624717
 40
0.0000774535624717
 40
0.0001596009968579
 40
0.0001596009968579
 40
0.0001596009968579
 40
0.0002439075868753
 40
0.0002439075868753
 40
0.0002439075868753
 40
0.0002439075868753
 10
19.4492550426671
 20
-3.690386266170971
 30
0.0
 10
19.46470822553679
 20
-3.710063423447245
 30
0.0
 10
19.48107033913825
 20
-3.728555852189431
 30
0.0
 10
19.49790090647082
 20
-3.745648513663406
 30
0.0
 10
19.51575246833906
 20
-3.76377806911844
 30
0.0
 10
19.53425352385117
 20
-3.780466072058088
 30
0.0
 10
19.55305015463981
 20
-3.79548233925536
 30
0.0
 10
19.57234008197055
 20
-3.810892691582398
 30
0.0
 10
19.59206901486701
 20
-3.82464659501054
 30
0.0
 10
19.61189622122353
 20
-3.836447248046721
 30
0.0
  0
SPLINE
  5
107
330
1F
100
AcDbEntity
  8
외형선
  6
Continuous
 62
     1
370
    15
100
AcDbSpline
210
0.0
220
0.0
230
1.0
 70
     8
 71
     3
 72
    10
 73
     6
 74
     0
 42
0.000000001
 43
0.00000001
 40
0.0
 40
0.0
 40
0.0
 40
0.0
 40
0.5
 40
0.5
 40
1.0
 40
1.0
 40
1.0
 40
1.0
 10
18.79968724775082
 20
-3.258804599887212
 30
0.0
 10
18.90396183985066
 20
-3.269664059010327
 30
0.0
 10
19.02201529236101
 20
-3.322011640337132
 30
0.0
 10
19.24579821560158
 20
-3.471368706202083
 30
0.0
 10
19.35470300136897
 20
-3.569989361332123
 30
0.0
 10
19.44925504266674
 20
-3.690386266170771
 30
0.0
  0
SPLINE
  5
108
330
1F
100
AcDbEntity
  8
외형선
  6
Continuous
 62
     1
370
    15
100
AcDbSpline
210
0.0
220
0.0
230
1.0
 70
     8
 71
     3
 72
    14
 73
    10
 74
     0
 42
0.000000001
 43
0.00000001
 40
0.0
 40
0.0
 40
0.0
 40
0.0
 40
0.0000828533876865
 40
0.0000828533876865
 40
0.0000828533876865
 40
0.0001558412638074
 40
0.0001558412638074
 40
0.0001558412638074
 40
0.000231386972449
 40
0.000231386972449
 40
0.000231386972449
 40
0.000231386972449
 10
18.63758158330259
 20
-3.183291479006206
 30
0.0
 10
18.65713396507939
 20
-3.19779924106449
 30
0.0
 10
18.67690933267098
 20
-3.210788205937393
 30
0.0
 10
18.69655316658837
 20
-3.221803385184479
 30
0.0
 10
18.71386274803327
 20
-3.231509644314412
 30
0.0
 10
18.73118605143901
 20
-3.239748124784426
 30
0.0
 10
18.74818144966338
 20
-3.246052812541063
 30
0.0
 10
18.76574592876216
 20
-3.252568609044558
 30
0.0
 10
18.78313344449969
 20
-3.257080638698602
 30
0.0
 10
18.79968724775078
 20
-3.258804599887207
 30
0.0
  0
SPLINE
  5
109
330
1F
100
AcDbEntity
  8
외형선
  6
Continuous
 62
     1
370
    15
100
AcDbSpline
210
0.0
220
0.0
230
1.0
 70
     8
 71
     3
 72
     8
 73
     4
 74
     0
 42
0.000000001
 43
0.00000001
 40
0.0
 40
0.0
 40
0.0
 40
0.0
 40
1.0
 40
1.0
 40
1.0
 40
1.0
 10
18.63758158321171
 20
-3.183291478939636
 30
0.0
 10
18.43441235351655
 20
-3.03254100384479
 30
0.0
 10
18.23375335324973
 20
-2.873786026859202
 30
0.0
 10
18.03226348663272
 20
-2.707507592325717
 30
0.0
  0
SPLINE
  5
10A
330
1F
100
AcDbEntity
  8
외형선
  6
Continuous
 62
     1
370
    15
100
AcDbSpline
210
0.0
220
0.0
230
1.0
 70
     8
 71
     3
 72
    14
 73
    10
 74
     0
 42
0.000000001
 43
0.00000001
 40
0.0
 40
0.0
 40
0.0
 40
0.0
 40
0.0000775366881741
 40
0.0000775366881741
 40
0.0000775366881741
 40
0.0001597617016645
 40
0.0001597617016645
 40
0.0001597617016645
 40
0.0002441440457806
 40
0.0002441440457806
 40
0.0002441440457806
 40
0.0002441440457806
 10
17.86947297422969
 20
-2.53618648764188
 30
0.0
 10
17.88498375212962
 20
-2.556856451401997
 30
0.0
 10
17.901407815905
 20
-2.576978826205761
 30
0.0
 10
17.91830373814436
 20
-2.596231593994315
 30
0.0
 10
17.93622229338023
 20
-2.616649643874935
 30
0.0
 10
17.95479949774844
 20
-2.63623612441011
 30
0.0
 10
17.97365691531268
 20
-2.654673940402379
 30
0.0
 10
17.99300863533602
 20
-2.673595059994115
 30
0.0
 10
18.01278488556135
 20
-2.691433730150401
 30
0.0
 10
18.03264356427197
 20
-2.707821242126704
 30
0.0
  0
SPLINE
  5
10B
330
1F
100
AcDbEntity
  8
외형선
  6
Continuous
 62
     1
370
    15
100
AcDbSpline
210
0.0
220
0.0
230
1.0
 70
     8
 71
     3
 72
    10
 73
     6
 74
     0
 42
0.000000001
 43
0.00000001
 40
0.0
 40
0.0
 40
0.0
 40
0.0
 40
0.5
 40
0.5
 40
1.0
 40
1.0
 40
1.0
 40
1.0
 10
17.21881064796988
 20
-1.973632913832257
 30
0.0
 10
17.32311892877535
 20
-2.022778767676946
 30
0.0
 10
17.44125832628813
 20
-2.10369395344213
 30
0.0
 10
17.66540410929026
 20
-2.296060704288887
 30
0.0
 10
17.77459432593221
 20
-2.40974935891946
 30
0.0
 10
17.8694729742293
 20
-2.53618648764169
 30
0.0
  0
SPLINE
  5
10C
330
1F
100
AcDbEntity
  8
외형선
  6
Continuous
 62
     1
370
    15
100
AcDbSpline
210
0.0
220
0.0
230
1.0
 70
     8
 71
     3
 72
    14
 73
    10
 74
     0
 42
0.000000001
 43
0.00000001
 40
0.0
 40
0.0
 40
0.0
 40
0.0
 40
0.0000830869303063
 40
0.0000830869303063
 40
0.0000830869303063
 40
0.0001561265071296
 40
0.0001561265071296
 40
0.0001561265071296
 40
0.000231719408637
 40
0.000231719408637
 40
0.000231719408637
 40
0.000231719408637
 10
17.05664352152165
 20
-1.855300716299868
 30
0.0
 10
17.07622043526854
 20
-1.873343678702899
 30
0.0
 10
17.09602366712269
 20
-1.890459133175621
 30
0.0
 10
17.11569839048726
 20
-1.90614942692457
 30
0.0
 10
17.13299890379992
 20
-1.91994632413391
 30
0.0
 10
17.1503155718788
 20
-1.932733252632048
 30
0.0
 10
17.16730782873717
 20
-1.944013586613554
 30
0.0
 10
17.18486761048919
 20
-1.955670672806177
 30
0.0
 10
17.20225386495599
 20
-1.965832025622196
 30
0.0
 10
17.21881064797022
 20
-1.973632913834298
 30
0.0
  0
SPLINE
  5
10D
330
1F
100
AcDbEntity
  8
외형선
  6
Continuous
 62
     1
370
    15
100
AcDbSpline
210
0.0
220
0.0
230
1.0
 70
     8
 71
     3
 72
     8
 73
     4
 74
     0
 42
0.000000001
 43
0.00000001
 40
0.0
 40
0.0
 40
0.0
 40
0.0
 40
1.0
 40
1.0
 40
1.0
 40
1.0
 10
17.05664352161896
 20
-1.855300716391113
 30
0.0
 10
16.85444556779724
 20
-1.668946006657954
 30
0.0
 10
16.65475280930813
 20
-1.478358904292101
 30
0.0
 10
16.45200731730927
 20
-1.283328180021549
 30
0.0
  0
SPLINE
  5
10E
330
1F
100
AcDbEntity
  8
외형선
  6
Continuous
 62
     1
370
    15
100
AcDbSpline
210
0.0
220
0.0
230
1.0
 70
     8
 71
     3
 72
    14
 73
    10
 74
     0
 42
0.000000001
 43
0.00000001
 40
0.0
 40
0.0
 40
0.0
 40
0.0
 40
0.0000770274230941
 40
0.0000770274230941
 40
0.0000770274230941
 40
0.0001589830361792
 40
0.0001589830361792
 40
0.0001589830361792
 40
0.0002431111891845
 40
0.0002431111891845
 40
0.0002431111891845
 40
0.0002431111891845
 10
16.2896898968085
 20
-1.106097540171318
 30
0.0
 10
16.30510176002464
 20
-1.125363201896342
 30
0.0
 10
16.3214263129098
 20
-1.144780715753823
 30
0.0
 10
16.33822559720943
 20
-1.163958063239706
 30
0.0
 10
16.35610022653381
 20
-1.18436297880759
 30
0.0
 10
16.37464063337
 20
-1.204642605859608
 30
0.0
 10
16.39346606251317
 20
-1.224414183480637
 30
0.0
 10
16.41278999110135
 20
-1.244709314662975
 30
0.0
 10
16.43254478718887
 20
-1.264606545437688
 30
0.0
 10
16.4523848997898
 20
-1.283691391878893
 30
0.0
  0
SPLINE
  5
10F
330
1F
100
AcDbEntity
  8
외형선
  6
Continuous
 62
     1
370
    15
100
AcDbSpline
210
0.0
220
0.0
230
1.0
 70
     8
 71
     3
 72
    10
 73
     6
 74
     0
 42
0.000000001
 43
0.00000001
 40
0.0
 40
0.0
 40
0.0
 40
0.0
 40
0.5
 40
0.5
 40
1.0
 40
1.0
 40
1.0
 40
1.0
 10
15.64114214352736
 20
-0.4757422825171254
 30
0.0
 10
15.74497423059971
 20
-0.5575712745526109
 30
0.0
 10
15.86263955713978
 20
-0.6579140236713112
 30
0.0
 10
16.08611582327971
 20
-0.871732220548491
 30
0.0
 10
16.19505588221916
 20
-0.9877999088474817
 30
0.0
 10
16.28968989680811
 20
-1.106097540171243
 30
0.0
  0
SPLINE
  5
110
330
1F
100
AcDbEntity
  8
외형선
  6
Continuous
 62
     1
370
    15
100
AcDbSpline
210
0.0
220
0.0
230
1.0
 70
     8
 71
     3
 72
    14
 73
    10
 74
     0
 42
0.000000001
 43
0.00000001
 40
0.0
 40
0.0
 40
0.0
 40
0.0
 40
0.0000832058996124
 40
0.0000832058996124
 40
0.0000832058996124
 40
0.000156254481429
 40
0.000156254481429
 40
0.000156254481429
 40
0.00023185982547
 40
0.00023185982547
 40
0.00023185982547
 40
0.00023185982547
 10
15.47922293966661
 20
-0.327395680349496
 30
0.0
 10
15.49877669109271
 20
-0.3470188620662041
 30
0.0
 10
15.51855967896576
 20
-0.3664095868080319
 30
0.0
 10
15.53821780258596
 20
-0.3850821106584775
 30
0.0
 10
15.55548117345712
 20
-0.4014799475303404
 30
0.0
 10
15.57276346056399
 20
-0.4174332402213408
 30
0.0
 10
15.58972456401129
 20
-0.4324678952605814
 30
0.0
 10
15.6072527481919
 20
-0.4480052217935412
 30
0.0
 10
15.62461077189762
 20
-0.4627140798144231
 30
0.0
 10
15.64114214352733
 20
-0.47574228251712
 30
0.0
  0
SPLINE
  5
111
330
1F
100
AcDbEntity
  8
외형선
  6
Continuous
 62
     1
370
    15
100
AcDbSpline
210
0.0
220
0.0
230
1.0
 70
     8
 71
     3
 72
    14
 73
    10
 74
     0
 42
0.000000001
 43
0.00000001
 40
0.0
 40
0.0
 40
0.0
 40
0.0
 40
0.0000773417724628
 40
0.0000773417724628
 40
0.0000773417724628
 40
0.0001593047083674
 40
0.0001593047083674
 40
0.0001593047083674
 40
0.0002434282543285
 40
0.0002434282543285
 40
0.0002434282543285
 40
0.0002434282543285
 10
14.71193566257025
 20
0.4422050044123949
 30
0.0
 10
14.72742405299245
 20
0.4262284689107871
 30
0.0
 10
14.74382891474422
 20
0.4094228067987272
 30
0.0
 10
14.76071134341153
 20
0.3922093604171674
 30
0.0
 10
14.77860342474927
 20
0.3739664648699119
 30
0.0
 10
14.79715976125543
 20
0.3551357448717775
 30
0.0
 10
14.81600295611689
 20
0.3361181366620947
 30
0.0
 10
14.83534221753975
 20
0.3165998702795312
 30
0.0
 10
14.85511362481655
 20
0.2967536559155031
 30
0.0
 10
14.8749733123612
 20
0.2769899693052725
 30
0.0
  0
SPLINE
  5
112
330
1F
100
AcDbEntity
  8
외형선
  6
Continuous
 62
     1
370
    15
100
AcDbSpline
210
0.0
220
0.0
230
1.0
 70
     8
 71
     3
 72
    10
 73
     6
 74
     0
 42
0.000000001
 43
0.00000001
 40
0.0
 40
0.0
 40
0.0
 40
0.0
 40
0.5
 40
0.5
 40
1.0
 40
1.0
 40
1.0
 40
1.0
 10
14.06114052621506
 20
1.077104888334969
 30
0.0
 10
14.16531515068533
 20
0.9707300436164846
 30
0.0
 10
14.2831815212063
 20
0.8607989193526714
 30
0.0
 10
14.50735971660838
 20
0.6470147633092895
 30
0.0
 10
14.61680470442214
 20
0.5403341894806045
 30
0.0
 10
14.71193566256986
 20
0.4422050044123618
 30
0.0
  0
SPLINE
  5
113
330
1F
100
AcDbEntity
  8
외형선
  6
Continuous
 62
     1
370
    15
100
AcDbSpline
210
0.0
220
0.0
230
1.0
 70
     8
 71
     3
 72
    10
 73
     6
 74
     0
 42
0.000000001
 43
0.00000001
 40
0.0
 40
0.0
 40
0.0
 40
0.0
 40
0.5
 40
0.5
 40
1.0
 40
1.0
 40
1.0
 40
1.0
 10
12.48150705761171
 20
2.511797823534444
 30
0.0
 10
12.58575801491549
 20
2.393532052930329
 30
0.0
 10
12.70342843185244
 20
2.286830223275734
 30
0.0
 10
12.9269218473386
 20
2.097297866012886
 30
0.0
 10
13.03611251073263
 20
2.012087750731148
 30
0.0
 10
13.13109144889784
 20
1.945343083413726
 30
0.0
  0
SPLINE
  5
114
330
1F
100
AcDbEntity
  8
외형선
  6
Continuous
 62
     1
370
    15
100
AcDbSpline
210
0.0
220
0.0
230
1.0
 70
     8
 71
     3
 72
    14
 73
    10
 74
     0
 42
0.000000001
 43
0.00000001
 40
0.0
 40
0.0
 40
0.0
 40
0.0
 40
0.0000825863271163
 40
0.0000825863271163
 40
0.0000825863271163
 40
0.00015557414617
 40
0.00015557414617
 40
0.00015557414617
 40
0.000231116554271
 40
0.000231116554271
 40
0.000231116554271
 40
0.000231116554271
 10
12.31977960246706
 20
2.668657461935382
 30
0.0
 10
12.339262703633
 20
2.65254914084518
 30
0.0
 10
12.35896206190853
 20
2.635277397080213
 30
0.0
 10
12.37852431906445
 20
2.61714734675745
 30
0.0
 10
12.3958175908585
 20
2.601120163116406
 30
0.0
 10
12.41311968697305
 20
2.58431473189177
 30
0.0
 10
12.43008997217827
 20
2.56701247024395
 30
0.0
 10
12.44762798523234
 20
2.549131374730532
 30
0.0
 10
12.46498425002703
 20
2.53054184874135
 30
0.0
 10
12.48150705761168
 20
2.511797823534486
 30
0.0
  0
SPLINE
  5
115
330
1F
100
AcDbEntity
  8
외형선
  6
Continuous
 62
     1
370
    15
100
AcDbSpline
210
0.0
220
0.0
230
1.0
 70
     8
 71
     3
 72
     8
 73
     4
 74
     0
 42
0.000000001
 43
0.00000001
 40
0.0
 40
0.0
 40
0.0
 40
0.0
 40
1.0
 40
1.0
 40
1.0
 40
1.0
 10
12.31978030892809
 20
2.668656877842075
 30
0.0
 10
12.11892144474196
 20
2.834723840281081
 30
0.0
 10
11.91697788141084
 20
2.99396438817806
 30
0.0
 10
11.7163573650242
 20
3.144488990962076
 30
0.0
  0
SPLINE
  5
116
330
1F
100
AcDbEntity
  8
외형선
  6
Continuous
 62
     1
370
    15
100
AcDbSpline
210
0.0
220
0.0
230
1.0
 70
     8
 71
     3
 72
    14
 73
    10
 74
     0
 42
0.000000001
 43
0.00000001
 40
0.0
 40
0.0
 40
0.0
 40
0.0
 40
0.0000775382967483
 40
0.0000775382967483
 40
0.0000775382967483
 40
0.0001594812728163
 40
0.0001594812728163
 40
0.0001594812728163
 40
0.0002435785256555
 40
0.0002435785256555
 40
0.0002435785256555
 40
0.0002435785256555
 10
11.55389401351647
 20
3.234060199185011
 30
0.0
 10
11.5693851775748
 20
3.229428236525609
 30
0.0
 10
11.58579508198381
 20
3.222937507924565
 30
0.0
 10
11.60268629499011
 20
3.214931331450249
 30
0.0
 10
11.62053821320607
 20
3.206469795408473
 30
0.0
 10
11.63905496214902
 20
3.196256734378623
 30
0.0
 10
11.65786303355059
 20
3.184602906101198
 30
0.0
 10
11.67716478181142
 20
3.172643186527445
 30
0.0
 10
11.69690279162542
 20
3.15908660855444
 30
0.0
 10
11.71673504715024
 20
3.144205608803261
 30
0.0
  0
SPLINE
  5
117
330
1F
100
AcDbEntity
  8
외형선
  6
Continuous
 62
     1
370
    15
100
AcDbSpline
210
0.0
220
0.0
230
1.0
 70
     8
 71
     3
 72
    10
 73
     6
 74
     0
 42
0.000000001
 43
0.00000001
 40
0.0
 40
0.0
 40
0.0
 40
0.0
 40
0.5
 40
0.5
 40
1.0
 40
1.0
 40
1.0
 40
1.0
 10
10.90354373967838
 20
3.670839855963386
 30
0.0
 10
11.008066393356
 20
3.553155457427252
 30
0.0
 10
11.12628370142892
 20
3.461598768844331
 30
0.0
 10
11.35011046184055
 20
3.317314721435182
 30
0.0
 10
11.45896597302092
 20
3.262444324305644
 30
0.0
 10
11.55389401351606
 20
3.234060199184814
 30
0.0
  0
SPLINE
  5
118
330
1F
100
AcDbEntity
  8
외형선
  6
Continuous
 62
     1
370
    15
100
AcDbSpline
210
0.0
220
0.0
230
1.0
 70
     8
 71
     3
 72
    14
 73
    10
 74
     0
 42
0.000000001
 43
0.00000001
 40
0.0
 40
0.0
 40
0.0
 40
0.0
 40
0.0000829377392772
 40
0.0000829377392772
 40
0.0000829377392772
 40
0.000155953834336
 40
0.000155953834336
 40
0.000155953834336
 40
0.0002315199252157
 40
0.0002315199252157
 40
0.0002315199252157
 40
0.0002315199252157
 10
10.74133847198128
 20
3.806616368192099
 30
0.0
 10
10.76091968443625
 20
3.794888328524012
 30
0.0
 10
10.78072085374129
 20
3.781455288134877
 30
0.0
 10
10.80038687213318
 20
3.766477523643986
 30
0.0
 10
10.81770520537565
 20
3.753287771071222
 30
0.0
 10
10.83503444687587
 20
3.738811879342984
 30
0.0
 10
10.85203411572884
 20
3.723180561296258
 30
0.0
 10
10.86960111000087
 20
3.70702758343732
 30
0.0
 10
10.886988869912
 20
3.68947935489257
 30
0.0
 10
10.90354373967834
 20
3.67083985596343
 30
0.0
  0
SPLINE
  5
119
330
1F
100
AcDbEntity
  8
외형선
  6
Continuous
 62
     1
370
    15
100
AcDbSpline
210
0.0
220
0.0
230
1.0
 70
     8
 71
     3
 72
     8
 73
     4
 74
     0
 42
0.000000001
 43
0.00000001
 40
0.0
 40
0.0
 40
0.0
 40
0.0
 40
1.0
 40
1.0
 40
1.0
 40
1.0
 10
10.74133861415874
 20
3.806616283033633
 30
0.0
 10
10.53895097166148
 20
3.927835048198103
 30
0.0
 10
10.3363521320801
 20
4.038809590916593
 30
0.0
 10
10.13597155768044
 20
4.138311374996118
 30
0.0
  0
SPLINE
  5
11A
330
1F
100
AcDbEntity
  8
외형선
  6
Continuous
 62
     1
370
    15
100
AcDbSpline
210
0.0
220
0.0
230
1.0
 70
     8
 71
     3
 72
    14
 73
    10
 74
     0
 42
0.000000001
 43
0.00000001
 40
0.0
 40
0.0
 40
0.0
 40
0.0
 40
0.0000778903512788
 40
0.0000778903512788
 40
0.0000778903512788
 40
0.0001601756228243
 40
0.0001601756228243
 40
0.0001601756228243
 40
0.0002446068003834
 40
0.0002446068003834
 40
0.0002446068003834
 40
0.0002446068003834
 10
9.973165651614478
 20
4.173409532296011
 30
0.0
 10
9.988710439849559
 20
4.175568364434531
 30
0.0
 10
10.00516316926693
 20
4.175608127958848
 30
0.0
 10
10.02209422243536
 20
4.17379470922378
 30
0.0
 10
10.03998208110952
 20
4.171878810801678
 30
0.0
 10
10.058533443406
 20
4.167883275175463
 30
0.0
 10
10.07737729306198
 20
4.162021767464339
 30
0.0
 10
10.09671182964243
 20
4.156007628245109
 30
0.0
 10
10.11648296734953
 20
4.14798999043234
 30
0.0
 10
10.1363516012531
 20
4.138122646646385
 30
0.0
  0
LINE
  5
120
330
1F
100
AcDbEntity
  8
외형선
  6
Continuous
 62
     1
370
    15
100
AcDbLine
 10
10.34257420077921
 20
4.02510911226272
 30
0.0
 11
10.45767868608237
 21
4.087692126631731
 31
0.0
  0
SPLINE
  5
121
330
1F
100
AcDbEntity
  8
외형선
  6
Continuous
 62
     1
370
    15
100
AcDbSpline
210
0.0
220
0.0
230
1.0
 70
     8
 71
     3
 72
    14
 73
    10
 74
     0
 42
0.000000001
 43
0.00000001
 40
0.0
 40
0.0
 40
0.0
 40
0.0
 40
0.000077130012124
 40
0.000077130012124
 40
0.000077130012124
 40
0.0001590028628162
 40
0.0001590028628162
 40
0.0001590028628162
 40
0.0002430429222846
 40
0.0002430429222846
 40
0.0002430429222846
 40
0.0002430429222846
 10
10.6203791859813
 20
4.125801285548341
 30
0.0
 10
10.60494088060501
 20
4.127597395166374
 30
0.0
 10
10.58858849995349
 20
4.127317711154604
 30
0.0
 10
10.57175981159394
 20
4.125209361370715
 30
0.0
 10
10.55389558530652
 20
4.122971276213528
 30
0.0
 10
10.53536665956174
 20
4.118658370604829
 30
0.0
 10
10.51655167976993
 20
4.112491809727526
 30
0.0
 10
10.49723932114688
 20
4.106162234226987
 30
0.0
 10
10.47749526558305
 20
4.097838041129791
 30
0.0
 10
10.45766453903279
 20
4.087684929575746
 30
0.0
  0
SPLINE
  5
122
330
1F
100
AcDbEntity
  8
외형선
  6
Continuous
 62
     1
370
    15
100
AcDbSpline
210
0.0
220
0.0
230
1.0
 70
     8
 71
     3
 72
    10
 73
     6
 74
     0
 42
0.000000001
 43
0.00000001
 40
0.0
 40
0.0
 40
0.0
 40
0.0
 40
0.4999999999999998
 40
0.4999999999999998
 40
1.0
 40
1.0
 40
1.0
 40
1.0
 10
11.27034589917538
 20
4.396042785716071
 30
0.0
 10
11.16631288574544
 20
4.290754969156374
 30
0.0
 10
11.04846010827909
 20
4.222038006477051
 30
0.0
 10
10.82453077161577
 20
4.134722056304245
 30
0.0
 10
10.71528048142868
 20
4.114760363286192
 30
0.0
 10
10.62037918598123
 20
4.125801285548288
 30
0.0
  0
SPLINE
  5
123
330
1F
100
AcDbEntity
  8
외형선
  6
Continuous
 62
     1
370
    15
100
AcDbSpline
210
0.0
220
0.0
230
1.0
 70
     8
 71
     3
 72
    14
 73
    10
 74
     0
 42
0.000000001
 43
0.00000001
 40
0.0
 40
0.0
 40
0.0
 40
0.0
 40
0.0000837488933482
 40
0.0000837488933482
 40
0.0000837488933482
 40
0.0001568516194433
 40
0.0001568516194433
 40
0.0001568516194433
 40
0.0002324908142074
 40
0.0002324908142074
 40
0.0002324908142074
 40
0.0002324908142074
 10
11.43258958593646
 20
4.499016857115692
 30
0.0
 10
11.41289878347447
 20
4.492526039828602
 30
0.0
 10
11.39299348710135
 20
4.4839648317304
 30
0.0
 10
11.37323039920967
 20
4.473345684071783
 30
0.0
 10
11.35597406523082
 20
4.464073471168
 30
0.0
 10
11.33870310040149
 20
4.453172181411338
 30
0.0
 10
11.3217469890683
 20
4.440615920185718
 30
0.0
 10
11.30422893880751
 20
4.427643534541644
 30
0.0
 10
11.28687795478304
 20
4.412774244132819
 30
0.0
 10
11.27034589917561
 20
4.396042785716311
 30
0.0
  0
SPLINE
  5
124
330
1F
100
AcDbEntity
  8
외형선
  6
Continuous
 62
     1
370
    15
100
AcDbSpline
210
0.0
220
0.0
230
1.0
 70
     8
 71
     3
 72
     8
 73
     4
 74
     0
 42
0.000000001
 43
0.00000001
 40
0.0
 40
0.0
 40
0.0
 40
0.0
 40
1.0
 40
1.0
 40
1.0
 40
1.0
 10
12.03793917062833
 20
4.660674816552828
 30
0.0
 10
11.83529934911717
 20
4.619137353482007
 30
0.0
 10
11.63270673491987
 20
4.564982875561938
 30
0.0
 10
11.43258960004068
 20
4.499016861764948
 30
0.0
  0
SPLINE
  5
125
330
1F
100
AcDbEntity
  8
외형선
  6
Continuous
 62
     1
370
    15
100
AcDbSpline
210
0.0
220
0.0
230
1.0
 70
     8
 71
     3
 72
    14
 73
    10
 74
     0
 42
0.000000001
 43
0.00000001
 40
0.0
 40
0.0
 40
0.0
 40
0.0
 40
0.0000774078181156
 40
0.0000774078181156
 40
0.0000774078181156
 40
0.0001594054633182
 40
0.0001594054633182
 40
0.0001594054633182
 40
0.00024356194113
 40
0.00024356194113
 40
0.00024356194113
 40
0.00024356194113
 10
12.20068831638703
 20
4.640189457014987
 30
0.0
 10
12.18518778088746
 20
4.648562826846582
 30
0.0
 10
12.16876975718404
 20
4.654832056714286
 30
0.0
 10
12.15187332518132
 20
4.659122870923717
 30
0.0
 10
12.13397404486553
 20
4.663668356402852
 30
0.0
 10
12.11541005768951
 20
4.666027980625724
 30
0.0
 10
12.09655829182197
 20
4.666302221014282
 30
0.0
 10
12.07721084862664
 20
4.66658367211954
 30
0.0
 10
12.0574304072416
 20
4.664671686085612
 30
0.0
 10
12.0375604276303
 20
4.660597166509784
 30
0.0
  0
SPLINE
  5
126
330
1F
100
AcDbEntity
  8
외형선
  6
Continuous
 62
     1
370
    15
100
AcDbSpline
210
0.0
220
0.0
230
1.0
 70
     8
 71
     3
 72
    10
 73
     6
 74
     0
 42
0.000000001
 43
0.00000001
 40
0.0
 40
0.0
 40
0.0
 40
0.0
 40
0.5
 40
0.5
 40
1.0
 40
1.0
 40
1.0
 40
1.0
 10
12.85134498436317
 20
4.706362608297998
 30
0.0
 10
12.74704438552998
 20
4.625065369396925
 30
0.0
 10
12.62933412405318
 20
4.58820679824164
 30
0.0
 10
12.40527651335124
 20
4.570238105432505
 30
0.0
 10
12.2958447399922
 20
4.588786076356176
 30
0.0
 10
12.2006883163871
 20
4.64018945701492
 30
0.0
  0
SPLINE
  5
127
330
1F
100
AcDbEntity
  8
외형선
  6
Continuous
 62
     1
370
    15
100
AcDbSpline
210
0.0
220
0.0
230
1.0
 70
     8
 71
     3
 72
    14
 73
    10
 74
     0
 42
0.000000001
 43
0.00000001
 40
0.0
 40
0.0
 40
0.0
 40
0.0
 40
0.000083155873603
 40
0.000083155873603
 40
0.000083155873603
 40
0.0001562494772865
 40
0.0001562494772865
 40
0.0001562494772865
 40
0.0002318792123164
 40
0.0002318792123164
 40
0.0002318792123164
 40
0.0002318792123164
 10
13.0134605724858
 20
4.762489052469833
 30
0.0
 10
12.99386074466671
 20
4.762447026627335
 30
0.0
 10
12.97404481326925
 20
4.760206869756378
 30
0.0
 10
12.95436811907089
 20
4.755618764821297
 30
0.0
 10
12.93706721660075
 20
4.751584634128187
 30
0.0
 10
12.91975874970507
 20
4.745708387164762
 30
0.0
 10
12.90278024562852
 20
4.737810293524104
 30
0.0
 10
12.88523869821038
 20
4.729650282283672
 30
0.0
 10
12.86787798844163
 20
4.719249280065472
 30
0.0
 10
12.85134498436341
 20
4.706362608298169
 30
0.0
  0
SPLINE
  5
128
330
1F
100
AcDbEntity
  8
외형선
  6
Continuous
 62
     1
370
    15
100
AcDbSpline
210
0.0
220
0.0
230
1.0
 70
     8
 71
     3
 72
     8
 73
     4
 74
     0
 42
0.000000001
 43
0.00000001
 40
0.0
 40
0.0
 40
0.0
 40
0.0
 40
1.0
 40
1.0
 40
1.0
 40
1.0
 10
13.61752507105065
 20
4.725713879176757
 30
0.0
 10
13.41620216975362
 20
4.750627275535641
 30
0.0
 10
13.21404225875089
 20
4.762919138557621
 30
0.0
 10
13.01346057380216
 20
4.762489052472644
 30
0.0
  0
SPLINE
  5
129
330
1F
100
AcDbEntity
  8
외형선
  6
Continuous
 62
     1
370
    15
100
AcDbSpline
210
0.0
220
0.0
230
1.0
 70
     8
 71
     3
 72
    14
 73
    10
 74
     0
 42
0.000000001
 43
0.00000001
 40
0.0
 40
0.0
 40
0.0
 40
0.0
 40
0.0000770930279773
 40
0.0000770930279773
 40
0.0000770930279773
 40
0.0001589506381587
 40
0.0001589506381587
 40
0.0001589506381587
 40
0.0002429778054309
 40
0.0002429778054309
 40
0.0002429778054309
 40
0.0002429778054309
 10
13.77970144256855
 20
4.648941717825965
 30
0.0
 10
13.76429476927972
 20
4.662962624651025
 30
0.0
 10
13.74797213804186
 20
4.675096938499019
 30
0.0
 10
13.73116953374163
 20
4.685330129751549
 30
0.0
 10
13.7133278077586
 20
4.696196171169716
 30
0.0
 10
13.69481701657484
 20
4.704998383418131
 30
0.0
 10
13.67601487764109
 20
4.711703837250531
 30
0.0
 10
13.65671510240474
 20
4.718586764362125
 30
0.0
 10
13.63697793708983
 20
4.723308159823443
 30
0.0
 10
13.61714833702871
 20
4.72576048463266
 30
0.0
  0
SPLINE
  5
12A
330
1F
100
AcDbEntity
  8
외형선
  6
Continuous
 62
     1
370
    15
100
AcDbSpline
210
0.0
220
0.0
230
1.0
 70
     8
 71
     3
 72
    10
 73
     6
 74
     0
 42
0.000000001
 43
0.00000001
 40
0.0
 40
0.0
 40
0.0
 40
0.0
 40
0.4999999999999999
 40
0.4999999999999999
 40
1.0
 40
1.0
 40
1.0
 40
1.0
 10
14.42864309476678
 20
4.50336458504256
 30
0.0
 10
14.32439627587379
 20
4.454913856656805
 30
0.0
 10
14.20653124997647
 20
4.453833834007957
 30
0.0
 10
13.98346154147907
 20
4.50756157972378
 30
0.0
 10
13.87448483737867
 20
4.562683696883769
 30
0.0
 10
13.77970144256861
 20
4.64894171782591
 30
0.0
  0
SPLINE
  5
12B
330
1F
100
AcDbEntity
  8
외형선
  6
Continuous
 62
     1
370
    15
100
AcDbSpline
210
0.0
220
0.0
230
1.0
 70
     8
 71
     3
 72
    14
 73
    10
 74
     0
 42
0.000000001
 43
0.00000001
 40
0.0
 40
0.0
 40
0.0
 40
0.0
 40
0.0000827925012577
 40
0.0000827925012577
 40
0.0000827925012577
 40
0.0001557857620513
 40
0.0001557857620513
 40
0.0001557857620513
 40
0.000231332152489
 40
0.000231332152489
 40
0.000231332152489
 40
0.000231332152489
 10
14.59062642073859
 20
4.507144345340773
 30
0.0
 10
14.5710856201254
 20
4.513439912201601
 30
0.0
 10
14.55132683395519
 20
4.517642784499739
 30
0.0
 10
14.53170441471346
 20
4.519456282501753
 30
0.0
 10
14.5143997064839
 20
4.521055578358862
 30
0.0
 10
14.4970852454534
 20
4.520807165263776
 30
0.0
 10
14.48010168859197
 20
4.518390084985674
 30
0.0
 10
14.46255043295513
 20
4.515892210470822
 30
0.0
 10
14.44517983977614
 20
4.5110503576094
 30
0.0
 10
14.42864309476703
 20
4.503364585042662
 30
0.0
  0
SPLINE
  5
12C
330
1F
100
AcDbEntity
  8
외형선
  6
Continuous
 62
     1
370
    15
100
AcDbSpline
210
0.0
220
0.0
230
1.0
 70
     8
 71
     3
 72
     8
 73
     4
 74
     0
 42
0.000000001
 43
0.00000001
 40
0.0
 40
0.0
 40
0.0
 40
0.0
 40
1.0
 40
1.0
 40
1.0
 40
1.0
 10
15.19508425146894
 20
4.276780162959076
 30
0.0
 10
14.99437495561398
 20
4.365139957754709
 30
0.0
 10
14.7919540572915
 20
4.442296479738292
 30
0.0
 10
14.59024590856886
 20
4.50726692290597
 30
0.0
  0
SPLINE
  5
12D
330
1F
100
AcDbEntity
  8
외형선
  6
Continuous
 62
     1
370
    15
100
AcDbSpline
210
0.0
220
0.0
230
1.0
 70
     8
 71
     3
 72
    14
 73
    10
 74
     0
 42
0.000000001
 43
0.00000001
 40
0.0
 40
0.0
 40
0.0
 40
0.0
 40
0.0000778530641429
 40
0.0000778530641429
 40
0.0000778530641429
 40
0.0001599575290303
 40
0.0001599575290303
 40
0.0001599575290303
 40
0.0002442073705367
 40
0.0002442073705367
 40
0.0002442073705367
 40
0.0002442073705367
 10
15.35822457355636
 20
4.151431440787993
 30
0.0
 10
15.3426779128267
 20
4.169737066686018
 30
0.0
 10
15.3262105553486
 20
4.186550863203927
 30
0.0
 10
15.30926139847002
 20
4.201723274268527
 30
0.0
 10
15.29138521964473
 20
4.217725529445263
 30
0.0
 10
15.27284612796941
 20
4.232016936327297
 30
0.0
 10
15.25401576258914
 20
4.244436844840531
 30
0.0
 10
15.23469411628573
 20
4.257180786583943
 30
0.0
 10
15.21493697927906
 20
4.268040244127053
 30
0.0
 10
15.19508425039516
 20
4.27678016343181
 30
0.0
  0
SPLINE
  5
12E
330
1F
100
AcDbEntity
  8
외형선
  6
Continuous
 62
     1
370
    15
100
AcDbSpline
210
0.0
220
0.0
230
1.0
 70
     8
 71
     3
 72
    10
 73
     6
 74
     0
 42
0.000000001
 43
0.00000001
 40
0.0
 40
0.0
 40
0.0
 40
0.0
 40
0.4999999999999998
 40
0.4999999999999998
 40
1.0
 40
1.0
 40
1.0
 40
1.0
 10
16.00910221042335
 20
3.809332708211228
 30
0.0
 10
15.90451164515567
 20
3.799028985209339
 30
0.0
 10
15.78617294644114
 20
3.833837668441384
 30
0.0
 10
15.56204161552767
 20
3.953569572472225
 30
0.0
 10
15.45313818257216
 20
4.039674128431678
 30
0.0
 10
15.35822457355923
 20
4.151431440784633
 30
0.0
  0
SPLINE
  5
12F
330
1F
100
AcDbEntity
  8
외형선
  6
Continuous
 62
     1
370
    15
100
AcDbSpline
210
0.0
220
0.0
230
1.0
 70
     8
 71
     3
 72
    14
 73
    10
 74
     0
 42
0.000000001
 43
0.00000001
 40
0.0
 40
0.0
 40
0.0
 40
0.0
 40
0.0000829145819587
 40
0.0000829145819587
 40
0.0000829145819587
 40
0.0001559281636592
 40
0.0001559281636592
 40
0.0001559281636592
 40
0.0002314932362198
 40
0.0002314932362198
 40
0.0002314932362198
 40
0.0002314932362198
 10
16.17131579416327
 20
3.760278729829734
 30
0.0
 10
16.1517398287052
 20
3.77225167818162
 30
0.0
 10
16.13194275593058
 20
3.782449744844933
 30
0.0
 10
16.11227960168824
 20
3.790461993567873
 30
0.0
 10
16.0949595816582
 20
3.797519473088033
 30
0.0
 10
16.07762768946263
 20
3.802928066542862
 30
0.0
 10
16.06062472761892
 20
3.806261031394861
 30
0.0
 10
16.04305398570209
 20
3.809705293975147
 30
0.0
 10
16.02566165386124
 20
3.81096405916349
 30
0.0
 10
16.00910221042359
 20
3.809332708211258
 30
0.0
  0
SPLINE
  5
130
330
1F
100
AcDbEntity
  8
외형선
  6
Continuous
 62
     1
370
    15
100
AcDbSpline
210
0.0
220
0.0
230
1.0
 70
     8
 71
     3
 72
     8
 73
     4
 74
     0
 42
0.000000001
 43
0.00000001
 40
0.0
 40
0.0
 40
0.0
 40
0.0
 40
1.0
 40
1.0
 40
1.0
 40
1.0
 10
16.77632380686102
 20
3.359740437816431
 30
0.0
 10
16.57645152686521
 20
3.502235217623051
 30
0.0
 10
16.37397433456821
 20
3.63632978628779
 30
0.0
 10
16.1713157941695
 20
3.760278729825905
 30
0.0
  0
SPLINE
  5
131
330
1F
100
AcDbEntity
  8
외형선
  6
Continuous
 62
     1
370
    15
100
AcDbSpline
210
0.0
220
0.0
230
1.0
 70
     8
 71
     3
 72
    14
 73
    10
 74
     0
 42
0.000000001
 43
0.00000001
 40
0.0
 40
0.0
 40
0.0
 40
0.0
 40
0.0000774960109368
 40
0.0000774960109368
 40
0.0000774960109368
 40
0.0001598077124528
 40
0.0001598077124528
 40
0.0001598077124528
 40
0.0002442799016994
 40
0.0002442799016994
 40
0.0002442799016994
 40
0.0002442799016994
 10
16.93888740164634
 20
3.199688269079979
 30
0.0
 10
16.92341289217888
 20
3.220109685461201
 30
0.0
 10
16.90702804793126
 20
3.239629058900548
 30
0.0
 10
16.89017428365263
 20
3.257978871157456
 30
0.0
 10
16.87227230594785
 20
3.277469942972577
 30
0.0
 10
16.85371327765465
 20
3.295781850113701
 30
0.0
 10
16.83487658800343
 20
3.31264706723447
 30
0.0
 10
16.8155458613009
 20
3.329954614843789
 30
0.0
 10
16.795796965248
 20
3.34585872641088
 30
0.0
 10
16.77594454240252
 20
3.360010814252942
 30
0.0
  0
SPLINE
  5
132
330
1F
100
AcDbEntity
  8
외형선
  6
Continuous
 62
     1
370
    15
100
AcDbSpline
210
0.0
220
0.0
230
1.0
 70
     8
 71
     3
 72
    10
 73
     6
 74
     0
 42
0.000000001
 43
0.00000001
 40
0.0
 40
0.0
 40
0.0
 40
0.0
 40
0.5
 40
0.5
 40
1.0
 40
1.0
 40
1.0
 40
1.0
 10
17.58783154515772
 20
2.70147302922414
 30
0.0
 10
17.48373320272421
 20
2.730160443477415
 30
0.0
 10
17.36578918969639
 20
2.796515354616377
 30
0.0
 10
17.14220702063514
 20
2.967963378736526
 30
0.0
 10
17.03340657265536
 20
3.074953113420138
 30
0.0
 10
16.93888740164641
 20
3.199688269079918
 30
0.0
  0
SPLINE
  5
133
330
1F
100
AcDbEntity
  8
외형선
  6
Continuous
 62
     1
370
    15
100
AcDbSpline
210
0.0
220
0.0
230
1.0
 70
     8
 71
     3
 72
    14
 73
    10
 74
     0
 42
0.000000001
 43
0.00000001
 40
0.0
 40
0.0
 40
0.0
 40
0.0
 40
0.0000824378100892
 40
0.0000824378100892
 40
0.0000824378100892
 40
0.0001553457867585
 40
0.0001553457867585
 40
0.0001553457867585
 40
0.0002308262083566
 40
0.0002308262083566
 40
0.0002308262083566
 40
0.0002308262083566
 10
17.74949422443971
 20
2.605356106032445
 30
0.0
 10
17.73004491621004
 20
2.621606001637546
 30
0.0
 10
17.71037319045898
 20
2.636601218851083
 30
0.0
 10
17.69083168109638
 20
2.649864647676485
 30
0.0
 10
17.67354483374288
 20
2.661597767428622
 30
0.0
 10
17.65624358041365
 20
2.672054434785136
 30
0.0
 10
17.63927152279176
 20
2.680746513355628
 30
0.0
 10
17.62172727265352
 20
2.689731634904192
 30
0.0
 10
17.60436072279078
 20
2.696917919556269
 30
0.0
 10
17.58783154515797
 20
2.70147302922407
 30
0.0
  0
SPLINE
  5
134
330
1F
100
AcDbEntity
  8
외형선
  6
Continuous
 62
     1
370
    15
100
AcDbSpline
210
0.0
220
0.0
230
1.0
 70
     8
 71
     3
 72
     8
 73
     4
 74
     0
 42
0.000000001
 43
0.00000001
 40
0.0
 40
0.0
 40
0.0
 40
0.0
 40
1.0
 40
1.0
 40
1.0
 40
1.0
 10
18.35317586164616
 20
2.079072377786833
 30
0.0
 10
18.15178001118498
 20
2.260627869406513
 30
0.0
 10
17.95207515794853
 20
2.436099750852718
 30
0.0
 10
17.74949422570612
 20
2.605356104974354
 30
0.0
  0
SPLINE
  5
135
330
1F
100
AcDbEntity
  8
외형선
  6
Continuous
 62
     1
370
    15
100
AcDbSpline
210
0.0
220
0.0
230
1.0
 70
     8
 71
     3
 72
    14
 73
    10
 74
     0
 42
0.000000001
 43
0.00000001
 40
0.0
 40
0.0
 40
0.0
 40
0.0
 40
0.000077378626905
 40
0.000077378626905
 40
0.000077378626905
 40
0.0001594761366277
 40
0.0001594761366277
 40
0.0001594761366277
 40
0.0002437349360168
 40
0.0002437349360168
 40
0.0002437349360168
 40
0.0002437349360168
 10
18.51612492831207
 20
1.902149239180817
 30
0.0
 10
18.50064578299026
 20
1.922472350807368
 30
0.0
 10
18.48425378547949
 20
1.942569010893162
 30
0.0
 10
18.46738904603159
 20
1.962079244209449
 30
0.0
 10
18.44949493454797
 20
1.982780322403485
 30
0.0
 10
18.43094067158063
 20
2.002969628977973
 30
0.0
 10
18.41210488575216
 20
2.022295153583586
 30
0.0
 10
18.39277375645936
 20
2.042128900803077
 30
0.0
 10
18.37301637189419
 20
2.061186440296936
 30
0.0
 10
18.35317586164024
 20
2.079072377792172
 30
0.0
  0
SPLINE
  5
136
330
1F
100
AcDbEntity
  8
외형선
  6
Continuous
 62
     1
370
    15
100
AcDbSpline
210
0.0
220
0.0
230
1.0
 70
     8
 71
     3
 72
    10
 73
     6
 74
     0
 42
0.000000001
 43
0.00000001
 40
0.0
 40
0.0
 40
0.0
 40
0.0
 40
0.5
 40
0.5
 40
1.0
 40
1.0
 40
1.0
 40
1.0
 10
19.16656854770478
 20
1.299528037965159
 30
0.0
 10
19.0623152128253
 20
1.364712482697623
 30
0.0
 10
18.94424274673381
 20
1.455909864748983
 30
0.0
 10
18.7201612443987
 20
1.661140540388206
 30
0.0
 10
18.61097309493205
 20
1.777619761763494
 30
0.0
 10
18.51612492831213
 20
1.902149239180796
 30
0.0
  0
SPLINE
  5
137
330
1F
100
AcDbEntity
  8
외형선
  6
Continuous
 62
     1
370
    15
100
AcDbSpline
210
0.0
220
0.0
230
1.0
 70
     8
 71
     3
 72
    14
 73
    10
 74
     0
 42
0.000000001
 43
0.00000001
 40
0.0
 40
0.0
 40
0.0
 40
0.0
 40
0.0000832572665079
 40
0.0000832572665079
 40
0.0000832572665079
 40
0.0001563193097535
 40
0.0001563193097535
 40
0.0001563193097535
 40
0.0002319315841865
 40
0.0002319315841865
 40
0.0002319315841865
 40
0.0002319315841865
 10
19.32882892361714
 20
1.165514320458559
 30
0.0
 10
19.30922140040319
 20
1.184557411102958
 30
0.0
 10
19.28938650607544
 20
1.202985054030465
 30
0.0
 10
19.26967954126413
 20
1.220297427447012
 30
0.0
 10
19.25238066556453
 20
1.235494318427709
 30
0.0
 10
19.23506506445872
 20
1.24993301367054
 30
0.0
 10
19.21807268926369
 20
1.263121209956402
 30
0.0
 10
19.2005136940177
 20
1.276749173865426
 30
0.0
 10
19.18312713003395
 20
1.289174776883071
 30
0.0
 10
19.16656854770502
 20
1.299528037965006
 30
0.0
  0
SPLINE
  5
138
330
1F
100
AcDbEntity
  8
외형선
  6
Continuous
 62
     1
370
    15
100
AcDbSpline
210
0.0
220
0.0
230
1.0
 70
     8
 71
     3
 72
     8
 73
     4
 74
     0
 42
0.000000001
 43
0.00000001
 40
0.0
 40
0.0
 40
0.0
 40
0.0
 40
1.0
 40
1.0
 40
1.0
 40
1.0
 10
19.93393078422529
 20
0.5694027594328438
 30
0.0
 10
19.73089837871962
 20
0.7706278652387245
 30
0.0
 10
19.53082496442236
 20
0.9693330449593033
 30
0.0
 10
19.32882891882818
 20
1.165514325109645
 30
0.0
  0
SPLINE
  5
139
330
1F
100
AcDbEntity
  8
외형선
  6
Continuous
 62
     1
370
    15
100
AcDbSpline
210
0.0
220
0.0
230
1.0
 70
     8
 71
     3
 72
    14
 73
    10
 74
     0
 42
0.000000001
 43
0.00000001
 40
0.0
 40
0.0
 40
0.0
 40
0.0
 40
0.0000773191756061
 40
0.0000773191756061
 40
0.0000773191756061
 40
0.000159364880685
 40
0.000159364880685
 40
0.000159364880685
 40
0.0002435732354891
 40
0.0002435732354891
 40
0.0002435732354891
 40
0.0002435732354891
 10
20.09700622602958
 20
0.3949302434193047
 30
0.0
 10
20.08152386623628
 20
0.4129558705056142
 30
0.0
 10
20.06512641771864
 20
0.4314530505522193
 30
0.0
 10
20.048253495199
 20
0.4500099538673946
 30
0.0
 10
20.03034828060806
 20
0.4697021758648015
 30
0.0
 10
20.01177955763743
 20
0.4896022905271609
 30
0.0
 10
19.99292612620398
 20
0.5093142011705099
 30
0.0
 10
19.97357629356595
 20
0.529545116336863
 30
0.0
 10
19.95379653939463
 20
0.5497138399424817
 30
0.0
 10
19.93393078554265
 20
0.5694027581272216
 30
0.0
  0
SPLINE
  5
13A
330
1F
100
AcDbEntity
  8
외형선
  6
Continuous
 62
     1
370
    15
100
AcDbSpline
210
0.0
220
0.0
230
1.0
 70
     8
 71
     3
 72
    10
 73
     6
 74
     0
 42
0.000000001
 43
0.00000001
 40
0.0
 40
0.0
 40
0.0
 40
0.0
 40
0.5
 40
0.5
 40
1.0
 40
1.0
 40
1.0
 40
1.0
 10
20.74706191514175
 20
-0.2462240732349044
 30
0.0
 10
20.64301506497694
 20
-0.1517799901452138
 30
0.0
 10
20.52511011239075
 20
-0.0455999049610211
 30
0.0
 10
20.30115688700432
 20
0.171145102613584
 30
0.0
 10
20.19193444211278
 20
0.2844082916025918
 30
0.0
 10
20.09700622602963
 20
0.3949302434192949
 30
0.0
  0
SPLINE
  5
13B
330
1F
100
AcDbEntity
  8
외형선
  6
Continuous
 62
     1
370
    15
100
AcDbSpline
210
0.0
220
0.0
230
1.0
 70
     8
 71
     3
 72
    10
 73
     6
 74
     0
 42
0.000000001
 43
0.00000001
 40
0.0
 40
0.0
 40
0.0
 40
0.0
 40
0.5
 40
0.5
 40
1.0
 40
1.0
 40
1.0
 40
1.0
 10
22.3244068606446
 20
-1.76309641284667
 30
0.0
 10
22.22031469408478
 20
-1.649760308581359
 30
0.0
 10
22.1027214720039
 20
-1.539799353649542
 30
0.0
 10
21.87889501959275
 20
-1.334671199601531
 30
0.0
 10
21.7696004871068
 20
-1.236682145787
 30
0.0
 10
21.67464547733875
 20
-1.152053182429017
 30
0.0
  0
SPLINE
  5
13C
330
1F
100
AcDbEntity
  8
외형선
  6
Continuous
 62
     1
370
    15
100
AcDbSpline
210
0.0
220
0.0
230
1.0
 70
     8
 71
     3
 72
    14
 73
    10
 74
     0
 42
0.000000001
 43
0.00000001
 40
0.0
 40
0.0
 40
0.0
 40
0.0
 40
0.0000833153722638
 40
0.0000833153722638
 40
0.0000833153722638
 40
0.0001564280557901
 40
0.0001564280557901
 40
0.0001564280557901
 40
0.000232073269123
 40
0.000232073269123
 40
0.000232073269123
 40
0.000232073269123
 10
22.48658137058129
 20
-1.925253509172996
 30
0.0
 10
22.46695266668572
 20
-1.907283858086461
 30
0.0
 10
22.44710812397667
 20
-1.888487749838212
 30
0.0
 10
22.42740351855099
 20
-1.869237623669258
 30
0.0
 10
22.41010658577045
 20
-1.852339638088307
 30
0.0
 10
22.39280250917487
 20
-1.834979493985233
 30
0.0
 10
22.37582804106312
 20
-1.817503490209714
 30
0.0
 10
22.35829164453289
 20
-1.799448955012859
 30
0.0
 10
22.34093596416647
 20
-1.781093388623813
 30
0.0
 10
22.32440686064484
 20
-1.763096412846946
 30
0.0
  0
SPLINE
  5
13D
330
1F
100
AcDbEntity
  8
외형선
  6
Continuous
 62
     1
370
    15
100
AcDbSpline
210
0.0
220
0.0
230
1.0
 70
     8
 71
     3
 72
    14
 73
    10
 74
     0
 42
0.000000001
 43
0.00000001
 40
0.0
 40
0.0
 40
0.0
 40
0.0
 40
0.000077533889074
 40
0.000077533889074
 40
0.000077533889074
 40
0.0001595467110041
 40
0.0001595467110041
 40
0.0001595467110041
 40
0.0002437143151144
 40
0.0002437143151144
 40
0.0002437143151144
 40
0.0002437143151144
 10
23.25455739813868
 20
-2.575941295416285
 30
0.0
 10
23.23904208306275
 20
-2.567826349679056
 30
0.0
 10
23.22260793449568
 20
-2.55806495468175
 30
0.0
 10
23.20569384758056
 20
-2.547039174214499
 30
0.0
 10
23.18780154339265
 20
-2.535375723564222
 30
0.0
 10
23.1692446190018
 20
-2.522215584385361
 30
0.0
 10
23.15039830338887
 20
-2.507910395859199
 30
0.0
 10
23.1310575221051
 20
-2.493229885981834
 30
0.0
 10
23.11128236249639
 20
-2.47724569221156
 30
0.0
 10
23.09141532466078
 20
-2.460282923265284
 30
0.0
  0
SPLINE
  5
13E
330
1F
100
AcDbEntity
  8
외형선
  6
Continuous
 62
     1
370
    15
100
AcDbSpline
210
0.0
220
0.0
230
1.0
 70
     8
 71
     3
 72
    10
 73
     6
 74
     0
 42
0.000000001
 43
0.00000001
 40
0.0
 40
0.0
 40
0.0
 40
0.0
 40
0.5
 40
0.5
 40
1.0
 40
1.0
 40
1.0
 40
1.0
 10
23.90536876940507
 20
-3.090265322586465
 30
0.0
 10
23.80084835203919
 20
-2.970484868279887
 30
0.0
 10
23.68282733630354
 20
-2.869290795853134
 30
0.0
 10
23.45907325312364
 20
-2.697908664428097
 30
0.0
 10
23.34971479840299
 20
-2.625711289506604
 30
0.0
 10
23.25455739813875
 20
-2.575941295416252
 30
0.0
  0
SPLINE
  5
13F
330
1F
100
AcDbEntity
  8
외형선
  6
Continuous
 62
     1
370
    15
100
AcDbSpline
210
0.0
220
0.0
230
1.0
 70
     8
 71
     3
 72
    14
 73
    10
 74
     0
 42
0.000000001
 43
0.00000001
 40
0.0
 40
0.0
 40
0.0
 40
0.0
 40
0.0000829717421466
 40
0.0000829717421466
 40
0.0000829717421466
 40
0.000156015378072
 40
0.000156015378072
 40
0.000156015378072
 40
0.0002316037227236
 40
0.0002316037227236
 40
0.0002316037227236
 40
0.0002316037227236
 10
24.06751184308678
 20
-3.23958872994138
 30
0.0
 10
24.04793252750077
 20
-3.22527037154267
 30
0.0
 10
24.02813530065049
 20
-3.209514296835644
 30
0.0
 10
24.00847523094561
 20
-3.192563090852595
 30
0.0
 10
23.99116263185032
 20
-3.177635909119704
 30
0.0
 10
23.97384081315631
 20
-3.161682272473773
 30
0.0
 10
23.956849163726
 20
-3.144915929503119
 30
0.0
 10
23.9392917786466
 20
-3.127591352444461
 30
0.0
 10
23.9219147327314
 20
-3.109227005424254
 30
0.0
 10
23.90536876940532
 20
-3.090265322586739
 30
0.0
  0
SPLINE
  5
140
330
1F
100
AcDbEntity
  8
외형선
  6
Continuous
 62
     1
370
    15
100
AcDbSpline
210
0.0
220
0.0
230
1.0
 70
     8
 71
     3
 72
     8
 73
     4
 74
     0
 42
0.000000001
 43
0.00000001
 40
0.0
 40
0.0
 40
0.0
 40
0.0
 40
1.0
 40
1.0
 40
1.0
 40
1.0
 10
24.6715110080721
 20
-3.654112900382219
 30
0.0
 10
24.47090305306654
 20
-3.525482599473833
 30
0.0
 10
24.26876737312342
 20
-3.386766752580566
 30
0.0
 10
24.06751839836973
 20
-3.239593523818224
 30
0.0
  0
SPLINE
  5
141
330
1F
100
AcDbEntity
  8
외형선
  6
Continuous
 62
     1
370
    15
100
AcDbSpline
210
0.0
220
0.0
230
1.0
 70
     8
 71
     3
 72
    14
 73
    10
 74
     0
 42
0.000000001
 43
0.00000001
 40
0.0
 40
0.0
 40
0.0
 40
0.0
 40
0.0000773908863454
 40
0.0000773908863454
 40
0.0000773908863454
 40
0.0001593559399926
 40
0.0001593559399926
 40
0.0001593559399926
 40
0.0002434816197803
 40
0.0002434816197803
 40
0.0002434816197803
 40
0.0002434816197803
 10
24.83418004177606
 20
-3.71935445299223
 30
0.0
 10
24.8187317265259
 20
-3.717865817094008
 30
0.0
 10
24.80236561939428
 20
-3.714385524757212
 30
0.0
 10
24.78551835168195
 20
-3.709214866916029
 30
0.0
 10
24.76767435940344
 20
-3.703738300616484
 30
0.0
 10
24.74916312133932
 20
-3.696327999346499
 30
0.0
 10
24.73035963096286
 20
-3.687254895985394
 30
0.0
 10
24.71106119357545
 20
-3.677942969655863
 30
0.0
 10
24.69132517246072
 20
-3.666817839797496
 30
0.0
 10
24.67149429231052
 20
-3.65410218217492
 30
0.0
  0
SPLINE
  5
142
330
1F
100
AcDbEntity
  8
외형선
  6
Continuous
 62
     1
370
    15
100
AcDbSpline
210
0.0
220
0.0
230
1.0
 70
     8
 71
     3
 72
    10
 73
     6
 74
     0
 42
0.000000001
 43
0.00000001
 40
0.0
 40
0.0
 40
0.0
 40
0.0
 40
0.5
 40
0.5
 40
1.0
 40
1.0
 40
1.0
 40
1.0
 10
25.48288389061477
 20
-4.077708655641191
 30
0.0
 10
25.37864953458565
 20
-3.964870546812251
 30
0.0
 10
25.26069097001304
 20
-3.883806952707189
 30
0.0
 10
25.03730678675331
 20
-3.766542992909137
 30
0.0
 10
24.92878630167378
 20
-3.728470934135832
 30
0.0
 10
24.83418004177612
 20
-3.719354452992174
 30
0.0
  0
SPLINE
  5
143
330
1F
100
AcDbEntity
  8
외형선
  6
Continuous
 62
     1
370
    15
100
AcDbSpline
210
0.0
220
0.0
230
1.0
 70
     8
 71
     3
 72
    14
 73
    10
 74
     0
 42
0.000000001
 43
0.00000001
 40
0.0
 40
0.0
 40
0.0
 40
0.0
 40
0.0000826141340682
 40
0.0000826141340682
 40
0.0000826141340682
 40
0.0001555642151511
 40
0.0001555642151511
 40
0.0001555642151511
 40
0.0002310760197407
 40
0.0002310760197407
 40
0.0002310760197407
 40
0.0002310760197407
 10
25.64477779951172
 20
-4.198349010356536
 30
0.0
 10
25.62527238241749
 20
-4.189171693614592
 30
0.0
 10
25.60554728445672
 20
-4.178107901802588
 30
0.0
 10
25.58595624165301
 20
-4.165243857914599
 30
0.0
 10
25.56865234943682
 20
-4.15388162308451
 30
0.0
 10
25.55133694358644
 20
-4.141038580346409
 30
0.0
 10
25.53435219601761
 20
-4.126772137783867
 30
0.0
 10
25.51679749187917
 20
-4.112026956716061
 30
0.0
 10
25.49942260801012
 20
-4.095612518287225
 30
0.0
 10
25.48288389061502
 20
-4.077708655641445
 30
0.0
  0
SPLINE
  5
144
330
1F
100
AcDbEntity
  8
외형선
  6
Continuous
 62
     1
370
    15
100
AcDbSpline
210
0.0
220
0.0
230
1.0
 70
     8
 71
     3
 72
     8
 73
     4
 74
     0
 42
0.000000001
 43
0.00000001
 40
0.0
 40
0.0
 40
0.0
 40
0.0
 40
1.0
 40
1.0
 40
1.0
 40
1.0
 10
26.24944742154832
 20
-4.449087726638037
 30
0.0
 10
26.04936775912683
 20
-4.377380141170552
 30
0.0
 10
25.84687774147975
 20
-4.293451194289402
 30
0.0
 10
25.64440223417691
 20
-4.198172293547247
 30
0.0
  0
SPLINE
  5
145
330
1F
100
AcDbEntity
  8
외형선
  6
Continuous
 62
     1
370
    15
100
AcDbSpline
210
0.0
220
0.0
230
1.0
 70
     8
 71
     3
 72
    14
 73
    10
 74
     0
 42
0.000000001
 43
0.00000001
 40
0.0
 40
0.0
 40
0.0
 40
0.0
 40
0.0000777611987397
 40
0.0000777611987397
 40
0.0000777611987397
 40
0.0001600952667048
 40
0.0001600952667048
 40
0.0001600952667048
 40
0.0002445796503277
 40
0.0002445796503277
 40
0.0002445796503277
 40
0.0002445796503277
 10
26.41220071093425
 20
-4.457030047749527
 30
0.0
 10
26.39667433840112
 20
-4.46231726547494
 30
0.0
 10
26.38023688523725
 20
-4.46546408744445
 30
0.0
 10
26.36333114389568
 20
-4.466665008178611
 30
0.0
 10
26.34542994891237
 20
-4.467936642222181
 30
0.0
 10
26.32688156080263
 20
-4.467035008498729
 30
0.0
 10
26.30803980817991
 20
-4.464138671519444
 30
0.0
 10
26.28870663583677
 20
-4.461166793950219
 30
0.0
 10
26.26893621181274
 20
-4.456073823508195
 30
0.0
 10
26.24906747087287
 20
-4.448951540552176
 30
0.0
  0
SPLINE
  5
146
330
1F
100
AcDbEntity
  8
외형선
  6
Continuous
 62
     1
370
    15
100
AcDbSpline
210
0.0
220
0.0
230
1.0
 70
     8
 71
     3
 72
    10
 73
     6
 74
     0
 42
0.000000001
 43
0.00000001
 40
0.0
 40
0.0
 40
0.0
 40
0.0
 40
0.5
 40
0.5
 40
1.0
 40
1.0
 40
1.0
 40
1.0
 10
27.06296461714845
 20
-4.622448407125887
 30
0.0
 10
26.95849573499977
 20
-4.528351410814243
 30
0.0
 10
26.8402370913996
 20
-4.475755853210929
 30
0.0
 10
26.61607715206479
 20
-4.424425093054706
 30
0.0
 10
26.50698077282173
 20
-4.424754458447517
 30
0.0
 10
26.41220071093431
 20
-4.457030047749472
 30
0.0
  0
SPLINE
  5
147
330
1F
100
AcDbEntity
  8
외형선
  6
Continuous
 62
     1
370
    15
100
AcDbSpline
210
0.0
220
0.0
230
1.0
 70
     8
 71
     3
 72
    14
 73
    10
 74
     0
 42
0.000000001
 43
0.00000001
 40
0.0
 40
0.0
 40
0.0
 40
0.0
 40
0.0000829750602977
 40
0.0000829750602977
 40
0.0000829750602977
 40
0.000155992230152
 40
0.000155992230152
 40
0.000155992230152
 40
0.0002315624337211
 40
0.0002315624337211
 40
0.0002315624337211
 40
0.0002315624337211
 10
27.22519890659987
 20
-4.701692506319072
 30
0.0
 10
27.20561820302231
 20
-4.698580944259148
 30
0.0
 10
27.18581411206699
 20
-4.69332064755741
 30
0.0
 10
27.16614167963153
 20
-4.685832923884708
 30
0.0
 10
27.14882524098432
 20
-4.679241938859803
 30
0.0
 10
27.1314950958173
 20
-4.670880897052947
 30
0.0
 10
27.1144922129401
 20
-4.660641812664284
 30
0.0
 10
27.09692128976913
 20
-4.65006065613727
 30
0.0
 10
27.07952686665414
 20
-4.637366322380577
 30
0.0
 10
27.0629646171487
 20
-4.6224484071261
 30
0.0
  0
SPLINE
  5
148
330
1F
100
AcDbEntity
  8
외형선
  6
Continuous
 62
     1
370
    15
100
AcDbSpline
210
0.0
220
0.0
230
1.0
 70
     8
 71
     3
 72
     8
 73
     4
 74
     0
 42
0.000000001
 43
0.00000001
 40
0.0
 40
0.0
 40
0.0
 40
0.0
 40
1.0
 40
1.0
 40
1.0
 40
1.0
 10
27.83006269097877
 20
-4.759956587007771
 30
0.0
 10
27.62868483814578
 20
-4.753356163805306
 30
0.0
 10
27.42821500022649
 20
-4.733953715434837
 30
0.0
 10
27.22519890872811
 20
-4.701692506657248
 30
0.0
  0
SPLINE
  5
149
330
1F
100
AcDbEntity
  8
외형선
  6
Continuous
 62
     1
370
    15
100
AcDbSpline
210
0.0
220
0.0
230
1.0
 70
     8
 71
     3
 72
    14
 73
    10
 74
     0
 42
0.000000001
 43
0.00000001
 40
0.0
 40
0.0
 40
0.0
 40
0.0
 40
0.0000773594054991
 40
0.0000773594054991
 40
0.0000773594054991
 40
0.000159536098487
 40
0.000159536098487
 40
0.000159536098487
 40
0.0002438761953797
 40
0.0002438761953797
 40
0.0002438761953797
 40
0.0002438761953797
 10
27.99304250686477
 20
-4.709140864443391
 30
0.0
 10
27.97757243148987
 20
-4.720655215028149
 30
0.0
 10
27.9611901268927
 20
-4.730146326211938
 30
0.0
 10
27.94433604272927
 20
-4.737670554807824
 30
0.0
 10
27.92643161790996
 20
-4.745663690709607
 30
0.0
 10
27.90786664779319
 20
-4.751496330927704
 30
0.0
 10
27.88902083979236
 20
-4.755205027077112
 30
0.0
 10
27.86967933309534
 20
-4.75901127255132
 30
0.0
 10
27.84991223589953
 20
-4.760607181876034
 30
0.0
 10
27.83006269004346
 20
-4.759956586977143
 30
0.0
  0
LINE
  5
14A
330
1F
100
AcDbEntity
  8
외형선
  6
Continuous
 62
     1
370
    15
100
AcDbLine
 10
28.04574369192124
 20
-4.683319013565785
 30
0.0
 11
27.9930420100689
 21
-4.709140863269574
 31
0.0
  0
SPLINE
  5
14B
330
1F
100
AcDbEntity
  8
외형선
  6
Continuous
 62
     1
370
    15
100
AcDbSpline
210
0.0
220
0.0
230
1.0
 70
     8
 71
     3
 72
     8
 73
     4
 74
     0
 42
0.000000001
 43
0.00000001
 40
0.0
 40
0.0
 40
0.0
 40
0.0
 40
1.0
 40
1.0
 40
1.0
 40
1.0
 10
28.84894775856647
 20
-0.8551532052941476
 30
0.0
 10
28.78961259807722
 20
-0.7979326808198934
 30
0.0
 10
28.72995204764302
 20
-0.7396943328198868
 30
0.0
 10
28.66999987185004
 20
-0.6804428426201539
 30
0.0
  0
SPLINE
  5
14C
330
1F
100
AcDbEntity
  8
외형선
  6
Continuous
 62
     1
370
    15
100
AcDbSpline
210
0.0
220
0.0
230
1.0
 70
    24
 71
     3
 72
    18
 73
    14
 74
     0
 42
0.000000001
 43
0.00000001
 40
0.0
 40
0.0
 40
0.0
 40
0.0
 40
0.2499999999999994
 40
0.2499999999999994
 40
0.4999999999999993
 40
0.4999999999999993
 40
0.6249999999999994
 40
0.6249999999999994
 40
0.7499999999999997
 40
0.7499999999999997
 40
0.8749999999999998
 40
0.8749999999999998
 40
1.0
 40
1.0
 40
1.0
 40
1.0
 10
28.84894775856648
 20
-0.8551532052941507
 30
0.0
 10
28.84649579406477
 20
-0.856870089321671
 30
0.0
 10
28.82826915658005
 20
-0.8696325182846817
 30
0.0
 10
28.74739753474993
 20
-0.9262594375173829
 30
0.0
 10
28.68544259768202
 20
-0.969640751481629
 30
0.0
 10
28.54002269443047
 20
-1.071464863944096
 30
0.0
 10
28.48406576297373
 20
-1.110646329166042
 30
0.0
 10
28.35453918027175
 20
-1.201341818772518
 30
0.0
 10
28.28020867274851
 20
-1.253388600459387
 30
0.0
 10
28.11998532950237
 20
-1.365578193197488
 30
0.0
 10
28.03250079770018
 20
-1.426835521841137
 30
0.0
 10
27.84723894361621
 20
-1.556557268613443
 30
0.0
 10
27.75197257664796
 20
-1.623263496902481
 30
0.0
 10
27.6543099121623
 20
-1.69164763077698
 30
0.0
  0
SPLINE
  5
14D
330
1F
100
AcDbEntity
  8
외형선
  6
Continuous
 62
     1
370
    15
100
AcDbSpline
210
0.0
220
0.0
230
1.0
 70
     8
 71
     3
 72
     8
 73
     4
 74
     0
 42
0.000000001
 43
0.00000001
 40
0.0
 40
0.0
 40
0.0
 40
0.0
 40
1.0
 40
1.0
 40
1.0
 40
1.0
 10
29.04999987185002
 20
-2.404963300806374
 30
0.0
 10
28.5817872309579
 20
-2.204033753472392
 30
0.0
 10
28.11653943755213
 20
-1.96648181715052
 30
0.0
 10
27.65430991216232
 20
-1.69164763077687
 30
0.0
  0
LINE
  5
14E
330
1F
100
AcDbEntity
  8
외형선
  6
Continuous
 62
     1
370
    15
100
AcDbLine
 10
29.05
 20
-4.255753010511405
 30
0.0
 11
29.05
 21
-2.404963364824658
 31
0.0
  0
SPLINE
  5
14F
330
1F
100
AcDbEntity
  8
외형선
  6
Continuous
 62
     1
370
    15
100
AcDbSpline
210
0.0
220
0.0
230
1.0
 70
     8
 71
     3
 72
     8
 73
     4
 74
     0
 42
0.000000001
 43
0.00000001
 40
0.0
 40
0.0
 40
0.0
 40
0.0
 40
1.0
 40
1.0
 40
1.0
 40
1.0
 10
28.67075377234947
 20
-4.544606386144069
 30
0.0
 10
28.79354499012835
 20
-4.458713775974962
 30
0.0
 10
28.91932304919023
 20
-4.362637802949734
 30
0.0
 10
29.04999987185002
 20
-4.255752809880837
 30
0.0
  0
SPLINE
  5
150
330
1F
100
AcDbEntity
  8
외형선
  6
Continuous
 62
     1
370
    15
100
AcDbSpline
210
0.0
220
0.0
230
1.0
 70
     8
 71
     3
 72
    14
 73
    10
 74
     0
 42
0.000000001
 43
0.00000001
 40
0.0
 40
0.0
 40
0.0
 40
0.0
 40
0.0000773473858978
 40
0.0000773473858978
 40
0.0000773473858978
 40
0.0001594188433251
 40
0.0001594188433251
 40
0.0001594188433251
 40
0.0002147000697039
 40
0.0002147000697039
 40
0.0002147000697039
 40
0.0002147000697039
 10
28.5281102384186
 20
-4.447777417865685
 30
0.0
 10
28.54359714240198
 20
-4.464229758264406
 30
0.0
 10
28.55999886646781
 20
-4.478982252401855
 30
0.0
 10
28.57687549889325
 20
-4.491950558995285
 30
0.0
 10
28.5947837568186
 20
-4.505711585097867
 30
0.0
 10
28.61335482665385
 20
-4.517563742123155
 30
0.0
 10
28.63220989036
 20
-4.52740887131479
 30
0.0
 10
28.64491461531331
 20
-4.534042614931822
 30
0.0
 10
28.65779532973641
 20
-4.539789797892388
 30
0.0
 10
28.67075377233552
 20
-4.544606386138303
 30
0.0
  0
SPLINE
  5
151
330
1F
100
AcDbEntity
  8
외형선
  6
Continuous
 62
     1
370
    15
100
AcDbSpline
210
0.0
220
0.0
230
1.0
 70
     8
 71
     3
 72
    10
 73
     6
 74
     0
 42
0.000000001
 43
0.00000001
 40
0.0
 40
0.0
 40
0.0
 40
0.0
 40
0.5
 40
0.5
 40
1.0
 40
1.0
 40
1.0
 40
1.0
 10
27.87794858347382
 20
-4.196432433159172
 30
0.0
 10
27.9820388290521
 20
-4.167849182851041
 30
0.0
 10
28.09998520872833
 20
-4.185563472944714
 30
0.0
 10
28.3239737313015
 20
-4.274695536916658
 30
0.0
 10
28.43319077462296
 20
-4.346940779985864
 30
0.0
 10
28.52811023841757
 20
-4.447777417864947
 30
0.0
  0
SPLINE
  5
152
330
1F
100
AcDbEntity
  8
외형선
  6
Continuous
 62
     1
370
    15
100
AcDbSpline
210
0.0
220
0.0
230
1.0
 70
     8
 71
     3
 72
    14
 73
    10
 74
     0
 42
0.000000001
 43
0.00000001
 40
0.0
 40
0.0
 40
0.0
 40
0.0
 40
0.0000832671960582
 40
0.0000832671960582
 40
0.0000832671960582
 40
0.0001563480838711
 40
0.0001563480838711
 40
0.0001563480838711
 40
0.000231980942129
 40
0.000231980942129
 40
0.000231980942129
 40
0.000231980942129
 10
27.71594785249767
 20
-4.171679371422649
 30
0.0
 10
27.7355146420869
 20
-4.181175968636594
 30
0.0
 10
27.75531093381945
 20
-4.188710412731386
 30
0.0
 10
27.77498234043024
 20
-4.193913179884922
 30
0.0
 10
27.79225237916062
 20
-4.198480824284968
 30
0.0
 10
27.80954130369636
 20
-4.201281554977261
 30
0.0
 10
27.82650965579801
 20
-4.201929757161047
 30
0.0
 10
27.84404406025561
 20
-4.202599582916235
 30
0.0
 10
27.86140870978441
 20
-4.200974293418057
 30
0.0
 10
27.87794858347382
 20
-4.196432433159173
 30
0.0
  0
SPLINE
  5
153
330
1F
100
AcDbEntity
  8
외형선
  6
Continuous
 62
     1
370
    15
100
AcDbSpline
210
0.0
220
0.0
230
1.0
 70
     8
 71
     3
 72
     8
 73
     4
 74
     0
 42
0.000000001
 43
0.00000001
 40
0.0
 40
0.0
 40
0.0
 40
0.0
 40
1.0
 40
1.0
 40
1.0
 40
1.0
 10
27.71595107710426
 20
-4.171680936459748
 30
0.0
 10
27.51634386857914
 20
-4.074803176890449
 30
0.0
 10
27.31482526658517
 20
-3.966462373148913
 30
0.0
 10
27.11244004902634
 20
-3.847566986667538
 30
0.0
  0
SPLINE
  5
154
330
1F
100
AcDbEntity
  8
외형선
  6
Continuous
 62
     1
370
    15
100
AcDbSpline
210
0.0
220
0.0
230
1.0
 70
     8
 71
     3
 72
    14
 73
    10
 74
     0
 42
0.000000001
 43
0.00000001
 40
0.0
 40
0.0
 40
0.0
 40
0.0
 40
0.0000770342714237
 40
0.0000770342714237
 40
0.0000770342714237
 40
0.000158817207471
 40
0.000158817207471
 40
0.000158817207471
 40
0.0002427697860885
 40
0.0002427697860885
 40
0.0002427697860885
 40
0.0002427697860885
 10
26.95026255747484
 20
-3.703092197033096
 30
0.0
 10
26.96567810947487
 20
-3.722624285025143
 30
0.0
 10
26.98200799185814
 20
-3.740969895008023
 30
0.0
 10
26.99881561043643
 20
-3.757912363852185
 30
0.0
 10
27.01665996101279
 20
-3.775899882564377
 30
0.0
 10
27.03517072490362
 20
-3.792436043866636
 30
0.0
 10
27.05396950272004
 20
-3.807297185491364
 30
0.0
 10
27.07326627627704
 20
-3.82255201149821
 30
0.0
 10
27.09299703308813
 20
-3.836146009415991
 30
0.0
 10
27.11281614878419
 20
-3.847787922523707
 30
0.0
  0
SPLINE
  5
155
330
1F
100
AcDbEntity
  8
외형선
  6
Continuous
 62
     1
370
    15
100
AcDbSpline
210
0.0
220
0.0
230
1.0
 70
     8
 71
     3
 72
    10
 73
     6
 74
     0
 42
0.000000001
 43
0.00000001
 40
0.0
 40
0.0
 40
0.0
 40
0.0
 40
0.5
 40
0.5
 40
1.0
 40
1.0
 40
1.0
 40
1.0
 10
26.30068186289832
 20
-3.272856633544591
 30
0.0
 10
26.40466083321675
 20
-3.283913176707511
 30
0.0
 10
26.52231371808893
 20
-3.336097462903638
 30
0.0
 10
26.74610862393897
 20
-3.484679628947337
 30
0.0
 10
26.85536028342176
 20
-3.582847422959579
 30
0.0
 10
26.95026255747362
 20
-3.703092197032317
 30
0.0
  0
SPLINE
  5
156
330
1F
100
AcDbEntity
  8
외형선
  6
Continuous
 62
     1
370
    15
100
AcDbSpline
210
0.0
220
0.0
230
1.0
 70
     8
 71
     3
 72
    14
 73
    10
 74
     0
 42
0.000000001
 43
0.00000001
 40
0.0
 40
0.0
 40
0.0
 40
0.0
 40
0.0000833824095523
 40
0.0000833824095523
 40
0.0000833824095523
 40
0.0001565116228858
 40
0.0001565116228858
 40
0.0001565116228858
 40
0.0002321707171019
 40
0.0002321707171019
 40
0.0002321707171019
 40
0.0002321707171019
 10
26.13852357093969
 20
-3.197079723521966
 30
0.0
 10
26.15815869781846
 20
-3.211660057439035
 30
0.0
 10
26.17800919236854
 20
-3.224709644874729
 30
0.0
 10
26.19771920772991
 20
-3.235773800238492
 30
0.0
 10
26.21501095727448
 20
-3.245480469663387
 30
0.0
 10
26.23230942344928
 20
-3.253723399115299
 30
0.0
 10
26.24927847313588
 20
-3.260040709367205
 30
0.0
 10
26.26680856397081
 20
-3.26656688641269
 30
0.0
 10
26.28415790892078
 20
-3.271099568536013
 30
0.0
 10
26.30068186289831
 20
-3.272856633544595
 30
0.0
  0
SPLINE
  5
157
330
1F
100
AcDbEntity
  8
외형선
  6
Continuous
 62
     1
370
    15
100
AcDbSpline
210
0.0
220
0.0
230
1.0
 70
     8
 71
     3
 72
     8
 73
     4
 74
     0
 42
0.000000001
 43
0.00000001
 40
0.0
 40
0.0
 40
0.0
 40
0.0
 40
1.0
 40
1.0
 40
1.0
 40
1.0
 10
26.13852368049656
 20
-3.197079804874046
 30
0.0
 10
25.93808247685369
 20
-3.048239430996178
 30
0.0
 10
25.73568040537584
 20
-2.890354460930312
 30
0.0
 10
25.53374063544654
 20
-2.725259195345694
 30
0.0
  0
SPLINE
  5
158
330
1F
100
AcDbEntity
  8
외형선
  6
Continuous
 62
     1
370
    15
100
AcDbSpline
210
0.0
220
0.0
230
1.0
 70
     8
 71
     3
 72
    14
 73
    10
 74
     0
 42
0.000000001
 43
0.00000001
 40
0.0
 40
0.0
 40
0.0
 40
0.0
 40
0.0000774961348493
 40
0.0000774961348493
 40
0.0000774961348493
 40
0.0001594976869409
 40
0.0001594976869409
 40
0.0001594976869409
 40
0.0002436551162732
 40
0.0002436551162732
 40
0.0002436551162732
 40
0.0002436551162732
 10
25.37059884599696
 20
-2.554395174634537
 30
0.0
 10
25.38611025387327
 20
-2.5750491927266
 30
0.0
 10
25.40254015195307
 20
-2.595143012391746
 30
0.0
 10
25.419449624461
 20
-2.614354014300335
 30
0.0
 10
25.43734326356796
 20
-2.634683136623567
 30
0.0
 10
25.45590155443794
 20
-2.654169354734798
 30
0.0
 10
25.47474883279161
 20
-2.672494669803064
 30
0.0
 10
25.49409092887501
 20
-2.691301098941416
 30
0.0
 10
25.51386707386641
 20
-2.70901160832697
 30
0.0
 10
25.53373446875791
 20
-2.725254153785948
 30
0.0
  0
SPLINE
  5
159
330
1F
100
AcDbEntity
  8
외형선
  6
Continuous
 62
     1
370
    15
100
AcDbSpline
210
0.0
220
0.0
230
1.0
 70
     8
 71
     3
 72
    10
 73
     6
 74
     0
 42
0.000000001
 43
0.00000001
 40
0.0
 40
0.0
 40
0.0
 40
0.0
 40
0.5
 40
0.5
 40
1.0
 40
1.0
 40
1.0
 40
1.0
 10
24.71974710113196
 20
-1.990107325947535
 30
0.0
 10
24.82423494084123
 20
-2.039155655436105
 30
0.0
 10
24.94211579236531
 20
-2.120713269930519
 30
0.0
 10
25.16600736963544
 20
-2.31380622305682
 30
0.0
 10
25.2754186405817
 20
-2.42765918133655
 30
0.0
 10
25.37059884599576
 20
-2.554395174634004
 30
0.0
  0
SPLINE
  5
15A
330
1F
100
AcDbEntity
  8
외형선
  6
Continuous
 62
     1
370
    15
100
AcDbSpline
210
0.0
220
0.0
230
1.0
 70
     8
 71
     3
 72
    14
 73
    10
 74
     0
 42
0.000000001
 43
0.00000001
 40
0.0
 40
0.0
 40
0.0
 40
0.0
 40
0.0000830495909199
 40
0.0000830495909199
 40
0.0000830495909199
 40
0.000156110092928
 40
0.000156110092928
 40
0.000156110092928
 40
0.0002317122725225
 40
0.0002317122725225
 40
0.0002317122725225
 40
0.0002317122725225
 10
24.55757541825337
 20
-1.872202156275278
 30
0.0
 10
24.57716823869899
 20
-1.890184729423209
 30
0.0
 10
24.59697857046274
 20
-1.907238165842009
 30
0.0
 10
24.61665112650343
 20
-1.922868528358709
 30
0.0
 10
24.63396256039969
 20
-1.936622917311658
 30
0.0
 10
24.65128275935693
 20
-1.949366988185849
 30
0.0
 10
24.66827291151413
 20
-1.960606984564452
 30
0.0
 10
24.68582794874274
 20
-1.972220686022216
 30
0.0
 10
24.70320256455935
 20
-1.982341045361341
 30
0.0
 10
24.71974710113204
 20
-1.990107325947784
 30
0.0
  0
SPLINE
  5
15B
330
1F
100
AcDbEntity
  8
외형선
  6
Continuous
 62
     1
370
    15
100
AcDbSpline
210
0.0
220
0.0
230
1.0
 70
     8
 71
     3
 72
     8
 73
     4
 74
     0
 42
0.000000001
 43
0.00000001
 40
0.0
 40
0.0
 40
0.0
 40
0.0
 40
1.0
 40
1.0
 40
1.0
 40
1.0
 10
24.5576059516618
 20
-1.872230180244324
 30
0.0
 10
24.35715764121723
 20
-1.688256267491389
 30
0.0
 10
24.15564382814486
 20
-1.498982215407975
 30
0.0
 10
23.9554570250848
 20
-1.306660800709194
 30
0.0
  0
SPLINE
  5
15C
330
1F
100
AcDbEntity
  8
외형선
  6
Continuous
 62
     1
370
    15
100
AcDbSpline
210
0.0
220
0.0
230
1.0
 70
     8
 71
     3
 72
    14
 73
    10
 74
     0
 42
0.000000001
 43
0.00000001
 40
0.0
 40
0.0
 40
0.0
 40
0.0
 40
0.0000773650336785
 40
0.0000773650336785
 40
0.0000773650336785
 40
0.0001593215177383
 40
0.0001593215177383
 40
0.0001593215177383
 40
0.0002434392264819
 40
0.0002434392264819
 40
0.0002434392264819
 40
0.0002434392264819
 10
23.79073351007283
 20
-1.126683247550776
 30
0.0
 10
23.80618430595457
 20
-1.146100647109455
 30
0.0
 10
23.82255281865192
 20
-1.165657002858375
 30
0.0
 10
23.83940222820239
 20
-1.184957275022795
 30
0.0
 10
23.85725256134645
 20
-1.205404062008044
 30
0.0
 10
23.87577017018573
 20
-1.2257096129642
 30
0.0
 10
23.89457962131001
 20
-1.245492126929022
 30
0.0
 10
23.91388437282613
 20
-1.265795564489838
 30
0.0
 10
23.93362636821454
 20
-1.285684899729873
 30
0.0
 10
23.95346257697697
 20
-1.304744572508616
 30
0.0
  0
SPLINE
  5
15D
330
1F
100
AcDbEntity
  8
외형선
  6
Continuous
 62
     1
370
    15
100
AcDbSpline
210
0.0
220
0.0
230
1.0
 70
     8
 71
     3
 72
    10
 73
     6
 74
     0
 42
0.000000001
 43
0.00000001
 40
0.0
 40
0.0
 40
0.0
 40
0.0
 40
0.5
 40
0.5
 40
1.0
 40
1.0
 40
1.0
 40
1.0
 10
23.14204630989496
 20
-0.4939629046984427
 30
0.0
 10
23.24627680603872
 20
-0.5753271763873373
 30
0.0
 10
23.36421652861711
 20
-0.6758740704066666
 30
0.0
 10
23.58751752267869
 20
-0.8907711125830072
 30
0.0
 10
23.69606800148484
 20
-1.007714747886499
 30
0.0
 10
23.79073351007163
 20
-1.126683247550538
 30
0.0
  0
SPLINE
  5
15E
330
1F
100
AcDbEntity
  8
외형선
  6
Continuous
 62
     1
370
    15
100
AcDbSpline
210
0.0
220
0.0
230
1.0
 70
     8
 71
     3
 72
    14
 73
    10
 74
     0
 42
0.000000001
 43
0.00000001
 40
0.0
 40
0.0
 40
0.0
 40
0.0
 40
0.0000825869607741
 40
0.0000825869607741
 40
0.0000825869607741
 40
0.0001555341615876
 40
0.0001555341615876
 40
0.0001555341615876
 40
0.0002310431946713
 40
0.0002310431946713
 40
0.0002310431946713
 40
0.0002310431946713
 10
22.98019345449298
 20
-0.3470299344685359
 30
0.0
 10
22.99969190864473
 20
-0.3664116319683243
 30
0.0
 10
23.01940939615702
 20
-0.3855598755716608
 30
0.0
 10
23.03899230534762
 20
-0.4039956044821533
 30
0.0
 10
23.05629400162261
 20
-0.4202837554975595
 30
0.0
 10
23.07360675548971
 20
-0.4361249696210157
 30
0.0
 10
23.09058843639872
 20
-0.451045266263175
 30
0.0
 10
23.10814003160286
 20
-0.4664662960417977
 30
0.0
 10
23.12551132716794
 20
-0.4810553884076436
 30
0.0
 10
23.14204630989493
 20
-0.4939629046984126
 30
0.0
  0
SPLINE
  5
15F
330
1F
100
AcDbEntity
  8
외형선
  6
Continuous
 62
     1
370
    15
100
AcDbSpline
210
0.0
220
0.0
230
1.0
 70
     8
 71
     3
 72
    14
 73
    10
 74
     0
 42
0.000000001
 43
0.00000001
 40
0.0
 40
0.0
 40
0.0
 40
0.0
 40
0.0000778659879493
 40
0.0000778659879493
 40
0.0000778659879493
 40
0.0001601109222593
 40
0.0001601109222593
 40
0.0001601109222593
 40
0.0002445019073243
 40
0.0002445019073243
 40
0.0002445019073243
 40
0.0002445019073243
 10
22.2129393118458
 20
0.4228397802390563
 30
0.0
 10
22.22847847764191
 20
0.4066181609988854
 30
0.0
 10
22.2449255251167
 20
0.3895561659258728
 30
0.0
 10
22.2618500478034
 20
0.3720963387053443
 30
0.0
 10
22.27972784357662
 20
0.3536530873911042
 30
0.0
 10
22.29826894693482
 20
0.334638274169048
 30
0.0
 10
22.31710267496103
 20
0.3154525905712923
 30
0.0
 10
22.33642706296099
 20
0.295767077784268
 30
0.0
 10
22.35618821404897
 20
0.2757706434774662
 30
0.0
 10
22.37604692143645
 20
0.2558741767472597
 30
0.0
  0
SPLINE
  5
160
330
1F
100
AcDbEntity
  8
외형선
  6
Continuous
 62
     1
370
    15
100
AcDbSpline
210
0.0
220
0.0
230
1.0
 70
     8
 71
     3
 72
    10
 73
     6
 74
     0
 42
0.000000001
 43
0.00000001
 40
0.0
 40
0.0
 40
0.0
 40
0.0
 40
0.5
 40
0.5
 40
1.0
 40
1.0
 40
1.0
 40
1.0
 10
21.56218600503982
 20
1.057529964453619
 30
0.0
 10
21.66668553831865
 20
0.952008175034596
 30
0.0
 10
21.78496404047982
 20
0.842573996649573
 30
0.0
 10
22.00911453903505
 20
0.6287945970663682
 30
0.0
 10
22.11818464849041
 20
0.5217559054887024
 30
0.0
 10
22.21293931184461
 20
0.4228397802389762
 30
0.0
  0
SPLINE
  5
161
330
1F
100
AcDbEntity
  8
외형선
  6
Continuous
 62
     1
370
    15
100
AcDbSpline
210
0.0
220
0.0
230
1.0
 70
     8
 71
     3
 72
    10
 73
     6
 74
     0
 42
0.000000001
 43
0.00000001
 40
0.0
 40
0.0
 40
0.0
 40
0.0
 40
0.5
 40
0.5
 40
1.0
 40
1.0
 40
1.0
 40
1.0
 10
19.98255834532769
 20
2.493626249940466
 30
0.0
 10
20.08666978209329
 20
2.375862255862096
 30
0.0
 10
20.20463593509977
 20
2.269768989551181
 30
0.0
 10
20.42839304135694
 20
2.081050521507769
 30
0.0
 10
20.53734914517337
 20
1.995948684294576
 30
0.0
 10
20.63201477799119
 20
1.928816832417726
 30
0.0
  0
SPLINE
  5
162
330
1F
100
AcDbEntity
  8
외형선
  6
Continuous
 62
     1
370
    15
100
AcDbSpline
210
0.0
220
0.0
230
1.0
 70
     8
 71
     3
 72
    14
 73
    10
 74
     0
 42
0.000000001
 43
0.00000001
 40
0.0
 40
0.0
 40
0.0
 40
0.0
 40
0.0000825819180158
 40
0.0000825819180158
 40
0.0000825819180158
 40
0.0001555412285124
 40
0.0001555412285124
 40
0.0001555412285124
 40
0.0002310672323797
 40
0.0002310672323797
 40
0.0002310672323797
 40
0.0002310672323797
 10
19.82082302868974
 20
2.650578720286117
 30
0.0
 10
19.84028867144868
 20
2.634407907266076
 30
0.0
 10
19.85997868829703
 20
2.617090813884225
 30
0.0
 10
19.87954017080453
 20
2.59893200859942
 30
0.0
 10
19.89682680300281
 20
2.582884933026385
 30
0.0
 10
19.91412916235631
 20
2.56607269803601
 30
0.0
 10
19.93110465595586
 20
2.548778010596735
 30
0.0
 10
19.94865079593333
 20
2.530901946793561
 30
0.0
 10
19.96602140081779
 20
2.512331751428469
 30
0.0
 10
19.98255834532768
 20
2.493626249940475
 30
0.0
  0
SPLINE
  5
163
330
1F
100
AcDbEntity
  8
외형선
  6
Continuous
 62
     1
370
    15
100
AcDbSpline
210
0.0
220
0.0
230
1.0
 70
     8
 71
     3
 72
     8
 73
     4
 74
     0
 42
0.000000001
 43
0.00000001
 40
0.0
 40
0.0
 40
0.0
 40
0.0
 40
1.0
 40
1.0
 40
1.0
 40
1.0
 10
19.82082302472396
 20
2.650578723580145
 30
0.0
 10
19.61871777406269
 20
2.818474860259713
 30
0.0
 10
19.41946183960757
 20
2.978460470902049
 30
0.0
 10
19.21725764590794
 20
3.13076961683841
 30
0.0
  0
SPLINE
  5
164
330
1F
100
AcDbEntity
  8
외형선
  6
Continuous
 62
     1
370
    15
100
AcDbSpline
210
0.0
220
0.0
230
1.0
 70
     8
 71
     3
 72
    14
 73
    10
 74
     0
 42
0.000000001
 43
0.00000001
 40
0.0
 40
0.0
 40
0.0
 40
0.0
 40
0.0000772263700246
 40
0.0000772263700246
 40
0.0000772263700246
 40
0.0001591959330456
 40
0.0001591959330456
 40
0.0001591959330456
 40
0.0002433305003152
 40
0.0002433305003152
 40
0.0002433305003152
 40
0.0002433305003152
 10
19.05482023444686
 20
3.220683706470023
 30
0.0
 10
19.07027503450706
 20
3.216035578035951
 30
0.0
 10
19.08664321376208
 20
3.209536254168298
 30
0.0
 10
19.10348594897051
 20
3.201527344613921
 30
0.0
 10
19.12136393136871
 20
3.193026163406123
 30
0.0
 10
19.13990458187113
 20
3.182764855409674
 30
0.0
 10
19.15872908608224
 20
3.171058741955183
 30
0.0
 10
19.17805019169616
 20
3.159043814398725
 30
0.0
 10
19.19780041263376
 20
3.145426780370486
 30
0.0
 10
19.2176354607372
 20
3.130485019275667
 30
0.0
  0
SPLINE
  5
165
330
1F
100
AcDbEntity
  8
외형선
  6
Continuous
 62
     1
370
    15
100
AcDbSpline
210
0.0
220
0.0
230
1.0
 70
     8
 71
     3
 72
    10
 73
     6
 74
     0
 42
0.000000001
 43
0.00000001
 40
0.0
 40
0.0
 40
0.0
 40
0.0
 40
0.5
 40
0.5
 40
1.0
 40
1.0
 40
1.0
 40
1.0
 10
18.40465403402214
 20
3.657348559798424
 30
0.0
 10
18.50879165860043
 20
3.539795047178703
 30
0.0
 10
18.62675178767282
 20
3.448059941351314
 30
0.0
 10
18.85074799092062
 20
3.303779488001771
 30
0.0
 10
18.9599581296927
 20
3.249214081801648
 30
0.0
 10
19.05482023444567
 20
3.22068370646937
 30
0.0
  0
SPLINE
  5
166
330
1F
100
AcDbEntity
  8
외형선
  6
Continuous
 62
     1
370
    15
100
AcDbSpline
210
0.0
220
0.0
230
1.0
 70
     8
 71
     3
 72
    14
 73
    10
 74
     0
 42
0.000000001
 43
0.00000001
 40
0.0
 40
0.0
 40
0.0
 40
0.0
 40
0.0000834553143057
 40
0.0000834553143057
 40
0.0000834553143057
 40
0.000156552508307
 40
0.000156552508307
 40
0.000156552508307
 40
0.000232196946043
 40
0.000232196946043
 40
0.000232196946043
 40
0.000232196946043
 10
18.24240259850293
 20
3.794108977611907
 30
0.0
 10
18.26202678267779
 20
3.782191611448177
 30
0.0
 10
18.28188042366133
 20
3.768571748426949
 30
0.0
 10
18.301608084594
 20
3.753408867755653
 30
0.0
 10
18.31889250306057
 20
3.740123888072767
 30
0.0
 10
18.33619519435628
 20
3.725565926252659
 30
0.0
 10
18.3531771590312
 20
3.709864465947264
 30
0.0
 10
18.37072440945241
 20
3.693640344578994
 30
0.0
 10
18.38810161808801
 20
3.676033397706722
 30
0.0
 10
18.40465403402213
 20
3.657348559798439
 30
0.0
  0
SPLINE
  5
167
330
1F
100
AcDbEntity
  8
외형선
  6
Continuous
 62
     1
370
    15
100
AcDbSpline
210
0.0
220
0.0
230
1.0
 70
     8
 71
     3
 72
     8
 73
     4
 74
     0
 42
0.000000001
 43
0.00000001
 40
0.0
 40
0.0
 40
0.0
 40
0.0
 40
1.0
 40
1.0
 40
1.0
 40
1.0
 10
18.24240259848731
 20
3.794108977620581
 30
0.0
 10
18.04167936389467
 20
3.916004097585017
 30
0.0
 10
17.84035644406443
 20
4.027815274792633
 30
0.0
 10
17.63732418886171
 20
4.128720424111394
 30
0.0
  0
SPLINE
  5
168
330
1F
100
AcDbEntity
  8
외형선
  6
Continuous
 62
     1
370
    15
100
AcDbSpline
210
0.0
220
0.0
230
1.0
 70
     8
 71
     3
 72
    14
 73
    10
 74
     0
 42
0.000000001
 43
0.00000001
 40
0.0
 40
0.0
 40
0.0
 40
0.0
 40
0.0000773525174901
 40
0.0000773525174901
 40
0.0000773525174901
 40
0.0001593666076984
 40
0.0001593666076984
 40
0.0001593666076984
 40
0.0002435416583165
 40
0.0002435416583165
 40
0.0002435416583165
 40
0.0002435416583165
 10
17.47421112447543
 20
4.16402911591634
 30
0.0
 10
17.48970306247689
 20
4.166162660981717
 30
0.0
 10
17.50611133141495
 20
4.166207210871277
 30
0.0
 10
17.52299657126127
 20
4.164406983103948
 30
0.0
 10
17.54090029426223
 20
4.162498169277301
 30
0.0
 10
17.55946823456618
 20
4.158503538843147
 30
0.0
 10
17.57832242003298
 20
4.15263976445232
 30
0.0
 10
17.59767278113949
 20
4.146621676208227
 30
0.0
 10
17.61745464221834
 20
4.13859540466098
 30
0.0
 10
17.63732418878262
 20
4.1287204241516
 30
0.0
  0
SPLINE
  5
169
330
1F
100
AcDbEntity
  8
외형선
  6
Continuous
 62
     1
370
    15
100
AcDbSpline
210
0.0
220
0.0
230
1.0
 70
     8
 71
     3
 72
    10
 73
     6
 74
     0
 42
0.000000001
 43
0.00000001
 40
0.0
 40
0.0
 40
0.0
 40
0.0
 40
0.5
 40
0.5
 40
1.0
 40
1.0
 40
1.0
 40
1.0
 10
16.82377706237212
 20
4.424677390245899
 30
0.0
 10
16.92783010898084
 20
4.320253599152083
 30
0.0
 10
17.04572778460731
 20
4.252968095413708
 30
0.0
 10
17.26979455561394
 20
4.168972696873827
 30
0.0
 10
17.37914885837074
 20
4.150937169074957
 30
0.0
 10
17.47421112447434
 20
4.164029115915406
 30
0.0
  0
SPLINE
  5
16A
330
1F
100
AcDbEntity
  8
외형선
  6
Continuous
 62
     1
370
    15
100
AcDbSpline
210
0.0
220
0.0
230
1.0
 70
     8
 71
     3
 72
    14
 73
    10
 74
     0
 42
0.000000001
 43
0.00000001
 40
0.0
 40
0.0
 40
0.0
 40
0.0
 40
0.0000833669051654
 40
0.0000833669051654
 40
0.0000833669051654
 40
0.0001565124894995
 40
0.0001565124894995
 40
0.0001565124894995
 40
0.0002321864126548
 40
0.0002321864126548
 40
0.0002321864126548
 40
0.0002321864126548
 10
16.66169463158108
 20
4.525358948703848
 30
0.0
 10
16.681316232845
 20
4.519226911049977
 30
0.0
 10
16.70115256106867
 20
4.511020989236353
 30
0.0
 10
16.72084800855919
 20
4.500746363666282
 30
0.0
 10
16.73813407433994
 20
4.491728652666707
 30
0.0
 10
16.75542640400101
 20
4.481057513514193
 30
0.0
 10
16.77238946637034
 20
4.468704387959489
 30
0.0
 10
16.78991289239913
 20
4.455943184989815
 30
0.0
 10
16.80725280065181
 20
4.441260528463366
 30
0.0
 10
16.8237770623721
 20
4.424677390245915
 30
0.0
  0
SPLINE
  5
16B
330
1F
100
AcDbEntity
  8
외형선
  6
Continuous
 62
     1
370
    15
100
AcDbSpline
210
0.0
220
0.0
230
1.0
 70
     8
 71
     3
 72
     8
 73
     4
 74
     0
 42
0.000000001
 43
0.00000001
 40
0.0
 40
0.0
 40
0.0
 40
0.0
 40
1.0
 40
1.0
 40
1.0
 40
1.0
 10
16.66207602282309
 20
4.525239743223922
 30
0.0
 10
16.46202421286658
 20
4.58777473696849
 30
0.0
 10
16.25983594360668
 20
4.638437256286797
 30
0.0
 10
16.05792626867932
 20
4.676507512974355
 30
0.0
  0
SPLINE
  5
16C
330
1F
100
AcDbEntity
  8
외형선
  6
Continuous
 62
     1
370
    15
100
AcDbSpline
210
0.0
220
0.0
230
1.0
 70
     8
 71
     3
 72
    14
 73
    10
 74
     0
 42
0.000000001
 43
0.00000001
 40
0.0
 40
0.0
 40
0.0
 40
0.0
 40
0.0000770314278225
 40
0.0000770314278225
 40
0.0000770314278225
 40
0.0001587825001185
 40
0.0001587825001185
 40
0.0001587825001185
 40
0.0002427040194491
 40
0.0002427040194491
 40
0.0002427040194491
 40
0.0002427040194491
 10
15.89583780015401
 20
4.652962599742412
 30
0.0
 10
15.91124346984528
 20
4.661639770668754
 30
0.0
 10
15.92756421711751
 20
4.668230758474346
 30
0.0
 10
15.94436435860621
 20
4.672849767113158
 30
0.0
 10
15.96219447595153
 20
4.677751955949156
 30
0.0
 10
15.98069236034413
 20
4.680470258180391
 30
0.0
 10
15.99948054917934
 20
4.681094155162377
 30
0.0
 10
16.01876682590833
 20
4.681734592085303
 30
0.0
 10
16.03848936087697
 20
4.680173867520079
 30
0.0
 10
16.05830236760272
 20
4.676436584728796
 30
0.0
  0
SPLINE
  5
16D
330
1F
100
AcDbEntity
  8
외형선
  6
Continuous
 62
     1
370
    15
100
AcDbSpline
210
0.0
220
0.0
230
1.0
 70
     8
 71
     3
 72
    10
 73
     6
 74
     0
 42
0.000000001
 43
0.00000001
 40
0.0
 40
0.0
 40
0.0
 40
0.0
 40
0.1891080617344023
 40
0.644195128763617
 40
1.0
 40
1.0
 40
1.0
 40
1.0
 10
15.31123182475568
 20
4.674668889492745
 30
0.0
 10
15.34820636513535
 20
4.653329221323397
 30
0.0
 10
15.47415984687701
 20
4.580635809112168
 30
0.0
 10
15.6866526541705
 20
4.570050304425564
 30
0.0
 10
15.83204315574172
 20
4.627676994080865
 30
0.0
 10
15.895837906003
 20
4.652962554246182
 30
0.0
  0
LINE
  5
16E
330
1F
100
AcDbEntity
  8
외형선
  6
Continuous
 62
     1
370
    15
100
AcDbLine
 10
17.82752386033536
 20
4.023539368063205
 30
0.0
 11
17.95856560319663
 21
4.097123630344861
 31
0.0
  0
SPLINE
  5
16F
330
1F
100
AcDbEntity
  8
외형선
  6
Continuous
 62
     1
370
    15
100
AcDbSpline
210
0.0
220
0.0
230
1.0
 70
     8
 71
     3
 72
    14
 73
    10
 74
     0
 42
0.000000001
 43
0.00000001
 40
0.0
 40
0.0
 40
0.0
 40
0.0
 40
0.0000776939415621
 40
0.0000776939415621
 40
0.0000776939415621
 40
0.0001596856301558
 40
0.0001596856301558
 40
0.0001596856301558
 40
0.0002438272400891
 40
0.0002438272400891
 40
0.0002438272400891
 40
0.0002438272400891
 10
18.12134388080001
 20
4.135076272822936
 30
0.0
 10
18.10584433164371
 20
4.136894788638832
 30
0.0
 10
18.08942541142441
 20
4.136621603609351
 30
0.0
 10
18.0725243547004
 20
4.134507579479155
 30
0.0
 10
18.05468706309044
 20
4.132276448876109
 30
0.0
 10
18.03618585350742
 20
4.127980729957299
 30
0.0
 10
18.01739234346434
 20
4.121837375437402
 30
0.0
 10
17.99810685801801
 20
4.115533200543329
 30
0.0
 10
17.97838454247641
 20
4.107242146639435
 30
0.0
 10
17.95856600492385
 20
4.097123754874978
 30
0.0
  0
SPLINE
  5
170
330
1F
100
AcDbEntity
  8
외형선
  6
Continuous
 62
     1
370
    15
100
AcDbSpline
210
0.0
220
0.0
230
1.0
 70
     8
 71
     3
 72
    10
 73
     6
 74
     0
 42
0.000000001
 43
0.00000001
 40
0.0
 40
0.0
 40
0.0
 40
0.0
 40
0.5
 40
0.5
 40
1.0
 40
1.0
 40
1.0
 40
1.0
 10
18.77141138341857
 20
4.403423395293494
 30
0.0
 10
18.66696901434047
 20
4.298216556056645
 30
0.0
 10
18.54877631805514
 20
4.230067122589206
 30
0.0
 10
18.32486491639094
 20
4.143678444136585
 30
0.0
 10
18.21603240299109
 20
4.12396675128443
 30
0.0
 10
18.12134388080003
 20
4.135076272822905
 30
0.0
  0
SPLINE
  5
171
330
1F
100
AcDbEntity
  8
외형선
  6
Continuous
 62
     1
370
    15
100
AcDbSpline
210
0.0
220
0.0
230
1.0
 70
     8
 71
     3
 72
    14
 73
    10
 74
     0
 42
0.000000001
 43
0.00000001
 40
0.0
 40
0.0
 40
0.0
 40
0.0
 40
0.0000828815058489
 40
0.0000828815058489
 40
0.0000828815058489
 40
0.0001558799033047
 40
0.0001558799033047
 40
0.0001558799033047
 40
0.0002314326539582
 40
0.0002314326539582
 40
0.0002314326539582
 40
0.0002314326539582
 10
18.9335814988338
 20
4.505345771987786
 30
0.0
 10
18.91401448638818
 20
4.499023586982116
 30
0.0
 10
18.89422595013175
 20
4.490657216059307
 30
0.0
 10
18.87457072512259
 20
4.480252768518671
 30
0.0
 10
18.85725443203903
 20
4.471086429140618
 30
0.0
 10
18.83992579066956
 20
4.460276760482269
 30
0.0
 10
18.82292600059829
 20
4.447799881856301
 30
0.0
 10
18.80535780666095
 20
4.434905827134761
 30
0.0
 10
18.78796777757022
 20
4.420100974643925
 30
0.0
 10
18.77141138341931
 20
4.403423395294248
 30
0.0
  0
SPLINE
  5
172
330
1F
100
AcDbEntity
  8
외형선
  6
Continuous
 62
     1
370
    15
100
AcDbSpline
210
0.0
220
0.0
230
1.0
 70
     8
 71
     3
 72
     8
 73
     4
 74
     0
 42
0.000000001
 43
0.00000001
 40
0.0
 40
0.0
 40
0.0
 40
0.0
 40
1.0
 40
1.0
 40
1.0
 40
1.0
 10
19.53859679631711
 20
4.664701281547837
 30
0.0
 10
19.33871693704576
 20
4.624138268078126
 30
0.0
 10
19.1364122577718
 20
4.570881253524249
 30
0.0
 10
18.93358149879492
 20
4.505345771974991
 30
0.0
  0
SPLINE
  5
173
330
1F
100
AcDbEntity
  8
외형선
  6
Continuous
 62
     1
370
    15
100
AcDbSpline
210
0.0
220
0.0
230
1.0
 70
     8
 71
     3
 72
    14
 73
    10
 74
     0
 42
0.000000001
 43
0.00000001
 40
0.0
 40
0.0
 40
0.0
 40
0.0
 40
0.0000776604921931
 40
0.0000776604921931
 40
0.0000776604921931
 40
0.000160008545253
 40
0.000160008545253
 40
0.000160008545253
 40
0.000244511452984
 40
0.000244511452984
 40
0.000244511452984
 40
0.000244511452984
 10
19.70179012609875
 20
4.643758513591743
 30
0.0
 10
19.68626957763845
 20
4.652211558394234
 30
0.0
 10
19.66983691678492
 20
4.6585495028192
 30
0.0
 10
19.65293448707005
 20
4.662902008673322
 30
0.0
 10
19.63501075293589
 20
4.667517508282706
 30
0.0
 10
19.6164308872709
 20
4.669935307190229
 30
0.0
 10
19.59757317385006
 20
4.670261065559614
 30
0.0
 10
19.578222384022
 20
4.670595341598283
 30
0.0
 10
19.5584499409397
 20
4.66873021858251
 30
0.0
 10
19.53859680247647
 20
4.664701282797814
 30
0.0
  0
SPLINE
  5
174
330
1F
100
AcDbEntity
  8
외형선
  6
Continuous
 62
     1
370
    15
100
AcDbSpline
210
0.0
220
0.0
230
1.0
 70
     8
 71
     3
 72
    10
 73
     6
 74
     0
 42
0.000000001
 43
0.00000001
 40
0.0
 40
0.0
 40
0.0
 40
0.0
 40
0.5000000000000001
 40
0.5000000000000001
 40
1.0
 40
1.0
 40
1.0
 40
1.0
 10
20.35230289459357
 20
4.706971812838503
 30
0.0
 10
20.24794633409151
 20
4.625972872611844
 30
0.0
 10
20.12976799228787
 20
4.589557620395383
 30
0.0
 10
19.90568006700684
 20
4.572895691282506
 30
0.0
 10
19.79658453905766
 20
4.592130091966162
 30
0.0
 10
19.70179012609878
 20
4.643758513591708
 30
0.0
  0
SPLINE
  5
175
330
1F
100
AcDbEntity
  8
외형선
  6
Continuous
 62
     1
370
    15
100
AcDbSpline
210
0.0
220
0.0
230
1.0
 70
     8
 71
     3
 72
    14
 73
    10
 74
     0
 42
0.000000001
 43
0.00000001
 40
0.0
 40
0.0
 40
0.0
 40
0.0
 40
0.000082861837543
 40
0.000082861837543
 40
0.000082861837543
 40
0.0001558642973654
 40
0.0001558642973654
 40
0.0001558642973654
 40
0.0002314240929223
 40
0.0002314240929223
 40
0.0002314240929223
 40
0.0002314240929223
 10
20.51437862467363
 20
4.762493165836918
 30
0.0
 10
20.49483468664012
 20
4.762526230504061
 30
0.0
 10
20.47506658104444
 20
4.76037318974872
 30
0.0
 10
20.45542866047112
 20
4.755877888483631
 30
0.0
 10
20.43812258944675
 20
4.751916369101828
 30
0.0
 10
20.4208017968677
 20
4.746109127684928
 30
0.0
 10
20.40380773699797
 20
4.738271904964609
 30
0.0
 10
20.38624485345767
 20
4.730172355417801
 30
0.0
 10
20.36885773314832
 20
4.719821262572157
 30
0.0
 10
20.35230289459434
 20
4.706971812839101
 30
0.0
  0
SPLINE
  5
176
330
1F
100
AcDbEntity
  8
외형선
  6
Continuous
 62
     1
370
    15
100
AcDbSpline
210
0.0
220
0.0
230
1.0
 70
     8
 71
     3
 72
     8
 73
     4
 74
     0
 42
0.000000001
 43
0.00000001
 40
0.0
 40
0.0
 40
0.0
 40
0.0
 40
1.0
 40
1.0
 40
1.0
 40
1.0
 10
21.11857314112528
 20
4.722981084534369
 30
0.0
 10
20.91665111068458
 20
4.74896726425894
 30
0.0
 10
20.7170334945966
 20
4.762150312099852
 30
0.0
 10
20.51437862027649
 20
4.762493165844345
 30
0.0
  0
SPLINE
  5
177
330
1F
100
AcDbEntity
  8
외형선
  6
Continuous
 62
     1
370
    15
100
AcDbSpline
210
0.0
220
0.0
230
1.0
 70
     8
 71
     3
 72
    14
 73
    10
 74
     0
 42
0.000000001
 43
0.00000001
 40
0.0
 40
0.0
 40
0.0
 40
0.0
 40
0.0000769679142255
 40
0.0000769679142255
 40
0.0000769679142255
 40
0.0001589488452356
 40
0.0001589488452356
 40
0.0001589488452356
 40
0.0002431051268656
 40
0.0002431051268656
 40
0.0002431051268656
 40
0.0002431051268656
 10
21.28074336076109
 20
4.645454012236585
 30
0.0
 10
21.26535498465356
 20
4.659525848609189
 30
0.0
 10
21.24905575834032
 20
4.671717635533083
 30
0.0
 10
21.23228352953289
 20
4.682014825336676
 30
0.0
 10
21.21441846708741
 20
4.692982952528729
 30
0.0
 10
21.19588835669353
 20
4.701882305294583
 30
0.0
 10
21.17707478540479
 20
4.708682460113704
 30
0.0
 10
21.15776248896175
 20
4.715662878860885
 30
0.0
 10
21.13802092106783
 20
4.720479796968927
 30
0.0
 10
21.11819573012634
 20
4.723029640434591
 30
0.0
  0
SPLINE
  5
178
330
1F
100
AcDbEntity
  8
외형선
  6
Continuous
 62
     1
370
    15
100
AcDbSpline
210
0.0
220
0.0
230
1.0
 70
     8
 71
     3
 72
    10
 73
     6
 74
     0
 42
0.000000001
 43
0.00000001
 40
0.0
 40
0.0
 40
0.0
 40
0.0
 40
0.5
 40
0.5
 40
1.0
 40
1.0
 40
1.0
 40
1.0
 10
21.9295475756254
 20
4.498058823474762
 30
0.0
 10
21.82559396295691
 20
4.450176559052128
 30
0.0
 10
21.70782283265206
 20
4.449140010525994
 30
0.0
 10
21.48425791552569
 20
4.503340929549465
 30
0.0
 10
21.37532034424032
 20
4.558968484014817
 30
0.0
 10
21.2807433607611
 20
4.64545401223656
 30
0.0
  0
SPLINE
  5
179
330
1F
100
AcDbEntity
  8
외형선
  6
Continuous
 62
     1
370
    15
100
AcDbSpline
210
0.0
220
0.0
230
1.0
 70
     8
 71
     3
 72
    14
 73
    10
 74
     0
 42
0.000000001
 43
0.00000001
 40
0.0
 40
0.0
 40
0.0
 40
0.0
 40
0.0000830786860627
 40
0.0000830786860627
 40
0.0000830786860627
 40
0.0001561032829013
 40
0.0001561032829013
 40
0.0001561032829013
 40
0.0002316854736493
 40
0.0002316854736493
 40
0.0002316854736493
 40
0.0002316854736493
 10
22.09156289946903
 20
4.501060141988432
 30
0.0
 10
22.07200665705062
 20
4.507467215593978
 30
0.0
 10
22.05222305772394
 20
4.511778576935527
 30
0.0
 10
22.03256641876155
 20
4.513688151808693
 30
0.0
 10
22.01528368596699
 20
4.51536710986186
 30
0.0
 10
21.99798363320478
 20
4.515200347624066
 30
0.0
 10
21.98100706549779
 20
4.512861144224414
 30
0.0
 10
21.96346248553763
 20
4.510443674344955
 30
0.0
 10
21.94609031984543
 20
4.505678607267507
 30
0.0
 10
21.92954757562616
 20
4.498058823475109
 30
0.0
  0
SPLINE
  5
17A
330
1F
100
AcDbEntity
  8
외형선
  6
Continuous
 62
     1
370
    15
100
AcDbSpline
210
0.0
220
0.0
230
1.0
 70
     8
 71
     3
 72
     8
 73
     4
 74
     0
 42
0.000000001
 43
0.00000001
 40
0.0
 40
0.0
 40
0.0
 40
0.0
 40
1.0
 40
1.0
 40
1.0
 40
1.0
 10
22.69619773069263
 20
4.267154413467726
 30
0.0
 10
22.49326570703776
 20
4.357072151782604
 30
0.0
 10
22.29303191135552
 20
4.435054324343824
 30
0.0
 10
22.0915616522962
 20
4.501060550590906
 30
0.0
  0
SPLINE
  5
17B
330
1F
100
AcDbEntity
  8
외형선
  6
Continuous
 62
     1
370
    15
100
AcDbSpline
210
0.0
220
0.0
230
1.0
 70
     8
 71
     3
 72
    14
 73
    10
 74
     0
 42
0.000000001
 43
0.00000001
 40
0.0
 40
0.0
 40
0.0
 40
0.0
 40
0.0000773663713737
 40
0.0000773663713737
 40
0.0000773663713737
 40
0.0001593865460783
 40
0.0001593865460783
 40
0.0001593865460783
 40
0.0002435671462538
 40
0.0002435671462538
 40
0.0002435671462538
 40
0.0002435671462538
 10
22.85929615590808
 20
4.141641407159906
 30
0.0
 10
22.84380187065829
 20
4.159877198050661
 30
0.0
 10
22.82739186450148
 20
4.176639314627965
 30
0.0
 10
22.81050573287847
 20
4.191777445103315
 30
0.0
 10
22.79260292833941
 20
4.207827005596933
 30
0.0
 10
22.77403699715875
 20
4.222167328410846
 30
0.0
 10
22.75518591956196
 20
4.234637918536166
 30
0.0
 10
22.73583890311079
 20
4.24743658805899
 30
0.0
 10
22.71606161459245
 20
4.258352867593242
 30
0.0
 10
22.69619773229808
 20
4.267154412756385
 30
0.0
  0
SPLINE
  5
17C
330
1F
100
AcDbEntity
  8
외형선
  6
Continuous
 62
     1
370
    15
100
AcDbSpline
210
0.0
220
0.0
230
1.0
 70
     8
 71
     3
 72
    10
 73
     6
 74
     0
 42
0.000000001
 43
0.00000001
 40
0.0
 40
0.0
 40
0.0
 40
0.0
 40
0.5000000000000002
 40
0.5000000000000002
 40
1.0
 40
1.0
 40
1.0
 40
1.0
 10
23.51008453029547
 20
3.798178161576986
 30
0.0
 10
23.40591964408132
 20
3.788854041972761
 30
0.0
 10
23.28792224622911
 20
3.823841800396543
 30
0.0
 10
23.06373504173934
 20
3.943668023735183
 30
0.0
 10
22.95435780512199
 20
4.029759876076066
 30
0.0
 10
22.85929615590809
 20
4.141641407159883
 30
0.0
  0
SPLINE
  5
17D
330
1F
100
AcDbEntity
  8
외형선
  6
Continuous
 62
     1
370
    15
100
AcDbSpline
210
0.0
220
0.0
230
1.0
 70
     8
 71
     3
 72
    14
 73
    10
 74
     0
 42
0.000000001
 43
0.00000001
 40
0.0
 40
0.0
 40
0.0
 40
0.0
 40
0.0000837880697946
 40
0.0000837880697946
 40
0.0000837880697946
 40
0.0001569022270286
 40
0.0001569022270286
 40
0.0001569022270286
 40
0.0002325508250212
 40
0.0002325508250212
 40
0.0002325508250212
 40
0.0002325508250212
 10
23.67237360248396
 20
3.74756576480803
 30
0.0
 10
23.65267405543086
 20
3.759783215792341
 30
0.0
 10
23.63275992998952
 20
3.770215258935274
 30
0.0
 10
23.61298810396131
 20
3.778446924503172
 30
0.0
 10
23.59572949076953
 20
3.785632256386926
 30
0.0
 10
23.57845475386637
 20
3.791180575931188
 30
0.0
 10
23.56149532505134
 20
3.794655975487982
 30
0.0
 10
23.54397436387333
 20
3.79824644668703
 30
0.0
 10
23.52662035570686
 20
3.799658334209866
 30
0.0
 10
23.51008453029622
 20
3.798178161577055
 30
0.0
  0
SPLINE
  5
17E
330
1F
100
AcDbEntity
  8
외형선
  6
Continuous
 62
     1
370
    15
100
AcDbSpline
210
0.0
220
0.0
230
1.0
 70
     8
 71
     3
 72
     8
 73
     4
 74
     0
 42
0.000000001
 43
0.00000001
 40
0.0
 40
0.0
 40
0.0
 40
0.0
 40
1.0
 40
1.0
 40
1.0
 40
1.0
 10
24.2773434520071
 20
3.345288096694421
 30
0.0
 10
24.07482064645445
 20
3.488946790856702
 30
0.0
 10
23.8723535130072
 20
3.623540570190285
 30
0.0
 10
23.67236581448831
 20
3.747570594836533
 30
0.0
  0
SPLINE
  5
17F
330
1F
100
AcDbEntity
  8
외형선
  6
Continuous
 62
     1
370
    15
100
AcDbSpline
210
0.0
220
0.0
230
1.0
 70
     8
 71
     3
 72
    14
 73
    10
 74
     0
 42
0.000000001
 43
0.00000001
 40
0.0
 40
0.0
 40
0.0
 40
0.0
 40
0.0000771803178637
 40
0.0000771803178637
 40
0.0000771803178637
 40
0.0001591068977165
 40
0.0001591068977165
 40
0.0001591068977165
 40
0.0002431999810359
 40
0.0002431999810359
 40
0.0002431999810359
 40
0.0002431999810359
 10
24.43982654109952
 20
3.185962293936925
 30
0.0
 10
24.42437898494487
 20
3.206295138379184
 30
0.0
 10
24.40801543847086
 20
3.22573498434362
 30
0.0
 10
24.39117367285108
 20
3.24401078589553
 30
0.0
 10
24.37329546523549
 20
3.263411279992324
 30
0.0
 10
24.35475033226072
 20
3.281640015060293
 30
0.0
 10
24.33591671225514
 20
3.298423968440372
 30
0.0
 10
24.3165856867714
 20
3.315651194561098
 30
0.0
 10
24.29682041045813
 20
3.331473284294344
 30
0.0
 10
24.27696566740853
 20
3.345556066172052
 30
0.0
  0
SPLINE
  5
180
330
1F
100
AcDbEntity
  8
외형선
  6
Continuous
 62
     1
370
    15
100
AcDbSpline
210
0.0
220
0.0
230
1.0
 70
     8
 71
     3
 72
    10
 73
     6
 74
     0
 42
0.000000001
 43
0.00000001
 40
0.0
 40
0.0
 40
0.0
 40
0.0
 40
0.5
 40
0.5
 40
1.0
 40
1.0
 40
1.0
 40
1.0
 10
25.08883164473821
 20
2.684417583542799
 30
0.0
 10
24.98483473606981
 20
2.714177294516293
 30
0.0
 10
24.86739146874416
 20
2.781608854416132
 30
0.0
 10
24.64385715500446
 20
2.953923824441644
 30
0.0
 10
24.53471292235851
 20
3.061068102874354
 30
0.0
 10
24.43982654109954
 20
3.185962293936909
 30
0.0
  0
SPLINE
  5
181
330
1F
100
AcDbEntity
  8
외형선
  6
Continuous
 62
     1
370
    15
100
AcDbSpline
210
0.0
220
0.0
230
1.0
 70
     8
 71
     3
 72
    14
 73
    10
 74
     0
 42
0.000000001
 43
0.00000001
 40
0.0
 40
0.0
 40
0.0
 40
0.0
 40
0.0000827794072153
 40
0.0000827794072153
 40
0.0000827794072153
 40
0.0001557865667158
 40
0.0001557865667158
 40
0.0001557865667158
 40
0.0002313442461552
 40
0.0002313442461552
 40
0.0002313442461552
 40
0.0002313442461552
 10
25.25054336177212
 20
2.587097575937472
 30
0.0
 10
25.23103302131758
 20
2.60347983783485
 30
0.0
 10
25.21130764054934
 20
2.618615125433569
 30
0.0
 10
25.19172090631831
 20
2.632026049905932
 30
0.0
 10
25.17444163401641
 20
2.643857068443512
 30
0.0
 10
25.15715464814469
 20
2.65442514503088
 30
0.0
 10
25.14019942114703
 20
2.663244876841314
 30
0.0
 10
25.12267807072867
 20
2.672359093458283
 30
0.0
 10
25.10533882016052
 20
2.679693897273133
 30
0.0
 10
25.08883164473896
 20
2.684417583542584
 30
0.0
  0
SPLINE
  5
182
330
1F
100
AcDbEntity
  8
외형선
  6
Continuous
 62
     1
370
    15
100
AcDbSpline
210
0.0
220
0.0
230
1.0
 70
     8
 71
     3
 72
     8
 73
     4
 74
     0
 42
0.000000001
 43
0.00000001
 40
0.0
 40
0.0
 40
0.0
 40
0.0
 40
1.0
 40
1.0
 40
1.0
 40
1.0
 10
25.85448725301068
 20
2.061990944204013
 30
0.0
 10
25.65364035231292
 20
2.242588011642785
 30
0.0
 10
25.45197863021675
 20
2.41793123730992
 30
0.0
 10
25.25189962024933
 20
2.585958674051994
 30
0.0
  0
SPLINE
  5
183
330
1F
100
AcDbEntity
  8
외형선
  6
Continuous
 62
     1
370
    15
100
AcDbSpline
210
0.0
220
0.0
230
1.0
 70
     8
 71
     3
 72
    14
 73
    10
 74
     0
 42
0.000000001
 43
0.00000001
 40
0.0
 40
0.0
 40
0.0
 40
0.0
 40
0.0000774624984094
 40
0.0000774624984094
 40
0.0000774624984094
 40
0.0001593997408489
 40
0.0001593997408489
 40
0.0001593997408489
 40
0.000243493468287
 40
0.000243493468287
 40
0.000243493468287
 40
0.000243493468287
 10
26.01704612615395
 20
1.885621055793384
 30
0.0
 10
26.00155320356751
 20
1.9059555324647
 30
0.0
 10
25.98514196212345
 20
1.926067033783184
 30
0.0
 10
25.96825032168773
 20
1.945592591023619
 30
0.0
 10
25.9503818195073
 20
1.966247332252137
 30
0.0
 10
25.9318482909967
 20
1.986394098458359
 30
0.0
 10
25.91302460341291
 20
2.005679223522606
 30
0.0
 10
25.89370625020762
 20
2.025471140273294
 30
0.0
 10
25.87395260936856
 20
2.044488866093821
 30
0.0
 10
25.85410648364403
 20
2.062333316408728
 30
0.0
  0
SPLINE
  5
184
330
1F
100
AcDbEntity
  8
외형선
  6
Continuous
 62
     1
370
    15
100
AcDbSpline
210
0.0
220
0.0
230
1.0
 70
     8
 71
     3
 72
    10
 73
     6
 74
     0
 42
0.000000001
 43
0.00000001
 40
0.0
 40
0.0
 40
0.0
 40
0.0
 40
0.5
 40
0.5
 40
1.0
 40
1.0
 40
1.0
 40
1.0
 10
26.66769427865992
 20
1.278678712751548
 30
0.0
 10
26.56316177995103
 20
1.344534657584857
 30
0.0
 10
26.44500987497993
 20
1.436699150524577
 30
0.0
 10
26.22141342532435
 20
1.643841450479631
 30
0.0
 10
26.11213469480704
 20
1.760817212606463
 30
0.0
 10
26.01704612615398
 20
1.885621055793366
 30
0.0
  0
SPLINE
  5
185
330
1F
100
AcDbEntity
  8
외형선
  6
Continuous
 62
     1
370
    15
100
AcDbSpline
210
0.0
220
0.0
230
1.0
 70
     8
 71
     3
 72
    14
 73
    10
 74
     0
 42
0.000000001
 43
0.00000001
 40
0.0
 40
0.0
 40
0.0
 40
0.0
 40
0.0000830504317212
 40
0.0000830504317212
 40
0.0000830504317212
 40
0.0001560965660686
 40
0.0001560965660686
 40
0.0001560965660686
 40
0.0002316868328412
 40
0.0002316868328412
 40
0.0002316868328412
 40
0.0002316868328412
 10
26.82993868605644
 20
1.14457678872647
 30
0.0
 10
26.8103371760268
 20
1.163552635826155
 30
0.0
 10
26.79051701227429
 20
1.18193001277997
 30
0.0
 10
26.77083364962276
 20
1.199213555345215
 30
0.0
 10
26.75351630876386
 20
1.214419544441206
 30
0.0
 10
26.73618933632284
 20
1.228880223674437
 30
0.0
 10
26.71919213831809
 20
1.242105606064488
 30
0.0
 10
26.70162920711928
 20
1.255771180880374
 30
0.0
 10
26.68424614473121
 20
1.268250962603531
 30
0.0
 10
26.66769427866068
 20
1.278678712751068
 30
0.0
  0
SPLINE
  5
186
330
1F
100
AcDbEntity
  8
외형선
  6
Continuous
 62
     1
370
    15
100
AcDbSpline
210
0.0
220
0.0
230
1.0
 70
     8
 71
     3
 72
     8
 73
     4
 74
     0
 42
0.000000001
 43
0.00000001
 40
0.0
 40
0.0
 40
0.0
 40
0.0
 40
1.0
 40
1.0
 40
1.0
 40
1.0
 10
27.4348703394836
 20
0.551172869232954
 30
0.0
 10
27.23412320128882
 20
0.7506851434812892
 30
0.0
 10
27.03167082251921
 20
0.9492837642888677
 30
0.0
 10
26.8299386897815
 20
1.144576785120957
 30
0.0
  0
SPLINE
  5
187
330
1F
100
AcDbEntity
  8
외형선
  6
Continuous
 62
     1
370
    15
100
AcDbSpline
210
0.0
220
0.0
230
1.0
 70
     8
 71
     3
 72
    14
 73
    10
 74
     0
 42
0.000000001
 43
0.00000001
 40
0.0
 40
0.0
 40
0.0
 40
0.0
 40
0.0000777933285381
 40
0.0000777933285381
 40
0.0000777933285381
 40
0.0001599066355668
 40
0.0001599066355668
 40
0.0001599066355668
 40
0.0002441677400592
 40
0.0002441677400592
 40
0.0002441677400592
 40
0.0002441677400592
 10
27.59798389313495
 20
0.3760248369831614
 30
0.0
 10
27.58245043872905
 20
0.3941812047094402
 30
0.0
 10
27.56599662438317
 20
0.412816439168976
 30
0.0
 10
27.54906118876242
 20
0.4315130915090081
 30
0.0
 10
27.53118392111658
 20
0.4512495225904876
 30
0.0
 10
27.51264287596649
 20
0.4711944396800802
 30
0.0
 10
27.49381041963753
 20
0.4909524985922755
 30
0.0
 10
27.47448609580316
 20
0.5112265999675015
 30
0.0
 10
27.45472598203752
 20
0.5314393654938709
 30
0.0
 10
27.43487033705377
 20
0.5511728716478451
 30
0.0
  0
SPLINE
  5
188
330
1F
100
AcDbEntity
  8
외형선
  6
Continuous
 62
     1
370
    15
100
AcDbSpline
210
0.0
220
0.0
230
1.0
 70
     8
 71
     3
 72
    10
 73
     6
 74
     0
 42
0.000000001
 43
0.00000001
 40
0.0
 40
0.0
 40
0.0
 40
0.0
 40
0.5
 40
0.5
 40
1.0
 40
1.0
 40
1.0
 40
1.0
 10
28.2481131767319
 20
-0.2671763624912548
 30
0.0
 10
28.14366545226805
 20
-0.1726692055028121
 30
0.0
 10
28.02544479954714
 20
-0.0662214876029444
 30
0.0
 10
27.80155627541742
 20
0.1513088401199374
 30
0.0
 10
27.69278909426921
 20
0.2652112311246498
 30
0.0
 10
27.59798389313497
 20
0.3760248369831601
 30
0.0
  0
SPLINE
  5
189
330
1F
100
AcDbEntity
  8
외형선
  6
Continuous
 62
     1
370
    15
100
AcDbSpline
210
0.0
220
0.0
230
1.0
 70
     8
 71
     3
 72
    10
 73
     6
 74
     0
 42
0.000000001
 43
0.00000001
 40
0.0
 40
0.0
 40
0.0
 40
0.0
 40
0.5
 40
0.5
 40
1.0
 40
1.0
 40
1.0
 40
1.0
 10
14.82335784465255
 20
-1.744054584459203
 30
0.0
 10
14.71907361524314
 20
-1.631437712945651
 30
0.0
 10
14.60100923840167
 20
-1.522132411722862
 30
0.0
 10
14.37719997408438
 20
-1.31722426034648
 30
0.0
 10
14.26827881226058
 20
-1.218995705005002
 30
0.0
 10
14.17370912571636
 20
-1.133645578755496
 30
0.0
  0
SPLINE
  5
18A
330
1F
100
AcDbEntity
  8
외형선
  6
Continuous
 62
     1
370
    15
100
AcDbSpline
210
0.0
220
0.0
230
1.0
 70
     8
 71
     3
 72
    12
 73
     8
 74
     0
 42
0.000000001
 43
0.00000001
 40
0.0
 40
0.0
 40
0.0
 40
0.0
 40
0.2500000000000001
 40
0.2500000000000001
 40
0.5000000000000001
 40
0.5000000000000001
 40
1.0
 40
1.0
 40
1.0
 40
1.0
 10
14.82335784465254
 20
-1.74405458445929
 30
0.0
 10
14.81375662788494
 20
-1.569548740521439
 30
0.0
 10
14.80431989168115
 20
-1.391863895065723
 30
0.0
 10
14.78595910412932
 20
-1.0341379695822
 30
0.0
 10
14.77723451155266
 20
-0.8554415935809544
 30
0.0
 10
14.75046521537119
 20
-0.3109137450587444
 30
0.0
 10
14.73142826477905
 20
0.0662690270789763
 30
0.0
 10
14.7119356621434
 20
0.4422050126371149
 30
0.0
  0
SPLINE
  5
18B
330
1F
100
AcDbEntity
  8
외형선
  6
Continuous
 62
     1
370
    15
100
AcDbSpline
210
0.0
220
0.0
230
1.0
 70
     8
 71
     3
 72
     9
 73
     5
 74
     0
 42
0.000000001
 43
0.00000001
 40
0.0
 40
0.0
 40
0.0
 40
0.0
 40
0.8530114299624526
 40
1.0
 40
1.0
 40
1.0
 40
1.0
 10
17.61398276984692
 20
-4.097922239452607
 30
0.0
 10
17.67238272962228
 20
-4.03839778425177
 30
0.0
 10
17.74084600892198
 20
-3.968616239585414
 30
0.0
 10
17.8118494132986
 20
-3.931702580889775
 30
0.0
 10
17.82228610217572
 20
-3.926276694983251
 30
0.0
  0
SPLINE
  5
18C
330
1F
100
AcDbEntity
  8
외형선
  6
Continuous
 62
     1
370
    15
100
AcDbSpline
210
0.0
220
0.0
230
1.0
 70
     8
 71
     3
 72
    14
 73
    10
 74
     0
 42
0.000000001
 43
0.00000001
 40
0.0
 40
0.0
 40
0.0
 40
0.0
 40
0.0000829214104977
 40
0.0000829214104977
 40
0.0000829214104977
 40
0.0001559360992371
 40
0.0001559360992371
 40
0.0001559360992371
 40
0.0002315020119649
 40
0.0002315020119649
 40
0.0002315020119649
 40
0.0002315020119649
 10
17.45176385162536
 20
-4.217773365323563
 30
0.0
 10
17.4713415328724
 20
-4.208711945948086
 30
0.0
 10
17.49114026416414
 20
-4.197747367751244
 30
0.0
 10
17.5108049890959
 20
-4.184962135638183
 30
0.0
 10
17.52812523616192
 20
-4.173701190989172
 30
0.0
 10
17.54545729204324
 20
-4.16095247051238
 30
0.0
 10
17.56246039608207
 20
-4.146768028152484
 30
0.0
 10
17.58003121690645
 20
-4.132109981325843
 30
0.0
 10
17.59742358923605
 20
-4.115771621154293
 30
0.0
 10
17.61398311406844
 20
-4.097922090686526
 30
0.0
  0
SPLINE
  5
18D
330
1F
100
AcDbEntity
  8
외형선
  6
Continuous
 62
     1
370
    15
100
AcDbSpline
210
0.0
220
0.0
230
1.0
 70
     8
 71
     3
 72
     8
 73
     4
 74
     0
 42
0.000000001
 43
0.00000001
 40
0.0
 40
0.0
 40
0.0
 40
0.0
 40
1.0
 40
1.0
 40
1.0
 40
1.0
 10
17.45176385174916
 20
-4.217773365265327
 30
0.0
 10
17.24911541945262
 20
-4.311568049515221
 30
0.0
 10
17.04662353685065
 20
-4.393913118023329
 30
0.0
 10
16.84671240586318
 20
-4.463975701549485
 30
0.0
  0
SPLINE
  5
18E
330
1F
100
AcDbEntity
  8
외형선
  6
Continuous
 62
     1
370
    15
100
AcDbSpline
210
0.0
220
0.0
230
1.0
 70
     8
 71
     3
 72
    14
 73
    10
 74
     0
 42
0.000000001
 43
0.00000001
 40
0.0
 40
0.0
 40
0.0
 40
0.0
 40
0.0000775198821982
 40
0.0000775198821982
 40
0.0000775198821982
 40
0.0001598392384471
 40
0.0001598392384471
 40
0.0001598392384471
 40
0.0002443182005128
 40
0.0002443182005128
 40
0.0002443182005128
 40
0.0002443182005128
 10
16.68412862675357
 20
-4.470263530720035
 30
0.0
 10
16.69960755854241
 20
-4.47573188916736
 30
0.0
 10
16.715996871001
 20
-4.479066999193739
 30
0.0
 10
16.73285500078567
 20
-4.480458317200344
 30
0.0
 10
16.75075779507925
 20
-4.48193585239478
 30
0.0
 10
16.76931726163252
 20
-4.481233801094673
 30
0.0
 10
16.78815419567054
 20
-4.47851694183958
 30
0.0
 10
16.80748491586249
 20
-4.475728863591014
 30
0.0
 10
16.82723642765456
 20
-4.470802833164347
 30
0.0
 10
16.84709219808583
 20
-4.463842582650762
 30
0.0
  0
SPLINE
  5
18F
330
1F
100
AcDbEntity
  8
외형선
  6
Continuous
 62
     1
370
    15
100
AcDbSpline
210
0.0
220
0.0
230
1.0
 70
     8
 71
     3
 72
    10
 73
     6
 74
     0
 42
0.000000001
 43
0.00000001
 40
0.0
 40
0.0
 40
0.0
 40
0.0
 40
0.5
 40
0.5
 40
1.0
 40
1.0
 40
1.0
 40
1.0
 10
16.03508103680327
 20
-4.629838475683665
 30
0.0
 10
16.13920186766592
 20
-4.536417718424572
 30
0.0
 10
16.25716574155651
 20
-4.484689619352402
 30
0.0
 10
16.48078021321002
 20
-4.435375624873063
 30
0.0
 10
16.58959516312982
 20
-4.436866984277597
 30
0.0
 10
16.68412862675344
 20
-4.470263530719922
 30
0.0
  0
SPLINE
  5
190
330
1F
100
AcDbEntity
  8
외형선
  6
Continuous
 62
     1
370
    15
100
AcDbSpline
210
0.0
220
0.0
230
1.0
 70
     8
 71
     3
 72
    14
 73
    10
 74
     0
 42
0.000000001
 43
0.00000001
 40
0.0
 40
0.0
 40
0.0
 40
0.0
 40
0.0000824051285108
 40
0.0000824051285108
 40
0.0000824051285108
 40
0.0001553131775159
 40
0.0001553131775159
 40
0.0001553131775159
 40
0.0002307930382258
 40
0.0002307930382258
 40
0.0002307930382258
 40
0.0002307930382258
 10
15.87343852475462
 20
-4.707813717536776
 30
0.0
 10
15.8928807749112
 20
-4.704881643058791
 30
0.0
 10
15.91254528014166
 20
-4.699813236245656
 30
0.0
 10
15.93207952957337
 20
-4.692526144304945
 30
0.0
 10
15.94936678372595
 20
-4.686077275570437
 30
0.0
 10
15.96666839668047
 20
-4.677847165985515
 30
0.0
 10
15.98364053643977
 20
-4.667724877839486
 30
0.0
 10
16.00118485384412
 20
-4.657261339440044
 30
0.0
 10
16.0185512113127
 20
-4.644669598350437
 30
0.0
 10
16.03508103680327
 20
-4.629838475683674
 30
0.0
  0
SPLINE
  5
191
330
1F
100
AcDbEntity
  8
외형선
  6
Continuous
 62
     1
370
    15
100
AcDbSpline
210
0.0
220
0.0
230
1.0
 70
     8
 71
     3
 72
     8
 73
     4
 74
     0
 42
0.000000001
 43
0.00000001
 40
0.0
 40
0.0
 40
0.0
 40
0.0
 40
1.0
 40
1.0
 40
1.0
 40
1.0
 10
15.87381768943164
 20
-4.707756521190555
 30
0.0
 10
15.67100401656961
 20
-4.738358502279853
 30
0.0
 10
15.47103691921793
 20
-4.756106198039728
 30
0.0
 10
15.26946895105634
 20
-4.761064834917121
 30
0.0
  0
SPLINE
  5
192
330
1F
100
AcDbEntity
  8
외형선
  6
Continuous
 62
     1
370
    15
100
AcDbSpline
210
0.0
220
0.0
230
1.0
 70
     8
 71
     3
 72
    14
 73
    10
 74
     0
 42
0.000000001
 43
0.00000001
 40
0.0
 40
0.0
 40
0.0
 40
0.0
 40
0.0000773716945668
 40
0.0000773716945668
 40
0.0000773716945668
 40
0.0001594667864407
 40
0.0001594667864407
 40
0.0001594667864407
 40
0.0002437234058219
 40
0.0002437234058219
 40
0.0002437234058219
 40
0.0002437234058219
 10
15.10691636717324
 20
-4.708864529499298
 30
0.0
 10
15.12239317123127
 20
-4.720518914914337
 30
0.0
 10
15.13878269550366
 20
-4.730155920110226
 30
0.0
 10
15.15564487984478
 20
-4.737827228093863
 30
0.0
 10
15.17353734894125
 20
-4.7459672554029
 30
0.0
 10
15.1920899402304
 20
-4.751954171025114
 30
0.0
 10
15.21092399346439
 20
-4.755819120212499
 30
0.0
 10
15.23025341384158
 20
-4.759785724036504
 30
0.0
 10
15.25000903325001
 20
-4.761545128094239
 30
0.0
 10
15.2698476997424
 20
-4.761055502419249
 30
0.0
  0
SPLINE
  5
193
330
1F
100
AcDbEntity
  8
외형선
  6
Continuous
 62
     1
370
    15
100
AcDbSpline
210
0.0
220
0.0
230
1.0
 70
     8
 71
     3
 72
    10
 73
     6
 74
     0
 42
0.000000001
 43
0.00000001
 40
0.0
 40
0.0
 40
0.0
 40
0.0
 40
0.2853505746322941
 40
0.717416989181348
 40
0.9999999999999999
 40
0.9999999999999999
 40
0.9999999999999999
 40
0.9999999999999999
 10
14.45651611983777
 20
-4.658007062971598
 30
0.0
 10
14.51481275413488
 20
-4.63214763517729
 30
0.0
 10
14.66137981786248
 20
-4.567132897239403
 30
0.0
 10
14.88449697385131
 20
-4.583717064236754
 30
0.0
 10
15.01901943110114
 20
-4.661009392499776
 30
0.0
 10
15.07221161127091
 20
-4.691571928560739
 30
0.0
  0
SPLINE
  5
194
330
1F
100
AcDbEntity
  8
외형선
  6
Continuous
 62
     1
370
    15
100
AcDbSpline
210
0.0
220
0.0
230
1.0
 70
     8
 71
     3
 72
    14
 73
    10
 74
     0
 42
0.000000001
 43
0.00000001
 40
0.0
 40
0.0
 40
0.0
 40
0.0
 40
0.0000832444233647
 40
0.0000832444233647
 40
0.0000832444233647
 40
0.0001563038117358
 40
0.0001563038117358
 40
0.0001563038117358
 40
0.0002319137414355
 40
0.0002319137414355
 40
0.0002319137414355
 40
0.0002319137414355
 10
14.29426041700678
 20
-4.68565858551406
 30
0.0
 10
14.31386617770079
 20
-4.689171680184261
 30
0.0
 10
14.33369919911711
 20
-4.690511264576892
 30
0.0
 10
14.35340420642179
 20
-4.689435264440137
 30
0.0
 10
14.37070339230878
 20
-4.688490635184623
 30
0.0
 10
14.388019233476
 20
-4.685677749589206
 30
0.0
 10
14.40501171433991
 20
-4.680731304437702
 30
0.0
 10
14.4225709101523
 20
-4.675619890766793
 30
0.0
 10
14.43995755111088
 20
-4.668176502999617
 30
0.0
 10
14.4565160136576
 20
-4.658006962959866
 30
0.0
  0
SPLINE
  5
195
330
1F
100
AcDbEntity
  8
외형선
  6
Continuous
 62
     1
370
    15
100
AcDbSpline
210
0.0
220
0.0
230
1.0
 70
     8
 71
     3
 72
     8
 73
     4
 74
     0
 42
0.000000001
 43
0.00000001
 40
0.0
 40
0.0
 40
0.0
 40
0.0
 40
1.0
 40
1.0
 40
1.0
 40
1.0
 10
14.29426605902301
 20
-4.68565959648473
 30
0.0
 10
14.09221701829716
 20
-4.649455304093787
 30
0.0
 10
13.89217610132012
 20
-4.600733078711327
 30
0.0
 10
13.68915222366795
 20
-4.539427967834095
 30
0.0
  0
SPLINE
  5
196
330
1F
100
AcDbEntity
  8
외형선
  6
Continuous
 62
     1
370
    15
100
AcDbSpline
210
0.0
220
0.0
230
1.0
 70
     8
 71
     3
 72
    14
 73
    10
 74
     0
 42
0.000000001
 43
0.00000001
 40
0.0
 40
0.0
 40
0.0
 40
0.0
 40
0.0000773288887893
 40
0.0000773288887893
 40
0.0000773288887893
 40
0.000159379621328
 40
0.000159379621328
 40
0.000159379621328
 40
0.0002435927059399
 40
0.0002435927059399
 40
0.0002435927059399
 40
0.0002435927059399
 10
13.52606292345518
 20
-4.434595835624811
 30
0.0
 10
13.54154732321057
 20
-4.451149057230658
 30
0.0
 10
13.55794681732551
 20
-4.466013731397214
 30
0.0
 10
13.57482171741963
 20
-4.479101775517561
 30
0.0
 10
13.59272788752278
 20
-4.492989664810491
 30
0.0
 10
13.61129741438121
 20
-4.504978157842983
 30
0.0
 10
13.63015153727592
 20
-4.514965467877643
 30
0.0
 10
13.64950198237306
 20
-4.52521568718369
 30
0.0
 10
13.66928220643594
 20
-4.533428000337446
 30
0.0
 10
13.68914835110556
 20
-4.539426798474414
 30
0.0
  0
SPLINE
  5
197
330
1F
100
AcDbEntity
  8
외형선
  6
Continuous
 62
     1
370
    15
100
AcDbSpline
210
0.0
220
0.0
230
1.0
 70
     8
 71
     3
 72
    10
 73
     6
 74
     0
 42
0.000000001
 43
0.00000001
 40
0.0
 40
0.0
 40
0.0
 40
0.0
 40
0.5
 40
0.5
 40
1.0
 40
1.0
 40
1.0
 40
1.0
 10
12.87594549093623
 20
-4.178216937951461
 30
0.0
 10
12.98000671660236
 20
-4.150662501341007
 30
0.0
 10
13.09792484036111
 20
-4.16929903286495
 30
0.0
 10
13.32189803642935
 20
-4.260095768657545
 30
0.0
 10
13.43112814288862
 20
-4.333108113423932
 30
0.0
 10
13.52606292345516
 20
-4.434595835624803
 30
0.0
  0
SPLINE
  5
198
330
1F
100
AcDbEntity
  8
외형선
  6
Continuous
 62
     1
370
    15
100
AcDbSpline
210
0.0
220
0.0
230
1.0
 70
     8
 71
     3
 72
    14
 73
    10
 74
     0
 42
0.000000001
 43
0.00000001
 40
0.0
 40
0.0
 40
0.0
 40
0.0
 40
0.0000833576960496
 40
0.0000833576960496
 40
0.0000833576960496
 40
0.0001564421428196
 40
0.0001564421428196
 40
0.0001564421428196
 40
0.0002320761972514
 40
0.0002320761972514
 40
0.0002320761972514
 40
0.0002320761972514
 10
12.71395520245567
 20
-4.152030392897714
 30
0.0
 10
12.73353975347525
 20
-4.161685178516598
 30
0.0
 10
12.75334080430081
 20
-4.169390069172014
 30
0.0
 10
12.77302290218937
 20
-4.174762767832283
 30
0.0
 10
12.79028450084947
 20
-4.179474733422553
 30
0.0
 10
12.80756543519652
 20
-4.182425879875064
 30
0.0
 10
12.82452676809568
 20
-4.183227769584644
 30
0.0
 10
12.84205335628805
 20
-4.184056383161128
 30
0.0
 10
12.85941102946317
 20
-4.182595108279846
 30
0.0
 10
12.87594549093624
 20
-4.178216937951456
 30
0.0
  0
SPLINE
  5
199
330
1F
100
AcDbEntity
  8
외형선
  6
Continuous
 62
     1
370
    15
100
AcDbSpline
210
0.0
220
0.0
230
1.0
 70
     8
 71
     3
 72
     8
 73
     4
 74
     0
 42
0.000000001
 43
0.00000001
 40
0.0
 40
0.0
 40
0.0
 40
0.0
 40
1.0
 40
1.0
 40
1.0
 40
1.0
 10
12.71395520302043
 20
-4.152030393175059
 30
0.0
 10
12.51467507153864
 20
-4.053789338516296
 30
0.0
 10
12.31273023155611
 20
-3.944021911347972
 30
0.0
 10
12.11052495172185
 20
-3.823887864567189
 30
0.0
  0
SPLINE
  5
19A
330
1F
100
AcDbEntity
  8
외형선
  6
Continuous
 62
     1
370
    15
100
AcDbSpline
210
0.0
220
0.0
230
1.0
 70
     8
 71
     3
 72
    14
 73
    10
 74
     0
 42
0.000000001
 43
0.00000001
 40
0.0
 40
0.0
 40
0.0
 40
0.0
 40
0.0000770625017707
 40
0.0000770625017707
 40
0.0000770625017707
 40
0.0001588495138866
 40
0.0001588495138866
 40
0.0001588495138866
 40
0.0002428052135024
 40
0.0002428052135024
 40
0.0002428052135024
 40
0.0002428052135024
 10
11.94831942322885
 20
-3.67854159725047
 30
0.0
 10
11.96374043674675
 20
-3.698132747825114
 30
0.0
 10
11.98007620531608
 20
-3.71655144947401
 30
0.0
 10
11.99689011191469
 20
-3.733577952718059
 30
0.0
 10
12.01473552128235
 20
-3.751649001150972
 30
0.0
 10
12.03324741715748
 20
-3.76828254385329
 30
0.0
 10
12.05204772200743
 20
-3.783252090017637
 30
0.0
 10
12.0713458099799
 20
-3.79861799078856
 30
0.0
 10
12.09107824028164
 20
-3.812335419011198
 30
0.0
 10
12.11089956036584
 20
-3.824110415133448
 30
0.0
  0
SPLINE
  5
19B
330
1F
100
AcDbEntity
  8
외형선
  6
Continuous
 62
     1
370
    15
100
AcDbSpline
210
0.0
220
0.0
230
1.0
 70
     8
 71
     3
 72
    10
 73
     6
 74
     0
 42
0.000000001
 43
0.00000001
 40
0.0
 40
0.0
 40
0.0
 40
0.0
 40
0.5
 40
0.5
 40
1.0
 40
1.0
 40
1.0
 40
1.0
 10
11.29864279962972
 20
-3.24400091875785
 30
0.0
 10
11.40271055431429
 20
-3.255994882917502
 30
0.0
 10
11.52029851884351
 20
-3.309185720515558
 30
0.0
 10
11.74410266117184
 20
-3.4591999120143
 30
0.0
 10
11.85338214821358
 20
-3.557931466936223
 30
0.0
 10
11.94831942322872
 20
-3.678541597250378
 30
0.0
  0
SPLINE
  5
19C
330
1F
100
AcDbEntity
  8
외형선
  6
Continuous
 62
     1
370
    15
100
AcDbSpline
210
0.0
220
0.0
230
1.0
 70
     8
 71
     3
 72
    14
 73
    10
 74
     0
 42
0.000000001
 43
0.00000001
 40
0.0
 40
0.0
 40
0.0
 40
0.0
 40
0.0000833139606638
 40
0.0000833139606638
 40
0.0000833139606638
 40
0.0001564267661217
 40
0.0001564267661217
 40
0.0001564267661217
 40
0.0002320720979597
 40
0.0002320720979597
 40
0.0002320720979597
 40
0.0002320720979597
 10
11.13648027450224
 20
-3.167121215711289
 30
0.0
 10
11.15610747287913
 20
-3.181794510887076
 30
0.0
 10
11.17595042231888
 20
-3.194951456927484
 30
0.0
 10
11.19565337958998
 20
-3.206136065213399
 30
0.0
 10
11.21294918640312
 20
-3.215954227103122
 30
0.0
 10
11.23025208463696
 20
-3.224317719289666
 30
0.0
 10
11.24722535441868
 20
-3.230763042647974
 30
0.0
 10
11.26476051258417
 20
-3.237421733988485
 30
0.0
 10
11.28211491864018
 20
-3.242096055784629
 30
0.0
 10
11.29864279962781
 20
-3.244000918753986
 30
0.0
  0
SPLINE
  5
19D
330
1F
100
AcDbEntity
  8
외형선
  6
Continuous
 62
     1
370
    15
100
AcDbSpline
210
0.0
220
0.0
230
1.0
 70
     8
 71
     3
 72
     8
 73
     4
 74
     0
 42
0.000000001
 43
0.00000001
 40
0.0
 40
0.0
 40
0.0
 40
0.0
 40
1.0
 40
1.0
 40
1.0
 40
1.0
 10
11.13648033178278
 20
-3.167121258533331
 30
0.0
 10
10.93576977150946
 20
-3.017070028041619
 30
0.0
 10
10.73325804742096
 20
-2.85808231104729
 30
0.0
 10
10.53137259706842
 20
-2.692020017269857
 30
0.0
  0
SPLINE
  5
19E
330
1F
100
AcDbEntity
  8
외형선
  6
Continuous
 62
     1
370
    15
100
AcDbSpline
210
0.0
220
0.0
230
1.0
 70
     8
 71
     3
 72
    14
 73
    10
 74
     0
 42
0.000000001
 43
0.00000001
 40
0.0
 40
0.0
 40
0.0
 40
0.0
 40
0.0000775293779657
 40
0.0000775293779657
 40
0.0000775293779657
 40
0.0001595397318316
 40
0.0001595397318316
 40
0.0001595397318316
 40
0.0002437049771751
 40
0.0002437049771751
 40
0.0002437049771751
 40
0.0002437049771751
 10
10.3685323365684
 20
-2.520932610397082
 30
0.0
 10
10.38404727449762
 20
-2.541594511744159
 30
0.0
 10
10.40048100394183
 20
-2.561713095742276
 30
0.0
 10
10.41739463010081
 20
-2.580963216056804
 30
0.0
 10
10.43528694557527
 20
-2.601327224481223
 30
0.0
 10
10.45384387018987
 20
-2.620865193050471
 30
0.0
 10
10.47269013325648
 20
-2.639257076390153
 30
0.0
 10
10.49203090044901
 20
-2.658131541457719
 30
0.0
 10
10.5118060013539
 20
-2.675926108790014
 30
0.0
 10
10.53167289877515
 20
-2.692267026971272
 30
0.0
  0
SPLINE
  5
19F
330
1F
100
AcDbEntity
  8
외형선
  6
Continuous
 62
     1
370
    15
100
AcDbSpline
210
0.0
220
0.0
230
1.0
 70
     8
 71
     3
 72
    10
 73
     6
 74
     0
 42
0.000000001
 43
0.00000001
 40
0.4229219005335707
 40
0.4229219005335707
 40
0.4229219005335707
 40
0.4229219005335707
 40
0.5
 40
0.5
 40
1.0
 40
1.0
 40
1.0
 40
1.0
 10
10.0
 20
-2.139286721759943
 30
0.0
 10
10.01746725123049
 20
-2.153473151657591
 30
0.0
 10
10.03486101950488
 20
-2.168078025030597
 30
0.0
 10
10.16399928436039
 20
-2.280083973361429
 30
0.0
 10
10.27336882184888
 20
-2.394199318781884
 30
0.0
 10
10.3685323365683
 20
-2.520932610397064
 30
0.0
  0
SPLINE
  5
1AF
330
1F
100
AcDbEntity
  8
외형선
  6
Continuous
 62
     1
370
    15
100
AcDbSpline
210
0.0
220
0.0
230
1.0
 70
     8
 71
     3
 72
     8
 73
     4
 74
     0
 42
0.000000001
 43
0.00000001
 40
0.0
 40
0.0
 40
0.0
 40
0.0
 40
0.1352064271053502
 40
0.1352064271053502
 40
0.1352064271053502
 40
0.1352064271053502
 10
10.08691754609514
 20
2.717014136619708
 30
0.0
 10
10.0588087404722
 20
2.724817246345221
 30
0.0
 10
10.02970941058928
 20
2.735379582804872
 30
0.0
 10
10.00000000000001
 20
2.748329995900591
 30
0.0
  0
SPLINE
  5
1B0
330
1F
100
AcDbEntity
  8
외형선
  6
Continuous
 62
     1
370
    15
100
AcDbSpline
210
0.0
220
0.0
230
1.0
 70
     8
 71
     3
 72
    14
 73
    10
 74
     0
 42
0.000000001
 43
0.00000001
 40
0.0
 40
0.0
 40
0.0
 40
0.0
 40
0.0000828256445713
 40
0.0000828256445713
 40
0.0000828256445713
 40
0.0001558462428305
 40
0.0001558462428305
 40
0.0001558462428305
 40
0.0002314150580469
 40
0.0002314150580469
 40
0.0002314150580469
 40
0.0002314150580469
 10
10.24861239366856
 20
2.620685089336436
 30
0.0
 10
10.22909839555929
 20
2.636992634509054
 30
0.0
 10
10.20936978080967
 20
2.652037786949654
 30
0.0
 10
10.189780269291
 20
2.665343982224949
 30
0.0
 10
10.17250496714508
 20
2.677078248471165
 30
0.0
 10
10.15522232090942
 20
2.687538530654592
 30
0.0
 10
10.13827134378067
 20
2.69624040158231
 30
0.0
 10
10.12075496976709
 20
2.705232521896686
 30
0.0
 10
10.10342105938146
 20
2.712432699515749
 30
0.0
 10
10.08691754609524
 20
2.717014136619718
 30
0.0
  0
SPLINE
  5
1B1
330
1F
100
AcDbEntity
  8
외형선
  6
Continuous
 62
     1
370
    15
100
AcDbSpline
210
0.0
220
0.0
230
1.0
 70
     8
 71
     3
 72
     8
 73
     4
 74
     0
 42
0.000000001
 43
0.00000001
 40
0.0
 40
0.0
 40
0.0
 40
0.0
 40
1.0
 40
1.0
 40
1.0
 40
1.0
 10
10.85247953296256
 20
2.098033859188683
 30
0.0
 10
10.65073657176584
 20
2.278638391653518
 30
0.0
 10
10.44833437558774
 20
2.453798778684996
 30
0.0
 10
10.24769653792296
 20
2.621450414016588
 30
0.0
  0
SPLINE
  5
1B2
330
1F
100
AcDbEntity
  8
외형선
  6
Continuous
 62
     1
370
    15
100
AcDbSpline
210
0.0
220
0.0
230
1.0
 70
     8
 71
     3
 72
    14
 73
    10
 74
     0
 42
0.000000001
 43
0.00000001
 40
0.0
 40
0.0
 40
0.0
 40
0.0
 40
0.000077413480568
 40
0.000077413480568
 40
0.000077413480568
 40
0.0001593340411862
 40
0.0001593340411862
 40
0.0001593340411862
 40
0.0002434125401128
 40
0.0002434125401128
 40
0.0002434125401128
 40
0.0002434125401128
 10
11.01502066937455
 20
1.921941764591732
 30
0.0
 10
10.99953430397505
 20
1.942289794613386
 30
0.0
 10
10.98312999327505
 20
1.962397464720582
 30
0.0
 10
10.96624558859198
 20
1.981903979876502
 30
0.0
 10
10.94837711960328
 20
2.002547382334778
 30
0.0
 10
10.9298434348771
 20
2.02266524031034
 30
0.0
 10
10.91101988032414
 20
2.041905396476445
 30
0.0
 10
10.89170122346861
 20
2.061651612515192
 30
0.0
 10
10.87194746161723
 20
2.080606491964656
 30
0.0
 10
10.85210176417087
 20
2.09837203871385
 30
0.0
  0
SPLINE
  5
1B3
330
1F
100
AcDbEntity
  8
외형선
  6
Continuous
 62
     1
370
    15
100
AcDbSpline
210
0.0
220
0.0
230
1.0
 70
     8
 71
     3
 72
    10
 73
     6
 74
     0
 42
0.000000001
 43
0.00000001
 40
0.0
 40
0.0
 40
0.0
 40
0.0
 40
0.5
 40
0.5
 40
1.0
 40
1.0
 40
1.0
 40
1.0
 10
11.66562982406669
 20
1.316897306898626
 30
0.0
 10
11.5611309069755
 20
1.381949856223873
 30
0.0
 10
11.44314367904527
 20
1.473742084162008
 30
0.0
 10
11.21945581853604
 20
1.680143766124162
 30
0.0
 10
11.11012311886013
 20
1.796983619323679
 30
0.0
 10
11.01502066937455
 20
1.921941764591724
 30
0.0
  0
SPLINE
  5
1B4
330
1F
100
AcDbEntity
  8
외형선
  6
Continuous
 62
     1
370
    15
100
AcDbSpline
210
0.0
220
0.0
230
1.0
 70
     8
 71
     3
 72
    14
 73
    10
 74
     0
 42
0.000000001
 43
0.00000001
 40
0.0
 40
0.0
 40
0.0
 40
0.0
 40
0.0000830873879051
 40
0.0000830873879051
 40
0.0000830873879051
 40
0.0001561428193784
 40
0.0001561428193784
 40
0.0001561428193784
 40
0.0002317406358612
 40
0.0002317406358612
 40
0.0002317406358612
 40
0.0002317406358612
 10
11.82787543715681
 20
1.183486526837185
 30
0.0
 10
11.80826865510273
 20
1.202433892428495
 30
0.0
 10
11.78844364318163
 20
1.220765232035326
 30
0.0
 10
11.76875593577441
 20
1.23798465739921
 30
0.0
 10
11.75144023143378
 20
1.253129461837291
 30
0.0
 10
11.73411528880166
 20
1.267515045546672
 30
0.0
 10
11.71712015474191
 20
1.280651052282763
 30
0.0
 10
11.69955980981095
 20
1.294223926052994
 30
0.0
 10
11.6821795094551
 20
1.306594815207649
 30
0.0
 10
11.66562982406677
 20
1.316897306898571
 30
0.0
  0
SPLINE
  5
1B5
330
1F
100
AcDbEntity
  8
외형선
  6
Continuous
 62
     1
370
    15
100
AcDbSpline
210
0.0
220
0.0
230
1.0
 70
     8
 71
     3
 72
     8
 73
     4
 74
     0
 42
0.000000001
 43
0.00000001
 40
0.0
 40
0.0
 40
0.0
 40
0.0
 40
1.0
 40
1.0
 40
1.0
 40
1.0
 10
12.43281710371639
 20
0.591108963630169
 30
0.0
 10
12.23190507583729
 20
0.7904382204536226
 30
0.0
 10
12.02944924528003
 20
0.9886920610282993
 30
0.0
 10
11.82787543901804
 20
1.183486525038546
 30
0.0
  0
SPLINE
  5
1B6
330
1F
100
AcDbEntity
  8
외형선
  6
Continuous
 62
     1
370
    15
100
AcDbSpline
210
0.0
220
0.0
230
1.0
 70
     8
 71
     3
 72
    14
 73
    10
 74
     0
 42
0.000000001
 43
0.00000001
 40
0.0
 40
0.0
 40
0.0
 40
0.0
 40
0.0000777388500166
 40
0.0000777388500166
 40
0.0000777388500166
 40
0.0001598305528566
 40
0.0001598305528566
 40
0.0001598305528566
 40
0.0002440715457096
 40
0.0002440715457096
 40
0.0002440715457096
 40
0.0002440715457096
 10
12.59592575074159
 20
0.415804276614842
 30
0.0
 10
12.58039687151353
 20
0.4340243918964609
 30
0.0
 10
12.56394788201305
 20
0.4527054596024104
 30
0.0
 10
12.54701749930088
 20
0.4714314076077288
 30
0.0
 10
12.52913779865236
 20
0.4912073542231616
 30
0.0
 10
12.5105940157264
 20
0.5111737864249206
 30
0.0
 10
12.49175907230095
 20
0.5309358798810535
 30
0.0
 10
12.47243172026643
 20
0.5512146207584743
 30
0.0
 10
12.45266869161579
 20
0.5714137706155478
 30
0.0
 10
12.43281070455225
 20
0.5911153123812642
 30
0.0
  0
SPLINE
  5
1B7
330
1F
100
AcDbEntity
  8
외형선
  6
Continuous
 62
     1
370
    15
100
AcDbSpline
210
0.0
220
0.0
230
1.0
 70
     8
 71
     3
 72
    10
 73
     6
 74
     0
 42
0.000000001
 43
0.00000001
 40
0.0
 40
0.0
 40
0.0
 40
0.0
 40
0.5
 40
0.5
 40
1.0
 40
1.0
 40
1.0
 40
1.0
 10
13.24612903950281
 20
-0.2276488568401104
 30
0.0
 10
13.14165765307566
 20
-0.1337121342417686
 30
0.0
 10
13.02343073912617
 20
-0.027429476168358
 30
0.0
 10
12.79956723854619
 20
0.1902694937412071
 30
0.0
 10
12.6907982819389
 20
0.3044898391665459
 30
0.0
 10
12.59592575074157
 20
0.4158042766148654
 30
0.0
  0
SPLINE
  5
1B8
330
1F
100
AcDbEntity
  8
외형선
  6
Continuous
 62
     1
370
    15
100
AcDbSpline
210
0.0
220
0.0
230
1.0
 70
     8
 71
     3
 72
    14
 73
    10
 74
     0
 42
0.000000001
 43
0.00000001
 40
0.0
 40
0.0
 40
0.0
 40
0.0
 40
0.000082870009807
 40
0.000082870009807
 40
0.000082870009807
 40
0.0001558609786838
 40
0.0001558609786838
 40
0.0001558609786838
 40
0.0002314093419859
 40
0.0002314093419859
 40
0.0002314093419859
 40
0.0002314093419859
 10
14.98547726342775
 20
-1.905368287992271
 30
0.0
 10
14.96592151478486
 20
-1.887488174917522
 30
0.0
 10
14.9461426602348
 20
-1.868805052252507
 30
0.0
 10
14.92649527704475
 20
-1.849688578974231
 30
0.0
 10
14.9091852916751
 20
-1.832846342551931
 30
0.0
 10
14.89186152301553
 20
-1.815555010333354
 30
0.0
 10
14.87486553093856
 20
-1.798163826375655
 30
0.0
 10
14.85730056221368
 20
-1.78019043588911
 30
0.0
 10
14.83991243918165
 20
-1.761931943822175
 30
0.0
 10
14.82335784465261
 20
-1.744054584459272
 30
0.0
  0
SPLINE
  5
1B9
330
1F
100
AcDbEntity
  8
외형선
  6
Continuous
 62
     1
370
    15
100
AcDbSpline
210
0.0
220
0.0
230
1.0
 70
     8
 71
     3
 72
    14
 73
    10
 74
     0
 42
0.000000001
 43
0.00000001
 40
0.0
 40
0.0
 40
0.0
 40
0.0
 40
0.000077530490719
 40
0.000077530490719
 40
0.000077530490719
 40
0.0001597516179622
 40
0.0001597516179622
 40
0.0001597516179622
 40
0.000244130241224
 40
0.000244130241224
 40
0.000244130241224
 40
0.000244130241224
 10
15.75361708933788
 20
-2.560790377188214
 30
0.0
 10
15.73810695753689
 20
-2.552595244845131
 30
0.0
 10
15.72168348949631
 20
-2.542752289983133
 30
0.0
 10
15.70478807585122
 20
-2.531645481661922
 30
0.0
 10
15.68686947982737
 20
-2.519866047573917
 30
0.0
 10
15.66829209444621
 20
-2.506582331054722
 30
0.0
 10
15.64943438655068
 20
-2.492150799662255
 30
0.0
 10
15.63008230874747
 20
-2.477340934122192
 30
0.0
 10
15.61030556568337
 20
-2.46122389409719
 30
0.0
 10
15.59044631361366
 20
-2.444128542684663
 30
0.0
  0
SPLINE
  5
1BA
330
1F
100
AcDbEntity
  8
외형선
  6
Continuous
 62
     1
370
    15
100
AcDbSpline
210
0.0
220
0.0
230
1.0
 70
     8
 71
     3
 72
    10
 73
     6
 74
     0
 42
0.000000001
 43
0.00000001
 40
0.0
 40
0.0
 40
0.0
 40
0.0
 40
0.5
 40
0.5
 40
1.0
 40
1.0
 40
1.0
 40
1.0
 10
16.40425581594263
 20
-3.073915393609084
 30
0.0
 10
16.29995578766196
 20
-2.954507817802935
 30
0.0
 10
16.1818230517394
 20
-2.853628092861673
 30
0.0
 10
15.95768458333027
 20
-2.682986168787191
 30
0.0
 10
15.84849554709138
 20
-2.610921577088627
 30
0.0
 10
15.75361708933788
 20
-2.560790377188201
 30
0.0
  0
SPLINE
  5
1BB
330
1F
100
AcDbEntity
  8
외형선
  6
Continuous
 62
     1
370
    15
100
AcDbSpline
210
0.0
220
0.0
230
1.0
 70
     8
 71
     3
 72
    14
 73
    10
 74
     0
 42
0.000000001
 43
0.00000001
 40
0.0
 40
0.0
 40
0.0
 40
0.0
 40
0.0000830825063237
 40
0.0000830825063237
 40
0.0000830825063237
 40
0.000156121737381
 40
0.000156121737381
 40
0.000156121737381
 40
0.0002317145012018
 40
0.0002317145012018
 40
0.0002317145012018
 40
0.0002317145012018
 10
16.56641184297633
 20
-3.223627032633896
 30
0.0
 10
16.54683711135735
 20
-3.209206370032788
 30
0.0
 10
16.52703600109266
 20
-3.193361886560678
 30
0.0
 10
16.50736329491763
 20
-3.176335497180975
 30
0.0
 10
16.49006372139405
 20
-3.161363013360272
 30
0.0
 10
16.47274792052881
 20
-3.145376515887802
 30
0.0
 10
16.45575646935226
 20
-3.128590332139022
 30
0.0
 10
16.43819747118476
 20
-3.111243457724262
 30
0.0
 10
16.42081193046105
 20
-3.092869611858124
 30
0.0
 10
16.40425581594272
 20
-3.073915393609178
 30
0.0
  0
SPLINE
  5
1BC
330
1F
100
AcDbEntity
  8
외형선
  6
Continuous
 62
     1
370
    15
100
AcDbSpline
210
0.0
220
0.0
230
1.0
 70
     8
 71
     3
 72
     8
 73
     4
 74
     0
 42
0.000000001
 43
0.00000001
 40
0.0
 40
0.0
 40
0.0
 40
0.0
 40
1.0
 40
1.0
 40
1.0
 40
1.0
 10
17.17097686560682
 20
-3.642619310242693
 30
0.0
 10
16.96823520600651
 20
-3.512167492395831
 30
0.0
 10
16.76854511899505
 20
-3.372538181488399
 30
0.0
 10
16.56641184301545
 20
-3.223627032662717
 30
0.0
  0
SPLINE
  5
1BD
330
1F
100
AcDbEntity
  8
외형선
  6
Continuous
 62
     1
370
    15
100
AcDbSpline
210
0.0
220
0.0
230
1.0
 70
     8
 71
     3
 72
    14
 73
    10
 74
     0
 42
0.000000001
 43
0.00000001
 40
0.0
 40
0.0
 40
0.0
 40
0.0
 40
0.0000770052271393
 40
0.0000770052271393
 40
0.0000770052271393
 40
0.0001589497293776
 40
0.0001589497293776
 40
0.0001589497293776
 40
0.0002430674586806
 40
0.0002430674586806
 40
0.0002430674586806
 40
0.0002430674586806
 10
17.33326738641572
 20
-3.707906369202568
 30
0.0
 10
17.31786041684409
 20
-3.706398725421856
 30
0.0
 10
17.30154084474149
 20
-3.702909518348363
 30
0.0
 10
17.28474647144733
 20
-3.697737813086297
 30
0.0
 10
17.2668743613745
 20
-3.69223422661189
 30
0.0
 10
17.24833621862968
 20
-3.684787537008141
 30
0.0
 10
17.22951289721096
 20
-3.675673276129041
 30
0.0
 10
17.21019090973782
 20
-3.666317560917277
 30
0.0
 10
17.19043783896551
 20
-3.655142507606805
 30
0.0
 10
17.17059937381573
 20
-3.642376405381739
 30
0.0
  0
SPLINE
  5
1BE
330
1F
100
AcDbEntity
  8
외형선
  6
Continuous
 62
     1
370
    15
100
AcDbSpline
210
0.0
220
0.0
230
1.0
 70
     8
 71
     3
 72
    10
 73
     6
 74
     0
 42
0.000000001
 43
0.00000001
 40
0.0
 40
0.0
 40
0.0
 40
0.0
 40
0.5
 40
0.5
 40
1.0
 40
1.0
 40
1.0
 40
1.0
 10
17.98183169400319
 20
-4.067050910500665
 30
0.0
 10
17.87799773111186
 20
-3.954238560066415
 30
0.0
 10
17.76033406296771
 20
-3.87280548961556
 30
0.0
 10
17.53685166970928
 20
-3.755113322746995
 30
0.0
 10
17.42790323796484
 20
-3.717166928351249
 30
0.0
 10
17.33326738641571
 20
-3.707906369202551
 30
0.0
  0
SPLINE
  5
1BF
330
1F
100
AcDbEntity
  8
외형선
  6
Continuous
 62
     1
370
    15
100
AcDbSpline
210
0.0
220
0.0
230
1.0
 70
     8
 71
     3
 72
    14
 73
    10
 74
     0
 42
0.000000001
 43
0.00000001
 40
0.0
 40
0.0
 40
0.0
 40
0.0
 40
0.0000832420831961
 40
0.0000832420831961
 40
0.0000832420831961
 40
0.0001562974402531
 40
0.0001562974402531
 40
0.0001562974402531
 40
0.0002319085549441
 40
0.0002319085549441
 40
0.0002319085549441
 40
0.0002319085549441
 10
18.14377482354718
 20
-4.188744803263644
 30
0.0
 10
18.12421428709382
 20
-4.179380087255411
 30
0.0
 10
18.10442433657511
 20
-4.16812568216016
 30
0.0
 10
18.08475918568667
 20
-4.155065731210288
 30
0.0
 10
18.06749551521643
 20
-4.143600643002467
 30
0.0
 10
18.05021285933377
 20
-4.130667406344743
 30
0.0
 10
18.03325114650569
 20
-4.1163214263294
 30
0.0
 10
18.01572261242938
 20
-4.101496036812094
 30
0.0
 10
17.99836403647035
 20
-4.085012783090035
 30
0.0
 10
17.98183169400325
 20
-4.067050910500722
 30
0.0
  0
SPLINE
  5
1C0
330
1F
100
AcDbEntity
  8
외형선
  6
Continuous
 62
     1
370
    15
100
AcDbSpline
210
0.0
220
0.0
230
1.0
 70
     8
 71
     3
 72
     8
 73
     4
 74
     0
 42
0.000000001
 43
0.00000001
 40
0.0
 40
0.0
 40
0.0
 40
0.0
 40
1.0
 40
1.0
 40
1.0
 40
1.0
 10
18.74808702686305
 20
-4.442038169567784
 30
0.0
 10
18.54543770379763
 20
-4.369189992369782
 30
0.0
 10
18.3436290387621
 20
-4.284426125419308
 30
0.0
 10
18.14377479190034
 20
-4.188744788112537
 30
0.0
  0
SPLINE
  5
1C1
330
1F
100
AcDbEntity
  8
외형선
  6
Continuous
 62
     1
370
    15
100
AcDbSpline
210
0.0
220
0.0
230
1.0
 70
     8
 71
     3
 72
    14
 73
    10
 74
     0
 42
0.000000001
 43
0.00000001
 40
0.0
 40
0.0
 40
0.0
 40
0.0
 40
0.0000773498252425
 40
0.0000773498252425
 40
0.0000773498252425
 40
0.0001593164299349
 40
0.0001593164299349
 40
0.0001593164299349
 40
0.0002434434035842
 40
0.0002434434035842
 40
0.0002434434035842
 40
0.0002434434035842
 10
18.91113640088955
 20
-4.450340640766763
 30
0.0
 10
18.89564623694876
 20
-4.455571584868512
 30
0.0
 10
18.87923950663681
 20
-4.458681203125358
 30
0.0
 10
18.862355152423
 20
-4.459857749169265
 30
0.0
 10
18.84446208463187
 20
-4.461104585018385
 30
0.0
 10
18.82590476525511
 20
-4.460191288391523
 30
0.0
 10
18.80706054162917
 20
-4.457279292233258
 30
0.0
 10
18.78772030164444
 20
-4.454290646712305
 30
0.0
 10
18.76794788266289
 20
-4.449177729965292
 30
0.0
 10
18.74808710421065
 20
-4.44203819737264
 30
0.0
  0
SPLINE
  5
1C2
330
1F
100
AcDbEntity
  8
외형선
  6
Continuous
 62
     1
370
    15
100
AcDbSpline
210
0.0
220
0.0
230
1.0
 70
     8
 71
     3
 72
    10
 73
     6
 74
     0
 42
0.000000001
 43
0.00000001
 40
0.0
 40
0.0
 40
0.0
 40
0.0
 40
0.5
 40
0.5
 40
1.0
 40
1.0
 40
1.0
 40
1.0
 10
19.5619512507751
 20
-4.61868670614368
 30
0.0
 10
19.45776208311516
 20
-4.524391173017094
 30
0.0
 10
19.33990705351417
 20
-4.471145896161153
 30
0.0
 10
19.11572484952034
 20
-4.418506764402133
 30
0.0
 10
19.00627464900446
 20
-4.418212971897034
 30
0.0
 10
18.91113640088955
 20
-4.450340640766755
 30
0.0
  0
SPLINE
  5
1C3
330
1F
100
AcDbEntity
  8
외형선
  6
Continuous
 62
     1
370
    15
100
AcDbSpline
210
0.0
220
0.0
230
1.0
 70
     8
 71
     3
 72
    14
 73
    10
 74
     0
 42
0.000000001
 43
0.00000001
 40
0.0
 40
0.0
 40
0.0
 40
0.0
 40
0.0000835018592247
 40
0.0000835018592247
 40
0.0000835018592247
 40
0.0001566597582484
 40
0.0001566597582484
 40
0.0001566597582484
 40
0.0002323428070469
 40
0.0002323428070469
 40
0.0002323428070469
 40
0.0002323428070469
 10
19.72424551385478
 20
-4.698699815635397
 30
0.0
 10
19.7045813525082
 20
-4.695486208649589
 30
0.0
 10
19.68470144671314
 20
-4.690105730846544
 30
0.0
 10
19.66496218632106
 20
-4.682485758397545
 30
0.0
 10
19.64766264375835
 20
-4.67580759340606
 30
0.0
 10
19.63035641355668
 20
-4.667364984618442
 30
0.0
 10
19.61337901047215
 20
-4.657053598093545
 30
0.0
 10
19.59584155370583
 20
-4.646402057661787
 30
0.0
 10
19.57848442442376
 20
-4.633649916412931
 30
0.0
 10
19.56195125077519
 20
-4.618686706143764
 30
0.0
  0
SPLINE
  5
1C4
330
1F
100
AcDbEntity
  8
외형선
  6
Continuous
 62
     1
370
    15
100
AcDbSpline
210
0.0
220
0.0
230
1.0
 70
     8
 71
     3
 72
     8
 73
     4
 74
     0
 42
0.000000001
 43
0.00000001
 40
0.0
 40
0.0
 40
0.0
 40
0.0
 40
1.0
 40
1.0
 40
1.0
 40
1.0
 10
20.32898874758426
 20
-4.759215428211342
 30
0.0
 10
20.1269509752403
 20
-4.751736236059629
 30
0.0
 10
19.92443330112749
 20
-4.731431618420303
 30
0.0
 10
19.72386305864167
 20
-4.698637297598047
 30
0.0
  0
SPLINE
  5
1C5
330
1F
100
AcDbEntity
  8
외형선
  6
Continuous
 62
     1
370
    15
100
AcDbSpline
210
0.0
220
0.0
230
1.0
 70
     8
 71
     3
 72
    14
 73
    10
 74
     0
 42
0.000000001
 43
0.00000001
 40
0.0
 40
0.0
 40
0.0
 40
0.0
 40
0.0000773323911261
 40
0.0000773323911261
 40
0.0000773323911261
 40
0.0001592936340223
 40
0.0001592936340223
 40
0.0001592936340223
 40
0.0002434164518404
 40
0.0002434164518404
 40
0.0002434164518404
 40
0.0002434164518404
 10
20.4919446853631
 20
-4.709162804207264
 30
0.0
 10
20.47647174529686
 20
-4.720600715728687
 30
0.0
 10
20.46008135794492
 20
-4.730015925544569
 30
0.0
 10
20.44321154042427
 20
-4.73746351204205
 30
0.0
 10
20.42533104058397
 20
-4.745357288546497
 30
0.0
 10
20.40678413755561
 20
-4.751098914185055
 30
0.0
 10
20.38794768862629
 20
-4.754721265233878
 30
0.0
 10
20.36861513490726
 20
-4.758439019918072
 30
0.0
 10
20.3488475727212
 20
-4.759950577720087
 30
0.0
 10
20.32898874761358
 20
-4.75921542821245
 30
0.0
  0
LINE
  5
1C6
330
1F
100
AcDbEntity
  8
외형선
  6
Continuous
 62
     1
370
    15
100
AcDbLine
 10
20.55357022881508
 20
-4.679186735302217
 30
0.0
 11
20.49194461405277
 21
-4.709162749350077
 31
0.0
  0
SPLINE
  5
1CA
330
1F
100
AcDbEntity
  8
외형선
  6
Continuous
 62
     1
370
    15
100
AcDbSpline
210
0.0
220
0.0
230
1.0
 70
     8
 71
     3
 72
    12
 73
     8
 74
     0
 42
0.000000001
 43
0.00000001
 40
0.0
 40
0.0
 40
0.0
 40
0.0
 40
0.25
 40
0.25
 40
0.5
 40
0.5
 40
1.0
 40
1.0
 40
1.0
 40
1.0
 10
22.32440686064458
 20
-1.763096412846149
 30
0.0
 10
22.31478894006897
 20
-1.588735030933422
 30
0.0
 10
22.30533205554461
 20
-1.41111815045678
 30
0.0
 10
22.28692540669504
 20
-1.053382914689242
 30
0.0
 10
22.27816398050379
 20
-0.8745329693986661
 30
0.0
 10
22.25144331927577
 20
-0.3304685946644667
 30
0.0
 10
22.23242664164901
 20
0.0466652506207646
 30
0.0
 10
22.2129393118529
 20
0.4228397800790425
 30
0.0
  0
SPLINE
  5
1CB
330
1F
100
AcDbEntity
  8
외형선
  6
Continuous
 62
     1
370
    15
100
AcDbSpline
210
0.0
220
0.0
230
1.0
 70
     8
 71
     3
 72
    10
 73
     6
 74
     0
 42
0.000000001
 43
0.00000001
 40
0.0
 40
0.0
 40
0.0
 40
0.0
 40
0.4999999999999998
 40
0.4999999999999998
 40
1.0
 40
1.0
 40
1.0
 40
1.0
 10
26.82993875073196
 20
1.144575567910054
 30
0.0
 10
26.81042505565825
 20
1.512920383149093
 30
0.0
 10
26.79100682882954
 20
1.869510719751067
 30
0.0
 10
26.75393908315564
 20
2.531193948241584
 30
0.0
 10
26.73702292410168
 20
2.832852201346834
 30
0.0
 10
26.71871360541461
 20
3.11397526441539
 30
0.0
  0
SPLINE
  5
1CC
330
1F
100
AcDbEntity
  8
외형선
  6
Continuous
 62
     1
370
    15
100
AcDbSpline
210
0.0
220
0.0
230
1.0
 70
     8
 71
     3
 72
     8
 73
     4
 74
     0
 42
0.000000001
 43
0.00000001
 40
0.0
 40
0.0
 40
0.0
 40
0.0
 40
1.0
 40
1.0
 40
1.0
 40
1.0
 10
27.32169715722146
 20
2.635415684772331
 30
0.0
 10
27.12114668885058
 20
2.802250246600223
 30
0.0
 10
26.91935330347998
 20
2.962407374127162
 30
0.0
 10
26.71871943858025
 20
3.113977155350364
 30
0.0
  0
SPLINE
  5
1CD
330
1F
100
AcDbEntity
  8
외형선
  6
Continuous
 62
     1
370
    15
100
AcDbSpline
210
0.0
220
0.0
230
1.0
 70
     8
 71
     3
 72
    10
 73
     6
 74
     0
 42
0.000000001
 43
0.00000001
 40
0.0
 40
0.0
 40
0.0
 40
0.0
 40
0.5000000000000001
 40
0.5000000000000001
 40
1.0
 40
1.0
 40
1.0
 40
1.0
 10
27.43487034829952
 20
0.55117265335703
 30
0.0
 10
27.41563897556909
 20
0.9244718151695422
 30
0.0
 10
27.39605716717461
 20
1.294758207756034
 30
0.0
 10
27.35781813581164
 20
1.998678854109077
 30
0.0
 10
27.33917450168034
 20
2.332079436371822
 30
0.0
 10
27.321697077428
 20
2.635416859289994
 30
0.0
  0
SPLINE
  5
1CE
330
1F
100
AcDbEntity
  8
외형선
  6
Continuous
 62
     1
370
    15
100
AcDbSpline
210
0.0
220
0.0
230
1.0
 70
     8
 71
     3
 72
    10
 73
     6
 74
     0
 42
0.000000001
 43
0.00000001
 40
0.0
 40
0.0
 40
0.0
 40
0.0
 40
0.5000000000000001
 40
0.5000000000000001
 40
1.0
 40
1.0
 40
1.0
 40
1.0
 10
19.32882895453615
 20
1.165513737414688
 30
0.0
 10
19.3093090240393
 20
1.533603756361518
 30
0.0
 10
19.28990086981008
 20
1.889623807590298
 30
0.0
 10
19.25288290335032
 20
2.549654129282513
 30
0.0
 10
19.23597235406221
 20
2.850467615451278
 30
0.0
 10
19.2176159523511
 20
3.130782940653725
 30
0.0
  0
SPLINE
  5
1CF
330
1F
100
AcDbEntity
  8
외형선
  6
Continuous
 62
     1
370
    15
100
AcDbSpline
210
0.0
220
0.0
230
1.0
 70
     8
 71
     3
 72
    10
 73
     6
 74
     0
 42
0.000000001
 43
0.00000001
 40
0.0
 40
0.0
 40
0.0
 40
0.0
 40
0.5
 40
0.5
 40
1.0
 40
1.0
 40
1.0
 40
1.0
 10
19.9339307926346
 20
0.5694026205607633
 30
0.0
 10
19.91468430520467
 20
0.9426798416618906
 30
0.0
 10
19.8951005559456
 20
1.312679108478189
 30
0.0
 10
19.85688440750077
 20
2.015540363435655
 30
0.0
 10
19.83826553270729
 20
2.348170569291788
 30
0.0
 10
19.82082297729065
 20
2.650579611414309
 30
0.0
  0
SPLINE
  5
1D0
330
1F
100
AcDbEntity
  8
외형선
  6
Continuous
 62
     1
370
    15
100
AcDbSpline
210
0.0
220
0.0
230
1.0
 70
     8
 71
     3
 72
    10
 73
     6
 74
     0
 42
0.000000001
 43
0.00000001
 40
0.0
 40
0.0
 40
0.0
 40
0.0
 40
0.5
 40
0.5
 40
1.0
 40
1.0
 40
1.0
 40
1.0
 10
11.82787547821538
 20
1.183485753263601
 30
0.0
 10
11.80835856985394
 20
1.551198686684931
 30
0.0
 10
11.78896735493064
 20
1.906581032546695
 30
0.0
 10
11.75200656442118
 20
2.564950911239781
 30
0.0
 10
11.73510309198797
 20
2.864964133994438
 30
0.0
 10
11.7167155802763
 20
3.144501569635214
 30
0.0
  0
SPLINE
  5
1D1
330
1F
100
AcDbEntity
  8
외형선
  6
Continuous
 62
     1
370
    15
100
AcDbSpline
210
0.0
220
0.0
230
1.0
 70
     8
 71
     3
 72
    10
 73
     6
 74
     0
 42
0.000000001
 43
0.00000001
 40
0.0
 40
0.0
 40
0.0
 40
0.0
 40
0.4999999999999998
 40
0.4999999999999998
 40
1.0
 40
1.0
 40
1.0
 40
1.0
 10
12.4328110360915
 20
0.5911088887885345
 30
0.0
 10
12.41354620457448
 20
0.9643661860328613
 30
0.0
 10
12.39395981966358
 20
1.334028989185869
 30
0.0
 10
12.35577037693646
 20
2.035637068099696
 30
0.0
 10
12.33718076682705
 20
2.367352813055423
 30
0.0
 10
12.31977958370097
 20
2.668657786833396
 30
0.0
  0
SPLINE
  5
1D2
330
1F
100
AcDbEntity
  8
외형선
  6
Continuous
 62
     1
370
    15
100
AcDbSpline
210
0.0
220
0.0
230
1.0
 70
     8
 71
     3
 72
    10
 73
     6
 74
     0
 42
0.000000001
 43
0.00000001
 40
0.0
 40
0.0
 40
0.0
 40
0.0
 40
0.5
 40
0.5
 40
1.0
 40
1.0
 40
1.0
 40
1.0
 10
27.59798389312336
 20
0.3760248372077412
 30
0.0
 10
27.57875969683774
 20
0.7479323586171623
 30
0.0
 10
27.55905594742622
 20
1.119289227928844
 30
0.0
 10
27.52034455174829
 20
1.82957688256817
 30
0.0
 10
27.50135153659876
 20
2.168251786270806
 30
0.0
 10
27.48345434622201
 20
2.478121134005248
 30
0.0
  0
SPLINE
  5
1D3
330
1F
100
AcDbEntity
  8
외형선
  6
Continuous
 62
     1
370
    15
100
AcDbSpline
210
0.0
220
0.0
230
1.0
 70
     8
 71
     3
 72
    10
 73
     6
 74
     0
 42
0.000000001
 43
0.00000001
 40
0.0
 40
0.0
 40
0.0
 40
0.0
 40
0.5
 40
0.5
 40
1.0
 40
1.0
 40
1.0
 40
1.0
 10
27.48345434621961
 20
2.478121134046691
 30
0.0
 10
27.58767514751695
 20
2.359980612834217
 30
0.0
 10
27.70527434540755
 20
2.252978230169354
 30
0.0
 10
27.92887950095263
 20
2.062635744206002
 30
0.0
 10
28.03811245043144
 20
1.976783386606025
 30
0.0
 10
28.13311198065707
 20
1.90915845413655
 30
0.0
  0
SPLINE
  5
1D6
330
1F
100
AcDbEntity
  8
외형선
  6
Continuous
 62
     1
370
    15
100
AcDbSpline
210
0.0
220
0.0
230
1.0
 70
     8
 71
     3
 72
    10
 73
     6
 74
     0
 42
0.000000001
 43
0.00000001
 40
0.0
 40
0.0
 40
0.0
 40
0.0
 40
0.5
 40
0.5
 40
1.0
 40
1.0
 40
1.0
 40
1.0
 10
20.0970062260135
 20
0.3949302437312558
 30
0.0
 10
20.07776843600713
 20
0.7667722607635475
 30
0.0
 10
20.05806502289266
 20
1.137788682383621
 30
0.0
 10
20.01938213051636
 20
1.84690151532385
 30
0.0
 10
20.00041721043029
 20
2.184744095838862
 30
0.0
 10
19.9825583453293
 20
2.493626249912746
 30
0.0
  0
SPLINE
  5
1D7
330
1F
100
AcDbEntity
  8
외형선
  6
Continuous
 62
     1
370
    15
100
AcDbSpline
210
0.0
220
0.0
230
1.0
 70
     8
 71
     3
 72
    10
 73
     6
 74
     0
 42
0.000000001
 43
0.00000001
 40
0.0
 40
0.0
 40
0.0
 40
0.0
 40
0.5
 40
0.5
 40
1.0
 40
1.0
 40
1.0
 40
1.0
 10
12.59592575073095
 20
0.4158042768202185
 30
0.0
 10
12.57666195366264
 20
0.7877860812003615
 30
0.0
 10
12.55694741286367
 20
1.158637022109859
 30
0.0
 10
12.51827480431807
 20
1.866818068107506
 30
0.0
 10
12.49933125426205
 20
2.203895973519603
 30
0.0
 10
12.48150705761162
 20
2.511797823536042
 30
0.0
  0
SPLINE
  5
1DA
330
1F
100
AcDbEntity
  8
외형선
  6
Continuous
 62
     1
370
    15
100
AcDbSpline
210
0.0
220
0.0
230
1.0
 70
     8
 71
     3
 72
    12
 73
     8
 74
     0
 42
0.000000001
 43
0.00000001
 40
0.0
 40
0.0
 40
0.0
 40
0.0
 40
0.4999999999999998
 40
0.4999999999999998
 40
0.7499999999999999
 40
0.7499999999999999
 40
1.0
 40
1.0
 40
1.0
 40
1.0
 10
15.7536170893346
 20
-2.560790377135328
 30
0.0
 10
15.73396824016052
 20
-2.243804757606791
 30
0.0
 10
15.71429937386343
 20
-1.901739463907556
 30
0.0
 10
15.6859972924565
 20
-1.373882200208119
 30
0.0
 10
15.6767619772456
 20
-1.195511260244096
 30
0.0
 10
15.658859335341
 20
-0.8378554467178664
 30
0.0
 10
15.65023432696943
 20
-0.6588848942131962
 30
0.0
 10
15.64114214352701
 20
-0.4757422825099292
 30
0.0
  0
SPLINE
  5
1DB
330
1F
100
AcDbEntity
  8
외형선
  6
Continuous
 62
     1
370
    15
100
AcDbSpline
210
0.0
220
0.0
230
1.0
 70
     8
 71
     3
 72
    12
 73
     8
 74
     0
 42
0.000000001
 43
0.00000001
 40
0.0
 40
0.0
 40
0.0
 40
0.0
 40
0.5
 40
0.5
 40
0.75
 40
0.75
 40
1.0
 40
1.0
 40
1.0
 40
1.0
 10
23.25455739813841
 20
-2.575941295410947
 30
0.0
 10
23.23491590459743
 20
-2.259853085761443
 30
0.0
 10
23.21524048752761
 20
-1.918477598027142
 30
0.0
 10
23.18690919335023
 20
-1.391268006749687
 30
0.0
 10
23.17766097244485
 20
-1.21304956595104
 30
0.0
 10
23.15972706896028
 20
-0.8555729214056762
 30
0.0
 10
23.1511181130205
 20
-0.67685809128974
 30
0.0
 10
23.14204630989468
 20
-0.4939629046926944
 30
0.0
  0
SPLINE
  5
1DC
330
1F
100
AcDbEntity
  8
외형선
  6
Continuous
 62
     1
370
    15
100
AcDbSpline
210
0.0
220
0.0
230
1.0
 70
     8
 71
     3
 72
    14
 73
    10
 74
     0
 42
0.000000001
 43
0.00000001
 40
0.0
 40
0.0
 40
0.0
 40
0.0
 40
0.0000826645311098
 40
0.0000826645311098
 40
0.0000826645311098
 40
0.0001556694826321
 40
0.0001556694826321
 40
0.0001556694826321
 40
0.0002312260243551
 40
0.0002312260243551
 40
0.0002312260243551
 40
0.0002312260243551
 10
27.32169714449038
 20
2.635415695364224
 30
0.0
 10
27.34119368849316
 20
2.619196848328099
 30
0.0
 10
27.36090617011946
 20
2.60182841566201
 30
0.0
 10
27.38048101354116
 20
2.58361922639412
 30
0.0
 10
27.39777318118382
 20
2.567533460256758
 30
0.0
 10
27.4150737808297
 20
2.550683810930765
 30
0.0
 10
27.4320427470601
 20
2.533354850676759
 30
0.0
 10
27.44957860022306
 20
2.515446977070591
 30
0.0
 10
27.46693268672226
 20
2.49684942475273
 30
0.0
 10
27.48345434621961
 20
2.478121134046701
 30
0.0
  0
SPLINE
  5
1DD
330
1F
100
AcDbEntity
  8
외형선
  6
Continuous
 62
     1
370
    15
100
AcDbSpline
210
0.0
220
0.0
230
1.0
 70
     8
 71
     3
 72
     8
 73
     4
 74
     0
 42
0.000000001
 43
0.00000001
 40
0.0
 40
0.0
 40
0.0
 40
0.0
 40
1.0
 40
1.0
 40
1.0
 40
1.0
 10
28.66999987185004
 20
1.422380561272445
 30
0.0
 10
28.79302983593041
 20
1.285335987274947
 30
0.0
 10
28.9190555969638
 20
1.159187740210945
 30
0.0
 10
29.04999987185002
 20
1.046362399549726
 30
0.0
  0
LINE
  5
1DE
330
1F
100
AcDbEntity
  8
외형선
  6
Continuous
 62
     1
370
    15
100
AcDbLine
 10
29.05
 20
1.046362449415021
 30
0.0
 11
29.05
 21
-0.7143749971874118
 31
0.0
  0
SPLINE
  5
1DF
330
1F
100
AcDbEntity
  8
외형선
  6
Continuous
 62
     1
370
    15
100
AcDbSpline
210
0.0
220
0.0
230
1.0
 70
    24
 71
     3
 72
     8
 73
     4
 74
     0
 42
0.000000001
 43
0.00000001
 40
0.0000003030761704
 40
0.0000003030761704
 40
0.0000003030761704
 40
0.0000003030761704
 40
0.000304191462904
 40
0.000304191462904
 40
0.000304191462904
 40
0.000304191462904
 10
29.04999987185002
 20
-0.7143750000000201
 30
0.0
 10
28.98315547231699
 20
-0.761179952440153
 30
0.0
 10
28.91613127044583
 20
-0.8081108038328273
 30
0.0
 10
28.84894775856647
 20
-0.8551532052941574
 30
0.0
  0
SPLINE
  5
1E2
330
1F
100
AcDbEntity
  8
외형선
  6
Continuous
 62
     1
370
    15
100
AcDbSpline
210
0.0
220
0.0
230
1.0
 70
     8
 71
     3
 72
    10
 73
     6
 74
     0
 42
0.000000001
 43
0.00000001
 40
0.0
 40
0.0
 40
0.0
 40
0.0
 40
0.5
 40
0.5
 40
1.0
 40
1.0
 40
1.0
 40
1.0
 10
16.40425576240632
 20
-3.07391460583298
 30
0.0
 10
16.38506525802718
 20
-2.791530170047444
 30
0.0
 10
16.36537607710208
 20
-2.477438142709963
 30
0.0
 10
16.32665189490771
 20
-1.811767270339558
 30
0.0
 10
16.30763157483424
 20
-1.460470128107402
 30
0.0
 10
16.28968989680806
 20
-1.106097540170363
 30
0.0
  0
SPLINE
  5
1E3
330
1F
100
AcDbEntity
  8
외형선
  6
Continuous
 62
     1
370
    15
100
AcDbSpline
210
0.0
220
0.0
230
1.0
 70
     8
 71
     3
 72
    10
 73
     6
 74
     0
 42
0.000000001
 43
0.00000001
 40
0.0
 40
0.0
 40
0.0
 40
0.0
 40
0.5
 40
0.5
 40
1.0
 40
1.0
 40
1.0
 40
1.0
 10
24.06751224166679
 20
-3.239594503774641
 30
0.0
 10
24.04868320629537
 20
-2.966837112835713
 30
0.0
 10
24.02924380614195
 20
-2.661083889689679
 30
0.0
 10
23.99073397069634
 20
-2.007548788110976
 30
0.0
 10
23.97167794677458
 20
-1.660028011544509
 30
0.0
 10
23.95356540687204
 20
-1.306750482729496
 30
0.0
  0
SPLINE
  5
1E4
330
1F
100
AcDbEntity
  8
외형선
  6
Continuous
 62
     1
370
    15
100
AcDbSpline
210
0.0
220
0.0
230
1.0
 70
     8
 71
     3
 72
    10
 73
     6
 74
     0
 42
0.000000001
 43
0.00000001
 40
0.0
 40
0.0
 40
0.0
 40
0.0
 40
0.5
 40
0.5
 40
1.0
 40
1.0
 40
1.0
 40
1.0
 10
24.67149525320534
 20
-3.654114751260645
 30
0.0
 10
24.65350557756336
 20
-3.418799599341967
 30
0.0
 10
24.63451827247326
 20
-3.146202413697996
 30
0.0
 10
24.59601891984211
 20
-2.544411847103667
 30
0.0
 10
24.57652121461154
 20
-2.215420555690168
 30
0.0
 10
24.55757770017905
 20
-1.872243495313535
 30
0.0
  0
SPLINE
  5
1E5
330
1F
100
AcDbEntity
  8
외형선
  6
Continuous
 62
     1
370
    15
100
AcDbSpline
210
0.0
220
0.0
230
1.0
 70
     8
 71
     3
 72
    10
 73
     6
 74
     0
 42
0.000000001
 43
0.00000001
 40
0.0
 40
0.0
 40
0.0
 40
0.0
 40
0.5
 40
0.5
 40
1.0
 40
1.0
 40
1.0
 40
1.0
 10
23.90536876940488
 20
-3.090265322583595
 30
0.0
 10
23.88619793296873
 20
-2.809099305360788
 30
0.0
 10
23.86651279789662
 20
-2.496021086435682
 30
0.0
 10
23.82776437317606
 20
-1.831794170743773
 30
0.0
 10
23.80871582954025
 20
-1.480926169198715
 30
0.0
 10
23.79073351007152
 20
-1.126683247548085
 30
0.0
  0
SPLINE
  5
1E9
330
1F
100
AcDbEntity
  8
외형선
  6
Continuous
 62
     1
370
    15
100
AcDbSpline
210
0.0
220
0.0
230
1.0
 70
     8
 71
     3
 72
    18
 73
    14
 74
     0
 42
0.000000001
 43
0.00000001
 40
0.0
 40
0.0
 40
0.0
 40
0.0
 40
0.2499999999999994
 40
0.2499999999999994
 40
0.4999999999999993
 40
0.4999999999999993
 40
0.6249999999999994
 40
0.6249999999999994
 40
0.7499999999999997
 40
0.7499999999999997
 40
0.8749999999999998
 40
0.8749999999999998
 40
1.0
 40
1.0
 40
1.0
 40
1.0
 10
28.84894775856649
 20
4.503072614411326
 30
0.0
 10
28.84649579406477
 20
4.26474002180638
 30
0.0
 10
28.82826915658005
 20
4.025047729683694
 30
0.0
 10
28.74739753474993
 20
3.56259631398255
 30
0.0
 10
28.68544259768202
 20
3.338610529447356
 30
0.0
 10
28.54002269443047
 20
3.024682322346337
 30
0.0
 10
28.48406576297373
 20
2.927083999365158
 30
0.0
 10
28.35453918027174
 20
2.748466374695541
 30
0.0
 10
28.28020867274851
 20
2.667283290278137
 30
0.0
 10
28.11998532950237
 20
2.532874235364749
 30
0.0
 10
28.03250079770018
 20
2.47791110779841
 30
0.0
 10
27.84723894361621
 20
2.396638961971089
 30
0.0
 10
27.75197257664798
 20
2.371119460993047
 30
0.0
 10
27.65430991216232
 20
2.359344839357596
 30
0.0
  0
SPLINE
  5
1EA
330
1F
100
AcDbEntity
  8
외형선
  6
Continuous
 62
     1
370
    15
100
AcDbSpline
210
0.0
220
0.0
230
1.0
 70
     8
 71
     3
 72
     8
 73
     4
 74
     0
 42
0.000000001
 43
0.00000001
 40
0.0
 40
0.0
 40
0.0
 40
0.0
 40
1.0
 40
1.0
 40
1.0
 40
1.0
 10
29.04999987185002
 20
1.69058830080635
 30
0.0
 10
28.5817872309579
 20
1.953303042228312
 30
0.0
 10
28.11653943755211
 20
2.176459475201832
 30
0.0
 10
27.6543099121623
 20
2.35934483935764
 30
0.0
  0
LINE
  5
1EB
330
1F
100
AcDbEntity
  8
외형선
  6
Continuous
 62
     1
370
    15
100
AcDbLine
 10
29.05
 20
1.058636698871845
 30
0.0
 11
29.05
 21
1.690588309429579
 31
0.0
  0
SPLINE
  5
1EC
330
1F
100
AcDbEntity
  8
외형선
  6
Continuous
 62
     1
370
    15
100
AcDbSpline
210
0.0
220
0.0
230
1.0
 70
     8
 71
     3
 72
    14
 73
    10
 74
     0
 42
0.000000001
 43
0.00000001
 40
0.0
 40
0.0
 40
0.0
 40
0.0
 40
0.0000774729706188
 40
0.0000774729706188
 40
0.0000774729706188
 40
0.0001593903547957
 40
0.0001593903547957
 40
0.0001593903547957
 40
0.0002434639071571
 40
0.0002434639071571
 40
0.0002434639071571
 40
0.0002434639071571
 10
26.55589877650388
 20
3.20502869371441
 30
0.0
 10
26.57138138950442
 20
3.200239775037569
 30
0.0
 10
26.58778234969187
 20
3.193602481234882
 30
0.0
 10
26.60466435687089
 20
3.185461440190433
 30
0.0
 10
26.62251594941245
 20
3.176852834232125
 30
0.0
 10
26.64103273777758
 20
3.166502905814832
 30
0.0
 10
26.65984062917855
 20
3.154724599774848
 30
0.0
 10
26.67914278461999
 20
3.14263676445223
 30
0.0
 10
26.69888113694113
 20
3.128964076275293
 30
0.0
 10
26.71871317402985
 20
3.113981887932061
 30
0.0
  0
SPLINE
  5
1ED
330
1F
100
AcDbEntity
  8
외형선
  6
Continuous
 62
     1
370
    15
100
AcDbSpline
210
0.0
220
0.0
230
1.0
 70
     8
 71
     3
 72
    10
 73
     6
 74
     0
 42
0.000000001
 43
0.00000001
 40
0.0
 40
0.0
 40
0.0
 40
0.0
 40
0.5
 40
0.5
 40
1.0
 40
1.0
 40
1.0
 40
1.0
 10
25.90559453537189
 20
3.64585535390128
 30
0.0
 10
26.01010461146112
 20
3.527981034613306
 30
0.0
 10
26.12828705955863
 20
3.435889064889088
 30
0.0
 10
26.35201479121178
 20
3.290122056224493
 30
0.0
 10
26.46094032244043
 20
3.234400241925977
 30
0.0
 10
26.5558987765038
 20
3.205028693714357
 30
0.0
  0
SPLINE
  5
1EE
330
1F
100
AcDbEntity
  8
외형선
  6
Continuous
 62
     1
370
    15
100
AcDbSpline
210
0.0
220
0.0
230
1.0
 70
     8
 71
     3
 72
    14
 73
    10
 74
     0
 42
0.000000001
 43
0.00000001
 40
0.0
 40
0.0
 40
0.0
 40
0.0
 40
0.0000829519334205
 40
0.0000829519334205
 40
0.0000829519334205
 40
0.0001559726307614
 40
0.0001559726307614
 40
0.0001559726307614
 40
0.0002315422402384
 40
0.0002315422402384
 40
0.0002315422402384
 40
0.0002315422402384
 10
25.74339372765385
 20
3.78239072014792
 30
0.0
 10
25.76297702406607
 20
3.770528990903308
 30
0.0
 10
25.78277980736854
 20
3.756973103935048
 30
0.0
 10
25.80244693633593
 20
3.741887528748304
 30
0.0
 10
25.81976439552846
 20
3.728604256282596
 30
0.0
 10
25.8370923601647
 20
3.714046160750634
 30
0.0
 10
25.85409056776956
 20
3.698348030430366
 30
0.0
 10
25.87165578384038
 20
3.682126258265138
 30
0.0
 10
25.88904147757317
 20
3.664525136693245
 30
0.0
 10
25.90559453537189
 20
3.64585535390128
 30
0.0
  0
SPLINE
  5
1EF
330
1F
100
AcDbEntity
  8
외형선
  6
Continuous
 62
     1
370
    15
100
AcDbSpline
210
0.0
220
0.0
230
1.0
 70
     8
 71
     3
 72
     8
 73
     4
 74
     0
 42
0.000000001
 43
0.00000001
 40
0.0
 40
0.0
 40
0.0
 40
0.0
 40
1.0
 40
1.0
 40
1.0
 40
1.0
 10
25.74339580111935
 20
3.782389464235007
 30
0.0
 10
25.54117655000397
 20
3.904875042519083
 30
0.0
 10
25.33858319942914
 20
4.017229691408157
 30
0.0
 10
25.13804550984052
 20
4.118191451059824
 30
0.0
  0
SPLINE
  5
1F0
330
1F
100
AcDbEntity
  8
외형선
  6
Continuous
 62
     1
370
    15
100
AcDbSpline
210
0.0
220
0.0
230
1.0
 70
     8
 71
     3
 72
    14
 73
    10
 74
     0
 42
0.000000001
 43
0.00000001
 40
0.0
 40
0.0
 40
0.0
 40
0.0
 40
0.00007798995804
 40
0.00007798995804
 40
0.00007798995804
 40
0.0001601744394701
 40
0.0001601744394701
 40
0.0001601744394701
 40
0.0002445009295637
 40
0.0002445009295637
 40
0.0002445009295637
 40
0.0002445009295637
 10
24.97524199513371
 20
4.154708184595052
 30
0.0
 10
24.99080175474084
 20
4.156685972875524
 30
0.0
 10
25.00728283253783
 20
4.156559261514143
 30
0.0
 10
25.02424604856643
 20
4.154579921961687
 30
0.0
 10
25.0421231714482
 20
4.152493943905147
 30
0.0
 10
25.0606625950096
 20
4.148337258701089
 30
0.0
 10
25.07949370678479
 20
4.142325703928555
 30
0.0
 10
25.09881488467362
 20
4.136157702775187
 30
0.0
 10
25.11857163499775
 20
4.127996953014972
 30
0.0
 10
25.1384251767343
 20
4.118000293430766
 30
0.0
  0
SPLINE
  5
1F1
330
1F
100
AcDbEntity
  8
외형선
  6
Continuous
 62
     1
370
    15
100
AcDbSpline
210
0.0
220
0.0
230
1.0
 70
     8
 71
     3
 72
    10
 73
     6
 74
     0
 42
0.000000001
 43
0.00000001
 40
0.0
 40
0.0
 40
0.0
 40
0.0
 40
0.5000000000000002
 40
0.5000000000000002
 40
1.0
 40
1.0
 40
1.0
 40
1.0
 10
24.3247749362581
 20
4.417917032126994
 30
0.0
 10
24.42924162871751
 20
4.313149767983541
 30
0.0
 10
24.54749903059892
 20
4.245781704402076
 30
0.0
 10
24.77154890620188
 20
4.161216075094734
 30
0.0
 10
24.88052530577192
 20
4.142668823903282
 30
0.0
 10
24.97524199513362
 20
4.154708184594976
 30
0.0
  0
SPLINE
  5
1F2
330
1F
100
AcDbEntity
  8
외형선
  6
Continuous
 62
     1
370
    15
100
AcDbSpline
210
0.0
220
0.0
230
1.0
 70
     8
 71
     3
 72
    14
 73
    10
 74
     0
 42
0.000000001
 43
0.00000001
 40
0.0
 40
0.0
 40
0.0
 40
0.0
 40
0.000082713617023
 40
0.000082713617023
 40
0.000082713617023
 40
0.0001556948031723
 40
0.0001556948031723
 40
0.0001556948031723
 40
0.0002312343010011
 40
0.0002312343010011
 40
0.0002312343010011
 40
0.0002312343010011
 10
24.16275470509186
 20
4.518689121641711
 30
0.0
 10
24.18228019555277
 20
4.512540597095169
 30
0.0
 10
24.20202728044182
 20
4.504344975190852
 30
0.0
 10
24.22164183781924
 20
4.494105456736726
 30
0.0
 10
24.23895313991878
 20
4.485068322025892
 30
0.0
 10
24.25627722394452
 20
4.474378430246431
 30
0.0
 10
24.27327230081568
 20
4.462008652116761
 30
0.0
 10
24.29083667975986
 20
4.449224510440202
 30
0.0
 10
24.30822290429545
 20
4.434516687614372
 30
0.0
 10
24.32477493625692
 20
4.417917032128226
 30
0.0
  0
SPLINE
  5
1F3
330
1F
100
AcDbEntity
  8
외형선
  6
Continuous
 62
     1
370
    15
100
AcDbSpline
210
0.0
220
0.0
230
1.0
 70
     8
 71
     3
 72
     8
 73
     4
 74
     0
 42
0.000000001
 43
0.00000001
 40
0.0
 40
0.0
 40
0.0
 40
0.0
 40
1.0
 40
1.0
 40
1.0
 40
1.0
 10
24.16276411343337
 20
4.518686158969935
 30
0.0
 10
23.96017531227937
 20
4.582481202861401
 30
0.0
 10
23.75890936524943
 20
4.633930918387549
 30
0.0
 10
23.55885651393226
 20
4.672785635116267
 30
0.0
  0
SPLINE
  5
1F4
330
1F
100
AcDbEntity
  8
외형선
  6
Continuous
 62
     1
370
    15
100
AcDbSpline
210
0.0
220
0.0
230
1.0
 70
     8
 71
     3
 72
    14
 73
    10
 74
     0
 42
0.000000001
 43
0.00000001
 40
0.0
 40
0.0
 40
0.0
 40
0.0
 40
0.0000771835996643
 40
0.0000771835996643
 40
0.0000771835996643
 40
0.0001592426596142
 40
0.0001592426596142
 40
0.0001592426596142
 40
0.0002434711404574
 40
0.0002434711404574
 40
0.0002434711404574
 40
0.0002434711404574
 10
23.39671981872032
 20
4.650121330403782
 30
0.0
 10
23.41213426875917
 20
4.658721533630533
 30
0.0
 10
23.42845819877619
 20
4.665225392571306
 30
0.0
 10
23.44525293144098
 20
4.669753352509251
 30
0.0
 10
23.46310915518354
 20
4.674567496762871
 30
0.0
 10
23.48162571744502
 20
4.677184366879281
 30
0.0
 10
23.50042267776717
 20
4.677702162874713
 30
0.0
 10
23.51971615639051
 20
4.678233636357544
 30
0.0
 10
23.53943476458027
 20
4.676559355271306
 30
0.0
 10
23.55923453021407
 20
4.672712200673478
 30
0.0
  0
SPLINE
  5
1F5
330
1F
100
AcDbEntity
  8
외형선
  6
Continuous
 62
     1
370
    15
100
AcDbSpline
210
0.0
220
0.0
230
1.0
 70
     8
 71
     3
 72
    10
 73
     6
 74
     0
 42
0.000000001
 43
0.00000001
 40
0.0
 40
0.0
 40
0.0
 40
0.0
 40
0.2087032602140873
 40
0.6492540373101255
 40
1.0
 40
1.0
 40
1.0
 40
1.0
 10
22.79822527170182
 20
4.681425169110293
 30
0.0
 10
22.83999910635403
 20
4.65696882677109
 30
0.0
 10
22.96995314144695
 20
4.580887700940674
 30
0.0
 10
23.18770163261035
 20
4.568090573890352
 30
0.0
 10
23.3325254181957
 20
4.624928070037361
 30
0.0
 10
23.39671923518181
 20
4.650121554732316
 30
0.0
  0
SPLINE
  5
1F6
330
1F
100
AcDbEntity
  8
외형선
  6
Continuous
 62
     1
370
    15
100
AcDbSpline
210
0.0
220
0.0
230
1.0
 70
     8
 71
     3
 72
     9
 73
     5
 74
     0
 42
0.000000001
 43
0.00000001
 40
0.0
 40
0.0
 40
0.0
 40
0.0
 40
0.8015274370360012
 40
1.0
 40
1.0
 40
1.0
 40
1.0
 10
10.1130027204752
 20
-4.107189364731317
 30
0.0
 10
10.17123904556336
 20
-4.048177492786496
 30
0.0
 10
10.24389572878747
 20
-3.974553223400231
 30
0.0
 10
10.31961721438377
 20
-3.936176549167854
 30
0.0
 10
10.33464585170151
 20
-3.92855983227492
 30
0.0
  0
SPLINE
  5
1F7
330
1F
100
AcDbEntity
  8
외형선
  6
Continuous
 62
     1
370
    15
100
AcDbSpline
210
0.0
220
0.0
230
1.0
 70
     8
 71
     3
 72
    14
 73
    10
 74
     0
 42
0.000000001
 43
0.00000001
 40
0.000069552005518
 40
0.000069552005518
 40
0.000069552005518
 40
0.000069552005518
 40
0.0000837883564641
 40
0.0000837883564641
 40
0.0000837883564641
 40
0.0001569040728373
 40
0.0001569040728373
 40
0.0001569040728373
 40
0.0002325552798474
 40
0.0002325552798474
 40
0.0002325552798474
 40
0.0002325552798474
 10
10.0
 20
-4.200639913492013
 30
0.0
 10
10.00336567823366
 20
-4.198554351133215
 30
0.0
 10
10.00672905953833
 20
-4.196414957803
 30
0.0
 10
10.01008841471648
 20
-4.194222157464397
 30
0.0
 10
10.02734704495221
 20
-4.182956682926021
 30
0.0
 10
10.04462530609631
 20
-4.17020991533553
 30
0.0
 10
10.06158641815632
 20
-4.156026768296402
 30
0.0
 10
10.07910934504505
 20
-4.141373822915264
 30
0.0
 10
10.09646519426122
 20
-4.125041639925557
 30
0.0
 10
10.11300255303203
 20
-4.107189538708671
 30
0.0
  0
SPLINE
  5
1F8
330
1F
100
AcDbEntity
  8
외형선
  6
Continuous
 62
     1
370
    15
100
AcDbSpline
210
0.0
220
0.0
230
1.0
 70
     8
 71
     3
 72
     8
 73
     4
 74
     0
 42
0.000000001
 43
0.00000001
 40
0.0
 40
0.0
 40
0.0
 40
0.0
 40
0.0006173784072605
 40
0.0006173784072605
 40
0.0006173784072605
 40
0.0006173784072605
 10
9.951078278710089
 20
-4.227131600430028
 30
0.0
 10
9.950954814702108
 20
-4.227188768573439
 30
0.0
 10
9.950831349738925
 20
-4.227245932540709
 30
0.0
 10
9.950707883821112
 20
-4.227303092331572
 30
0.0
  0
SPLINE
  5
202
330
1F
100
AcDbEntity
  8
외형선
  6
Continuous
 62
     1
370
    15
100
AcDbSpline
210
0.0
220
0.0
230
1.0
 70
     8
 71
     3
 72
    10
 73
     6
 74
     0
 42
0.000000001
 43
0.00000001
 40
0.0
 40
0.0
 40
0.0
 40
0.0
 40
0.5
 40
0.5
 40
0.7237869849083843
 40
0.7237869849083843
 40
0.7237869849083843
 40
0.7237869849083843
 10
10.48092332278135
 20
-4.057771003333753
 30
0.0
 10
10.37668923122795
 20
-3.94458759032786
 30
0.0
 10
10.25874675706423
 20
-3.862885635447239
 30
0.0
 10
10.09711388136977
 20
-3.776840328861597
 30
0.0
 10
10.04776209306465
 20
-3.754323411705812
 30
0.0
 10
10.0
 20
-3.736655442108778
 30
0.0
  0
SPLINE
  5
203
330
1F
100
AcDbEntity
  8
외형선
  6
Continuous
 62
     1
370
    15
100
AcDbSpline
210
0.0
220
0.0
230
1.0
 70
     8
 71
     3
 72
    14
 73
    10
 74
     0
 42
0.000000001
 43
0.00000001
 40
0.0
 40
0.0
 40
0.0
 40
0.0
 40
0.0000826072727145
 40
0.0000826072727145
 40
0.0000826072727145
 40
0.0001555579989018
 40
0.0001555579989018
 40
0.0001555579989018
 40
0.000231069995272
 40
0.000231069995272
 40
0.000231069995272
 40
0.000231069995272
 10
10.64279863176668
 20
-4.179312925659737
 30
0.0
 10
10.6232952596987
 20
-4.169992544859278
 30
0.0
 10
10.60357272431897
 20
-4.158794670377437
 30
0.0
 10
10.58398472588972
 20
-4.145809869830935
 30
0.0
 10
10.56668193294178
 20
-4.134339922243495
 30
0.0
 10
10.54936802895552
 20
-4.121398588639901
 30
0.0
 10
10.53238507448095
 20
-4.107047587385283
 30
0.0
 10
10.51483231873938
 20
-4.092215090481014
 30
0.0
 10
10.49745975014329
 20
-4.07572721381973
 30
0.0
 10
10.48092332278118
 20
-4.057771003333558
 30
0.0
  0
SPLINE
  5
204
330
1F
100
AcDbEntity
  8
외형선
  6
Continuous
 62
     1
370
    15
100
AcDbSpline
210
0.0
220
0.0
230
1.0
 70
     8
 71
     3
 72
     8
 73
     4
 74
     0
 42
0.000000001
 43
0.00000001
 40
0.0
 40
0.0
 40
0.0
 40
0.0
 40
1.0
 40
1.0
 40
1.0
 40
1.0
 10
11.24739364551885
 20
-4.434521319593414
 30
0.0
 10
11.04729972755531
 20
-4.361295013338219
 30
0.0
 10
10.84496146021198
 20
-4.275923621699312
 30
0.0
 10
10.64279889949515
 20
-4.179313053603298
 30
0.0
  0
SPLINE
  5
205
330
1F
100
AcDbEntity
  8
외형선
  6
Continuous
 62
     1
370
    15
100
AcDbSpline
210
0.0
220
0.0
230
1.0
 70
     8
 71
     3
 72
    14
 73
    10
 74
     0
 42
0.000000001
 43
0.00000001
 40
0.0
 40
0.0
 40
0.0
 40
0.0
 40
0.0000778502093922
 40
0.0000778502093922
 40
0.0000778502093922
 40
0.0001601165043703
 40
0.0001601165043703
 40
0.0001601165043703
 40
0.0002445292927559
 40
0.0002445292927559
 40
0.0002445292927559
 40
0.0002445292927559
 10
11.41013450366101
 20
-4.443962631746238
 30
0.0
 10
11.3945971859604
 20
-4.449077205406758
 30
0.0
 10
11.37815090799998
 20
-4.452045628999201
 30
0.0
 10
11.36123128290199
 20
-4.45307353547932
 30
0.0
 10
11.34335036861172
 20
-4.454159842508168
 30
0.0
 10
11.32480599203972
 20
-4.453094238209863
 30
0.0
 10
11.30596888981214
 20
-4.450038463272887
 30
0.0
 10
11.28664106406972
 20
-4.446903082640751
 30
0.0
 10
11.26687635117984
 20
-4.441652606973212
 30
0.0
 10
11.24701397355593
 20
-4.434382361427961
 30
0.0
  0
SPLINE
  5
206
330
1F
100
AcDbEntity
  8
외형선
  6
Continuous
 62
     1
370
    15
100
AcDbSpline
210
0.0
220
0.0
230
1.0
 70
     8
 71
     3
 72
    10
 73
     6
 74
     0
 42
0.000000001
 43
0.00000001
 40
0.0
 40
0.0
 40
0.0
 40
0.0
 40
0.5
 40
0.5
 40
1.0
 40
1.0
 40
1.0
 40
1.0
 10
12.060902837209
 20
-4.61471205231988
 30
0.0
 10
11.95640539410177
 20
-4.519974564076287
 30
0.0
 10
11.83812699010346
 20
-4.466572616151527
 30
0.0
 10
11.61397098253252
 20
-4.413448324924475
 30
0.0
 10
11.50489545700146
 20
-4.412769224664028
 30
0.0
 10
11.41013450366101
 20
-4.443962631746232
 30
0.0
  0
SPLINE
  5
207
330
1F
100
AcDbEntity
  8
외형선
  6
Continuous
 62
     1
370
    15
100
AcDbSpline
210
0.0
220
0.0
230
1.0
 70
     8
 71
     3
 72
    14
 73
    10
 74
     0
 42
0.000000001
 43
0.00000001
 40
0.0
 40
0.0
 40
0.0
 40
0.0
 40
0.0000829589553487
 40
0.0000829589553487
 40
0.0000829589553487
 40
0.0001559739390284
 40
0.0001559739390284
 40
0.0001559739390284
 40
0.0002315417310536
 40
0.0002315417310536
 40
0.0002315417310536
 40
0.0002315417310536
 10
12.22313801635449
 20
-4.695134588270995
 30
0.0
 10
12.20355774785773
 20
-4.691861870567802
 30
0.0
 10
12.18375462671751
 20
-4.686444202995281
 30
0.0
 10
12.16408370977004
 20
-4.678807360141294
 30
0.0
 10
12.14676577053298
 20
-4.672084014154857
 30
0.0
 10
12.12943456003007
 20
-4.66359555807613
 30
0.0
 10
12.1124310504585
 20
-4.653238294987159
 30
0.0
 10
12.09485950216133
 20
-4.642535025298725
 30
0.0
 10
12.07746493595318
 20
-4.629727267892721
 30
0.0
 10
12.06090283720905
 20
-4.614712052319932
 30
0.0
  0
SPLINE
  5
208
330
1F
100
AcDbEntity
  8
외형선
  6
Continuous
 62
     1
370
    15
100
AcDbSpline
210
0.0
220
0.0
230
1.0
 70
     8
 71
     3
 72
     8
 73
     4
 74
     0
 42
0.000000001
 43
0.00000001
 40
0.0
 40
0.0
 40
0.0
 40
0.0
 40
1.0
 40
1.0
 40
1.0
 40
1.0
 10
12.82802204408314
 20
-4.758467344126999
 30
0.0
 10
12.62706233110391
 20
-4.750165847836809
 30
0.0
 10
12.42614721005697
 20
-4.729066034265469
 30
0.0
 10
12.22314411429091
 20
-4.695135607498573
 30
0.0
  0
SPLINE
  5
209
330
1F
100
AcDbEntity
  8
외형선
  6
Continuous
 62
     1
370
    15
100
AcDbSpline
210
0.0
220
0.0
230
1.0
 70
     8
 71
     3
 72
    14
 73
    10
 74
     0
 42
0.000000001
 43
0.00000001
 40
0.0
 40
0.0
 40
0.0
 40
0.0
 40
0.0000774098258178
 40
0.0000774098258178
 40
0.0000774098258178
 40
0.0001596259778997
 40
0.0001596259778997
 40
0.0001596259778997
 40
0.0002440043001667
 40
0.0002440043001667
 40
0.0002440043001667
 40
0.0002440043001667
 10
12.991023959139
 20
-4.709104757092668
 30
0.0
 10
12.97554753718516
 20
-4.720477171597969
 30
0.0
 10
12.95915915148542
 20
-4.729819113402264
 30
0.0
 10
12.94229960797214
 20
-4.737191114775702
 30
0.0
 10
12.92439241728156
 20
-4.745021210190884
 30
0.0
 10
12.90582559746694
 20
-4.750686925039046
 30
0.0
 10
12.88697871287179
 20
-4.754228762213893
 30
0.0
 10
12.8676366024165
 20
-4.757863665664628
 30
0.0
 10
12.84786986177688
 20
-4.759287246210292
 30
0.0
 10
12.8280212156294
 20
-4.758467309904134
 30
0.0
  0
LINE
  5
20A
330
1F
100
AcDbEntity
  8
외형선
  6
Continuous
 62
     1
370
    15
100
AcDbLine
 10
13.05863213464618
 20
-4.676580429077155
 30
0.0
 11
12.99102416932583
 21
-4.709104541689164
 31
0.0
  0
LINE
  5
20B
330
1F
100
AcDbEntity
  8
외형선
  6
Continuous
 62
     1
370
    15
100
AcDbLine
 10
25.3087058544159
 20
4.023521672934288
 30
0.0
 11
25.45962295234204
 21
4.108079243451351
 31
0.0
  0
SPLINE
  5
20C
330
1F
100
AcDbEntity
  8
외형선
  6
Continuous
 62
     1
370
    15
100
AcDbSpline
210
0.0
220
0.0
230
1.0
 70
     8
 71
     3
 72
    14
 73
    10
 74
     0
 42
0.000000001
 43
0.00000001
 40
0.0
 40
0.0
 40
0.0
 40
0.0
 40
0.0000771426995278
 40
0.0000771426995278
 40
0.0000771426995278
 40
0.0001590107842012
 40
0.0001590107842012
 40
0.0001590107842012
 40
0.0002430455442593
 40
0.0002430455442593
 40
0.0002430455442593
 40
0.0002430455442593
 10
25.62235665982014
 20
4.144727090499179
 30
0.0
 10
25.60691479096286
 20
4.146694982035302
 30
0.0
 10
25.59055843309209
 20
4.146583645854617
 30
0.0
 10
25.57372531279081
 20
4.144637350673989
 30
0.0
 10
25.55586034154521
 20
4.142571749833794
 30
0.0
 10
25.53733041955286
 20
4.138426391173467
 30
0.0
 10
25.51851397075284
 20
4.132419343025748
 30
0.0
 10
25.49920020889782
 20
4.126253530410959
 30
0.0
 10
25.47945426594303
 20
4.118085767825096
 30
0.0
 10
25.45962112283913
 20
4.108078217309141
 30
0.0
  0
SPLINE
  5
20D
330
1F
100
AcDbEntity
  8
외형선
  6
Continuous
 62
     1
370
    15
100
AcDbSpline
210
0.0
220
0.0
230
1.0
 70
     8
 71
     3
 72
    10
 73
     6
 74
     0
 42
0.000000001
 43
0.00000001
 40
0.0
 40
0.0
 40
0.0
 40
0.0
 40
0.5
 40
0.5
 40
1.0
 40
1.0
 40
1.0
 40
1.0
 10
26.27240286652049
 20
4.410210796475724
 30
0.0
 10
26.16837636483189
 20
4.305382585915957
 30
0.0
 10
26.05053185838509
 20
4.237355313674201
 30
0.0
 10
25.82657977652178
 20
4.151649839816463
 30
0.0
 10
25.71729560182153
 20
4.132628196114056
 30
0.0
 10
25.62235665982015
 20
4.144727090499169
 30
0.0
  0
SPLINE
  5
20E
330
1F
100
AcDbEntity
  8
외형선
  6
Continuous
 62
     1
370
    15
100
AcDbSpline
210
0.0
220
0.0
230
1.0
 70
     8
 71
     3
 72
    14
 73
    10
 74
     0
 42
0.000000001
 43
0.00000001
 40
0.0
 40
0.0
 40
0.0
 40
0.0
 40
0.0000836560572176
 40
0.0000836560572176
 40
0.0000836560572176
 40
0.0001568075898423
 40
0.0001568075898423
 40
0.0001568075898423
 40
0.0002324909787327
 40
0.0002324909787327
 40
0.0002324909787327
 40
0.0002324909787327
 10
26.43465521870084
 20
4.512109112361683
 30
0.0
 10
26.41497571945982
 20
4.505787512211808
 30
0.0
 10
26.3950813761364
 20
4.497391714874055
 30
0.0
 10
26.37532873937099
 20
4.486929717315188
 30
0.0
 10
26.35805068038009
 20
4.47777838156535
 30
0.0
 10
26.34076901423646
 20
4.466985638532263
 30
0.0
 10
26.32381027516502
 20
4.454525646774499
 30
0.0
 10
26.3062912441792
 20
4.441653995128235
 30
0.0
 10
26.28893822203877
 20
4.426873586263071
 30
0.0
 10
26.27240286652054
 20
4.410210796475774
 30
0.0
  0
SPLINE
  5
20F
330
1F
100
AcDbEntity
  8
외형선
  6
Continuous
 62
     1
370
    15
100
AcDbSpline
210
0.0
220
0.0
230
1.0
 70
     8
 71
     3
 72
     8
 73
     4
 74
     0
 42
0.000000001
 43
0.00000001
 40
0.0
 40
0.0
 40
0.0
 40
0.0
 40
1.0
 40
1.0
 40
1.0
 40
1.0
 10
27.04000116144168
 20
4.6687554079103
 30
0.0
 10
26.83752828836018
 20
4.628915216549522
 30
0.0
 10
26.6349389641533
 20
4.57644551521728
 30
0.0
 10
26.43466198303028
 20
4.51211128524683
 30
0.0
  0
SPLINE
  5
210
330
1F
100
AcDbEntity
  8
외형선
  6
Continuous
 62
     1
370
    15
100
AcDbSpline
210
0.0
220
0.0
230
1.0
 70
     8
 71
     3
 72
    14
 73
    10
 74
     0
 42
0.000000001
 43
0.00000001
 40
0.0
 40
0.0
 40
0.0
 40
0.0
 40
0.0000774249797296
 40
0.0000774249797296
 40
0.0000774249797296
 40
0.0001594224908956
 40
0.0001594224908956
 40
0.0001594224908956
 40
0.0002435782803196
 40
0.0002435782803196
 40
0.0002435782803196
 40
0.0002435782803196
 10
27.2027491522754
 20
4.646789056691812
 30
0.0
 10
27.18724707795623
 20
4.65532111803515
 30
0.0
 10
27.1708272317569
 20
4.661751132593677
 30
0.0
 10
27.15392860833739
 20
4.666201481285693
 30
0.0
 10
27.13603098280789
 20
4.67091492287132
 30
0.0
 10
27.11746851716252
 20
4.673443270450677
 30
0.0
 10
27.09861784930095
 20
4.673883540144809
 30
0.0
 10
27.07927166909685
 20
4.674335382854235
 30
0.0
 10
27.05949208565006
 20
4.672592120936423
 30
0.0
 10
27.03962242526587
 20
4.668680870088693
 30
0.0
  0
SPLINE
  5
211
330
1F
100
AcDbEntity
  8
외형선
  6
Continuous
 62
     1
370
    15
100
AcDbSpline
210
0.0
220
0.0
230
1.0
 70
     8
 71
     3
 72
    10
 73
     6
 74
     0
 42
0.000000001
 43
0.00000001
 40
0.0
 40
0.0
 40
0.0
 40
0.0
 40
0.5
 40
0.5
 40
1.0
 40
1.0
 40
1.0
 40
1.0
 10
27.8533825754591
 20
4.707569588862444
 30
0.0
 10
27.74903494170506
 20
4.626976798514133
 30
0.0
 10
27.63132498583599
 20
4.591041650324066
 30
0.0
 10
27.40733129044567
 20
4.574908507988262
 30
0.0
 10
27.29790803442344
 20
4.594415328948339
 30
0.0
 10
27.2027491522754
 20
4.64678905669181
 30
0.0
  0
SPLINE
  5
212
330
1F
100
AcDbEntity
  8
외형선
  6
Continuous
 62
     1
370
    15
100
AcDbSpline
210
0.0
220
0.0
230
1.0
 70
     8
 71
     3
 72
    14
 73
    10
 74
     0
 42
0.000000001
 43
0.00000001
 40
0.0
 40
0.0
 40
0.0
 40
0.0
 40
0.0000830745910818
 40
0.0000830745910818
 40
0.0000830745910818
 40
0.0001561500998828
 40
0.0001561500998828
 40
0.0001561500998828
 40
0.0002317647985446
 40
0.0002317647985446
 40
0.0002317647985446
 40
0.0002317647985446
 10
28.01547690189971
 20
4.762405782488223
 30
0.0
 10
27.99588974145711
 20
4.762528909551098
 30
0.0
 10
27.97608614600795
 20
4.76045576131593
 30
0.0
 10
27.95642126018392
 20
4.756032585207917
 30
0.0
 10
27.93911819122088
 20
4.752140646962382
 30
0.0
 10
27.92180717146486
 20
4.746403258267219
 30
0.0
 10
27.90482633718555
 20
4.738636832660475
 30
0.0
 10
27.88728156666679
 20
4.730612482809342
 30
0.0
 10
27.8699176476543
 20
4.720340435300251
 30
0.0
 10
27.85338257545916
 20
4.70756958886249
 30
0.0
  0
SPLINE
  5
213
330
1F
100
AcDbEntity
  8
외형선
  6
Continuous
 62
     1
370
    15
100
AcDbSpline
210
0.0
220
0.0
230
1.0
 70
     8
 71
     3
 72
     8
 73
     4
 74
     0
 42
0.000000001
 43
0.00000001
 40
0.0
 40
0.0
 40
0.0
 40
0.0
 40
1.0
 40
1.0
 40
1.0
 40
1.0
 10
28.61908401890791
 20
4.720633555181776
 30
0.0
 10
28.41807297786039
 20
4.747173990998183
 30
0.0
 10
28.21606730460715
 20
4.761144848947907
 30
0.0
 10
28.01547690242771
 20
4.762405782484887
 30
0.0
  0
SPLINE
  5
214
330
1F
100
AcDbEntity
  8
외형선
  6
Continuous
 62
     1
370
    15
100
AcDbSpline
210
0.0
220
0.0
230
1.0
 70
     8
 71
     3
 72
     8
 73
     4
 74
     0
 42
0.000000001
 43
0.00000001
 40
0.0001619078223196
 40
0.0001619078223196
 40
0.0001619078223196
 40
0.0001619078223196
 40
0.0002430078274872
 40
0.0002430078274872
 40
0.0002430078274872
 40
0.0002430078274872
 10
28.6759133848187
 20
4.706817189403749
 30
0.0
 10
28.65726533847647
 20
4.713467814899907
 30
0.0
 10
28.63821907830092
 20
4.718107063041726
 30
0.0
 10
28.61908401841828
 20
4.720633555246444
 30
0.0
  0
SPLINE
  5
215
330
1F
100
AcDbEntity
  8
외형선
  6
Continuous
 62
     1
370
    15
100
AcDbSpline
210
0.0
220
0.0
230
1.0
 70
     8
 71
     3
 72
     8
 73
     4
 74
     0
 42
0.000000001
 43
0.00000001
 40
0.0
 40
0.0
 40
0.0
 40
0.0
 40
1.0
 40
1.0
 40
1.0
 40
1.0
 10
28.84894775856647
 20
4.503072614411327
 30
0.0
 10
28.79156379541949
 20
4.571991244058869
 30
0.0
 10
28.73387544702126
 20
4.639896481215431
 30
0.0
 10
28.6759133848187
 20
4.706817189403744
 30
0.0
  0
SPLINE
  5
217
330
1F
100
AcDbEntity
  8
외형선
  6
Continuous
 62
     1
370
    15
100
AcDbSpline
210
0.0
220
0.0
230
1.0
 70
     8
 71
     3
 72
    10
 73
     6
 74
     0
 42
0.000000001
 43
0.00000001
 40
0.0
 40
0.0
 40
0.0
 40
0.0
 40
0.5
 40
0.5
 40
1.0
 40
1.0
 40
1.0
 40
1.0
 10
16.5664118465685
 20
-3.223627084846686
 30
0.0
 10
16.54753572224494
 20
-2.949258324229084
 30
0.0
 10
16.52806257724539
 20
-2.641995795265502
 30
0.0
 10
16.48952025343726
 20
-1.985931771090534
 30
0.0
 10
16.47046553420002
 20
-1.637394513830285
 30
0.0
 10
16.45237130525013
 20
-1.283425452548387
 30
0.0
  0
SPLINE
  5
218
330
1F
100
AcDbEntity
  8
외형선
  6
Continuous
 62
     1
370
    15
100
AcDbSpline
210
0.0
220
0.0
230
1.0
 70
     8
 71
     3
 72
    10
 73
     6
 74
     0
 42
0.000000001
 43
0.00000001
 40
0.0
 40
0.0
 40
0.0
 40
0.0
 40
0.4999999999999998
 40
0.4999999999999998
 40
1.0
 40
1.0
 40
1.0
 40
1.0
 10
17.17061874496195
 20
-3.642630634704457
 30
0.0
 10
17.15259539868291
 20
-3.406098570224001
 30
0.0
 10
17.13358473899781
 20
-3.132371801034934
 30
0.0
 10
17.09506528298671
 20
-2.528705491747481
 30
0.0
 10
17.07557087791287
 20
-2.19897053582425
 30
0.0
 10
17.05664354822037
 20
-1.855301201119125
 30
0.0
  0
SPLINE
  5
219
330
1F
100
AcDbEntity
  8
외형선
  6
Continuous
 62
     1
370
    15
100
AcDbSpline
210
0.0
220
0.0
230
1.0
 70
     8
 71
     3
 72
    10
 73
     6
 74
     0
 42
0.000000001
 43
0.00000001
 40
0.0
 40
0.0
 40
0.0
 40
0.0
 40
0.5
 40
0.5
 40
1.0
 40
1.0
 40
1.0
 40
1.0
 10
26.66769427865995
 20
1.278678712751247
 30
0.0
 10
26.64804402054575
 20
1.642804060617207
 30
0.0
 10
26.62860825666215
 20
1.99293645798923
 30
0.0
 10
26.5917428005869
 20
2.638033467503524
 30
0.0
 10
26.57465148455808
 20
2.932095839044226
 30
0.0
 10
26.55589877647465
 20
3.205028694138468
 30
0.0
  0
SPLINE
  5
21A
330
1F
100
AcDbEntity
  8
외형선
  6
Continuous
 62
     1
370
    15
100
AcDbSpline
210
0.0
220
0.0
230
1.0
 70
     8
 71
     3
 72
    12
 73
     8
 74
     0
 42
0.000000001
 43
0.00000001
 40
0.0
 40
0.0
 40
0.0
 40
0.0
 40
0.4999999999999998
 40
0.4999999999999998
 40
0.7499999999999999
 40
0.7499999999999999
 40
1.0
 40
1.0
 40
1.0
 40
1.0
 10
19.16656854770447
 20
1.299528037970807
 30
0.0
 10
19.14692577642452
 20
1.66313711706232
 30
0.0
 10
19.12751413374085
 20
2.012449279225987
 30
0.0
 10
19.09992129578172
 20
2.4947207295389
 30
0.0
 10
19.09115467742348
 20
2.647639109659138
 30
0.0
 10
19.07339209036934
 20
2.942181372586211
 30
0.0
 10
19.06421327153062
 20
3.084713094093293
 30
0.0
 10
19.05482021872924
 20
3.220683933975415
 30
0.0
  0
SPLINE
  5
21B
330
1F
100
AcDbEntity
  8
외형선
  6
Continuous
 62
     1
370
    15
100
AcDbSpline
210
0.0
220
0.0
230
1.0
 70
     8
 71
     3
 72
    12
 73
     8
 74
     0
 42
0.000000001
 43
0.00000001
 40
0.0
 40
0.0
 40
0.0
 40
0.0
 40
0.5
 40
0.5
 40
0.75
 40
0.75
 40
1.0
 40
1.0
 40
1.0
 40
1.0
 10
11.6656298240651
 20
1.316897306927982
 30
0.0
 10
11.64598941795447
 20
1.680147578948511
 30
0.0
 10
11.62659411467365
 20
2.028841549674703
 30
0.0
 10
11.59904333803421
 20
2.509898130638836
 30
0.0
 10
11.59030655607961
 20
2.662301459347091
 30
0.0
 10
11.57250116427216
 20
2.956294685924342
 30
0.0
 10
11.56330324386163
 20
3.098488509102157
 30
0.0
 10
11.55389400586304
 20
3.234060309452696
 30
0.0
  0
SPLINE
  5
21C
330
1F
100
AcDbEntity
  8
외형선
  6
Continuous
 62
     1
370
    15
100
AcDbSpline
210
0.0
220
0.0
230
1.0
 70
     8
 71
     3
 72
    12
 73
     8
 74
     0
 42
0.000000001
 43
0.00000001
 40
0.0
 40
0.0
 40
0.0
 40
0.0
 40
0.2499999999999999
 40
0.2499999999999999
 40
0.4999999999999998
 40
0.4999999999999998
 40
1.0
 40
1.0
 40
1.0
 40
1.0
 10
26.01704612615234
 20
1.885621055822659
 30
0.0
 10
26.0074609603994
 20
2.057678054636685
 30
0.0
 10
25.99804520976069
 20
2.224208724838447
 30
0.0
 10
25.97973483197562
 20
2.543216980691402
 30
0.0
 10
25.97104759112297
 20
2.69460448612835
 30
0.0
 10
25.94418992359371
 20
3.133876842717958
 30
0.0
 10
25.92510948620245
 20
3.406756954993682
 30
0.0
 10
25.90559453537247
 20
3.645855353894124
 30
0.0
  0
SPLINE
  5
21D
330
1F
100
AcDbEntity
  8
외형선
  6
Continuous
 62
     1
370
    15
100
AcDbSpline
210
0.0
220
0.0
230
1.0
 70
     8
 71
     3
 72
    12
 73
     8
 74
     0
 42
0.000000001
 43
0.00000001
 40
0.0
 40
0.0
 40
0.0
 40
0.0
 40
0.2499999999999999
 40
0.2499999999999999
 40
0.4999999999999998
 40
0.4999999999999998
 40
1.0
 40
1.0
 40
1.0
 40
1.0
 10
18.51612492831139
 20
1.902149239194153
 30
0.0
 10
18.50655049314565
 20
2.073854904131622
 30
0.0
 10
18.49714862766805
 20
2.239980400192584
 30
0.0
 10
18.47887138648303
 20
2.558093687484877
 30
0.0
 10
18.47020354675808
 20
2.709000074853599
 30
0.0
 10
18.44329007740892
 20
3.147323226999713
 30
0.0
 10
18.42418249533038
 20
3.419325012779448
 30
0.0
 10
18.40465403402214
 20
3.657348559798498
 30
0.0
  0
SPLINE
  5
21E
330
1F
100
AcDbEntity
  8
외형선
  6
Continuous
 62
     1
370
    15
100
AcDbSpline
210
0.0
220
0.0
230
1.0
 70
     8
 71
     3
 72
    12
 73
     8
 74
     0
 42
0.000000001
 43
0.00000001
 40
0.0
 40
0.0
 40
0.0
 40
0.0
 40
0.2500000000000001
 40
0.2500000000000001
 40
0.5000000000000001
 40
0.5000000000000001
 40
1.0
 40
1.0
 40
1.0
 40
1.0
 10
11.01502066937448
 20
1.921941764593061
 30
0.0
 10
11.00546095666383
 20
2.093192954282228
 30
0.0
 10
10.99607752491712
 20
2.258801661219127
 30
0.0
 10
10.97784334082833
 20
2.575786035168559
 30
0.0
 10
10.96919518454032
 20
2.726118869940541
 30
0.0
 10
10.94222038148826
 20
3.163225419235049
 30
0.0
 10
10.92308436687479
 20
3.434131132585085
 30
0.0
 10
10.90354373967992
 20
3.670839855944779
 30
0.0
  0
SPLINE
  5
220
330
1F
100
AcDbEntity
  8
외형선
  6
Continuous
 62
     1
370
    15
100
AcDbSpline
210
0.0
220
0.0
230
1.0
 70
     8
 71
     3
 72
    10
 73
     6
 74
     0
 42
0.000000001
 43
0.00000001
 40
0.0
 40
0.0
 40
0.0
 40
0.0
 40
0.5
 40
0.5
 40
1.0
 40
1.0
 40
1.0
 40
1.0
 10
17.33326738641562
 20
-3.707906369201281
 30
0.0
 10
17.31540361408071
 20
-3.483417964530214
 30
0.0
 10
17.29643524143464
 20
-3.220647170508771
 30
0.0
 10
17.25774925404272
 20
-2.635054872447026
 30
0.0
 10
17.23804620684334
 20
-2.312421628423989
 30
0.0
 10
17.21881064797201
 20
-1.973632913855702
 30
0.0
  0
SPLINE
  5
221
330
1F
100
AcDbEntity
  8
외형선
  6
Continuous
 62
     1
370
    15
100
AcDbSpline
210
0.0
220
0.0
230
1.0
 70
     8
 71
     3
 72
    10
 73
     6
 74
     0
 42
0.000000001
 43
0.00000001
 40
0.0
 40
0.0
 40
0.0
 40
0.0
 40
0.4999999999999998
 40
0.4999999999999998
 40
1.0
 40
1.0
 40
1.0
 40
1.0
 10
24.83418004177604
 20
-3.719354452991288
 30
0.0
 10
24.81634612375841
 20
-3.496061287013509
 30
0.0
 10
24.79739603166707
 20
-3.234370675759996
 30
0.0
 10
24.75871843530681
 20
-2.650505555974603
 30
0.0
 10
24.73900546374262
 20
-2.328516903805407
 30
0.0
 10
24.71974710113205
 20
-1.990107325947735
 30
0.0
  0
SPLINE
  5
222
330
1F
100
AcDbEntity
  8
외형선
  6
Continuous
 62
     1
370
    15
100
AcDbSpline
210
0.0
220
0.0
230
1.0
 70
     8
 71
     3
 72
    12
 73
     8
 74
     0
 42
0.000000001
 43
0.00000001
 40
0.0
 40
0.0
 40
0.0
 40
0.0
 40
0.2500000000000002
 40
0.2500000000000002
 40
0.5000000000000004
 40
0.5000000000000004
 40
1.0
 40
1.0
 40
1.0
 40
1.0
 10
25.85412495133512
 20
2.062000975588846
 30
0.0
 10
25.84472579877084
 20
2.231147831564245
 30
0.0
 10
25.8355218082105
 20
2.394309640473792
 30
0.0
 10
25.81767310740509
 20
2.705918681469374
 30
0.0
 10
25.80909686122978
 20
2.854108612004474
 30
0.0
 10
25.78198664453581
 20
3.285889763813755
 30
0.0
 10
25.76284747248178
 20
3.551734005510315
 30
0.0
 10
25.74339388604422
 20
3.782388842159941
 30
0.0
  0
SPLINE
  5
223
330
1F
100
AcDbEntity
  8
외형선
  6
Continuous
 62
     1
370
    15
100
AcDbSpline
210
0.0
220
0.0
230
1.0
 70
     8
 71
     3
 72
    12
 73
     8
 74
     0
 42
0.000000001
 43
0.00000001
 40
0.0
 40
0.0
 40
0.0
 40
0.0
 40
0.2499999999999997
 40
0.2499999999999997
 40
0.4999999999999994
 40
0.4999999999999994
 40
1.0
 40
1.0
 40
1.0
 40
1.0
 10
25.25061175368767
 20
2.585906527326042
 30
0.0
 10
25.24176833124338
 20
2.73992147792588
 30
0.0
 10
25.23319037135699
 20
2.886779702258143
 30
0.0
 10
25.21511867582036
 20
3.17182036889962
 30
0.0
 10
25.20582754414243
 20
3.308806914453354
 30
0.0
 10
25.17745095725819
 20
3.698006773680647
 30
0.0
 10
25.15785866687205
 20
3.928088562122067
 30
0.0
 10
25.13840466845052
 20
4.118200722595148
 30
0.0
  0
SPLINE
  5
224
330
1F
100
AcDbEntity
  8
외형선
  6
Continuous
 62
     1
370
    15
100
AcDbSpline
210
0.0
220
0.0
230
1.0
 70
     8
 71
     3
 72
    12
 73
     8
 74
     0
 42
0.000000001
 43
0.00000001
 40
0.0
 40
0.0
 40
0.0
 40
0.0
 40
0.2500000000000001
 40
0.2500000000000001
 40
0.5000000000000001
 40
0.5000000000000001
 40
1.0
 40
1.0
 40
1.0
 40
1.0
 10
18.35317586875415
 20
2.079072249876454
 30
0.0
 10
18.34378922556435
 20
2.247828026855133
 30
0.0
 10
18.33460087261427
 20
2.410545615380454
 30
0.0
 10
18.31678867168201
 20
2.721184677559904
 30
0.0
 10
18.30819731985072
 20
2.869053255995917
 30
0.0
 10
18.28103229749317
 20
3.299755014576744
 30
0.0
 10
18.26186752488892
 20
3.564624754066946
 30
0.0
 10
18.2424026229558
 20
3.794108689321837
 30
0.0
  0
SPLINE
  5
225
330
1F
100
AcDbEntity
  8
외형선
  6
Continuous
 62
     1
370
    15
100
AcDbSpline
210
0.0
220
0.0
230
1.0
 70
     8
 71
     3
 72
    12
 73
     8
 74
     0
 42
0.000000001
 43
0.00000001
 40
0.0
 40
0.0
 40
0.0
 40
0.0
 40
0.2499999999999999
 40
0.2499999999999999
 40
0.4999999999999998
 40
0.4999999999999998
 40
1.0
 40
1.0
 40
1.0
 40
1.0
 10
17.74949415710869
 20
2.60535727707991
 30
0.0
 10
17.74068598932215
 20
2.758552388676121
 30
0.0
 10
17.73208954092916
 20
2.90487419050368
 30
0.0
 10
17.71399988462671
 20
3.188639777982114
 30
0.0
 10
17.70470372573658
 20
3.324929750585556
 30
0.0
 10
17.6763245933321
 20
3.711902790610409
 30
0.0
 10
17.65674762353787
 20
3.940315399145487
 30
0.0
 10
17.63732424303626
 20
4.128719897900763
 30
0.0
  0
SPLINE
  5
226
330
1F
100
AcDbEntity
  8
외형선
  6
Continuous
 62
     1
370
    15
100
AcDbSpline
210
0.0
220
0.0
230
1.0
 70
     8
 71
     3
 72
    12
 73
     8
 74
     0
 42
0.000000001
 43
0.00000001
 40
0.0
 40
0.0
 40
0.0
 40
0.0
 40
0.25
 40
0.25
 40
0.5000000000000002
 40
0.5000000000000002
 40
1.0
 40
1.0
 40
1.0
 40
1.0
 10
10.85212002282962
 20
2.09804414262112
 30
0.0
 10
10.84275084110458
 20
2.2663011514978
 30
0.0
 10
10.83358327574463
 20
2.428465493001664
 30
0.0
 10
10.81581797090941
 20
2.737919542122599
 30
0.0
 10
10.80720829030545
 20
2.885406294678429
 30
0.0
 10
10.77999344370097
 20
3.314763746073231
 30
0.0
 10
10.76080824477021
 20
3.578474917939079
 30
0.0
 10
10.74133848626139
 20
3.806616200834042
 30
0.0
  0
SPLINE
  5
227
330
1F
100
AcDbEntity
  8
외형선
  6
Continuous
 62
     1
370
    15
100
AcDbSpline
210
0.0
220
0.0
230
1.0
 70
     8
 71
     3
 72
    12
 73
     8
 74
     0
 42
0.000000001
 43
0.00000001
 40
0.0
 40
0.0
 40
0.0
 40
0.0
 40
0.2499999999999999
 40
0.2499999999999999
 40
0.4999999999999998
 40
0.4999999999999998
 40
1.0
 40
1.0
 40
1.0
 40
1.0
 10
10.24855864247573
 20
2.621618924739296
 30
0.0
 10
10.23977421496382
 20
2.774228414179535
 30
0.0
 10
10.23115152771715
 20
2.920219864176246
 30
0.0
 10
10.21303425280495
 20
3.203085791321223
 30
0.0
 10
10.20372732430757
 20
3.338867856421821
 30
0.0
 10
10.17532612552295
 20
3.724166959348885
 30
0.0
 10
10.15574836106071
 20
3.95126061160601
 30
0.0
 10
10.13633831422138
 20
4.138250655495461
 30
0.0
  0
SPLINE
  5
228
330
1F
100
AcDbEntity
  8
외형선
  6
Continuous
 62
     1
370
    15
100
AcDbSpline
210
0.0
220
0.0
230
1.0
 70
     8
 71
     3
 72
    12
 73
     8
 74
     0
 42
0.000000001
 43
0.00000001
 40
0.0
 40
0.0
 40
0.0
 40
0.0
 40
0.25
 40
0.25
 40
0.5
 40
0.5
 40
1.0
 40
1.0
 40
1.0
 40
1.0
 10
10.48092332278133
 20
-4.057771003333389
 30
0.0
 10
10.47180644527657
 20
-3.964264876077455
 30
0.0
 10
10.46315576401375
 20
-3.863174088956609
 30
0.0
 10
10.44530242636112
 20
-3.642060791746029
 30
0.0
 10
10.43608822482026
 20
-3.521810730931088
 30
0.0
 10
10.40783676024623
 20
-3.134331369449741
 30
0.0
 10
10.388184329733
 20
-2.840009376465567
 30
0.0
 10
10.36853233656827
 20
-2.520932610397038
 30
0.0
  0
SPLINE
  5
229
330
1F
100
AcDbEntity
  8
외형선
  6
Continuous
 62
     1
370
    15
100
AcDbSpline
210
0.0
220
0.0
230
1.0
 70
     8
 71
     3
 72
    12
 73
     8
 74
     0
 42
0.000000001
 43
0.00000001
 40
0.0
 40
0.0
 40
0.0
 40
0.0
 40
0.2499999999999998
 40
0.2499999999999998
 40
0.4999999999999996
 40
0.4999999999999996
 40
1.0
 40
1.0
 40
1.0
 40
1.0
 10
17.98183169400293
 20
-4.067050910498057
 30
0.0
 10
17.9726948481343
 20
-3.974077608635873
 30
0.0
 10
17.96401885248267
 20
-3.873442203798273
 30
0.0
 10
17.94619762946639
 20
-3.65352951132465
 30
0.0
 10
17.93699680159555
 20
-3.533855448715015
 30
0.0
 10
17.90877603639358
 20
-3.147989204744408
 30
0.0
 10
17.88913125910087
 20
-2.854585833443869
 30
0.0
 10
17.86947297422935
 20
-2.536186487642468
 30
0.0
  0
SPLINE
  5
22A
330
1F
100
AcDbEntity
  8
외형선
  6
Continuous
 62
     1
370
    15
100
AcDbSpline
210
0.0
220
0.0
230
1.0
 70
     8
 71
     3
 72
    12
 73
     8
 74
     0
 42
0.000000001
 43
0.00000001
 40
0.0
 40
0.0
 40
0.0
 40
0.0
 40
0.2500000000000001
 40
0.2500000000000001
 40
0.5000000000000001
 40
0.5000000000000001
 40
1.0
 40
1.0
 40
1.0
 40
1.0
 10
25.48288389061411
 20
-4.07770865563444
 30
0.0
 10
25.47372716297948
 20
-3.985385872944283
 30
0.0
 10
25.46501965865113
 20
-3.885297179992202
 30
0.0
 10
25.44724217893124
 20
-3.666860285909881
 30
0.0
 10
25.43806030923347
 20
-3.547902820907396
 30
0.0
 10
25.40988580240277
 20
-3.164070918737314
 30
0.0
 10
25.39025742111828
 20
-2.871866093442344
 30
0.0
 10
25.37059884828078
 20
-2.554395211535175
 30
0.0
  0
SPLINE
  5
22B
330
1F
100
AcDbEntity
  8
외형선
  6
Continuous
 62
     1
370
    15
100
AcDbSpline
210
0.0
220
0.0
230
1.0
 70
     8
 71
     3
 72
    10
 73
     6
 74
     0
 42
0.000000001
 43
0.00000001
 40
0.0
 40
0.0
 40
0.0
 40
0.0
 40
0.5
 40
0.5
 40
1.0
 40
1.0
 40
1.0
 40
1.0
 10
10.64279865048374
 20
-4.179313107299985
 30
0.0
 10
10.62440875232274
 20
-4.000847823615044
 30
0.0
 10
10.60750752874496
 20
-3.790065565586608
 30
0.0
 10
10.57055824347084
 20
-3.291484936461447
 30
0.0
 10
10.55117133989213
 20
-3.005133162775421
 30
0.0
 10
10.53165675325259
 20
-2.692007966331661
 30
0.0
  0
SPLINE
  5
22C
330
1F
100
AcDbEntity
  8
외형선
  6
Continuous
 62
     1
370
    15
100
AcDbSpline
210
0.0
220
0.0
230
1.0
 70
     8
 71
     3
 72
    10
 73
     6
 74
     0
 42
0.000000001
 43
0.00000001
 40
0.0
 40
0.0
 40
0.0
 40
0.0
 40
0.5
 40
0.5
 40
1.0
 40
1.0
 40
1.0
 40
1.0
 10
18.14377480574767
 20
-4.188744632043993
 30
0.0
 10
18.12534184421463
 20
-4.011431642814632
 30
0.0
 10
18.10843471209898
 20
-3.801720115708323
 30
0.0
 10
18.07152653513362
 20
-3.30536439411157
 30
0.0
 10
18.05214704167261
 20
-3.019961040911565
 30
0.0
 10
18.03262556658071
 20
-2.707533208330175
 30
0.0
  0
SPLINE
  5
22D
330
1F
100
AcDbEntity
  8
외형선
  6
Continuous
 62
     1
370
    15
100
AcDbSpline
210
0.0
220
0.0
230
1.0
 70
     8
 71
     3
 72
    10
 73
     6
 74
     0
 42
0.000000001
 43
0.00000001
 40
0.0
 40
0.0
 40
0.0
 40
0.0
 40
0.5
 40
0.5
 40
1.0
 40
1.0
 40
1.0
 40
1.0
 10
25.08883164473848
 20
2.684417583538088
 30
0.0
 10
25.07138940797748
 20
2.982060512971235
 30
0.0
 10
25.05286719971066
 20
3.261684229593267
 30
0.0
 10
25.01448570330741
 20
3.759948042742904
 30
0.0
 10
24.99472963299254
 20
3.977833850338869
 30
0.0
 10
24.97524200109697
 20
4.15470813047023
 30
0.0
  0
SPLINE
  5
22E
330
1F
100
AcDbEntity
  8
외형선
  6
Continuous
 62
     1
370
    15
100
AcDbSpline
210
0.0
220
0.0
230
1.0
 70
     8
 71
     3
 72
    10
 73
     6
 74
     0
 42
0.000000001
 43
0.00000001
 40
0.0
 40
0.0
 40
0.0
 40
0.0
 40
0.5
 40
0.5
 40
1.0
 40
1.0
 40
1.0
 40
1.0
 10
25.64476366588652
 20
-4.198214278124055
 30
0.0
 10
25.62630803820195
 20
-4.022270181406678
 30
0.0
 10
25.60940904518137
 20
-3.813900419555723
 30
0.0
 10
25.57258829267608
 20
-3.320516608277667
 30
0.0
 10
25.55324059334823
 20
-3.036511505959349
 30
0.0
 10
25.53373491947087
 20
-2.725261345768649
 30
0.0
  0
SPLINE
  5
22F
330
1F
100
AcDbEntity
  8
외형선
  6
Continuous
 62
     1
370
    15
100
AcDbSpline
210
0.0
220
0.0
230
1.0
 70
     8
 71
     3
 72
    10
 73
     6
 74
     0
 42
0.000000001
 43
0.00000001
 40
0.0
 40
0.0
 40
0.0
 40
0.0
 40
0.4999999999999998
 40
0.4999999999999998
 40
1.0
 40
1.0
 40
1.0
 40
1.0
 10
11.24703069022932
 20
-4.434502328926892
 30
0.0
 10
11.22780058298739
 20
-4.296510041914202
 30
0.0
 10
11.20912573964939
 20
-4.117390317232397
 30
0.0
 10
11.17426790358241
 20
-3.698613643985018
 30
0.0
 10
11.15568673947362
 20
-3.449594377625703
 30
0.0
 10
11.13648028382475
 20
-3.16712135281935
 30
0.0
  0
SPLINE
  5
230
330
1F
100
AcDbEntity
  8
외형선
  6
Continuous
 62
     1
370
    15
100
AcDbSpline
210
0.0
220
0.0
230
1.0
 70
     8
 71
     3
 72
    10
 73
     6
 74
     0
 42
0.000000001
 43
0.00000001
 40
0.0
 40
0.0
 40
0.0
 40
0.0
 40
0.5
 40
0.5
 40
1.0
 40
1.0
 40
1.0
 40
1.0
 10
17.58783154515299
 20
2.701473029304907
 30
0.0
 10
17.57044726212038
 20
2.997730774766603
 30
0.0
 10
17.55181391371755
 20
3.276717799788448
 30
0.0
 10
17.51342061234859
 20
3.772337786074285
 30
0.0
 10
17.49367436205366
 20
3.988716604993586
 30
0.0
 10
17.47421113034524
 20
4.164029063033891
 30
0.0
  0
SPLINE
  5
231
330
1F
100
AcDbEntity
  8
외형선
  6
Continuous
 62
     1
370
    15
100
AcDbSpline
210
0.0
220
0.0
230
1.0
 70
     8
 71
     3
 72
    10
 73
     6
 74
     0
 42
0.000000001
 43
0.00000001
 40
0.0
 40
0.0
 40
0.0
 40
0.0
 40
0.5
 40
0.5
 40
1.0
 40
1.0
 40
1.0
 40
1.0
 10
10.08691754609355
 20
2.717014136646438
 30
0.0
 10
10.06948691759545
 20
3.012728190639387
 30
0.0
 10
10.05081660655267
 20
3.290902279597371
 30
0.0
 10
10.01237743888779
 20
3.784422444829644
 30
0.0
 10
9.992622398014099
 20
3.999515788040084
 30
0.0
 10
9.973165663836449
 20
4.17340942305915
 30
0.0
  0
SPLINE
  5
232
330
1F
100
AcDbEntity
  8
외형선
  6
Continuous
 62
     1
370
    15
100
AcDbSpline
210
0.0
220
0.0
230
1.0
 70
     8
 71
     3
 72
    10
 73
     6
 74
     0
 42
0.000000001
 43
0.00000001
 40
0.0
 40
0.0
 40
0.0
 40
0.0
 40
0.5000000000000001
 40
0.5000000000000001
 40
1.0
 40
1.0
 40
1.0
 40
1.0
 10
18.74808712499023
 20
-4.442038344722079
 30
0.0
 10
18.72884554658119
 20
-4.305595042225793
 30
0.0
 10
18.71014394643267
 20
-4.127904315266901
 30
0.0
 10
18.67520918330658
 20
-3.71154676911557
 30
0.0
 10
18.65675868702357
 20
-3.464395779789703
 30
0.0
 10
18.6375815719826
 20
-3.183291313108298
 30
0.0
  0
SPLINE
  5
233
330
1F
100
AcDbEntity
  8
외형선
  6
Continuous
 62
     1
370
    15
100
AcDbSpline
210
0.0
220
0.0
230
1.0
 70
     8
 71
     3
 72
    10
 73
     6
 74
     0
 42
0.000000001
 43
0.00000001
 40
0.0
 40
0.0
 40
0.0
 40
0.0
 40
0.5
 40
0.5
 40
1.0
 40
1.0
 40
1.0
 40
1.0
 10
26.24908445964054
 20
-4.449070663475347
 30
0.0
 10
26.22981656071694
 20
-4.313979888560583
 30
0.0
 10
26.21107510702329
 20
-4.137461357410248
 30
0.0
 10
26.17604347831699
 20
-3.722954888491524
 30
0.0
 10
26.15769036847333
 20
-3.477230176385282
 30
0.0
 10
26.13852358314576
 20
-3.197079901931346
 30
0.0
  0
SPLINE
  5
234
330
1F
100
AcDbEntity
  8
외형선
  6
Continuous
 62
     1
370
    15
100
AcDbSpline
210
0.0
220
0.0
230
1.0
 70
     8
 71
     3
 72
    10
 73
     6
 74
     0
 42
0.000000001
 43
0.00000001
 40
0.0
 40
0.0
 40
0.0
 40
0.0
 40
0.4999999999999998
 40
0.4999999999999998
 40
1.0
 40
1.0
 40
1.0
 40
1.0
 10
24.43982654108841
 20
3.185962294099982
 30
0.0
 10
24.42134484722433
 20
3.456717091346079
 30
0.0
 10
24.40198970743319
 20
3.702151694856782
 30
0.0
 10
24.36309549323837
 20
4.118834528388309
 30
0.0
 10
24.34357161002388
 20
4.289908448362618
 30
0.0
 10
24.32477493625838
 20
4.417917032126774
 30
0.0
  0
SPLINE
  5
235
330
1F
100
AcDbEntity
  8
외형선
  6
Continuous
 62
     1
370
    15
100
AcDbSpline
210
0.0
220
0.0
230
1.0
 70
     8
 71
     3
 72
    10
 73
     6
 74
     0
 42
0.000000001
 43
0.00000001
 40
0.0
 40
0.0
 40
0.0
 40
0.0
 40
0.5
 40
0.5
 40
1.0
 40
1.0
 40
1.0
 40
1.0
 10
16.93888740164512
 20
3.199688269098711
 30
0.0
 10
16.92036953056703
 20
3.469699345430743
 30
0.0
 10
16.90098959863816
 20
3.714134167882643
 30
0.0
 10
16.86207493346266
 20
4.128432347706329
 30
0.0
 10
16.84255543487221
 20
4.298123937112155
 30
0.0
 10
16.82377706237206
 20
4.424677390246335
 30
0.0
  0
SPLINE
  5
237
330
1F
100
AcDbEntity
  8
외형선
  6
Continuous
 62
     1
370
    15
100
AcDbSpline
210
0.0
220
0.0
230
1.0
 70
     8
 71
     3
 72
    12
 73
     8
 74
     0
 42
0.000000001
 43
0.00000001
 40
0.0
 40
0.0
 40
0.0
 40
0.0
 40
0.4999999999999998
 40
0.4999999999999998
 40
0.7499999999999999
 40
0.7499999999999999
 40
1.0
 40
1.0
 40
1.0
 40
1.0
 10
11.41013451661472
 20
-4.443962714716184
 30
0.0
 10
11.39061526063511
 20
-4.318939675035583
 30
0.0
 10
11.37153405834172
 20
-4.151420527186942
 30
0.0
 10
11.34468050328691
 20
-3.851770002475019
 30
0.0
 10
11.33598423044861
 20
-3.743941238604976
 30
0.0
 10
11.31765787747217
 20
-3.507784032167477
 30
0.0
 10
11.30823466547214
 20
-3.380176570075733
 30
0.0
 10
11.29864279962851
 20
-3.24400091876376
 30
0.0
  0
SPLINE
  5
238
330
1F
100
AcDbEntity
  8
외형선
  6
Continuous
 62
     1
370
    15
100
AcDbSpline
210
0.0
220
0.0
230
1.0
 70
     8
 71
     3
 72
    12
 73
     8
 74
     0
 42
0.000000001
 43
0.00000001
 40
0.0
 40
0.0
 40
0.0
 40
0.0
 40
0.4999999999999998
 40
0.4999999999999998
 40
0.7499999999999999
 40
0.7499999999999999
 40
1.0
 40
1.0
 40
1.0
 40
1.0
 10
18.91113640088952
 20
-4.45034064076656
 30
0.0
 10
18.89161330943656
 20
-4.326822575267527
 30
0.0
 10
18.87251325791897
 20
-4.160725707129862
 30
0.0
 10
18.84561291870285
 20
-3.862922566052791
 30
0.0
 10
18.83694365400696
 20
-3.755840880434071
 30
0.0
 10
18.81866422277891
 20
-3.521168407837412
 30
0.0
 10
18.80926175813885
 20
-3.394287385603104
 30
0.0
 10
18.79968724778741
 20
-3.258804600404912
 30
0.0
  0
SPLINE
  5
239
330
1F
100
AcDbEntity
  8
외형선
  6
Continuous
 62
     1
370
    15
100
AcDbSpline
210
0.0
220
0.0
230
1.0
 70
     8
 71
     3
 72
    12
 73
     8
 74
     0
 42
0.000000001
 43
0.00000001
 40
0.0
 40
0.0
 40
0.0
 40
0.0
 40
0.5
 40
0.5
 40
0.75
 40
0.75
 40
1.0
 40
1.0
 40
1.0
 40
1.0
 10
26.41220071093337
 20
-4.457030047743581
 30
0.0
 10
26.3926549231442
 20
-4.334992733268638
 30
0.0
 10
26.3735170701094
 20
-4.170206732866606
 30
0.0
 10
26.34654464806306
 20
-3.873989858627628
 30
0.0
 10
26.33788964401702
 20
-3.767531742589957
 30
0.0
 10
26.3196394250692
 20
-3.534096576699683
 30
0.0
 10
26.31024843636958
 20
-3.407801212466452
 30
0.0
 10
26.30068186304313
 20
-3.272856635587174
 30
0.0
  0
SPLINE
  5
23A
330
1F
100
AcDbEntity
  8
외형선
  6
Continuous
 62
     1
370
    15
100
AcDbSpline
210
0.0
220
0.0
230
1.0
 70
     8
 71
     3
 72
    10
 73
     6
 74
     0
 42
0.000000001
 43
0.00000001
 40
0.0
 40
0.0
 40
0.0
 40
0.0
 40
0.5000000000000001
 40
0.5000000000000001
 40
1.0
 40
1.0
 40
1.0
 40
1.0
 10
24.27698544771267
 20
3.345275318969672
 30
0.0
 10
24.25840191229328
 20
3.609049737145964
 30
0.0
 10
24.23906755246278
 20
3.845533872920763
 30
0.0
 10
24.20045890918174
 20
4.242041609200033
 30
0.0
 10
24.18119928285895
 20
4.401919748027916
 30
0.0
 10
24.16275538626833
 20
4.518684809252978
 30
0.0
  0
SPLINE
  5
23B
330
1F
100
AcDbEntity
  8
외형선
  6
Continuous
 62
     1
370
    15
100
AcDbSpline
210
0.0
220
0.0
230
1.0
 70
     8
 71
     3
 72
    10
 73
     6
 74
     0
 42
0.000000001
 43
0.00000001
 40
0.0
 40
0.0
 40
0.0
 40
0.0
 40
0.5
 40
0.5
 40
1.0
 40
1.0
 40
1.0
 40
1.0
 10
16.77596289725407
 20
3.359751651843196
 30
0.0
 10
16.75734781747739
 20
3.62260065987202
 30
0.0
 10
16.7379949141781
 20
3.857901547331644
 30
0.0
 10
16.69937994426371
 20
4.251693255097149
 30
0.0
 10
16.68013254426675
 20
4.410041663324081
 30
0.0
 10
16.66171459121816
 20
4.52523412865911
 30
0.0
  0
SPLINE
  5
23D
330
1F
100
AcDbEntity
  8
외형선
  6
Continuous
 62
     1
370
    15
100
AcDbSpline
210
0.0
220
0.0
230
1.0
 70
     8
 71
     3
 72
    10
 73
     6
 74
     0
 42
0.000000001
 43
0.00000001
 40
0.0
 40
0.0
 40
0.0
 40
0.0
 40
0.5000000000000001
 40
0.5000000000000001
 40
1.0
 40
1.0
 40
1.0
 40
1.0
 10
23.67237311350652
 20
3.747571658994949
 30
0.0
 10
23.65311504161291
 20
3.979709898905262
 30
0.0
 10
23.6335211259587
 20
4.177596206237308
 30
0.0
 10
23.59528994249432
 20
4.488967780071412
 30
0.0
 10
23.57666622138672
 20
4.602409243681973
 30
0.0
 10
23.55922192162034
 20
4.672763058407202
 30
0.0
  0
SPLINE
  5
23E
330
1F
100
AcDbEntity
  8
외형선
  6
Continuous
 62
     1
370
    15
100
AcDbSpline
210
0.0
220
0.0
230
1.0
 70
     8
 71
     3
 72
    10
 73
     6
 74
     0
 42
0.000000001
 43
0.00000001
 40
0.0
 40
0.0
 40
0.0
 40
0.0
 40
0.5
 40
0.5
 40
1.0
 40
1.0
 40
1.0
 40
1.0
 10
16.17131579498807
 20
3.76027871994672
 30
0.0
 10
16.15204958658812
 20
3.991132818278122
 30
0.0
 10
16.13246268616489
 20
4.187545522270291
 30
0.0
 10
16.09427405542323
 20
4.495838518478028
 30
0.0
 10
16.07568576966545
 20
4.607678702094264
 30
0.0
 10
16.05828664931308
 20
4.676498766761671
 30
0.0
  0
SPLINE
  5
240
330
1F
100
AcDbEntity
  8
외형선
  6
Continuous
 62
     1
370
    15
100
AcDbSpline
210
0.0
220
0.0
230
1.0
 70
     8
 71
     3
 72
    12
 73
     8
 74
     0
 42
0.000000001
 43
0.00000001
 40
0.0
 40
0.0
 40
0.0
 40
0.0
 40
0.4999999999999998
 40
0.4999999999999998
 40
0.7499999999999999
 40
0.7499999999999999
 40
1.0
 40
1.0
 40
1.0
 40
1.0
 10
12.06090283720811
 20
-4.614712052316518
 30
0.0
 10
12.0412714193672
 20
-4.539498367041011
 30
0.0
 10
12.02158440337854
 20
-4.419148002275772
 30
0.0
 10
11.99320572941124
 20
-4.18086329449358
 30
0.0
 10
11.98393681598875
 20
-4.091922551696229
 30
0.0
 10
11.96595313871459
 20
-3.897777350437321
 30
0.0
 10
11.95736037898953
 20
-3.793208184579401
 30
0.0
 10
11.9483194232287
 20
-3.678541597250231
 30
0.0
  0
SPLINE
  5
241
330
1F
100
AcDbEntity
  8
외형선
  6
Continuous
 62
     1
370
    15
100
AcDbSpline
210
0.0
220
0.0
230
1.0
 70
     8
 71
     3
 72
    12
 73
     8
 74
     0
 42
0.000000001
 43
0.00000001
 40
0.0
 40
0.0
 40
0.0
 40
0.0
 40
0.4999999999999999
 40
0.4999999999999999
 40
0.7499999999999999
 40
0.7499999999999999
 40
1.0
 40
1.0
 40
1.0
 40
1.0
 10
19.56195125077338
 20
-4.618686706137265
 30
0.0
 10
19.54231704370252
 20
-4.545040166767979
 30
0.0
 10
19.52261171107075
 20
-4.426177576479096
 30
0.0
 10
19.49418590457446
 20
-4.189830275141609
 30
0.0
 10
19.4848980702838
 20
-4.101487013123125
 30
0.0
 10
19.4668713616804
 20
-3.908422430276015
 30
0.0
 10
19.45827977620351
 20
-3.804426116531574
 30
0.0
 10
19.44925504266674
 20
-3.690386266170654
 30
0.0
  0
SPLINE
  5
242
330
1F
100
AcDbEntity
  8
외형선
  6
Continuous
 62
     1
370
    15
100
AcDbSpline
210
0.0
220
0.0
230
1.0
 70
     8
 71
     3
 72
    12
 73
     8
 74
     0
 42
0.000000001
 43
0.00000001
 40
0.0
 40
0.0
 40
0.0
 40
0.0
 40
0.4999999999999996
 40
0.4999999999999996
 40
0.7499999999999998
 40
0.7499999999999998
 40
1.0
 40
1.0
 40
1.0
 40
1.0
 10
27.0629646171478
 20
-4.622448407123466
 30
0.0
 10
27.04334727880171
 20
-4.550389337466465
 30
0.0
 10
27.02364394210114
 20
-4.433128766161788
 30
0.0
 10
26.99519870732229
 20
-4.199002850996876
 30
0.0
 10
26.98590073064986
 20
-4.111370023736599
 30
0.0
 10
26.96784714982776
 20
-3.919639508267494
 30
0.0
 10
26.95926053042748
 20
-3.816339929018234
 30
0.0
 10
26.95026253614592
 20
-3.703091928603531
 30
0.0
  0
SPLINE
  5
243
330
1F
100
AcDbEntity
  8
외형선
  6
Continuous
 62
     1
370
    15
100
AcDbSpline
210
0.0
220
0.0
230
1.0
 70
     8
 71
     3
 72
    12
 73
     8
 74
     0
 42
0.000000001
 43
0.00000001
 40
0.0
 40
0.0
 40
0.0
 40
0.0
 40
0.4999999999999996
 40
0.4999999999999996
 40
0.7499999999999998
 40
0.7499999999999998
 40
1.0
 40
1.0
 40
1.0
 40
1.0
 10
12.22313833212319
 20
-4.695135618381894
 30
0.0
 10
12.20372336544378
 20
-4.631799722638947
 30
0.0
 10
12.18413939820933
 20
-4.523334832785116
 30
0.0
 10
12.15572811197571
 20
-4.301282342578182
 30
0.0
 10
12.14641769440786
 20
-4.217487451711774
 30
0.0
 10
12.12829339397872
 20
-4.032885271585855
 30
0.0
 10
12.11966668589008
 20
-3.932868877061565
 30
0.0
 10
12.11088079796615
 20
-3.823877671934047
 30
0.0
  0
SPLINE
  5
244
330
1F
100
AcDbEntity
  8
외형선
  6
Continuous
 62
     1
370
    15
100
AcDbSpline
210
0.0
220
0.0
230
1.0
 70
     8
 71
     3
 72
    12
 73
     8
 74
     0
 42
0.000000001
 43
0.00000001
 40
0.0
 40
0.0
 40
0.0
 40
0.0
 40
0.4999999999999998
 40
0.4999999999999998
 40
0.7499999999999999
 40
0.7499999999999999
 40
1.0
 40
1.0
 40
1.0
 40
1.0
 10
19.72422963200771
 20
-4.698649363590238
 30
0.0
 10
19.70482399652037
 20
-4.636991268031433
 30
0.0
 10
19.68523364268515
 20
-4.530179601582288
 30
0.0
 10
19.65679054046217
 20
-4.310369131743093
 30
0.0
 10
19.64746588205439
 20
-4.227282370016009
 30
0.0
 10
19.62930678501157
 20
-4.043993502412788
 30
0.0
 10
19.6206442123585
 20
-3.94450935674053
 30
0.0
 10
19.61188138142681
 20
-3.836263940933121
 30
0.0
  0
SPLINE
  5
245
330
1F
100
AcDbEntity
  8
외형선
  6
Continuous
 62
     1
370
    15
100
AcDbSpline
210
0.0
220
0.0
230
1.0
 70
     8
 71
     3
 72
    12
 73
     8
 74
     0
 42
0.000000001
 43
0.00000001
 40
0.0
 40
0.0
 40
0.0
 40
0.0
 40
0.5
 40
0.5
 40
0.75
 40
0.75
 40
1.0
 40
1.0
 40
1.0
 40
1.0
 10
27.22519886687367
 20
-4.701692383093123
 30
0.0
 10
27.20580738964665
 20
-4.64154230370792
 30
0.0
 10
27.18621735832085
 20
-4.536244551940292
 30
0.0
 10
27.1577540761021
 20
-4.318526544001752
 30
0.0
 10
27.14841931094071
 20
-4.23610777011556
 30
0.0
 10
27.13023394654599
 20
-4.054071328491387
 30
0.0
 10
27.1215364753457
 20
-3.955087405505032
 30
0.0
 10
27.11279737265678
 20
-3.847556900506079
 30
0.0
  0
SPLINE
  5
246
330
1F
100
AcDbEntity
  8
외형선
  6
Continuous
 62
     1
370
    15
100
AcDbSpline
210
0.0
220
0.0
230
1.0
 70
     8
 71
     3
 72
    10
 73
     6
 74
     0
 42
0.000000001
 43
0.00000001
 40
0.0
 40
0.0
 40
0.0
 40
0.0
 40
0.4999999999999998
 40
0.4999999999999998
 40
1.0
 40
1.0
 40
1.0
 40
1.0
 10
23.51008453029413
 20
3.798178161592257
 30
0.0
 10
23.49055935841727
 20
4.020531094062618
 30
0.0
 10
23.4708074173677
 20
4.206841254810387
 30
0.0
 10
23.43251603946531
 20
4.493120341884051
 30
0.0
 10
23.41429549594881
 20
4.592767082175785
 30
0.0
 10
23.3967197671689
 20
4.650121498629935
 30
0.0
  0
SPLINE
  5
247
330
1F
100
AcDbEntity
  8
외형선
  6
Continuous
 62
     1
370
    15
100
AcDbSpline
210
0.0
220
0.0
230
1.0
 70
     8
 71
     3
 72
    12
 73
     8
 74
     0
 42
0.000000001
 43
0.00000001
 40
0.0
 40
0.0
 40
0.0
 40
0.0
 40
0.5
 40
0.5
 40
0.75
 40
0.75
 40
1.0
 40
1.0
 40
1.0
 40
1.0
 10
16.00910221042275
 20
3.809332708217955
 30
0.0
 10
15.989570158201
 20
4.030486599385051
 30
0.0
 10
15.96982571369187
 20
4.215423109930018
 30
0.0
 10
15.94113846754169
 20
4.427987043909304
 30
0.0
 10
15.93173034105482
 20
4.48814559442742
 30
0.0
 10
15.91340507651956
 20
4.586705252161391
 30
0.0
 10
15.90464524716587
 20
4.624959876800609
 30
0.0
 10
15.89583780015277
 20
4.65296259974165
 30
0.0
  0
SPLINE
  5
249
330
1F
100
AcDbEntity
  8
외형선
  6
Continuous
 62
     1
370
    15
100
AcDbSpline
210
0.0
220
0.0
230
1.0
 70
     8
 71
     3
 72
    10
 73
     6
 74
     0
 42
0.000000001
 43
0.00000001
 40
0.0
 40
0.0
 40
0.0
 40
0.0
 40
0.5
 40
0.5
 40
1.0
 40
1.0
 40
1.0
 40
1.0
 10
12.82802126945465
 20
-4.758467353639596
 30
0.0
 10
12.80914565304209
 20
-4.743130163672326
 30
0.0
 10
12.78967042211058
 20
-4.683288555579002
 30
0.0
 10
12.75111920730658
 20
-4.477730381482656
 30
0.0
 10
12.73205770128744
 20
-4.332123563233887
 30
0.0
 10
12.71395517488765
 20
-4.152030118636722
 30
0.0
  0
SPLINE
  5
24A
330
1F
100
AcDbEntity
  8
외형선
  6
Continuous
 62
     1
370
    15
100
AcDbSpline
210
0.0
220
0.0
230
1.0
 70
     8
 71
     3
 72
    10
 73
     6
 74
     0
 42
0.000000001
 43
0.00000001
 40
0.0
 40
0.0
 40
0.0
 40
0.0
 40
0.5
 40
0.5
 40
1.0
 40
1.0
 40
1.0
 40
1.0
 10
20.32898875011966
 20
-4.759215430051594
 30
0.0
 10
20.3101446113339
 20
-4.745386212105087
 30
0.0
 10
20.29068847554672
 20
-4.687142301303045
 30
0.0
 10
20.25214590946367
 20
-4.484698050631941
 30
0.0
 10
20.23307395116981
 20
-4.340603901592557
 30
0.0
 10
20.21494772465647
 20
-4.161861064238564
 30
0.0
  0
SPLINE
  5
24B
330
1F
100
AcDbEntity
  8
외형선
  6
Continuous
 62
     1
370
    15
100
AcDbSpline
210
0.0
220
0.0
230
1.0
 70
     8
 71
     3
 72
    10
 73
     6
 74
     0
 42
0.000000001
 43
0.00000001
 40
0.0
 40
0.0
 40
0.0
 40
0.0
 40
0.5
 40
0.5
 40
1.0
 40
1.0
 40
1.0
 40
1.0
 10
27.83006267989704
 20
-4.75995658041973
 30
0.0
 10
27.81123589363503
 20
-4.747787912301574
 30
0.0
 10
27.79178223108382
 20
-4.691220084463824
 30
0.0
 10
27.7532140342982
 20
-4.491884599501735
 30
0.0
 10
27.73411402969618
 20
-4.349219843271157
 30
0.0
 10
27.71594807786596
 20
-4.171681573977863
 30
0.0
  0
SPLINE
  5
24C
330
1F
100
AcDbEntity
  8
외형선
  6
Continuous
 62
     1
370
    15
100
AcDbSpline
210
0.0
220
0.0
230
1.0
 70
     8
 71
     3
 72
    10
 73
     6
 74
     0
 42
0.000000001
 43
0.00000001
 40
0.0
 40
0.0
 40
0.0
 40
0.0
 40
0.5000000000000001
 40
0.5000000000000001
 40
1.0
 40
1.0
 40
1.0
 40
1.0
 10
12.99102395913774
 20
-4.709104757092541
 30
0.0
 10
12.97221847815243
 20
-4.707208272628023
 30
0.0
 10
12.95268741090302
 20
-4.661096508149252
 30
0.0
 10
12.91378385848702
 20
-4.481374017422866
 30
0.0
 10
12.89442658181191
 20
-4.347847345887312
 30
0.0
 10
12.87594549093679
 20
-4.178216937956694
 30
0.0
  0
LINE
  5
24D
330
1F
100
AcDbEntity
  8
외형선
  6
Continuous
 62
     1
370
    15
100
AcDbLine
 10
29.05
 20
-0.7143749971874118
 30
0.0
 11
29.05
 21
-2.404963364824658
 31
0.0
  0
SPLINE
  5
24E
330
1F
100
AcDbEntity
  8
외형선
  6
Continuous
 62
     1
370
    15
100
AcDbSpline
210
0.0
220
0.0
230
1.0
 70
     8
 71
     3
 72
    10
 73
     6
 74
     0
 42
0.000000001
 43
0.00000001
 40
0.0
 40
0.0
 40
0.0
 40
0.0
 40
0.5
 40
0.5
 40
1.0
 40
1.0
 40
1.0
 40
1.0
 10
20.49194468535196
 20
-4.709162804206982
 30
0.0
 10
20.47316743053574
 20
-4.70868941740284
 30
0.0
 10
20.45365264114446
 20
-4.664077160805797
 30
0.0
 10
20.41475351730482
 20
-4.4872602025994
 30
0.0
 10
20.39538438668711
 20
-4.355136165327094
 30
0.0
 10
20.37687901845184
 20
-4.186748423096463
 30
0.0
  0
SPLINE
  5
24F
330
1F
100
AcDbEntity
  8
외형선
  6
Continuous
 62
     1
370
    15
100
AcDbSpline
210
0.0
220
0.0
230
1.0
 70
     8
 71
     3
 72
    10
 73
     6
 74
     0
 42
0.000000001
 43
0.00000001
 40
0.0
 40
0.0
 40
0.0
 40
0.0
 40
0.5
 40
0.5
 40
1.0
 40
1.0
 40
1.0
 40
1.0
 10
27.9930425068418
 20
-4.709140864444845
 30
0.0
 10
27.97429153606705
 20
-4.710363925274287
 30
0.0
 10
27.95478821127078
 20
-4.667504062573259
 30
0.0
 10
27.91587923786196
 20
-4.494014072642805
 30
0.0
 10
27.89648881580911
 20
-4.363460798510631
 30
0.0
 10
27.87794858347462
 20
-4.19643243316632
 30
0.0
  0
LINE
  5
250
330
1F
100
AcDbEntity
  8
외형선
  6
Continuous
 62
     1
370
    15
100
AcDbLine
 10
22.01311289072037
 20
4.730587825179094
 30
0.0
 11
22.01100623905659
 21
4.72975661978125
 31
0.0
  0
LINE
  5
251
330
1F
100
AcDbEntity
  8
외형선
  6
Continuous
 62
     1
370
    15
100
AcDbLine
 10
14.51308930963278
 20
4.730998538434499
 30
0.0
 11
14.51112142503262
 21
4.730068612843746
 31
0.0
  0
SPLINE
  5
253
330
1F
100
AcDbEntity
  8
외형선
  6
Continuous
 62
     1
370
    15
100
AcDbSpline
210
0.0
220
0.0
230
1.0
 70
     8
 71
     3
 72
     8
 73
     4
 74
     0
 42
0.000000001
 43
0.00000001
 40
0.0000003030761704
 40
0.0000003030761704
 40
0.0000003030761704
 40
0.0000003030761704
 40
0.000304191462904
 40
0.000304191462904
 40
0.000304191462904
 40
0.000304191462904
 10
29.04999987185002
 20
4.323884203973902
 30
0.0
 10
28.98315547231699
 20
4.383901836457119
 30
0.0
 10
28.91613127044584
 20
4.443621948081564
 30
0.0
 10
28.84894775856648
 20
4.503072614411324
 30
0.0
  0
LINE
  5
254
330
1F
100
AcDbEntity
  8
외형선
  6
Continuous
 62
     1
370
    15
100
AcDbLine
 10
29.05
 20
1.046362449415021
 30
0.0
 11
29.05
 21
1.058636698871845
 31
0.0
  0
LINE
  5
255
330
1F
100
AcDbEntity
  8
외형선
  6
Continuous
 62
     1
370
    15
100
AcDbLine
 10
29.05
 20
1.690588309429579
 30
0.0
 11
29.05
 21
4.323884379118675
 31
0.0
  0
LINE
  5
256
330
1F
100
AcDbEntity
  8
외형선
  6
Continuous
 62
     1
370
    15
100
AcDbLine
 10
13.76466824412346
 20
-4.755149129778153
 30
0.0
 11
13.76294064074755
 21
-4.754693247377879
 31
0.0
  0
LINE
  5
257
330
1F
100
AcDbEntity
  8
외형선
  6
Continuous
 62
     1
370
    15
100
AcDbLine
 10
21.26457820385695
 20
-4.754742607474333
 30
0.0
 11
21.26290834248066
 21
-4.754453431814915
 31
0.0
  0
SPLINE
  5
258
330
1F
100
AcDbEntity
  8
외형선
  6
Continuous
 62
     1
370
    15
100
AcDbSpline
210
0.0
220
0.0
230
1.0
 70
     8
 71
     3
 72
    10
 73
     6
 74
     0
 42
0.000000001
 43
0.00000001
 40
0.0
 40
0.0
 40
0.0
 40
0.0
 40
0.2328029168560354
 40
0.7198127979783546
 40
1.0
 40
1.0
 40
1.0
 40
1.0
 10
28.67075427174568
 20
-4.544606432318694
 30
0.0
 10
28.67127014190759
 20
-4.574964415649126
 30
0.0
 10
28.6728651818222
 20
-4.668829497827505
 30
0.0
 10
28.67708819624394
 20
-4.747411783520231
 30
0.0
 10
28.68184233120391
 20
-4.740933370928174
 30
0.0
 10
28.68357858359814
 20
-4.738567396998412
 30
0.0
  0
LINE
  5
259
330
1F
100
AcDbEntity
  8
외형선
  6
Continuous
 62
     1
370
    15
100
AcDbLine
 10
21.85148185789585
 20
4.698587581515307
 30
0.0
 11
21.85011281371117
 21
4.696794785559171
 31
0.0
  0
SPLINE
  5
25A
330
1F
100
AcDbEntity
  8
외형선
  6
Continuous
 62
     1
370
    15
100
AcDbSpline
210
0.0
220
0.0
230
1.0
 70
     8
 71
     3
 72
     9
 73
     5
 74
     0
 42
0.000000001
 43
0.00000001
 40
0.0
 40
0.0
 40
0.0
 40
0.0
 40
0.9927675845794568
 40
1.0
 40
1.0
 40
1.0
 40
1.0
 10
14.35139215290547
 20
4.703832324594253
 30
0.0
 10
14.35069724179051
 20
4.705074610343862
 30
0.0
 10
14.34999726817559
 20
4.706325946274752
 30
0.0
 10
14.34926749619148
 20
4.704773940596098
 30
0.0
 10
14.34926221817732
 20
4.704762715846293
 30
0.0
  0
LINE
  5
25B
330
1F
100
AcDbEntity
  8
외형선
  6
Continuous
 62
     1
370
    15
100
AcDbLine
 10
14.33680577874184
 20
-4.738971125334507
 30
0.0
 11
14.33568074107171
 21
-4.73756110295654
 31
0.0
  0
LINE
  5
25C
330
1F
100
AcDbEntity
  8
외형선
  6
Continuous
 62
     1
370
    15
100
AcDbLine
 10
21.83682470321655
 20
-4.737861454486853
 30
0.0
 11
21.83550408780575
 21
-4.736308474093682
 31
0.0
  0
LINE
  5
25D
330
1F
100
AcDbEntity
  8
외형선
  6
Continuous
 62
     1
370
    15
100
AcDbLine
 10
29.05
 20
-4.255753010511405
 30
0.0
 11
29.05
 21
-4.382499959319836
 31
0.0
  0
LINE
  5
261
330
1F
100
AcDbEntity
  8
외형선
  6
Continuous
 62
     1
370
    15
100
AcDbLine
 10
28.69440613985062
 20
4.734043963253492
 30
0.0
 11
28.67591379880905
 21
4.706817213445896
 31
0.0
  0
LINE
  5
262
330
1F
100
AcDbEntity
  8
외형선
  6
Continuous
 62
     1
370
    15
100
AcDbLine
 10
29.05
 20
4.382499959319824
 30
0.0
 11
29.05
 21
4.323884379118675
 31
0.0
  0
LINE
  5
263
330
1F
100
AcDbEntity
  8
외형선
  6
Continuous
 62
     1
370
    15
100
AcDbLine
 10
21.08941039741039
 20
4.761816002428525
 30
0.0
 11
21.08712120652199
 21
4.759666044265026
 31
0.0
  0
LINE
  5
264
330
1F
100
AcDbEntity
  8
외형선
  6
Continuous
 62
     1
370
    15
100
AcDbLine
 10
13.58876608982683
 20
4.762393422424787
 30
0.0
 11
13.58715397045017
 21
4.760737530887121
 31
0.0
  0
LINE
  5
265
330
1F
100
AcDbEntity
  8
외형선
  6
Continuous
 62
     1
370
    15
100
AcDbLine
 10
28.58943118453026
 20
4.753645975142711
 30
0.0
 11
28.58780882060528
 21
4.755452275276178
 31
0.0
  0
LINE
  5
266
330
1F
100
AcDbEntity
  8
외형선
  6
Continuous
 62
     1
370
    15
100
AcDbLine
 10
20.3523030385375
 20
4.706971812993282
 30
0.0
 11
20.35089581012726
 21
4.704639315605157
 31
0.0
  0
SPLINE
  5
267
330
1F
100
AcDbEntity
  8
외형선
  6
Continuous
 62
     1
370
    15
100
AcDbSpline
210
0.0
220
0.0
230
1.0
 70
     8
 71
     3
 72
    11
 73
     7
 74
     0
 42
0.000000001
 43
0.00000001
 40
0.0
 40
0.0
 40
0.0
 40
0.0
 40
0.2764181321771732
 40
0.5494125944279545
 40
0.7916274894399487
 40
1.0
 40
1.0
 40
1.0
 40
1.0
 10
22.85929581820965
 20
4.141641315072769
 30
0.0
 10
22.84904500432812
 20
4.229720611571855
 30
0.0
 10
22.82867034147478
 20
4.404788268761343
 30
0.0
 10
22.79998221212951
 20
4.57188477912508
 30
0.0
 10
22.77519110983709
 20
4.67521310035404
 30
0.0
 10
22.75901113052676
 20
4.693407931281959
 30
0.0
 10
22.75152875781059
 20
4.701822064816946
 30
0.0
  0
SPLINE
  5
268
330
1F
100
AcDbEntity
  8
외형선
  6
Continuous
 62
     1
370
    15
100
AcDbSpline
210
0.0
220
0.0
230
1.0
 70
     8
 71
     3
 72
    11
 73
     7
 74
     0
 42
0.000000001
 43
0.00000001
 40
0.0
 40
0.0
 40
0.0
 40
0.0
 40
0.0514592262364688
 40
0.3476676450005254
 40
0.639291892424562
 40
1.0
 40
1.0
 40
1.0
 40
1.0
 10
15.35822449922562
 20
4.151431377977127
 30
0.0
 10
15.35633109346987
 20
4.168443604795551
 30
0.0
 10
15.3435389088943
 20
4.283381221754602
 30
0.0
 10
15.32010157525157
 20
4.45871461443749
 30
0.0
 10
15.28687523426305
 20
4.645814478456691
 30
0.0
 10
15.26403084411554
 20
4.679155842697075
 30
0.0
 10
15.2513990059495
 20
4.697591997683042
 30
0.0
  0
SPLINE
  5
26A
330
1F
100
AcDbEntity
  8
외형선
  6
Continuous
 62
     1
370
    15
100
AcDbSpline
210
0.0
220
0.0
230
1.0
 70
     8
 71
     3
 72
    11
 73
     7
 74
     0
 42
0.000000001
 43
0.00000001
 40
0.0
 40
0.0
 40
0.0
 40
0.0
 40
0.255306306587462
 40
0.5106125430778646
 40
0.765918767226559
 40
1.0
 40
1.0
 40
1.0
 40
1.0
 10
22.69619702100754
 20
4.267154261469835
 30
0.0
 10
22.6869796254126
 20
4.344368530795133
 30
0.0
 10
22.66854483675344
 20
4.498797048245734
 30
0.0
 10
22.64088879687309
 20
4.651255599872098
 30
0.0
 10
22.61400325498261
 20
4.746819976312423
 30
0.0
 10
22.59633387011257
 20
4.755734238018795
 30
0.0
 10
22.58788234293461
 20
4.759998060762876
 30
0.0
  0
SPLINE
  5
26B
330
1F
100
AcDbEntity
  8
외형선
  6
Continuous
 62
     1
370
    15
100
AcDbSpline
210
0.0
220
0.0
230
1.0
 70
     8
 71
     3
 72
    11
 73
     7
 74
     0
 42
0.000000001
 43
0.00000001
 40
0.0
 40
0.0
 40
0.0
 40
0.0
 40
0.2578991501834221
 40
0.5157982914397748
 40
0.7736974876049242
 40
1.0
 40
1.0
 40
1.0
 40
1.0
 10
15.19508379250765
 20
4.276779945939773
 30
0.0
 10
15.18586680696152
 20
4.353227796406872
 30
0.0
 10
15.1674328361883
 20
4.506123494694864
 30
0.0
 10
15.13978181461401
 20
4.656005141815043
 30
0.0
 10
15.11326025757898
 20
4.748256439105577
 30
0.0
 10
15.09595509775174
 20
4.755557862540876
 30
0.0
 10
15.0878671437502
 20
4.758970346301788
 30
0.0
  0
SPLINE
  5
26D
330
1F
100
AcDbEntity
  8
외형선
  6
Continuous
 62
     1
370
    15
100
AcDbSpline
210
0.0
220
0.0
230
1.0
 70
     8
 71
     3
 72
    10
 73
     6
 74
     0
 42
0.000000001
 43
0.00000001
 40
0.0
 40
0.0
 40
0.0
 40
0.0
 40
0.2206345313647408
 40
0.6565412667959952
 40
0.9999999999999999
 40
0.9999999999999999
 40
0.9999999999999999
 40
0.9999999999999999
 10
13.60144045874477
 20
-4.695959854871041
 30
0.0
 10
13.59597787550211
 20
-4.694204916514228
 30
0.0
 10
13.57972288903228
 20
-4.688982753669618
 30
0.0
 10
13.55430132182001
 20
-4.600144478889866
 30
0.0
 10
13.53470072569669
 20
-4.485235207117414
 30
0.0
 10
13.52606293484569
 20
-4.43459581583739
 30
0.0
  0
SPLINE
  5
26E
330
1F
100
AcDbEntity
  8
외형선
  6
Continuous
 62
     1
370
    15
100
AcDbSpline
210
0.0
220
0.0
230
1.0
 70
     8
 71
     3
 72
     9
 73
     5
 74
     0
 42
0.000000001
 43
0.00000001
 40
0.0
 40
0.0
 40
0.0
 40
0.0
 40
0.7059707174701583
 40
1.0
 40
1.0
 40
1.0
 40
1.0
 10
22.09156191647053
 20
4.501061048358673
 30
0.0
 10
22.0731015152221
 20
4.611254085530761
 30
0.0
 10
22.04695255352779
 20
4.767341348706439
 30
0.0
 10
22.02080193756858
 20
4.738938959345131
 30
0.0
 10
22.01311289072037
 20
4.730587825179094
 30
0.0
  0
SPLINE
  5
26F
330
1F
100
AcDbEntity
  8
외형선
  6
Continuous
 62
     1
370
    15
100
AcDbSpline
210
0.0
220
0.0
230
1.0
 70
     8
 71
     3
 72
    10
 73
     6
 74
     0
 42
0.000000001
 43
0.00000001
 40
0.0
 40
0.0
 40
0.0
 40
0.0
 40
0.0826474080892468
 40
0.5231583933235123
 40
1.0
 40
1.0
 40
1.0
 40
1.0
 10
21.10166101455689
 20
-4.70019411295653
 30
0.0
 10
21.0996552473837
 20
-4.700879805278126
 30
0.0
 10
21.08695873389381
 20
-4.705220240163798
 30
0.0
 10
21.061835821584
 20
-4.632965552333428
 30
0.0
 10
21.03901113947437
 20
-4.507060748481408
 30
0.0
 10
21.02714682668448
 20
-4.441615194082267
 30
0.0
  0
SPLINE
  5
270
330
1F
100
AcDbEntity
  8
외형선
  6
Continuous
 62
     1
370
    15
100
AcDbSpline
210
0.0
220
0.0
230
1.0
 70
     8
 71
     3
 72
     9
 73
     5
 74
     0
 42
0.000000001
 43
0.00000001
 40
0.0
 40
0.0
 40
0.0
 40
0.0
 40
0.7143000319233371
 40
0.9999999999999999
 40
0.9999999999999999
 40
0.9999999999999999
 40
0.9999999999999999
 10
14.5906265705824
 20
4.50714444741606
 30
0.0
 10
14.57216498226286
 20
4.616263663802516
 30
0.0
 10
14.54631927668474
 20
4.769027504639312
 30
0.0
 10
14.52047345893795
 20
4.73944909042989
 30
0.0
 10
14.51308930963278
 20
4.730998538434499
 30
0.0
  0
SPLINE
  5
271
330
1F
100
AcDbEntity
  8
외형선
  6
Continuous
 62
     1
370
    15
100
AcDbSpline
210
0.0
220
0.0
230
1.0
 70
     8
 71
     3
 72
     9
 73
     5
 74
     0
 42
0.000000001
 43
0.00000001
 40
0.0
 40
0.0
 40
0.0
 40
0.0
 40
0.4738028029617564
 40
1.0
 40
1.0
 40
1.0
 40
1.0
 10
28.60186620354653
 20
-4.70157619565726
 30
0.0
 10
28.5902773162241
 20
-4.688306963863855
 30
0.0
 10
28.56581801110812
 20
-4.660301152774389
 30
0.0
 10
28.54111152651435
 20
-4.521050560983494
 30
0.0
 10
28.52811104357243
 20
-4.44777728989721
 30
0.0
  0
SPLINE
  5
273
330
1F
100
AcDbEntity
  8
외형선
  6
Continuous
 62
     1
370
    15
100
AcDbSpline
210
0.0
220
0.0
230
1.0
 70
     8
 71
     3
 72
    10
 73
     6
 74
     0
 42
0.000000001
 43
0.00000001
 40
0.0
 40
0.0
 40
0.0
 40
0.0
 40
0.2346605454213458
 40
0.617330305251917
 40
0.9999999999999999
 40
0.9999999999999999
 40
0.9999999999999999
 40
0.9999999999999999
 10
13.76294064074755
 20
-4.754693247377879
 30
0.0
 10
13.75716860193568
 20
-4.755253869878882
 30
0.0
 10
13.74198388276928
 20
-4.75672872053626
 30
0.0
 10
13.71738688626148
 20
-4.689070992252747
 30
0.0
 10
13.69856173434891
 20
-4.589311353545043
 30
0.0
 10
13.68914915919304
 20
-4.539431538432843
 30
0.0
  0
SPLINE
  5
274
330
1F
100
AcDbEntity
  8
외형선
  6
Continuous
 62
     1
370
    15
100
AcDbSpline
210
0.0
220
0.0
230
1.0
 70
     8
 71
     3
 72
    10
 73
     6
 74
     0
 42
0.000000001
 43
0.00000001
 40
0.0
 40
0.0
 40
0.0
 40
0.0
 40
0.223075194531342
 40
0.6115375950082912
 40
1.0
 40
1.0
 40
1.0
 40
1.0
 10
21.26290834248066
 20
-4.754453431814915
 30
0.0
 10
21.25750696219102
 20
-4.755394316321061
 30
0.0
 10
21.24269963626223
 20
-4.757973653971211
 30
0.0
 10
21.21848709447484
 20
-4.693042245285906
 30
0.0
 10
21.19967559037708
 20
-4.595013254997016
 30
0.0
 10
21.19026983827353
 20
-4.545998759567744
 30
0.0
  0
SPLINE
  5
275
330
1F
100
AcDbEntity
  8
외형선
  6
Continuous
 62
     1
370
    15
100
AcDbSpline
210
0.0
220
0.0
230
1.0
 70
     8
 71
     3
 72
    10
 73
     6
 74
     0
 42
0.000000001
 43
0.00000001
 40
0.0
 40
0.0
 40
0.0
 40
0.0
 40
0.5041921906189015
 40
0.9000867657288831
 40
1.0
 40
1.0
 40
1.0
 40
1.0
 10
21.92954717874527
 20
4.4980589300394
 30
0.0
 10
21.91660283041849
 20
4.562531839572983
 30
0.0
 10
21.89349450617883
 20
4.677629244290775
 30
0.0
 10
21.86758583274185
 20
4.723076275257714
 30
0.0
 10
21.85418278684345
 20
4.702694780045475
 30
0.0
 10
21.85148185789585
 20
4.698587581515307
 30
0.0
  0
SPLINE
  5
276
330
1F
100
AcDbEntity
  8
외형선
  6
Continuous
 62
     1
370
    15
100
AcDbSpline
210
0.0
220
0.0
230
1.0
 70
     8
 71
     3
 72
    10
 73
     6
 74
     0
 42
0.000000001
 43
0.00000001
 40
0.0
 40
0.0
 40
0.0
 40
0.0
 40
0.3145316546193803
 40
0.6272819430301874
 40
0.9999999999999999
 40
0.9999999999999999
 40
0.9999999999999999
 40
0.9999999999999999
 10
14.42864349782468
 20
4.503364674746985
 30
0.0
 10
14.42054423054751
 20
4.546181551525541
 30
0.0
 10
14.4043915666101
 20
4.63157280949809
 30
0.0
 10
14.37944186517984
 20
4.705751504072596
 30
0.0
 10
14.36127191911135
 20
4.704508304596033
 30
0.0
 10
14.35139215290547
 20
4.703832324594253
 30
0.0
  0
LINE
  5
278
330
1F
100
AcDbEntity
  8
외형선
  6
Continuous
 62
     1
370
    15
100
AcDbLine
 10
14.33568074107171
 20
-4.73756110295654
 30
0.0
 11
14.29426110088826
 21
-4.685660824179656
 31
0.0
  0
LINE
  5
279
330
1F
100
AcDbEntity
  8
외형선
  6
Continuous
 62
     1
370
    15
100
AcDbLine
 10
21.83550408780575
 20
-4.736308474093682
 30
0.0
 11
21.79521134793759
 21
-4.688936285674578
 31
0.0
  0
SPLINE
  5
27A
330
1F
100
AcDbEntity
  8
외형선
  6
Continuous
 62
     1
370
    15
100
AcDbSpline
210
0.0
220
0.0
230
1.0
 70
     8
 71
     3
 72
     9
 73
     5
 74
     0
 42
0.000000001
 43
0.00000001
 40
0.0
 40
0.0
 40
0.0
 40
0.0
 40
0.2486145328186344
 40
1.0
 40
1.0
 40
1.0
 40
1.0
 10
21.28074316978455
 20
4.645454231649631
 30
0.0
 10
21.27826057869454
 20
4.6535583050949
 30
0.0
 10
21.26827487487479
 20
4.686155246848022
 30
0.0
 10
21.25786705918193
 20
4.693377453154347
 30
0.0
 10
21.25004677772522
 20
4.698804114013904
 30
0.0
  0
SPLINE
  5
27B
330
1F
100
AcDbEntity
  8
외형선
  6
Continuous
 62
     1
370
    15
100
AcDbSpline
210
0.0
220
0.0
230
1.0
 70
     8
 71
     3
 72
     9
 73
     5
 74
     0
 42
0.000000001
 43
0.00000001
 40
0.0
 40
0.0
 40
0.0
 40
0.0
 40
0.5583985206614926
 40
0.9999999999999999
 40
0.9999999999999999
 40
0.9999999999999999
 40
0.9999999999999999
 10
13.77970165312291
 20
4.648941569030279
 30
0.0
 10
13.77429404918401
 20
4.665941108256334
 30
0.0
 10
13.76460991905326
 20
4.696384489814576
 30
0.0
 10
13.75447212278826
 20
4.696422316163866
 30
0.0
 10
13.7499952569604
 20
4.696439020335668
 30
0.0
  0
SPLINE
  5
27C
330
1F
100
AcDbEntity
  8
외형선
  6
Continuous
 62
     1
370
    15
100
AcDbSpline
210
0.0
220
0.0
230
1.0
 70
     8
 71
     3
 72
    10
 73
     6
 74
     0
 42
0.000000001
 43
0.00000001
 40
0.0
 40
0.0
 40
0.0
 40
0.0
 40
0.1172604474387206
 40
0.850121452075984
 40
1.0
 40
1.0
 40
1.0
 40
1.0
 10
14.50059934258462
 20
-4.700647667050368
 30
0.0
 10
14.49892960832522
 20
-4.703616459408255
 30
0.0
 10
14.48682427405281
 20
-4.725139778867848
 30
0.0
 10
14.47187019107753
 20
-4.698252068294638
 30
0.0
 10
14.45874467451936
 20
-4.663848392845805
 30
0.0
 10
14.45651611983777
 20
-4.658007062971598
 30
0.0
  0
SPLINE
  5
27F
330
1F
100
AcDbEntity
  8
외형선
  6
Continuous
 62
     1
370
    15
100
AcDbSpline
210
0.0
220
0.0
230
1.0
 70
     8
 71
     3
 72
     9
 73
     5
 74
     0
 42
0.000000001
 43
0.00000001
 40
0.0
 40
0.0
 40
0.0
 40
0.0
 40
0.6239015672433635
 40
1.0
 40
1.0
 40
1.0
 40
1.0
 10
22.00067042112351
 20
-4.700483754277236
 30
0.0
 10
21.99178205079647
 20
-4.704302915276373
 30
0.0
 10
21.97753562027969
 20
-4.710424331217052
 30
0.0
 10
21.96294332892502
 20
-4.674240290857059
 30
0.0
 10
21.95745519101621
 20
-4.660631529986865
 30
0.0
  0
SPLINE
  5
280
330
1F
100
AcDbEntity
  8
외형선
  6
Continuous
 62
     1
370
    15
100
AcDbSpline
210
0.0
220
0.0
230
1.0
 70
     8
 71
     3
 72
     9
 73
     5
 74
     0
 42
0.000000001
 43
0.00000001
 40
0.0
 40
0.0
 40
0.0
 40
0.0
 40
0.9857495766515524
 40
1.0
 40
1.0
 40
1.0
 40
1.0
 10
21.11819571554662
 20
4.723029676824803
 30
0.0
 10
21.10873234939054
 20
4.746904408595481
 30
0.0
 10
21.09913217670955
 20
4.771124283841869
 30
0.0
 10
21.08954699037356
 20
4.761946785662857
 30
0.0
 10
21.0894103974104
 20
4.761816002428526
 30
0.0
  0
LINE
  5
281
330
1F
100
AcDbEntity
  8
외형선
  6
Continuous
 62
     1
370
    15
100
AcDbLine
 10
13.61714814528823
 20
4.725760314613574
 30
0.0
 11
13.58876608982683
 21
4.762393422424787
 31
0.0
  0
LINE
  5
282
330
1F
100
AcDbEntity
  8
외형선
  6
Continuous
 62
     1
370
    15
100
AcDbLine
 10
28.61908449530602
 20
4.720633383840316
 30
0.0
 11
28.58943118453026
 21
4.753645975142711
 31
0.0
  0
LINE
  5
283
330
1F
100
AcDbEntity
  8
외형선
  6
Continuous
 62
     1
370
    15
100
AcDbLine
 10
27.85338273942471
 20
4.707569722086186
 30
0.0
 11
27.85085699260235
 21
4.701890982687467
 31
0.0
  0
LINE
  5
284
330
1F
100
AcDbEntity
  8
중심선
100
AcDbLine
 10
-37.45000012814997
 20
-0.0000000000000078
 30
0.0
 11
32.04999987185005
 21
0.0000000000000007
 31
0.0
  0
LINE
  5
285
330
1F
100
AcDbEntity
  8
참조1
100
AcDbLine
 10
-2.700000128149965
 20
-0.3168705809327406
 30
0.0
 11
-2.700000128149958
 21
-40.31687058093274
 31
0.0
  0
LINE
  5
286
330
1F
100
AcDbEntity
  8
참조1
100
AcDbLine
 10
-22.90360778334645
 20
-4.762499999999999
 30
0.0
 11
45.23897256024601
 21
-4.762499999999999
 31
0.0
  0
LINE
  5
287
330
1F
100
AcDbEntity
  8
참조1
100
AcDbLine
 10
45.23897256024601
 20
-4.762499999999999
 30
0.0
 11
45.23897256024601
 21
-6.92724860617685
 31
0.0
  0
LINE
  5
288
330
1F
100
AcDbEntity
  8
참조1
100
AcDbLine
 10
-2.700000128149958
 20
-40.31687058093274
 30
0.0
 11
-27.37104993541567
 21
-40.31687058093274
 31
0.0
  0
CIRCLE
  5
289
330
1F
100
AcDbEntity
  8
해칭선
100
AcDbCircle
 10
0.0
 20
0.0
 30
0.0
 40
3.000000000000005
  0
INSERT
  5
28A
330
1F
100
AcDbEntity
  8
0
  6
Continuous
 62
     7
100
AcDbBlockReference
 66
     1
  2
블럭10
 10
-16.64027306027517
 20
-52.36404488257668
 30
0.0
  0
ATTRIB
  5
28B
330
28A
100
AcDbEntity
  8
FORMAT
 62
     2
100
AcDbText
 10
-26.1625870108731
 20
-50.28867796974448
 30
0.0
 40
4.233333333333333
  1
E2248024 [ 4 FLUTE ]
 41
0.75
  7
SLDTEXTSTYLE0
 11
-26.1625870108731
 21
-52.40534463641114
 31
0.0
100
AcDbAttribute
  2
AUTOATTR0
 70
     0
 74
     1
  0
SEQEND
  5
28C
330
28A
100
AcDbEntity
  8
0
  6
Continuous
 62
     7
  0
HATCH
  5
28D
330
1F
100
AcDbEntity
  8
중심선
100
AcDbHatch
 10
0.0
 20
0.0
 30
0.0
210
0.0
220
0.0
230
1.0
  2
SOLID
 70
     1
 71
     0
 91
        1
 92
        0
 93
        4
 72
     1
 10
-10.92536375589432
 20
-36.11687058093274
 11
-14.3716389997316
 21
-36.11687058093274
 72
     1
 10
-14.3716389997316
 20
-36.11687058093274
 11
-16.49986885893562
 21
-38.65319616150533
 72
     1
 10
-16.49986885893562
 20
-38.65319616150533
 11
-13.05356052998519
 21
-38.65315673220285
 72
     1
 10
-13.05356052998519
 20
-38.65315673220285
 11
-10.92536375589432
 21
-36.11687058093274
 97
        0
 75
     0
 76
     1
 98
        1
 10
-3.175000128149978
 20
-0.3168705809327372
  0
HATCH
  5
28E
330
1F
100
AcDbEntity
  8
중심선
100
AcDbHatch
 10
0.0
 20
0.0
 30
0.0
210
0.0
220
0.0
230
1.0
  2
SOLID
 70
     1
 71
     0
 91
        1
 92
        0
 93
        4
 72
     1
 10
-5.912599764858339
 20
-36.11687058093274
 11
-9.358875008695621
 21
-36.11687058093274
 72
     1
 10
-9.35887500869562
 20
-36.11687058093274
 11
-13.89001301705303
 21
-41.51687058093276
 72
     1
 10
-13.89001301705303
 20
-41.51687058093276
 11
-10.44373777321576
 21
-41.51687058093276
 72
     1
 10
-10.44373777321576
 20
-41.51687058093276
 11
-5.912599764858339
 21
-36.11687058093274
 97
        0
 75
     0
 76
     1
 98
        1
 10
-3.175000128149978
 20
-0.3168705809327372
  0
HATCH
  5
28F
330
1F
100
AcDbEntity
  8
중심선
100
AcDbHatch
 10
0.0
 20
0.0
 30
0.0
210
0.0
220
0.0
230
1.0
  2
SOLID
 70
     1
 71
     0
 91
        1
 92
        0
 93
        4
 72
     1
 10
-0.8998357738224154
 20
-36.11687058093271
 11
-4.346111017659586
 21
-36.11687058093273
 72
     1
 10
-4.346111017659586
 20
-36.11687058093274
 11
-11.39454791954883
 21
-44.51687058093276
 72
     1
 10
-11.39454791954883
 20
-44.51687058093276
 11
-7.948272675711553
 21
-44.51687058093276
 72
     1
 10
-7.948272675711553
 20
-44.51687058093276
 11
-0.8998357738224145
 21
-36.11687058093272
 97
        0
 75
     0
 76
     1
 98
        1
 10
-3.175000128149978
 20
-0.3168705809327372
  0
HATCH
  5
290
330
1F
100
AcDbEntity
  8
중심선
100
AcDbHatch
 10
0.0
 20
0.0
 30
0.0
210
0.0
220
0.0
230
1.0
  2
SOLID
 70
     1
 71
     0
 91
        1
 92
        0
 93
        6
 72
     3
 10
3.900054657189729
 20
-40.31687058098402
 11
3.960054785062283
 21
1.540882976769353E-10
 40
0.3939339440162628
 50
17.09539180608439
 51
320.0019657685083
 73
     0
 72
     1
 10
5.583054312890297
 20
-38.90476458557107
 11
7.888356186591389
 21
-36.97043787552312
 72
     3
 10
3.900054657136883
 20
-40.3168705809329
 11
6.600054785286829
 21
-1.278976924368180E-13
 40
0.636358354079598
 50
39.99873849337388
 51
368.4976242363724
 73
     1
 72
     1
 10
10.32538714903749
 20
-39.35687058086275
 11
2.580121963972805
 21
-39.35687058086275
 72
     1
 10
2.580121963972805
 20
-39.35687058086275
 11
2.580096919526871
 21
-41.27687058086265
 72
     1
 10
2.580096919526871
 20
-41.27687058086265
 11
7.021476688998909
 21
-41.27687058086262
 97
        0
 75
     0
 76
     1
 98
        1
 10
-3.175000128149978
 20
-0.3168705809327372
  0
POINT
  5
291
330
1F
100
AcDbEntity
  8
치수문자_일반주서
100
AcDbPoint
 10
-3.175000128149968
 20
-0.3168705809327406
 30
0.0
  0
DIMENSION
  5
292
330
1F
100
AcDbEntity
  8
치수문자_일반주서
100
AcDbDimension
  2
_D
 10
45.95805971856325
 20
-4.762499999999935
 30
0.0
 11
45.95805971856315
 21
21.40825000000016
 31
0.0
 70
   160
  1
%%c<>
 71
     2
 42
9.525
 52
-270.0
  3
SLDDIMSTYLE0
100
AcDbAlignedDimension
 13
29.05
 23
4.7625
 33
0.0
 14
29.05
 24
-4.7625
 34
0.0
 50
90.0000000000002
100
AcDbRotatedDimension
1001
ACAD
1000
DSTYLE
1002
{
1070
   171
1070
     6
1070
   273
1070
     7
1002
}
  0
DIMENSION
  5
2A5
330
1F
100
AcDbEntity
  8
치수문자_일반주서
100
AcDbDimension
  2
_D_1
 10
-44.26000012815
 20
-4.762500000000051
 30
0.0
 11
-44.26000012815001
 21
-0.7630082607154662
 31
0.0
 70
   160
  1
%%c<>
 71
     2
 42
9.525000000000006
 52
-270.0
  3
SLDDIMSTYLE1
100
AcDbAlignedDimension
 13
-33.45000012814998
 23
4.762499999999997
 33
0.0
 14
-33.45000012814998
 24
-4.76250000000001
 34
0.0
 50
90.0000000000002
100
AcDbRotatedDimension
1001
ACAD
1000
DSTYLE
1002
{
1070
   171
1070
     6
1070
   273
1070
     7
1002
}
  0
DIMENSION
  5
2BA
330
1F
100
AcDbEntity
  8
치수문자_일반주서
100
AcDbDimension
  2
_D_2
 10
9.999997444980206
 20
21.65159648467583
 30
0.0
 11
17.93749727070587
 21
21.65159768547833
 31
0.0
 70
   160
  1
<>
 71
     2
 42
19.04999980549503
  3
SLDDIMSTYLE0
100
AcDbAlignedDimension
 13
29.04999987185002
 23
4.323884203973901
 33
0.0
 14
10.0
 24
4.7625
 34
0.0
 50
0.0000086678320083
100
AcDbRotatedDimension
1001
ACAD
1000
DSTYLE
1002
{
1070
   171
1070
     6
1070
   273
1070
     7
1002
}
  0
DIMENSION
  5
2CE
330
1F
100
AcDbEntity
  8
치수문자_일반주서
100
AcDbDimension
  2
_D_3
 10
-34.45000012814997
 20
38.32126436759789
 30
0.0
 11
0.0762865975475315
 21
38.32126436759789
 31
0.0
 70
   160
  1
<>
 71
     2
 42
63.5
  3
SLDDIMSTYLE2
100
AcDbAlignedDimension
 13
29.04999987185002
 23
4.323884203973901
 33
0.0
 14
-34.45000012814998
 24
3.762499999999989
 34
0.0
100
AcDbRotatedDimension
1001
ACAD
1000
DSTYLE
1002
{
1070
   171
1070
     6
1070
   273
1070
     7
1002
}
  0
LINE
  5
2E2
330
1F
100
AcDbEntity
  8
참조1
100
AcDbLine
 10
70.6012906942386
 20
7.123129419067264
 30
0.0
 11
70.6012906942386
 21
-7.756870580932739
 31
0.0
  0
LINE
  5
2E3
330
1F
100
AcDbEntity
  8
참조1
100
AcDbLine
 10
83.30129069423859
 20
5.123129419067264
 30
0.0
 11
70.6012906942386
 21
5.123129419067264
 31
0.0
  0
SOLID
  5
2E4
330
1F
100
AcDbEntity
  8
참조1
100
AcDbTrace
 10
70.6012906942386
 20
5.123129419067264
 30
0.0
 11
76.9512906942386
 21
4.107129419067264
 31
0.0
 12
76.9512906942386
 22
6.139129419067266
 32
0.0
 13
76.9512906942386
 23
6.139129419067266
 33
0.0
  0
LINE
  5
2E5
330
1F
100
AcDbEntity
  8
참조1
100
AcDbLine
 10
83.30129069423859
 20
-5.756870580932739
 30
0.0
 11
70.6012906942386
 21
-5.756870580932739
 31
0.0
  0
SOLID
  5
2E6
330
1F
100
AcDbEntity
  8
참조1
100
AcDbTrace
 10
70.6012906942386
 20
-5.756870580932739
 30
0.0
 11
76.9512906942386
 21
-6.772870580932739
 31
0.0
 12
76.9512906942386
 22
-4.740870580932739
 32
0.0
 13
76.9512906942386
 23
-4.740870580932739
 33
0.0
  0
MTEXT
  5
2E7
330
1F
100
AcDbEntity
  8
참조1
100
AcDbMText
 10
80.20140550480116
 20
10.74884698508335
 30
0.0
 40
3.5
 41
0.0
 71
     1
 72
     1
  1
A
  7
SLDTEXTSTYLE0
 73
     1
 44
1.0
  0
MTEXT
  5
2E8
330
1F
100
AcDbEntity
  8
참조1
100
AcDbMText
 10
80.20140550480116
 20
-0.1311530149166636
 30
0.0
 40
3.5
 41
0.0
 71
     1
 72
     1
  1
A
  7
SLDTEXTSTYLE0
 73
     1
 44
1.0
  0
INSERT
  5
2EF
330
1F
100
AcDbEntity
  8
해칭선
100
AcDbBlockReference
  2
SW_DOWELSYMBOL_0
 10
0.0
 20
0.0
 30
0.0
  0
LINE
  5
33A
330
1F
100
AcDbEntity
  8
외형선
  6
Continuous
370
    15
100
AcDbLine
 10
10.0
 20
4.7625
 30
0.0
 11
10.0
 21
-4.7625
 31
0.0
  0
ENDSEC
  0
SECTION
  2
OBJECTS
  0
DICTIONARY
  5
C
330
0
100
AcDbDictionary
281
     1
  3
ACAD_GROUP
350
D
  3
ACAD_IMAGE_VARS
350
313
  3
ACAD_LAYOUT
350
1A
  3
ACAD_MLINESTYLE
350
17
  3
ACAD_PLOTSETTINGS
350
19
  3
ACAD_PLOTSTYLENAME
350
E
  3
ACAD_SCALELIST
350
47
  3
APPDATA
350
311
  3
DWGPROPS
350
33F
  0
DICTIONARY
  5
D
102
{ACAD_REACTORS
330
C
102
}
330
C
100
AcDbDictionary
281
     1
  0
RASTERVARIABLES
  5
313
102
{ACAD_REACTORS
330
C
102
}
330
C
100
AcDbRasterVariables
 90
        0
 70
     1
 71
     1
 72
     1
  0
DICTIONARY
  5
1A
102
{ACAD_REACTORS
330
C
102
}
330
C
100
AcDbDictionary
281
     1
  3
Layout1
350
1E
  3
Layout2
350
26
  3
Model
350
22
  0
DICTIONARY
  5
17
102
{ACAD_REACTORS
330
C
102
}
330
C
100
AcDbDictionary
281
     1
  3
Standard
350
18
  0
DICTIONARY
  5
19
102
{ACAD_REACTORS
330
C
102
}
330
C
100
AcDbDictionary
281
     1
  0
ACDBDICTIONARYWDFLT
  5
E
102
{ACAD_REACTORS
330
C
102
}
330
C
100
AcDbDictionary
281
     1
  3
Normal
350
F
100
AcDbDictionaryWithDefault
340
F
  0
DICTIONARY
  5
47
102
{ACAD_REACTORS
330
C
102
}
330
C
100
AcDbDictionary
281
     1
  3
A0
350
48
  3
A1
350
49
  3
A2
350
4A
  3
A3
350
4B
  3
A4
350
4C
  3
A5
350
4D
  3
A6
350
4E
  3
A7
350
4F
  3
A8
350
50
  3
A9
350
51
  3
B0
350
52
  3
B1
350
53
  3
B2
350
54
  3
B3
350
55
  3
B4
350
56
  3
B5
350
57
  3
B6
350
58
  3
B7
350
59
  3
B8
350
5A
  3
B9
350
5B
  3
C0
350
5C
  3
C1
350
5D
  3
C2
350
5E
  3
C3
350
5F
  3
C4
350
60
  3
C5
350
61
  3
C6
350
62
  3
C7
350
63
  3
C8
350
64
  3
C9
350
65
  3
D0
350
66
  3
D1
350
67
  3
D2
350
68
  0
DICTIONARY
  5
311
102
{ACAD_REACTORS
330
C
102
}
330
C
100
AcDbDictionary
281
     1
  0
XRECORD
  5
33F
102
{ACAD_REACTORS
330
C
102
}
330
C
100
AcDbXrecord
280
     1
  1
DWGPROPS COOKIE
  2

  3

  4

  6

  7

  8
12016016
  9

300
=
301
=
302
=
303
=
304
=
305
=
306
=
307
=
308
=
309
=
 40
0.0
 41
2458298.972337049
 42
2458319.02534
  1

 90
        0
  0
LAYOUT
  5
1E
102
{ACAD_REACTORS
330
1A
102
}
330
1A
100
AcDbPlotSettings
  1

  2
none_device
  4

  6

 40
0.0
 41
0.0
 42
0.0
 43
0.0
 44
0.0
 45
0.0
 46
0.0
 47
0.0
 48
0.0
 49
0.0
140
0.0
141
0.0
142
1.0
143
1.0
 70
   688
 72
     1
 73
     0
 74
     5
  7

 75
    16
147
1.0
148
0.0
149
0.0
100
AcDbLayout
  1
Layout1
 70
     1
 71
     1
 10
0.0
 20
0.0
 11
420.0
 21
297.0
 12
0.0
 22
0.0
 32
0.0
 14
1.000000000000000E+20
 24
1.000000000000000E+20
 34
1.000000000000000E+20
 15
-1.000000000000000E+20
 25
-1.000000000000000E+20
 35
-1.000000000000000E+20
146
0.0
 13
0.0
 23
0.0
 33
0.0
 16
1.0
 26
0.0
 36
0.0
 17
0.0
 27
1.0
 37
0.0
 76
     0
330
1B
  0
LAYOUT
  5
26
102
{ACAD_REACTORS
330
1A
102
}
330
1A
100
AcDbPlotSettings
  1

  2
none_device
  4

  6

 40
0.0
 41
0.0
 42
0.0
 43
0.0
 44
0.0
 45
0.0
 46
0.0
 47
0.0
 48
0.0
 49
0.0
140
0.0
141
0.0
142
1.0
143
1.0
 70
   688
 72
     1
 73
     0
 74
     5
  7

 75
    16
147
1.0
148
0.0
149
0.0
100
AcDbLayout
  1
Layout2
 70
     1
 71
     2
 10
0.0
 20
0.0
 11
0.0
 21
0.0
 12
0.0
 22
0.0
 32
0.0
 14
0.0
 24
0.0
 34
0.0
 15
0.0
 25
0.0
 35
0.0
146
0.0
 13
0.0
 23
0.0
 33
0.0
 16
1.0
 26
0.0
 36
0.0
 17
0.0
 27
1.0
 37
0.0
 76
     0
330
23
  0
LAYOUT
  5
22
102
{ACAD_REACTORS
330
1A
102
}
330
1A
100
AcDbPlotSettings
  1

  2
none_device
  4
ANSI_A_(11.00_x_8.50_Inches)
  6

 40
6.35
 41
19.05
 42
6.35000508
 43
19.05000254
 44
279.4
 45
215.9
 46
98.76438513735204
 47
90.18428000406263
 48
0.0
 49
0.0
140
0.0
141
0.0
142
0.0787110341538491
143
1.0
 70
  1696
 72
     0
 73
     0
 74
     0
  7

 75
     0
147
0.0235690232323232
148
0.0
149
0.0
100
AcDbLayout
  1
Model
 70
     1
 71
     0
 10
0.0
 20
0.0
 11
420.0
 21
297.0
 12
0.0
 22
0.0
 32
0.0
 14
-48.63500012815006
 24
-50.28867796974448
 34
0.0
 15
83.30129069423859
 25
42.69626436759789
 35
0.0
146
0.0
 13
0.0
 23
0.0
 33
0.0
 16
1.0
 26
0.0
 36
0.0
 17
0.0
 27
1.0
 37
0.0
 76
     0
330
1F
331
29
  0
MLINESTYLE
  5
18
102
{ACAD_REACTORS
330
17
102
}
330
17
100
AcDbMlineStyle
  2
Standard
 70
     0
  3

 62
   256
 51
90.0
 52
90.0
 71
     2
 49
0.5
 62
   256
  6
BYLAYER
 49
-0.5
 62
   256
  6
BYLAYER
  0
ACDBPLACEHOLDER
  5
F
102
{ACAD_REACTORS
330
E
102
}
330
E
  0
SCALE
  5
48
102
{ACAD_REACTORS
330
47
102
}
330
47
100
AcDbScale
 70
     0
300
1:1
140
1.0
141
1.0
290
     1
  0
SCALE
  5
49
102
{ACAD_REACTORS
330
47
102
}
330
47
100
AcDbScale
 70
     0
300
1:2
140
1.0
141
2.0
290
     0
  0
SCALE
  5
4A
102
{ACAD_REACTORS
330
47
102
}
330
47
100
AcDbScale
 70
     0
300
1:4
140
1.0
141
4.0
290
     0
  0
SCALE
  5
4B
102
{ACAD_REACTORS
330
47
102
}
330
47
100
AcDbScale
 70
     0
300
1:5
140
1.0
141
5.0
290
     0
  0
SCALE
  5
4C
102
{ACAD_REACTORS
330
47
102
}
330
47
100
AcDbScale
 70
     0
300
1:8
140
1.0
141
8.0
290
     0
  0
SCALE
  5
4D
102
{ACAD_REACTORS
330
47
102
}
330
47
100
AcDbScale
 70
     0
300
1:10
140
1.0
141
10.0
290
     0
  0
SCALE
  5
4E
102
{ACAD_REACTORS
330
47
102
}
330
47
100
AcDbScale
 70
     0
300
1:16
140
1.0
141
16.0
290
     0
  0
SCALE
  5
4F
102
{ACAD_REACTORS
330
47
102
}
330
47
100
AcDbScale
 70
     0
300
1:20
140
1.0
141
20.0
290
     0
  0
SCALE
  5
50
102
{ACAD_REACTORS
330
47
102
}
330
47
100
AcDbScale
 70
     0
300
1:30
140
1.0
141
30.0
290
     0
  0
SCALE
  5
51
102
{ACAD_REACTORS
330
47
102
}
330
47
100
AcDbScale
 70
     0
300
1:40
140
1.0
141
40.0
290
     0
  0
SCALE
  5
52
102
{ACAD_REACTORS
330
47
102
}
330
47
100
AcDbScale
 70
     0
300
1:50
140
1.0
141
50.0
290
     0
  0
SCALE
  5
53
102
{ACAD_REACTORS
330
47
102
}
330
47
100
AcDbScale
 70
     0
300
1:100
140
1.0
141
100.0
290
     0
  0
SCALE
  5
54
102
{ACAD_REACTORS
330
47
102
}
330
47
100
AcDbScale
 70
     0
300
2:1
140
2.0
141
1.0
290
     0
  0
SCALE
  5
55
102
{ACAD_REACTORS
330
47
102
}
330
47
100
AcDbScale
 70
     0
300
4:1
140
4.0
141
1.0
290
     0
  0
SCALE
  5
56
102
{ACAD_REACTORS
330
47
102
}
330
47
100
AcDbScale
 70
     0
300
8:1
140
8.0
141
1.0
290
     0
  0
SCALE
  5
57
102
{ACAD_REACTORS
330
47
102
}
330
47
100
AcDbScale
 70
     0
300
10:1
140
10.0
141
1.0
290
     0
  0
SCALE
  5
58
102
{ACAD_REACTORS
330
47
102
}
330
47
100
AcDbScale
 70
     0
300
100:1
140
100.0
141
1.0
290
     0
  0
SCALE
  5
59
102
{ACAD_REACTORS
330
47
102
}
330
47
100
AcDbScale
 70
     0
300
1/128" = 1'-0"
140
0.0078125
141
12.0
290
     0
  0
SCALE
  5
5A
102
{ACAD_REACTORS
330
47
102
}
330
47
100
AcDbScale
 70
     0
300
1/64" = 1'-0"
140
0.015625
141
12.0
290
     0
  0
SCALE
  5
5B
102
{ACAD_REACTORS
330
47
102
}
330
47
100
AcDbScale
 70
     0
300
1/32" = 1'-0"
140
0.03125
141
12.0
290
     0
  0
SCALE
  5
5C
102
{ACAD_REACTORS
330
47
102
}
330
47
100
AcDbScale
 70
     0
300
1/16" = 1'-0"
140
0.0625
141
12.0
290
     0
  0
SCALE
  5
5D
102
{ACAD_REACTORS
330
47
102
}
330
47
100
AcDbScale
 70
     0
300
3/32" = 1'-0"
140
0.09375
141
12.0
290
     0
  0
SCALE
  5
5E
102
{ACAD_REACTORS
330
47
102
}
330
47
100
AcDbScale
 70
     0
300
1/8" = 1'-0"
140
0.125
141
12.0
290
     0
  0
SCALE
  5
5F
102
{ACAD_REACTORS
330
47
102
}
330
47
100
AcDbScale
 70
     0
300
3/16" = 1'-0"
140
0.1875
141
12.0
290
     0
  0
SCALE
  5
60
102
{ACAD_REACTORS
330
47
102
}
330
47
100
AcDbScale
 70
     0
300
1/4" = 1'-0"
140
0.25
141
12.0
290
     0
  0
SCALE
  5
61
102
{ACAD_REACTORS
330
47
102
}
330
47
100
AcDbScale
 70
     0
300
3/8" = 1'-0"
140
0.375
141
12.0
290
     0
  0
SCALE
  5
62
102
{ACAD_REACTORS
330
47
102
}
330
47
100
AcDbScale
 70
     0
300
1/2" = 1'-0"
140
0.5
141
12.0
290
     0
  0
SCALE
  5
63
102
{ACAD_REACTORS
330
47
102
}
330
47
100
AcDbScale
 70
     0
300
3/4" = 1'-0"
140
0.75
141
12.0
290
     0
  0
SCALE
  5
64
102
{ACAD_REACTORS
330
47
102
}
330
47
100
AcDbScale
 70
     0
300
1" = 1'-0"
140
1.0
141
12.0
290
     0
  0
SCALE
  5
65
102
{ACAD_REACTORS
330
47
102
}
330
47
100
AcDbScale
 70
     0
300
1-1/2" = 1'-0"
140
1.5
141
12.0
290
     0
  0
SCALE
  5
66
102
{ACAD_REACTORS
330
47
102
}
330
47
100
AcDbScale
 70
     0
300
3" = 1'-0"
140
3.0
141
12.0
290
     0
  0
SCALE
  5
67
102
{ACAD_REACTORS
330
47
102
}
330
47
100
AcDbScale
 70
     0
300
6" = 1'-0"
140
6.0
141
12.0
290
     0
  0
SCALE
  5
68
102
{ACAD_REACTORS
330
47
102
}
330
47
100
AcDbScale
 70
     0
300
1'-0" = 1'-0"
140
12.0
141
12.0
290
     0
  0
ENDSEC
  0
EOF
