  0
SECTION
  2
HEADER
  9
$ACADVER
  1
AC1015
  9
$ACADMAINTVER
 70
     6
  9
$DWGCODEPAGE
  3
ANSI_949
  9
$INSBASE
 10
0.0
 20
0.0
 30
0.0
  9
$EXTMIN
 10
1.000000000000000E+20
 20
1.000000000000000E+20
 30
1.000000000000000E+20
  9
$EXTMAX
 10
-1.000000000000000E+20
 20
-1.000000000000000E+20
 30
-1.000000000000000E+20
  9
$LIMMIN
 10
0.0
 20
0.0
  9
$LIMMAX
 10
420.0
 20
297.0
  9
$ORTHOMODE
 70
     1
  9
$REGENMODE
 70
     1
  9
$FILLMODE
 70
     1
  9
$QTEXTMODE
 70
     0
  9
$MIRRTEXT
 70
     1
  9
$LTSCALE
 40
1.0
  9
$ATTMODE
 70
     1
  9
$TEXTSIZE
 40
3.5
  9
$TRACEWID
 40
1.0
  9
$TEXTSTYLE
  7
Standard
  9
$CLAYER
  8
0
  9
$CELTYPE
  6
ByLayer
  9
$CECOLOR
 62
   256
  9
$CELTSCALE
 40
1.0
  9
$DISPSILH
 70
     0
  9
$DIMSCALE
 40
1.0
  9
$DIMASZ
 40
3.302
  9
$DIMEXO
 40
1.0
  9
$DIMDLI
 40
3.75
  9
$DIMRND
 40
0.0
  9
$DIMDLE
 40
0.0
  9
$DIMEXE
 40
1.0
  9
$DIMTP
 40
0.0
  9
$DIMTM
 40
0.0
  9
$DIMTXT
 40
3.5
  9
$DIMCEN
 40
2.5
  9
$DIMTSZ
 40
0.0
  9
$DIMTOL
 70
     0
  9
$DIMLIM
 70
     0
  9
$DIMTIH
 70
     1
  9
$DIMTOH
 70
     1
  9
$DIMSE1
 70
     0
  9
$DIMSE2
 70
     0
  9
$DIMTAD
 70
     1
  9
$DIMZIN
 70
     0
  9
$DIMBLK
  1

  9
$DIMASO
 70
     1
  9
$DIMSHO
 70
     1
  9
$DIMPOST
  1

  9
$DIMAPOST
  1

  9
$DIMALT
 70
     0
  9
$DIMALTD
 70
     3
  9
$DIMALTF
 40
0.0393700787401575
  9
$DIMLFAC
 40
1.0
  9
$DIMTOFL
 70
     1
  9
$DIMTVP
 40
0.0
  9
$DIMTIX
 70
     0
  9
$DIMSOXD
 70
     0
  9
$DIMSAH
 70
     0
  9
$DIMBLK1
  1

  9
$DIMBLK2
  1

  9
$DIMSTYLE
  2
ISO-25
  9
$DIMCLRD
 70
     0
  9
$DIMCLRE
 70
     0
  9
$DIMCLRT
 70
     0
  9
$DIMTFAC
 40
1.0
  9
$DIMGAP
 40
1.524
  9
$DIMJUST
 70
     0
  9
$DIMSD1
 70
     0
  9
$DIMSD2
 70
     0
  9
$DIMTOLJ
 70
     0
  9
$DIMTZIN
 70
     0
  9
$DIMALTZ
 70
     0
  9
$DIMALTTZ
 70
     0
  9
$DIMUPT
 70
     0
  9
$DIMDEC
 70
     2
  9
$DIMTDEC
 70
     2
  9
$DIMALTU
 70
     2
  9
$DIMALTTD
 70
     3
  9
$DIMTXSTY
  7
Standard
  9
$DIMAUNIT
 70
     0
  9
$DIMADEC
 70
     2
  9
$DIMALTRND
 40
0.0
  9
$DIMAZIN
 70
     0
  9
$DIMDSEP
 70
    44
  9
$DIMATFIT
 70
     3
  9
$DIMFRAC
 70
     0
  9
$DIMLDRBLK
  1

  9
$DIMLUNIT
 70
     2
  9
$DIMLWD
 70
    -2
  9
$DIMLWE
 70
    -2
  9
$DIMTMOVE
 70
     0
  9
$LUNITS
 70
     2
  9
$LUPREC
 70
     2
  9
$SKETCHINC
 40
1.0
  9
$FILLETRAD
 40
10.0
  9
$AUNITS
 70
     0
  9
$AUPREC
 70
     2
  9
$MENU
  1
.
  9
$ELEVATION
 40
0.0
  9
$PELEVATION
 40
0.0
  9
$THICKNESS
 40
0.0
  9
$LIMCHECK
 70
     0
  9
$CHAMFERA
 40
0.0
  9
$CHAMFERB
 40
0.0
  9
$CHAMFERC
 40
0.0
  9
$CHAMFERD
 40
0.0
  9
$SKPOLY
 70
     0
  9
$TDCREATE
 40
2458299.343695776
  9
$TDUCREATE
 40
2458298.968695776
  9
$TDUPDATE
 40
2458311.511921875
  9
$TDUUPDATE
 40
2458311.136921875
  9
$TDINDWG
 40
0.0012341898
  9
$TDUSRTIMER
 40
2458311.136770394
  9
$USRTIMER
 70
     1
  9
$ANGBASE
 50
0.0
  9
$ANGDIR
 70
     0
  9
$PDMODE
 70
     0
  9
$PDSIZE
 40
-1.0
  9
$PLINEWID
 40
0.0
  9
$SPLFRAME
 70
     0
  9
$SPLINETYPE
 70
     6
  9
$SPLINESEGS
 70
     8
  9
$HANDSEED
  5
300
  9
$SURFTAB1
 70
     6
  9
$SURFTAB2
 70
     6
  9
$SURFTYPE
 70
     6
  9
$SURFU
 70
     6
  9
$SURFV
 70
     6
  9
$UCSBASE
  2

  9
$UCSNAME
  2

  9
$UCSORG
 10
0.0
 20
0.0
 30
0.0
  9
$UCSXDIR
 10
1.0
 20
0.0
 30
0.0
  9
$UCSYDIR
 10
0.0
 20
1.0
 30
0.0
  9
$UCSORTHOREF
  2

  9
$UCSORTHOVIEW
 70
     0
  9
$UCSORGTOP
 10
0.0
 20
0.0
 30
0.0
  9
$UCSORGBOTTOM
 10
0.0
 20
0.0
 30
0.0
  9
$UCSORGLEFT
 10
0.0
 20
0.0
 30
0.0
  9
$UCSORGRIGHT
 10
0.0
 20
0.0
 30
0.0
  9
$UCSORGFRONT
 10
0.0
 20
0.0
 30
0.0
  9
$UCSORGBACK
 10
0.0
 20
0.0
 30
0.0
  9
$PUCSBASE
  2

  9
$PUCSNAME
  2

  9
$PUCSORG
 10
0.0
 20
0.0
 30
0.0
  9
$PUCSXDIR
 10
1.0
 20
0.0
 30
0.0
  9
$PUCSYDIR
 10
0.0
 20
1.0
 30
0.0
  9
$PUCSORTHOREF
  2

  9
$PUCSORTHOVIEW
 70
     0
  9
$PUCSORGTOP
 10
0.0
 20
0.0
 30
0.0
  9
$PUCSORGBOTTOM
 10
0.0
 20
0.0
 30
0.0
  9
$PUCSORGLEFT
 10
0.0
 20
0.0
 30
0.0
  9
$PUCSORGRIGHT
 10
0.0
 20
0.0
 30
0.0
  9
$PUCSORGFRONT
 10
0.0
 20
0.0
 30
0.0
  9
$PUCSORGBACK
 10
0.0
 20
0.0
 30
0.0
  9
$USERI1
 70
     0
  9
$USERI2
 70
     0
  9
$USERI3
 70
     0
  9
$USERI4
 70
     0
  9
$USERI5
 70
     0
  9
$USERR1
 40
0.0
  9
$USERR2
 40
0.0
  9
$USERR3
 40
0.0
  9
$USERR4
 40
0.0
  9
$USERR5
 40
0.0
  9
$WORLDVIEW
 70
     1
  9
$SHADEDGE
 70
     3
  9
$SHADEDIF
 70
    70
  9
$TILEMODE
 70
     1
  9
$MAXACTVP
 70
    64
  9
$PINSBASE
 10
0.0
 20
0.0
 30
0.0
  9
$PLIMCHECK
 70
     0
  9
$PEXTMIN
 10
1.000000000000000E+20
 20
1.000000000000000E+20
 30
1.000000000000000E+20
  9
$PEXTMAX
 10
-1.000000000000000E+20
 20
-1.000000000000000E+20
 30
-1.000000000000000E+20
  9
$PLIMMIN
 10
0.0
 20
0.0
  9
$PLIMMAX
 10
0.0
 20
0.0
  9
$UNITMODE
 70
     0
  9
$VISRETAIN
 70
     1
  9
$PLINEGEN
 70
     0
  9
$PSLTSCALE
 70
     1
  9
$TREEDEPTH
 70
  3020
  9
$CMLSTYLE
  2
Standard
  9
$CMLJUST
 70
     0
  9
$CMLSCALE
 40
20.0
  9
$PROXYGRAPHICS
 70
     1
  9
$MEASUREMENT
 70
     1
  9
$CELWEIGHT
370
    -1
  9
$ENDCAPS
280
     0
  9
$JOINSTYLE
280
     0
  9
$LWDISPLAY
290
     1
  9
$INSUNITS
 70
     4
  9
$HYPERLINKBASE
  1

  9
$STYLESHEET
  1

  9
$XEDIT
290
     1
  9
$CEPSNTYPE
380
     0
  9
$PSTYLEMODE
290
     1
  9
$FINGERPRINTGUID
  2
{B0543242-4841-4EA6-881E-243BD7D56D9A}
  9
$VERSIONGUID
  2
{FAEB1C32-E019-11D5-929B-00C0DF256EC4}
  9
$EXTNAMES
290
     1
  9
$PSVPSCALE
 40
0.0
  9
$OLESTARTUP
290
     0
  0
ENDSEC
  0
SECTION
  2
CLASSES
  0
CLASS
  1
ACDBDICTIONARYWDFLT
  2
AcDbDictionaryWithDefault
  3
ObjectDBX Classes
 90
        0
280
     0
281
     0
  0
CLASS
  1
VISUALSTYLE
  2
AcDbVisualStyle
  3
ObjectDBX Classes
 90
     4095
280
     0
281
     0
  0
CLASS
  1
MATERIAL
  2
AcDbMaterial
  3
ObjectDBX Classes
 90
     1153
280
     0
281
     0
  0
CLASS
  1
SCALE
  2
AcDbScale
  3
ObjectDBX Classes
 90
     1153
280
     0
281
     0
  0
CLASS
  1
SUN
  2
AcDbSun
  3
SCENEOE
 90
     1153
280
     0
281
     0
  0
CLASS
  1
ACDBPLACEHOLDER
  2
AcDbPlaceHolder
  3
ObjectDBX Classes
 90
        0
280
     0
281
     0
  0
CLASS
  1
LAYOUT
  2
AcDbLayout
  3
ObjectDBX Classes
 90
        0
280
     0
281
     0
  0
CLASS
  1
TABLESTYLE
  2
AcDbTableStyle
  3
ObjectDBX Classes
 90
     4095
280
     0
281
     0
  0
CLASS
  1
MLEADERSTYLE
  2
AcDbMLeaderStyle
  3
ACDB_MLEADERSTYLE_CLASS
 90
     4095
280
     0
281
     0
  0
CLASS
  1
RASTERVARIABLES
  2
AcDbRasterVariables
  3
ISM
 90
        0
280
     0
281
     0
  0
ENDSEC
  0
SECTION
  2
TABLES
  0
TABLE
  2
VPORT
  5
8
330
0
100
AcDbSymbolTable
 70
     1
  0
VPORT
  5
29
330
8
100
AcDbSymbolTableRecord
100
AcDbViewportTableRecord
  2
*Active
 70
     0
 10
0.0
 20
0.0
 11
1.0
 21
1.0
 12
4.75146591283837
 22
-0.8634353715560792
 13
0.0
 23
0.0
 14
10.0
 24
10.0
 15
10.0
 25
10.0
 16
0.0
 26
0.0
 36
1.0
 17
0.0
 27
0.0
 37
0.0
 40
183.1547580625849
 41
1.719535783365571
 42
50.0
 43
0.0
 44
0.0
 50
0.0
 51
0.0
 71
    16
 72
  2000
 73
     1
 74
     3
 75
     0
 76
     0
 77
     0
 78
     0
281
     0
 65
     1
110
0.0
120
0.0
130
0.0
111
1.0
121
0.0
131
0.0
112
0.0
122
1.0
132
0.0
 79
     0
146
0.0
  0
ENDTAB
  0
TABLE
  2
LTYPE
  5
5
330
0
100
AcDbSymbolTable
 70
     6
  0
LTYPE
  5
14
330
5
100
AcDbSymbolTableRecord
100
AcDbLinetypeTableRecord
  2
ByBlock
 70
     0
  3

 72
    65
 73
     0
 40
0.0
  0
LTYPE
  5
15
330
5
100
AcDbSymbolTableRecord
100
AcDbLinetypeTableRecord
  2
ByLayer
 70
     0
  3

 72
    65
 73
     0
 40
0.0
  0
LTYPE
  5
16
330
5
100
AcDbSymbolTableRecord
100
AcDbLinetypeTableRecord
  2
Continuous
 70
     0
  3
Solid line
 72
    65
 73
     0
 40
0.0
  0
LTYPE
  5
6A
330
5
100
AcDbSymbolTableRecord
100
AcDbLinetypeTableRecord
  2
HIDDEN
 70
     0
  3
Hidden __ __ __ __ __ __ __ __ __ __ __ __ __ __
 72
    65
 73
     2
 40
1.905
 49
1.27
 74
     0
 49
-0.635
 74
     0
  0
LTYPE
  5
6B
330
5
100
AcDbSymbolTableRecord
100
AcDbLinetypeTableRecord
  2
PHANTOM
 70
     0
  3
Phantom ______  __  __  ______  __  __  ______
 72
    65
 73
     6
 40
12.7
 49
6.35
 74
     0
 49
-1.27
 74
     0
 49
1.27
 74
     0
 49
-1.27
 74
     0
 49
1.27
 74
     0
 49
-1.27
 74
     0
  0
LTYPE
  5
6C
330
5
100
AcDbSymbolTableRecord
100
AcDbLinetypeTableRecord
  2
CENTER
 70
     0
  3
Center ____ _ ____ _ ____ _ ____ _ ____ _ ____
 72
    65
 73
     4
 40
10.16
 49
6.35
 74
     0
 49
-1.27
 74
     0
 49
1.27
 74
     0
 49
-1.27
 74
     0
  0
LTYPE
  5
6D
330
5
100
AcDbSymbolTableRecord
100
AcDbLinetypeTableRecord
  2
CENTERX2
 70
     0
  3
Center (2x) ________  __  ________  __  _____
 72
    65
 73
     4
 40
20.32
 49
12.7
 74
     0
 49
-2.54
 74
     0
 49
2.54
 74
     0
 49
-2.54
 74
     0
  0
LTYPE
  5
6E
330
5
100
AcDbSymbolTableRecord
100
AcDbLinetypeTableRecord
  2
DOT2
 70
     0
  3
Dot (.5x) ........................................
 72
    65
 73
     2
 40
0.635
 49
0.0
 74
     0
 49
-0.635
 74
     0
  0
ENDTAB
  0
TABLE
  2
LAYER
  5
2
102
{ACAD_XDICTIONARY
360
242
102
}
330
0
100
AcDbSymbolTable
 70
    18
  0
LAYER
  5
10
330
2
100
AcDbSymbolTableRecord
100
AcDbLayerTableRecord
  2
0
 70
     0
 62
     7
  6
Continuous
370
    -3
390
F
  0
LAYER
  5
6F
330
2
100
AcDbSymbolTableRecord
100
AcDbLayerTableRecord
  2
FORMAT
 70
     0
 62
     2
  6
Continuous
370
    -3
390
F
  0
LAYER
  5
70
330
2
100
AcDbSymbolTableRecord
100
AcDbLayerTableRecord
  2
외형선
 70
     0
 62
     4
  6
Continuous
370
    30
390
F
  0
LAYER
  5
71
330
2
100
AcDbSymbolTableRecord
100
AcDbLayerTableRecord
  2
숨은선
 70
     0
 62
     2
  6
HIDDEN
370
    15
390
F
  0
LAYER
  5
72
330
2
100
AcDbSymbolTableRecord
100
AcDbLayerTableRecord
  2
중심선
 70
     0
 62
     1
  6
CENTERX2
370
    -3
390
F
  0
LAYER
  5
73
330
2
100
AcDbSymbolTableRecord
100
AcDbLayerTableRecord
  2
파단선
 70
     0
 62
     4
  6
Continuous
370
    -3
390
F
  0
LAYER
  5
74
330
2
100
AcDbSymbolTableRecord
100
AcDbLayerTableRecord
  2
해칭선
 70
     0
 62
   100
  6
Continuous
370
    -3
390
F
  0
LAYER
  5
75
330
2
100
AcDbSymbolTableRecord
100
AcDbLayerTableRecord
  2
가는실선
 70
     0
 62
     4
  6
Continuous
370
    -3
390
F
  0
LAYER
  5
76
330
2
100
AcDbSymbolTableRecord
100
AcDbLayerTableRecord
  2
치수_보조선
 70
     0
 62
     4
  6
Continuous
370
    -3
390
F
  0
LAYER
  5
77
330
2
100
AcDbSymbolTableRecord
100
AcDbLayerTableRecord
  2
치수문자_일반주서
 70
     0
 62
     7
  6
Continuous
370
    15
390
F
  0
LAYER
  5
78
330
2
100
AcDbSymbolTableRecord
100
AcDbLayerTableRecord
  2
개별주서
 70
     0
 62
   100
  6
Continuous
370
    30
390
F
  0
LAYER
  5
79
330
2
100
AcDbSymbolTableRecord
100
AcDbLayerTableRecord
  2
중간선
 70
     0
 62
     2
  6
Continuous
370
    15
390
F
  0
LAYER
  5
7A
330
2
100
AcDbSymbolTableRecord
100
AcDbLayerTableRecord
  2
윤곽선
 70
     0
 62
     3
  6
Continuous
370
    40
390
F
  0
LAYER
  5
7B
330
2
100
AcDbSymbolTableRecord
100
AcDbLayerTableRecord
  2
중심마크
 70
     0
 62
   100
  6
Continuous
370
    30
390
F
  0
LAYER
  5
7C
330
2
100
AcDbSymbolTableRecord
100
AcDbLayerTableRecord
  2
가상선
 70
     0
 62
     4
  6
PHANTOM
370
    -3
390
F
  0
LAYER
  5
7D
330
2
100
AcDbSymbolTableRecord
100
AcDbLayerTableRecord
  2
특수지정선
 70
     0
 62
     5
  6
CENTERX2
370
    60
390
F
  0
LAYER
  5
7E
330
2
100
AcDbSymbolTableRecord
100
AcDbLayerTableRecord
  2
참조1
 70
     0
 62
    -4
  6
Continuous
370
    -3
390
F
  0
LAYER
  5
1EB
330
2
100
AcDbSymbolTableRecord
100
AcDbLayerTableRecord
  2
Defpoints
 70
     0
 62
     7
  6
Continuous
290
     0
370
    -3
390
F
  0
ENDTAB
  0
TABLE
  2
STYLE
  5
3
330
0
100
AcDbSymbolTable
 70
     2
  0
STYLE
  5
11
330
3
100
AcDbSymbolTableRecord
100
AcDbTextStyleTableRecord
  2
Standard
 70
     0
 40
0.0
 41
1.0
 50
0.0
 71
     0
 42
3.5
  3
txt
  4

  0
STYLE
  5
94
330
3
100
AcDbSymbolTableRecord
100
AcDbTextStyleTableRecord
  2
SLDTEXTSTYLE0
 70
     0
 40
0.0
 41
0.75
 50
0.0
 71
     0
 42
3.5
  3
TXT
  4

  0
ENDTAB
  0
TABLE
  2
VIEW
  5
6
330
0
100
AcDbSymbolTable
 70
     0
  0
ENDTAB
  0
TABLE
  2
UCS
  5
7
330
0
100
AcDbSymbolTable
 70
     0
  0
ENDTAB
  0
TABLE
  2
APPID
  5
9
330
0
100
AcDbSymbolTable
 70
     1
  0
APPID
  5
12
330
9
100
AcDbSymbolTableRecord
100
AcDbRegAppTableRecord
  2
ACAD
 70
     0
  0
ENDTAB
  0
TABLE
  2
DIMSTYLE
  5
A
330
0
100
AcDbSymbolTable
 70
     4
100
AcDbDimStyleTable
  0
DIMSTYLE
105
27
330
A
100
AcDbSymbolTableRecord
100
AcDbDimStyleTableRecord
  2
ISO-25
 70
     0
 41
2.5
 42
0.625
 43
3.75
 44
1.25
 73
     0
 74
     0
 77
     1
 78
     8
140
2.5
141
2.5
143
0.03937007874016
147
0.625
171
     3
172
     1
178
     0
271
     2
272
     2
274
     3
278
    44
283
     0
284
     8
340
11
  0
DIMSTYLE
105
16A
102
{ACAD_REACTORS
330
169
330
191
102
}
330
A
100
AcDbSymbolTableRecord
100
AcDbDimStyleTableRecord
  2
SLDDIMSTYLE0
 70
     0
 41
3.302
 44
0.0
 45
0.000000001
 73
     0
 74
     0
 77
     1
 78
    12
 79
     3
140
3.5
143
0.0393700787401575
147
0.875
148
0.000000001
170
     1
173
     1
178
     0
271
     2
272
     2
276
     2
284
    12
340
94
  0
DIMSTYLE
105
17D
102
{ACAD_REACTORS
330
17C
102
}
330
A
100
AcDbSymbolTableRecord
100
AcDbDimStyleTableRecord
  2
SLDDIMSTYLE1
 70
     0
 41
3.302
 44
0.0
 45
0.000000001
 73
     0
 74
     0
 77
     1
 78
    12
 79
     3
140
3.5
143
0.0393700787401575
147
0.875
148
0.000000001
170
     1
172
     1
173
     1
178
     0
271
     2
272
     2
276
     2
284
    12
289
     0
340
94
  0
DIMSTYLE
105
1A6
102
{ACAD_REACTORS
330
1A5
102
}
330
A
100
AcDbSymbolTableRecord
100
AcDbDimStyleTableRecord
  2
SLDDIMSTYLE2
 70
     0
 41
3.302
 44
0.0
 45
0.000000001
 73
     0
 74
     0
 77
     1
 78
     4
 79
     1
140
3.5
143
0.0393700787401575
147
0.875
148
0.000000001
170
     1
173
     1
178
     0
271
     2
272
     2
276
     2
284
    12
340
94
  0
ENDTAB
  0
TABLE
  2
BLOCK_RECORD
  5
1
330
0
100
AcDbSymbolTable
 70
     9
  0
BLOCK_RECORD
  5
1F
330
1
100
AcDbSymbolTableRecord
100
AcDbBlockTableRecord
  2
*Model_Space
340
22
  0
BLOCK_RECORD
  5
1B
330
1
100
AcDbSymbolTableRecord
100
AcDbBlockTableRecord
  2
*Paper_Space
340
1E
  0
BLOCK_RECORD
  5
23
330
1
100
AcDbSymbolTableRecord
100
AcDbBlockTableRecord
  2
*Paper_Space0
340
26
  0
BLOCK_RECORD
  5
7F
330
1
100
AcDbSymbolTableRecord
100
AcDbBlockTableRecord
  2
블럭10
340
0
102
{BLKREFS
331
161
102
}
  0
BLOCK_RECORD
  5
16B
330
1
100
AcDbSymbolTableRecord
100
AcDbBlockTableRecord
  2
_D
340
0
  0
BLOCK_RECORD
  5
17E
330
1
100
AcDbSymbolTableRecord
100
AcDbBlockTableRecord
  2
_D_1
340
0
  0
BLOCK_RECORD
  5
192
330
1
100
AcDbSymbolTableRecord
100
AcDbBlockTableRecord
  2
_D_2
340
0
  0
BLOCK_RECORD
  5
1A7
330
1
100
AcDbSymbolTableRecord
100
AcDbBlockTableRecord
  2
_D_3
340
0
  0
BLOCK_RECORD
  5
1C0
330
1
100
AcDbSymbolTableRecord
100
AcDbBlockTableRecord
  2
SW_DOWELSYMBOL_0
340
0
102
{BLKREFS
331
1C6
102
}
  0
ENDTAB
  0
ENDSEC
  0
SECTION
  2
BLOCKS
  0
BLOCK
  5
20
330
1F
100
AcDbEntity
  8
0
100
AcDbBlockBegin
  2
*Model_Space
 70
     0
 10
0.0
 20
0.0
 30
0.0
  3
*Model_Space
  1
*Model_Space
  0
ENDBLK
  5
21
330
1F
100
AcDbEntity
  8
0
100
AcDbBlockEnd
  0
BLOCK
  5
1C
330
1B
100
AcDbEntity
 67
     1
  8
0
100
AcDbBlockBegin
  2
*Paper_Space
 70
     0
 10
0.0
 20
0.0
 30
0.0
  3
*Paper_Space
  1
*Paper_Space
  0
ENDBLK
  5
1D
330
1B
100
AcDbEntity
 67
     1
  8
0
100
AcDbBlockEnd
  0
BLOCK
  5
24
330
23
100
AcDbEntity
  8
0
100
AcDbBlockBegin
  2
*Paper_Space0
 70
     0
 10
0.0
 20
0.0
 30
0.0
  3
*Paper_Space0
  1
*Paper_Space0
  0
ENDBLK
  5
25
330
23
100
AcDbEntity
  8
0
100
AcDbBlockEnd
  0
BLOCK
  5
80
330
7F
100
AcDbEntity
  8
0
100
AcDbBlockBegin
  2
블럭10
 70
     2
 10
0.0
 20
0.0
 30
0.0
  3
블럭10
  1
블럭10
  0
ELLIPSE
  5
82
330
7F
100
AcDbEntity
  8
중심선
100
AcDbEllipse
 10
20.54032771741204
 20
12.0471743016438
 30
0.0
 11
6.600054785286829
 21
-1.261213355974178E-13
 31
0.0
210
0.0
220
0.0
230
1.0
 40
0.636358354079598
 41
0.9219305317359503
 42
6.513795318482858
  0
ELLIPSE
  5
83
330
7F
100
AcDbEntity
  8
중심선
100
AcDbEllipse
 10
20.54032771746488
 20
12.04717430159265
 30
0.0
 11
3.960054785062283
 21
1.540847449632565E-10
 31
0.0
210
0.0
220
0.0
230
1.0
 40
0.3939339440162632
 41
1.131841032648279
 42
5.62031148352944
  0
LINE
  5
84
330
7F
100
AcDbEntity
  8
중심선
100
AcDbLine
 10
2.268634060543552
 20
16.24717430164393
 30
0.0
 11
5.714909304380834
 21
16.24717430164393
 31
0.0
  0
LINE
  5
85
330
7F
100
AcDbEntity
  8
중심선
100
AcDbLine
 10
5.245725140726316
 20
7.84717430164391
 30
0.0
 11
8.692000384563599
 21
7.84717430164391
 31
0.0
  0
LINE
  5
86
330
7F
100
AcDbEntity
  8
중심선
100
AcDbLine
 10
15.74043728645272
 20
16.24717430164393
 30
0.0
 11
8.692000384563599
 21
7.84717430164391
 31
0.0
  0
LINE
  5
87
330
7F
100
AcDbEntity
  8
중심선
100
AcDbLine
 10
0.1404042013395286
 20
13.71084872107135
 30
0.0
 11
3.58671253028996
 21
13.71088815037384
 31
0.0
  0
LINE
  5
88
330
7F
100
AcDbEntity
  8
중심선
100
AcDbLine
 10
2.750260043222114
 20
10.84717430164391
 30
0.0
 11
6.196535287059397
 21
10.84717430164391
 31
0.0
  0
LINE
  5
89
330
7F
100
AcDbEntity
  8
중심선
100
AcDbLine
 10
12.29416204261559
 20
16.24717430164393
 30
0.0
 11
5.245725140726316
 21
7.84717430164391
 31
0.0
  0
LINE
  5
8A
330
7F
100
AcDbEntity
  8
중심선
100
AcDbLine
 10
10.72767329541681
 20
16.24717430164393
 30
0.0
 11
6.196535287059397
 21
10.84717430164391
 31
0.0
  0
LINE
  5
8B
330
7F
100
AcDbEntity
  8
중심선
100
AcDbLine
 10
7.28139805157953
 20
16.24717430164393
 30
0.0
 11
2.750260043222114
 21
10.84717430164391
 31
0.0
  0
LINE
  5
8C
330
7F
100
AcDbEntity
  8
중심선
100
AcDbLine
 10
5.714909304380834
 20
16.24717430164393
 30
0.0
 11
3.58671253028996
 21
13.71088815037384
 31
0.0
  0
LINE
  5
8D
330
7F
100
AcDbEntity
  8
중심선
100
AcDbLine
 10
2.268634060543552
 20
16.24717430164393
 30
0.0
 11
0.1404042013395286
 21
13.71084872107135
 31
0.0
  0
LINE
  5
8E
330
7F
100
AcDbEntity
  8
중심선
100
AcDbLine
 10
7.28139805157953
 20
16.24717430164393
 30
0.0
 11
10.72767329541681
 21
16.24717430164393
 31
0.0
  0
LINE
  5
8F
330
7F
100
AcDbEntity
  8
중심선
100
AcDbLine
 10
12.29416204261559
 20
16.24717430164393
 30
0.0
 11
15.74043728645272
 21
16.24717430164393
 31
0.0
  0
LINE
  5
90
330
7F
100
AcDbEntity
  8
중심선
100
AcDbLine
 10
19.22036997980202
 20
11.08717430171403
 30
0.0
 11
23.66174974927406
 21
11.08717430171406
 31
0.0
  0
LINE
  5
91
330
7F
100
AcDbEntity
  8
중심선
100
AcDbLine
 10
19.22039502424796
 20
13.00717430171391
 30
0.0
 11
19.22036997980202
 21
11.08717430171403
 31
0.0
  0
LINE
  5
92
330
7F
100
AcDbEntity
  8
중심선
100
AcDbLine
 10
19.22039502424796
 20
13.00717430171391
 30
0.0
 11
26.96566020931264
 21
13.00717430171391
 31
0.0
  0
LINE
  5
93
330
7F
100
AcDbEntity
  8
중심선
100
AcDbLine
 10
22.22332737316547
 20
13.45928029700563
 30
0.0
 11
24.52862924686651
 21
15.39360700705356
 31
0.0
  0
ATTDEF
  5
95
330
7F
100
AcDbEntity
  8
FORMAT
 62
     2
100
AcDbText
 10
-9.522313950597932
 20
2.075366912832191
 30
0.0
 40
4.233333333333333
  1
EH094024 [ 3 FLUTE ]
 41
0.75
  7
SLDTEXTSTYLE0
 11
-9.522313950597932
 21
-0.0412997538344756
 31
0.0
100
AcDbAttributeDefinition
  3

  2
AUTOATTR0
 70
     0
 74
     1
  0
ENDBLK
  5
81
330
7F
100
AcDbEntity
  8
0
100
AcDbBlockEnd
  0
BLOCK
  5
16C
330
16B
100
AcDbEntity
  8
0
100
AcDbBlockBegin
  2
_D
 70
     0
 10
0.0
 20
0.0
 30
0.0
  3
_D
  1
_D
  0
LINE
  5
16E
330
16B
100
AcDbEntity
  8
치수문자_일반주서
 62
     0
370
    -2
100
AcDbLine
 10
27.93750000000001
 20
7.937500000000004
 30
0.0
 11
49.18516456255742
 21
7.937500000000082
 31
0.0
  0
LINE
  5
16F
330
16B
100
AcDbEntity
  8
치수문자_일반주서
 62
     0
370
    -2
100
AcDbLine
 10
27.93750000000001
 20
-7.937500000000004
 30
0.0
 11
49.18516456255747
 21
-7.937499999999929
 31
0.0
  0
LINE
  5
170
330
16B
100
AcDbEntity
  8
치수문자_일반주서
 62
     0
370
    -2
100
AcDbLine
 10
49.18516456255742
 20
7.937500000000082
 30
0.0
 11
49.18516456255727
 21
49.68041666666691
 31
0.0
  0
LINE
  5
171
330
16B
100
AcDbEntity
  8
치수문자_일반주서
 62
     0
370
    -2
100
AcDbLine
 10
49.18516456255743
 20
4.635500000000082
 30
0.0
 11
49.18516456255746
 21
-4.635499999999929
 31
0.0
  0
SOLID
  5
172
330
16B
100
AcDbEntity
  8
치수문자_일반주서
 62
     0
100
AcDbTrace
 10
49.73549789589077
 20
4.635500000000084
 30
0.0
 11
48.6348312292241
 21
4.63550000000008
 31
0.0
 12
49.18516456255742
 22
7.937500000000082
 32
0.0
 13
49.18516456255742
 23
7.937500000000082
 33
0.0
  0
SOLID
  5
173
330
16B
100
AcDbEntity
  8
치수문자_일반주서
 62
     0
100
AcDbTrace
 10
48.63483122922413
 20
-4.635499999999931
 30
0.0
 11
49.73549789589079
 21
-4.635499999999928
 31
0.0
 12
49.18516456255747
 22
-7.937499999999929
 32
0.0
 13
49.18516456255747
 23
-7.937499999999929
 33
0.0
  0
MTEXT
  5
174
330
16B
100
AcDbEntity
  8
치수문자_일반주서
 62
     0
100
AcDbMText
 10
44.81016456255732
 20
35.68041666666689
 30
0.0
 40
3.5
 41
0.0
 71
     2
 72
     1
  1
\A1;%%c15.88 [5/8]
  7
SLDTEXTSTYLE0
 11
-3.580687802255621E-15
 21
1.0
 31
0.0
 73
     1
 44
1.0
  0
POINT
  5
175
330
16B
100
AcDbEntity
  8
Defpoints
 62
     0
100
AcDbPoint
 10
27.87500000000001
 20
7.937500000000004
 30
0.0
  0
POINT
  5
176
330
16B
100
AcDbEntity
  8
Defpoints
 62
     0
100
AcDbPoint
 10
27.87500000000001
 20
-7.937500000000004
 30
0.0
  0
POINT
  5
177
330
16B
100
AcDbEntity
  8
Defpoints
 62
     0
100
AcDbPoint
 10
49.18516456255747
 20
-7.937499999999924
 30
0.0
  0
ENDBLK
  5
16D
330
16B
100
AcDbEntity
  8
0
100
AcDbBlockEnd
  0
BLOCK
  5
17F
330
17E
100
AcDbEntity
  8
0
100
AcDbBlockBegin
  2
_D_1
 70
     0
 10
0.0
 20
0.0
 30
0.0
  3
_D_1
  1
_D_1
  0
LINE
  5
181
330
17E
100
AcDbEntity
  8
치수문자_일반주서
 62
     0
370
    -2
100
AcDbLine
 10
-40.30833333333327
 20
7.9375
 30
0.0
 11
-58.26250000000004
 21
7.937499999999933
 31
0.0
  0
LINE
  5
182
330
17E
100
AcDbEntity
  8
치수문자_일반주서
 62
     0
370
    -2
100
AcDbLine
 10
-40.30833333333327
 20
-7.93750000000002
 30
0.0
 11
-58.26249999999998
 21
-7.937500000000087
 31
0.0
  0
LINE
  5
183
330
17E
100
AcDbEntity
  8
치수문자_일반주서
 62
     0
370
    -2
100
AcDbLine
 10
-58.26250000000002
 20
4.635499999999933
 30
0.0
 11
-58.2625
 21
-4.635500000000087
 31
0.0
  0
SOLID
  5
184
330
17E
100
AcDbEntity
  8
치수문자_일반주서
 62
     0
100
AcDbTrace
 10
-57.71216666666669
 20
4.635499999999935
 30
0.0
 11
-58.81283333333336
 21
4.635499999999931
 31
0.0
 12
-58.26250000000004
 22
7.937499999999933
 32
0.0
 13
-58.26250000000004
 23
7.937499999999933
 33
0.0
  0
SOLID
  5
185
330
17E
100
AcDbEntity
  8
치수문자_일반주서
 62
     0
100
AcDbTrace
 10
-58.81283333333333
 20
-4.635500000000089
 30
0.0
 11
-57.71216666666666
 21
-4.635500000000086
 31
0.0
 12
-58.26249999999998
 22
-7.937500000000087
 32
0.0
 13
-58.26249999999998
 23
-7.937500000000087
 33
0.0
  0
MTEXT
  5
186
330
17E
100
AcDbEntity
  8
치수문자_일반주서
 62
     0
100
AcDbMText
 10
-62.6375
 20
-1.271680434525792
 30
0.0
 40
3.5
 41
0.0
 71
     2
 72
     1
  1
\A1;%%c15.88 [5/8]
  7
SLDTEXTSTYLE0
 11
-3.580687802255618E-15
 21
1.0
 31
0.0
 73
     1
 44
1.0
  0
POINT
  5
187
330
17E
100
AcDbEntity
  8
Defpoints
 62
     0
100
AcDbPoint
 10
-40.24583333333327
 20
7.9375
 30
0.0
  0
POINT
  5
188
330
17E
100
AcDbEntity
  8
Defpoints
 62
     0
100
AcDbPoint
 10
-40.24583333333327
 20
-7.93750000000002
 30
0.0
  0
POINT
  5
189
330
17E
100
AcDbEntity
  8
Defpoints
 62
     0
100
AcDbPoint
 10
-58.26249999999999
 20
-7.937500000000087
 30
0.0
  0
ENDBLK
  5
180
330
17E
100
AcDbEntity
  8
0
100
AcDbBlockEnd
  0
BLOCK
  5
193
330
192
100
AcDbEntity
  8
0
100
AcDbBlockBegin
  2
_D_2
 70
     0
 10
0.0
 20
0.0
 30
0.0
  3
_D_2
  1
_D_2
  0
LINE
  5
195
330
192
100
AcDbEntity
  8
치수문자_일반주서
 62
     0
370
    -2
100
AcDbLine
 10
27.87500000000001
 20
5.202062718986243
 30
0.0
 11
27.87500000000001
 21
34.01908799003318
 31
0.0
  0
LINE
  5
196
330
192
100
AcDbEntity
  8
치수문자_일반주서
 62
     0
370
    -2
100
AcDbLine
 10
12.0
 20
8.000000000000004
 30
0.0
 11
12.0
 21
34.01908799003318
 31
0.0
  0
LINE
  5
197
330
192
100
AcDbEntity
  8
치수문자_일반주서
 62
     0
370
    -2
100
AcDbLine
 10
24.57300000000001
 20
34.01908799003318
 30
0.0
 11
15.302
 21
34.01908799003318
 31
0.0
  0
SOLID
  5
198
330
192
100
AcDbEntity
  8
치수문자_일반주서
 62
     0
100
AcDbTrace
 10
24.57300000000001
 20
33.46875465669984
 30
0.0
 11
24.57300000000001
 21
34.56942132336651
 31
0.0
 12
27.87500000000001
 22
34.01908799003318
 32
0.0
 13
27.87500000000001
 23
34.01908799003318
 33
0.0
  0
SOLID
  5
199
330
192
100
AcDbEntity
  8
치수문자_일반주서
 62
     0
100
AcDbTrace
 10
15.302
 20
34.56942132336651
 30
0.0
 11
15.302
 21
33.46875465669984
 31
0.0
 12
12.0
 22
34.01908799003318
 32
0.0
 13
12.0
 23
34.01908799003318
 33
0.0
  0
MTEXT
  5
19A
330
192
100
AcDbEntity
  8
치수문자_일반주서
 62
     0
100
AcDbMText
 10
15.96875
 20
38.39408799003318
 30
0.0
 40
3.5
 41
0.0
 71
     2
 72
     1
  1
\A1;15.88 [5/8]
  7
SLDTEXTSTYLE0
 73
     1
 44
1.0
  0
POINT
  5
19B
330
192
100
AcDbEntity
  8
Defpoints
 62
     0
100
AcDbPoint
 10
27.87500000000001
 20
5.139562718986243
 30
0.0
  0
POINT
  5
19C
330
192
100
AcDbEntity
  8
Defpoints
 62
     0
100
AcDbPoint
 10
12.0
 20
7.937500000000004
 30
0.0
  0
POINT
  5
19D
330
192
100
AcDbEntity
  8
Defpoints
 62
     0
100
AcDbPoint
 10
12.0
 20
34.01908799003318
 30
0.0
  0
ENDBLK
  5
194
330
192
100
AcDbEntity
  8
0
100
AcDbBlockEnd
  0
BLOCK
  5
1A8
330
1A7
100
AcDbEntity
  8
0
100
AcDbBlockBegin
  2
_D_3
 70
     0
 10
0.0
 20
0.0
 30
0.0
  3
_D_3
  1
_D_3
  0
LINE
  5
1AA
330
1A7
100
AcDbEntity
  8
치수문자_일반주서
 62
     0
370
    -2
100
AcDbLine
 10
27.87500000000001
 20
6.107941794956418
 30
0.0
 11
27.87500000000002
 21
62.7077420676631
 31
0.0
  0
LINE
  5
1AB
330
1A7
100
AcDbEntity
  8
치수문자_일반주서
 62
     0
370
    -2
100
AcDbLine
 10
-41.97499999999998
 20
6.333333333333327
 30
0.0
 11
-41.97499999999997
 21
62.7077420676631
 31
0.0
  0
LINE
  5
1AC
330
1A7
100
AcDbEntity
  8
치수문자_일반주서
 62
     0
370
    -2
100
AcDbLine
 10
24.57300000000002
 20
62.7077420676631
 30
0.0
 11
-38.67299999999997
 21
62.7077420676631
 31
0.0
  0
SOLID
  5
1AD
330
1A7
100
AcDbEntity
  8
치수문자_일반주서
 62
     0
100
AcDbTrace
 10
24.57300000000002
 20
62.15740873432977
 30
0.0
 11
24.57300000000002
 21
63.25807540099644
 31
0.0
 12
27.87500000000002
 22
62.7077420676631
 32
0.0
 13
27.87500000000002
 23
62.7077420676631
 33
0.0
  0
SOLID
  5
1AE
330
1A7
100
AcDbEntity
  8
치수문자_일반주서
 62
     0
100
AcDbTrace
 10
-38.67299999999997
 20
63.25807540099644
 30
0.0
 11
-38.67299999999997
 21
62.15740873432977
 31
0.0
 12
-41.97499999999997
 22
62.7077420676631
 32
0.0
 13
-41.97499999999997
 23
62.7077420676631
 33
0.0
  0
MTEXT
  5
1AF
330
1A7
100
AcDbEntity
  8
치수문자_일반주서
 62
     0
100
AcDbMText
 10
-11.8125
 20
67.0827420676631
 30
0.0
 40
3.5
 41
0.0
 71
     2
 72
     1
  1
\A1;69.85 [2 3/4]
  7
SLDTEXTSTYLE0
 73
     1
 44
1.0
  0
POINT
  5
1B0
330
1A7
100
AcDbEntity
  8
Defpoints
 62
     0
100
AcDbPoint
 10
27.87500000000001
 20
6.045441794956418
 30
0.0
  0
POINT
  5
1B1
330
1A7
100
AcDbEntity
  8
Defpoints
 62
     0
100
AcDbPoint
 10
-41.97499999999998
 20
6.270833333333327
 30
0.0
  0
POINT
  5
1B2
330
1A7
100
AcDbEntity
  8
Defpoints
 62
     0
100
AcDbPoint
 10
-41.97499999999998
 20
62.7077420676631
 30
0.0
  0
ENDBLK
  5
1A9
330
1A7
100
AcDbEntity
  8
0
100
AcDbBlockEnd
  0
BLOCK
  5
1C1
330
1C0
100
AcDbEntity
  8
0
100
AcDbBlockBegin
  2
SW_DOWELSYMBOL_0
 70
     0
 10
0.0
 20
0.0
 30
0.0
  3
SW_DOWELSYMBOL_0
  1
SW_DOWELSYMBOL_0
  0
CIRCLE
  5
1C3
330
1C0
100
AcDbEntity
  8
해칭선
 62
     0
100
AcDbCircle
 10
0.0
 20
0.0
 30
0.0
 40
3.000000000000004
  0
HATCH
  5
1C4
330
1C0
100
AcDbEntity
  8
0
  6
Continuous
 62
     0
370
     0
100
AcDbHatch
 10
0.0
 20
0.0
 30
0.0
210
0.0
220
0.0
230
1.0
  2
SOLID
 70
     1
 71
     0
 91
        1
 92
        0
 93
        3
 72
     2
 10
0.0000000000000104
 20
-0.0000000000000035
 40
3.000000000000004
 50
0.0
 51
90.0
 73
     1
 72
     1
 10
0.0000000000000104
 20
3.000000000000001
 11
0.0000000000000104
 21
-0.0000000000000036
 72
     1
 10
0.0000000000000104
 20
-0.0000000000000035
 11
3.000000000000015
 21
-0.0000000000000035
 97
        0
 75
     0
 76
     1
 98
        1
 10
0.0
 20
0.0
  0
HATCH
  5
1C5
330
1C0
100
AcDbEntity
  8
0
  6
Continuous
 62
     0
370
     0
100
AcDbHatch
 10
0.0
 20
0.0
 30
0.0
210
0.0
220
0.0
230
1.0
  2
SOLID
 70
     1
 71
     0
 91
        1
 92
        0
 93
        3
 72
     2
 10
0.0000000000000104
 20
-0.0000000000000035
 40
3.000000000000004
 50
180.0
 51
270.0000000000007
 73
     1
 72
     1
 10
0.0000000000000104
 20
-3.000000000000008
 11
0.0000000000000104
 21
-0.0000000000000036
 72
     1
 10
0.0000000000000104
 20
-0.0000000000000035
 11
-2.999999999999994
 21
-0.0000000000000035
 97
        0
 75
     0
 76
     1
 98
        1
 10
0.0
 20
0.0
  0
ENDBLK
  5
1C2
330
1C0
100
AcDbEntity
  8
0
100
AcDbBlockEnd
  0
ENDSEC
  0
SECTION
  2
ENTITIES
  0
LINE
  5
96
330
1F
100
AcDbEntity
  8
외형선
  6
Continuous
370
    15
100
AcDbLine
 10
12.0
 20
7.937499999999998
 30
0.0
 11
-11.02192500000005
 21
7.937499999999996
 31
0.0
  0
LINE
  5
97
330
1F
100
AcDbEntity
  8
외형선
  6
Continuous
370
    15
100
AcDbLine
 10
-40.30833333333327
 20
-7.93750000000002
 30
0.0
 11
12.0
 21
-7.937500000000012
 31
0.0
  0
LINE
  5
98
330
1F
100
AcDbEntity
  8
외형선
  6
Continuous
370
    15
100
AcDbLine
 10
-40.30833333333327
 20
7.937499999999994
 30
0.0
 11
-41.97499999999998
 21
6.270833333333327
 31
0.0
  0
LINE
  5
99
330
1F
100
AcDbEntity
  8
외형선
  6
Continuous
370
    15
100
AcDbLine
 10
-41.97499999999998
 20
-6.270833333333347
 30
0.0
 11
-40.30833333333327
 21
-7.937500000000018
 31
0.0
  0
LINE
  5
9A
330
1F
100
AcDbEntity
  8
외형선
  6
Continuous
 62
     1
370
    15
100
AcDbLine
 10
21.87134429453109
 20
-1.180365290700579
 30
0.0
 11
21.67435056690169
 21
-1.068964123469012
 31
0.0
  0
SPLINE
  5
9D
330
1F
100
AcDbEntity
  8
외형선
  6
Continuous
 62
     1
370
    15
100
AcDbSpline
210
0.0
220
0.0
230
1.0
 70
     8
 71
     3
 72
    11
 73
     7
 74
     0
 42
0.000000001
 43
0.00000001
 40
0.0
 40
0.0
 40
0.0
 40
0.0
 40
0.2440153330753486
 40
0.4999875730589091
 40
0.755964630627739
 40
1.0
 40
1.0
 40
1.0
 40
1.0
 10
12.34230746052858
 20
-7.843564004013325
 30
0.0
 10
12.4158327812015
 20
-7.793557965589771
 30
0.0
 10
12.56648621014108
 20
-7.691095560975381
 30
0.0
 10
12.84379283108223
 20
-7.642307861670107
 30
0.0
 10
13.12109675519293
 20
-7.680289259399669
 30
0.0
 10
13.27172040850587
 20
-7.774675163661203
 30
0.0
 10
13.34523357916302
 20
-7.820741016765911
 30
0.0
  0
SPLINE
  5
9F
330
1F
100
AcDbEntity
  8
외형선
  6
Continuous
 62
     1
370
    15
100
AcDbSpline
210
0.0
220
0.0
230
1.0
 70
     8
 71
     3
 72
     9
 73
     5
 74
     0
 42
0.000000001
 43
0.00000001
 40
0.0
 40
0.0
 40
0.0
 40
0.0
 40
0.4985554915106001
 40
1.0
 40
1.0
 40
1.0
 40
1.0
 10
13.36175333550418
 20
-7.83734338303313
 30
0.0
 10
13.40559035740897
 20
-7.866124327632439
 30
0.0
 10
13.49351842690418
 20
-7.923852995933935
 30
0.0
 10
13.59548841963503
 20
-7.932931239711719
 30
0.0
 10
13.64662071252062
 20
-7.937483475200816
 30
0.0
  0
LINE
  5
A0
330
1F
100
AcDbEntity
  8
외형선
  6
Continuous
 62
     1
370
    15
100
AcDbLine
 10
13.64745605742798
 20
-7.937500000000016
 30
0.0
 11
15.43724083007477
 21
-7.937500000000016
 31
0.0
  0
SPLINE
  5
A3
330
1F
100
AcDbEntity
  8
외형선
  6
Continuous
 62
     1
370
    15
100
AcDbSpline
210
0.0
220
0.0
230
1.0
 70
     8
 71
     3
 72
     9
 73
     5
 74
     0
 42
0.000000001
 43
0.00000001
 40
0.0
 40
0.0
 40
0.0
 40
0.0
 40
0.5021232391725741
 40
1.0
 40
1.0
 40
1.0
 40
1.0
 10
15.43761903551379
 20
-7.937499994478071
 30
0.0
 10
15.48883936135067
 20
-7.933079464143084
 30
0.0
 10
15.59084684047328
 20
-7.924275788092819
 30
0.0
 10
15.67904792914108
 20
-7.86643869792724
 30
0.0
 10
15.72296120146845
 20
-7.837642954819921
 30
0.0
  0
SPLINE
  5
A4
330
1F
100
AcDbEntity
  8
외형선
  6
Continuous
 62
     1
370
    15
100
AcDbSpline
210
0.0
220
0.0
230
1.0
 70
     8
 71
     3
 72
    11
 73
     7
 74
     0
 42
0.000000001
 43
0.00000001
 40
0.0
 40
0.0
 40
0.0
 40
0.0
 40
0.2080640419484749
 40
0.446966460370972
 40
0.7138447390245498
 40
0.9999999999999999
 40
0.9999999999999999
 40
0.9999999999999999
 40
0.9999999999999999
 10
15.7281838933158
 20
-7.833164686908731
 30
0.0
 10
15.78292322869885
 20
-7.796891290200191
 30
0.0
 10
15.90051513333602
 20
-7.718968206612
 30
0.0
 10
16.14867011542365
 20
-7.658471341504949
 30
0.0
 10
16.44302948482429
 20
-7.681592879795309
 30
0.0
 10
16.60825574910854
 20
-7.78352808307088
 30
0.0
 10
16.69374851109902
 20
-7.836272252466958
 30
0.0
  0
SPLINE
  5
A5
330
1F
100
AcDbEntity
  8
외형선
  6
Continuous
 62
     1
370
    15
100
AcDbSpline
210
0.0
220
0.0
230
1.0
 70
     8
 71
     3
 72
     9
 73
     5
 74
     0
 42
0.000000001
 43
0.00000001
 40
0.0
 40
0.0
 40
0.0
 40
0.0
 40
0.4985633009861354
 40
1.0
 40
1.0
 40
1.0
 40
1.0
 10
16.69506811257012
 20
-7.837328860351128
 30
0.0
 10
16.73909315395001
 20
-7.86622398291317
 30
0.0
 10
16.82739696871694
 20
-7.924180760928896
 30
0.0
 10
16.92973837466925
 20
-7.933051755657059
 30
0.0
 10
16.9810561114424
 20
-7.937499997970518
 30
0.0
  0
LINE
  5
A6
330
1F
100
AcDbEntity
  8
외형선
  6
Continuous
 62
     1
370
    15
100
AcDbLine
 10
16.98103728242235
 20
-7.937500000000016
 30
0.0
 11
18.7707658650563
 21
-7.937500000000016
 31
0.0
  0
SPLINE
  5
A7
330
1F
100
AcDbEntity
  8
외형선
  6
Continuous
 62
     1
370
    15
100
AcDbSpline
210
0.0
220
0.0
230
1.0
 70
     8
 71
     3
 72
     9
 73
     5
 74
     0
 42
0.000000001
 43
0.00000001
 40
0.0
 40
0.0
 40
0.0
 40
0.0
 40
0.5021231499981732
 40
1.0
 40
1.0
 40
1.0
 40
1.0
 10
18.77096320237424
 20
-7.937499986839548
 30
0.0
 10
18.82218285504729
 20
-7.933078166041812
 30
0.0
 10
18.924189011651
 20
-7.924271918415608
 30
0.0
 10
19.01238872690173
 20
-7.866433863659387
 30
0.0
 10
19.05630132330184
 20
-7.837637635147129
 30
0.0
  0
SPLINE
  5
A8
330
1F
100
AcDbEntity
  8
외형선
  6
Continuous
 62
     1
370
    15
100
AcDbSpline
210
0.0
220
0.0
230
1.0
 70
     8
 71
     3
 72
    11
 73
     7
 74
     0
 42
0.000000001
 43
0.00000001
 40
0.0
 40
0.0
 40
0.0
 40
0.0
 40
0.2450438954141269
 40
0.4998942731562089
 40
0.7547909839897298
 40
0.9999999999999999
 40
0.9999999999999999
 40
0.9999999999999999
 40
0.9999999999999999
 10
19.05028129940835
 20
-7.841844793312028
 30
0.0
 10
19.12243480306074
 20
-7.794892966046804
 30
0.0
 10
19.26962934223922
 20
-7.699110332798834
 30
0.0
 10
19.54475105163807
 20
-7.656046467067684
 30
0.0
 10
19.81986088397507
 20
-7.700232641300825
 30
0.0
 10
19.96690211420687
 20
-7.796771170435298
 30
0.0
 10
20.03899853990795
 20
-7.844105396910846
 30
0.0
  0
SPLINE
  5
A9
330
1F
100
AcDbEntity
  8
외형선
  6
Continuous
 62
     1
370
    15
100
AcDbSpline
210
0.0
220
0.0
230
1.0
 70
     8
 71
     3
 72
     9
 73
     5
 74
     0
 42
0.000000001
 43
0.00000001
 40
0.0
 40
0.0
 40
0.0
 40
0.0
 40
0.4985883877980591
 40
1.0
 40
1.0
 40
1.0
 40
1.0
 10
20.03362441498584
 20
-7.841048997022059
 30
0.0
 10
20.0762812214348
 20
-7.868619941150886
 30
0.0
 10
20.16183637573224
 20
-7.923917948091221
 30
0.0
 10
20.26149765515144
 20
-7.932885812520571
 30
0.0
 10
20.31146897793912
 20
-7.937382403882101
 30
0.0
  0
LINE
  5
AA
330
1F
100
AcDbEntity
  8
외형선
  6
Continuous
 62
     1
370
    15
100
AcDbLine
 10
20.3142585655259
 20
-7.937500000000016
 30
0.0
 11
21.53820191729515
 21
-7.937500000000016
 31
0.0
  0
LINE
  5
AB
330
1F
100
AcDbEntity
  8
외형선
  6
Continuous
 62
     1
370
    15
100
AcDbLine
 10
27.87500000000001
 20
6.104166666666659
 30
0.0
 11
26.77541699715686
 21
7.203749669509804
 31
0.0
  0
LINE
  5
B4
330
1F
100
AcDbEntity
  8
외형선
  6
Continuous
370
    15
100
AcDbLine
 10
-40.30833333333327
 20
7.937499999999995
 30
0.0
 11
-40.30833333333327
 21
-7.937500000000004
 31
0.0
  0
LINE
  5
B6
330
1F
100
AcDbEntity
  8
외형선
  6
Continuous
370
    15
100
AcDbLine
 10
-41.97499999999998
 20
6.270833333333328
 30
0.0
 11
-41.97499999999998
 21
-6.270833333333347
 31
0.0
  0
SPLINE
  5
B7
330
1F
100
AcDbEntity
  8
외형선
  6
Continuous
 62
     1
370
    15
100
AcDbSpline
210
0.0
220
0.0
230
1.0
 70
     8
 71
     3
 72
     8
 73
     4
 74
     0
 42
0.000000001
 43
0.00000001
 40
0.0
 40
0.0
 40
0.0
 40
0.0
 40
1.0
 40
1.0
 40
1.0
 40
1.0
 10
25.77536289283441
 20
1.688306706982008
 30
0.0
 10
25.85354409383309
 20
1.649424925039954
 30
0.0
 10
25.94739174123874
 20
1.598882147025089
 30
0.0
 10
26.04356852448461
 20
1.544518082184297
 30
0.0
  0
SPLINE
  5
B8
330
1F
100
AcDbEntity
  8
외형선
  6
Continuous
 62
     1
370
    15
100
AcDbSpline
210
0.0
220
0.0
230
1.0
 70
     8
 71
     3
 72
    12
 73
     8
 74
     0
 42
0.000000001
 43
0.00000001
 40
0.0
 40
0.0
 40
0.0
 40
0.0
 40
0.2499999999999999
 40
0.2499999999999999
 40
0.4999999999999998
 40
0.4999999999999998
 40
1.0
 40
1.0
 40
1.0
 40
1.0
 10
26.04167066711404
 20
1.54559246801259
 30
0.0
 10
26.04179390108934
 20
1.123898678942493
 30
0.0
 10
26.04457398084912
 20
0.6950858589256285
 30
0.0
 10
26.05368702519312
 20
-0.1555073688756601
 30
0.0
 10
26.06007284549314
 20
-0.5795515046484319
 30
0.0
 10
26.08379963165715
 20
-1.847924277423601
 30
0.0
 10
26.10560200337067
 20
-2.676841390690209
 30
0.0
 10
26.13055555555554
 20
-3.438127338480454
 30
0.0
  0
SPLINE
  5
B9
330
1F
100
AcDbEntity
  8
외형선
  6
Continuous
 62
     1
370
    15
100
AcDbSpline
210
0.0
220
0.0
230
1.0
 70
     8
 71
     3
 72
    12
 73
     8
 74
     0
 42
0.000000001
 43
0.00000001
 40
0.0
 40
0.0
 40
0.0
 40
0.0
 40
0.5
 40
0.5
 40
0.75
 40
0.75
 40
1.0
 40
1.0
 40
1.0
 40
1.0
 10
26.13256529304451
 20
-3.465464108035987
 30
0.0
 10
26.07502309753471
 20
-2.683071568067425
 30
0.0
 10
26.0132242657567
 20
-1.815761659958843
 30
0.0
 10
25.92173012470979
 20
-0.4917420542513893
 30
0.0
 10
25.89145296484872
 20
-0.0469867979611495
 30
0.0
 10
25.83259752346693
 20
0.8304261174528632
 30
0.0
 10
25.80466140588472
 20
1.259958830899012
 30
0.0
 10
25.77536289283415
 20
1.688306706978363
 30
0.0
  0
SPLINE
  5
BA
330
1F
100
AcDbEntity
  8
외형선
  6
Continuous
 62
     1
370
    15
100
AcDbSpline
210
0.0
220
0.0
230
1.0
 70
     8
 71
     3
 72
    10
 73
     6
 74
     0
 42
0.000000001
 43
0.00000001
 40
0.0
 40
0.0
 40
0.0
 40
0.0
 40
0.5
 40
0.5
 40
1.0
 40
1.0
 40
1.0
 40
1.0
 10
26.04180718749669
 20
1.545503674656897
 30
0.0
 10
26.33966843944422
 20
1.355961413176761
 30
0.0
 10
26.63992594798117
 20
1.199829284772214
 30
0.0
 10
27.24994141927737
 20
0.9617817119841627
 30
0.0
 10
27.56187516145472
 20
0.8793370808510618
 30
0.0
 10
27.87500000000001
 20
0.8446799383425999
 30
0.0
  0
LINE
  5
BB
330
1F
100
AcDbEntity
  8
외형선
  6
Continuous
 62
     1
370
    15
100
AcDbLine
 10
27.87500000000001
 20
0.8446799383426259
 30
0.0
 11
27.87500000000001
 21
-3.754235182150017
 31
0.0
  0
SPLINE
  5
BC
330
1F
100
AcDbEntity
  8
외형선
  6
Continuous
 62
     1
370
    15
100
AcDbSpline
210
0.0
220
0.0
230
1.0
 70
     8
 71
     3
 72
     8
 73
     4
 74
     0
 42
0.000000001
 43
0.00000001
 40
0.0
 40
0.0
 40
0.0
 40
0.0
 40
1.0
 40
1.0
 40
1.0
 40
1.0
 10
27.87500000000001
 20
-3.754235182150017
 30
0.0
 10
27.31526280695871
 20
-3.692570995239646
 30
0.0
 10
26.72898211363732
 20
-3.604380251106314
 30
0.0
 10
26.13228785893851
 20
-3.491028208202311
 30
0.0
  0
SPLINE
  5
BD
330
1F
100
AcDbEntity
  8
외형선
  6
Continuous
 62
     1
370
    15
100
AcDbSpline
210
0.0
220
0.0
230
1.0
 70
     8
 71
     3
 72
    10
 73
     6
 74
     0
 42
0.000000001
 43
0.00000001
 40
0.0
 40
0.0
 40
0.0
 40
0.0
 40
0.5
 40
0.5
 40
1.0
 40
1.0
 40
1.0
 40
1.0
 10
26.13457277677569
 20
-3.492748888461154
 30
0.0
 10
25.97171437426282
 20
-3.369939808121934
 30
0.0
 10
25.77860245134685
 20
-3.258898955276187
 30
0.0
 10
25.40065214977441
 20
-3.068244452098159
 30
0.0
 10
25.21814062847214
 20
-2.989285490330832
 30
0.0
 10
25.06495740938639
 20
-2.936146990056934
 30
0.0
  0
SPLINE
  5
BE
330
1F
100
AcDbEntity
  8
외형선
  6
Continuous
 62
     1
370
    15
100
AcDbSpline
210
0.0
220
0.0
230
1.0
 70
     8
 71
     3
 72
    12
 73
     8
 74
     0
 42
0.000000001
 43
0.00000001
 40
0.0
 40
0.0
 40
0.0
 40
0.0
 40
0.5
 40
0.5
 40
0.75
 40
0.75
 40
1.0
 40
1.0
 40
1.0
 40
1.0
 10
25.06495739055042
 20
-2.936146730207095
 30
0.0
 10
25.00547907960157
 20
-2.115618906638088
 30
0.0
 10
24.94276003394507
 20
-1.223052186191299
 30
0.0
 10
24.85175801269206
 20
0.1116456817249586
 30
0.0
 10
24.82194650049757
 20
0.5555641287147915
 30
0.0
 10
24.76455878000551
 20
1.42299073389241
 30
0.0
 10
24.73535048447256
 20
1.854706608867868
 30
0.0
 10
24.70519578117251
 20
2.279966626916766
 30
0.0
  0
SPLINE
  5
BF
330
1F
100
AcDbEntity
  8
외형선
  6
Continuous
 62
     1
370
    15
100
AcDbSpline
210
0.0
220
0.0
230
1.0
 70
     8
 71
     3
 72
    10
 73
     6
 74
     0
 42
0.000000001
 43
0.00000001
 40
0.0
 40
0.0
 40
0.0
 40
0.0
 40
0.5
 40
0.5
 40
1.0
 40
1.0
 40
1.0
 40
1.0
 10
24.70519578117131
 20
2.27996662693382
 30
0.0
 10
24.8681078156842
 20
2.17116168295126
 30
0.0
 10
25.06112041283112
 20
2.062640309359197
 30
0.0
 10
25.43916309101424
 20
1.858978758258909
 30
0.0
 10
25.62197244761401
 20
1.764592230443393
 30
0.0
 10
25.7753628928339
 20
1.688306706981928
 30
0.0
  0
SPLINE
  5
C0
330
1F
100
AcDbEntity
  8
외형선
  6
Continuous
 62
     1
370
    15
100
AcDbSpline
210
0.0
220
0.0
230
1.0
 70
     8
 71
     3
 72
     8
 73
     4
 74
     0
 42
0.000000001
 43
0.00000001
 40
0.0
 40
0.0
 40
0.0
 40
0.0
 40
1.0
 40
1.0
 40
1.0
 40
1.0
 10
25.06495740938636
 20
-2.936146990056934
 30
0.0
 10
24.98668413309094
 20
-2.908994378049645
 30
0.0
 10
24.89276662137046
 20
-2.865766660389509
 30
0.0
 10
24.79657326176731
 20
-2.813619443855671
 30
0.0
  0
SPLINE
  5
C1
330
1F
100
AcDbEntity
  8
외형선
  6
Continuous
 62
     1
370
    15
100
AcDbSpline
210
0.0
220
0.0
230
1.0
 70
     8
 71
     3
 72
    10
 73
     6
 74
     0
 42
0.000000001
 43
0.00000001
 40
0.0
 40
0.0
 40
0.0
 40
0.0
 40
0.5
 40
0.5
 40
1.0
 40
1.0
 40
1.0
 40
1.0
 10
24.79657327160804
 20
-2.813619581709837
 30
0.0
 10
24.73699857410981
 20
-1.979116107284251
 30
0.0
 10
24.67452942119046
 20
-1.076697558842869
 30
0.0
 10
24.55426853811076
 20
0.7132458474860743
 30
0.0
 10
24.49864473726014
 20
1.589411040679981
 30
0.0
 10
24.43837433522356
 20
2.441861538595432
 30
0.0
  0
SPLINE
  5
C2
330
1F
100
AcDbEntity
  8
외형선
  6
Continuous
 62
     1
370
    15
100
AcDbSpline
210
0.0
220
0.0
230
1.0
 70
     8
 71
     3
 72
     8
 73
     4
 74
     0
 42
0.000000001
 43
0.00000001
 40
0.0
 40
0.0
 40
0.0
 40
0.0
 40
1.0
 40
1.0
 40
1.0
 40
1.0
 10
24.43837441294039
 20
2.44186043943177
 30
0.0
 10
24.53105233082194
 20
2.390863559423213
 30
0.0
 10
24.62518592420076
 20
2.333403244012191
 30
0.0
 10
24.7051957811702
 20
2.27996662693455
 30
0.0
  0
SPLINE
  5
C3
330
1F
100
AcDbEntity
  8
외형선
  6
Continuous
 62
     1
370
    15
100
AcDbSpline
210
0.0
220
0.0
230
1.0
 70
     8
 71
     3
 72
     8
 73
     4
 74
     0
 42
0.000000001
 43
0.00000001
 40
0.0
 40
0.0
 40
0.0
 40
0.0
 40
1.0
 40
1.0
 40
1.0
 40
1.0
 10
22.93422977371984
 20
-1.785848153824738
 30
0.0
 10
22.84153226392402
 20
-1.733797268066554
 30
0.0
 10
22.74736763480147
 20
-1.677745809437989
 30
0.0
 10
22.66734941343122
 20
-1.628763524997927
 30
0.0
  0
SPLINE
  5
C4
330
1F
100
AcDbEntity
  8
외형선
  6
Continuous
 62
     1
370
    15
100
AcDbSpline
210
0.0
220
0.0
230
1.0
 70
     8
 71
     3
 72
    10
 73
     6
 74
     0
 42
0.000000001
 43
0.00000001
 40
0.0
 40
0.0
 40
0.0
 40
0.0
 40
0.5
 40
0.5
 40
1.0
 40
1.0
 40
1.0
 40
1.0
 10
22.66734923145847
 20
-1.62876093301201
 30
0.0
 10
22.60598020519474
 20
-0.7546317913295142
 30
0.0
 10
22.54414316188089
 20
0.1534020904205904
 30
0.0
 10
22.42965598479304
 20
1.885121227178666
 30
0.0
 10
22.36858686950039
 20
2.750635533432467
 30
0.0
 10
22.30717368012924
 20
3.547899108081308
 30
0.0
  0
SPLINE
  5
C5
330
1F
100
AcDbEntity
  8
외형선
  6
Continuous
 62
     1
370
    15
100
AcDbSpline
210
0.0
220
0.0
230
1.0
 70
     8
 71
     3
 72
     8
 73
     4
 74
     0
 42
0.000000001
 43
0.00000001
 40
0.0
 40
0.0
 40
0.0
 40
0.0
 40
1.0
 40
1.0
 40
1.0
 40
1.0
 10
22.30717368012542
 20
3.547899108137479
 30
0.0
 10
22.38548452556299
 20
3.527238200832453
 30
0.0
 10
22.47945316785331
 20
3.488534614234399
 30
0.0
 10
22.57575139835685
 20
3.438469789444597
 30
0.0
  0
SPLINE
  5
C6
330
1F
100
AcDbEntity
  8
외형선
  6
Continuous
 62
     1
370
    15
100
AcDbSpline
210
0.0
220
0.0
230
1.0
 70
     8
 71
     3
 72
    12
 73
     8
 74
     0
 42
0.000000001
 43
0.00000001
 40
0.0
 40
0.0
 40
0.0
 40
0.0
 40
0.5000000000000001
 40
0.5000000000000001
 40
0.75
 40
0.75
 40
1.0
 40
1.0
 40
1.0
 40
1.0
 10
22.93422972953431
 20
-1.785847519339603
 30
0.0
 10
22.87321233494221
 20
-0.9096786185271789
 30
0.0
 10
22.81143972502712
 20
0.0046316675259243
 30
0.0
 10
22.72522657508816
 20
1.31886778076511
 30
0.0
 10
22.69661105176607
 20
1.752352851720968
 30
0.0
 10
22.6368672026936
 20
2.610904100282787
 30
0.0
 10
22.60632221891997
 20
3.032959781043337
 30
0.0
 10
22.57575134368297
 20
3.438470514672134
 30
0.0
  0
SPLINE
  5
C7
330
1F
100
AcDbEntity
  8
외형선
  6
Continuous
 62
     1
370
    15
100
AcDbSpline
210
0.0
220
0.0
230
1.0
 70
     8
 71
     3
 72
     9
 73
     5
 74
     0
 42
0.000000001
 43
0.00000001
 40
0.0
 40
0.0
 40
0.0
 40
0.0
 40
0.3727207505955455
 40
0.9999999999999999
 40
0.9999999999999999
 40
0.9999999999999999
 40
0.9999999999999999
 10
26.52203731452416
 20
-3.557923220795231
 30
0.0
 10
26.38039571654996
 20
-3.593593535647131
 30
0.0
 10
26.00037502344954
 20
-3.689296055012917
 30
0.0
 10
25.57350043538067
 20
-3.880881491652312
 30
0.0
 10
25.30573086418699
 20
-4.001059060544297
 30
0.0
  0
SPLINE
  5
C8
330
1F
100
AcDbEntity
  8
외형선
  6
Continuous
 62
     1
370
    15
100
AcDbSpline
210
0.0
220
0.0
230
1.0
 70
     8
 71
     3
 72
     8
 73
     4
 74
     0
 42
0.000000001
 43
0.00000001
 40
0.0
 40
0.0
 40
0.0
 40
0.0
 40
1.0
 40
1.0
 40
1.0
 40
1.0
 10
27.87500000000001
 20
-4.640327385311455
 30
0.0
 10
26.99654733392702
 20
-4.505876413595507
 30
0.0
 10
26.14090539046594
 20
-4.289998696543371
 30
0.0
 10
25.30573086418589
 20
-4.001059060548852
 30
0.0
  0
LINE
  5
C9
330
1F
100
AcDbEntity
  8
외형선
  6
Continuous
 62
     1
370
    15
100
AcDbLine
 10
27.87500000000001
 20
-5.657846140703768
 30
0.0
 11
27.87500000000001
 21
-4.640327385311453
 31
0.0
  0
SPLINE
  5
CA
330
1F
100
AcDbEntity
  8
외형선
  6
Continuous
 62
     1
370
    15
100
AcDbSpline
210
0.0
220
0.0
230
1.0
 70
     8
 71
     3
 72
    10
 73
     6
 74
     0
 42
0.000000001
 43
0.00000001
 40
0.0
 40
0.0
 40
0.0
 40
0.0
 40
0.4999999999999997
 40
0.4999999999999997
 40
1.0
 40
1.0
 40
1.0
 40
1.0
 10
26.30402632660475
 20
-7.231202797954538
 30
0.0
 10
26.55966845707551
 20
-6.956759542004147
 30
0.0
 10
26.81754999995428
 20
-6.687126524229276
 30
0.0
 10
27.34076275619001
 20
-6.160860623251404
 30
0.0
 10
27.60769938126219
 20
-5.902796662385665
 30
0.0
 10
27.87500000000001
 20
-5.657846140703833
 30
0.0
  0
SPLINE
  5
CB
330
1F
100
AcDbEntity
  8
외형선
  6
Continuous
 62
     1
370
    15
100
AcDbSpline
210
0.0
220
0.0
230
1.0
 70
     8
 71
     3
 72
     8
 73
     4
 74
     0
 42
0.000000001
 43
0.00000001
 40
0.0
 40
0.0
 40
0.0
 40
0.0
 40
1.0
 40
1.0
 40
1.0
 40
1.0
 10
25.85876100796169
 20
-7.467634479322552
 30
0.0
 10
25.99297123361971
 20
-7.351386070846034
 30
0.0
 10
26.14855219831989
 20
-7.27377655616926
 30
0.0
 10
26.30402632660452
 20
-7.231202797954553
 30
0.0
  0
SPLINE
  5
CC
330
1F
100
AcDbEntity
  8
외형선
  6
Continuous
 62
     1
370
    15
100
AcDbSpline
210
0.0
220
0.0
230
1.0
 70
     8
 71
     3
 72
     8
 73
     4
 74
     0
 42
0.000000001
 43
0.00000001
 40
0.0
 40
0.0
 40
0.0
 40
0.0
 40
1.0
 40
1.0
 40
1.0
 40
1.0
 10
25.59203721480873
 20
-7.594695644645888
 30
0.0
 10
25.68466795479063
 20
-7.579158655104284
 30
0.0
 10
25.77878495787262
 20
-7.536907058915576
 30
0.0
 10
25.85876100796169
 20
-7.467634479322552
 30
0.0
  0
SPLINE
  5
CD
330
1F
100
AcDbEntity
  8
외형선
  6
Continuous
 62
     1
370
    15
100
AcDbSpline
210
0.0
220
0.0
230
1.0
 70
     8
 71
     3
 72
     8
 73
     4
 74
     0
 42
0.000000001
 43
0.00000001
 40
0.0
 40
0.0
 40
0.0
 40
0.0
 40
1.0
 40
1.0
 40
1.0
 40
1.0
 10
25.59203721471103
 20
-7.594695644662114
 30
0.0
 10
24.97021986118365
 20
-7.698993307835333
 30
0.0
 10
24.35416933972372
 20
-7.779761717217429
 30
0.0
 10
23.73157907443014
 20
-7.836762914936274
 30
0.0
  0
SPLINE
  5
CE
330
1F
100
AcDbEntity
  8
외형선
  6
Continuous
 62
     1
370
    15
100
AcDbSpline
210
0.0
220
0.0
230
1.0
 70
     8
 71
     3
 72
     8
 73
     4
 74
     0
 42
0.000000001
 43
0.00000001
 40
0.0
 40
0.0
 40
0.0
 40
0.0
 40
1.0
 40
1.0
 40
1.0
 40
1.0
 10
23.46350311822949
 20
-7.773420479707511
 30
0.0
 10
23.54164599155344
 20
-7.824181897071175
 30
0.0
 10
23.63545583229444
 20
-7.845563470030655
 30
0.0
 10
23.73157907469491
 20
-7.836762914912035
 30
0.0
  0
SPLINE
  5
CF
330
1F
100
AcDbEntity
  8
외형선
  6
Continuous
 62
     1
370
    15
100
AcDbSpline
210
0.0
220
0.0
230
1.0
 70
     8
 71
     3
 72
    10
 73
     6
 74
     0
 42
0.000000001
 43
0.00000001
 40
0.0
 40
0.0
 40
0.0
 40
0.0
 40
0.5
 40
0.5
 40
1.0
 40
1.0
 40
1.0
 40
1.0
 10
22.39384753216556
 20
-7.834084754123381
 30
0.0
 10
22.5566596297097
 20
-7.705935507393936
 30
0.0
 10
22.74967834740814
 20
-7.642662857626055
 30
0.0
 10
23.12760998348407
 20
-7.627122549809623
 30
0.0
 10
23.31027558118277
 20
-7.673884250378016
 30
0.0
 10
23.46350311822944
 20
-7.773420479707475
 30
0.0
  0
SPLINE
  5
D0
330
1F
100
AcDbEntity
  8
외형선
  6
Continuous
 62
     1
370
    15
100
AcDbSpline
210
0.0
220
0.0
230
1.0
 70
     8
 71
     3
 72
     8
 73
     4
 74
     0
 42
0.000000001
 43
0.00000001
 40
0.0
 40
0.0
 40
0.0
 40
0.0
 40
1.0
 40
1.0
 40
1.0
 40
1.0
 10
22.12711932929417
 20
-7.930186093332058
 30
0.0
 10
22.21974015151326
 20
-7.927888227252638
 30
0.0
 10
22.31386037430712
 20
-7.89704256980294
 30
0.0
 10
22.39384753216554
 20
-7.83408475412339
 30
0.0
  0
SPLINE
  5
D1
330
1F
100
AcDbEntity
  8
외형선
  6
Continuous
 62
     1
370
    15
100
AcDbSpline
210
0.0
220
0.0
230
1.0
 70
     8
 71
     3
 72
     8
 73
     4
 74
     0
 42
0.000000001
 43
0.00000001
 40
0.0
 40
0.0
 40
0.0
 40
0.0
 40
1.0
 40
1.0
 40
1.0
 40
1.0
 10
22.12711932913392
 20
-7.930186093335999
 30
0.0
 10
21.50676537850812
 20
-7.94557669628705
 30
0.0
 10
20.88806934071079
 20
-7.936693260719859
 30
0.0
 10
20.26464784244285
 20
-7.90346740332157
 30
0.0
  0
SPLINE
  5
D2
330
1F
100
AcDbEntity
  8
외형선
  6
Continuous
 62
     1
370
    15
100
AcDbSpline
210
0.0
220
0.0
230
1.0
 70
     8
 71
     3
 72
     8
 73
     4
 74
     0
 42
0.000000001
 43
0.00000001
 40
0.0
 40
0.0
 40
0.0
 40
0.0
 40
1.0
 40
1.0
 40
1.0
 40
1.0
 10
19.99609910022914
 20
-7.79800468057065
 30
0.0
 10
20.07440373492705
 20
-7.862217703363738
 30
0.0
 10
20.16837045218352
 20
-7.898336215889545
 30
0.0
 10
20.26465035784302
 20
-7.903467537382156
 30
0.0
  0
SPLINE
  5
D3
330
1F
100
AcDbEntity
  8
외형선
  6
Continuous
 62
     1
370
    15
100
AcDbSpline
210
0.0
220
0.0
230
1.0
 70
     8
 71
     3
 72
    10
 73
     6
 74
     0
 42
0.000000001
 43
0.00000001
 40
0.0
 40
0.0
 40
0.0
 40
0.0
 40
0.5
 40
0.5
 40
1.0
 40
1.0
 40
1.0
 40
1.0
 10
18.9251595283146
 20
-7.705175281548147
 30
0.0
 10
19.08816509168824
 20
-7.598074064420952
 30
0.0
 10
19.28137448197872
 20
-7.559795094638472
 30
0.0
 10
19.65968763154707
 20
-7.597443529183209
 30
0.0
 10
19.84258564030067
 20
-7.672117326144364
 30
0.0
 10
19.99609910022909
 20
-7.798004680570615
 30
0.0
  0
SPLINE
  5
D4
330
1F
100
AcDbEntity
  8
외형선
  6
Continuous
 62
     1
370
    15
100
AcDbSpline
210
0.0
220
0.0
230
1.0
 70
     8
 71
     3
 72
     8
 73
     4
 74
     0
 42
0.000000001
 43
0.00000001
 40
0.0
 40
0.0
 40
0.0
 40
0.0
 40
1.0
 40
1.0
 40
1.0
 40
1.0
 10
18.65823983908684
 20
-7.764023249899676
 30
0.0
 10
18.75090561746222
 20
-7.775190816903371
 30
0.0
 10
18.84508799786389
 20
-7.757785500432842
 30
0.0
 10
18.9251595283146
 20
-7.705175281548159
 30
0.0
  0
SPLINE
  5
D5
330
1F
100
AcDbEntity
  8
외형선
  6
Continuous
 62
     1
370
    15
100
AcDbSpline
210
0.0
220
0.0
230
1.0
 70
     8
 71
     3
 72
     8
 73
     4
 74
     0
 42
0.000000001
 43
0.00000001
 40
0.0
 40
0.0
 40
0.0
 40
0.0
 40
1.0
 40
1.0
 40
1.0
 40
1.0
 10
18.65823876322567
 20
-7.764023120242902
 30
0.0
 10
18.04133158317092
 20
-7.689676851373416
 30
0.0
 10
17.41834092382209
 20
-7.591360234605211
 30
0.0
 10
16.79605839613684
 20
-7.470126965221132
 30
0.0
  0
SPLINE
  5
D6
330
1F
100
AcDbEntity
  8
외형선
  6
Continuous
 62
     1
370
    15
100
AcDbSpline
210
0.0
220
0.0
230
1.0
 70
     8
 71
     3
 72
     8
 73
     4
 74
     0
 42
0.000000001
 43
0.00000001
 40
0.0
 40
0.0
 40
0.0
 40
0.0
 40
1.0
 40
1.0
 40
1.0
 40
1.0
 10
16.52776736037513
 20
-7.329195488319676
 30
0.0
 10
16.60597406744152
 20
-7.402787805987004
 30
0.0
 10
16.69985444758309
 20
-7.45138448349867
 30
0.0
 10
16.79605852650559
 20
-7.47012699061962
 30
0.0
  0
SPLINE
  5
D7
330
1F
100
AcDbEntity
  8
외형선
  6
Continuous
 62
     1
370
    15
100
AcDbSpline
210
0.0
220
0.0
230
1.0
 70
     8
 71
     3
 72
    10
 73
     6
 74
     0
 42
0.000000001
 43
0.00000001
 40
0.0
 40
0.0
 40
0.0
 40
0.0
 40
0.5
 40
0.5
 40
1.0
 40
1.0
 40
1.0
 40
1.0
 10
15.4582746286819
 20
-7.088508979640109
 30
0.0
 10
15.62103722859515
 20
-7.009322942981844
 30
0.0
 10
15.81394679586753
 20
-6.998503454692131
 30
0.0
 10
16.19179411622511
 20
-7.087015271323633
 30
0.0
 10
16.37446171496613
 20
-7.184935255657503
 30
0.0
 10
16.52776736037509
 20
-7.329195488319644
 30
0.0
  0
SPLINE
  5
D8
330
1F
100
AcDbEntity
  8
외형선
  6
Continuous
 62
     1
370
    15
100
AcDbSpline
210
0.0
220
0.0
230
1.0
 70
     8
 71
     3
 72
     8
 73
     4
 74
     0
 42
0.000000001
 43
0.00000001
 40
0.0
 40
0.0
 40
0.0
 40
0.0
 40
1.0
 40
1.0
 40
1.0
 40
1.0
 10
15.19181802981705
 20
-7.106504917020199
 30
0.0
 10
15.28438133392918
 20
-7.130350977806696
 30
0.0
 10
15.3783898809476
 20
-7.127373906631284
 30
0.0
 10
15.4582746286819
 20
-7.0885089796401
 30
0.0
  0
SPLINE
  5
D9
330
1F
100
AcDbEntity
  8
외형선
  6
Continuous
 62
     1
370
    15
100
AcDbSpline
210
0.0
220
0.0
230
1.0
 70
     8
 71
     3
 72
     8
 73
     4
 74
     0
 42
0.000000001
 43
0.00000001
 40
0.0
 40
0.0
 40
0.0
 40
0.0
 40
1.0
 40
1.0
 40
1.0
 40
1.0
 10
15.1918179823602
 20
-7.106504904794622
 30
0.0
 10
14.57423859223743
 20
-6.947404752561305
 30
0.0
 10
13.9511814159563
 20
-6.766153902237543
 30
0.0
 10
13.3311401373298
 20
-6.565141707064537
 30
0.0
  0
SPLINE
  5
DA
330
1F
100
AcDbEntity
  8
외형선
  6
Continuous
 62
     1
370
    15
100
AcDbSpline
210
0.0
220
0.0
230
1.0
 70
     8
 71
     3
 72
     8
 73
     4
 74
     0
 42
0.000000001
 43
0.00000001
 40
0.0
 40
0.0
 40
0.0
 40
0.0
 40
1.0
 40
1.0
 40
1.0
 40
1.0
 10
13.0627135967211
 20
-6.397520809921445
 30
0.0
 10
13.14097203282312
 20
-6.475891273269259
 30
0.0
 10
13.23488907774231
 20
-6.533937915587876
 30
0.0
 10
13.33113920604135
 20
-6.565141405148606
 30
0.0
  0
SPLINE
  5
DB
330
1F
100
AcDbEntity
  8
외형선
  6
Continuous
 62
     1
370
    15
100
AcDbSpline
210
0.0
220
0.0
230
1.0
 70
     8
 71
     3
 72
    10
 73
     6
 74
     0
 42
0.000000001
 43
0.00000001
 40
0.0082327957051692
 40
0.0082327957051692
 40
0.0082327957051692
 40
0.0082327957051692
 40
0.5
 40
0.5
 40
1.0
 40
1.0
 40
1.0
 40
1.0
 10
12.0
 20
-6.021241311317618
 30
0.0
 10
12.16138830056106
 20
-5.977679648540128
 30
0.0
 10
12.3513386027784
 20
-5.995661221704144
 30
0.0
 10
12.72636713301751
 20
-6.128745095967083
 30
0.0
 10
12.90920940424258
 20
-6.243796875613612
 30
0.0
 10
13.06271359672105
 20
-6.397520809921384
 30
0.0
  0
SPLINE
  5
F0
330
1F
100
AcDbEntity
  8
외형선
  6
Continuous
 62
     1
370
    15
100
AcDbSpline
210
0.0
220
0.0
230
1.0
 70
     8
 71
     3
 72
     8
 73
     4
 74
     0
 42
0.000000001
 43
0.00000001
 40
0.0
 40
0.0
 40
0.0
 40
0.0
 40
0.2518307130382911
 40
0.2518307130382911
 40
0.2518307130382911
 40
0.2518307130382911
 10
12.26481324436511
 20
4.087175498191566
 30
0.0
 10
12.18274192602245
 20
4.087416624210634
 30
0.0
 10
12.09301311937408
 20
4.100662254889543
 30
0.0
 10
12.0
 20
4.125210923421404
 30
0.0
  0
SPLINE
  5
F1
330
1F
100
AcDbEntity
  8
외형선
  6
Continuous
 62
     1
370
    15
100
AcDbSpline
210
0.0
220
0.0
230
1.0
 70
     8
 71
     3
 72
     8
 73
     4
 74
     0
 42
0.000000001
 43
0.00000001
 40
0.0
 40
0.0
 40
0.0
 40
0.0
 40
1.0
 40
1.0
 40
1.0
 40
1.0
 10
12.53172296182618
 20
4.010881176879571
 30
0.0
 10
12.43903852427136
 20
4.057222522858059
 30
0.0
 10
12.34488232262397
 20
4.086940254765708
 30
0.0
 10
12.26481324436515
 20
4.087175498191572
 30
0.0
  0
SPLINE
  5
F2
330
1F
100
AcDbEntity
  8
외형선
  6
Continuous
 62
     1
370
    15
100
AcDbSpline
210
0.0
220
0.0
230
1.0
 70
     8
 71
     3
 72
     8
 73
     4
 74
     0
 42
0.000000001
 43
0.00000001
 40
0.0
 40
0.0
 40
0.0
 40
0.0
 40
1.0
 40
1.0
 40
1.0
 40
1.0
 10
14.39459067613972
 20
3.049429694288289
 30
0.0
 10
13.77262924740325
 20
3.380408177654755
 30
0.0
 10
13.14883295691378
 20
3.702331988145989
 30
0.0
 10
12.53172318840582
 20
4.010881063592257
 30
0.0
  0
SPLINE
  5
F3
330
1F
100
AcDbEntity
  8
외형선
  6
Continuous
 62
     1
370
    15
100
AcDbSpline
210
0.0
220
0.0
230
1.0
 70
     8
 71
     3
 72
     8
 73
     4
 74
     0
 42
0.000000001
 43
0.00000001
 40
0.0
 40
0.0
 40
0.0
 40
0.0
 40
1.0
 40
1.0
 40
1.0
 40
1.0
 10
14.66312919891287
 20
2.86246248893977
 30
0.0
 10
14.58483312905468
 20
2.933004428593867
 30
0.0
 10
14.49087381937078
 20
2.998192355078919
 30
0.0
 10
14.39459065566725
 20
3.049429705182773
 30
0.0
  0
SPLINE
  5
F4
330
1F
100
AcDbEntity
  8
외형선
  6
Continuous
 62
     1
370
    15
100
AcDbSpline
210
0.0
220
0.0
230
1.0
 70
     8
 71
     3
 72
    10
 73
     6
 74
     0
 42
0.000000001
 43
0.00000001
 40
0.0
 40
0.0
 40
0.0
 40
0.0
 40
0.5
 40
0.5
 40
1.0
 40
1.0
 40
1.0
 40
1.0
 10
15.73385856672779
 20
2.284203831640491
 30
0.0
 10
15.57083321754864
 20
2.320951011434177
 30
0.0
 10
15.37773850951097
 20
2.396171547612526
 30
0.0
 10
14.99952110173247
 20
2.598432800196525
 30
0.0
 10
14.81665218774457
 20
2.724143804064528
 30
0.0
 10
14.66312919891288
 20
2.86246248893976
 30
0.0
  0
SPLINE
  5
F5
330
1F
100
AcDbEntity
  8
외형선
  6
Continuous
 62
     1
370
    15
100
AcDbSpline
210
0.0
220
0.0
230
1.0
 70
     8
 71
     3
 72
     8
 73
     4
 74
     0
 42
0.000000001
 43
0.00000001
 40
0.0
 40
0.0
 40
0.0
 40
0.0
 40
1.0
 40
1.0
 40
1.0
 40
1.0
 10
16.00064392567433
 20
2.173414168621991
 30
0.0
 10
15.90797660618838
 20
2.224920559665808
 30
0.0
 10
15.81385475707622
 20
2.266172069068925
 30
0.0
 10
15.73385856672783
 20
2.284203831640479
 30
0.0
  0
SPLINE
  5
F6
330
1F
100
AcDbEntity
  8
외형선
  6
Continuous
 62
     1
370
    15
100
AcDbSpline
210
0.0
220
0.0
230
1.0
 70
     8
 71
     3
 72
     8
 73
     4
 74
     0
 42
0.000000001
 43
0.00000001
 40
0.0
 40
0.0
 40
0.0
 40
0.0
 40
1.0
 40
1.0
 40
1.0
 40
1.0
 10
17.86121631474002
 20
1.124905548800248
 30
0.0
 10
17.24177253348114
 20
1.478762942719919
 30
0.0
 10
16.61875072733745
 20
1.829857770238296
 30
0.0
 10
16.00064371054808
 20
2.173414288193977
 30
0.0
  0
SPLINE
  5
F7
330
1F
100
AcDbEntity
  8
외형선
  6
Continuous
 62
     1
370
    15
100
AcDbSpline
210
0.0
220
0.0
230
1.0
 70
     8
 71
     3
 72
     8
 73
     4
 74
     0
 42
0.000000001
 43
0.00000001
 40
0.0
 40
0.0
 40
0.0
 40
0.0
 40
1.0
 40
1.0
 40
1.0
 40
1.0
 10
18.12925273933599
 20
0.9489878375463092
 30
0.0
 10
18.0511310715302
 20
1.008463476539201
 30
0.0
 10
17.95734503293079
 20
1.069991997745315
 30
0.0
 10
17.8612163308518
 20
1.124905539596384
 30
0.0
  0
SPLINE
  5
F8
330
1F
100
AcDbEntity
  8
외형선
  6
Continuous
 62
     1
370
    15
100
AcDbSpline
210
0.0
220
0.0
230
1.0
 70
     8
 71
     3
 72
    10
 73
     6
 74
     0
 42
0.000000001
 43
0.00000001
 40
0.0
 40
0.0
 40
0.0
 40
0.0
 40
0.5
 40
0.5
 40
1.0
 40
1.0
 40
1.0
 40
1.0
 10
19.19888406386589
 20
0.3391933210214919
 30
0.0
 10
19.03595338740609
 20
0.4095974716371839
 30
0.0
 10
18.84286826407127
 20
0.5027778242856925
 30
0.0
 10
18.4651235643005
 20
0.7149232986336366
 30
0.0
 10
18.28251886298537
 20
0.8323031725098016
 30
0.0
 10
18.129252739336
 20
0.948987837546306
 30
0.0
  0
SPLINE
  5
F9
330
1F
100
AcDbEntity
  8
외형선
  6
Continuous
 62
     1
370
    15
100
AcDbSpline
210
0.0
220
0.0
230
1.0
 70
     8
 71
     3
 72
     8
 73
     4
 74
     0
 42
0.000000001
 43
0.00000001
 40
0.0
 40
0.0
 40
0.0
 40
0.0
 40
1.0
 40
1.0
 40
1.0
 40
1.0
 10
19.46556973091872
 20
0.2010330611638588
 30
0.0
 10
19.37293176724232
 20
0.254456706991479
 30
0.0
 10
19.27883610079957
 20
0.3046451599715437
 30
0.0
 10
19.19888406386592
 20
0.3391933210214804
 30
0.0
  0
SPLINE
  5
FA
330
1F
100
AcDbEntity
  8
외형선
  6
Continuous
 62
     1
370
    15
100
AcDbSpline
210
0.0
220
0.0
230
1.0
 70
     8
 71
     3
 72
     8
 73
     4
 74
     0
 42
0.000000001
 43
0.00000001
 40
0.0
 40
0.0
 40
0.0
 40
0.0
 40
1.0
 40
1.0
 40
1.0
 40
1.0
 10
21.32773192602546
 20
-0.8710279633762894
 30
0.0
 10
20.70950248496342
 20
-0.5157189944463213
 30
0.0
 10
20.08594324523789
 20
-0.1567318731208321
 30
0.0
 10
19.46556846523525
 20
0.2010337910748105
 30
0.0
  0
SPLINE
  5
FB
330
1F
100
AcDbEntity
  8
외형선
  6
Continuous
 62
     1
370
    15
100
AcDbSpline
210
0.0
220
0.0
230
1.0
 70
     8
 71
     3
 72
     8
 73
     4
 74
     0
 42
0.000000001
 43
0.00000001
 40
0.0
 40
0.0
 40
0.0
 40
0.0
 40
1.0
 40
1.0
 40
1.0
 40
1.0
 10
21.59632342321117
 20
-1.025483069402879
 30
0.0
 10
21.51800407662564
 20
-0.9805872246573708
 30
0.0
 10
21.42403832147812
 20
-0.9263771974237669
 30
0.0
 10
21.3277325751718
 20
-0.8710283364538377
 30
0.0
  0
SPLINE
  5
FC
330
1F
100
AcDbEntity
  8
외형선
  6
Continuous
 62
     1
370
    15
100
AcDbSpline
210
0.0
220
0.0
230
1.0
 70
     8
 71
     3
 72
    10
 73
     6
 74
     0
 42
0.000000001
 43
0.00000001
 40
0.0
 40
0.0
 40
0.0
 40
0.0
 40
0.5
 40
0.5
 40
1.0
 40
1.0
 40
1.0
 40
1.0
 10
22.66734941343119
 20
-1.628763524997907
 30
0.0
 10
22.50418520816444
 20
-1.528884330285089
 30
0.0
 10
22.31080718336217
 20
-1.423343872593444
 30
0.0
 10
21.93244602274129
 20
-1.215163337559438
 30
0.0
 10
21.74976457980854
 20
-1.11344180047635
 30
0.0
 10
21.59632342321119
 20
-1.025483069402884
 30
0.0
  0
SPLINE
  5
FD
330
1F
100
AcDbEntity
  8
외형선
  6
Continuous
 62
     1
370
    15
100
AcDbSpline
210
0.0
220
0.0
230
1.0
 70
     8
 71
     3
 72
     8
 73
     4
 74
     0
 42
0.000000001
 43
0.00000001
 40
0.0
 40
0.0
 40
0.0
 40
0.0
 40
1.0
 40
1.0
 40
1.0
 40
1.0
 10
24.79657326163147
 20
-2.813619443782035
 30
0.0
 10
24.17994387264817
 20
-2.479339547526478
 30
0.0
 10
23.55642582345537
 20
-2.135219518549545
 30
0.0
 10
22.93422977365809
 20
-1.785848153789651
 30
0.0
  0
SPLINE
  5
FE
330
1F
100
AcDbEntity
  8
외형선
  6
Continuous
 62
     1
370
    15
100
AcDbSpline
210
0.0
220
0.0
230
1.0
 70
     8
 71
     3
 72
     8
 73
     4
 74
     0
 42
0.000000001
 43
0.00000001
 40
0.0
 40
0.0
 40
0.0
 40
0.0
 40
1.0
 40
1.0
 40
1.0
 40
1.0
 10
24.43837391001811
 20
2.44186071616763
 30
0.0
 10
23.8201090786724
 20
2.782066642934545
 30
0.0
 10
23.19639474614979
 20
3.115801343316157
 30
0.0
 10
22.57575133404156
 20
3.438469822881696
 30
0.0
  0
SPLINE
  5
FF
330
1F
100
AcDbEntity
  8
외형선
  6
Continuous
 62
     1
370
    15
100
AcDbSpline
210
0.0
220
0.0
230
1.0
 70
     8
 71
     3
 72
    12
 73
     8
 74
     0
 42
0.000000001
 43
0.00000001
 40
0.0
 40
0.0
 40
0.0
 40
0.0
 40
0.2500000000000001
 40
0.2500000000000001
 40
0.5000000000000002
 40
0.5000000000000002
 40
1.0
 40
1.0
 40
1.0
 40
1.0
 10
19.4655696769204
 20
0.2010338717429063
 30
0.0
 10
19.43587999102678
 20
0.6467053617140781
 30
0.0
 10
19.40771384487762
 20
1.083810203026095
 30
0.0
 10
19.34960095120894
 20
1.952766010151976
 30
0.0
 10
19.31956649116999
 20
2.384945654176462
 30
0.0
 10
19.22836384343414
 20
3.645947122000673
 30
0.0
 10
19.16615698994645
 20
4.436969381149499
 30
0.0
 10
19.10770913987587
 20
5.115207508729133
 30
0.0
  0
SPLINE
  5
100
330
1F
100
AcDbEntity
  8
외형선
  6
Continuous
 62
     1
370
    15
100
AcDbSpline
210
0.0
220
0.0
230
1.0
 70
     8
 71
     3
 72
     8
 73
     4
 74
     0
 42
0.000000001
 43
0.00000001
 40
0.0
 40
0.0
 40
0.0
 40
0.0
 40
1.0
 40
1.0
 40
1.0
 40
1.0
 10
20.96931216796374
 20
4.250216678625252
 30
0.0
 10
20.34962917873587
 20
4.552263592293769
 30
0.0
 10
19.72625886735687
 20
4.841902776235213
 30
0.0
 10
19.10770825734294
 20
5.115207242947243
 30
0.0
  0
SPLINE
  5
101
330
1F
100
AcDbEntity
  8
외형선
  6
Continuous
 62
     1
370
    15
100
AcDbSpline
210
0.0
220
0.0
230
1.0
 70
     8
 71
     3
 72
    12
 73
     8
 74
     0
 42
0.000000001
 43
0.00000001
 40
0.0
 40
0.0
 40
0.0
 40
0.0
 40
0.2499999999999999
 40
0.2499999999999999
 40
0.4999999999999999
 40
0.4999999999999999
 40
1.0
 40
1.0
 40
1.0
 40
1.0
 10
21.32773249335419
 20
-0.8710271371310435
 30
0.0
 10
21.29725065222355
 20
-0.4242061196564041
 30
0.0
 10
21.26702586000405
 20
0.0255374703169042
 30
0.0
 10
21.20834009038389
 20
0.9117757299041286
 30
0.0
 10
21.18040271749077
 20
1.34572592496164
 30
0.0
 10
21.09219488970614
 20
2.644415403001733
 30
0.0
 10
21.02990444616407
 20
3.492456999882302
 30
0.0
 10
20.96931573477845
 20
4.250219293564069
 30
0.0
  0
SPLINE
  5
102
330
1F
100
AcDbEntity
  8
외형선
  6
Continuous
 62
     1
370
    15
100
AcDbSpline
210
0.0
220
0.0
230
1.0
 70
     8
 71
     3
 72
     8
 73
     4
 74
     0
 42
0.000000001
 43
0.00000001
 40
0.0
 40
0.0
 40
0.0
 40
0.0
 40
1.0
 40
1.0
 40
1.0
 40
1.0
 10
20.96931609699109
 20
4.250214763533573
 30
0.0
 10
21.06200725875087
 20
4.205035074303541
 30
0.0
 10
21.15615773708046
 20
4.146602342389286
 30
0.0
 10
21.23617305668979
 20
4.083143232858638
 30
0.0
  0
SPLINE
  5
103
330
1F
100
AcDbEntity
  8
외형선
  6
Continuous
 62
     1
370
    15
100
AcDbSpline
210
0.0
220
0.0
230
1.0
 70
     8
 71
     3
 72
    12
 73
     8
 74
     0
 42
0.000000001
 43
0.00000001
 40
0.0
 40
0.0
 40
0.0
 40
0.0
 40
0.25
 40
0.25
 40
0.5
 40
0.5
 40
1.0
 40
1.0
 40
1.0
 40
1.0
 10
21.59632341965456
 20
-1.025483018041523
 30
0.0
 10
21.56564942055709
 20
-0.5825188585021874
 30
0.0
 10
21.53515156692386
 20
-0.1354211181979871
 30
0.0
 10
21.47579369986697
 20
0.7477644331251734
 30
0.0
 10
21.44766823266757
 20
1.180244811403382
 30
0.0
 10
21.35967027762037
 20
2.472779304784267
 30
0.0
 10
21.29720786448012
 20
3.321297298712004
 30
0.0
 10
21.23617324852847
 20
4.083140838311477
 30
0.0
  0
SPLINE
  5
104
330
1F
100
AcDbEntity
  8
외형선
  6
Continuous
 62
     1
370
    15
100
AcDbSpline
210
0.0
220
0.0
230
1.0
 70
     8
 71
     3
 72
    12
 73
     8
 74
     0
 42
0.000000001
 43
0.00000001
 40
0.0
 40
0.0
 40
0.0
 40
0.0
 40
0.5
 40
0.5
 40
0.75
 40
0.75
 40
1.0
 40
1.0
 40
1.0
 40
1.0
 10
16.00064388436185
 20
2.173414762611261
 30
0.0
 10
15.94088733568647
 20
3.032576477395119
 30
0.0
 10
15.87840995219342
 20
3.861773578271604
 30
0.0
 10
15.78846581980544
 20
4.956064213019263
 30
0.0
 10
15.75949954719968
 20
5.294867421091658
 30
0.0
 10
15.70230581125108
 20
5.918139452354556
 30
0.0
 10
15.6726119015159
 20
6.207666004353209
 30
0.0
 10
15.64240941401559
 20
6.467533228022309
 30
0.0
  0
SPLINE
  5
105
330
1F
100
AcDbEntity
  8
외형선
  6
Continuous
 62
     1
370
    15
100
AcDbSpline
210
0.0
220
0.0
230
1.0
 70
     8
 71
     3
 72
     8
 73
     4
 74
     0
 42
0.000000001
 43
0.00000001
 40
0.0
 40
0.0
 40
0.0
 40
0.0
 40
1.0
 40
1.0
 40
1.0
 40
1.0
 10
17.50380111344099
 20
5.787711085092552
 30
0.0
 10
16.8824463034829
 20
6.032814528821626
 30
0.0
 10
16.25914860682787
 20
6.260411726892149
 30
0.0
 10
15.64240944625718
 20
6.467532950590365
 30
0.0
  0
SPLINE
  5
106
330
1F
100
AcDbEntity
  8
외형선
  6
Continuous
 62
     1
370
    15
100
AcDbSpline
210
0.0
220
0.0
230
1.0
 70
     8
 71
     3
 72
    12
 73
     8
 74
     0
 42
0.000000001
 43
0.00000001
 40
0.0
 40
0.0
 40
0.0
 40
0.0
 40
0.4999999999999999
 40
0.4999999999999999
 40
0.75
 40
0.75
 40
1.0
 40
1.0
 40
1.0
 40
1.0
 10
17.86121641019705
 20
1.124904325173993
 30
0.0
 10
17.8043434173556
 20
1.995370138751323
 30
0.0
 10
17.74281755095664
 20
2.867792750913477
 30
0.0
 10
17.65102888765028
 20
4.066280371807581
 30
0.0
 10
17.6205401963883
 20
4.447439591142578
 30
0.0
 10
17.56106373748807
 20
5.157952560431708
 30
0.0
 10
17.53282893873644
 20
5.484783330528071
 30
0.0
 10
17.50380122397718
 20
5.787710122666605
 30
0.0
  0
SPLINE
  5
107
330
1F
100
AcDbEntity
  8
외형선
  6
Continuous
 62
     1
370
    15
100
AcDbSpline
210
0.0
220
0.0
230
1.0
 70
     8
 71
     3
 72
    10
 73
     6
 74
     0
 42
0.000000001
 43
0.00000001
 40
0.0
 40
0.0
 40
0.0
 40
0.0
 40
0.5
 40
0.5
 40
1.0
 40
1.0
 40
1.0
 40
1.0
 10
21.23617305669087
 20
4.083143232857775
 30
0.0
 10
21.39930865722035
 20
3.953762509354864
 30
0.0
 10
21.5925533918513
 20
3.841862736977229
 30
0.0
 10
21.97075717536169
 20
3.658841230511544
 30
0.0
 10
22.1536196638359
 20
3.588411572012739
 30
0.0
 10
22.30717368012492
 20
3.547899108137309
 30
0.0
  0
SPLINE
  5
108
330
1F
100
AcDbEntity
  8
외형선
  6
Continuous
 62
     1
370
    15
100
AcDbSpline
210
0.0
220
0.0
230
1.0
 70
     8
 71
     3
 72
    12
 73
     8
 74
     0
 42
0.000000001
 43
0.00000001
 40
0.0
 40
0.0
 40
0.0
 40
0.0
 40
0.2499999999999999
 40
0.2499999999999999
 40
0.4999999999999999
 40
0.4999999999999999
 40
1.0
 40
1.0
 40
1.0
 40
1.0
 10
19.19888406386572
 20
0.3391933210238574
 30
0.0
 10
19.16921964892473
 20
0.7809008479560688
 30
0.0
 10
19.14109765237827
 20
1.21339942583963
 30
0.0
 10
19.08228491994808
 20
2.07552201299893
 30
0.0
 10
19.05195502635459
 20
2.503225668122898
 30
0.0
 10
18.96008722680699
 20
3.747570038158924
 30
0.0
 10
18.89774476781645
 20
4.523035610819111
 30
0.0
 10
18.83949697358593
 20
5.18302709430799
 30
0.0
  0
SPLINE
  5
109
330
1F
100
AcDbEntity
  8
외형선
  6
Continuous
 62
     1
370
    15
100
AcDbSpline
210
0.0
220
0.0
230
1.0
 70
     8
 71
     3
 72
     8
 73
     4
 74
     0
 42
0.000000001
 43
0.00000001
 40
0.0
 40
0.0
 40
0.0
 40
0.0
 40
1.0
 40
1.0
 40
1.0
 40
1.0
 10
18.83949697357467
 20
5.18302709444163
 30
0.0
 10
18.91767705240642
 20
5.182010489512065
 30
0.0
 10
19.01152273697453
 20
5.157706487639525
 30
0.0
 10
19.1077091986205
 20
5.11520682704697
 30
0.0
  0
SPLINE
  5
10A
330
1F
100
AcDbEntity
  8
외형선
  6
Continuous
 62
     1
370
    15
100
AcDbSpline
210
0.0
220
0.0
230
1.0
 70
     8
 71
     3
 72
     8
 73
     4
 74
     0
 42
0.000000001
 43
0.00000001
 40
0.0
 40
0.0
 40
0.0
 40
0.0
 40
1.0
 40
1.0
 40
1.0
 40
1.0
 10
25.24530034522494
 20
7.87202765714594
 30
0.0
 10
25.15258856182711
 20
7.865159760334463
 30
0.0
 10
25.05841826538049
 20
7.830158084872668
 30
0.0
 10
24.97837329952645
 20
7.764550380459411
 30
0.0
  0
SPLINE
  5
10B
330
1F
100
AcDbEntity
  8
외형선
  6
Continuous
 62
     1
370
    15
100
AcDbSpline
210
0.0
220
0.0
230
1.0
 70
     8
 71
     3
 72
     8
 73
     4
 74
     0
 42
0.000000001
 43
0.00000001
 40
0.0
 40
0.0
 40
0.0
 40
0.0
 40
1.0
 40
1.0
 40
1.0
 40
1.0
 10
26.04166666666684
 20
7.917701587125806
 30
0.0
 10
25.77557231543166
 20
7.906877842518851
 30
0.0
 10
25.50972285583872
 20
7.891621285002747
 30
0.0
 10
25.24478452126186
 20
7.871989440366612
 30
0.0
  0
SPLINE
  5
10C
330
1F
100
AcDbEntity
  8
외형선
  6
Continuous
 62
     1
370
    15
100
AcDbSpline
210
0.0
220
0.0
230
1.0
 70
     8
 71
     3
 72
     8
 73
     4
 74
     0
 42
0.000000001
 43
0.00000001
 40
0.0
 40
0.0
 40
0.0
 40
0.0
 40
1.0
 40
1.0
 40
1.0
 40
1.0
 10
27.87500000000001
 20
6.045441794956418
 30
0.0
 10
27.286954952843
 20
6.702668323209442
 30
0.0
 10
26.66978377048822
 20
7.322286523546586
 30
0.0
 10
26.04166666666666
 20
7.9177015871258
 30
0.0
  0
LINE
  5
10D
330
1F
100
AcDbEntity
  8
외형선
  6
Continuous
 62
     1
370
    15
100
AcDbLine
 10
27.87500000000001
 20
5.139562718986243
 30
0.0
 11
27.87500000000001
 21
6.045441794956418
 31
0.0
  0
SPLINE
  5
10E
330
1F
100
AcDbEntity
  8
외형선
  6
Continuous
 62
     1
370
    15
100
AcDbSpline
210
0.0
220
0.0
230
1.0
 70
     8
 71
     3
 72
    12
 73
     8
 74
     0
 42
0.000000001
 43
0.00000001
 40
0.0
 40
0.0
 40
0.0
 40
0.0
 40
0.2500000000000003
 40
0.2500000000000003
 40
0.5000000000000007
 40
0.5000000000000007
 40
1.0
 40
1.0
 40
1.0
 40
1.0
 10
27.87500000000001
 20
5.139562718986245
 30
0.0
 10
27.74421823296371
 20
4.840874589418055
 30
0.0
 10
27.59004381828402
 20
4.564149384386359
 30
0.0
 10
27.23239993605192
 20
4.056981188408867
 30
0.0
 10
27.0262847734193
 20
3.825044118398309
 30
0.0
 10
26.36178747333875
 20
3.233711166174117
 30
0.0
 10
25.84277576082689
 20
2.965047506166155
 30
0.0
 10
25.30573086418659
 20
2.823898284485423
 30
0.0
  0
SPLINE
  5
10F
330
1F
100
AcDbEntity
  8
외형선
  6
Continuous
 62
     1
370
    15
100
AcDbSpline
210
0.0
220
0.0
230
1.0
 70
     8
 71
     3
 72
     8
 73
     4
 74
     0
 42
0.000000001
 43
0.00000001
 40
0.0
 40
0.0
 40
0.0
 40
0.0
 40
1.0
 40
1.0
 40
1.0
 40
1.0
 10
27.87500000000001
 20
1.531147021911046
 30
0.0
 10
26.99654733392699
 20
2.008834846987309
 30
0.0
 10
26.14090539046587
 20
2.438093589680502
 30
0.0
 10
25.30573086418579
 20
2.823898284481727
 30
0.0
  0
LINE
  5
110
330
1F
100
AcDbEntity
  8
외형선
  6
Continuous
 62
     1
370
    15
100
AcDbLine
 10
27.87500000000001
 20
0.8446799383426259
 30
0.0
 11
27.87500000000001
 21
1.531147021911044
 31
0.0
  0
SPLINE
  5
111
330
1F
100
AcDbEntity
  8
외형선
  6
Continuous
 62
     1
370
    15
100
AcDbSpline
210
0.0
220
0.0
230
1.0
 70
     8
 71
     3
 72
    10
 73
     6
 74
     0
 42
0.000000001
 43
0.00000001
 40
0.0
 40
0.0
 40
0.0
 40
0.0
 40
0.5
 40
0.5
 40
1.0
 40
1.0
 40
1.0
 40
1.0
 10
17.77032018502252
 20
5.626009154546188
 30
0.0
 10
17.93317232246154
 20
5.484441128239715
 30
0.0
 10
18.12622865659827
 20
5.376563393035509
 30
0.0
 10
18.50397800797494
 20
5.226849674811079
 30
0.0
 10
18.68633861764862
 20
5.185018670069505
 30
0.0
 10
18.83949697357417
 20
5.183027094441369
 30
0.0
  0
SPLINE
  5
112
330
1F
100
AcDbEntity
  8
외형선
  6
Continuous
 62
     1
370
    15
100
AcDbSpline
210
0.0
220
0.0
230
1.0
 70
     8
 71
     3
 72
     8
 73
     4
 74
     0
 42
0.000000001
 43
0.00000001
 40
0.0
 40
0.0
 40
0.0
 40
0.0
 40
1.0
 40
1.0
 40
1.0
 40
1.0
 10
17.50380113247607
 20
5.787711077585119
 30
0.0
 10
17.59638642586782
 20
5.751189312692937
 30
0.0
 10
17.69042938934857
 20
5.69545854858813
 30
0.0
 10
17.77032018502142
 20
5.626009154547136
 30
0.0
  0
SPLINE
  5
113
330
1F
100
AcDbEntity
  8
외형선
  6
Continuous
 62
     1
370
    15
100
AcDbSpline
210
0.0
220
0.0
230
1.0
 70
     8
 71
     3
 72
     8
 73
     4
 74
     0
 42
0.000000001
 43
0.00000001
 40
0.0
 40
0.0
 40
0.0
 40
0.0
 40
1.0
 40
1.0
 40
1.0
 40
1.0
 10
15.37387141745177
 20
6.489665072749325
 30
0.0
 10
15.45220063085483
 20
6.508337340219093
 30
0.0
 10
15.54613636416763
 20
6.499864606898911
 30
0.0
 10
15.64240944625958
 20
6.467532950589563
 30
0.0
  0
SPLINE
  5
114
330
1F
100
AcDbEntity
  8
외형선
  6
Continuous
 62
     1
370
    15
100
AcDbSpline
210
0.0
220
0.0
230
1.0
 70
     8
 71
     3
 72
    10
 73
     6
 74
     0
 42
0.000000001
 43
0.00000001
 40
0.0
 40
0.0
 40
0.0
 40
0.0
 40
0.5000000000000002
 40
0.5000000000000002
 40
1.0
 40
1.0
 40
1.0
 40
1.0
 10
14.30300838289065
 20
6.813481410319035
 30
0.0
 10
14.46611696572937
 20
6.66831505959068
 30
0.0
 10
14.65944536882535
 20
6.570971171741595
 30
0.0
 10
15.03777071317743
 20
6.463527501645671
 30
0.0
 10
15.22049566349518
 20
6.453103067631581
 30
0.0
 10
15.37387141745127
 20
6.489665072749007
 30
0.0
  0
SPLINE
  5
115
330
1F
100
AcDbEntity
  8
외형선
  6
Continuous
 62
     1
370
    15
100
AcDbSpline
210
0.0
220
0.0
230
1.0
 70
     8
 71
     3
 72
     8
 73
     4
 74
     0
 42
0.000000001
 43
0.00000001
 40
0.0
 40
0.0
 40
0.0
 40
0.0
 40
1.0
 40
1.0
 40
1.0
 40
1.0
 10
14.0361257364389
 20
6.959992812175251
 30
0.0
 10
14.12882153490745
 20
6.934317077460992
 30
0.0
 10
14.22298963657633
 20
6.884697953250695
 30
0.0
 10
14.30300838288955
 20
6.813481410320012
 30
0.0
  0
SPLINE
  5
11D
330
1F
100
AcDbEntity
  8
외형선
  6
Continuous
 62
     1
370
    15
100
AcDbSpline
210
0.0
220
0.0
230
1.0
 70
     8
 71
     3
 72
    10
 73
     6
 74
     0
 42
0.000000001
 43
0.00000001
 40
0.0
 40
0.0
 40
0.0
 40
0.0
 40
0.3742128458706203
 40
0.7468321276013405
 40
1.0
 40
1.0
 40
1.0
 40
1.0
 10
18.04503847113082
 20
6.243703246468195
 30
0.0
 10
17.95267765688514
 20
6.173625125731728
 30
0.0
 10
17.76834934167293
 20
6.03376730795383
 30
0.0
 10
17.48750120710308
 20
5.913699906462421
 30
0.0
 10
17.32786074060017
 20
5.888744839325986
 30
0.0
 10
17.26327674109397
 20
5.878649040441641
 30
0.0
  0
SPLINE
  5
11E
330
1F
100
AcDbEntity
  8
외형선
  6
Continuous
 62
     1
370
    15
100
AcDbSpline
210
0.0
220
0.0
230
1.0
 70
     8
 71
     3
 72
     8
 73
     4
 74
     0
 42
0.000000001
 43
0.00000001
 40
0.0
 40
0.0
 40
0.0
 40
0.0
 40
1.0
 40
1.0
 40
1.0
 40
1.0
 10
18.311877687469
 20
6.399673522452865
 30
0.0
 10
18.21922648975209
 20
6.367968249113559
 30
0.0
 10
18.1250705688279
 20
6.314654610637665
 30
0.0
 10
18.04503847113124
 20
6.24370324646857
 30
0.0
  0
SPLINE
  5
11F
330
1F
100
AcDbEntity
  8
외형선
  6
Continuous
 62
     1
370
    15
100
AcDbSpline
210
0.0
220
0.0
230
1.0
 70
     8
 71
     3
 72
     8
 73
     4
 74
     0
 42
0.000000001
 43
0.00000001
 40
0.0
 40
0.0
 40
0.0
 40
0.0
 40
1.0
 40
1.0
 40
1.0
 40
1.0
 10
20.17327324770035
 20
6.975157268563552
 30
0.0
 10
19.55039474598399
 20
6.803883864953131
 30
0.0
 10
18.93100214356877
 20
6.611538135061772
 30
0.0
 10
18.31187768727442
 20
6.399673522386278
 30
0.0
  0
SPLINE
  5
120
330
1F
100
AcDbEntity
  8
외형선
  6
Continuous
 62
     1
370
    15
100
AcDbSpline
210
0.0
220
0.0
230
1.0
 70
     8
 71
     3
 72
     8
 73
     4
 74
     0
 42
0.000000001
 43
0.00000001
 40
0.0
 40
0.0
 40
0.0
 40
0.0
 40
1.0
 40
1.0
 40
1.0
 40
1.0
 10
20.44137347629984
 20
6.974013880501992
 30
0.0
 10
20.36323445136419
 20
7.001924304562221
 30
0.0
 10
20.26941460291067
 20
7.001593329201999
 30
0.0
 10
20.17327474452472
 20
6.97515768014652
 30
0.0
  0
SPLINE
  5
121
330
1F
100
AcDbEntity
  8
외형선
  6
Continuous
 62
     1
370
    15
100
AcDbSpline
210
0.0
220
0.0
230
1.0
 70
     8
 71
     3
 72
    10
 73
     6
 74
     0
 42
0.000000001
 43
0.00000001
 40
0.0
 40
0.0
 40
0.0
 40
0.0
 40
0.5
 40
0.5
 40
1.0
 40
1.0
 40
1.0
 40
1.0
 10
21.51050215252699
 20
7.232628079331278
 30
0.0
 10
21.34779877349022
 20
7.089117733618438
 30
0.0
 10
21.15491133639771
 20
6.99891679704995
 30
0.0
 10
20.77717753641539
 20
6.914236722387936
 30
0.0
 10
20.59456880948037
 20
6.919294145813846
 30
0.0
 10
20.44137347630112
 20
6.974013880501098
 30
0.0
  0
SPLINE
  5
122
330
1F
100
AcDbEntity
  8
외형선
  6
Continuous
 62
     1
370
    15
100
AcDbSpline
210
0.0
220
0.0
230
1.0
 70
     8
 71
     3
 72
     8
 73
     4
 74
     0
 42
0.000000001
 43
0.00000001
 40
0.0
 40
0.0
 40
0.0
 40
0.0
 40
1.0
 40
1.0
 40
1.0
 40
1.0
 10
21.77713378013279
 20
7.368752025436319
 30
0.0
 10
21.68453860489857
 20
7.348807947906121
 30
0.0
 10
21.59047354644735
 20
7.303165780862574
 30
0.0
 10
21.5105021525274
 20
7.232628079331642
 30
0.0
  0
SPLINE
  5
123
330
1F
100
AcDbEntity
  8
외형선
  6
Continuous
 62
     1
370
    15
100
AcDbSpline
210
0.0
220
0.0
230
1.0
 70
     8
 71
     3
 72
     8
 73
     4
 74
     0
 42
0.000000001
 43
0.00000001
 40
0.0
 40
0.0
 40
0.0
 40
0.0
 40
1.0
 40
1.0
 40
1.0
 40
1.0
 10
23.63938012290119
 20
7.699542903616697
 30
0.0
 10
23.01757897831012
 20
7.612446930842097
 30
0.0
 10
22.39399225131289
 20
7.501617217316044
 30
0.0
 10
21.77713269000237
 20
7.368751790633087
 30
0.0
  0
SPLINE
  5
124
330
1F
100
AcDbEntity
  8
외형선
  6
Continuous
 62
     1
370
    15
100
AcDbSpline
210
0.0
220
0.0
230
1.0
 70
     8
 71
     3
 72
     8
 73
     4
 74
     0
 42
0.000000001
 43
0.00000001
 40
0.0
 40
0.0
 40
0.0
 40
0.0
 40
1.0
 40
1.0
 40
1.0
 40
1.0
 10
23.90737943069485
 20
7.651620653482457
 30
0.0
 10
23.82909046675554
 20
7.69699924793323
 30
0.0
 10
23.73514091707984
 20
7.712958152216822
 30
0.0
 10
23.63886594333706
 20
7.699470876919892
 30
0.0
  0
SPLINE
  5
125
330
1F
100
AcDbEntity
  8
외형선
  6
Continuous
 62
     1
370
    15
100
AcDbSpline
210
0.0
220
0.0
230
1.0
 70
     8
 71
     3
 72
    10
 73
     6
 74
     0
 42
0.000000001
 43
0.00000001
 40
0.0
 40
0.0
 40
0.0
 40
0.0
 40
0.5
 40
0.5
 40
1.0
 40
1.0
 40
1.0
 40
1.0
 10
24.97837329952606
 20
7.764550380459077
 30
0.0
 10
24.81529432001052
 20
7.630885041609306
 30
0.0
 10
24.62215757467213
 20
7.559979995575456
 30
0.0
 10
24.24386167858389
 20
7.526251998211447
 30
0.0
 10
24.06093644878999
 20
7.562614473061358
 30
0.0
 10
23.90737943069616
 20
7.651620653481467
 30
0.0
  0
SPLINE
  5
126
330
1F
100
AcDbEntity
  8
외형선
  6
Continuous
 62
     1
370
    15
100
AcDbSpline
210
0.0
220
0.0
230
1.0
 70
     8
 71
     3
 72
    14
 73
    10
 74
     0
 42
0.000000001
 43
0.00000001
 40
0.0
 40
0.0
 40
0.0
 40
0.0
 40
0.2499999999999999
 40
0.2499999999999999
 40
0.4999999999999999
 40
0.4999999999999999
 40
0.7499999999999998
 40
0.7499999999999998
 40
1.0
 40
1.0
 40
1.0
 40
1.0
 10
18.1292527758777
 20
0.9489872857340995
 30
0.0
 10
18.10046701009161
 20
1.383677923392492
 30
0.0
 10
18.07139366578159
 20
1.815435531601203
 30
0.0
 10
18.01110947354385
 20
2.667619128536353
 30
0.0
 10
17.98032783828925
 20
3.085841005111244
 30
0.0
 10
17.91881042842904
 20
3.887872301061152
 30
0.0
 10
17.88808114673117
 20
4.27159760850019
 30
0.0
 10
17.82799894875705
 20
4.988797276961395
 30
0.0
 10
17.79927018801722
 20
5.320104597164156
 30
0.0
 10
17.77032013494209
 20
5.626009683728626
 30
0.0
  0
SPLINE
  5
127
330
1F
100
AcDbEntity
  8
외형선
  6
Continuous
 62
     1
370
    15
100
AcDbSpline
210
0.0
220
0.0
230
1.0
 70
     8
 71
     3
 72
    12
 73
     8
 74
     0
 42
0.000000001
 43
0.00000001
 40
0.0
 40
0.0
 40
0.0
 40
0.0
 40
0.5000000000000001
 40
0.5000000000000001
 40
0.75
 40
0.75
 40
1.0
 40
1.0
 40
1.0
 40
1.0
 10
15.73385850150551
 20
2.284204751204331
 30
0.0
 10
15.67355683512947
 20
3.134392958059431
 30
0.0
 10
15.61078831524335
 20
3.950421221168369
 30
0.0
 10
15.52089314646302
 20
5.020358380307642
 30
0.0
 10
15.49231172736053
 20
5.34940135471852
 30
0.0
 10
15.43434933785909
 20
5.957793377220261
 30
0.0
 10
15.40432639297018
 20
6.238933716807406
 30
0.0
 10
15.37387141745265
 20
6.489665072737623
 30
0.0
  0
SPLINE
  5
12A
330
1F
100
AcDbEntity
  8
외형선
  6
Continuous
 62
     1
370
    15
100
AcDbSpline
210
0.0
220
0.0
230
1.0
 70
     8
 71
     3
 72
    12
 73
     8
 74
     0
 42
0.000000001
 43
0.00000001
 40
0.0
 40
0.0
 40
0.0
 40
0.0
 40
0.5000000000000001
 40
0.5000000000000001
 40
0.75
 40
0.75
 40
1.0
 40
1.0
 40
1.0
 40
1.0
 10
14.66312919891238
 20
2.862462488946456
 30
0.0
 10
14.60200225288103
 20
3.693409492678719
 30
0.0
 10
14.53965633785859
 20
4.472109404780451
 30
0.0
 10
14.45210082401167
 20
5.468881217111319
 30
0.0
 10
14.42384873687905
 20
5.773906427684056
 30
0.0
 10
14.36426432742575
 20
6.336864494894352
 30
0.0
 10
14.33369911925223
 20
6.591691668963747
 30
0.0
 10
14.30300844834023
 20
6.813480937340968
 30
0.0
  0
SPLINE
  5
12D
330
1F
100
AcDbEntity
  8
외형선
  6
Continuous
 62
     1
370
    15
100
AcDbSpline
210
0.0
220
0.0
230
1.0
 70
     8
 71
     3
 72
    12
 73
     8
 74
     0
 42
0.000000001
 43
0.00000001
 40
0.0
 40
0.0
 40
0.0
 40
0.0
 40
0.25
 40
0.25
 40
0.5
 40
0.5
 40
0.9733951991034769
 40
0.9733951991034769
 40
0.9733951991034769
 40
0.9733951991034769
 10
12.53172296332601
 20
4.010881157786207
 30
0.0
 10
12.5012732594461
 20
4.39870462071882
 30
0.0
 10
12.47112505918176
 20
4.765791898410616
 30
0.0
 10
12.41267074053682
 20
5.444760512339394
 30
0.0
 10
12.38468598015333
 20
5.756047304748347
 30
0.0
 10
12.29926970776963
 20
6.590316807342094
 30
0.0
 10
12.24039577535446
 20
7.040621495461765
 30
0.0
 10
12.19294334974848
 20
7.84487138326099
 30
0.0
  0
SPLINE
  5
12E
330
1F
100
AcDbEntity
  8
외형선
  6
Continuous
 62
     1
370
    15
100
AcDbSpline
210
0.0
220
0.0
230
1.0
 70
     8
 71
     3
 72
    12
 73
     8
 74
     0
 42
0.000000001
 43
0.00000001
 40
0.0
 40
0.0
 40
0.0
 40
0.0
 40
0.5000000000000002
 40
0.5000000000000002
 40
0.7500000000000001
 40
0.7500000000000001
 40
1.0
 40
1.0
 40
1.0
 40
1.0
 10
14.39459060976993
 20
3.049430329910554
 30
0.0
 10
14.33361021729113
 20
3.879470979355696
 30
0.0
 10
14.2717601618355
 20
4.652426557645998
 30
0.0
 10
14.18528934359843
 20
5.636529258623623
 30
0.0
 10
14.15683649138353
 20
5.938878129624154
 30
0.0
 10
14.09720680595675
 20
6.493771306196083
 30
0.0
 10
14.06669316819897
 20
6.743698575693456
 30
0.0
 10
14.03612571425272
 20
6.959992969138211
 30
0.0
  0
SPLINE
  5
135
330
1F
100
AcDbEntity
  8
외형선
  6
Continuous
 62
     1
370
    15
100
AcDbSpline
210
0.0
220
0.0
230
1.0
 70
     8
 71
     3
 72
    12
 73
     8
 74
     0
 42
0.000000001
 43
0.00000001
 40
0.0
 40
0.0
 40
0.0
 40
0.0
 40
0.2500000000000001
 40
0.2500000000000001
 40
0.5000000000000002
 40
0.5000000000000002
 40
0.7406634619599886
 40
0.7406634619599886
 40
0.7406634619599886
 40
0.7406634619599886
 10
12.26481324436485
 20
4.087175498194767
 30
0.0
 10
12.23429426716088
 20
4.467999857287535
 30
0.0
 10
12.20415008365655
 20
4.827287303044845
 30
0.0
 10
12.14584754115246
 20
5.489563343026798
 30
0.0
 10
12.1175346373563
 20
5.793723283638863
 30
0.0
 10
12.05897861277086
 20
6.344022483818082
 30
0.0
 10
12.02954860329002
 20
6.588430664421799
 30
0.0
 10
12.0
 20
6.802893521136244
 30
0.0
  0
SPLINE
  5
13F
330
1F
100
AcDbEntity
  8
외형선
  6
Continuous
 62
     1
370
    15
100
AcDbSpline
210
0.0
220
0.0
230
1.0
 70
     8
 71
     3
 72
     8
 73
     4
 74
     0
 42
0.000000001
 43
0.00000001
 40
0.0
 40
0.0
 40
0.0
 40
0.0
 40
0.0449754906278849
 40
0.0449754906278849
 40
0.0449754906278849
 40
0.0449754906278849
 10
12.0834684597455
 20
-7.931512745475417
 30
0.0
 10
12.05565627131355
 20
-7.93088821004251
 30
0.0
 10
12.0278331929433
 20
-7.930214528666882
 30
0.0
 10
11.99999999999999
 20
-7.929491740938878
 30
0.0
  0
SPLINE
  5
140
330
1F
100
AcDbEntity
  8
외형선
  6
Continuous
 62
     1
370
    15
100
AcDbSpline
210
0.0
220
0.0
230
1.0
 70
     8
 71
     3
 72
     8
 73
     4
 74
     0
 42
0.000000001
 43
0.00000001
 40
0.0
 40
0.0
 40
0.0
 40
0.0
 40
0.2279440180669632
 40
0.2279440180669632
 40
0.2279440180669632
 40
0.2279440180669632
 10
12.08346842458736
 20
-7.93151272935153
 30
0.0
 10
12.0558013578812
 20
-7.915620089367141
 30
0.0
 10
12.02781528394522
 20
-7.867157601533969
 30
0.0
 10
12.0
 20
-7.788115148403608
 30
0.0
  0
SPLINE
  5
143
330
1F
100
AcDbEntity
  8
외형선
  6
Continuous
 62
     1
370
    15
100
AcDbSpline
210
0.0
220
0.0
230
1.0
 70
     8
 71
     3
 72
     8
 73
     4
 74
     0
 42
0.000000001
 43
0.00000001
 40
0.0
 40
0.0
 40
0.0
 40
0.0
 40
1.0
 40
1.0
 40
1.0
 40
1.0
 10
12.35200415544605
 20
-7.847371895361943
 30
0.0
 10
12.27370614335747
 20
-7.905032231364346
 30
0.0
 10
12.17975709456785
 20
-7.933674950912961
 30
0.0
 10
12.0834684523693
 20
-7.931512745309781
 30
0.0
  0
LINE
  5
145
330
1F
100
AcDbEntity
  8
외형선
  6
Continuous
 62
     1
370
    15
100
AcDbLine
 10
13.36327315504918
 20
-7.813647289629244
 30
0.0
 11
13.34526722623147
 21
-7.807335291003545
 31
0.0
  0
LINE
  5
149
330
1F
100
AcDbEntity
  8
외형선
  6
Continuous
 62
     1
370
    15
100
AcDbLine
 10
27.87500000000001
 20
1.531147021911046
 30
0.0
 11
27.87500000000001
 21
5.139562718986243
 31
0.0
  0
LINE
  5
14A
330
1F
100
AcDbEntity
  8
외형선
  6
Continuous
 62
     1
370
    15
100
AcDbLine
 10
20.3142585655259
 20
-7.922161361497965
 30
0.0
 11
20.31113258693561
 21
-7.920983383831714
 31
0.0
  0
LINE
  5
14B
330
1F
100
AcDbEntity
  8
외형선
  6
Continuous
 62
     1
370
    15
100
AcDbLine
 10
27.87500000000001
 20
-3.754235182150017
 30
0.0
 11
27.87500000000001
 21
-4.640327385311458
 31
0.0
  0
LINE
  5
14C
330
1F
100
AcDbEntity
  8
외형선
  6
Continuous
 62
     1
370
    15
100
AcDbLine
 10
27.87500000000001
 20
6.104166666666659
 30
0.0
 11
27.87500000000001
 21
6.045441794956418
 31
0.0
  0
SPLINE
  5
14E
330
1F
100
AcDbEntity
  8
외형선
  6
Continuous
 62
     1
370
    15
100
AcDbSpline
210
0.0
220
0.0
230
1.0
 70
     8
 71
     3
 72
    12
 73
     8
 74
     0
 42
0.000000001
 43
0.00000001
 40
0.0
 40
0.0
 40
0.0
 40
0.0
 40
0.1983442683062807
 40
0.4238771902857609
 40
0.6464880819661974
 40
0.8695657630902527
 40
0.9772004265782254
 40
0.9772004265782254
 40
0.9772004265782254
 40
0.9772004265782254
 10
12.3421828287758
 20
-7.834178451968412
 30
0.0
 10
12.31871468339845
 20
-7.81265781253979
 30
0.0
 10
12.26856142407458
 20
-7.766666525511162
 30
0.0
 10
12.19173476492031
 20
-7.486994781470322
 30
0.0
 10
12.11525789101038
 20
-7.048048441040393
 30
0.0
 10
12.05172129432653
 20
-6.562162682292644
 30
0.0
 10
12.01271441082296
 20
-6.211856986282386
 30
0.0
 10
12.0
 20
-6.096736330084107
 30
0.0
  0
SPLINE
  5
14F
330
1F
100
AcDbEntity
  8
외형선
  6
Continuous
 62
     1
370
    15
100
AcDbSpline
210
0.0
220
0.0
230
1.0
 70
     8
 71
     3
 72
    12
 73
     8
 74
     0
 42
0.000000001
 43
0.00000001
 40
0.0
 40
0.0
 40
0.0
 40
0.0
 40
0.0449330881768829
 40
0.3609735633207112
 40
0.6733789165246542
 40
0.9850598517403331
 40
1.0
 40
1.0
 40
1.0
 40
1.0
 10
13.34526722623147
 20
-7.807335291003545
 30
0.0
 10
13.3409922712743
 20
-7.80642203263797
 30
0.0
 10
13.30664907817245
 20
-7.79908529839982
 30
0.0
 10
13.24143584186057
 20
-7.573586512889843
 30
0.0
 10
13.15392854690333
 20
-7.12620089403362
 30
0.0
 10
13.09507984743582
 20
-6.672467064499086
 30
0.0
 10
13.06412934491485
 20
-6.409547370878437
 30
0.0
 10
13.06271362155905
 20
-6.397521021687252
 30
0.0
  0
SPLINE
  5
151
330
1F
100
AcDbEntity
  8
외형선
  6
Continuous
 62
     1
370
    15
100
AcDbSpline
210
0.0
220
0.0
230
1.0
 70
     8
 71
     3
 72
    11
 73
     7
 74
     0
 42
0.000000001
 43
0.00000001
 40
0.0
 40
0.0
 40
0.0
 40
0.0
 40
0.148475911510347
 40
0.4347650859929363
 40
0.7181102021978848
 40
1.0
 40
1.0
 40
1.0
 40
1.0
 10
13.64581633116398
 20
-7.909092740180601
 30
0.0
 10
13.63016347754947
 20
-7.913460010435914
 30
0.0
 10
13.58432901067515
 20
-7.926248190072533
 30
0.0
 10
13.50699794850266
 20
-7.696698092744001
 30
0.0
 10
13.41856183200147
 20
-7.261633968216833
 30
0.0
 10
13.36023005450493
 20
-6.796907046135421
 30
0.0
 10
13.33113925958682
 20
-6.565141854615261
 30
0.0
  0
SPLINE
  5
152
330
1F
100
AcDbEntity
  8
외형선
  6
Continuous
 62
     1
370
    15
100
AcDbSpline
210
0.0
220
0.0
230
1.0
 70
     8
 71
     3
 72
    10
 73
     6
 74
     0
 42
0.000000001
 43
0.00000001
 40
0.0
 40
0.0
 40
0.0
 40
0.0
 40
0.0796248460622916
 40
0.5425174741162053
 40
1.0
 40
1.0
 40
1.0
 40
1.0
 10
15.43724083007477
 20
-7.912084932380507
 30
0.0
 10
15.43080276920512
 20
-7.920041323948507
 30
0.0
 10
15.3869375601161
 20
-7.974251556935022
 30
0.0
 10
15.30227401444928
 20
-7.745864140819379
 30
0.0
 10
15.22849219284462
 20
-7.318788323003736
 30
0.0
 10
15.1918181323079
 20
-7.106505621713637
 30
0.0
  0
SPLINE
  5
154
330
1F
100
AcDbEntity
  8
외형선
  6
Continuous
 62
     1
370
    15
100
AcDbSpline
210
0.0
220
0.0
230
1.0
 70
     8
 71
     3
 72
    11
 73
     7
 74
     0
 42
0.000000001
 43
0.00000001
 40
0.0
 40
0.0
 40
0.0
 40
0.0
 40
0.0556733152873586
 40
0.3715902017925329
 40
0.687634379827891
 40
1.0
 40
1.0
 40
1.0
 40
1.0
 10
15.72037498057585
 20
-7.825918283732471
 30
0.0
 10
15.71560144407497
 20
-7.833652359748215
 30
0.0
 10
15.68374058968777
 20
-7.885273263812132
 30
0.0
 10
15.62244257427882
 20
-7.796461187959148
 30
0.0
 10
15.53884149294055
 20
-7.562468257040778
 30
0.0
 10
15.48502545897902
 20
-7.245879084492609
 30
0.0
 10
15.45827495497422
 20
-7.088511116162273
 30
0.0
  0
SPLINE
  5
155
330
1F
100
AcDbEntity
  8
외형선
  6
Continuous
 62
     1
370
    15
100
AcDbSpline
210
0.0
220
0.0
230
1.0
 70
     8
 71
     3
 72
     9
 73
     5
 74
     0
 42
0.000000001
 43
0.00000001
 40
0.0
 40
0.0
 40
0.0
 40
0.0
 40
0.4200415129551596
 40
1.0
 40
1.0
 40
1.0
 40
1.0
 10
16.69429409659987
 20
-7.811026051810198
 30
0.0
 10
16.67082611479259
 20
-7.791389044939854
 30
0.0
 10
16.61495548990559
 20
-7.744638887479962
 30
0.0
 10
16.5597716795431
 20
-7.481693118611769
 30
0.0
 10
16.52776736037591
 20
-7.329195488324129
 30
0.0
  0
SPLINE
  5
156
330
1F
100
AcDbEntity
  8
외형선
  6
Continuous
 62
     1
370
    15
100
AcDbSpline
210
0.0
220
0.0
230
1.0
 70
     8
 71
     3
 72
     9
 73
     5
 74
     0
 42
0.000000001
 43
0.00000001
 40
0.0
 40
0.0
 40
0.0
 40
0.0
 40
0.4968686475329215
 40
0.9999999999999999
 40
0.9999999999999999
 40
0.9999999999999999
 40
0.9999999999999999
 10
16.98103742989072
 20
-7.935708510958443
 30
0.0
 10
16.95027450283864
 20
-7.9167956237946
 30
0.0
 10
16.8883609021218
 20
-7.878731464871015
 30
0.0
 10
16.82695417745914
 20
-7.606895965758495
 30
0.0
 10
16.79605852902904
 20
-7.470127003441453
 30
0.0
  0
SPLINE
  5
157
330
1F
100
AcDbEntity
  8
외형선
  6
Continuous
 62
     1
370
    15
100
AcDbSpline
210
0.0
220
0.0
230
1.0
 70
     8
 71
     3
 72
     9
 73
     5
 74
     0
 42
0.000000001
 43
0.00000001
 40
0.0
 40
0.0
 40
0.0
 40
0.0
 40
0.077806512064201
 40
1.0
 40
1.0
 40
1.0
 40
1.0
 10
18.77076586505628
 20
-7.926237383292706
 30
0.0
 10
18.76791312240223
 20
-7.929959669475307
 30
0.0
 10
18.73124854795504
 20
-7.977799960523535
 30
0.0
 10
18.693266514296
 20
-7.866584806595292
 30
0.0
 10
18.65823973019709
 20
-7.764022915882888
 30
0.0
  0
SPLINE
  5
158
330
1F
100
AcDbEntity
  8
외형선
  6
Continuous
 62
     1
370
    15
100
AcDbSpline
210
0.0
220
0.0
230
1.0
 70
     8
 71
     3
 72
     9
 73
     5
 74
     0
 42
0.000000001
 43
0.00000001
 40
0.0
 40
0.0
 40
0.0
 40
0.0
 40
0.2363524371874834
 40
0.9999999999999999
 40
0.9999999999999999
 40
0.9999999999999999
 40
0.9999999999999999
 10
19.05416520626942
 20
-7.811113706368165
 30
0.0
 10
19.04421712775444
 20
-7.826756639459453
 30
0.0
 10
19.00212710899539
 20
-7.892941415370537
 30
0.0
 10
18.95848599567007
 20
-7.786476816820299
 30
0.0
 10
18.92515956584075
 20
-7.705175385611592
 30
0.0
  0
LINE
  5
159
330
1F
100
AcDbEntity
  8
외형선
  6
Continuous
 62
     1
370
    15
100
AcDbLine
 10
20.03493515837117
 20
-7.821362095462974
 30
0.0
 11
19.99609910022959
 21
-7.798004680571454
 31
0.0
  0
LINE
  5
15A
330
1F
100
AcDbEntity
  8
외형선
  6
Continuous
 62
     1
370
    15
100
AcDbLine
 10
20.31113258693561
 20
-7.920983383831714
 30
0.0
 11
20.26465007663975
 21
-7.90346715413979
 31
0.0
  0
LINE
  5
15B
330
1F
100
AcDbEntity
  8
중심선
100
AcDbLine
 10
-48.97499999999998
 20
-0.0000000000000104
 30
0.0
 11
34.87500000000001
 21
-0.0000000000000001
 31
0.0
  0
LINE
  5
15C
330
1F
100
AcDbEntity
  8
참조1
100
AcDbLine
 10
-3.874999999999991
 20
-0.3168705809327389
 30
0.0
 11
-3.874999999999982
 21
-40.31687058093274
 31
0.0
  0
LINE
  5
15D
330
1F
100
AcDbEntity
  8
참조1
100
AcDbLine
 10
-16.14110765519646
 20
-4.762499999999998
 30
0.0
 11
52.00147268839602
 21
-4.762499999999998
 31
0.0
  0
LINE
  5
15E
330
1F
100
AcDbEntity
  8
참조1
100
AcDbLine
 10
52.00147268839602
 20
-4.762499999999998
 30
0.0
 11
52.00147268839601
 21
-6.927248606176848
 31
0.0
  0
LINE
  5
15F
330
1F
100
AcDbEntity
  8
참조1
100
AcDbLine
 10
-3.874999999999982
 20
-40.31687058093274
 30
0.0
 11
-20.60854980726568
 21
-40.31687058093274
 31
0.0
  0
CIRCLE
  5
160
330
1F
100
AcDbEntity
  8
해칭선
100
AcDbCircle
 10
0.0
 20
0.0
 30
0.0
 40
5.000000000000012
  0
INSERT
  5
161
330
1F
100
AcDbEntity
  8
0
  6
Continuous
 62
     7
100
AcDbBlockReference
 66
     1
  2
블럭10
 10
-17.81527293212519
 20
-52.36404488257666
 30
0.0
  0
ATTRIB
  5
162
330
161
100
AcDbEntity
  8
FORMAT
 62
     2
100
AcDbText
 10
-27.33758688272313
 20
-50.28867796974447
 30
0.0
 40
4.233333333333333
  1
E2241040 [ 3 FLUTE ]
 41
0.75
  7
SLDTEXTSTYLE0
 11
-27.33758688272313
 21
-52.40534463641114
 31
0.0
100
AcDbAttribute
  2
AUTOATTR0
 70
     0
 74
     1
  0
SEQEND
  5
163
330
161
100
AcDbEntity
  8
0
  6
Continuous
 62
     7
  0
HATCH
  5
164
330
1F
100
AcDbEntity
  8
중심선
100
AcDbHatch
 10
0.0
 20
0.0
 30
0.0
210
0.0
220
0.0
230
1.0
  2
SOLID
 70
     1
 71
     0
 91
        1
 92
        0
 93
        4
 72
     1
 10
-12.10036362774434
 20
-36.11687058093273
 11
-15.54663887158162
 21
-36.11687058093273
 72
     1
 10
-15.54663887158162
 20
-36.11687058093273
 11
-17.67486873078565
 21
-38.65319616150533
 72
     1
 10
-17.67486873078565
 20
-38.65319616150533
 11
-14.22856040183522
 21
-38.65315673220284
 72
     1
 10
-14.22856040183522
 20
-38.65315673220284
 11
-12.10036362774434
 21
-36.11687058093273
 97
        0
 75
     0
 76
     1
 98
        1
 10
3.587500000000007
 20
-0.3168705809327354
  0
HATCH
  5
165
330
1F
100
AcDbEntity
  8
중심선
100
AcDbHatch
 10
0.0
 20
0.0
 30
0.0
210
0.0
220
0.0
230
1.0
  2
SOLID
 70
     1
 71
     0
 91
        1
 92
        0
 93
        4
 72
     1
 10
-7.087599636708362
 20
-36.11687058093277
 11
-10.53387488054565
 21
-36.11687058093277
 72
     1
 10
-10.53387488054565
 20
-36.11687058093277
 11
-15.06501288890306
 21
-41.51687058093275
 72
     1
 10
-15.06501288890306
 20
-41.51687058093275
 11
-11.61873764506578
 21
-41.51687058093275
 72
     1
 10
-11.61873764506578
 20
-41.51687058093275
 11
-7.087599636708362
 21
-36.11687058093277
 97
        0
 75
     0
 76
     1
 98
        1
 10
3.587500000000007
 20
-0.3168705809327354
  0
HATCH
  5
166
330
1F
100
AcDbEntity
  8
중심선
100
AcDbHatch
 10
0.0
 20
0.0
 30
0.0
210
0.0
220
0.0
230
1.0
  2
SOLID
 70
     1
 71
     0
 91
        1
 92
        0
 93
        4
 72
     1
 10
-2.074835645672472
 20
-36.11687058093273
 11
-5.521110889509641
 21
-36.11687058093277
 72
     1
 10
-5.521110889509641
 20
-36.11687058093277
 11
-12.56954779139886
 21
-44.51687058093275
 72
     1
 10
-12.56954779139886
 20
-44.51687058093275
 11
-9.12327254756158
 21
-44.51687058093275
 72
     1
 10
-9.12327254756158
 20
-44.51687058093275
 11
-2.074835645672472
 21
-36.11687058093273
 97
        0
 75
     0
 76
     1
 98
        1
 10
3.587500000000007
 20
-0.3168705809327354
  0
HATCH
  5
167
330
1F
100
AcDbEntity
  8
중심선
100
AcDbHatch
 10
0.0
 20
0.0
 30
0.0
210
0.0
220
0.0
230
1.0
  2
SOLID
 70
     1
 71
     0
 91
        1
 92
        0
 93
        6
 72
     3
 10
2.725054785339701
 20
-40.31687058098401
 11
3.960054785062284
 21
1.540882976769353E-10
 40
0.3939339440162627
 50
17.09539180608439
 51
320.001965768507
 73
     0
 72
     1
 10
4.408054441040269
 20
-38.90476458557101
 11
6.713356314741334
 21
-36.97043787552312
 72
     3
 10
2.725054785286854
 20
-40.31687058093289
 11
6.600054785286829
 21
-1.278976924368180E-13
 40
0.636358354079598
 50
39.99873849337413
 51
368.4976242363723
 73
     1
 72
     1
 10
9.150387277187463
 20
-39.35687058086275
 11
1.405122092122776
 21
-39.35687058086275
 72
     1
 10
1.405122092122777
 20
-39.35687058086275
 11
1.405097047676843
 21
-41.27687058086265
 72
     1
 10
1.405097047676843
 20
-41.27687058086265
 11
5.84647681714888
 21
-41.27687058086261
 97
        0
 75
     0
 76
     1
 98
        1
 10
3.587500000000007
 20
-0.3168705809327354
  0
DIMENSION
  5
169
330
1F
100
AcDbEntity
  8
치수문자_일반주서
100
AcDbDimension
  2
_D
 10
49.18516456255747
 20
-7.937499999999929
 30
0.0
 11
49.18516456255732
 21
35.68041666666691
 31
0.0
 70
   160
  1
%%c<>
 71
     2
 42
15.87500000000001
 52
-270.0
  3
SLDDIMSTYLE0
100
AcDbAlignedDimension
 13
27.87500000000001
 23
7.937500000000004
 33
0.0
 14
27.87500000000001
 24
-7.937500000000004
 34
0.0
 50
90.0000000000002
100
AcDbRotatedDimension
1001
ACAD
1000
DSTYLE
1002
{
1070
   171
1070
     6
1070
   273
1070
     7
1002
}
  0
DIMENSION
  5
17C
330
1F
100
AcDbEntity
  8
치수문자_일반주서
100
AcDbDimension
  2
_D_1
 10
-58.26249999999998
 20
-7.937500000000087
 30
0.0
 11
-58.2625
 21
-1.271680434525776
 31
0.0
 70
   160
  1
%%c<>
 71
     2
 42
15.87500000000002
 52
-270.0
  3
SLDDIMSTYLE1
100
AcDbAlignedDimension
 13
-40.24583333333327
 23
7.9375
 33
0.0
 14
-40.24583333333327
 24
-7.93750000000002
 34
0.0
 50
90.0000000000002
100
AcDbRotatedDimension
1001
ACAD
1000
DSTYLE
1002
{
1070
   171
1070
     6
1070
   273
1070
     7
1002
}
  0
DIMENSION
  5
191
330
1F
100
AcDbEntity
  8
치수문자_일반주서
100
AcDbDimension
  2
_D_2
 10
12.0
 20
34.01908799003318
 30
0.0
 11
15.96875
 21
34.01908799003318
 31
0.0
 70
   160
  1
<>
 71
     2
 42
15.87500000000001
  3
SLDDIMSTYLE0
100
AcDbAlignedDimension
 13
27.87500000000001
 23
5.139562718986243
 33
0.0
 14
12.0
 24
7.937500000000004
 34
0.0
 50
0.0000000000000142
100
AcDbRotatedDimension
1001
ACAD
1000
DSTYLE
1002
{
1070
   171
1070
     6
1070
   273
1070
     7
1002
}
  0
DIMENSION
  5
1A5
330
1F
100
AcDbEntity
  8
치수문자_일반주서
100
AcDbDimension
  2
_D_3
 10
-41.97499999999997
 20
62.7077420676631
 30
0.0
 11
-11.8125
 21
62.7077420676631
 31
0.0
 70
   160
  1
<>
 71
     2
 42
69.85
  3
SLDDIMSTYLE2
100
AcDbAlignedDimension
 13
27.87500000000001
 23
6.045441794956418
 33
0.0
 14
-41.97499999999998
 24
6.270833333333327
 34
0.0
100
AcDbRotatedDimension
1001
ACAD
1000
DSTYLE
1002
{
1070
   171
1070
     6
1070
   273
1070
     7
1002
}
  0
LINE
  5
1B9
330
1F
100
AcDbEntity
  8
참조1
100
AcDbLine
 10
77.36379082238858
 20
7.123129419067267
 30
0.0
 11
77.36379082238858
 21
-7.756870580932739
 31
0.0
  0
LINE
  5
1BA
330
1F
100
AcDbEntity
  8
참조1
100
AcDbLine
 10
90.06379082238858
 20
5.123129419067267
 30
0.0
 11
77.36379082238858
 21
5.123129419067267
 31
0.0
  0
SOLID
  5
1BB
330
1F
100
AcDbEntity
  8
참조1
100
AcDbTrace
 10
77.36379082238858
 20
5.123129419067267
 30
0.0
 11
83.71379082238857
 21
4.107129419067267
 31
0.0
 12
83.71379082238857
 22
6.139129419067267
 32
0.0
 13
83.71379082238857
 23
6.139129419067267
 33
0.0
  0
LINE
  5
1BC
330
1F
100
AcDbEntity
  8
참조1
100
AcDbLine
 10
90.06379082238858
 20
-5.756870580932739
 30
0.0
 11
77.36379082238858
 21
-5.756870580932739
 31
0.0
  0
SOLID
  5
1BD
330
1F
100
AcDbEntity
  8
참조1
100
AcDbTrace
 10
77.36379082238858
 20
-5.756870580932739
 30
0.0
 11
83.71379082238857
 21
-6.772870580932739
 31
0.0
 12
83.71379082238857
 22
-4.740870580932737
 32
0.0
 13
83.71379082238857
 23
-4.740870580932737
 33
0.0
  0
MTEXT
  5
1BE
330
1F
100
AcDbEntity
  8
참조1
100
AcDbMText
 10
86.96390563295114
 20
10.74884698508334
 30
0.0
 40
3.5
 41
0.0
 71
     1
 72
     1
  1
A
  7
SLDTEXTSTYLE0
 73
     1
 44
1.0
  0
MTEXT
  5
1BF
330
1F
100
AcDbEntity
  8
참조1
100
AcDbMText
 10
86.96390563295114
 20
-0.1311530149166619
 30
0.0
 40
3.5
 41
0.0
 71
     1
 72
     1
  1
A
  7
SLDTEXTSTYLE0
 73
     1
 44
1.0
  0
INSERT
  5
1C6
330
1F
100
AcDbEntity
  8
해칭선
100
AcDbBlockReference
  2
SW_DOWELSYMBOL_0
 10
0.0
 20
0.0
 30
0.0
 41
1.666666666666668
 42
1.666666666666668
 43
1.666666666666668
  0
LINE
  5
213
330
1F
100
AcDbEntity
  8
외형선
  6
Continuous
370
    15
100
AcDbLine
 10
12.0
 20
7.937500000000004
 30
0.0
 11
12.0
 21
-7.937500000000004
 31
0.0
  0
LINE
  5
214
330
1F
100
AcDbEntity
  8
외형선
  6
Continuous
 62
     1
370
    15
100
AcDbLine
 10
14.03612575556598
 20
6.9599928068751
 30
0.0
 11
12.0
 21
7.937500000000004
 31
0.0
  0
LINE
  5
257
330
1F
100
AcDbEntity
  8
외형선
  6
Continuous
370
    15
100
AcDbLine
 10
12.00000000000002
 20
7.937499999999993
 30
0.0
 11
-11.02192500000005
 21
7.937499999999992
 31
0.0
  0
LINE
  5
2BC
330
1F
100
AcDbEntity
  8
외형선
  6
Continuous
370
    15
100
AcDbLine
 10
12.0
 20
7.93749999999999
 30
0.0
 11
-11.02192500000006
 21
7.93749999999999
 31
0.0
  0
LINE
  5
2FB
330
1F
100
AcDbEntity
  8
외형선
  6
Continuous
370
    15
100
AcDbLine
 10
-22.85832499999999
 20
6.286499999999954
 30
0.0
 11
-12.67292499999998
 21
6.286499999999954
 31
0.0
  0
LINE
  5
2FC
330
1F
100
AcDbEntity
  8
외형선
  6
Continuous
370
    15
100
AcDbLine
 10
-22.85832499999999
 20
6.286500000000053
 30
0.0
 11
-24.50932499999995
 21
7.937499999999964
 31
0.0
  0
LINE
  5
2FD
330
1F
100
AcDbEntity
  8
외형선
  6
Continuous
370
    15
100
AcDbLine
 10
-12.67292500000009
 20
6.286500000000053
 30
0.0
 11
-11.02192500000008
 21
7.937499999999964
 31
0.0
  0
LINE
  5
2FE
330
1F
100
AcDbEntity
  8
외형선
  6
Continuous
370
    15
100
AcDbLine
 10
-24.50932499999998
 20
7.93749999999999
 30
0.0
 11
-40.30833333333327
 21
7.93749999999999
 31
0.0
  0
ENDSEC
  0
SECTION
  2
OBJECTS
  0
DICTIONARY
  5
C
330
0
100
AcDbDictionary
281
     1
  3
ACAD_GROUP
350
D
  3
ACAD_IMAGE_VARS
350
1EA
  3
ACAD_LAYOUT
350
1A
  3
ACAD_MLINESTYLE
350
17
  3
ACAD_PLOTSETTINGS
350
19
  3
ACAD_PLOTSTYLENAME
350
E
  3
ACAD_SCALELIST
350
47
  3
APPDATA
350
1E8
  3
DWGPROPS
350
2FF
  0
DICTIONARY
  5
242
330
2
100
AcDbDictionary
280
     1
281
     1
  3
ACAD_LAYERSTATES
360
243
  0
DICTIONARY
  5
D
102
{ACAD_REACTORS
330
C
102
}
330
C
100
AcDbDictionary
281
     1
  0
RASTERVARIABLES
  5
1EA
102
{ACAD_REACTORS
330
C
102
}
330
C
100
AcDbRasterVariables
 90
        0
 70
     1
 71
     1
 72
     1
  0
DICTIONARY
  5
1A
102
{ACAD_REACTORS
330
C
102
}
330
C
100
AcDbDictionary
281
     1
  3
Layout1
350
1E
  3
Layout2
350
26
  3
Model
350
22
  0
DICTIONARY
  5
17
102
{ACAD_REACTORS
330
C
102
}
330
C
100
AcDbDictionary
281
     1
  3
Standard
350
18
  0
DICTIONARY
  5
19
102
{ACAD_REACTORS
330
C
102
}
330
C
100
AcDbDictionary
281
     1
  0
ACDBDICTIONARYWDFLT
  5
E
102
{ACAD_REACTORS
330
C
102
}
330
C
100
AcDbDictionary
281
     1
  3
Normal
350
F
100
AcDbDictionaryWithDefault
340
F
  0
DICTIONARY
  5
47
102
{ACAD_REACTORS
330
C
102
}
330
C
100
AcDbDictionary
281
     1
  3
A0
350
48
  3
A1
350
49
  3
A2
350
4A
  3
A3
350
4B
  3
A4
350
4C
  3
A5
350
4D
  3
A6
350
4E
  3
A7
350
4F
  3
A8
350
50
  3
A9
350
51
  3
B0
350
52
  3
B1
350
53
  3
B2
350
54
  3
B3
350
55
  3
B4
350
56
  3
B5
350
57
  3
B6
350
58
  3
B7
350
59
  3
B8
350
5A
  3
B9
350
5B
  3
C0
350
5C
  3
C1
350
5D
  3
C2
350
5E
  3
C3
350
5F
  3
C4
350
60
  3
C5
350
61
  3
C6
350
62
  3
C7
350
63
  3
C8
350
64
  3
C9
350
65
  3
D0
350
66
  3
D1
350
67
  3
D2
350
68
  0
DICTIONARY
  5
1E8
102
{ACAD_REACTORS
330
C
102
}
330
C
100
AcDbDictionary
281
     1
  0
XRECORD
  5
2FF
102
{ACAD_REACTORS
330
C
102
}
330
C
100
AcDbXrecord
280
     1
  1
DWGPROPS COOKIE
  2

  3

  4

  6

  7

  8
12016016
  9

300
=
301
=
302
=
303
=
304
=
305
=
306
=
307
=
308
=
309
=
 40
0.0
 41
2458298.968695776
 42
2458311.136921875
  1

 90
        0
  0
DICTIONARY
  5
243
102
{ACAD_REACTORS
330
242
102
}
330
242
100
AcDbDictionary
281
     1
  0
LAYOUT
  5
1E
102
{ACAD_REACTORS
330
1A
102
}
330
1A
100
AcDbPlotSettings
  1

  2
none_device
  4

  6

 40
0.0
 41
0.0
 42
0.0
 43
0.0
 44
0.0
 45
0.0
 46
0.0
 47
0.0
 48
0.0
 49
0.0
140
0.0
141
0.0
142
1.0
143
1.0
 70
   688
 72
     1
 73
     0
 74
     5
  7

 75
    16
147
1.0
148
0.0
149
0.0
100
AcDbLayout
  1
Layout1
 70
     1
 71
     1
 10
0.0
 20
0.0
 11
420.0
 21
297.0
 12
0.0
 22
0.0
 32
0.0
 14
1.000000000000000E+20
 24
1.000000000000000E+20
 34
1.000000000000000E+20
 15
-1.000000000000000E+20
 25
-1.000000000000000E+20
 35
-1.000000000000000E+20
146
0.0
 13
0.0
 23
0.0
 33
0.0
 16
1.0
 26
0.0
 36
0.0
 17
0.0
 27
1.0
 37
0.0
 76
     0
330
1B
  0
LAYOUT
  5
26
102
{ACAD_REACTORS
330
1A
102
}
330
1A
100
AcDbPlotSettings
  1

  2
none_device
  4

  6

 40
0.0
 41
0.0
 42
0.0
 43
0.0
 44
0.0
 45
0.0
 46
0.0
 47
0.0
 48
0.0
 49
0.0
140
0.0
141
0.0
142
1.0
143
1.0
 70
   688
 72
     1
 73
     0
 74
     5
  7

 75
    16
147
1.0
148
0.0
149
0.0
100
AcDbLayout
  1
Layout2
 70
     1
 71
     2
 10
0.0
 20
0.0
 11
0.0
 21
0.0
 12
0.0
 22
0.0
 32
0.0
 14
0.0
 24
0.0
 34
0.0
 15
0.0
 25
0.0
 35
0.0
146
0.0
 13
0.0
 23
0.0
 33
0.0
 16
1.0
 26
0.0
 36
0.0
 17
0.0
 27
1.0
 37
0.0
 76
     0
330
23
  0
LAYOUT
  5
22
102
{ACAD_REACTORS
330
1A
102
}
330
1A
100
AcDbPlotSettings
  1

  2
none_device
  4
ANSI_A_(11.00_x_8.50_Inches)
  6

 40
6.35
 41
19.05
 42
6.35000508
 43
19.05000254
 44
279.4
 45
215.9
 46
108.1449830654433
 47
90.7731756740194
 48
0.0
 49
0.0
140
0.0
141
0.0
142
0.0744403274023622
143
1.0
 70
  1696
 72
     0
 73
     0
 74
     0
  7

 75
     0
147
0.0235690232323232
148
0.0
149
0.0
100
AcDbLayout
  1
Model
 70
     1
 71
     0
 10
0.0
 20
0.0
 11
420.0
 21
297.0
 12
0.0
 22
0.0
 32
0.0
 14
1.000000000000000E+20
 24
1.000000000000000E+20
 34
1.000000000000000E+20
 15
-1.000000000000000E+20
 25
-1.000000000000000E+20
 35
-1.000000000000000E+20
146
0.0
 13
0.0
 23
0.0
 33
0.0
 16
1.0
 26
0.0
 36
0.0
 17
0.0
 27
1.0
 37
0.0
 76
     0
330
1F
331
29
  0
MLINESTYLE
  5
18
102
{ACAD_REACTORS
330
17
102
}
330
17
100
AcDbMlineStyle
  2
Standard
 70
     0
  3

 62
   256
 51
90.0
 52
90.0
 71
     2
 49
0.5
 62
   256
  6
BYLAYER
 49
-0.5
 62
   256
  6
BYLAYER
  0
ACDBPLACEHOLDER
  5
F
102
{ACAD_REACTORS
330
E
102
}
330
E
  0
SCALE
  5
48
102
{ACAD_REACTORS
330
47
102
}
330
47
100
AcDbScale
 70
     0
300
1:1
140
1.0
141
1.0
290
     1
  0
SCALE
  5
49
102
{ACAD_REACTORS
330
47
102
}
330
47
100
AcDbScale
 70
     0
300
1:2
140
1.0
141
2.0
290
     0
  0
SCALE
  5
4A
102
{ACAD_REACTORS
330
47
102
}
330
47
100
AcDbScale
 70
     0
300
1:4
140
1.0
141
4.0
290
     0
  0
SCALE
  5
4B
102
{ACAD_REACTORS
330
47
102
}
330
47
100
AcDbScale
 70
     0
300
1:5
140
1.0
141
5.0
290
     0
  0
SCALE
  5
4C
102
{ACAD_REACTORS
330
47
102
}
330
47
100
AcDbScale
 70
     0
300
1:8
140
1.0
141
8.0
290
     0
  0
SCALE
  5
4D
102
{ACAD_REACTORS
330
47
102
}
330
47
100
AcDbScale
 70
     0
300
1:10
140
1.0
141
10.0
290
     0
  0
SCALE
  5
4E
102
{ACAD_REACTORS
330
47
102
}
330
47
100
AcDbScale
 70
     0
300
1:16
140
1.0
141
16.0
290
     0
  0
SCALE
  5
4F
102
{ACAD_REACTORS
330
47
102
}
330
47
100
AcDbScale
 70
     0
300
1:20
140
1.0
141
20.0
290
     0
  0
SCALE
  5
50
102
{ACAD_REACTORS
330
47
102
}
330
47
100
AcDbScale
 70
     0
300
1:30
140
1.0
141
30.0
290
     0
  0
SCALE
  5
51
102
{ACAD_REACTORS
330
47
102
}
330
47
100
AcDbScale
 70
     0
300
1:40
140
1.0
141
40.0
290
     0
  0
SCALE
  5
52
102
{ACAD_REACTORS
330
47
102
}
330
47
100
AcDbScale
 70
     0
300
1:50
140
1.0
141
50.0
290
     0
  0
SCALE
  5
53
102
{ACAD_REACTORS
330
47
102
}
330
47
100
AcDbScale
 70
     0
300
1:100
140
1.0
141
100.0
290
     0
  0
SCALE
  5
54
102
{ACAD_REACTORS
330
47
102
}
330
47
100
AcDbScale
 70
     0
300
2:1
140
2.0
141
1.0
290
     0
  0
SCALE
  5
55
102
{ACAD_REACTORS
330
47
102
}
330
47
100
AcDbScale
 70
     0
300
4:1
140
4.0
141
1.0
290
     0
  0
SCALE
  5
56
102
{ACAD_REACTORS
330
47
102
}
330
47
100
AcDbScale
 70
     0
300
8:1
140
8.0
141
1.0
290
     0
  0
SCALE
  5
57
102
{ACAD_REACTORS
330
47
102
}
330
47
100
AcDbScale
 70
     0
300
10:1
140
10.0
141
1.0
290
     0
  0
SCALE
  5
58
102
{ACAD_REACTORS
330
47
102
}
330
47
100
AcDbScale
 70
     0
300
100:1
140
100.0
141
1.0
290
     0
  0
SCALE
  5
59
102
{ACAD_REACTORS
330
47
102
}
330
47
100
AcDbScale
 70
     0
300
1/128" = 1'-0"
140
0.0078125
141
12.0
290
     0
  0
SCALE
  5
5A
102
{ACAD_REACTORS
330
47
102
}
330
47
100
AcDbScale
 70
     0
300
1/64" = 1'-0"
140
0.015625
141
12.0
290
     0
  0
SCALE
  5
5B
102
{ACAD_REACTORS
330
47
102
}
330
47
100
AcDbScale
 70
     0
300
1/32" = 1'-0"
140
0.03125
141
12.0
290
     0
  0
SCALE
  5
5C
102
{ACAD_REACTORS
330
47
102
}
330
47
100
AcDbScale
 70
     0
300
1/16" = 1'-0"
140
0.0625
141
12.0
290
     0
  0
SCALE
  5
5D
102
{ACAD_REACTORS
330
47
102
}
330
47
100
AcDbScale
 70
     0
300
3/32" = 1'-0"
140
0.09375
141
12.0
290
     0
  0
SCALE
  5
5E
102
{ACAD_REACTORS
330
47
102
}
330
47
100
AcDbScale
 70
     0
300
1/8" = 1'-0"
140
0.125
141
12.0
290
     0
  0
SCALE
  5
5F
102
{ACAD_REACTORS
330
47
102
}
330
47
100
AcDbScale
 70
     0
300
3/16" = 1'-0"
140
0.1875
141
12.0
290
     0
  0
SCALE
  5
60
102
{ACAD_REACTORS
330
47
102
}
330
47
100
AcDbScale
 70
     0
300
1/4" = 1'-0"
140
0.25
141
12.0
290
     0
  0
SCALE
  5
61
102
{ACAD_REACTORS
330
47
102
}
330
47
100
AcDbScale
 70
     0
300
3/8" = 1'-0"
140
0.375
141
12.0
290
     0
  0
SCALE
  5
62
102
{ACAD_REACTORS
330
47
102
}
330
47
100
AcDbScale
 70
     0
300
1/2" = 1'-0"
140
0.5
141
12.0
290
     0
  0
SCALE
  5
63
102
{ACAD_REACTORS
330
47
102
}
330
47
100
AcDbScale
 70
     0
300
3/4" = 1'-0"
140
0.75
141
12.0
290
     0
  0
SCALE
  5
64
102
{ACAD_REACTORS
330
47
102
}
330
47
100
AcDbScale
 70
     0
300
1" = 1'-0"
140
1.0
141
12.0
290
     0
  0
SCALE
  5
65
102
{ACAD_REACTORS
330
47
102
}
330
47
100
AcDbScale
 70
     0
300
1-1/2" = 1'-0"
140
1.5
141
12.0
290
     0
  0
SCALE
  5
66
102
{ACAD_REACTORS
330
47
102
}
330
47
100
AcDbScale
 70
     0
300
3" = 1'-0"
140
3.0
141
12.0
290
     0
  0
SCALE
  5
67
102
{ACAD_REACTORS
330
47
102
}
330
47
100
AcDbScale
 70
     0
300
6" = 1'-0"
140
6.0
141
12.0
290
     0
  0
SCALE
  5
68
102
{ACAD_REACTORS
330
47
102
}
330
47
100
AcDbScale
 70
     0
300
1'-0" = 1'-0"
140
12.0
141
12.0
290
     0
  0
ENDSEC
  0
EOF
