  0
SECTION
  2
HEADER
  9
$ACADVER
  1
AC1015
  9
$ACADMAINTVER
 70
     6
  9
$DWGCODEPAGE
  3
ANSI_949
  9
$INSBASE
 10
0.0
 20
0.0
 30
0.0
  9
$EXTMIN
 10
1.000000000000000E+20
 20
1.000000000000000E+20
 30
1.000000000000000E+20
  9
$EXTMAX
 10
-1.000000000000000E+20
 20
-1.000000000000000E+20
 30
-1.000000000000000E+20
  9
$LIMMIN
 10
0.0
 20
0.0
  9
$LIMMAX
 10
420.0
 20
297.0
  9
$ORTHOMODE
 70
     1
  9
$REGENMODE
 70
     1
  9
$FILLMODE
 70
     1
  9
$QTEXTMODE
 70
     0
  9
$MIRRTEXT
 70
     1
  9
$LTSCALE
 40
1.0
  9
$ATTMODE
 70
     1
  9
$TEXTSIZE
 40
3.5
  9
$TRACEWID
 40
1.0
  9
$TEXTSTYLE
  7
Standard
  9
$CLAYER
  8
0
  9
$CELTYPE
  6
ByLayer
  9
$CECOLOR
 62
   256
  9
$CELTSCALE
 40
1.0
  9
$DISPSILH
 70
     0
  9
$DIMSCALE
 40
1.0
  9
$DIMASZ
 40
3.302
  9
$DIMEXO
 40
1.0
  9
$DIMDLI
 40
3.75
  9
$DIMRND
 40
0.0
  9
$DIMDLE
 40
0.0
  9
$DIMEXE
 40
1.0
  9
$DIMTP
 40
0.0
  9
$DIMTM
 40
0.0
  9
$DIMTXT
 40
3.5
  9
$DIMCEN
 40
2.5
  9
$DIMTSZ
 40
0.0
  9
$DIMTOL
 70
     0
  9
$DIMLIM
 70
     0
  9
$DIMTIH
 70
     1
  9
$DIMTOH
 70
     1
  9
$DIMSE1
 70
     0
  9
$DIMSE2
 70
     0
  9
$DIMTAD
 70
     1
  9
$DIMZIN
 70
     0
  9
$DIMBLK
  1

  9
$DIMASO
 70
     1
  9
$DIMSHO
 70
     1
  9
$DIMPOST
  1

  9
$DIMAPOST
  1

  9
$DIMALT
 70
     0
  9
$DIMALTD
 70
     3
  9
$DIMALTF
 40
0.0393700787401575
  9
$DIMLFAC
 40
1.0
  9
$DIMTOFL
 70
     1
  9
$DIMTVP
 40
0.0
  9
$DIMTIX
 70
     0
  9
$DIMSOXD
 70
     0
  9
$DIMSAH
 70
     0
  9
$DIMBLK1
  1

  9
$DIMBLK2
  1

  9
$DIMSTYLE
  2
ISO-25
  9
$DIMCLRD
 70
     0
  9
$DIMCLRE
 70
     0
  9
$DIMCLRT
 70
     0
  9
$DIMTFAC
 40
1.0
  9
$DIMGAP
 40
1.524
  9
$DIMJUST
 70
     0
  9
$DIMSD1
 70
     0
  9
$DIMSD2
 70
     0
  9
$DIMTOLJ
 70
     0
  9
$DIMTZIN
 70
     0
  9
$DIMALTZ
 70
     0
  9
$DIMALTTZ
 70
     0
  9
$DIMUPT
 70
     0
  9
$DIMDEC
 70
     2
  9
$DIMTDEC
 70
     2
  9
$DIMALTU
 70
     2
  9
$DIMALTTD
 70
     3
  9
$DIMTXSTY
  7
Standard
  9
$DIMAUNIT
 70
     0
  9
$DIMADEC
 70
     2
  9
$DIMALTRND
 40
0.0
  9
$DIMAZIN
 70
     0
  9
$DIMDSEP
 70
    44
  9
$DIMATFIT
 70
     3
  9
$DIMFRAC
 70
     0
  9
$DIMLDRBLK
  1

  9
$DIMLUNIT
 70
     2
  9
$DIMLWD
 70
    -2
  9
$DIMLWE
 70
    -2
  9
$DIMTMOVE
 70
     0
  9
$LUNITS
 70
     2
  9
$LUPREC
 70
     2
  9
$SKETCHINC
 40
1.0
  9
$FILLETRAD
 40
10.0
  9
$AUNITS
 70
     0
  9
$AUPREC
 70
     2
  9
$MENU
  1
.
  9
$ELEVATION
 40
0.0
  9
$PELEVATION
 40
0.0
  9
$THICKNESS
 40
0.0
  9
$LIMCHECK
 70
     0
  9
$CHAMFERA
 40
0.0
  9
$CHAMFERB
 40
0.0
  9
$CHAMFERC
 40
0.0
  9
$CHAMFERD
 40
0.0
  9
$SKPOLY
 70
     0
  9
$TDCREATE
 40
2458299.344554676
  9
$TDUCREATE
 40
2458298.969554676
  9
$TDUPDATE
 40
2458311.489069641
  9
$TDUUPDATE
 40
2458311.114069641
  9
$TDINDWG
 40
0.0013508333
  9
$TDUSRTIMER
 40
2458311.113686516
  9
$USRTIMER
 70
     1
  9
$ANGBASE
 50
0.0
  9
$ANGDIR
 70
     0
  9
$PDMODE
 70
     0
  9
$PDSIZE
 40
-1.0
  9
$PLINEWID
 40
0.0
  9
$SPLFRAME
 70
     0
  9
$SPLINETYPE
 70
     6
  9
$SPLINESEGS
 70
     8
  9
$HANDSEED
  5
308
  9
$SURFTAB1
 70
     6
  9
$SURFTAB2
 70
     6
  9
$SURFTYPE
 70
     6
  9
$SURFU
 70
     6
  9
$SURFV
 70
     6
  9
$UCSBASE
  2

  9
$UCSNAME
  2

  9
$UCSORG
 10
0.0
 20
0.0
 30
0.0
  9
$UCSXDIR
 10
1.0
 20
0.0
 30
0.0
  9
$UCSYDIR
 10
0.0
 20
1.0
 30
0.0
  9
$UCSORTHOREF
  2

  9
$UCSORTHOVIEW
 70
     0
  9
$UCSORGTOP
 10
0.0
 20
0.0
 30
0.0
  9
$UCSORGBOTTOM
 10
0.0
 20
0.0
 30
0.0
  9
$UCSORGLEFT
 10
0.0
 20
0.0
 30
0.0
  9
$UCSORGRIGHT
 10
0.0
 20
0.0
 30
0.0
  9
$UCSORGFRONT
 10
0.0
 20
0.0
 30
0.0
  9
$UCSORGBACK
 10
0.0
 20
0.0
 30
0.0
  9
$PUCSBASE
  2

  9
$PUCSNAME
  2

  9
$PUCSORG
 10
0.0
 20
0.0
 30
0.0
  9
$PUCSXDIR
 10
1.0
 20
0.0
 30
0.0
  9
$PUCSYDIR
 10
0.0
 20
1.0
 30
0.0
  9
$PUCSORTHOREF
  2

  9
$PUCSORTHOVIEW
 70
     0
  9
$PUCSORGTOP
 10
0.0
 20
0.0
 30
0.0
  9
$PUCSORGBOTTOM
 10
0.0
 20
0.0
 30
0.0
  9
$PUCSORGLEFT
 10
0.0
 20
0.0
 30
0.0
  9
$PUCSORGRIGHT
 10
0.0
 20
0.0
 30
0.0
  9
$PUCSORGFRONT
 10
0.0
 20
0.0
 30
0.0
  9
$PUCSORGBACK
 10
0.0
 20
0.0
 30
0.0
  9
$USERI1
 70
     0
  9
$USERI2
 70
     0
  9
$USERI3
 70
     0
  9
$USERI4
 70
     0
  9
$USERI5
 70
     0
  9
$USERR1
 40
0.0
  9
$USERR2
 40
0.0
  9
$USERR3
 40
0.0
  9
$USERR4
 40
0.0
  9
$USERR5
 40
0.0
  9
$WORLDVIEW
 70
     1
  9
$SHADEDGE
 70
     3
  9
$SHADEDIF
 70
    70
  9
$TILEMODE
 70
     1
  9
$MAXACTVP
 70
    64
  9
$PINSBASE
 10
0.0
 20
0.0
 30
0.0
  9
$PLIMCHECK
 70
     0
  9
$PEXTMIN
 10
1.000000000000000E+20
 20
1.000000000000000E+20
 30
1.000000000000000E+20
  9
$PEXTMAX
 10
-1.000000000000000E+20
 20
-1.000000000000000E+20
 30
-1.000000000000000E+20
  9
$PLIMMIN
 10
0.0
 20
0.0
  9
$PLIMMAX
 10
0.0
 20
0.0
  9
$UNITMODE
 70
     0
  9
$VISRETAIN
 70
     1
  9
$PLINEGEN
 70
     0
  9
$PSLTSCALE
 70
     1
  9
$TREEDEPTH
 70
  3020
  9
$CMLSTYLE
  2
Standard
  9
$CMLJUST
 70
     0
  9
$CMLSCALE
 40
20.0
  9
$PROXYGRAPHICS
 70
     1
  9
$MEASUREMENT
 70
     1
  9
$CELWEIGHT
370
    -1
  9
$ENDCAPS
280
     0
  9
$JOINSTYLE
280
     0
  9
$LWDISPLAY
290
     1
  9
$INSUNITS
 70
     4
  9
$HYPERLINKBASE
  1

  9
$STYLESHEET
  1

  9
$XEDIT
290
     1
  9
$CEPSNTYPE
380
     0
  9
$PSTYLEMODE
290
     1
  9
$FINGERPRINTGUID
  2
{5C68D617-FCE9-4D22-898D-A1506F3446AB}
  9
$VERSIONGUID
  2
{FAEB1C32-E019-11D5-929B-00C0DF256EC4}
  9
$EXTNAMES
290
     1
  9
$PSVPSCALE
 40
0.0
  9
$OLESTARTUP
290
     0
  0
ENDSEC
  0
SECTION
  2
CLASSES
  0
CLASS
  1
ACDBDICTIONARYWDFLT
  2
AcDbDictionaryWithDefault
  3
ObjectDBX Classes
 90
        0
280
     0
281
     0
  0
CLASS
  1
VISUALSTYLE
  2
AcDbVisualStyle
  3
ObjectDBX Classes
 90
     4095
280
     0
281
     0
  0
CLASS
  1
MATERIAL
  2
AcDbMaterial
  3
ObjectDBX Classes
 90
     1153
280
     0
281
     0
  0
CLASS
  1
SCALE
  2
AcDbScale
  3
ObjectDBX Classes
 90
     1153
280
     0
281
     0
  0
CLASS
  1
SUN
  2
AcDbSun
  3
SCENEOE
 90
     1153
280
     0
281
     0
  0
CLASS
  1
ACDBPLACEHOLDER
  2
AcDbPlaceHolder
  3
ObjectDBX Classes
 90
        0
280
     0
281
     0
  0
CLASS
  1
LAYOUT
  2
AcDbLayout
  3
ObjectDBX Classes
 90
        0
280
     0
281
     0
  0
CLASS
  1
TABLESTYLE
  2
AcDbTableStyle
  3
ObjectDBX Classes
 90
     4095
280
     0
281
     0
  0
CLASS
  1
MLEADERSTYLE
  2
AcDbMLeaderStyle
  3
ACDB_MLEADERSTYLE_CLASS
 90
     4095
280
     0
281
     0
  0
CLASS
  1
RASTERVARIABLES
  2
AcDbRasterVariables
  3
ISM
 90
        0
280
     0
281
     0
  0
ENDSEC
  0
SECTION
  2
TABLES
  0
TABLE
  2
VPORT
  5
8
330
0
100
AcDbSymbolTable
 70
     1
  0
VPORT
  5
29
330
8
100
AcDbSymbolTableRecord
100
AcDbViewportTableRecord
  2
*Active
 70
     0
 10
0.0
 20
0.0
 11
1.0
 21
1.0
 12
107.1321172190564
 22
12.49997733007953
 13
0.0
 23
0.0
 14
10.0
 24
10.0
 15
10.0
 25
10.0
 16
0.0
 26
0.0
 36
1.0
 17
0.0
 27
0.0
 37
0.0
 40
230.9616354956351
 41
1.719535783365571
 42
50.0
 43
0.0
 44
0.0
 50
0.0
 51
0.0
 71
    16
 72
  2000
 73
     1
 74
     3
 75
     0
 76
     0
 77
     0
 78
     0
281
     0
 65
     1
110
0.0
120
0.0
130
0.0
111
1.0
121
0.0
131
0.0
112
0.0
122
1.0
132
0.0
 79
     0
146
0.0
  0
ENDTAB
  0
TABLE
  2
LTYPE
  5
5
330
0
100
AcDbSymbolTable
 70
     6
  0
LTYPE
  5
14
330
5
100
AcDbSymbolTableRecord
100
AcDbLinetypeTableRecord
  2
ByBlock
 70
     0
  3

 72
    65
 73
     0
 40
0.0
  0
LTYPE
  5
15
330
5
100
AcDbSymbolTableRecord
100
AcDbLinetypeTableRecord
  2
ByLayer
 70
     0
  3

 72
    65
 73
     0
 40
0.0
  0
LTYPE
  5
16
330
5
100
AcDbSymbolTableRecord
100
AcDbLinetypeTableRecord
  2
Continuous
 70
     0
  3
Solid line
 72
    65
 73
     0
 40
0.0
  0
LTYPE
  5
6A
330
5
100
AcDbSymbolTableRecord
100
AcDbLinetypeTableRecord
  2
HIDDEN
 70
     0
  3
Hidden __ __ __ __ __ __ __ __ __ __ __ __ __ __
 72
    65
 73
     2
 40
1.905
 49
1.27
 74
     0
 49
-0.635
 74
     0
  0
LTYPE
  5
6B
330
5
100
AcDbSymbolTableRecord
100
AcDbLinetypeTableRecord
  2
PHANTOM
 70
     0
  3
Phantom ______  __  __  ______  __  __  ______
 72
    65
 73
     6
 40
12.7
 49
6.35
 74
     0
 49
-1.27
 74
     0
 49
1.27
 74
     0
 49
-1.27
 74
     0
 49
1.27
 74
     0
 49
-1.27
 74
     0
  0
LTYPE
  5
6C
330
5
100
AcDbSymbolTableRecord
100
AcDbLinetypeTableRecord
  2
CENTER
 70
     0
  3
Center ____ _ ____ _ ____ _ ____ _ ____ _ ____
 72
    65
 73
     4
 40
10.16
 49
6.35
 74
     0
 49
-1.27
 74
     0
 49
1.27
 74
     0
 49
-1.27
 74
     0
  0
LTYPE
  5
6D
330
5
100
AcDbSymbolTableRecord
100
AcDbLinetypeTableRecord
  2
CENTERX2
 70
     0
  3
Center (2x) ________  __  ________  __  _____
 72
    65
 73
     4
 40
20.32
 49
12.7
 74
     0
 49
-2.54
 74
     0
 49
2.54
 74
     0
 49
-2.54
 74
     0
  0
LTYPE
  5
6E
330
5
100
AcDbSymbolTableRecord
100
AcDbLinetypeTableRecord
  2
DOT2
 70
     0
  3
Dot (.5x) ........................................
 72
    65
 73
     2
 40
0.635
 49
0.0
 74
     0
 49
-0.635
 74
     0
  0
ENDTAB
  0
TABLE
  2
LAYER
  5
2
102
{ACAD_XDICTIONARY
360
29E
102
}
330
0
100
AcDbSymbolTable
 70
    18
  0
LAYER
  5
10
330
2
100
AcDbSymbolTableRecord
100
AcDbLayerTableRecord
  2
0
 70
     0
 62
     7
  6
Continuous
370
    -3
390
F
  0
LAYER
  5
6F
330
2
100
AcDbSymbolTableRecord
100
AcDbLayerTableRecord
  2
FORMAT
 70
     0
 62
     2
  6
Continuous
370
    -3
390
F
  0
LAYER
  5
70
330
2
100
AcDbSymbolTableRecord
100
AcDbLayerTableRecord
  2
외형선
 70
     0
 62
     4
  6
Continuous
370
    30
390
F
  0
LAYER
  5
71
330
2
100
AcDbSymbolTableRecord
100
AcDbLayerTableRecord
  2
숨은선
 70
     0
 62
     2
  6
HIDDEN
370
    15
390
F
  0
LAYER
  5
72
330
2
100
AcDbSymbolTableRecord
100
AcDbLayerTableRecord
  2
중심선
 70
     0
 62
     1
  6
CENTERX2
370
    -3
390
F
  0
LAYER
  5
73
330
2
100
AcDbSymbolTableRecord
100
AcDbLayerTableRecord
  2
파단선
 70
     0
 62
     4
  6
Continuous
370
    -3
390
F
  0
LAYER
  5
74
330
2
100
AcDbSymbolTableRecord
100
AcDbLayerTableRecord
  2
해칭선
 70
     0
 62
   100
  6
Continuous
370
    -3
390
F
  0
LAYER
  5
75
330
2
100
AcDbSymbolTableRecord
100
AcDbLayerTableRecord
  2
가는실선
 70
     0
 62
     4
  6
Continuous
370
    -3
390
F
  0
LAYER
  5
76
330
2
100
AcDbSymbolTableRecord
100
AcDbLayerTableRecord
  2
치수_보조선
 70
     0
 62
     4
  6
Continuous
370
    -3
390
F
  0
LAYER
  5
77
330
2
100
AcDbSymbolTableRecord
100
AcDbLayerTableRecord
  2
치수문자_일반주서
 70
     0
 62
     7
  6
Continuous
370
    15
390
F
  0
LAYER
  5
78
330
2
100
AcDbSymbolTableRecord
100
AcDbLayerTableRecord
  2
개별주서
 70
     0
 62
   100
  6
Continuous
370
    30
390
F
  0
LAYER
  5
79
330
2
100
AcDbSymbolTableRecord
100
AcDbLayerTableRecord
  2
중간선
 70
     0
 62
     2
  6
Continuous
370
    15
390
F
  0
LAYER
  5
7A
330
2
100
AcDbSymbolTableRecord
100
AcDbLayerTableRecord
  2
윤곽선
 70
     0
 62
     3
  6
Continuous
370
    40
390
F
  0
LAYER
  5
7B
330
2
100
AcDbSymbolTableRecord
100
AcDbLayerTableRecord
  2
중심마크
 70
     0
 62
   100
  6
Continuous
370
    30
390
F
  0
LAYER
  5
7C
330
2
100
AcDbSymbolTableRecord
100
AcDbLayerTableRecord
  2
가상선
 70
     0
 62
     4
  6
PHANTOM
370
    -3
390
F
  0
LAYER
  5
7D
330
2
100
AcDbSymbolTableRecord
100
AcDbLayerTableRecord
  2
특수지정선
 70
     0
 62
     5
  6
CENTERX2
370
    60
390
F
  0
LAYER
  5
7E
330
2
100
AcDbSymbolTableRecord
100
AcDbLayerTableRecord
  2
참조1
 70
     0
 62
    -4
  6
Continuous
370
    -3
390
F
  0
LAYER
  5
1F6
330
2
100
AcDbSymbolTableRecord
100
AcDbLayerTableRecord
  2
Defpoints
 70
     0
 62
     7
  6
Continuous
290
     0
370
    -3
390
F
  0
ENDTAB
  0
TABLE
  2
STYLE
  5
3
330
0
100
AcDbSymbolTable
 70
     2
  0
STYLE
  5
11
330
3
100
AcDbSymbolTableRecord
100
AcDbTextStyleTableRecord
  2
Standard
 70
     0
 40
0.0
 41
1.0
 50
0.0
 71
     0
 42
3.5
  3
txt
  4

  0
STYLE
  5
94
330
3
100
AcDbSymbolTableRecord
100
AcDbTextStyleTableRecord
  2
SLDTEXTSTYLE0
 70
     0
 40
0.0
 41
0.75
 50
0.0
 71
     0
 42
3.5
  3
TXT
  4

  0
ENDTAB
  0
TABLE
  2
VIEW
  5
6
330
0
100
AcDbSymbolTable
 70
     0
  0
ENDTAB
  0
TABLE
  2
UCS
  5
7
330
0
100
AcDbSymbolTable
 70
     0
  0
ENDTAB
  0
TABLE
  2
APPID
  5
9
330
0
100
AcDbSymbolTable
 70
     1
  0
APPID
  5
12
330
9
100
AcDbSymbolTableRecord
100
AcDbRegAppTableRecord
  2
ACAD
 70
     0
  0
ENDTAB
  0
TABLE
  2
DIMSTYLE
  5
A
330
0
100
AcDbSymbolTable
 70
     4
100
AcDbDimStyleTable
  0
DIMSTYLE
105
27
330
A
100
AcDbSymbolTableRecord
100
AcDbDimStyleTableRecord
  2
ISO-25
 70
     0
 41
2.5
 42
0.625
 43
3.75
 44
1.25
 73
     0
 74
     0
 77
     1
 78
     8
140
2.5
141
2.5
143
0.03937007874016
147
0.625
171
     3
172
     1
178
     0
271
     2
272
     2
274
     3
278
    44
283
     0
284
     8
340
11
  0
DIMSTYLE
105
175
102
{ACAD_REACTORS
330
174
330
19C
102
}
330
A
100
AcDbSymbolTableRecord
100
AcDbDimStyleTableRecord
  2
SLDDIMSTYLE0
 70
     0
 41
3.302
 44
0.0
 45
0.000000001
 73
     0
 74
     0
 77
     1
 78
    12
 79
     3
140
3.5
143
0.0393700787401575
147
0.875
148
0.000000001
170
     1
173
     1
178
     0
271
     2
272
     2
276
     2
284
    12
340
94
  0
DIMSTYLE
105
188
102
{ACAD_REACTORS
330
187
102
}
330
A
100
AcDbSymbolTableRecord
100
AcDbDimStyleTableRecord
  2
SLDDIMSTYLE1
 70
     0
 41
3.302
 44
0.0
 45
0.000000001
 73
     0
 74
     0
 77
     1
 78
    12
 79
     3
140
3.5
143
0.0393700787401575
147
0.875
148
0.000000001
170
     1
172
     1
173
     1
178
     0
271
     2
272
     2
276
     2
284
    12
289
     0
340
94
  0
DIMSTYLE
105
1B1
102
{ACAD_REACTORS
330
1B0
102
}
330
A
100
AcDbSymbolTableRecord
100
AcDbDimStyleTableRecord
  2
SLDDIMSTYLE2
 70
     0
 41
3.302
 44
0.0
 45
0.000000001
 73
     0
 74
     0
 77
     1
 78
     4
 79
     1
140
3.5
143
0.0393700787401575
147
0.875
148
0.000000001
170
     1
173
     1
178
     0
271
     2
272
     2
276
     2
284
    12
340
94
  0
ENDTAB
  0
TABLE
  2
BLOCK_RECORD
  5
1
330
0
100
AcDbSymbolTable
 70
     9
  0
BLOCK_RECORD
  5
1F
330
1
100
AcDbSymbolTableRecord
100
AcDbBlockTableRecord
  2
*Model_Space
340
22
  0
BLOCK_RECORD
  5
1B
330
1
100
AcDbSymbolTableRecord
100
AcDbBlockTableRecord
  2
*Paper_Space
340
1E
  0
BLOCK_RECORD
  5
23
330
1
100
AcDbSymbolTableRecord
100
AcDbBlockTableRecord
  2
*Paper_Space0
340
26
  0
BLOCK_RECORD
  5
7F
330
1
100
AcDbSymbolTableRecord
100
AcDbBlockTableRecord
  2
블럭10
340
0
102
{BLKREFS
331
16C
102
}
  0
BLOCK_RECORD
  5
176
330
1
100
AcDbSymbolTableRecord
100
AcDbBlockTableRecord
  2
_D
340
0
  0
BLOCK_RECORD
  5
189
330
1
100
AcDbSymbolTableRecord
100
AcDbBlockTableRecord
  2
_D_1
340
0
  0
BLOCK_RECORD
  5
19D
330
1
100
AcDbSymbolTableRecord
100
AcDbBlockTableRecord
  2
_D_2
340
0
  0
BLOCK_RECORD
  5
1B2
330
1
100
AcDbSymbolTableRecord
100
AcDbBlockTableRecord
  2
_D_3
340
0
  0
BLOCK_RECORD
  5
1CB
330
1
100
AcDbSymbolTableRecord
100
AcDbBlockTableRecord
  2
SW_DOWELSYMBOL_0
340
0
102
{BLKREFS
331
1D1
102
}
  0
ENDTAB
  0
ENDSEC
  0
SECTION
  2
BLOCKS
  0
BLOCK
  5
20
330
1F
100
AcDbEntity
  8
0
100
AcDbBlockBegin
  2
*Model_Space
 70
     0
 10
0.0
 20
0.0
 30
0.0
  3
*Model_Space
  1
*Model_Space
  0
ENDBLK
  5
21
330
1F
100
AcDbEntity
  8
0
100
AcDbBlockEnd
  0
BLOCK
  5
1C
330
1B
100
AcDbEntity
 67
     1
  8
0
100
AcDbBlockBegin
  2
*Paper_Space
 70
     0
 10
0.0
 20
0.0
 30
0.0
  3
*Paper_Space
  1
*Paper_Space
  0
ENDBLK
  5
1D
330
1B
100
AcDbEntity
 67
     1
  8
0
100
AcDbBlockEnd
  0
BLOCK
  5
24
330
23
100
AcDbEntity
  8
0
100
AcDbBlockBegin
  2
*Paper_Space0
 70
     0
 10
0.0
 20
0.0
 30
0.0
  3
*Paper_Space0
  1
*Paper_Space0
  0
ENDBLK
  5
25
330
23
100
AcDbEntity
  8
0
100
AcDbBlockEnd
  0
BLOCK
  5
80
330
7F
100
AcDbEntity
  8
0
100
AcDbBlockBegin
  2
블럭10
 70
     2
 10
0.0
 20
0.0
 30
0.0
  3
블럭10
  1
블럭10
  0
ELLIPSE
  5
82
330
7F
100
AcDbEntity
  8
중심선
100
AcDbEllipse
 10
20.54032771741204
 20
12.0471743016438
 30
0.0
 11
6.600054785286829
 21
-1.261213355974178E-13
 31
0.0
210
0.0
220
0.0
230
1.0
 40
0.636358354079598
 41
0.9219305317359503
 42
6.513795318482858
  0
ELLIPSE
  5
83
330
7F
100
AcDbEntity
  8
중심선
100
AcDbEllipse
 10
20.54032771746488
 20
12.04717430159265
 30
0.0
 11
3.960054785062283
 21
1.540847449632565E-10
 31
0.0
210
0.0
220
0.0
230
1.0
 40
0.3939339440162632
 41
1.131841032648279
 42
5.62031148352944
  0
LINE
  5
84
330
7F
100
AcDbEntity
  8
중심선
100
AcDbLine
 10
2.268634060543552
 20
16.24717430164393
 30
0.0
 11
5.714909304380834
 21
16.24717430164393
 31
0.0
  0
LINE
  5
85
330
7F
100
AcDbEntity
  8
중심선
100
AcDbLine
 10
5.245725140726316
 20
7.84717430164391
 30
0.0
 11
8.692000384563599
 21
7.84717430164391
 31
0.0
  0
LINE
  5
86
330
7F
100
AcDbEntity
  8
중심선
100
AcDbLine
 10
15.74043728645272
 20
16.24717430164393
 30
0.0
 11
8.692000384563599
 21
7.84717430164391
 31
0.0
  0
LINE
  5
87
330
7F
100
AcDbEntity
  8
중심선
100
AcDbLine
 10
0.1404042013395286
 20
13.71084872107135
 30
0.0
 11
3.58671253028996
 21
13.71088815037384
 31
0.0
  0
LINE
  5
88
330
7F
100
AcDbEntity
  8
중심선
100
AcDbLine
 10
2.750260043222114
 20
10.84717430164391
 30
0.0
 11
6.196535287059397
 21
10.84717430164391
 31
0.0
  0
LINE
  5
89
330
7F
100
AcDbEntity
  8
중심선
100
AcDbLine
 10
12.29416204261559
 20
16.24717430164393
 30
0.0
 11
5.245725140726316
 21
7.84717430164391
 31
0.0
  0
LINE
  5
8A
330
7F
100
AcDbEntity
  8
중심선
100
AcDbLine
 10
10.72767329541681
 20
16.24717430164393
 30
0.0
 11
6.196535287059397
 21
10.84717430164391
 31
0.0
  0
LINE
  5
8B
330
7F
100
AcDbEntity
  8
중심선
100
AcDbLine
 10
7.28139805157953
 20
16.24717430164393
 30
0.0
 11
2.750260043222114
 21
10.84717430164391
 31
0.0
  0
LINE
  5
8C
330
7F
100
AcDbEntity
  8
중심선
100
AcDbLine
 10
5.714909304380834
 20
16.24717430164393
 30
0.0
 11
3.58671253028996
 21
13.71088815037384
 31
0.0
  0
LINE
  5
8D
330
7F
100
AcDbEntity
  8
중심선
100
AcDbLine
 10
2.268634060543552
 20
16.24717430164393
 30
0.0
 11
0.1404042013395286
 21
13.71084872107135
 31
0.0
  0
LINE
  5
8E
330
7F
100
AcDbEntity
  8
중심선
100
AcDbLine
 10
7.28139805157953
 20
16.24717430164393
 30
0.0
 11
10.72767329541681
 21
16.24717430164393
 31
0.0
  0
LINE
  5
8F
330
7F
100
AcDbEntity
  8
중심선
100
AcDbLine
 10
12.29416204261559
 20
16.24717430164393
 30
0.0
 11
15.74043728645272
 21
16.24717430164393
 31
0.0
  0
LINE
  5
90
330
7F
100
AcDbEntity
  8
중심선
100
AcDbLine
 10
19.22036997980202
 20
11.08717430171403
 30
0.0
 11
23.66174974927406
 21
11.08717430171406
 31
0.0
  0
LINE
  5
91
330
7F
100
AcDbEntity
  8
중심선
100
AcDbLine
 10
19.22039502424796
 20
13.00717430171391
 30
0.0
 11
19.22036997980202
 21
11.08717430171403
 31
0.0
  0
LINE
  5
92
330
7F
100
AcDbEntity
  8
중심선
100
AcDbLine
 10
19.22039502424796
 20
13.00717430171391
 30
0.0
 11
26.96566020931264
 21
13.00717430171391
 31
0.0
  0
LINE
  5
93
330
7F
100
AcDbEntity
  8
중심선
100
AcDbLine
 10
22.22332737316547
 20
13.45928029700563
 30
0.0
 11
24.52862924686651
 21
15.39360700705356
 31
0.0
  0
ATTDEF
  5
95
330
7F
100
AcDbEntity
  8
FORMAT
 62
     2
100
AcDbText
 10
-9.522313950597932
 20
2.075366912832191
 30
0.0
 40
4.233333333333333
  1
EH095024 [ 3 FLUTE ]
 41
0.75
  7
SLDTEXTSTYLE0
 11
-9.522313950597932
 21
-0.0412997538344756
 31
0.0
100
AcDbAttributeDefinition
  3

  2
AUTOATTR0
 70
     0
 74
     1
  0
ENDBLK
  5
81
330
7F
100
AcDbEntity
  8
0
100
AcDbBlockEnd
  0
BLOCK
  5
177
330
176
100
AcDbEntity
  8
0
100
AcDbBlockBegin
  2
_D
 70
     0
 10
0.0
 20
0.0
 30
0.0
  3
_D
  1
_D
  0
LINE
  5
179
330
176
100
AcDbEntity
  8
치수문자_일반주서
 62
     0
370
    -2
100
AcDbLine
 10
88.26250000000005
 20
15.875
 30
0.0
 11
115.9280047303269
 21
15.8750000000001
 31
0.0
  0
LINE
  5
17A
330
176
100
AcDbEntity
  8
치수문자_일반주서
 62
     0
370
    -2
100
AcDbLine
 10
88.26250000000005
 20
-15.875
 30
0.0
 11
115.928004730327
 21
-15.8749999999999
 31
0.0
  0
LINE
  5
17B
330
176
100
AcDbEntity
  8
치수문자_일반주서
 62
     0
370
    -2
100
AcDbLine
 10
115.9280047303269
 20
12.5730000000001
 30
0.0
 11
115.928004730327
 21
-12.5729999999999
 31
0.0
  0
SOLID
  5
17C
330
176
100
AcDbEntity
  8
치수문자_일반주서
 62
     0
100
AcDbTrace
 10
116.4783380636602
 20
12.5730000000001
 30
0.0
 11
115.3776713969936
 21
12.5730000000001
 31
0.0
 12
115.9280047303269
 22
15.8750000000001
 32
0.0
 13
115.9280047303269
 23
15.8750000000001
 33
0.0
  0
SOLID
  5
17D
330
176
100
AcDbEntity
  8
치수문자_일반주서
 62
     0
100
AcDbTrace
 10
115.3776713969937
 20
-12.5729999999999
 30
0.0
 11
116.4783380636603
 21
-12.5729999999999
 31
0.0
 12
115.928004730327
 22
-15.8749999999999
 32
0.0
 13
115.928004730327
 23
-15.8749999999999
 33
0.0
  0
MTEXT
  5
17E
330
176
100
AcDbEntity
  8
치수문자_일반주서
 62
     0
100
AcDbMText
 10
111.5530047303269
 20
-0.1053820947443084
 30
0.0
 40
3.5
 41
0.0
 71
     2
 72
     1
  1
\A1;%%c31.75 [1 1/4]
  7
SLDTEXTSTYLE0
 11
-3.580687802255623E-15
 21
1.0
 31
0.0
 73
     1
 44
1.0
  0
POINT
  5
17F
330
176
100
AcDbEntity
  8
Defpoints
 62
     0
100
AcDbPoint
 10
88.20000000000005
 20
15.875
 30
0.0
  0
POINT
  5
180
330
176
100
AcDbEntity
  8
Defpoints
 62
     0
100
AcDbPoint
 10
88.20000000000005
 20
-15.875
 30
0.0
  0
POINT
  5
181
330
176
100
AcDbEntity
  8
Defpoints
 62
     0
100
AcDbPoint
 10
115.928004730327
 20
-15.8749999999999
 30
0.0
  0
ENDBLK
  5
178
330
176
100
AcDbEntity
  8
0
100
AcDbBlockEnd
  0
BLOCK
  5
18A
330
189
100
AcDbEntity
  8
0
100
AcDbBlockBegin
  2
_D_1
 70
     0
 10
0.0
 20
0.0
 30
0.0
  3
_D_1
  1
_D_1
  0
LINE
  5
18C
330
189
100
AcDbEntity
  8
치수문자_일반주서
 62
     0
370
    -2
100
AcDbLine
 10
-36.47490000000008
 20
15.87499999999999
 30
0.0
 11
-77.59750000000008
 21
15.87499999999983
 31
0.0
  0
LINE
  5
18D
330
189
100
AcDbEntity
  8
치수문자_일반주서
 62
     0
370
    -2
100
AcDbLine
 10
-48.89583333333326
 20
-15.875
 30
0.0
 11
-77.59749999999997
 21
-15.87500000000011
 31
0.0
  0
LINE
  5
18E
330
189
100
AcDbEntity
  8
치수문자_일반주서
 62
     0
370
    -2
100
AcDbLine
 10
-77.59750000000007
 20
12.57299999999983
 30
0.0
 11
-77.59749999999998
 21
-12.57300000000011
 31
0.0
  0
SOLID
  5
18F
330
189
100
AcDbEntity
  8
치수문자_일반주서
 62
     0
100
AcDbTrace
 10
-77.04716666666674
 20
12.57299999999983
 30
0.0
 11
-78.1478333333334
 21
12.57299999999983
 31
0.0
 12
-77.59750000000008
 22
15.87499999999983
 32
0.0
 13
-77.59750000000008
 23
15.87499999999983
 33
0.0
  0
SOLID
  5
190
330
189
100
AcDbEntity
  8
치수문자_일반주서
 62
     0
100
AcDbTrace
 10
-78.14783333333331
 20
-12.57300000000011
 30
0.0
 11
-77.04716666666666
 21
-12.57300000000011
 31
0.0
 12
-77.59749999999997
 22
-15.87500000000011
 32
0.0
 13
-77.59749999999997
 23
-15.87500000000011
 33
0.0
  0
MTEXT
  5
191
330
189
100
AcDbEntity
  8
치수문자_일반주서
 62
     0
100
AcDbMText
 10
-81.97250000000003
 20
-0.0000000000001541
 30
0.0
 40
3.5
 41
0.0
 71
     2
 72
     1
  1
\A1;%%c31.75 [1 1/4]
  7
SLDTEXTSTYLE0
 11
-3.580687802255630E-15
 21
1.0
 31
0.0
 73
     1
 44
1.0
  0
POINT
  5
192
330
189
100
AcDbEntity
  8
Defpoints
 62
     0
100
AcDbPoint
 10
-36.41240000000008
 20
15.87499999999999
 30
0.0
  0
POINT
  5
193
330
189
100
AcDbEntity
  8
Defpoints
 62
     0
100
AcDbPoint
 10
-48.83333333333326
 20
-15.875
 30
0.0
  0
POINT
  5
194
330
189
100
AcDbEntity
  8
Defpoints
 62
     0
100
AcDbPoint
 10
-77.59749999999997
 20
-15.87500000000011
 30
0.0
  0
ENDBLK
  5
18B
330
189
100
AcDbEntity
  8
0
100
AcDbBlockEnd
  0
BLOCK
  5
19E
330
19D
100
AcDbEntity
  8
0
100
AcDbBlockBegin
  2
_D_2
 70
     0
 10
0.0
 20
0.0
 30
0.0
  3
_D_2
  1
_D_2
  0
LINE
  5
1A0
330
19D
100
AcDbEntity
  8
치수문자_일반주서
 62
     0
370
    -2
100
AcDbLine
 10
88.20000000000002
 20
8.285800350377965
 30
0.0
 11
88.20000000000002
 21
54.43054078405299
 31
0.0
  0
LINE
  5
1A1
330
19D
100
AcDbEntity
  8
치수문자_일반주서
 62
     0
370
    -2
100
AcDbLine
 10
12.00000000000004
 20
15.9375
 30
0.0
 11
12.00000000000004
 21
54.43054078405299
 31
0.0
  0
LINE
  5
1A2
330
19D
100
AcDbEntity
  8
치수문자_일반주서
 62
     0
370
    -2
100
AcDbLine
 10
84.89800000000001
 20
54.43054078405299
 30
0.0
 11
15.30200000000004
 21
54.43054078405299
 31
0.0
  0
SOLID
  5
1A3
330
19D
100
AcDbEntity
  8
치수문자_일반주서
 62
     0
100
AcDbTrace
 10
84.89800000000001
 20
53.88020745071966
 30
0.0
 11
84.89800000000001
 21
54.98087411738633
 31
0.0
 12
88.20000000000002
 22
54.43054078405299
 32
0.0
 13
88.20000000000002
 23
54.43054078405299
 33
0.0
  0
SOLID
  5
1A4
330
19D
100
AcDbEntity
  8
치수문자_일반주서
 62
     0
100
AcDbTrace
 10
15.30200000000004
 20
54.98087411738633
 30
0.0
 11
15.30200000000004
 21
53.88020745071966
 31
0.0
 12
12.00000000000004
 22
54.43054078405299
 32
0.0
 13
12.00000000000004
 23
54.43054078405299
 33
0.0
  0
MTEXT
  5
1A5
330
19D
100
AcDbEntity
  8
치수문자_일반주서
 62
     0
100
AcDbMText
 10
58.56666666666672
 20
58.80554078405299
 30
0.0
 40
3.5
 41
0.0
 71
     2
 72
     1
  1
\A1;76.2 [3]
  7
SLDTEXTSTYLE0
 73
     1
 44
1.0
  0
POINT
  5
1A6
330
19D
100
AcDbEntity
  8
Defpoints
 62
     0
100
AcDbPoint
 10
88.20000000000002
 20
8.223300350377965
 30
0.0
  0
POINT
  5
1A7
330
19D
100
AcDbEntity
  8
Defpoints
 62
     0
100
AcDbPoint
 10
12.00000000000004
 20
15.875
 30
0.0
  0
POINT
  5
1A8
330
19D
100
AcDbEntity
  8
Defpoints
 62
     0
100
AcDbPoint
 10
12.00000000000004
 20
54.43054078405299
 30
0.0
  0
ENDBLK
  5
19F
330
19D
100
AcDbEntity
  8
0
100
AcDbBlockEnd
  0
BLOCK
  5
1B3
330
1B2
100
AcDbEntity
  8
0
100
AcDbBlockBegin
  2
_D_3
 70
     0
 10
0.0
 20
0.0
 30
0.0
  3
_D_3
  1
_D_3
  0
LINE
  5
1B5
330
1B2
100
AcDbEntity
  8
치수문자_일반주서
 62
     0
370
    -2
100
AcDbLine
 10
88.20000000000002
 20
9.735206871930261
 30
0.0
 11
88.20000000000002
 21
77.35060939653863
 31
0.0
  0
LINE
  5
1B6
330
1B2
100
AcDbEntity
  8
치수문자_일반주서
 62
     0
370
    -2
100
AcDbLine
 10
-51.49999999999997
 20
13.54989999999998
 30
0.0
 11
-51.49999999999997
 21
77.35060939653863
 31
0.0
  0
LINE
  5
1B7
330
1B2
100
AcDbEntity
  8
치수문자_일반주서
 62
     0
370
    -2
100
AcDbLine
 10
84.89800000000001
 20
77.35060939653863
 30
0.0
 11
-48.19799999999997
 21
77.35060939653863
 31
0.0
  0
SOLID
  5
1B8
330
1B2
100
AcDbEntity
  8
치수문자_일반주서
 62
     0
100
AcDbTrace
 10
84.89800000000001
 20
76.8002760632053
 30
0.0
 11
84.89800000000001
 21
77.90094272987196
 31
0.0
 12
88.20000000000002
 22
77.35060939653863
 32
0.0
 13
88.20000000000002
 23
77.35060939653863
 33
0.0
  0
SOLID
  5
1B9
330
1B2
100
AcDbEntity
  8
치수문자_일반주서
 62
     0
100
AcDbTrace
 10
-48.19799999999997
 20
77.90094272987196
 30
0.0
 11
-48.19799999999997
 21
76.8002760632053
 31
0.0
 12
-51.49999999999997
 22
77.35060939653863
 32
0.0
 13
-51.49999999999997
 23
77.35060939653863
 33
0.0
  0
MTEXT
  5
1BA
330
1B2
100
AcDbEntity
  8
치수문자_일반주서
 62
     0
100
AcDbMText
 10
18.35000000000002
 20
81.72560939653863
 30
0.0
 40
3.5
 41
0.0
 71
     2
 72
     1
  1
\A1;139.70 [5 1/2]
  7
SLDTEXTSTYLE0
 73
     1
 44
1.0
  0
POINT
  5
1BB
330
1B2
100
AcDbEntity
  8
Defpoints
 62
     0
100
AcDbPoint
 10
88.20000000000002
 20
9.672706871930261
 30
0.0
  0
POINT
  5
1BC
330
1B2
100
AcDbEntity
  8
Defpoints
 62
     0
100
AcDbPoint
 10
-51.49999999999997
 20
13.48739999999998
 30
0.0
  0
POINT
  5
1BD
330
1B2
100
AcDbEntity
  8
Defpoints
 62
     0
100
AcDbPoint
 10
-51.49999999999997
 20
77.35060939653863
 30
0.0
  0
ENDBLK
  5
1B4
330
1B2
100
AcDbEntity
  8
0
100
AcDbBlockEnd
  0
BLOCK
  5
1CC
330
1CB
100
AcDbEntity
  8
0
100
AcDbBlockBegin
  2
SW_DOWELSYMBOL_0
 70
     0
 10
0.0
 20
0.0
 30
0.0
  3
SW_DOWELSYMBOL_0
  1
SW_DOWELSYMBOL_0
  0
CIRCLE
  5
1CE
330
1CB
100
AcDbEntity
  8
해칭선
 62
     0
100
AcDbCircle
 10
0.0
 20
0.0
 30
0.0
 40
3.000000000000004
  0
HATCH
  5
1CF
330
1CB
100
AcDbEntity
  8
0
  6
Continuous
 62
     0
370
     0
100
AcDbHatch
 10
0.0
 20
0.0
 30
0.0
210
0.0
220
0.0
230
1.0
  2
SOLID
 70
     1
 71
     0
 91
        1
 92
        0
 93
        3
 72
     2
 10
0.0000000000000104
 20
-0.0000000000000035
 40
3.000000000000004
 50
0.0
 51
90.0
 73
     1
 72
     1
 10
0.0000000000000104
 20
3.000000000000001
 11
0.0000000000000104
 21
-0.0000000000000036
 72
     1
 10
0.0000000000000104
 20
-0.0000000000000035
 11
3.000000000000015
 21
-0.0000000000000035
 97
        0
 75
     0
 76
     1
 98
        1
 10
0.0
 20
0.0
  0
HATCH
  5
1D0
330
1CB
100
AcDbEntity
  8
0
  6
Continuous
 62
     0
370
     0
100
AcDbHatch
 10
0.0
 20
0.0
 30
0.0
210
0.0
220
0.0
230
1.0
  2
SOLID
 70
     1
 71
     0
 91
        1
 92
        0
 93
        3
 72
     2
 10
0.0000000000000104
 20
-0.0000000000000035
 40
3.000000000000004
 50
180.0
 51
270.0000000000007
 73
     1
 72
     1
 10
0.0000000000000104
 20
-3.000000000000008
 11
0.0000000000000104
 21
-0.0000000000000036
 72
     1
 10
0.0000000000000104
 20
-0.0000000000000035
 11
-2.999999999999994
 21
-0.0000000000000035
 97
        0
 75
     0
 76
     1
 98
        1
 10
0.0
 20
0.0
  0
ENDBLK
  5
1CD
330
1CB
100
AcDbEntity
  8
0
100
AcDbBlockEnd
  0
ENDSEC
  0
SECTION
  2
ENTITIES
  0
LINE
  5
96
330
1F
100
AcDbEntity
  8
외형선
  6
Continuous
370
    15
100
AcDbLine
 10
12.00000000000004
 20
15.875
 30
0.0
 11
-13.58732499999994
 21
15.87499999999999
 31
0.0
  0
LINE
  5
97
330
1F
100
AcDbEntity
  8
외형선
  6
Continuous
370
    15
100
AcDbLine
 10
-48.83333333333324
 20
-15.87500000000001
 30
0.0
 11
12.00000000000004
 21
-15.875
 31
0.0
  0
LINE
  5
99
330
1F
100
AcDbEntity
  8
외형선
  6
Continuous
370
    15
100
AcDbLine
 10
-51.49999999999997
 20
-13.20833333333333
 30
0.0
 11
-48.83333333333326
 21
-15.875
 31
0.0
  0
LINE
  5
9A
330
1F
100
AcDbEntity
  8
외형선
  6
Continuous
 62
     1
370
    15
100
AcDbLine
 10
57.68188606701808
 20
-15.87500000000002
 30
0.0
 11
61.65784588441052
 21
-15.87500000000002
 31
0.0
  0
SPLINE
  5
9B
330
1F
100
AcDbEntity
  8
외형선
  6
Continuous
 62
     1
370
    15
100
AcDbSpline
210
0.0
220
0.0
230
1.0
 70
     8
 71
     3
 72
     9
 73
     5
 74
     0
 42
0.000000001
 43
0.00000001
 40
0.0
 40
0.0
 40
0.0
 40
0.0
 40
0.3657976737887576
 40
1.0
 40
1.0
 40
1.0
 40
1.0
 10
47.89073208047175
 20
15.38243267373829
 30
0.0
 10
47.81870205966636
 20
15.39545413577743
 30
0.0
 10
47.621789870315
 20
15.43105157931572
 30
0.0
 10
47.48053575629598
 20
15.50372807367246
 30
0.0
 10
47.39095206859818
 20
15.54981967545438
 30
0.0
  0
SPLINE
  5
9C
330
1F
100
AcDbEntity
  8
외형선
  6
Continuous
 62
     1
370
    15
100
AcDbSpline
210
0.0
220
0.0
230
1.0
 70
     8
 71
     3
 72
     9
 73
     5
 74
     0
 42
0.000000001
 43
0.00000001
 40
0.0
 40
0.0
 40
0.0
 40
0.0
 40
0.4977347529258042
 40
1.0
 40
1.0
 40
1.0
 40
1.0
 10
47.30166070770215
 20
15.64675264621966
 30
0.0
 10
47.21278379115329
 20
15.70561647596218
 30
0.0
 10
47.03422098028578
 20
15.82387992732155
 30
0.0
 10
46.82823552797819
 20
15.84909032397618
 30
0.0
 10
46.72477619388121
 20
15.86175263008077
 30
0.0
  0
LINE
  5
9D
330
1F
100
AcDbEntity
  8
외형선
  6
Continuous
 62
     1
370
    15
100
AcDbLine
 10
46.64844728717142
 20
15.87499999999998
 30
0.0
 11
39.74508345380951
 21
15.87499999999998
 31
0.0
  0
SPLINE
  5
9E
330
1F
100
AcDbEntity
  8
외형선
  6
Continuous
 62
     1
370
    15
100
AcDbSpline
210
0.0
220
0.0
230
1.0
 70
     8
 71
     3
 72
     9
 73
     5
 74
     0
 42
0.000000001
 43
0.00000001
 40
0.0
 40
0.0
 40
0.0
 40
0.0
 40
0.5028599567068203
 40
1.0
 40
1.0
 40
1.0
 40
1.0
 10
61.65951968585469
 20
-15.87499999999999
 30
0.0
 10
61.77438585715107
 20
-15.86490263520729
 30
0.0
 10
62.00281162413526
 20
-15.84482276076507
 30
0.0
 10
62.20434492121312
 20
-15.71097687105656
 30
0.0
 10
62.30453519324739
 20
-15.64443671965224
 30
0.0
  0
SPLINE
  5
9F
330
1F
100
AcDbEntity
  8
외형선
  6
Continuous
 62
     1
370
    15
100
AcDbSpline
210
0.0
220
0.0
230
1.0
 70
     8
 71
     3
 72
    11
 73
     7
 74
     0
 42
0.000000001
 43
0.00000001
 40
0.0
 40
0.0
 40
0.0
 40
0.0
 40
0.2712560198716472
 40
0.5303123910207417
 40
0.77302544566836
 40
1.0
 40
1.0
 40
1.0
 40
1.0
 10
62.2921212386063
 20
-15.6540605729311
 30
0.0
 10
62.45428213179721
 20
-15.55388228623614
 30
0.0
 10
62.77131078627218
 20
-15.35803119776739
 30
0.0
 10
63.33412105555338
 20
-15.31889819253675
 30
0.0
 10
63.79963539658472
 20
-15.4418138285059
 30
0.0
 10
63.99585925270397
 20
-15.57331481998741
 30
0.0
 10
64.09068360284745
 20
-15.63686211901144
 30
0.0
  0
SPLINE
  5
A0
330
1F
100
AcDbEntity
  8
외형선
  6
Continuous
 62
     1
370
    15
100
AcDbSpline
210
0.0
220
0.0
230
1.0
 70
     8
 71
     3
 72
     9
 73
     5
 74
     0
 42
0.000000001
 43
0.00000001
 40
0.0
 40
0.0
 40
0.0
 40
0.0
 40
0.4984202449305597
 40
1.0
 40
1.0
 40
1.0
 40
1.0
 10
64.10222745692013
 20
-15.64628974114254
 30
0.0
 10
64.20240884057665
 20
-15.71232739874359
 30
0.0
 10
64.40340666254616
 20
-15.84482132986443
 30
0.0
 10
64.63182853359895
 20
-15.86491927655365
 30
0.0
 10
64.74640031973408
 20
-15.87499999973143
 30
0.0
  0
LINE
  5
A1
330
1F
100
AcDbEntity
  8
외형선
  6
Continuous
 62
     1
370
    15
100
AcDbLine
 10
64.74615580756866
 20
-15.87500000000002
 30
0.0
 11
71.65940191520879
 21
-15.87500000000002
 31
0.0
  0
SPLINE
  5
A2
330
1F
100
AcDbEntity
  8
외형선
  6
Continuous
 62
     1
370
    15
100
AcDbSpline
210
0.0
220
0.0
230
1.0
 70
     8
 71
     3
 72
     9
 73
     5
 74
     0
 42
0.000000001
 43
0.00000001
 40
0.0
 40
0.0
 40
0.0
 40
0.0
 40
0.5015798423785639
 40
1.0
 40
1.0
 40
1.0
 40
1.0
 10
39.74647092894355
 20
15.87499998838637
 30
0.0
 10
39.63191000249033
 20
15.86493078080917
 30
0.0
 10
39.40350982215222
 20
15.84485579627739
 30
0.0
 10
39.20253392354532
 20
15.71240983124841
 30
0.0
 10
39.10236348448358
 20
15.64639609248234
 30
0.0
  0
SPLINE
  5
A3
330
1F
100
AcDbEntity
  8
외형선
  6
Continuous
 62
     1
370
    15
100
AcDbSpline
210
0.0
220
0.0
230
1.0
 70
     8
 71
     3
 72
    11
 73
     7
 74
     0
 42
0.000000001
 43
0.00000001
 40
0.0
 40
0.0
 40
0.0
 40
0.0
 40
0.2487633767465057
 40
0.500587820548188
 40
0.7521407062429882
 40
1.0
 40
1.0
 40
1.0
 40
1.0
 10
39.10397900117513
 20
15.64765071758279
 30
0.0
 10
38.97478419374589
 20
15.56416202199614
 30
0.0
 10
38.71480481927772
 20
15.39615729111197
 30
0.0
 10
38.19778787187109
 20
15.31317540519722
 30
0.0
 10
37.68045154094779
 20
15.3998262709832
 30
0.0
 10
37.41885060189929
 20
15.57124021438347
 30
0.0
 10
37.28901751679129
 20
15.65631330771077
 30
0.0
  0
SPLINE
  5
A4
330
1F
100
AcDbEntity
  8
외형선
  6
Continuous
 62
     1
370
    15
100
AcDbSpline
210
0.0
220
0.0
230
1.0
 70
     8
 71
     3
 72
     9
 73
     5
 74
     0
 42
0.000000001
 43
0.00000001
 40
0.0
 40
0.0
 40
0.0
 40
0.0
 40
0.4971802109527635
 40
0.9999999999999999
 40
0.9999999999999999
 40
0.9999999999999999
 40
0.9999999999999999
 10
37.29949645853863
 20
15.64846151419297
 30
0.0
 10
37.20015145420589
 20
15.71382719173485
 30
0.0
 10
37.00033456257546
 20
15.84529999797673
 30
0.0
 10
36.77360699687505
 20
15.86506283339923
 30
0.0
 10
36.65960389011839
 20
15.87499997813735
 30
0.0
  0
LINE
  5
A5
330
1F
100
AcDbEntity
  8
외형선
  6
Continuous
 62
     1
370
    15
100
AcDbLine
 10
36.65914288268795
 20
15.87499999999998
 30
0.0
 11
29.74609305975849
 21
15.87499999999998
 31
0.0
  0
SPLINE
  5
A6
330
1F
100
AcDbEntity
  8
외형선
  6
Continuous
 62
     1
370
    15
100
AcDbSpline
210
0.0
220
0.0
230
1.0
 70
     8
 71
     3
 72
     9
 73
     5
 74
     0
 42
0.000000001
 43
0.00000001
 40
0.0
 40
0.0
 40
0.0
 40
0.0
 40
0.5028193248694652
 40
1.0
 40
1.0
 40
1.0
 40
1.0
 10
71.65953327261678
 20
-15.8749999994388
 30
0.0
 10
71.77353065976176
 20
-15.86507318474075
 30
0.0
 10
72.0002470596825
 20
-15.84533087531254
 30
0.0
 10
72.2000525778624
 20
-15.71389206012466
 30
0.0
 10
72.29939202028588
 20
-15.64854322125121
 30
0.0
  0
LINE
  5
A8
330
1F
100
AcDbEntity
  8
외형선
  6
Continuous
 62
     1
370
    15
100
AcDbLine
 10
16.34236545876607
 20
-15.87500000000002
 30
0.0
 11
17.93856254213209
 21
-15.87500000000002
 31
0.0
  0
SPLINE
  5
A9
330
1F
100
AcDbEntity
  8
외형선
  6
Continuous
 62
     1
370
    15
100
AcDbSpline
210
0.0
220
0.0
230
1.0
 70
     8
 71
     3
 72
    11
 73
     7
 74
     0
 42
0.000000001
 43
0.00000001
 40
0.0
 40
0.0
 40
0.0
 40
0.0
 40
0.2457331235047843
 40
0.4998353072463358
 40
0.7540070196458815
 40
1.0
 40
1.0
 40
1.0
 40
1.0
 10
72.29087660366635
 20
-15.65497130679033
 30
0.0
 10
72.43000920361806
 20
-15.56537797914082
 30
0.0
 10
72.71301291452592
 20
-15.38313999748737
 30
0.0
 10
73.25043332927476
 20
-15.30545173847758
 30
0.0
 10
73.78777045386867
 20
-15.40273140741995
 30
0.0
 10
74.07014064600168
 20
-15.59906102769557
 30
0.0
 10
74.20901707237141
 20
-15.69562063920574
 30
0.0
  0
LINE
  5
AA
330
1F
100
AcDbEntity
  8
외형선
  6
Continuous
 62
     1
370
    15
100
AcDbLine
 10
88.20000000000002
 20
12.20833333333331
 30
0.0
 11
86.00083399431375
 21
14.40749933901959
 31
0.0
  0
LINE
  5
AB
330
1F
100
AcDbEntity
  8
외형선
  6
Continuous
 62
     1
370
    15
100
AcDbLine
 10
74.69983954531092
 20
-15.86735215329095
 30
0.0
 11
74.76938397780022
 21
-15.87336473020299
 31
0.0
  0
LINE
  5
AC
330
1F
100
AcDbEntity
  8
외형선
  6
Continuous
 62
     1
370
    15
100
AcDbLine
 10
74.7461250477319
 20
-15.87500000000002
 30
0.0
 11
75.52699299323382
 21
-15.87500000000002
 31
0.0
  0
SPLINE
  5
AD
330
1F
100
AcDbEntity
  8
외형선
  6
Continuous
 62
     1
370
    15
100
AcDbSpline
210
0.0
220
0.0
230
1.0
 70
     8
 71
     3
 72
     9
 73
     5
 74
     0
 42
0.000000001
 43
0.00000001
 40
0.0
 40
0.0
 40
0.0
 40
0.0
 40
0.5018272713142384
 40
1.0
 40
1.0
 40
1.0
 40
1.0
 10
29.70829331716372
 20
15.87052246483298
 30
0.0
 10
29.60152323280678
 20
15.85851747432192
 30
0.0
 10
29.38876061415249
 20
15.83459491929692
 30
0.0
 10
29.2035222900677
 20
15.71344967867814
 30
0.0
 10
29.11124160870119
 20
15.6530984235918
 30
0.0
  0
LINE
  5
AE
330
1F
100
AcDbEntity
  8
외형선
  6
Continuous
 62
     1
370
    15
100
AcDbLine
 10
28.32681853050962
 20
15.37132181573629
 30
0.0
 11
28.24312213672943
 21
15.37110371091378
 31
0.0
  0
LINE
  5
B5
330
1F
100
AcDbEntity
  8
외형선
  6
Continuous
370
    15
100
AcDbLine
 10
-48.83333333333326
 20
13.48739999999998
 30
0.0
 11
-48.83333333333326
 21
-15.87500000000002
 31
0.0
  0
LINE
  5
B8
330
1F
100
AcDbEntity
  8
외형선
  6
Continuous
370
    15
100
AcDbLine
 10
-51.49999999999997
 20
13.48739999999998
 30
0.0
 11
-51.49999999999997
 21
-13.20833333333333
 31
0.0
  0
SPLINE
  5
BA
330
1F
100
AcDbEntity
  8
외형선
  6
Continuous
 62
     1
370
    15
100
AcDbSpline
210
0.0
220
0.0
230
1.0
 70
     8
 71
     3
 72
    14
 73
    10
 74
     0
 42
0.000000001
 43
0.00000001
 40
0.0
 40
0.0
 40
0.0
 40
0.0
 40
0.0000586126099046
 40
0.0000586126099046
 40
0.0000586126099046
 40
0.0001171912303297
 40
0.0001171912303297
 40
0.0001171912303297
 40
0.0002029549218776
 40
0.0002029549218776
 40
0.0002029549218776
 40
0.0002029549218776
 10
30.60282880043145
 20
-8.698813443583571
 30
0.0
 10
30.55662455127312
 20
-8.691711271923165
 30
0.0
 10
30.5074295586483
 20
-8.681064753301936
 30
0.0
 10
30.45644288209571
 20
-8.667280824510922
 30
0.0
 10
30.40547472531712
 20
-8.653501902424857
 30
0.0
 10
30.35237008454192
 20
-8.636497468497954
 30
0.0
 10
30.29819276187079
 20
-8.616700533529642
 30
0.0
 10
30.21914929792521
 20
-8.587817262111823
 30
0.0
 10
30.13690704528995
 20
-8.552632618925859
 30
0.0
 10
30.05461051098646
 20
-8.51260560411512
 30
0.0
  0
SPLINE
  5
BB
330
1F
100
AcDbEntity
  8
외형선
  6
Continuous
 62
     1
370
    15
100
AcDbSpline
210
0.0
220
0.0
230
1.0
 70
     8
 71
     3
 72
    12
 73
     8
 74
     0
 42
0.000000001
 43
0.00000001
 40
0.0
 40
0.0
 40
0.0
 40
0.0
 40
0.2499999999999999
 40
0.2499999999999999
 40
0.5000000000000001
 40
0.5000000000000001
 40
1.0
 40
1.0
 40
1.0
 40
1.0
 10
30.05461048176232
 20
-8.512605355163426
 30
0.0
 10
29.96479459399869
 20
-7.747432191282199
 30
0.0
 10
29.87916221335456
 20
-6.953179677823432
 30
0.0
 10
29.69852939849809
 20
-5.276965167228716
 30
0.0
 10
29.60559062209652
 20
-4.400549956629439
 30
0.0
 10
29.32496431309455
 20
-1.712061604685446
 30
0.0
 10
29.13575121940545
 20
0.1577055144977705
 30
0.0
 10
28.96048611797599
 20
1.942607076621651
 30
0.0
  0
SPLINE
  5
BC
330
1F
100
AcDbEntity
  8
외형선
  6
Continuous
 62
     1
370
    15
100
AcDbSpline
210
0.0
220
0.0
230
1.0
 70
     8
 71
     3
 72
     8
 73
     4
 74
     0
 42
0.000000001
 43
0.00000001
 40
0.0
 40
0.0
 40
0.0
 40
0.0
 40
1.0
 40
1.0
 40
1.0
 40
1.0
 10
28.96048561532745
 20
1.942612195599551
 30
0.0
 10
29.14867444127849
 20
1.83497646644127
 30
0.0
 10
29.34003278807872
 20
1.7252150759337
 30
0.0
 10
29.50321173149332
 20
1.636909242327459
 30
0.0
  0
SPLINE
  5
BD
330
1F
100
AcDbEntity
  8
외형선
  6
Continuous
 62
     1
370
    15
100
AcDbSpline
210
0.0
220
0.0
230
1.0
 70
     8
 71
     3
 72
    12
 73
     8
 74
     0
 42
0.000000001
 43
0.00000001
 40
0.0
 40
0.0
 40
0.0
 40
0.0
 40
0.2499999999999998
 40
0.2499999999999998
 40
0.4999999999999999
 40
0.4999999999999999
 40
1.0
 40
1.0
 40
1.0
 40
1.0
 10
30.60282881550569
 20
-8.698813568197995
 30
0.0
 10
30.51194872485625
 20
-7.947533071762108
 30
0.0
 10
30.42586940221443
 20
-7.167111363599806
 30
0.0
 10
30.24574616649056
 20
-5.520948456261449
 30
0.0
 10
30.15281157415812
 20
-4.657669718507493
 30
0.0
 10
29.87143491146003
 20
-2.001746712026781
 30
0.0
 10
29.68067505439532
 20
-0.1442190984080548
 30
0.0
 10
29.50321219293976
 20
1.636904610987363
 30
0.0
  0
SPLINE
  5
BE
330
1F
100
AcDbEntity
  8
외형선
  6
Continuous
 62
     1
370
    15
100
AcDbSpline
210
0.0
220
0.0
230
1.0
 70
     8
 71
     3
 72
     8
 73
     4
 74
     0
 42
0.000000001
 43
0.00000001
 40
0.0
 40
0.0
 40
0.0
 40
0.0
 40
1.0
 40
1.0
 40
1.0
 40
1.0
 10
82.87118150888521
 20
-6.072799739338396
 30
0.0
 10
82.68274253576355
 20
-5.972156006177345
 30
0.0
 10
82.49116512484865
 20
-5.854157940430441
 30
0.0
 10
82.32771035484492
 20
-5.738176049286131
 30
0.0
  0
SPLINE
  5
BF
330
1F
100
AcDbEntity
  8
외형선
  6
Continuous
 62
     1
370
    15
100
AcDbSpline
210
0.0
220
0.0
230
1.0
 70
     8
 71
     3
 72
    12
 73
     8
 74
     0
 42
0.000000001
 43
0.00000001
 40
0.0
 40
0.0
 40
0.0
 40
0.0
 40
0.5
 40
0.5
 40
0.75
 40
0.75
 40
1.0
 40
1.0
 40
1.0
 40
1.0
 10
82.32770960016964
 20
-5.738169096399559
 30
0.0
 10
82.14511230421759
 20
-4.055882262304496
 30
0.0
 10
81.95282487985796
 20
-2.227339658774667
 30
0.0
 10
81.67519640968621
 20
0.4949772708721662
 30
0.0
 10
81.5849618309382
 20
1.396835454132078
 30
0.0
 10
81.40987586185912
 20
3.160483982137615
 30
0.0
 10
81.31876842730036
 20
4.04303578019735
 30
0.0
 10
81.22598119192202
 20
4.906068714582424
 30
0.0
  0
SPLINE
  5
C0
330
1F
100
AcDbEntity
  8
외형선
  6
Continuous
 62
     1
370
    15
100
AcDbSpline
210
0.0
220
0.0
230
1.0
 70
     8
 71
     3
 72
    14
 73
    10
 74
     0
 42
0.000000001
 43
0.00000001
 40
0.0
 40
0.0
 40
0.0
 40
0.0
 40
0.0000587615093834
 40
0.0000587615093834
 40
0.0000587615093834
 40
0.0001174882549143
 40
0.0001174882549143
 40
0.0001174882549143
 40
0.0002033640277833
 40
0.0002033640277833
 40
0.0002033640277833
 40
0.0002033640277833
 10
81.22598112298436
 20
4.90606935579914
 30
0.0
 10
81.27229486315225
 20
4.887030193655993
 30
0.0
 10
81.32160008604947
 20
4.865434757922477
 30
0.0
 10
81.37269129772865
 20
4.841853489813333
 30
0.0
 10
81.42376358744522
 20
4.818280955180223
 30
0.0
 10
81.47696712043866
 20
4.792565805875253
 30
0.0
 10
81.53123577016923
 20
4.765271911203686
 30
0.0
 10
81.61031864328588
 20
4.725497941888327
 30
0.0
 10
81.69257409485388
 20
4.6818993935972
 30
0.0
 10
81.77487506038862
 20
4.636308666741063
 30
0.0
  0
SPLINE
  5
C1
330
1F
100
AcDbEntity
  8
외형선
  6
Continuous
 62
     1
370
    15
100
AcDbSpline
210
0.0
220
0.0
230
1.0
 70
     8
 71
     3
 72
    12
 73
     8
 74
     0
 42
0.000000001
 43
0.00000001
 40
0.0
 40
0.0
 40
0.0
 40
0.0
 40
0.5000000000000002
 40
0.5000000000000002
 40
0.7500000000000001
 40
0.7500000000000001
 40
1.0
 40
1.0
 40
1.0
 40
1.0
 10
82.87118171331008
 20
-6.072801637389959
 30
0.0
 10
82.69044693859729
 20
-4.39470892430695
 30
0.0
 10
82.49925654893778
 20
-2.562430140343363
 30
0.0
 10
82.22170833696657
 20
0.1802966823401398
 30
0.0
 10
82.13076616249359
 20
1.092937827975311
 30
0.0
 10
81.95578327336264
 20
2.875830755880032
 30
0.0
 10
81.86681185288262
 20
3.762813948658884
 30
0.0
 10
81.77487495360636
 20
4.636309681281664
 30
0.0
  0
SPLINE
  5
C2
330
1F
100
AcDbEntity
  8
외형선
  6
Continuous
 62
     1
370
    15
100
AcDbSpline
210
0.0
220
0.0
230
1.0
 70
     8
 71
     3
 72
     8
 73
     4
 74
     0
 42
0.000000001
 43
0.00000001
 40
0.0
 40
0.0
 40
0.0
 40
0.0
 40
1.0
 40
1.0
 40
1.0
 40
1.0
 10
22.72273170160706
 20
-4.682228761005206
 30
0.0
 10
22.53418101345413
 20
-4.578397117595189
 30
0.0
 10
22.34246091530456
 20
-4.462398266701753
 30
0.0
 10
22.17890780336111
 20
-4.355203696716576
 30
0.0
  0
SPLINE
  5
C3
330
1F
100
AcDbEntity
  8
외형선
  6
Continuous
 62
     1
370
    15
100
AcDbSpline
210
0.0
220
0.0
230
1.0
 70
     8
 71
     3
 72
    12
 73
     8
 74
     0
 42
0.000000001
 43
0.00000001
 40
0.0
 40
0.0
 40
0.0
 40
0.0
 40
0.5
 40
0.5
 40
0.75
 40
0.75
 40
1.0
 40
1.0
 40
1.0
 40
1.0
 10
22.17890780335769
 20
-4.355203696689463
 30
0.0
 10
21.99245506806686
 20
-2.607439267726598
 30
0.0
 10
21.80088279898312
 20
-0.7548330783324101
 30
0.0
 10
21.53089380718495
 20
1.936327193999483
 30
0.0
 10
21.44491388915722
 20
2.815180389341439
 30
0.0
 10
21.26339080675228
 20
4.56770216366694
 30
0.0
 10
21.17003885723935
 20
5.433847493084027
 30
0.0
 10
21.07614296203499
 20
6.269724043008718
 30
0.0
  0
SPLINE
  5
C4
330
1F
100
AcDbEntity
  8
외형선
  6
Continuous
 62
     1
370
    15
100
AcDbSpline
210
0.0
220
0.0
230
1.0
 70
     8
 71
     3
 72
    14
 73
    10
 74
     0
 42
0.000000001
 43
0.00000001
 40
0.0
 40
0.0
 40
0.0
 40
0.0
 40
0.000058820410227
 40
0.000058820410227
 40
0.000058820410227
 40
0.0001176062885219
 40
0.0001176062885219
 40
0.0001176062885219
 40
0.0002033863455414
 40
0.0002033863455414
 40
0.0002033863455414
 40
0.0002033863455414
 10
21.07614266437715
 20
6.269726692821004
 30
0.0
 10
21.12251003820765
 20
6.254633758995568
 30
0.0
 10
21.17187483758146
 20
6.236617694599951
 30
0.0
 10
21.22303275686279
 20
6.216200940029767
 30
0.0
 10
21.27417186085579
 20
6.19579169450468
 30
0.0
 10
21.32744994534829
 20
6.172847208126384
 30
0.0
 10
21.38180100359059
 20
6.147892982423144
 30
0.0
 10
21.46083740803285
 20
6.111604962667724
 30
0.0
 10
21.54305220355085
 20
6.07063299755293
 30
0.0
 10
21.62532843702459
 20
6.026686478528794
 30
0.0
  0
SPLINE
  5
C5
330
1F
100
AcDbEntity
  8
외형선
  6
Continuous
 62
     1
370
    15
100
AcDbSpline
210
0.0
220
0.0
230
1.0
 70
     8
 71
     3
 72
    12
 73
     8
 74
     0
 42
0.000000001
 43
0.00000001
 40
0.0
 40
0.0
 40
0.0
 40
0.0
 40
0.5
 40
0.5
 40
0.75
 40
0.75
 40
1.0
 40
1.0
 40
1.0
 40
1.0
 10
22.72273137729429
 20
-4.682225696766949
 30
0.0
 10
22.53771783258975
 20
-2.934142756700497
 30
0.0
 10
22.34672261677635
 20
-1.072570871309508
 30
0.0
 10
22.07610397871316
 20
1.645858203037173
 30
0.0
 10
21.99056984773449
 20
2.532887488780032
 30
0.0
 10
21.81114148124075
 20
4.301416100180327
 30
0.0
 10
21.71863690759829
 20
5.177985779692944
 30
0.0
 10
21.62533055611722
 20
6.026667204020353
 30
0.0
  0
SPLINE
  5
C6
330
1F
100
AcDbEntity
  8
외형선
  6
Continuous
 62
     1
370
    15
100
AcDbSpline
210
0.0
220
0.0
230
1.0
 70
     8
 71
     3
 72
    14
 73
    10
 74
     0
 42
0.000000001
 43
0.00000001
 40
0.0
 40
0.0
 40
0.0
 40
0.0
 40
0.0000587067160619
 40
0.0000587067160619
 40
0.0000587067160619
 40
0.0001173789978033
 40
0.0001173789978033
 40
0.0001173789978033
 40
0.0002032019645589
 40
0.0002032019645589
 40
0.0002032019645589
 40
0.0002032019645589
 10
80.14269273388796
 20
-4.558472167939123
 30
0.0
 10
80.09639996131382
 20
-4.53853729493497
 30
0.0
 10
80.04711279336945
 20
-4.5161552743116
 30
0.0
 10
79.99603393117154
 20
-4.491907379784936
 30
0.0
 10
79.94497383061145
 20
-4.4676683916864
 30
0.0
 10
79.89177674353928
 20
-4.441401914498836
 30
0.0
 10
79.83750794581411
 20
-4.41367973064269
 30
0.0
 10
79.75840112018795
 20
-4.373269512318103
 30
0.0
 10
79.6761038585026
 20
-4.329286734116875
 30
0.0
 10
79.59375120042046
 20
-4.283587344622976
 30
0.0
  0
SPLINE
  5
C7
330
1F
100
AcDbEntity
  8
외형선
  6
Continuous
 62
     1
370
    15
100
AcDbSpline
210
0.0
220
0.0
230
1.0
 70
     8
 71
     3
 72
    12
 73
     8
 74
     0
 42
0.000000001
 43
0.00000001
 40
0.0
 40
0.0
 40
0.0
 40
0.0
 40
0.5000000000000001
 40
0.5000000000000001
 40
0.7500000000000002
 40
0.7500000000000002
 40
1.0
 40
1.0
 40
1.0
 40
1.0
 10
79.5937508543648
 20
-4.28358405932008
 30
0.0
 10
79.40794688647904
 20
-2.519641864147707
 30
0.0
 10
79.2174646710416
 20
-0.6543491608026148
 30
0.0
 10
78.94936304921079
 20
2.05127620506228
 30
0.0
 10
78.86366391166045
 20
2.935498836087258
 30
0.0
 10
78.68267556047545
 20
4.698227573164867
 30
0.0
 10
78.58967557454501
 20
5.56881028288376
 30
0.0
 10
78.49619420200808
 20
6.408543123707091
 30
0.0
  0
SPLINE
  5
C8
330
1F
100
AcDbEntity
  8
외형선
  6
Continuous
 62
     1
370
    15
100
AcDbSpline
210
0.0
220
0.0
230
1.0
 70
     8
 71
     3
 72
     8
 73
     4
 74
     0
 42
0.000000001
 43
0.00000001
 40
0.0
 40
0.0
 40
0.0
 40
0.0
 40
1.0
 40
1.0
 40
1.0
 40
1.0
 10
78.496195191327
 20
6.408534236819338
 30
0.0
 10
78.68478122980149
 20
6.309115757738831
 30
0.0
 10
78.87656549171463
 20
6.191196681239533
 30
0.0
 10
79.04017384914476
 20
6.073619486757075
 30
0.0
  0
SPLINE
  5
C9
330
1F
100
AcDbEntity
  8
외형선
  6
Continuous
 62
     1
370
    15
100
AcDbSpline
210
0.0
220
0.0
230
1.0
 70
     8
 71
     3
 72
    12
 73
     8
 74
     0
 42
0.000000001
 43
0.00000001
 40
0.0
 40
0.0
 40
0.0
 40
0.0
 40
0.5
 40
0.5
 40
0.75
 40
0.75
 40
1.0
 40
1.0
 40
1.0
 40
1.0
 10
80.14269273386267
 20
-4.558472167686376
 30
0.0
 10
79.9566816514403
 20
-2.819134325762846
 30
0.0
 10
79.76487397252852
 20
-0.968740195031633
 30
0.0
 10
79.49361334055975
 20
1.728630267219513
 30
0.0
 10
79.40773821461127
 20
2.608786021303283
 30
0.0
 10
79.22705079982696
 20
4.364079983537279
 30
0.0
 10
79.1339682762749
 20
5.233212716169491
 30
0.0
 10
79.04017384915082
 20
6.073619486732587
 30
0.0
  0
SPLINE
  5
CA
330
1F
100
AcDbEntity
  8
외형선
  6
Continuous
 62
     1
370
    15
100
AcDbSpline
210
0.0
220
0.0
230
1.0
 70
     8
 71
     3
 72
    10
 73
     6
 74
     0
 42
0.000000001
 43
0.00000001
 40
0.0
 40
0.0
 40
0.0
 40
0.0
 40
0.5
 40
0.5
 40
1.0
 40
1.0
 40
1.0
 40
1.0
 10
32.78743446655496
 20
-9.709492112491812
 30
0.0
 10
32.45391084274088
 20
-9.432395005681485
 30
0.0
 10
32.06037685873545
 20
-9.207897739685677
 30
0.0
 10
31.29051300100032
 20
-8.865200112592035
 30
0.0
 10
30.91761158469399
 20
-8.747199499201852
 30
0.0
 10
30.6028288004315
 20
-8.69881344358361
 30
0.0
  0
SPLINE
  5
CB
330
1F
100
AcDbEntity
  8
외형선
  6
Continuous
 62
     1
370
    15
100
AcDbSpline
210
0.0
220
0.0
230
1.0
 70
     8
 71
     3
 72
    10
 73
     6
 74
     0
 42
0.000000001
 43
0.00000001
 40
0.0
 40
0.0
 40
0.0
 40
0.0
 40
0.5
 40
0.5
 40
1.0
 40
1.0
 40
1.0
 40
1.0
 10
29.50321173149472
 20
1.636909242326715
 30
0.0
 10
29.83640261468415
 20
1.456599834296797
 30
0.0
 10
30.22993152124479
 20
1.250917843706921
 30
0.0
 10
30.99931219527693
 20
0.8221563838102457
 30
0.0
 10
31.37147973756919
 20
0.6009721458532649
 30
0.0
 10
31.68573086847726
 20
0.3953294648824668
 30
0.0
  0
SPLINE
  5
CC
330
1F
100
AcDbEntity
  8
외형선
  6
Continuous
 62
     1
370
    15
100
AcDbSpline
210
0.0
220
0.0
230
1.0
 70
     8
 71
     3
 72
    12
 73
     8
 74
     0
 42
0.000000001
 43
0.00000001
 40
0.0
 40
0.0
 40
0.0
 40
0.0
 40
0.25
 40
0.25
 40
0.5
 40
0.5
 40
1.0
 40
1.0
 40
1.0
 40
1.0
 10
32.78743446655416
 20
-9.709492112485442
 30
0.0
 10
32.69464961168465
 20
-8.99562012482555
 30
0.0
 10
32.60354467926005
 20
-8.237010428139744
 30
0.0
 10
32.42846364231933
 20
-6.668229489580406
 30
0.0
 10
32.33822980032116
 20
-5.839683427198559
 30
0.0
 10
32.06060695925332
 20
-3.257095008971337
 30
0.0
 10
31.86832403810932
 20
-1.41143122023939
 30
0.0
 10
31.68573086853623
 20
0.3953294642987756
 30
0.0
  0
SPLINE
  5
CD
330
1F
100
AcDbEntity
  8
외형선
  6
Continuous
 62
     1
370
    15
100
AcDbSpline
210
0.0
220
0.0
230
1.0
 70
     8
 71
     3
 72
    10
 73
     6
 74
     0
 42
0.000000001
 43
0.00000001
 40
0.0
 40
0.0
 40
0.0
 40
0.0
 40
0.5
 40
0.5
 40
1.0
 40
1.0
 40
1.0
 40
1.0
 10
82.32771035484365
 20
-5.738176049285252
 30
0.0
 10
81.99412052521855
 20
-5.501472162909942
 30
0.0
 10
81.60054686201273
 20
-5.277124884593012
 30
0.0
 10
80.83053320812076
 20
-4.872981021024419
 30
0.0
 10
80.45764433196562
 20
-4.69409852516385
 30
0.0
 10
80.14269273388965
 20
-4.558472167938732
 30
0.0
  0
SPLINE
  5
CE
330
1F
100
AcDbEntity
  8
외형선
  6
Continuous
 62
     1
370
    15
100
AcDbSpline
210
0.0
220
0.0
230
1.0
 70
     8
 71
     3
 72
    10
 73
     6
 74
     0
 42
0.000000001
 43
0.00000001
 40
0.0
 40
0.0
 40
0.0
 40
0.0
 40
0.5
 40
0.5
 40
1.0
 40
1.0
 40
1.0
 40
1.0
 10
79.04017384914842
 20
6.073619486754463
 30
0.0
 10
79.37402208255645
 20
5.833699355022143
 30
0.0
 10
79.76810474927976
 20
5.609670702488301
 30
0.0
 10
80.53848058022835
 20
5.210011174349951
 30
0.0
 10
80.91123221390957
 20
5.03545980218654
 30
0.0
 10
81.2259811229833
 20
4.90606935579867
 30
0.0
  0
SPLINE
  5
CF
330
1F
100
AcDbEntity
  8
외형선
  6
Continuous
 62
     1
370
    15
100
AcDbSpline
210
0.0
220
0.0
230
1.0
 70
     8
 71
     3
 72
    14
 73
    10
 74
     0
 42
0.000000001
 43
0.00000001
 40
0.0
 40
0.0
 40
0.0
 40
0.0
 40
0.0000588590612327
 40
0.0000588590612327
 40
0.0000588590612327
 40
0.0001176834646763
 40
0.0001176834646763
 40
0.0001176834646763
 40
0.0002034748806765
 40
0.0002034748806765
 40
0.0002034748806765
 40
0.0002034748806765
 10
19.99244065362869
 20
-3.141605607832906
 30
0.0
 10
19.94605353614288
 20
-3.117750585218843
 30
0.0
 10
19.89666806202328
 20
-3.091841201688764
 30
0.0
 10
19.84548929837229
 20
-3.064508940538454
 30
0.0
 10
19.79432941418689
 20
-3.037186762056157
 30
0.0
 10
19.74103026379092
 20
-3.008258275647588
 30
0.0
 10
19.68665797357166
 20
-2.978332958526679
 30
0.0
 10
19.60763133882035
 20
-2.934838430405947
 30
0.0
 10
19.52542945994946
 20
-2.888728892748345
 30
0.0
 10
19.44316396660476
 20
-2.841948806916857
 30
0.0
  0
SPLINE
  5
D0
330
1F
100
AcDbEntity
  8
외형선
  6
Continuous
 62
     1
370
    15
100
AcDbSpline
210
0.0
220
0.0
230
1.0
 70
     8
 71
     3
 72
    12
 73
     8
 74
     0
 42
0.000000001
 43
0.00000001
 40
0.0
 40
0.0
 40
0.0
 40
0.0
 40
0.25
 40
0.25
 40
0.5
 40
0.5
 40
1.0
 40
1.0
 40
1.0
 40
1.0
 10
19.44316364071109
 20
-2.841945661107308
 30
0.0
 10
19.34957878920809
 20
-1.938577030838043
 30
0.0
 10
19.25593695312028
 20
-1.02072387459892
 30
0.0
 10
19.07268129766106
 20
0.8027759995464411
 30
0.0
 10
18.98467980497982
 20
1.702926964792998
 30
0.0
 10
18.72125009394199
 20
4.363936930499633
 30
0.0
 10
18.53202211846435
 20
6.131416951146011
 30
0.0
 10
18.34527342802019
 20
7.733950169098795
 30
0.0
  0
SPLINE
  5
D1
330
1F
100
AcDbEntity
  8
외형선
  6
Continuous
 62
     1
370
    15
100
AcDbSpline
210
0.0
220
0.0
230
1.0
 70
     8
 71
     3
 72
     8
 73
     4
 74
     0
 42
0.000000001
 43
0.00000001
 40
0.0
 40
0.0
 40
0.0
 40
0.0
 40
1.0
 40
1.0
 40
1.0
 40
1.0
 10
18.34527361723428
 20
7.73394854540929
 30
0.0
 10
18.53388878871372
 20
7.638971882964293
 30
0.0
 10
18.72567186298765
 20
7.520502625653128
 30
0.0
 10
18.88929595406595
 20
7.3955314236015
 30
0.0
  0
SPLINE
  5
D2
330
1F
100
AcDbEntity
  8
외형선
  6
Continuous
 62
     1
370
    15
100
AcDbSpline
210
0.0
220
0.0
230
1.0
 70
     8
 71
     3
 72
    10
 73
     6
 74
     0
 42
0.000000001
 43
0.00000001
 40
0.0
 40
0.0
 40
0.0
 40
0.0
 40
0.5
 40
0.5
 40
1.0
 40
1.0
 40
1.0
 40
1.0
 10
19.99244065362062
 20
-3.141605607756459
 30
0.0
 10
19.80450021361396
 20
-1.354555941726346
 30
0.0
 10
19.61629030272266
 20
0.4967318675317026
 30
0.0
 10
19.26656289340768
 20
4.021607378376653
 30
0.0
 10
19.07714829644976
 20
5.786946714024834
 30
0.0
 10
18.88929595407082
 20
7.395531423571084
 30
0.0
  0
SPLINE
  5
D3
330
1F
100
AcDbEntity
  8
외형선
  6
Continuous
 62
     1
370
    15
100
AcDbSpline
210
0.0
220
0.0
230
1.0
 70
     8
 71
     3
 72
     8
 73
     4
 74
     0
 42
0.000000001
 43
0.00000001
 40
0.0
 40
0.0
 40
0.0
 40
0.0
 40
1.0
 40
1.0
 40
1.0
 40
1.0
 10
18.34527191046232
 20
7.733949404849707
 30
0.0
 10
16.93391265136865
 20
8.444635538525137
 30
0.0
 10
15.51677734862286
 20
9.12561328610277
 30
0.0
 10
14.1166666666667
 20
9.765507380124724
 30
0.0
  0
SPLINE
  5
D4
330
1F
100
AcDbEntity
  8
외형선
  6
Continuous
 62
     1
370
    15
100
AcDbSpline
210
0.0
220
0.0
230
1.0
 70
     8
 71
     3
 72
     8
 73
     4
 74
     0
 42
0.000000001
 43
0.00000001
 40
0.0
 40
0.0
 40
0.0
 40
0.0
 40
1.0
 40
1.0
 40
1.0
 40
1.0
 10
19.44316396681349
 20
-2.841948807035542
 30
0.0
 10
17.67163467110532
 20
-1.834572699061003
 30
0.0
 10
15.88040496657052
 20
-0.8056388459007815
 30
0.0
 10
14.1166666666667
 20
0.2166821354752568
 30
0.0
  0
SPLINE
  5
D5
330
1F
100
AcDbEntity
  8
외형선
  6
Continuous
 62
     1
370
    15
100
AcDbSpline
210
0.0
220
0.0
230
1.0
 70
     8
 71
     3
 72
    12
 73
     8
 74
     0
 42
0.000000001
 43
0.00000001
 40
0.0
 40
0.0
 40
0.0
 40
0.0
 40
0.2499999999999999
 40
0.2499999999999999
 40
0.4999999999999998
 40
0.4999999999999998
 40
1.0
 40
1.0
 40
1.0
 40
1.0
 10
33.33135803983926
 20
-10.04660423285474
 30
0.0
 10
33.23868171594509
 20
-9.337685053475724
 30
0.0
 10
33.14745145382919
 20
-8.58205317933896
 30
0.0
 10
32.97167780371883
 20
-7.014769995001675
 30
0.0
 10
32.88366918814352
 20
-6.193323661729086
 30
0.0
 10
32.60865180740885
 20
-3.615568231202813
 30
0.0
 10
32.41720617399439
 20
-1.764080222882976
 30
0.0
 10
32.23434433720719
 20
0.0588956840951662
 30
0.0
  0
SPLINE
  5
D6
330
1F
100
AcDbEntity
  8
외형선
  6
Continuous
 62
     1
370
    15
100
AcDbSpline
210
0.0
220
0.0
230
1.0
 70
     8
 71
     3
 72
    10
 73
     6
 74
     0
 42
0.000000001
 43
0.00000001
 40
0.0
 40
0.0
 40
0.0
 40
0.0
 40
0.5
 40
0.5
 40
1.0
 40
1.0
 40
1.0
 40
1.0
 10
39.57809540259029
 20
-4.134825935155866
 30
0.0
 10
38.35607131477423
 20
-3.452593711556533
 30
0.0
 10
37.13584580842916
 20
-2.758407359678889
 30
0.0
 10
34.67848929397979
 20
-1.354534350878955
 30
0.0
 10
33.45451667000563
 20
-0.6473638221856055
 30
0.0
 10
32.23434551772862
 20
0.0588962956661842
 30
0.0
  0
SPLINE
  5
D7
330
1F
100
AcDbEntity
  8
외형선
  6
Continuous
 62
     1
370
    15
100
AcDbSpline
210
0.0
220
0.0
230
1.0
 70
     8
 71
     3
 72
    12
 73
     8
 74
     0
 42
0.000000001
 43
0.00000001
 40
0.0
 40
0.0
 40
0.0
 40
0.0
 40
0.5000000000000001
 40
0.5000000000000001
 40
0.7499999999999999
 40
0.7499999999999999
 40
1.0
 40
1.0
 40
1.0
 40
1.0
 10
40.67530154634269
 20
-12.93449147763022
 30
0.0
 10
40.49119581423565
 20
-11.8754087933512
 30
0.0
 10
40.29989777184386
 20
-10.53878650332837
 30
0.0
 10
40.02713114657966
 20
-8.296050384071194
 30
0.0
 10
39.94092530917568
 20
-7.517579302110779
 30
0.0
 10
39.76311083066636
 20
-5.880435628598989
 30
0.0
 10
39.67115332919492
 20
-5.019833137131532
 30
0.0
 10
39.57809487124472
 20
-4.134822138499633
 30
0.0
  0
SPLINE
  5
D8
330
1F
100
AcDbEntity
  8
외형선
  6
Continuous
 62
     1
370
    15
100
AcDbSpline
210
0.0
220
0.0
230
1.0
 70
     8
 71
     3
 72
    10
 73
     6
 74
     0
 42
0.000000001
 43
0.00000001
 40
0.0
 40
0.0
 40
0.0
 40
0.0
 40
0.4999999999999996
 40
0.4999999999999996
 40
1.0
 40
1.0
 40
1.0
 40
1.0
 10
40.67530705754049
 20
-12.93449501240191
 30
0.0
 10
39.44928728840316
 20
-12.52453962657841
 30
0.0
 10
38.23573597022302
 20
-12.07759896468569
 30
0.0
 10
35.78374234925545
 20
-11.11165416970906
 30
0.0
 10
34.55214698972129
 20
-10.5932986034489
 30
0.0
 10
33.33135800301752
 20
-10.04660395095727
 30
0.0
  0
SPLINE
  5
D9
330
1F
100
AcDbEntity
  8
외형선
  6
Continuous
 62
     1
370
    15
100
AcDbSpline
210
0.0
220
0.0
230
1.0
 70
     8
 71
     3
 72
    12
 73
     8
 74
     0
 42
0.000000001
 43
0.00000001
 40
0.0
 40
0.0
 40
0.0
 40
0.0
 40
0.2499999999999999
 40
0.2499999999999999
 40
0.4999999999999999
 40
0.4999999999999999
 40
1.0
 40
1.0
 40
1.0
 40
1.0
 10
72.25018753796574
 20
-0.0989090797396041
 30
0.0
 10
72.15851203512833
 20
0.8134171192912711
 30
0.0
 10
72.07050934080253
 20
1.713940539637817
 30
0.0
 10
71.89471209425461
 20
3.489129568239461
 30
0.0
 10
71.80347107437322
 20
4.375232394275933
 30
0.0
 10
71.5254150609363
 20
6.968306053353294
 30
0.0
 10
71.33442483908676
 20
8.605433752844792
 30
0.0
 10
71.15437538408986
 20
10.01289774912819
 30
0.0
  0
SPLINE
  5
DA
330
1F
100
AcDbEntity
  8
외형선
  6
Continuous
 62
     1
370
    15
100
AcDbSpline
210
0.0
220
0.0
230
1.0
 70
     8
 71
     3
 72
    10
 73
     6
 74
     0
 42
0.000000001
 43
0.00000001
 40
0.0
 40
0.0
 40
0.0
 40
0.0
 40
0.5
 40
0.5
 40
1.0
 40
1.0
 40
1.0
 40
1.0
 10
78.49618500096095
 20
6.408539608956118
 30
0.0
 10
77.26932109645749
 20
7.0553156123028
 30
0.0
 10
76.05339539721119
 20
7.681131547692787
 30
0.0
 10
73.60944080197385
 20
8.885671578142802
 30
0.0
 10
72.37829547877685
 20
9.464755443075735
 30
0.0
 10
71.15437077877556
 20
10.0129009662999
 30
0.0
  0
SPLINE
  5
DB
330
1F
100
AcDbEntity
  8
외형선
  6
Continuous
 62
     1
370
    15
100
AcDbSpline
210
0.0
220
0.0
230
1.0
 70
     8
 71
     3
 72
    10
 73
     6
 74
     0
 42
0.000000001
 43
0.00000001
 40
0.0
 40
0.0
 40
0.0
 40
0.0
 40
0.5
 40
0.5
 40
1.0
 40
1.0
 40
1.0
 40
1.0
 10
79.59375177676874
 20
-4.283587664451923
 30
0.0
 10
78.36706919164772
 20
-3.60287320729533
 30
0.0
 10
77.13751823884621
 20
-2.908844752235616
 30
0.0
 10
74.70531618218244
 20
-1.512782453009715
 30
0.0
 10
73.47704940199988
 20
-0.8058658093722738
 30
0.0
 10
72.25018960548975
 20
-0.0989088719915921
 30
0.0
  0
SPLINE
  5
DC
330
1F
100
AcDbEntity
  8
외형선
  6
Continuous
 62
     1
370
    15
100
AcDbSpline
210
0.0
220
0.0
230
1.0
 70
     8
 71
     3
 72
    10
 73
     6
 74
     0
 42
0.000000001
 43
0.00000001
 40
0.0
 40
0.0
 40
0.0
 40
0.0
 40
0.5
 40
0.5
 40
1.0
 40
1.0
 40
1.0
 40
1.0
 10
28.96048735710682
 20
1.942611199378397
 30
0.0
 10
27.73489053367429
 20
2.643598667243979
 30
0.0
 10
26.52120850878119
 20
3.336554478871027
 30
0.0
 10
24.07769506361123
 20
4.70169652142637
 30
0.0
 10
22.84754517493622
 20
5.373858991329238
 30
0.0
 10
21.62535160826769
 20
6.026674101982371
 30
0.0
  0
SPLINE
  5
DD
330
1F
100
AcDbEntity
  8
외형선
  6
Continuous
 62
     1
370
    15
100
AcDbSpline
210
0.0
220
0.0
230
1.0
 70
     8
 71
     3
 72
    10
 73
     6
 74
     0
 42
0.000000001
 43
0.00000001
 40
0.0
 40
0.0
 40
0.0
 40
0.0
 40
0.5
 40
0.5
 40
1.0
 40
1.0
 40
1.0
 40
1.0
 10
30.05461051099773
 20
-8.51260560412059
 30
0.0
 10
28.82963226363236
 20
-7.916806244339472
 30
0.0
 10
27.60414621969173
 20
-7.295602880061915
 30
0.0
 10
25.17511665269998
 20
-6.017638352384533
 30
0.0
 10
23.94740125551832
 20
-5.356633366272821
 30
0.0
 10
22.72273170166653
 20
-4.682228761037953
 30
0.0
  0
SPLINE
  5
DE
330
1F
100
AcDbEntity
  8
외형선
  6
Continuous
 62
     1
370
    15
100
AcDbSpline
210
0.0
220
0.0
230
1.0
 70
     8
 71
     3
 72
     8
 73
     4
 74
     0
 42
0.000000001
 43
0.00000001
 40
0.0
 40
0.0
 40
0.0
 40
0.0
 40
1.0
 40
1.0
 40
1.0
 40
1.0
 10
84.53333333333374
 20
3.091186193760777
 30
0.0
 10
83.61019217158362
 20
3.612980279329491
 30
0.0
 10
82.69101188626264
 20
4.128813480590227
 30
0.0
 10
81.77487511365419
 20
4.636308637234547
 30
0.0
  0
LINE
  5
DF
330
1F
100
AcDbEntity
  8
외형선
  6
Continuous
 62
     1
370
    15
100
AcDbLine
 10
84.53333333333339
 20
-6.947277204870011
 30
0.0
 11
84.53333333333339
 21
3.091186193760982
 31
0.0
  0
SPLINE
  5
E0
330
1F
100
AcDbEntity
  8
외형선
  6
Continuous
 62
     1
370
    15
100
AcDbSpline
210
0.0
220
0.0
230
1.0
 70
     8
 71
     3
 72
     8
 73
     4
 74
     0
 42
0.000000001
 43
0.00000001
 40
0.0
 40
0.0
 40
0.0
 40
0.0
 40
1.0
 40
1.0
 40
1.0
 40
1.0
 10
84.53333333333374
 20
-6.947277204870206
 30
0.0
 10
83.97824590001339
 20
-6.659655242614606
 30
0.0
 10
83.42369147938608
 20
-6.367890850899568
 30
0.0
 10
82.87118150888521
 20
-6.072799739338403
 30
0.0
  0
SPLINE
  5
E1
330
1F
100
AcDbEntity
  8
외형선
  6
Continuous
 62
     1
370
    15
100
AcDbSpline
210
0.0
220
0.0
230
1.0
 70
     8
 71
     3
 72
    10
 73
     6
 74
     0
 42
0.000000001
 43
0.00000001
 40
0.0
 40
0.0
 40
0.0
 40
0.0
 40
0.5
 40
0.5
 40
1.0
 40
1.0
 40
1.0
 40
1.0
 10
22.17890780336056
 20
-4.355203696716177
 30
0.0
 10
21.84485056782389
 20
-4.136258784642663
 30
0.0
 10
21.45055840038162
 20
-3.916693755380929
 30
0.0
 10
20.68002770530025
 20
-3.499749963098173
 30
0.0
 10
20.30741504350043
 20
-3.303584226046107
 30
0.0
 10
19.99244065362869
 20
-3.141605607832906
 30
0.0
  0
SPLINE
  5
E2
330
1F
100
AcDbEntity
  8
외형선
  6
Continuous
 62
     1
370
    15
100
AcDbSpline
210
0.0
220
0.0
230
1.0
 70
     8
 71
     3
 72
    10
 73
     6
 74
     0
 42
0.000000001
 43
0.00000001
 40
0.0
 40
0.0
 40
0.0
 40
0.0
 40
0.5
 40
0.5
 40
1.0
 40
1.0
 40
1.0
 40
1.0
 10
18.88929595406739
 20
7.395531423600418
 30
0.0
 10
19.22343390356515
 20
7.140326820631087
 30
0.0
 10
19.61774067057952
 20
6.913942675789607
 30
0.0
 10
20.38821182892589
 20
6.529482668003584
 30
0.0
 10
20.76100342147512
 20
6.372306919948797
 30
0.0
 10
21.07614266437572
 20
6.269726692820631
 30
0.0
  0
SPLINE
  5
E3
330
1F
100
AcDbEntity
  8
외형선
  6
Continuous
 62
     1
370
    15
100
AcDbSpline
210
0.0
220
0.0
230
1.0
 70
     8
 71
     3
 72
    14
 73
    10
 74
     0
 42
0.000000001
 43
0.00000001
 40
0.0
 40
0.0
 40
0.0
 40
0.0
 40
0.0000587366643157
 40
0.0000587366643157
 40
0.0000587366643157
 40
0.0001174387171814
 40
0.0001174387171814
 40
0.0001174387171814
 40
0.0002032871345618
 40
0.0002032871345618
 40
0.0002032871345618
 40
0.0002032871345618
 10
74.14889144019425
 20
-15.67628140493459
 30
0.0
 10
74.19520886325631
 20
-15.71168537528966
 30
0.0
 10
74.24451908471701
 20
-15.74243234950785
 30
0.0
 10
74.29561736514239
 20
-15.76817160238246
 30
0.0
 10
74.34669679385561
 20
-15.79390135926263
 30
0.0
 10
74.39990963275491
 20
-15.81480797234781
 30
0.0
 10
74.45418968861598
 20
-15.83065390156993
 30
0.0
 10
74.53329686148889
 20
-15.853747589342
 30
0.0
 10
74.61558264650832
 20
-15.86632232598229
 30
0.0
 10
74.69791593652614
 20
-15.86775843870388
 30
0.0
  0
SPLINE
  5
E4
330
1F
100
AcDbEntity
  8
외형선
  6
Continuous
 62
     1
370
    15
100
AcDbSpline
210
0.0
220
0.0
230
1.0
 70
     8
 71
     3
 72
    10
 73
     6
 74
     0
 42
0.000000001
 43
0.00000001
 40
0.0
 40
0.0
 40
0.0
 40
0.0
 40
0.5000000000000001
 40
0.5000000000000001
 40
1.0
 40
1.0
 40
1.0
 40
1.0
 10
71.962731977515
 20
-15.56267352445212
 30
0.0
 10
72.29654980650568
 20
-15.33574375963177
 30
0.0
 10
72.69061185563548
 20
-15.24841746542013
 30
0.0
 10
73.46109483622493
 20
-15.29949328251545
 30
0.0
 10
73.83399992482808
 20
-15.43558559031109
 30
0.0
 10
74.14889144019284
 20
-15.67628140493348
 30
0.0
  0
SPLINE
  5
E5
330
1F
100
AcDbEntity
  8
외형선
  6
Continuous
 62
     1
370
    15
100
AcDbSpline
210
0.0
220
0.0
230
1.0
 70
     8
 71
     3
 72
     8
 73
     4
 74
     0
 42
0.000000001
 43
0.00000001
 40
0.0
 40
0.0
 40
0.0
 40
0.0
 40
1.0
 40
1.0
 40
1.0
 40
1.0
 10
71.41869252104391
 20
-15.69841428401805
 30
0.0
 10
71.60727781625852
 20
-15.71459459653137
 30
0.0
 10
71.7990853450787
 20
-15.67392070356328
 30
0.0
 10
71.96273197751356
 20
-15.56267352445307
 30
0.0
  0
SPLINE
  5
E6
330
1F
100
AcDbEntity
  8
외형선
  6
Continuous
 62
     1
370
    15
100
AcDbSpline
210
0.0
220
0.0
230
1.0
 70
     8
 71
     3
 72
    10
 73
     6
 74
     0
 42
0.000000001
 43
0.00000001
 40
0.0
 40
0.0
 40
0.0
 40
0.0
 40
0.5
 40
0.5
 40
1.0
 40
1.0
 40
1.0
 40
1.0
 10
71.41869242454825
 20
-15.69841427573885
 30
0.0
 10
70.19370405662255
 20
-15.59331225778389
 30
0.0
 10
68.98078708612601
 20
-15.44204108736606
 30
0.0
 10
66.52956283972318
 20
-15.04776658691866
 30
0.0
 10
65.29883056591085
 20
-14.80483516775008
 30
0.0
 10
64.07934817028612
 20
-14.51956362068373
 30
0.0
  0
SPLINE
  5
E7
330
1F
100
AcDbEntity
  8
외형선
  6
Continuous
 62
     1
370
    15
100
AcDbSpline
210
0.0
220
0.0
230
1.0
 70
     8
 71
     3
 72
    14
 73
    10
 74
     0
 42
0.000000001
 43
0.00000001
 40
0.0
 40
0.0
 40
0.0
 40
0.0
 40
0.0000586199809473
 40
0.0000586199809473
 40
0.0000586199809473
 40
0.0001172057026607
 40
0.0001172057026607
 40
0.0001172057026607
 40
0.000203049518095
 40
0.000203049518095
 40
0.000203049518095
 40
0.000203049518095
 10
63.53154075274068
 20
-14.21735703813495
 30
0.0
 10
63.57768408054535
 20
-14.26117857957671
 30
0.0
 10
63.62681749295211
 20
-14.30121419105007
 30
0.0
 10
63.67774300196376
 20
-14.3368776978942
 30
0.0
 10
63.72864987282389
 20
-14.37252815230437
 30
0.0
 10
63.78169314925361
 20
-14.40405745906756
 30
0.0
 10
63.83581093611485
 20
-14.43099826852752
 30
0.0
 10
63.91483136850431
 20
-14.47033606365774
 30
0.0
 10
63.99705806910059
 20
-14.50031362907013
 30
0.0
 10
64.07934746760836
 20
-14.51956345630747
 30
0.0
  0
SPLINE
  5
E8
330
1F
100
AcDbEntity
  8
외형선
  6
Continuous
 62
     1
370
    15
100
AcDbSpline
210
0.0
220
0.0
230
1.0
 70
     8
 71
     3
 72
    10
 73
     6
 74
     0
 42
0.000000001
 43
0.00000001
 40
0.0
 40
0.0
 40
0.0
 40
0.0
 40
0.5
 40
0.5
 40
1.0
 40
1.0
 40
1.0
 40
1.0
 10
61.35044748539806
 20
-13.64491653598207
 30
0.0
 10
61.68360201202918
 20
-13.50496323637151
 30
0.0
 10
62.07695157907678
 20
-13.50238151932827
 30
0.0
 10
62.84582540399184
 20
-13.71093570612801
 30
0.0
 10
63.21768410613419
 20
-13.91929266565749
 30
0.0
 10
63.53154075273923
 20
-14.21735703813389
 30
0.0
  0
SPLINE
  5
E9
330
1F
100
AcDbEntity
  8
외형선
  6
Continuous
 62
     1
370
    15
100
AcDbSpline
210
0.0
220
0.0
230
1.0
 70
     8
 71
     3
 72
     8
 73
     4
 74
     0
 42
0.000000001
 43
0.00000001
 40
0.0
 40
0.0
 40
0.0
 40
0.0
 40
1.0
 40
1.0
 40
1.0
 40
1.0
 10
60.80733597994735
 20
-13.65414264081442
 30
0.0
 10
60.99566146506588
 20
-13.70949660150939
 30
0.0
 10
61.18715032708938
 20
-13.71351526208451
 30
0.0
 10
61.35044748539661
 20
-13.64491653598267
 30
0.0
  0
SPLINE
  5
EA
330
1F
100
AcDbEntity
  8
외형선
  6
Continuous
 62
     1
370
    15
100
AcDbSpline
210
0.0
220
0.0
230
1.0
 70
     8
 71
     3
 72
    10
 73
     6
 74
     0
 42
0.000000001
 43
0.00000001
 40
0.0
 40
0.0
 40
0.0
 40
0.0
 40
0.5
 40
0.5
 40
1.0
 40
1.0
 40
1.0
 40
1.0
 10
60.80733609274252
 20
-13.65414267396795
 30
0.0
 10
59.58063209216878
 20
-13.29358114654419
 30
0.0
 10
58.35518501613723
 20
-12.89243455386762
 30
0.0
 10
55.92148198418992
 20
-12.01831095498455
 30
0.0
 10
54.69184444549956
 20
-11.54272063044613
 30
0.0
 10
53.46574438298909
 20
-11.03466140566541
 30
0.0
  0
SPLINE
  5
EB
330
1F
100
AcDbEntity
  8
외형선
  6
Continuous
 62
     1
370
    15
100
AcDbSpline
210
0.0
220
0.0
230
1.0
 70
     8
 71
     3
 72
    14
 73
    10
 74
     0
 42
0.000000001
 43
0.00000001
 40
0.0
 40
0.0
 40
0.0
 40
0.0
 40
0.0000587493705263
 40
0.0000587493705263
 40
0.0000587493705263
 40
0.0001174642582957
 40
0.0001174642582957
 40
0.0001174642582957
 40
0.0002032727539075
 40
0.0002032727539075
 40
0.0002032727539075
 40
0.0002032727539075
 10
52.91660881858391
 20
-10.66668531900235
 30
0.0
 10
52.96293904273102
 20
-10.71252291324495
 30
0.0
 10
53.01226500643435
 20
-10.75597816075738
 30
0.0
 10
53.06338304447948
 20
-10.79632024417213
 30
0.0
 10
53.11448229151324
 20
-10.83664749782077
 30
0.0
 10
53.16771917393179
 20
-10.8741420394762
 30
0.0
 10
53.22202785328297
 20
-10.90817990462238
 30
0.0
 10
53.3011229184458
 20
-10.95775259160181
 30
0.0
 10
53.38340324150866
 20
-11.00054169196189
 30
0.0
 10
53.46574002175412
 20
-11.03465959849984
 30
0.0
  0
SPLINE
  5
EC
330
1F
100
AcDbEntity
  8
외형선
  6
Continuous
 62
     1
370
    15
100
AcDbSpline
210
0.0
220
0.0
230
1.0
 70
     8
 71
     3
 72
    10
 73
     6
 74
     0
 42
0.000000001
 43
0.00000001
 40
0.0
 40
0.0
 40
0.0
 40
0.0
 40
0.5
 40
0.5
 40
1.0
 40
1.0
 40
1.0
 40
1.0
 10
50.73043460828231
 20
-9.716620108713961
 30
0.0
 10
51.06428048195446
 20
-9.685024527822307
 30
0.0
 10
51.45803687806907
 20
-9.76901335553606
 30
0.0
 10
52.22838916618745
 20
-10.10521690787458
 30
0.0
 10
52.60146009648085
 20
-10.35488757755342
 30
0.0
 10
52.91660881858249
 20
-10.66668531900156
 30
0.0
  0
SPLINE
  5
ED
330
1F
100
AcDbEntity
  8
외형선
  6
Continuous
 62
     1
370
    15
100
AcDbSpline
210
0.0
220
0.0
230
1.0
 70
     8
 71
     3
 72
     8
 73
     4
 74
     0
 42
0.000000001
 43
0.00000001
 40
0.0
 40
0.0
 40
0.0
 40
0.0
 40
1.0
 40
1.0
 40
1.0
 40
1.0
 10
50.18662408612542
 20
-9.59664609591475
 30
0.0
 10
50.37517085221816
 20
-9.683430293351751
 30
0.0
 10
50.5668661404967
 20
-9.732100428114283
 30
0.0
 10
50.73043460828079
 20
-9.716620108713546
 30
0.0
  0
SPLINE
  5
EE
330
1F
100
AcDbEntity
  8
외형선
  6
Continuous
 62
     1
370
    15
100
AcDbSpline
210
0.0
220
0.0
230
1.0
 70
     8
 71
     3
 72
    10
 73
     6
 74
     0
 42
0.000000001
 43
0.00000001
 40
0.0
 40
0.0
 40
0.0
 40
0.0
 40
0.5
 40
0.5
 40
1.0
 40
1.0
 40
1.0
 40
1.0
 10
50.18662586167511
 20
-9.596646913163408
 30
0.0
 10
48.96635271001169
 20
-9.034980311060966
 30
0.0
 10
47.73677526337276
 20
-8.443371041562056
 30
0.0
 10
45.29166482418729
 20
-7.215883373675422
 30
0.0
 10
44.07990717482525
 20
-6.580810969948995
 30
0.0
 10
42.85538042002538
 20
-5.925934525840035
 30
0.0
  0
SPLINE
  5
EF
330
1F
100
AcDbEntity
  8
외형선
  6
Continuous
 62
     1
370
    15
100
AcDbSpline
210
0.0
220
0.0
230
1.0
 70
     8
 71
     3
 72
    14
 73
    10
 74
     0
 42
0.000000001
 43
0.00000001
 40
0.0
 40
0.0
 40
0.0
 40
0.0
 40
0.0000586293850505
 40
0.0000586293850505
 40
0.0000586293850505
 40
0.0001172245991237
 40
0.0001172245991237
 40
0.0001172245991237
 40
0.0002030237146939
 40
0.0002030237146939
 40
0.0002030237146939
 40
0.0002030237146939
 10
42.30694053534242
 20
-5.546583803687738
 30
0.0
 10
42.35316868623083
 20
-5.587567419642069
 30
0.0
 10
42.40238737344646
 20
-5.627941078601885
 30
0.0
 10
42.4533958449496
 20
-5.666936998014342
 30
0.0
 10
42.50438569975987
 20
-5.705918684985901
 30
0.0
 10
42.55751021039688
 20
-5.743790725040719
 30
0.0
 10
42.61170480962356
 20
-5.779864219598599
 30
0.0
 10
42.69078402353499
 20
-5.832501634274259
 30
0.0
 10
42.77305666558276
 20
-5.881907812257139
 30
0.0
 10
42.85537884957232
 20
-5.925933685962323
 30
0.0
  0
SPLINE
  5
F0
330
1F
100
AcDbEntity
  8
외형선
  6
Continuous
 62
     1
370
    15
100
AcDbSpline
210
0.0
220
0.0
230
1.0
 70
     8
 71
     3
 72
    10
 73
     6
 74
     0
 42
0.000000001
 43
0.00000001
 40
0.0
 40
0.0
 40
0.0
 40
0.0
 40
0.5
 40
0.5
 40
1.0
 40
1.0
 40
1.0
 40
1.0
 10
40.12205356632578
 20
-4.365254797681316
 30
0.0
 10
40.45560822992893
 20
-4.445581355440146
 30
0.0
 10
40.84936070515312
 20
-4.601428061415396
 30
0.0
 10
41.6194030855296
 20
-5.013648412206798
 30
0.0
 10
41.99222446269559
 20
-5.26757193736487
 30
0.0
 10
42.30694053534094
 20
-5.546583803687178
 30
0.0
  0
SPLINE
  5
F1
330
1F
100
AcDbEntity
  8
외형선
  6
Continuous
 62
     1
370
    15
100
AcDbSpline
210
0.0
220
0.0
230
1.0
 70
     8
 71
     3
 72
     8
 73
     4
 74
     0
 42
0.000000001
 43
0.00000001
 40
0.0
 40
0.0
 40
0.0
 40
0.0
 40
1.0
 40
1.0
 40
1.0
 40
1.0
 10
39.57809526222113
 20
-4.134825856790483
 30
0.0
 10
39.76662475296952
 20
-4.240078196088302
 30
0.0
 10
39.95840619317139
 20
-4.325845274726819
 30
0.0
 10
40.12205356632439
 20
-4.365254797680976
 30
0.0
  0
SPLINE
  5
F2
330
1F
100
AcDbEntity
  8
외형선
  6
Continuous
 62
     1
370
    15
100
AcDbSpline
210
0.0
220
0.0
230
1.0
 70
     8
 71
     3
 72
    14
 73
    10
 74
     0
 42
0.000000001
 43
0.00000001
 40
0.0
 40
0.0
 40
0.0
 40
0.0
 40
0.0000586748182104
 40
0.0000586748182104
 40
0.0000586748182104
 40
0.0001173148777971
 40
0.0001173148777971
 40
0.0001173148777971
 40
0.0002032462645282
 40
0.0002032462645282
 40
0.0002032462645282
 40
0.0002032462645282
 10
31.68573086847869
 20
0.3953294648825359
 30
0.0
 10
31.73196948000195
 20
0.3650713970419432
 30
0.0
 10
31.78119754509569
 20
0.3335602800784943
 30
0.0
 10
31.83221129602485
 20
0.3014905497598809
 30
0.0
 10
31.88320613528266
 20
0.2694327082396785
 30
0.0
 10
31.93633134841069
 20
0.2365990349223688
 30
0.0
 10
31.99052201023179
 20
0.2036432558180405
 30
0.0
 10
32.06965726923869
 20
0.1555175450857475
 30
0.0
 10
32.15197838397232
 20
0.1065720837755878
 30
0.0
 10
32.23434419931192
 20
0.0588970587928295
 30
0.0
  0
SPLINE
  5
F8
330
1F
100
AcDbEntity
  8
외형선
  6
Continuous
 62
     1
370
    15
100
AcDbSpline
210
0.0
220
0.0
230
1.0
 70
     8
 71
     3
 72
    14
 73
    10
 74
     0
 42
0.000000001
 43
0.00000001
 40
0.0
 40
0.0
 40
0.0
 40
0.0
 40
0.0000588136318674
 40
0.0000588136318674
 40
0.0000588136318674
 40
0.0001175921907481
 40
0.0001175921907481
 40
0.0001175921907481
 40
0.0002035184607126
 40
0.0002035184607126
 40
0.0002035184607126
 40
0.0002035184607126
 10
27.07011592302678
 20
15.66449255931925
 30
0.0
 10
27.02376045312643
 20
15.69626757897517
 30
0.0
 10
26.97441209896625
 20
15.72324723120165
 30
0.0
 10
26.92327854525372
 20
15.7451660315664
 30
0.0
 10
26.87216407664499
 20
15.76707665095112
 30
0.0
 10
26.81891896663956
 20
15.78408514664493
 30
0.0
 10
26.76461005523186
 20
15.79603440858435
 30
0.0
 10
26.68549092738529
 20
15.81344251267909
 30
0.0
 10
26.60320458708189
 20
15.82027714326037
 30
0.0
 10
26.52087308310222
 20
15.81617187863836
 30
0.0
  0
SPLINE
  5
F9
330
1F
100
AcDbEntity
  8
외형선
  6
Continuous
 62
     1
370
    15
100
AcDbSpline
210
0.0
220
0.0
230
1.0
 70
     8
 71
     3
 72
    10
 73
     6
 74
     0
 42
0.000000001
 43
0.00000001
 40
0.0
 40
0.0
 40
0.0
 40
0.0
 40
0.5
 40
0.5
 40
1.0
 40
1.0
 40
1.0
 40
1.0
 10
29.25571088563206
 20
15.69548931987468
 30
0.0
 10
28.92191618505046
 20
15.44829263441816
 30
0.0
 10
28.52783516523755
 20
15.33746382732361
 30
0.0
 10
27.75751006967292
 20
15.33876791202163
 30
0.0
 10
27.38486371169739
 20
15.4487441871578
 30
0.0
 10
27.07011592302845
 20
15.66449255931793
 30
0.0
  0
SPLINE
  5
FA
330
1F
100
AcDbEntity
  8
외형선
  6
Continuous
 62
     1
370
    15
100
AcDbSpline
210
0.0
220
0.0
230
1.0
 70
     8
 71
     3
 72
     8
 73
     4
 74
     0
 42
0.000000001
 43
0.00000001
 40
0.0
 40
0.0
 40
0.0
 40
0.0
 40
1.0
 40
1.0
 40
1.0
 40
1.0
 10
29.79930546323246
 20
15.86630661567502
 30
0.0
 10
29.61083679511172
 20
15.86989974931523
 30
0.0
 10
29.41918655628679
 20
15.81655368628931
 30
0.0
 10
29.25571088563328
 20
15.6954893198756
 30
0.0
  0
SPLINE
  5
FB
330
1F
100
AcDbEntity
  8
외형선
  6
Continuous
 62
     1
370
    15
100
AcDbSpline
210
0.0
220
0.0
230
1.0
 70
     8
 71
     3
 72
    10
 73
     6
 74
     0
 42
0.000000001
 43
0.00000001
 40
0.0
 40
0.0
 40
0.0
 40
0.0
 40
0.5
 40
0.5
 40
1.0
 40
1.0
 40
1.0
 40
1.0
 10
37.13026247394996
 20
15.16763578655229
 30
0.0
 10
35.90734430748359
 20
15.3758713752485
 30
0.0
 10
34.67831404084358
 20
15.53932303496161
 30
0.0
 10
32.24063759319839
 20
15.77262450432056
 30
0.0
 10
31.02446126965349
 20
15.84294916142078
 30
0.0
 10
29.79930541173735
 20
15.86630661665676
 30
0.0
  0
SPLINE
  5
FC
330
1F
100
AcDbEntity
  8
외형선
  6
Continuous
 62
     1
370
    15
100
AcDbSpline
210
0.0
220
0.0
230
1.0
 70
     8
 71
     3
 72
    14
 73
    10
 74
     0
 42
0.000000001
 43
0.00000001
 40
0.0
 40
0.0
 40
0.0
 40
0.0
 40
0.0000587134246466
 40
0.0000587134246466
 40
0.0000587134246466
 40
0.0001173926408841
 40
0.0001173926408841
 40
0.0001173926408841
 40
0.0002031532424405
 40
0.0002031532424405
 40
0.0002031532424405
 40
0.0002031532424405
 10
37.67888519455855
 20
14.89500285540021
 30
0.0
 10
37.63260628037219
 20
14.93693545140176
 30
0.0
 10
37.58333340952866
 20
14.97474778344071
 30
0.0
 10
37.53226782519359
 20
15.00791669939083
 30
0.0
 10
37.48122087980806
 20
15.04107350867931
 30
0.0
 10
37.42803591372305
 20
15.06982134741142
 30
0.0
 10
37.37377763132329
 20
15.09375472148589
 30
0.0
 10
37.29475266002549
 20
15.12861270289709
 30
0.0
 10
37.21253844619486
 20
15.15362602529654
 30
0.0
 10
37.13026542159055
 20
15.16763528463499
 30
0.0
  0
SPLINE
  5
FD
330
1F
100
AcDbEntity
  8
외형선
  6
Continuous
 62
     1
370
    15
100
AcDbSpline
210
0.0
220
0.0
230
1.0
 70
     8
 71
     3
 72
    10
 73
     6
 74
     0
 42
0.000000001
 43
0.00000001
 40
0.0
 40
0.0
 40
0.0
 40
0.0
 40
0.5
 40
0.5
 40
1.0
 40
1.0
 40
1.0
 40
1.0
 10
39.86463545745679
 20
14.45349426937468
 30
0.0
 10
39.53070113763629
 20
14.28466132064245
 30
0.0
 10
39.13675180399763
 20
14.25652407869722
 30
0.0
 10
38.36678858897096
 20
14.42040106730532
 30
0.0
 10
37.99386579381643
 20
14.60960389024906
 30
0.0
 10
37.67888519456022
 20
14.89500285539895
 30
0.0
  0
SPLINE
  5
FE
330
1F
100
AcDbEntity
  8
외형선
  6
Continuous
 62
     1
370
    15
100
AcDbSpline
210
0.0
220
0.0
230
1.0
 70
     8
 71
     3
 72
     8
 73
     4
 74
     0
 42
0.000000001
 43
0.00000001
 40
0.0
 40
0.0
 40
0.0
 40
0.0
 40
1.0
 40
1.0
 40
1.0
 40
1.0
 10
40.40862271877603
 20
14.50146151660184
 30
0.0
 10
40.22001777919829
 20
14.54574214221995
 30
0.0
 10
40.02825029715243
 20
14.53621585323843
 30
0.0
 10
39.86463545745799
 20
14.45349426937531
 30
0.0
  0
SPLINE
  5
FF
330
1F
100
AcDbEntity
  8
외형선
  6
Continuous
 62
     1
370
    15
100
AcDbSpline
210
0.0
220
0.0
230
1.0
 70
     8
 71
     3
 72
    10
 73
     6
 74
     0
 42
0.000000001
 43
0.00000001
 40
0.0
 40
0.0
 40
0.0
 40
0.0
 40
0.5
 40
0.5
 40
1.0
 40
1.0
 40
1.0
 40
1.0
 10
47.75157074461565
 20
12.28349791072698
 30
0.0
 10
46.52445594158233
 20
12.73139226109594
 30
0.0
 10
45.30749470111928
 20
13.14154134992549
 30
0.0
 10
42.86432107746413
 20
13.88269619405922
 30
0.0
 10
41.63309545514015
 20
14.2139800847451
 30
0.0
 10
40.40862254883305
 20
14.50146155650105
 30
0.0
  0
SPLINE
  5
100
330
1F
100
AcDbEntity
  8
외형선
  6
Continuous
 62
     1
370
    15
100
AcDbSpline
210
0.0
220
0.0
230
1.0
 70
     8
 71
     3
 72
    14
 73
    10
 74
     0
 42
0.000000001
 43
0.00000001
 40
0.0
 40
0.0
 40
0.0
 40
0.0
 40
0.0000585787738706
 40
0.0000585787738706
 40
0.0000585787738706
 40
0.0001171232780005
 40
0.0001171232780005
 40
0.0001171232780005
 40
0.0002029834017089
 40
0.0002029834017089
 40
0.0002029834017089
 40
0.0002029834017089
 10
48.29992176218208
 20
11.93044599595587
 30
0.0
 10
48.25373962845535
 20
11.97628292021115
 30
0.0
 10
48.20456761590752
 20
12.01927519827816
 30
0.0
 10
48.15360566583612
 20
12.05872633078348
 30
0.0
 10
48.10266237914125
 20
12.0981630154245
 30
0.0
 10
48.04958466084699
 20
12.13433375586286
 30
0.0
 10
47.99543624421779
 20
12.16665498684271
 30
0.0
 10
47.9163010051376
 20
12.21389087110636
 30
0.0
 10
47.83396182667718
 20
12.25342533528144
 30
0.0
 10
47.75157217632028
 20
12.28349738815776
 30
0.0
  0
SPLINE
  5
101
330
1F
100
AcDbEntity
  8
외형선
  6
Continuous
 62
     1
370
    15
100
AcDbSpline
210
0.0
220
0.0
230
1.0
 70
     8
 71
     3
 72
    10
 73
     6
 74
     0
 42
0.000000001
 43
0.00000001
 40
0.0
 40
0.0
 40
0.0
 40
0.0
 40
0.5
 40
0.5
 40
1.0
 40
1.0
 40
1.0
 40
1.0
 10
50.4818602807661
 20
11.08487667295096
 30
0.0
 10
50.14892138099719
 20
11.01913776241882
 30
0.0
 10
49.75569547705226
 20
11.07688261390399
 30
0.0
 10
48.98657294093645
 20
11.37799676468042
 30
0.0
 10
48.61425682754425
 20
11.61846057174179
 30
0.0
 10
48.29992176218376
 20
11.93044599595486
 30
0.0
  0
SPLINE
  5
102
330
1F
100
AcDbEntity
  8
외형선
  6
Continuous
 62
     1
370
    15
100
AcDbSpline
210
0.0
220
0.0
230
1.0
 70
     8
 71
     3
 72
     8
 73
     4
 74
     0
 42
0.000000001
 43
0.00000001
 40
0.0
 40
0.0
 40
0.0
 40
0.0
 40
1.0
 40
1.0
 40
1.0
 40
1.0
 10
51.02456243520905
 20
11.00289590772662
 30
0.0
 10
50.83645091124694
 20
11.08146571932137
 30
0.0
 10
50.64510070590015
 20
11.11710855606941
 30
0.0
 10
50.48186028076736
 20
11.08487667295108
 30
0.0
  0
SPLINE
  5
103
330
1F
100
AcDbEntity
  8
외형선
  6
Continuous
 62
     1
370
    15
100
AcDbSpline
210
0.0
220
0.0
230
1.0
 70
     8
 71
     3
 72
    10
 73
     6
 74
     0
 42
0.000000001
 43
0.00000001
 40
0.0
 40
0.0
 40
0.0
 40
0.0
 40
0.5
 40
0.5
 40
1.0
 40
1.0
 40
1.0
 40
1.0
 10
58.36146852818676
 20
7.594625831796657
 30
0.0
 10
57.13925574128265
 20
8.214739498786738
 30
0.0
 10
55.92288496058849
 20
8.811363506169211
 30
0.0
 10
53.46848675282112
 20
9.95222021595534
 30
0.0
 10
52.24156391651195
 20
10.49458267734411
 30
0.0
 10
51.02456225308202
 20
11.00289598379684
 30
0.0
  0
SPLINE
  5
104
330
1F
100
AcDbEntity
  8
외형선
  6
Continuous
 62
     1
370
    15
100
AcDbSpline
210
0.0
220
0.0
230
1.0
 70
     8
 71
     3
 72
    14
 73
    10
 74
     0
 42
0.000000001
 43
0.00000001
 40
0.0
 40
0.0
 40
0.0
 40
0.0
 40
0.0000587638821223
 40
0.0000587638821223
 40
0.0000587638821223
 40
0.0001174930229376
 40
0.0001174930229376
 40
0.0001174930229376
 40
0.0002033589875324
 40
0.0002033589875324
 40
0.0002033589875324
 40
0.0002033589875324
 10
58.91066258805996
 20
7.21196741495215
 30
0.0
 10
58.86432229759099
 20
7.255182411683497
 30
0.0
 10
58.81498849628419
 20
7.297232136207557
 30
0.0
 10
58.76386697880518
 20
7.33734778292183
 30
0.0
 10
58.71276438228416
 20
7.377448582141307
 30
0.0
 10
58.65952860045704
 20
7.415891985151944
 30
0.0
 10
58.60522622594209
 20
7.451998935559387
 30
0.0
 10
58.52610637969818
 20
7.504607617778032
 30
0.0
 10
58.4438111164709
 20
7.552847702023923
 30
0.0
 10
58.36146858648448
 20
7.594625802218149
 30
0.0
  0
SPLINE
  5
105
330
1F
100
AcDbEntity
  8
외형선
  6
Continuous
 62
     1
370
    15
100
AcDbSpline
210
0.0
220
0.0
230
1.0
 70
     8
 71
     3
 72
    10
 73
     6
 74
     0
 42
0.000000001
 43
0.00000001
 40
0.0
 40
0.0
 40
0.0
 40
0.0
 40
0.5
 40
0.5
 40
1.0
 40
1.0
 40
1.0
 40
1.0
 10
61.09697293071515
 20
6.083720123967714
 30
0.0
 10
60.76312980142114
 20
6.13045760100893
 30
0.0
 10
60.36902484496015
 20
6.266283145353714
 30
0.0
 10
59.59848662517626
 20
6.661535717760134
 30
0.0
 10
59.22558635781698
 20
6.918282814727244
 30
0.0
 10
58.91066258806167
 20
7.211967414951534
 30
0.0
  0
SPLINE
  5
106
330
1F
100
AcDbEntity
  8
외형선
  6
Continuous
 62
     1
370
    15
100
AcDbSpline
210
0.0
220
0.0
230
1.0
 70
     8
 71
     3
 72
     8
 73
     4
 74
     0
 42
0.000000001
 43
0.00000001
 40
0.0
 40
0.0
 40
0.0
 40
0.0
 40
1.0
 40
1.0
 40
1.0
 40
1.0
 10
61.64093947776449
 20
5.88436794225322
 30
0.0
 10
61.45237346664848
 20
5.98536620728088
 30
0.0
 10
61.26059180378422
 20
6.06081375671723
 30
0.0
 10
61.09697293071643
 20
6.083720123967548
 30
0.0
  0
SPLINE
  5
107
330
1F
100
AcDbEntity
  8
외형선
  6
Continuous
 62
     1
370
    15
100
AcDbSpline
210
0.0
220
0.0
230
1.0
 70
     8
 71
     3
 72
    10
 73
     6
 74
     0
 42
0.000000001
 43
0.00000001
 40
0.0
 40
0.0
 40
0.0
 40
0.0
 40
0.5
 40
0.5
 40
1.0
 40
1.0
 40
1.0
 40
1.0
 10
68.97551920908872
 20
1.78970482541058
 30
0.0
 10
67.75602293870804
 20
2.490424996991098
 30
0.0
 10
66.52597548572263
 20
3.18783564270604
 30
0.0
 10
64.07746608134015
 20
4.557432427256944
 30
0.0
 10
62.86548638709985
 20
5.22848561971138
 30
0.0
 10
61.64093949553386
 20
5.884367932735704
 30
0.0
  0
SPLINE
  5
108
330
1F
100
AcDbEntity
  8
외형선
  6
Continuous
 62
     1
370
    15
100
AcDbSpline
210
0.0
220
0.0
230
1.0
 70
     8
 71
     3
 72
    14
 73
    10
 74
     0
 42
0.000000001
 43
0.00000001
 40
0.0
 40
0.0
 40
0.0
 40
0.0
 40
0.0000586726820656
 40
0.0000586726820656
 40
0.0000586726820656
 40
0.0001173113611444
 40
0.0001173113611444
 40
0.0001173113611444
 40
0.0002030496472765
 40
0.0002030496472765
 40
0.0002030496472765
 40
0.0002030496472765
 10
69.52340974579559
 20
1.434428000706852
 30
0.0
 10
69.47721070965837
 20
1.468558077454272
 30
0.0
 10
69.42802030189792
 20
1.503381847644779
 30
0.0
 10
69.37703679989237
 20
1.538167380375739
 30
0.0
 10
69.32607181173614
 20
1.572940281292744
 30
0.0
 10
69.27296889897238
 20
1.607911942722787
 30
0.0
 10
69.21879089719943
 20
1.642403332044141
 30
0.0
 10
69.13984970008012
 20
1.692659736382295
 30
0.0
 10
69.05771293063698
 20
1.742476475905093
 30
0.0
 10
68.97551303657832
 20
1.789708372122905
 30
0.0
  0
SPLINE
  5
109
330
1F
100
AcDbEntity
  8
외형선
  6
Continuous
 62
     1
370
    15
100
AcDbSpline
210
0.0
220
0.0
230
1.0
 70
     8
 71
     3
 72
    10
 73
     6
 74
     0
 42
0.000000001
 43
0.00000001
 40
0.0
 40
0.0
 40
0.0
 40
0.0
 40
0.5
 40
0.5
 40
1.0
 40
1.0
 40
1.0
 40
1.0
 10
71.70665225779365
 20
0.1885535264790065
 30
0.0
 10
71.37311188723706
 20
0.3410358597228652
 30
0.0
 10
70.97938435183242
 20
0.5349642266483635
 30
0.0
 10
70.20984826163135
 20
0.9665583570501565
 30
0.0
 10
69.83767052750875
 20
1.202264183117891
 30
0.0
 10
69.5234097457973
 20
1.434428000706712
 30
0.0
  0
SPLINE
  5
10A
330
1F
100
AcDbEntity
  8
외형선
  6
Continuous
 62
     1
370
    15
100
AcDbSpline
210
0.0
220
0.0
230
1.0
 70
     8
 71
     3
 72
     8
 73
     4
 74
     0
 42
0.000000001
 43
0.00000001
 40
0.0
 40
0.0
 40
0.0
 40
0.0
 40
1.0
 40
1.0
 40
1.0
 40
1.0
 10
72.25018738873322
 20
-0.0989075946236088
 30
0.0
 10
72.06172775984999
 20
0.0096890377748465
 30
0.0
 10
71.87009868249123
 20
0.1138318603829439
 30
0.0
 10
71.7066522577949
 20
0.1885535264784335
 30
0.0
  0
SPLINE
  5
10B
330
1F
100
AcDbEntity
  8
외형선
  6
Continuous
 62
     1
370
    15
100
AcDbSpline
210
0.0
220
0.0
230
1.0
 70
     8
 71
     3
 72
     8
 73
     4
 74
     0
 42
0.000000001
 43
0.00000001
 40
0.0
 40
0.0
 40
0.0
 40
0.0
 40
1.0
 40
1.0
 40
1.0
 40
1.0
 10
88.20000000000002
 20
-7.508470364300025
 30
0.0
 10
87.02390990568605
 20
-7.378904846230429
 30
0.0
 10
85.78956754097649
 20
-7.190755070958331
 30
0.0
 10
84.53333333333339
 20
-6.947277204870023
 30
0.0
  0
SPLINE
  5
10C
330
1F
100
AcDbEntity
  8
외형선
  6
Continuous
 62
     1
370
    15
100
AcDbSpline
210
0.0
220
0.0
230
1.0
 70
     8
 71
     3
 72
    10
 73
     6
 74
     0
 42
0.000000001
 43
0.00000001
 40
0.0
 40
0.0
 40
0.0
 40
0.0
 40
0.3735198585361011
 40
0.6851841356095063
 40
0.9999999999999999
 40
0.9999999999999999
 40
0.9999999999999999
 40
0.9999999999999999
 10
85.49800358227026
 20
-7.114749204249034
 30
0.0
 10
85.21354626530292
 20
-7.186968774121713
 30
0.0
 10
84.69173829073388
 20
-7.319448219126952
 30
0.0
 10
83.86395291866958
 20
-7.636170362375988
 30
0.0
 10
83.32985440843149
 20
-7.879727120527286
 30
0.0
 10
83.06146172837406
 20
-8.002118121088579
 30
0.0
  0
SPLINE
  5
10D
330
1F
100
AcDbEntity
  8
외형선
  6
Continuous
 62
     1
370
    15
100
AcDbSpline
210
0.0
220
0.0
230
1.0
 70
     8
 71
     3
 72
     8
 73
     4
 74
     0
 42
0.000000001
 43
0.00000001
 40
0.0
 40
0.0
 40
0.0
 40
0.0
 40
1.0
 40
1.0
 40
1.0
 40
1.0
 10
88.20000000000002
 20
-9.280654770622903
 30
0.0
 10
86.44309466785406
 20
-9.011752827191007
 30
0.0
 10
84.73181078093195
 20
-8.579997393086728
 30
0.0
 10
83.06146172837185
 20
-8.002118121097695
 30
0.0
  0
LINE
  5
10E
330
1F
100
AcDbEntity
  8
외형선
  6
Continuous
 62
     1
370
    15
100
AcDbLine
 10
88.20000000000002
 20
-11.31569228140753
 30
0.0
 11
88.20000000000002
 21
-9.280654770622892
 31
0.0
  0
SPLINE
  5
10F
330
1F
100
AcDbEntity
  8
외형선
  6
Continuous
 62
     1
370
    15
100
AcDbSpline
210
0.0
220
0.0
230
1.0
 70
     8
 71
     3
 72
    10
 73
     6
 74
     0
 42
0.000000001
 43
0.00000001
 40
0.0
 40
0.0
 40
0.0
 40
0.0
 40
0.5
 40
0.5
 40
1.0
 40
1.0
 40
1.0
 40
1.0
 10
84.73064682565362
 20
-14.81582034411456
 30
0.0
 10
85.29463619858416
 20
-14.20379465066491
 30
0.0
 10
85.86334264450076
 20
-13.60278526774383
 30
0.0
 10
87.01816818305969
 20
-12.43165367535147
 30
0.0
 10
87.60820573252445
 20
-11.85800421181382
 30
0.0
 10
88.20000000000002
 20
-11.31569228140764
 30
0.0
  0
SPLINE
  5
110
330
1F
100
AcDbEntity
  8
외형선
  6
Continuous
 62
     1
370
    15
100
AcDbSpline
210
0.0
220
0.0
230
1.0
 70
     8
 71
     3
 72
    10
 73
     6
 74
     0
 42
0.000000001
 43
0.00000001
 40
0.0
 40
0.0
 40
0.0
 40
0.0
 40
0.5
 40
0.5
 40
1.0
 40
1.0
 40
1.0
 40
1.0
 10
82.57395870922326
 20
-15.19004314418246
 30
0.0
 10
82.90725447095184
 20
-14.90946242420995
 30
0.0
 10
83.30080188351178
 20
-14.7499680162342
 30
0.0
 10
84.07053094298202
 20
-14.63611442887319
 30
0.0
 10
84.44320227977228
 20
-14.68027110457242
 30
0.0
 10
84.75789742335485
 20
-14.82830210342334
 30
0.0
  0
SPLINE
  5
111
330
1F
100
AcDbEntity
  8
외형선
  6
Continuous
 62
     1
370
    15
100
AcDbSpline
210
0.0
220
0.0
230
1.0
 70
     8
 71
     3
 72
     8
 73
     4
 74
     0
 42
0.000000001
 43
0.00000001
 40
0.0
 40
0.0
 40
0.0
 40
0.0
 40
1.0
 40
1.0
 40
1.0
 40
1.0
 10
82.03069278680088
 20
-15.432856172832
 30
0.0
 10
82.21897478614251
 20
-15.40727213109168
 30
0.0
 10
82.41051486226186
 20
-15.32763622972806
 30
0.0
 10
82.57395870922326
 20
-15.19004314418247
 30
0.0
  0
SPLINE
  5
112
330
1F
100
AcDbEntity
  8
외형선
  6
Continuous
 62
     1
370
    15
100
AcDbSpline
210
0.0
220
0.0
230
1.0
 70
     8
 71
     3
 72
    10
 73
     6
 74
     0
 42
0.000000001
 43
0.00000001
 40
0.0
 40
0.0
 40
0.0
 40
0.0
 40
0.5
 40
0.5
 40
1.0
 40
1.0
 40
1.0
 40
1.0
 10
82.03068595082858
 20
-15.43285710171371
 30
0.0
 10
80.81562118122729
 20
-15.5979617669116
 30
0.0
 10
79.5868696571109
 20
-15.71789431640881
 30
0.0
 10
77.13449015301626
 20
-15.86339142767259
 30
0.0
 10
75.92003505768832
 20
-15.88907546389759
 30
0.0
 10
74.69791593633742
 20
-15.86775843870056
 30
0.0
  0
SPLINE
  5
114
330
1F
100
AcDbEntity
  8
외형선
  6
Continuous
 62
     1
370
    15
100
AcDbSpline
210
0.0
220
0.0
230
1.0
 70
     8
 71
     3
 72
    12
 73
     8
 74
     0
 42
0.000000001
 43
0.00000001
 40
0.0
 40
0.0
 40
0.0
 40
0.0
 40
0.4999999999999996
 40
0.4999999999999996
 40
0.7499999999999998
 40
0.7499999999999998
 40
1.0
 40
1.0
 40
1.0
 40
1.0
 10
61.64093903655929
 20
5.884371973737627
 30
0.0
 10
61.45454671703169
 20
7.58751980766186
 30
0.0
 10
61.26471397135047
 20
9.178412068082455
 30
0.0
 10
60.99918025235365
 20
11.20235658730156
 30
0.0
 10
60.91249453462473
 20
11.82226771223351
 30
0.0
 10
60.73017706804873
 20
12.96016511206214
 30
0.0
 10
60.6367875165551
 20
13.47217311481788
 30
0.0
 10
60.54321982944676
 20
13.91417776087587
 30
0.0
  0
SPLINE
  5
115
330
1F
100
AcDbEntity
  8
외형선
  6
Continuous
 62
     1
370
    15
100
AcDbSpline
210
0.0
220
0.0
230
1.0
 70
     8
 71
     3
 72
    10
 73
     6
 74
     0
 42
0.000000001
 43
0.00000001
 40
0.0
 40
0.0
 40
0.0
 40
0.0
 40
0.4999999999999999
 40
0.4999999999999999
 40
1.0
 40
1.0
 40
1.0
 40
1.0
 10
67.88215070802661
 20
11.40653608903331
 30
0.0
 10
66.6576160755093
 20
11.89774482175623
 30
0.0
 10
65.42739878518935
 20
12.35568931618491
 30
0.0
 10
62.98829989398075
 20
13.19316354293613
 30
0.0
 10
61.76971822046742
 20
13.57397442921897
 30
0.0
 10
60.54321964223276
 20
13.91417363037333
 30
0.0
  0
SPLINE
  5
116
330
1F
100
AcDbEntity
  8
외형선
  6
Continuous
 62
     1
370
    15
100
AcDbSpline
210
0.0
220
0.0
230
1.0
 70
     8
 71
     3
 72
    14
 73
    10
 74
     0
 42
0.000000001
 43
0.00000001
 40
0.0
 40
0.0
 40
0.0
 40
0.0
 40
0.2500000000000001
 40
0.2500000000000001
 40
0.5000000000000001
 40
0.5000000000000001
 40
0.7500000000000002
 40
0.7500000000000002
 40
1.0
 40
1.0
 40
1.0
 40
1.0
 10
68.97551374824698
 20
1.789701137306609
 30
0.0
 10
68.88745678735182
 20
2.684887300455383
 30
0.0
 10
68.79949349360379
 20
3.571304183210614
 30
0.0
 10
68.61601998820629
 20
5.324532469241957
 30
0.0
 10
68.52223717112119
 20
6.185386920456254
 30
0.0
 10
68.33473952659627
 20
7.83588962189446
 30
0.0
 10
68.24104577375073
 20
8.625353004597653
 30
0.0
 10
68.05791550976782
 20
10.09938963069462
 30
0.0
 10
67.97048092834746
 20
10.7792983179269
 30
0.0
 10
67.88215341684419
 20
11.40653134614344
 30
0.0
  0
SPLINE
  5
117
330
1F
100
AcDbEntity
  8
외형선
  6
Continuous
 62
     1
370
    15
100
AcDbSpline
210
0.0
220
0.0
230
1.0
 70
     8
 71
     3
 72
     8
 73
     4
 74
     0
 42
0.000000001
 43
0.00000001
 40
0.0
 40
0.0
 40
0.0
 40
0.0
 40
1.0
 40
1.0
 40
1.0
 40
1.0
 10
33.33135800298516
 20
-10.04660395094277
 30
0.0
 10
33.14277749914569
 20
-9.962153686289163
 30
0.0
 10
32.95104603109446
 20
-9.845423386732925
 30
0.0
 10
32.78743446655555
 20
-9.709492112492306
 30
0.0
  0
LINE
  5
118
330
1F
100
AcDbEntity
  8
외형선
  6
Continuous
 62
     1
370
    15
100
AcDbLine
 10
37.79641961516682
 20
-11.89209700350163
 30
0.0
 11
35.77923413123366
 21
-12.64875244122485
 31
0.0
  0
SPLINE
  5
119
330
1F
100
AcDbEntity
  8
외형선
  6
Continuous
 62
     1
370
    15
100
AcDbSpline
210
0.0
220
0.0
230
1.0
 70
     8
 71
     3
 72
    14
 73
    10
 74
     0
 42
0.000000001
 43
0.00000001
 40
0.0
 40
0.0
 40
0.0
 40
0.0
 40
0.0000586782451522
 40
0.0000586782451522
 40
0.0000586782451522
 40
0.0001173222527949
 40
0.0001173222527949
 40
0.0001173222527949
 40
0.0002031084791099
 40
0.0002031084791099
 40
0.0002031084791099
 40
0.0002031084791099
 10
35.23054584095375
 20
-12.70727336114755
 30
0.0
 10
35.27681984436662
 20
-12.71641707404983
 30
0.0
 10
35.32608681887613
 20
-12.72108403570176
 30
0.0
 10
35.37714502190195
 20
-12.72142944403581
 30
0.0
 10
35.42818456667013
 20
-12.72177472614688
 30
0.0
 10
35.48136055179972
 20
-12.71780880628266
 30
0.0
 10
35.53560783795325
 20
-12.70975125986135
 30
0.0
 10
35.61468717135349
 20
-12.69800531928037
 30
0.0
 10
35.69695679946709
 20
-12.67739735707928
 30
0.0
 10
35.77927938102616
 20
-12.64873668749215
 30
0.0
  0
SPLINE
  5
11A
330
1F
100
AcDbEntity
  8
외형선
  6
Continuous
 62
     1
370
    15
100
AcDbSpline
210
0.0
220
0.0
230
1.0
 70
     8
 71
     3
 72
    10
 73
     6
 74
     0
 42
0.000000001
 43
0.00000001
 40
0.0
 40
0.0
 40
0.0
 40
0.0
 40
0.5
 40
0.5
 40
1.0
 40
1.0
 40
1.0
 40
1.0
 10
33.04466823670975
 20
-13.39891468104688
 30
0.0
 10
33.37835631132322
 20
-13.10469231565858
 30
0.0
 10
33.77219970483179
 20
-12.90552392742322
 30
0.0
 10
34.54249518919109
 20
-12.67604559304118
 30
0.0
 10
34.91555822351526
 20
-12.64503201332251
 30
0.0
 10
35.23054584095306
 20
-12.70727336114711
 30
0.0
  0
SPLINE
  5
11B
330
1F
100
AcDbEntity
  8
외형선
  6
Continuous
 62
     1
370
    15
100
AcDbSpline
210
0.0
220
0.0
230
1.0
 70
     8
 71
     3
 72
     8
 73
     4
 74
     0
 42
0.000000001
 43
0.00000001
 40
0.0
 40
0.0
 40
0.0
 40
0.0
 40
1.0
 40
1.0
 40
1.0
 40
1.0
 10
32.50050152676942
 20
-13.70028821077999
 30
0.0
 10
32.68911551910838
 20
-13.64508038256024
 30
0.0
 10
32.88091472693092
 20
-13.54330085679969
 30
0.0
 10
33.04466823670975
 20
-13.39891468104687
 30
0.0
  0
SPLINE
  5
11C
330
1F
100
AcDbEntity
  8
외형선
  6
Continuous
 62
     1
370
    15
100
AcDbSpline
210
0.0
220
0.0
230
1.0
 70
     8
 71
     3
 72
    10
 73
     6
 74
     0
 42
0.000000001
 43
0.00000001
 40
0.0
 40
0.0
 40
0.0
 40
0.0
 40
0.5000000000000001
 40
0.5000000000000001
 40
1.0
 40
1.0
 40
1.0
 40
1.0
 10
32.50050142455738
 20
-13.70028824069677
 30
0.0
 10
31.28282105635675
 20
-14.0567065917645
 30
0.0
 10
30.05214190448669
 20
-14.37361811431193
 30
0.0
 10
27.59751445624116
 20
-14.91932526626672
 30
0.0
 10
26.38267149021649
 20
-15.14774150829737
 30
0.0
 10
25.15835459025556
 20
-15.33115752801985
 30
0.0
  0
SPLINE
  5
11D
330
1F
100
AcDbEntity
  8
외형선
  6
Continuous
 62
     1
370
    15
100
AcDbSpline
210
0.0
220
0.0
230
1.0
 70
     8
 71
     3
 72
    14
 73
    10
 74
     0
 42
0.000000001
 43
0.00000001
 40
0.0
 40
0.0
 40
0.0
 40
0.0
 40
0.0000585597302139
 40
0.0000585597302139
 40
0.0000585597302139
 40
0.000117085070227
 40
0.000117085070227
 40
0.000117085070227
 40
0.0002029903237625
 40
0.0002029903237625
 40
0.0002029903237625
 40
0.0002029903237625
 10
24.61019817317685
 20
-15.24321961276258
 30
0.0
 10
24.65635105623702
 20
-15.26862576209088
 30
0.0
 10
24.70549148952675
 20
-15.28919435133862
 30
0.0
 10
24.75641928835515
 20
-15.30478480799482
 30
0.0
 10
24.80732837003669
 20
-15.32036953479674
 30
0.0
 10
24.86036901532139
 20
-15.33109158035425
 30
0.0
 10
24.91447775310015
 20
-15.33690970615296
 30
0.0
 10
24.99362197350185
 20
-15.34541981097967
 30
0.0
 10
25.07596880887905
 20
-15.34349982814533
 30
0.0
 10
25.15836157411475
 20
-15.33115648176112
 30
0.0
  0
SPLINE
  5
11E
330
1F
100
AcDbEntity
  8
외형선
  6
Continuous
 62
     1
370
    15
100
AcDbSpline
210
0.0
220
0.0
230
1.0
 70
     8
 71
     3
 72
    10
 73
     6
 74
     0
 42
0.000000001
 43
0.00000001
 40
0.0
 40
0.0
 40
0.0
 40
0.0
 40
0.4999999999999993
 40
0.4999999999999993
 40
1.0
 40
1.0
 40
1.0
 40
1.0
 10
22.42937298400082
 20
-15.4918833685995
 30
0.0
 10
22.76221355182923
 20
-15.22090594991898
 30
0.0
 10
23.15535869743995
 20
-15.0770395043979
 30
0.0
 10
23.92417984199555
 20
-15.00266533157405
 30
0.0
 10
24.29617875174102
 20
-15.07035881222176
 30
0.0
 10
24.61019817317635
 20
-15.243219612762
 30
0.0
  0
SPLINE
  5
11F
330
1F
100
AcDbEntity
  8
외형선
  6
Continuous
 62
     1
370
    15
100
AcDbSpline
210
0.0
220
0.0
230
1.0
 70
     8
 71
     3
 72
     8
 73
     4
 74
     0
 42
0.000000001
 43
0.00000001
 40
0.0
 40
0.0
 40
0.0
 40
0.0
 40
1.0
 40
1.0
 40
1.0
 40
1.0
 10
21.88665481622809
 20
-15.71137558884295
 30
0.0
 10
22.07482172218246
 20
-15.69582671636779
 30
0.0
 10
22.26618888626373
 20
-15.62473738294935
 30
0.0
 10
22.42937298400082
 20
-15.49188336859944
 30
0.0
  0
SPLINE
  5
120
330
1F
100
AcDbEntity
  8
외형선
  6
Continuous
 62
     1
370
    15
100
AcDbSpline
210
0.0
220
0.0
230
1.0
 70
     8
 71
     3
 72
    10
 73
     6
 74
     0
 42
0.000000001
 43
0.00000001
 40
0.0
 40
0.0
 40
0.0
 40
0.0
 40
0.4999999999999999
 40
0.4999999999999999
 40
0.7646450541754681
 40
0.7646450541754681
 40
0.7646450541754681
 40
0.7646450541754681
 10
21.88664354184506
 20
-15.71137652048199
 30
0.0
 10
20.66218896412419
 20
-15.81255708937426
 30
0.0
 10
19.44889401956339
 20
-15.86688203886586
 30
0.0
 10
17.57380441311074
 20
-15.87801031020028
 30
0.0
 10
16.92361296005575
 20
-15.86858001251081
 30
0.0
 10
16.27462759907497
 20
-15.84599052487246
 30
0.0
  0
SPLINE
  5
122
330
1F
100
AcDbEntity
  8
외형선
  6
Continuous
 62
     1
370
    15
100
AcDbSpline
210
0.0
220
0.0
230
1.0
 70
     8
 71
     3
 72
    14
 73
    10
 74
     0
 42
0.000000001
 43
0.00000001
 40
0.0
 40
0.0
 40
0.0
 40
0.0
 40
0.0000586421269075
 40
0.0000586421269075
 40
0.0000586421269075
 40
0.0001172497728785
 40
0.0001172497728785
 40
0.0001172497728785
 40
0.000203124750518
 40
0.000203124750518
 40
0.000203124750518
 40
0.000203124750518
 10
41.22399433180055
 20
-12.98162259905583
 30
0.0
 10
41.17775507008229
 20
-12.99212972626082
 30
0.0
 10
41.12852476210609
 20
-12.99810591862871
 30
0.0
 10
41.07750571719173
 20
-12.99968405193776
 30
0.0
 10
41.02650545026749
 20
-13.00126160440151
 30
0.0
 10
40.97337162465745
 20
-12.99846006535371
 30
0.0
 10
40.919169096918
 20
-12.99148065467944
 30
0.0
 10
40.84002517849146
 20
-12.98128965562262
 30
0.0
 10
40.75768762743593
 20
-12.96204136069052
 30
0.0
 10
40.67530185861532
 20
-12.93449327398977
 30
0.0
  0
SPLINE
  5
123
330
1F
100
AcDbEntity
  8
외형선
  6
Continuous
 62
     1
370
    15
100
AcDbSpline
210
0.0
220
0.0
230
1.0
 70
     8
 71
     3
 72
    10
 73
     6
 74
     0
 42
0.000000001
 43
0.00000001
 40
0.0
 40
0.0
 40
0.0
 40
0.0
 40
0.5
 40
0.5
 40
1.0
 40
1.0
 40
1.0
 40
1.0
 10
43.40731131389656
 20
-13.63965230577475
 30
0.0
 10
43.07408448170129
 20
-13.34605967885372
 30
0.0
 10
42.68054859411589
 20
-13.15060121583052
 30
0.0
 10
41.91095031060192
 20
-12.93305024700215
 30
0.0
 10
41.53848979102919
 20
-12.9101585731888
 30
0.0
 10
41.22399433180055
 20
-12.98162259905582
 30
0.0
  0
SPLINE
  5
124
330
1F
100
AcDbEntity
  8
외형선
  6
Continuous
 62
     1
370
    15
100
AcDbSpline
210
0.0
220
0.0
230
1.0
 70
     8
 71
     3
 72
     8
 73
     4
 74
     0
 42
0.000000001
 43
0.00000001
 40
0.0
 40
0.0
 40
0.0
 40
0.0
 40
1.0
 40
1.0
 40
1.0
 40
1.0
 10
43.95034425196854
 20
-13.93526616100677
 30
0.0
 10
43.76209521204362
 20
-13.88317325441692
 30
0.0
 10
43.57063027599949
 20
-13.78354600963369
 30
0.0
 10
43.40731131389715
 20
-13.63965230577528
 30
0.0
  0
SPLINE
  5
125
330
1F
100
AcDbEntity
  8
외형선
  6
Continuous
 62
     1
370
    15
100
AcDbSpline
210
0.0
220
0.0
230
1.0
 70
     8
 71
     3
 72
    10
 73
     6
 74
     0
 42
0.000000001
 43
0.00000001
 40
0.0
 40
0.0
 40
0.0
 40
0.0
 40
0.5
 40
0.5
 40
1.0
 40
1.0
 40
1.0
 40
1.0
 10
51.28394447609259
 20
-15.44710550768951
 30
0.0
 10
50.06788462123049
 20
-15.28458131475776
 30
0.0
 10
48.84072596367105
 20
-15.07573300871141
 30
0.0
 10
46.38761564665285
 20
-14.56965049586922
 30
0.0
 10
45.17219835628532
 20
-14.27338174798411
 30
0.0
 10
43.95034353778385
 20
-13.93526596337518
 30
0.0
  0
SPLINE
  5
126
330
1F
100
AcDbEntity
  8
외형선
  6
Continuous
 62
     1
370
    15
100
AcDbSpline
210
0.0
220
0.0
230
1.0
 70
     8
 71
     3
 72
    14
 73
    10
 74
     0
 42
0.000000001
 43
0.00000001
 40
0.0
 40
0.0
 40
0.0
 40
0.0
 40
0.0000588121997513
 40
0.0000588121997513
 40
0.0000588121997513
 40
0.000117589445085
 40
0.000117589445085
 40
0.000117589445085
 40
0.0002034840015174
 40
0.0002034840015174
 40
0.0002034840015174
 40
0.0002034840015174
 10
51.83312877252828
 20
-15.34847930555895
 30
0.0
 10
51.78677197237245
 20
-15.37504477743455
 30
0.0
 10
51.73742229756502
 20
-15.39674590697513
 30
0.0
 10
51.68628697756239
 20
-15.4134249628407
 30
0.0
 10
51.63517068224294
 20
-15.43009781333289
 30
0.0
 10
51.58192324046051
 20
-15.44187156329026
 30
0.0
 10
51.52761149942269
 20
-15.44868792435179
 30
0.0
 10
51.44851559838609
 20
-15.45861480589988
 30
0.0
 10
51.36625312149502
 20
-15.45810590769191
 30
0.0
 10
51.28394510758443
 20
-15.44710559208727
 30
0.0
  0
SPLINE
  5
127
330
1F
100
AcDbEntity
  8
외형선
  6
Continuous
 62
     1
370
    15
100
AcDbSpline
210
0.0
220
0.0
230
1.0
 70
     8
 71
     3
 72
    10
 73
     6
 74
     0
 42
0.000000001
 43
0.00000001
 40
0.0
 40
0.0
 40
0.0
 40
0.0
 40
0.5
 40
0.5
 40
1.0
 40
1.0
 40
1.0
 40
1.0
 10
54.01953236543656
 20
-15.56124228912307
 30
0.0
 10
53.68557682268609
 20
-15.29346610358658
 30
0.0
 10
53.29137530621276
 20
-15.15505758986802
 30
0.0
 10
52.52080963165398
 20
-15.09324994260533
 30
0.0
 10
52.14799137871812
 20
-15.16804248331727
 30
0.0
 10
51.83312877252828
 20
-15.34847930555907
 30
0.0
  0
SPLINE
  5
128
330
1F
100
AcDbEntity
  8
외형선
  6
Continuous
 62
     1
370
    15
100
AcDbSpline
210
0.0
220
0.0
230
1.0
 70
     8
 71
     3
 72
     8
 73
     4
 74
     0
 42
0.000000001
 43
0.00000001
 40
0.0
 40
0.0
 40
0.0
 40
0.0
 40
1.0
 40
1.0
 40
1.0
 40
1.0
 10
54.56354099340335
 20
-15.77291184974508
 30
0.0
 10
54.37494324530363
 20
-15.76060813113178
 30
0.0
 10
54.18315079992627
 20
-15.69243675863294
 30
0.0
 10
54.01953236543716
 20
-15.56124228912353
 30
0.0
  0
LINE
  5
129
330
1F
100
AcDbEntity
  8
외형선
  6
Continuous
 62
     1
370
    15
100
AcDbLine
 10
54.56246813623468
 20
-15.77284184686732
 30
0.0
 11
57.68188606701808
 21
-15.84274090654135
 31
0.0
  0
SPLINE
  5
12B
330
1F
100
AcDbEntity
  8
외형선
  6
Continuous
 62
     1
370
    15
100
AcDbSpline
210
0.0
220
0.0
230
1.0
 70
     8
 71
     3
 72
    12
 73
     8
 74
     0
 42
0.000000001
 43
0.00000001
 40
0.0
 40
0.0
 40
0.0
 40
0.0
 40
0.2500000000000001
 40
0.2500000000000001
 40
0.5000000000000002
 40
0.5000000000000002
 40
1.0
 40
1.0
 40
1.0
 40
1.0
 10
71.70665225779305
 20
0.1885535264847575
 30
0.0
 10
71.61498329875585
 20
1.093506201909501
 30
0.0
 10
71.52785046862883
 20
1.982545006527322
 30
0.0
 10
71.34977204060334
 20
3.745174548801027
 30
0.0
 10
71.25755302494215
 20
4.62277657485291
 30
0.0
 10
70.97724800626834
 20
7.183420274166303
 30
0.0
 10
70.78571473059066
 20
8.7893526243586
 30
0.0
 10
70.60620253023923
 20
10.15956251681537
 30
0.0
  0
SPLINE
  5
12C
330
1F
100
AcDbEntity
  8
외형선
  6
Continuous
 62
     1
370
    15
100
AcDbSpline
210
0.0
220
0.0
230
1.0
 70
     8
 71
     3
 72
    14
 73
    10
 74
     0
 42
0.000000001
 43
0.00000001
 40
0.0
 40
0.0
 40
0.0
 40
0.0
 40
0.0000586164716919
 40
0.0000586164716919
 40
0.0000586164716919
 40
0.00011719869265
 40
0.00011719869265
 40
0.00011719869265
 40
0.0002030362133147
 40
0.0002030362133147
 40
0.0002030362133147
 40
0.0002030362133147
 10
70.60620253018162
 20
10.15956251726631
 30
0.0
 10
70.65238203827715
 20
10.15774287235727
 30
0.0
 10
70.70155256048812
 20
10.15201743173332
 30
0.0
 10
70.75251497599638
 20
10.14271737690218
 30
0.0
 10
70.80345874479445
 20
10.13342072488124
 30
0.0
 10
70.85653895238414
 20
10.12049277140584
 30
0.0
 10
70.91069261371469
 20
10.10430344591573
 30
0.0
 10
70.98976442070273
 20
10.08066480008889
 30
0.0
 10
71.07204059397039
 20
10.0497732736647
 30
0.0
 10
71.15437522740595
 20
10.01289897394122
 30
0.0
  0
SPLINE
  5
12D
330
1F
100
AcDbEntity
  8
외형선
  6
Continuous
 62
     1
370
    15
100
AcDbSpline
210
0.0
220
0.0
230
1.0
 70
     8
 71
     3
 72
     8
 73
     4
 74
     0
 42
0.000000001
 43
0.00000001
 40
0.0
 40
0.0
 40
0.0
 40
0.0
 40
1.0
 40
1.0
 40
1.0
 40
1.0
 10
79.32681263167245
 20
15.34115732989592
 30
0.0
 10
79.13829679067501
 20
15.31322545988379
 30
0.0
 10
78.94658845889522
 20
15.23165878876789
 30
0.0
 10
78.78306197401889
 20
15.09320252269063
 30
0.0
  0
SPLINE
  5
12E
330
1F
100
AcDbEntity
  8
외형선
  6
Continuous
 62
     1
370
    15
100
AcDbSpline
210
0.0
220
0.0
230
1.0
 70
     8
 71
     3
 72
     8
 73
     4
 74
     0
 42
0.000000001
 43
0.00000001
 40
0.0
 40
0.0
 40
0.0
 40
0.0
 40
1.0
 40
1.0
 40
1.0
 40
1.0
 10
84.53333333333372
 20
15.8354031742516
 30
0.0
 10
82.7919492879673
 20
15.76457004276204
 30
0.0
 10
81.06852627857349
 20
15.59922226236815
 30
0.0
 10
79.32681133188356
 20
15.34115713730979
 30
0.0
  0
SPLINE
  5
12F
330
1F
100
AcDbEntity
  8
외형선
  6
Continuous
 62
     1
370
    15
100
AcDbSpline
210
0.0
220
0.0
230
1.0
 70
     8
 71
     3
 72
     8
 73
     4
 74
     0
 42
0.000000001
 43
0.00000001
 40
0.0
 40
0.0
 40
0.0
 40
0.0
 40
1.0
 40
1.0
 40
1.0
 40
1.0
 10
88.20000000000002
 20
12.09088358991283
 30
0.0
 10
87.02390990568605
 20
13.40533664641888
 30
0.0
 10
85.78956754097649
 20
14.64457304709316
 30
0.0
 10
84.53333333333339
 20
15.83540317425159
 30
0.0
  0
LINE
  5
130
330
1F
100
AcDbEntity
  8
외형선
  6
Continuous
 62
     1
370
    15
100
AcDbLine
 10
88.20000000000002
 20
10.27912543797246
 30
0.0
 11
88.20000000000002
 21
12.09088358991283
 31
0.0
  0
SPLINE
  5
131
330
1F
100
AcDbEntity
  8
외형선
  6
Continuous
 62
     1
370
    15
100
AcDbSpline
210
0.0
220
0.0
230
1.0
 70
     8
 71
     3
 72
    12
 73
     8
 74
     0
 42
0.000000001
 43
0.00000001
 40
0.0
 40
0.0
 40
0.0
 40
0.0
 40
0.25
 40
0.25
 40
0.5
 40
0.5
 40
1.0
 40
1.0
 40
1.0
 40
1.0
 10
88.20000000000002
 20
10.27912543797248
 30
0.0
 10
87.93843642405871
 20
9.681749083213475
 30
0.0
 10
87.63008760089416
 20
9.12829873907966
 30
0.0
 10
86.91480009982497
 20
8.113962678849337
 30
0.0
 10
86.50256967820161
 20
7.650088360016404
 30
0.0
 10
85.17357481818549
 20
6.467422205362647
 30
0.0
 10
84.13555130296388
 20
5.930094954854967
 30
0.0
 10
83.06146172837326
 20
5.647796568970841
 30
0.0
  0
SPLINE
  5
132
330
1F
100
AcDbEntity
  8
외형선
  6
Continuous
 62
     1
370
    15
100
AcDbSpline
210
0.0
220
0.0
230
1.0
 70
     8
 71
     3
 72
     8
 73
     4
 74
     0
 42
0.000000001
 43
0.00000001
 40
0.0
 40
0.0
 40
0.0
 40
0.0
 40
1.0
 40
1.0
 40
1.0
 40
1.0
 10
88.20000000000002
 20
3.062294043822086
 30
0.0
 10
86.44309466785401
 20
4.017669693974613
 30
0.0
 10
84.7318107809318
 20
4.876187179360993
 30
0.0
 10
83.06146172837163
 20
5.647796568963444
 30
0.0
  0
LINE
  5
133
330
1F
100
AcDbEntity
  8
외형선
  6
Continuous
 62
     1
370
    15
100
AcDbLine
 10
88.20000000000002
 20
1.689359876685249
 30
0.0
 11
88.20000000000002
 21
3.062294043822083
 31
0.0
  0
SPLINE
  5
134
330
1F
100
AcDbEntity
  8
외형선
  6
Continuous
 62
     1
370
    15
100
AcDbSpline
210
0.0
220
0.0
230
1.0
 70
     8
 71
     3
 72
    10
 73
     6
 74
     0
 42
0.000000001
 43
0.00000001
 40
0.0
 40
0.0
 40
0.0
 40
0.0
 40
0.5
 40
0.5
 40
1.0
 40
1.0
 40
1.0
 40
1.0
 10
84.53333333333336
 20
3.091186193760996
 30
0.0
 10
85.12912560155097
 20
2.712035083087962
 30
0.0
 10
85.72969346695993
 20
2.399731092159944
 30
0.0
 10
86.94979257150673
 20
1.923587952696776
 30
0.0
 10
87.57366610950044
 20
1.758683482572776
 30
0.0
 10
88.20000000000002
 20
1.689359876685201
 30
0.0
  0
SPLINE
  5
135
330
1F
100
AcDbEntity
  8
외형선
  6
Continuous
 62
     1
370
    15
100
AcDbSpline
210
0.0
220
0.0
230
1.0
 70
     8
 71
     3
 72
    10
 73
     6
 74
     0
 42
0.000000001
 43
0.00000001
 40
0.0
 40
0.0
 40
0.0
 40
0.0
 40
0.5
 40
0.5
 40
1.0
 40
1.0
 40
1.0
 40
1.0
 10
68.42491458642915
 20
11.07782541007389
 30
0.0
 10
68.75805285718639
 20
10.7916109444292
 30
0.0
 10
69.15137737131526
 20
10.57277248487408
 30
0.0
 10
69.92000410360279
 20
10.2628106618927
 30
0.0
 10
70.29196687832669
 20
10.17194457432223
 30
0.0
 10
70.60620253018025
 20
10.15956251726562
 30
0.0
  0
SPLINE
  5
136
330
1F
100
AcDbEntity
  8
외형선
  6
Continuous
 62
     1
370
    15
100
AcDbSpline
210
0.0
220
0.0
230
1.0
 70
     8
 71
     3
 72
     8
 73
     4
 74
     0
 42
0.000000001
 43
0.00000001
 40
0.0
 40
0.0
 40
0.0
 40
0.0
 40
1.0
 40
1.0
 40
1.0
 40
1.0
 10
67.88215287114386
 20
11.40653522132486
 30
0.0
 10
68.07037359572831
 20
11.33103252096346
 30
0.0
 10
68.26173497404545
 20
11.21802054723445
 30
0.0
 10
68.42491458642547
 20
11.07782541007703
 30
0.0
  0
SPLINE
  5
137
330
1F
100
AcDbEntity
  8
외형선
  6
Continuous
 62
     1
370
    15
100
AcDbSpline
210
0.0
220
0.0
230
1.0
 70
     8
 71
     3
 72
    14
 73
    10
 74
     0
 42
0.000000001
 43
0.00000001
 40
0.0
 40
0.0
 40
0.0
 40
0.0
 40
0.0000587306811025
 40
0.0000587306811025
 40
0.0000587306811025
 40
0.0001174268903101
 40
0.0001174268903101
 40
0.0001174268903101
 40
0.0002032418961792
 40
0.0002032418961792
 40
0.0002032418961792
 40
0.0002032418961792
 10
59.9940777999185
 20
13.91707689518968
 30
0.0
 10
60.04040347774583
 20
13.93269552893991
 30
0.0
 10
60.08972407143099
 20
13.94360856335241
 30
0.0
 10
60.1408357492455
 20
13.94986124550812
 30
0.0
 10
60.19192864037791
 20
13.95611162941895
 30
0.0
 10
60.24515811966248
 20
13.95775290597395
 30
0.0
 10
60.2994581364616
 20
13.95490828573269
 30
0.0
 10
60.37857142225545
 20
13.95076377036441
 30
0.0
 10
60.46086962317443
 20
13.93701541208273
 30
0.0
 10
60.54322077005213
 20
13.9141733175452
 30
0.0
  0
SPLINE
  5
138
330
1F
100
AcDbEntity
  8
외형선
  6
Continuous
 62
     1
370
    15
100
AcDbSpline
210
0.0
220
0.0
230
1.0
 70
     8
 71
     3
 72
    10
 73
     6
 74
     0
 42
0.000000001
 43
0.00000001
 40
0.0
 40
0.0
 40
0.0
 40
0.0
 40
0.5000000000000002
 40
0.5000000000000002
 40
1.0
 40
1.0
 40
1.0
 40
1.0
 10
57.80770884750379
 20
14.44969246877243
 30
0.0
 10
58.1414551125014
 20
14.15910099140423
 30
0.0
 10
58.53539762810432
 20
13.97783567953899
 30
0.0
 10
59.30586495996138
 20
13.80425565181722
 30
0.0
 10
59.67897173240279
 20
13.81083935065889
 30
0.0
 10
59.99407779991709
 20
13.91707689518871
 30
0.0
  0
SPLINE
  5
139
330
1F
100
AcDbEntity
  8
외형선
  6
Continuous
 62
     1
370
    15
100
AcDbSpline
210
0.0
220
0.0
230
1.0
 70
     8
 71
     3
 72
     8
 73
     4
 74
     0
 42
0.000000001
 43
0.00000001
 40
0.0
 40
0.0
 40
0.0
 40
0.0
 40
1.0
 40
1.0
 40
1.0
 40
1.0
 10
57.26365498805208
 20
14.72475607551984
 30
0.0
 10
57.45221145383083
 20
14.68391491516127
 30
0.0
 10
57.64399016491633
 20
14.59224164110783
 30
0.0
 10
57.80770884750015
 20
14.44969246877545
 30
0.0
  0
SPLINE
  5
13A
330
1F
100
AcDbEntity
  8
외형선
  6
Continuous
 62
     1
370
    15
100
AcDbSpline
210
0.0
220
0.0
230
1.0
 70
     8
 71
     3
 72
    10
 73
     6
 74
     0
 42
0.000000001
 43
0.00000001
 40
0.0
 40
0.0
 40
0.0
 40
0.0
 40
0.5
 40
0.5
 40
1.0
 40
1.0
 40
1.0
 40
1.0
 10
57.26364926263382
 20
14.72475731563848
 30
0.0
 10
56.04801482836183
 20
14.98806249462329
 30
0.0
 10
54.81904949645286
 20
15.20862667335276
 30
0.0
 10
52.36704796616056
 20
15.55765836130857
 30
0.0
 10
51.15318168036849
 20
15.68599253515096
 30
0.0
 10
49.93072434875771
 20
15.76786234093604
 30
0.0
  0
SPLINE
  5
13B
330
1F
100
AcDbEntity
  8
외형선
  6
Continuous
 62
     1
370
    15
100
AcDbSpline
210
0.0
220
0.0
230
1.0
 70
     8
 71
     3
 72
    14
 73
    10
 74
     0
 42
0.000000001
 43
0.00000001
 40
0.0
 40
0.0
 40
0.0
 40
0.0
 40
0.0000585950697937
 40
0.0000585950697937
 40
0.0000585950697937
 40
0.0001171559814346
 40
0.0001171559814346
 40
0.0001171559814346
 40
0.0002029747007883
 40
0.0002029747007883
 40
0.0002029747007883
 40
0.0002029747007883
 10
49.38263139587202
 20
15.62669633519925
 30
0.0
 10
49.42881414813199
 20
15.65740792815508
 30
0.0
 10
49.47798484992245
 20
15.68332764460914
 30
0.0
 10
49.52894354282279
 20
15.70420492739253
 30
0.0
 10
49.57988363598402
 20
15.725074590043
 30
0.0
 10
49.63295623982943
 20
15.74105332346753
 30
0.0
 10
49.68709744850801
 20
15.7519977259911
 30
0.0
 10
49.7661623522384
 20
15.76798034169236
 30
0.0
 10
49.84842191636139
 20
15.773374265128
 30
0.0
 10
49.93072812311749
 20
15.76786208816136
 30
0.0
  0
SPLINE
  5
13C
330
1F
100
AcDbEntity
  8
외형선
  6
Continuous
 62
     1
370
    15
100
AcDbSpline
210
0.0
220
0.0
230
1.0
 70
     8
 71
     3
 72
    10
 73
     6
 74
     0
 42
0.000000001
 43
0.00000001
 40
0.0
 40
0.0
 40
0.0
 40
0.0
 40
0.3234308318342063
 40
0.777471249172909
 40
1.0
 40
1.0
 40
1.0
 40
1.0
 10
47.89149609209151
 20
15.38774790754451
 30
0.0
 10
48.06146264552761
 20
15.35586958309328
 30
0.0
 10
48.47003256407308
 20
15.27923965702197
 30
0.0
 10
48.98655857909445
 20
15.39828127618306
 30
0.0
 10
49.28460248567973
 20
15.57016309596024
 30
0.0
 10
49.38263139587062
 20
15.62669633519814
 30
0.0
  0
SPLINE
  5
13D
330
1F
100
AcDbEntity
  8
외형선
  6
Continuous
 62
     1
370
    15
100
AcDbSpline
210
0.0
220
0.0
230
1.0
 70
     8
 71
     3
 72
     9
 73
     5
 74
     0
 42
0.000000001
 43
0.00000001
 40
0.0
 40
0.0
 40
0.0
 40
0.0
 40
0.5277941045883613
 40
1.0
 40
1.0
 40
1.0
 40
1.0
 10
68.17423833706101
 20
12.3597634705129
 30
0.0
 10
67.98319110787871
 20
12.21350109863815
 30
0.0
 10
67.62121808180379
 20
11.93638096674728
 30
0.0
 10
67.22259421737556
 20
11.78887759948591
 30
0.0
 10
67.03436167854075
 20
11.71922563987203
 30
0.0
  0
SPLINE
  5
13E
330
1F
100
AcDbEntity
  8
외형선
  6
Continuous
 62
     1
370
    15
100
AcDbSpline
210
0.0
220
0.0
230
1.0
 70
     8
 71
     3
 72
     8
 73
     4
 74
     0
 42
0.000000001
 43
0.00000001
 40
0.0
 40
0.0
 40
0.0
 40
0.0
 40
1.0
 40
1.0
 40
1.0
 40
1.0
 10
68.7181275201363
 20
12.67664845957232
 30
0.0
 10
68.52961227373915
 20
12.61107610391405
 30
0.0
 10
68.33785688601571
 20
12.50311011621329
 30
0.0
 10
68.1742383370622
 20
12.35976347051394
 30
0.0
  0
SPLINE
  5
13F
330
1F
100
AcDbEntity
  8
외형선
  6
Continuous
 62
     1
370
    15
100
AcDbSpline
210
0.0
220
0.0
230
1.0
 70
     8
 71
     3
 72
    10
 73
     6
 74
     0
 42
0.000000001
 43
0.00000001
 40
0.0
 40
0.0
 40
0.0
 40
0.0
 40
0.5
 40
0.5
 40
1.0
 40
1.0
 40
1.0
 40
1.0
 10
76.05043848333935
 20
14.7474269836036
 30
0.0
 10
74.83391965696991
 20
14.48655088598161
 30
0.0
 10
73.60834410919962
 20
14.18129827798139
 30
0.0
 10
71.15535923279498
 20
13.48811420865852
 30
0.0
 10
69.93939739075755
 20
13.10144973456475
 30
0.0
 10
68.71813446201904
 20
12.67665087420747
 30
0.0
  0
SPLINE
  5
140
330
1F
100
AcDbEntity
  8
외형선
  6
Continuous
 62
     1
370
    15
100
AcDbSpline
210
0.0
220
0.0
230
1.0
 70
     8
 71
     3
 72
    14
 73
    10
 74
     0
 42
0.000000001
 43
0.00000001
 40
0.0
 40
0.0
 40
0.0
 40
0.0
 40
0.0000586813644257
 40
0.0000586813644257
 40
0.0000586813644257
 40
0.0001173282061186
 40
0.0001173282061186
 40
0.0001173282061186
 40
0.0002031917303084
 40
0.0002031917303084
 40
0.0002031917303084
 40
0.0002031917303084
 10
76.59877308386822
 20
14.70372696079176
 30
0.0
 10
76.55253905979019
 20
14.72451025117465
 30
0.0
 10
76.50331655764907
 20
14.74047788392368
 30
0.0
 10
76.45230837993755
 20
14.75158013057757
 30
0.0
 10
76.40131898810188
 20
14.76267828836892
 30
0.0
 10
76.34819917022737
 20
14.76899572795192
 30
0.0
 10
76.29401370145781
 20
14.77057224572876
 30
0.0
 10
76.21495729516795
 20
14.77287237956019
 30
0.0
 10
76.13271959865183
 20
14.76507174053739
 30
0.0
 10
76.05043715257919
 20
14.74742669822903
 30
0.0
  0
SPLINE
  5
141
330
1F
100
AcDbEntity
  8
외형선
  6
Continuous
 62
     1
370
    15
100
AcDbSpline
210
0.0
220
0.0
230
1.0
 70
     8
 71
     3
 72
    10
 73
     6
 74
     0
 42
0.000000001
 43
0.00000001
 40
0.0
 40
0.0
 40
0.0
 40
0.0
 40
0.5
 40
0.5
 40
1.0
 40
1.0
 40
1.0
 40
1.0
 10
78.78306197401773
 20
15.09320252268962
 30
0.0
 10
78.44945542990969
 20
14.81074114359735
 30
0.0
 10
78.05562877652793
 20
14.64770413918352
 30
0.0
 10
77.28573326586422
 20
14.52423627226274
 30
0.0
 10
76.91322208411368
 20
14.56237467720099
 30
0.0
 10
76.59877308387246
 20
14.70372696078864
 30
0.0
  0
LINE
  5
142
330
1F
100
AcDbEntity
  8
외형선
  6
Continuous
 62
     1
370
    15
100
AcDbLine
 10
88.20000000000002
 20
1.689359876685249
 30
0.0
 11
88.20000000000002
 21
-7.508470364300032
 31
0.0
  0
SPLINE
  5
143
330
1F
100
AcDbEntity
  8
외형선
  6
Continuous
 62
     1
370
    15
100
AcDbSpline
210
0.0
220
0.0
230
1.0
 70
     8
 71
     3
 72
    14
 73
    10
 74
     0
 42
0.000000001
 43
0.00000001
 40
0.0
 40
0.0
 40
0.0
 40
0.0
 40
0.2499999999999998
 40
0.2499999999999998
 40
0.4999999999999997
 40
0.4999999999999997
 40
0.7499999999999997
 40
0.7499999999999997
 40
1.0
 40
1.0
 40
1.0
 40
1.0
 10
69.52340974579651
 20
1.434428000714041
 30
0.0
 10
69.43413215488404
 20
2.328369960047475
 30
0.0
 10
69.34714885562221
 20
3.207919391984098
 30
0.0
 10
69.16386230511554
 20
4.956580296971096
 30
0.0
 10
69.06991128438321
 20
5.817680800492071
 30
0.0
 10
68.88157179983959
 20
7.47325289970408
 30
0.0
 10
68.78720487673041
 20
8.267532112765466
 30
0.0
 10
68.6023160335122
 20
9.754670786216952
 30
0.0
 10
68.51294096770891
 20
10.44475853569187
 30
0.0
 10
68.42491453584648
 20
11.07782577385331
 30
0.0
  0
SPLINE
  5
144
330
1F
100
AcDbEntity
  8
외형선
  6
Continuous
 62
     1
370
    15
100
AcDbSpline
210
0.0
220
0.0
230
1.0
 70
     8
 71
     3
 72
    12
 73
     8
 74
     0
 42
0.000000001
 43
0.00000001
 40
0.0
 40
0.0
 40
0.0
 40
0.0
 40
0.5000000000000006
 40
0.5000000000000006
 40
0.7500000000000003
 40
0.7500000000000003
 40
1.0
 40
1.0
 40
1.0
 40
1.0
 10
41.22399433175282
 20
-12.98162259879158
 30
0.0
 10
41.0399940858338
 20
-11.96322168529132
 30
0.0
 10
40.84769041505549
 20
-10.66307147790573
 30
0.0
 10
40.57212738542145
 20
-8.46211337932672
 30
0.0
 10
40.48444381789189
 20
-7.694220501647179
 30
0.0
 10
40.30719145590859
 20
-6.086574439013503
 30
0.0
 10
40.21528957392122
 20
-5.239121482990622
 30
0.0
 10
40.12205356632646
 20
-4.365254797687457
 30
0.0
  0
SPLINE
  5
145
330
1F
100
AcDbEntity
  8
외형선
  6
Continuous
 62
     1
370
    15
100
AcDbSpline
210
0.0
220
0.0
230
1.0
 70
     8
 71
     3
 72
    12
 73
     8
 74
     0
 42
0.000000001
 43
0.00000001
 40
0.0
 40
0.0
 40
0.0
 40
0.0
 40
0.5000000000000003
 40
0.5000000000000003
 40
0.7500000000000001
 40
0.7500000000000001
 40
1.0
 40
1.0
 40
1.0
 40
1.0
 10
43.40731097957142
 20
-13.63965064885641
 30
0.0
 10
43.22781458209406
 20
-12.75006472739675
 30
0.0
 10
43.03629678487236
 20
-11.56470455478367
 30
0.0
 10
42.75600868487372
 20
-9.48473065218943
 30
0.0
 10
42.66379427156483
 20
-8.742732979642202
 30
0.0
 10
42.48572242833056
 20
-7.198411182898112
 30
0.0
 10
42.39860057545609
 20
-6.393153546854738
 30
0.0
 10
42.30694054842019
 20
-5.546583924486925
 30
0.0
  0
SPLINE
  5
146
330
1F
100
AcDbEntity
  8
외형선
  6
Continuous
 62
     1
370
    15
100
AcDbSpline
210
0.0
220
0.0
230
1.0
 70
     8
 71
     3
 72
    12
 73
     8
 74
     0
 42
0.000000001
 43
0.00000001
 40
0.0
 40
0.0
 40
0.0
 40
0.0
 40
0.4999999999999996
 40
0.4999999999999996
 40
0.7499999999999998
 40
0.7499999999999998
 40
1.0
 40
1.0
 40
1.0
 40
1.0
 10
43.95034439940996
 20
-13.93526687966862
 30
0.0
 10
43.77291754720243
 20
-13.07044941379225
 30
0.0
 10
43.58277264947975
 20
-11.90688628073576
 30
0.0
 10
43.30297216680668
 20
-9.84691548442111
 30
0.0
 10
43.21066624977479
 20
-9.109497668027043
 30
0.0
 10
43.03192346875446
 20
-7.569493342476825
 30
0.0
 10
42.94605719851351
 20
-6.769483132848472
 30
0.0
 10
42.85537911746169
 20
-5.925936178044915
 30
0.0
  0
SPLINE
  5
147
330
1F
100
AcDbEntity
  8
외형선
  6
Continuous
 62
     1
370
    15
100
AcDbSpline
210
0.0
220
0.0
230
1.0
 70
     8
 71
     3
 72
    12
 73
     8
 74
     0
 42
0.000000001
 43
0.00000001
 40
0.0
 40
0.0
 40
0.0
 40
0.0
 40
0.2499999999999999
 40
0.2499999999999999
 40
0.4999999999999998
 40
0.4999999999999998
 40
1.0
 40
1.0
 40
1.0
 40
1.0
 10
51.28394504210316
 20
-15.44710544329101
 30
0.0
 10
51.19092288618322
 20
-15.2357194826148
 30
0.0
 10
51.09905151082405
 20
-14.94743202813941
 30
0.0
 10
50.92149637667016
 20
-14.23649630892615
 30
0.0
 10
50.83508773052965
 20
-13.81440594689754
 30
0.0
 10
50.56194381899036
 20
-12.32873291698352
 30
0.0
 10
50.3705847138985
 20
-11.05156141206605
 30
0.0
 10
50.18662418125191
 20
-9.596646848254863
 30
0.0
  0
SPLINE
  5
148
330
1F
100
AcDbEntity
  8
외형선
  6
Continuous
 62
     1
370
    15
100
AcDbSpline
210
0.0
220
0.0
230
1.0
 70
     8
 71
     3
 72
    12
 73
     8
 74
     0
 42
0.000000001
 43
0.00000001
 40
0.0
 40
0.0
 40
0.0
 40
0.0
 40
0.5000000000000001
 40
0.5000000000000001
 40
0.75
 40
0.75
 40
1.0
 40
1.0
 40
1.0
 40
1.0
 10
61.09697293071099
 20
6.083720124005244
 30
0.0
 10
60.90940320849245
 20
7.76380373509696
 30
0.0
 10
60.71929682834249
 20
9.323241491099953
 30
0.0
 10
60.45478423872622
 20
11.29310632811899
 30
0.0
 10
60.36630944448629
 20
11.8992356488759
 30
0.0
 10
60.18216425072463
 20
13.0023440868372
 30
0.0
 10
60.08807776700986
 20
13.4952524159228
 30
0.0
 10
59.99407779991941
 20
13.9170768951783
 30
0.0
  0
SPLINE
  5
149
330
1F
100
AcDbEntity
  8
외형선
  6
Continuous
 62
     1
370
    15
100
AcDbSpline
210
0.0
220
0.0
230
1.0
 70
     8
 71
     3
 72
    12
 73
     8
 74
     0
 42
0.000000001
 43
0.00000001
 40
0.0
 40
0.0
 40
0.0
 40
0.0
 40
0.2499999999999998
 40
0.2499999999999998
 40
0.4999999999999998
 40
0.4999999999999998
 40
1.0
 40
1.0
 40
1.0
 40
1.0
 10
58.91066258806416
 20
7.211967414929934
 30
0.0
 10
58.81667648321609
 20
8.02205869077402
 30
0.0
 10
58.72299422218796
 20
8.794418193606575
 30
0.0
 10
58.54037856482789
 20
10.23151832517473
 30
0.0
 10
58.45383944682129
 20
10.89104304579092
 30
0.0
 10
58.18580720289366
 20
12.72213100868101
 30
0.0
 10
57.99468638514013
 20
13.73830536301768
 30
0.0
 10
57.8077088475074
 20
14.44969246875841
 30
0.0
  0
SPLINE
  5
14A
330
1F
100
AcDbEntity
  8
외형선
  6
Continuous
 62
     1
370
    15
100
AcDbSpline
210
0.0
220
0.0
230
1.0
 70
     8
 71
     3
 72
    12
 73
     8
 74
     0
 42
0.000000001
 43
0.00000001
 40
0.0
 40
0.0
 40
0.0
 40
0.0
 40
0.5000000000000001
 40
0.5000000000000001
 40
0.75
 40
0.75
 40
1.0
 40
1.0
 40
1.0
 40
1.0
 10
51.02456285760138
 20
11.00289276887226
 30
0.0
 10
50.85042914179789
 20
12.2969040532671
 30
0.0
 10
50.66227782828285
 20
13.40782094445563
 30
0.0
 10
50.38121419478253
 20
14.63270151108985
 30
0.0
 10
50.28789059990969
 20
14.96831426497706
 30
0.0
 10
50.10606520774652
 20
15.48364105157722
 30
0.0
 10
50.01994469983693
 20
15.66292155549348
 30
0.0
 10
49.93072808522112
 20
15.7678621327368
 30
0.0
  0
SPLINE
  5
14B
330
1F
100
AcDbEntity
  8
외형선
  6
Continuous
 62
     1
370
    15
100
AcDbSpline
210
0.0
220
0.0
230
1.0
 70
     8
 71
     3
 72
    12
 73
     8
 74
     0
 42
0.000000001
 43
0.00000001
 40
0.0
 40
0.0
 40
0.0
 40
0.0
 40
0.2499999999999999
 40
0.2499999999999999
 40
0.4999999999999998
 40
0.4999999999999998
 40
1.0
 40
1.0
 40
1.0
 40
1.0
 10
58.36146848688826
 20
7.594626661180418
 30
0.0
 10
58.26799916631759
 20
8.400747341534224
 30
0.0
 10
58.17509480988488
 20
9.166801287804429
 30
0.0
 10
57.99445061526123
 20
10.58786559542735
 30
0.0
 10
57.90886000192235
 20
11.23853662934173
 30
0.0
 10
57.64000349495589
 20
13.04735646753215
 30
0.0
 10
57.44931446392758
 20
14.04019464600179
 30
0.0
 10
57.26365469784798
 20
14.72475714553399
 30
0.0
  0
SPLINE
  5
14C
330
1F
100
AcDbEntity
  8
외형선
  6
Continuous
 62
     1
370
    15
100
AcDbSpline
210
0.0
220
0.0
230
1.0
 70
     8
 71
     3
 72
    12
 73
     8
 74
     0
 42
0.000000001
 43
0.00000001
 40
0.0
 40
0.0
 40
0.0
 40
0.0
 40
0.2499999999999999
 40
0.2499999999999999
 40
0.4999999999999999
 40
0.4999999999999999
 40
1.0
 40
1.0
 40
1.0
 40
1.0
 10
51.83312866307446
 20
-15.34847908240268
 30
0.0
 10
51.73943637685329
 20
-15.15745757195358
 30
0.0
 10
51.6466419455099
 20
-14.88891567009051
 30
0.0
 10
51.46686028853046
 20
-14.21482002358002
 30
0.0
 10
51.38077961013596
 20
-13.81223133784844
 30
0.0
 10
51.10805996694423
 20
-12.38471265336916
 30
0.0
 10
50.91596707780405
 20
-11.14331520098921
 30
0.0
 10
50.73043460828492
 20
-9.716620108734258
 30
0.0
  0
SPLINE
  5
14D
330
1F
100
AcDbEntity
  8
외형선
  6
Continuous
 62
     1
370
    15
100
AcDbSpline
210
0.0
220
0.0
230
1.0
 70
     8
 71
     3
 72
    12
 73
     8
 74
     0
 42
0.000000001
 43
0.00000001
 40
0.0
 40
0.0
 40
0.0
 40
0.0
 40
0.25
 40
0.25
 40
0.5
 40
0.5
 40
1.0
 40
1.0
 40
1.0
 40
1.0
 10
54.01953236543267
 20
-15.56124228911809
 30
0.0
 10
53.92553017204813
 20
-15.4414620453553
 30
0.0
 10
53.83144016766121
 20
-15.24227806584017
 30
0.0
 10
53.64728582624316
 20
-14.69720968182004
 30
0.0
 10
53.55880087277126
 20
-14.3539105915
 30
0.0
 10
53.29429266841532
 20
-13.12375062396172
 30
0.0
 10
53.10418456865028
 20
-12.00382159989546
 30
0.0
 10
52.91660881859123
 20
-10.66668531906392
 30
0.0
  0
SPLINE
  5
14E
330
1F
100
AcDbEntity
  8
외형선
  6
Continuous
 62
     1
370
    15
100
AcDbSpline
210
0.0
220
0.0
230
1.0
 70
     8
 71
     3
 72
    10
 73
     6
 74
     0
 42
0.000000001
 43
0.00000001
 40
0.0
 40
0.0
 40
0.0
 40
0.0
 40
0.5
 40
0.5
 40
1.0
 40
1.0
 40
1.0
 40
1.0
 10
54.56346763471056
 20
-15.7728303119386
 30
0.0
 10
54.37642396033155
 20
-15.56489100004198
 30
0.0
 10
54.18902731982695
 20
-15.0325483333898
 30
0.0
 10
53.84111335330796
 20
-13.44833078915285
 30
0.0
 10
53.65271462257222
 20
-12.35425957269092
 30
0.0
 10
53.46574010534606
 20
-11.03466018846148
 30
0.0
  0
SPLINE
  5
14F
330
1F
100
AcDbEntity
  8
외형선
  6
Continuous
 62
     1
370
    15
100
AcDbSpline
210
0.0
220
0.0
230
1.0
 70
     8
 71
     3
 72
    12
 73
     8
 74
     0
 42
0.000000001
 43
0.00000001
 40
0.0
 40
0.0
 40
0.0
 40
0.0
 40
0.5000000000000002
 40
0.5000000000000002
 40
0.7500000000000001
 40
0.7500000000000001
 40
1.0
 40
1.0
 40
1.0
 40
1.0
 10
50.48186015429076
 20
11.08487758178246
 30
0.0
 10
50.30582811161082
 20
12.34981544652252
 30
0.0
 10
50.11567706079916
 20
13.425865752662
 30
0.0
 10
49.83372971502885
 20
14.591903463885
 30
0.0
 10
49.74036634700255
 20
14.90711633377427
 30
0.0
 10
49.55897034788921
 20
15.38172321581152
 30
0.0
 10
49.47295327727228
 20
15.54139293106409
 30
0.0
 10
49.38263139587163
 20
15.62669633519721
 30
0.0
  0
LINE
  5
150
330
1F
100
AcDbEntity
  8
외형선
  6
Continuous
 62
     1
370
    15
100
AcDbLine
 10
47.38655166599852
 20
15.51769630950385
 30
0.0
 11
47.29623940460318
 21
15.60318140340844
 31
0.0
  0
SPLINE
  5
151
330
1F
100
AcDbEntity
  8
외형선
  6
Continuous
 62
     1
370
    15
100
AcDbSpline
210
0.0
220
0.0
230
1.0
 70
     8
 71
     3
 72
    12
 73
     8
 74
     0
 42
0.000000001
 43
0.00000001
 40
0.0
 40
0.0
 40
0.0
 40
0.0
 40
0.5
 40
0.5
 40
0.75
 40
0.75
 40
1.0
 40
1.0
 40
1.0
 40
1.0
 10
47.75157220016308
 20
12.28349723703653
 30
0.0
 10
47.56973195879145
 20
13.43604359513164
 30
0.0
 10
47.37840539470329
 20
14.35861022773674
 30
0.0
 10
47.10216541478002
 20
15.27194592756083
 30
0.0
 10
47.01236912958538
 20
15.49924354174729
 30
0.0
 10
46.83814552455725
 20
15.80034224148886
 30
0.0
 10
46.74750247565754
 20
15.87741540284109
 30
0.0
 10
46.65518433647239
 20
15.87494190870131
 30
0.0
  0
LINE
  5
152
330
1F
100
AcDbEntity
  8
외형선
  6
Continuous
 62
     1
370
    15
100
AcDbLine
 10
88.20000000000002
 20
3.062294043822086
 30
0.0
 11
88.20000000000002
 21
10.27912543797246
 31
0.0
  0
LINE
  5
154
330
1F
100
AcDbEntity
  8
외형선
  6
Continuous
 62
     1
370
    15
100
AcDbLine
 10
88.20000000000002
 20
-7.508470364300036
 30
0.0
 11
88.20000000000002
 21
-9.28065477062291
 31
0.0
  0
LINE
  5
155
330
1F
100
AcDbEntity
  8
외형선
  6
Continuous
 62
     1
370
    15
100
AcDbLine
 10
88.20000000000002
 20
12.20833333333331
 30
0.0
 11
88.20000000000002
 21
12.09088358991283
 31
0.0
  0
LINE
  5
156
330
1F
100
AcDbEntity
  8
외형선
  6
Continuous
 62
     1
370
    15
100
AcDbLine
 10
74.76770479021579
 20
-15.85301568694806
 30
0.0
 11
74.7461250477319
 21
-15.85757438635661
 31
0.0
  0
SPLINE
  5
157
330
1F
100
AcDbEntity
  8
외형선
  6
Continuous
 62
     1
370
    15
100
AcDbSpline
210
0.0
220
0.0
230
1.0
 70
     8
 71
     3
 72
    10
 73
     6
 74
     0
 42
0.000000001
 43
0.00000001
 40
0.0
 40
0.0
 40
0.0
 40
0.0
 40
0.1422482944389106
 40
0.5743059096230284
 40
1.0
 40
1.0
 40
1.0
 40
1.0
 10
61.65784588441055
 20
-15.7824188711746
 30
0.0
 10
61.61764100373966
 20
-15.80749679175553
 30
0.0
 10
61.45531989714175
 20
-15.90874509176147
 30
0.0
 10
61.16238687121816
 20
-15.26946624088155
 30
0.0
 10
60.92509966606305
 20
-14.18991513370595
 30
0.0
 10
60.80733626168657
 20
-13.65414408993524
 30
0.0
  0
SPLINE
  5
158
330
1F
100
AcDbEntity
  8
외형선
  6
Continuous
 62
     1
370
    15
100
AcDbSpline
210
0.0
220
0.0
230
1.0
 70
     8
 71
     3
 72
    11
 73
     7
 74
     0
 42
0.000000001
 43
0.00000001
 40
0.0
 40
0.0
 40
0.0
 40
0.0
 40
0.3107955843393636
 40
0.6227417515190106
 40
0.930834014084406
 40
0.9999999999999999
 40
0.9999999999999999
 40
0.9999999999999999
 40
0.9999999999999999
 10
48.29992176212693
 20
11.93044599632206
 30
0.0
 10
48.20524133421475
 20
12.50093492498974
 30
0.0
 10
48.01552996608862
 20
13.64402476462141
 30
0.0
 10
47.72563987190483
 20
14.78684114595229
 30
0.0
 10
47.52053387196062
 20
15.40891785785487
 30
0.0
 10
47.40730997313443
 20
15.50084290353936
 30
0.0
 10
47.38655166599852
 20
15.51769630950385
 30
0.0
  0
SPLINE
  5
159
330
1F
100
AcDbEntity
  8
외형선
  6
Continuous
 62
     1
370
    15
100
AcDbSpline
210
0.0
220
0.0
230
1.0
 70
     8
 71
     3
 72
     9
 73
     5
 74
     0
 42
0.000000001
 43
0.00000001
 40
0.0
 40
0.0
 40
0.0
 40
0.0
 40
0.5833023047514858
 40
1.0
 40
1.0
 40
1.0
 40
1.0
 10
40.40862249595975
 20
14.50146240826738
 30
0.0
 10
40.27939489525473
 20
14.96493686061557
 30
0.0
 10
40.05785008109509
 20
15.75950675785889
 30
0.0
 10
39.83707847376169
 20
15.79570910559356
 30
0.0
 10
39.74508345380951
 20
15.81079454045718
 30
0.0
  0
SPLINE
  5
15A
330
1F
100
AcDbEntity
  8
외형선
  6
Continuous
 62
     1
370
    15
100
AcDbSpline
210
0.0
220
0.0
230
1.0
 70
     8
 71
     3
 72
    11
 73
     7
 74
     0
 42
0.000000001
 43
0.00000001
 40
0.0
 40
0.0
 40
0.0
 40
0.0
 40
0.1251399955406615
 40
0.4187081590551409
 40
0.7114394890800804
 40
1.0
 40
1.0
 40
1.0
 40
1.0
 10
62.29476142441436
 20
-15.59427657366814
 30
0.0
 10
62.25592501055876
 20
-15.63742337975088
 30
0.0
 10
62.12598155579403
 20
-15.78178905329882
 30
0.0
 10
61.89624257859704
 20
-15.52226912674519
 30
0.0
 10
61.61720630510483
 20
-14.86880662828662
 30
0.0
 10
61.43894073123141
 20
-14.05092375465123
 30
0.0
 10
61.35044747973022
 20
-13.6449165079208
 30
0.0
  0
SPLINE
  5
15B
330
1F
100
AcDbEntity
  8
외형선
  6
Continuous
 62
     1
370
    15
100
AcDbSpline
210
0.0
220
0.0
230
1.0
 70
     8
 71
     3
 72
    10
 73
     6
 74
     0
 42
0.000000001
 43
0.00000001
 40
0.0
 40
0.0
 40
0.0
 40
0.0
 40
0.1288858400849735
 40
0.5669187401228335
 40
1.0
 40
1.0
 40
1.0
 40
1.0
 10
64.09302981700661
 20
-15.60056895235833
 30
0.0
 10
64.06872257332071
 20
-15.59112361814208
 30
0.0
 10
63.96180445138266
 20
-15.54957726230978
 30
0.0
 10
63.77108020008416
 20
-15.12350046076943
 30
0.0
 10
63.61108408198466
 20
-14.51825806054213
 30
0.0
 10
63.53154075277422
 20
-14.21735703828452
 30
0.0
  0
SPLINE
  5
15C
330
1F
100
AcDbEntity
  8
외형선
  6
Continuous
 62
     1
370
    15
100
AcDbSpline
210
0.0
220
0.0
230
1.0
 70
     8
 71
     3
 72
    10
 73
     6
 74
     0
 42
0.000000001
 43
0.00000001
 40
0.0
 40
0.0
 40
0.0
 40
0.0
 40
0.2885911908020982
 40
0.6460280524100703
 40
1.0
 40
1.0
 40
1.0
 40
1.0
 10
64.74537921693549
 20
-15.84797019729102
 30
0.0
 10
64.68112439345641
 20
-15.83562006235391
 30
0.0
 10
64.53728625912261
 20
-15.80797357183478
 30
0.0
 10
64.31191302005288
 20
-15.37018247448903
 30
0.0
 10
64.15661716589145
 20
-14.80218085579565
 30
0.0
 10
64.07934742275717
 20
-14.51956327135806
 30
0.0
  0
LINE
  5
15D
330
1F
100
AcDbEntity
  8
외형선
  6
Continuous
 62
     1
370
    15
100
AcDbLine
 10
71.65940191520879
 20
-15.85891492197172
 30
0.0
 11
71.41869244177133
 21
-15.69841416832844
 31
0.0
  0
SPLINE
  5
15E
330
1F
100
AcDbEntity
  8
외형선
  6
Continuous
 62
     1
370
    15
100
AcDbSpline
210
0.0
220
0.0
230
1.0
 70
     8
 71
     3
 72
    11
 73
     7
 74
     0
 42
0.000000001
 43
0.00000001
 40
0.0
 40
0.0
 40
0.0
 40
0.0
 40
0.2393339218894393
 40
0.4758948297275974
 40
0.7996574575569191
 40
1.0
 40
1.0
 40
1.0
 40
1.0
 10
39.8646354574548
 20
14.45349426938233
 30
0.0
 10
39.80359615649142
 20
14.66819431780332
 30
0.0
 10
39.68222477917335
 20
15.09510681804229
 30
0.0
 10
39.48539460067555
 20
15.53087323545892
 30
0.0
 10
39.29711407799839
 20
15.75823397905267
 30
0.0
 10
39.16268787057042
 20
15.64966890318193
 30
0.0
 10
39.11130259583042
 20
15.60816921084124
 30
0.0
  0
SPLINE
  5
15F
330
1F
100
AcDbEntity
  8
외형선
  6
Continuous
 62
     1
370
    15
100
AcDbSpline
210
0.0
220
0.0
230
1.0
 70
     8
 71
     3
 72
     9
 73
     5
 74
     0
 42
0.000000001
 43
0.00000001
 40
0.0
 40
0.0
 40
0.0
 40
0.0
 40
0.5844456516866141
 40
1.0
 40
1.0
 40
1.0
 40
1.0
 10
37.67888518548322
 20
14.89500288358509
 30
0.0
 10
37.60227782954769
 20
15.11900986216899
 30
0.0
 10
37.47120087531859
 20
15.5022909729745
 30
0.0
 10
37.33933772189819
 20
15.56867827797877
 30
0.0
 10
37.28454141511203
 20
15.59626581124609
 30
0.0
  0
SPLINE
  5
160
330
1F
100
AcDbEntity
  8
외형선
  6
Continuous
 62
     1
370
    15
100
AcDbSpline
210
0.0
220
0.0
230
1.0
 70
     8
 71
     3
 72
     9
 73
     5
 74
     0
 42
0.000000001
 43
0.00000001
 40
0.0
 40
0.0
 40
0.0
 40
0.0
 40
0.4178034856257358
 40
1.0
 40
1.0
 40
1.0
 40
1.0
 10
37.13026524358332
 20
15.16763580951156
 30
0.0
 10
37.06504835550639
 20
15.3443029123995
 30
0.0
 10
36.90895370737462
 20
15.767150277168
 30
0.0
 10
36.75113100259655
 20
15.82462404227049
 30
0.0
 10
36.65924717398563
 20
15.85808506798113
 30
0.0
  0
LINE
  5
161
330
1F
100
AcDbEntity
  8
외형선
  6
Continuous
 62
     1
370
    15
100
AcDbLine
 10
29.79930541054022
 20
15.86630663304011
 30
0.0
 11
29.74609305975849
 21
15.82724099286515
 31
0.0
  0
SPLINE
  5
162
330
1F
100
AcDbEntity
  8
외형선
  6
Continuous
 62
     1
370
    15
100
AcDbSpline
210
0.0
220
0.0
230
1.0
 70
     8
 71
     3
 72
     9
 73
     5
 74
     0
 42
0.000000001
 43
0.00000001
 40
0.0
 40
0.0
 40
0.0
 40
0.0
 40
0.2445585977375364
 40
1.0
 40
1.0
 40
1.0
 40
1.0
 10
72.28849222106439
 20
-15.61633306996897
 30
0.0
 10
72.26250943591972
 20
-15.64680295800294
 30
0.0
 10
72.15626583874075
 20
-15.77139431694861
 30
0.0
 10
72.04601786294812
 20
-15.65249499497594
 30
0.0
 10
71.96273197751873
 20
-15.56267352445686
 30
0.0
  0
LINE
  5
164
330
1F
100
AcDbEntity
  8
외형선
  6
Continuous
 62
     1
370
    15
100
AcDbLine
 10
74.7461250477319
 20
-15.85757438635661
 30
0.0
 11
74.69791608387996
 21
-15.86775848262942
 31
0.0
  0
LINE
  5
165
330
1F
100
AcDbEntity
  8
외형선
  6
Continuous
 62
     1
370
    15
100
AcDbLine
 10
29.25571088563045
 20
15.6954893198749
 30
0.0
 11
29.11637685362472
 21
15.60915044308508
 31
0.0
  0
LINE
  5
166
330
1F
100
AcDbEntity
  8
중심선
100
AcDbLine
 10
-58.49999999999994
 20
-0.0000000000000184
 30
0.0
 11
95.20000000000005
 21
0.0000000000000004
 31
0.0
  0
LINE
  5
167
330
1F
100
AcDbEntity
  8
참조1
100
AcDbLine
 10
56.45000000000003
 20
-0.3168705809327401
 30
0.0
 11
56.45000000000004
 21
-40.31687058093274
 31
0.0
  0
LINE
  5
168
330
1F
100
AcDbEntity
  8
참조1
100
AcDbLine
 10
36.24639234480354
 20
-4.762499999999998
 30
0.0
 11
104.388972688396
 21
-4.762499999999998
 31
0.0
  0
LINE
  5
169
330
1F
100
AcDbEntity
  8
참조1
100
AcDbLine
 10
104.388972688396
 20
-4.762499999999998
 30
0.0
 11
104.388972688396
 21
-6.927248606176849
 31
0.0
  0
LINE
  5
16A
330
1F
100
AcDbEntity
  8
참조1
100
AcDbLine
 10
56.45000000000004
 20
-40.31687058093274
 30
0.0
 11
31.77895019273432
 21
-40.31687058093274
 31
0.0
  0
CIRCLE
  5
16B
330
1F
100
AcDbEntity
  8
해칭선
100
AcDbCircle
 10
0.0000000000000426
 20
-0.0000000000000036
 30
0.0
 40
8.000000000000012
  0
INSERT
  5
16C
330
1F
100
AcDbEntity
  8
0
  6
Continuous
 62
     7
100
AcDbBlockReference
 66
     1
  2
블럭10
 10
42.50972706787482
 20
-52.36404488257666
 30
0.0
  0
ATTRIB
  5
16D
330
16C
100
AcDbEntity
  8
FORMAT
 62
     2
100
AcDbText
 10
32.98741311727689
 20
-50.28867796974448
 30
0.0
 40
4.233333333333333
  1
E2226116 [ 3 FLUTE ]
 41
0.75
  7
SLDTEXTSTYLE0
 11
32.98741311727689
 21
-52.40534463641114
 31
0.0
100
AcDbAttribute
  2
AUTOATTR0
 70
     0
 74
     1
  0
SEQEND
  5
16E
330
16C
100
AcDbEntity
  8
0
  6
Continuous
 62
     7
  0
HATCH
  5
16F
330
1F
100
AcDbEntity
  8
중심선
100
AcDbHatch
 10
0.0
 20
0.0
 30
0.0
210
0.0
220
0.0
230
1.0
  2
SOLID
 70
     1
 71
     0
 91
        1
 92
        0
 93
        4
 72
     1
 10
48.22463637225567
 20
-36.11687058093274
 11
44.77836112841839
 21
-36.11687058093274
 72
     1
 10
44.7783611284184
 20
-36.11687058093274
 11
42.65013126921438
 21
-38.65319616150533
 72
     1
 10
42.65013126921437
 20
-38.65319616150533
 11
46.0964395981648
 21
-38.65315673220285
 72
     1
 10
46.09643959816481
 20
-38.65315673220285
 11
48.22463637225568
 21
-36.11687058093274
 97
        0
 75
     0
 76
     1
 98
        1
 10
55.97500000000002
 20
-0.3168705809327366
  0
HATCH
  5
170
330
1F
100
AcDbEntity
  8
중심선
100
AcDbHatch
 10
0.0
 20
0.0
 30
0.0
210
0.0
220
0.0
230
1.0
  2
SOLID
 70
     1
 71
     0
 91
        1
 92
        0
 93
        4
 72
     1
 10
53.23740036329166
 20
-36.11687058093274
 11
49.79112511945437
 21
-36.11687058093274
 72
     1
 10
49.79112511945437
 20
-36.11687058093274
 11
45.25998711109696
 21
-41.51687058093276
 72
     1
 10
45.25998711109696
 20
-41.51687058093276
 11
48.70626235493424
 21
-41.51687058093276
 72
     1
 10
48.70626235493424
 20
-41.51687058093276
 11
53.23740036329166
 21
-36.11687058093274
 97
        0
 75
     0
 76
     1
 98
        1
 10
55.97500000000002
 20
-0.3168705809327366
  0
HATCH
  5
171
330
1F
100
AcDbEntity
  8
중심선
100
AcDbHatch
 10
0.0
 20
0.0
 30
0.0
210
0.0
220
0.0
230
1.0
  2
SOLID
 70
     1
 71
     0
 91
        1
 92
        0
 93
        4
 72
     1
 10
58.25016435432758
 20
-36.11687058093271
 11
54.80388911049041
 21
-36.11687058093273
 72
     1
 10
54.80388911049041
 20
-36.11687058093274
 11
47.75545220860116
 21
-44.51687058093276
 72
     1
 10
47.75545220860116
 20
-44.51687058093276
 11
51.20172745243844
 21
-44.51687058093276
 72
     1
 10
51.20172745243844
 20
-44.51687058093276
 11
58.25016435432758
 21
-36.11687058093272
 97
        0
 75
     0
 76
     1
 98
        1
 10
55.97500000000002
 20
-0.3168705809327366
  0
HATCH
  5
172
330
1F
100
AcDbEntity
  8
중심선
100
AcDbHatch
 10
0.0
 20
0.0
 30
0.0
210
0.0
220
0.0
230
1.0
  2
SOLID
 70
     1
 71
     0
 91
        1
 92
        0
 93
        6
 72
     3
 10
63.05005478533973
 20
-40.31687058098402
 11
3.960054785062283
 21
1.540882976769353E-10
 40
0.3939339440162628
 50
17.09539180608439
 51
320.0019657685082
 73
     0
 72
     1
 10
64.7330544410403
 20
-38.90476458557107
 11
67.03835631474139
 21
-36.97043787552312
 72
     3
 10
63.05005478528687
 20
-40.3168705809329
 11
6.600054785286829
 21
-1.278976924368180E-13
 40
0.636358354079598
 50
39.99873849337382
 51
368.4976242363724
 73
     1
 72
     1
 10
69.47538727718748
 20
-39.35687058086275
 11
61.7301220921228
 21
-39.35687058086275
 72
     1
 10
61.7301220921228
 20
-39.35687058086275
 11
61.73009704767686
 21
-41.27687058086265
 72
     1
 10
61.73009704767686
 20
-41.27687058086265
 11
66.1714768171489
 21
-41.27687058086262
 97
        0
 75
     0
 76
     1
 98
        1
 10
55.97500000000002
 20
-0.3168705809327366
  0
DIMENSION
  5
174
330
1F
100
AcDbEntity
  8
치수문자_일반주서
100
AcDbDimension
  2
_D
 10
115.928004730327
 20
-15.8749999999999
 30
0.0
 11
115.9280047303269
 21
-0.1053820947442929
 31
0.0
 70
   160
  1
%%c<>
 71
     2
 42
31.75
 52
-270.0
  3
SLDDIMSTYLE0
100
AcDbAlignedDimension
 13
88.20000000000005
 23
15.875
 33
0.0
 14
88.20000000000005
 24
-15.875
 34
0.0
 50
90.0000000000002
100
AcDbRotatedDimension
1001
ACAD
1000
DSTYLE
1002
{
1070
   171
1070
     6
1070
   273
1070
     7
1002
}
  0
DIMENSION
  5
187
330
1F
100
AcDbEntity
  8
치수문자_일반주서
100
AcDbDimension
  2
_D_1
 10
-77.59749999999997
 20
-15.87500000000011
 30
0.0
 11
-77.59750000000003
 21
-0.0000000000001386
 31
0.0
 70
   160
  1
%%c<>
 71
     2
 42
31.74999999999994
 52
-270.0
  3
SLDDIMSTYLE1
100
AcDbAlignedDimension
 13
-36.41240000000008
 23
15.87499999999999
 33
0.0
 14
-48.83333333333326
 24
-15.875
 34
0.0
 50
90.0000000000002
100
AcDbRotatedDimension
1001
ACAD
1000
DSTYLE
1002
{
1070
   171
1070
     6
1070
   273
1070
     7
1002
}
  0
DIMENSION
  5
19C
330
1F
100
AcDbEntity
  8
치수문자_일반주서
100
AcDbDimension
  2
_D_2
 10
12.00000000000004
 20
54.43054078405299
 30
0.0
 11
58.56666666666672
 21
54.43054078405299
 31
0.0
 70
   160
  1
<>
 71
     2
 42
76.19999999999997
  3
SLDDIMSTYLE0
100
AcDbAlignedDimension
 13
88.20000000000002
 23
8.223300350377965
 33
0.0
 14
12.00000000000004
 24
15.875
 34
0.0
 50
-0.0000000000000183
100
AcDbRotatedDimension
1001
ACAD
1000
DSTYLE
1002
{
1070
   171
1070
     6
1070
   273
1070
     7
1002
}
  0
DIMENSION
  5
1B0
330
1F
100
AcDbEntity
  8
치수문자_일반주서
100
AcDbDimension
  2
_D_3
 10
-51.49999999999997
 20
77.35060939653863
 30
0.0
 11
18.35000000000002
 21
77.35060939653863
 31
0.0
 70
   160
  1
<>
 71
     2
 42
139.7
  3
SLDDIMSTYLE2
100
AcDbAlignedDimension
 13
88.20000000000002
 23
9.672706871930261
 33
0.0
 14
-51.49999999999997
 24
13.48739999999998
 34
0.0
100
AcDbRotatedDimension
1001
ACAD
1000
DSTYLE
1002
{
1070
   171
1070
     6
1070
   273
1070
     7
1002
}
  0
LINE
  5
1C4
330
1F
100
AcDbEntity
  8
참조1
100
AcDbLine
 10
129.7512908223886
 20
7.123129419067266
 30
0.0
 11
129.7512908223886
 21
-7.756870580932739
 31
0.0
  0
LINE
  5
1C5
330
1F
100
AcDbEntity
  8
참조1
100
AcDbLine
 10
142.4512908223886
 20
5.123129419067266
 30
0.0
 11
129.7512908223886
 21
5.123129419067266
 31
0.0
  0
SOLID
  5
1C6
330
1F
100
AcDbEntity
  8
참조1
100
AcDbTrace
 10
129.7512908223886
 20
5.123129419067266
 30
0.0
 11
136.1012908223886
 21
4.107129419067266
 31
0.0
 12
136.1012908223886
 22
6.139129419067266
 32
0.0
 13
136.1012908223886
 23
6.139129419067266
 33
0.0
  0
LINE
  5
1C7
330
1F
100
AcDbEntity
  8
참조1
100
AcDbLine
 10
142.4512908223886
 20
-5.756870580932739
 30
0.0
 11
129.7512908223886
 21
-5.756870580932739
 31
0.0
  0
SOLID
  5
1C8
330
1F
100
AcDbEntity
  8
참조1
100
AcDbTrace
 10
129.7512908223886
 20
-5.756870580932739
 30
0.0
 11
136.1012908223886
 21
-6.772870580932739
 31
0.0
 12
136.1012908223886
 22
-4.740870580932738
 32
0.0
 13
136.1012908223886
 23
-4.740870580932738
 33
0.0
  0
MTEXT
  5
1C9
330
1F
100
AcDbEntity
  8
참조1
100
AcDbMText
 10
139.3514056329512
 20
10.74884698508335
 30
0.0
 40
3.5
 41
0.0
 71
     1
 72
     1
  1
A
  7
SLDTEXTSTYLE0
 73
     1
 44
1.0
  0
MTEXT
  5
1CA
330
1F
100
AcDbEntity
  8
참조1
100
AcDbMText
 10
139.3514056329512
 20
-0.131153014916663
 30
0.0
 40
3.5
 41
0.0
 71
     1
 72
     1
  1
A
  7
SLDTEXTSTYLE0
 73
     1
 44
1.0
  0
INSERT
  5
1D1
330
1F
100
AcDbEntity
  8
해칭선
100
AcDbBlockReference
  2
SW_DOWELSYMBOL_0
 10
0.0000000000000426
 20
-0.0000000000000036
 30
0.0
 41
2.666666666666667
 42
2.666666666666667
 43
2.666666666666667
  0
SPLINE
  5
220
330
1F
100
AcDbEntity
  8
외형선
  6
Continuous
 62
     1
370
    15
100
AcDbSpline
210
0.0
220
0.0
230
1.0
 70
     8
 71
     3
 72
    10
 73
     6
 74
     0
 42
0.000000001
 43
0.00000001
 40
0.0
 40
0.0
 40
0.0
 40
0.0
 40
0.5
 40
0.5
 40
0.7265276578388355
 40
0.7265276578388355
 40
0.7265276578388355
 40
0.7265276578388355
 10
14.11666666666957
 20
0.216682135448543
 30
0.0
 10
13.7826094311329
 20
0.4356270475220562
 30
0.0
 10
13.38831726369062
 20
0.6551920767837902
 30
0.0
 10
12.82850540250023
 20
0.9581132736414232
 30
0.0
 10
12.65655596797948
 20
1.050036622983947
 30
0.0
 10
12.00000000000004
 20
1.283817863253775
 30
0.0
  0
SPLINE
  5
22F
330
1F
100
AcDbEntity
  8
외형선
  6
Continuous
 62
     1
370
    15
100
AcDbSpline
210
0.0
220
0.0
230
1.0
 70
     8
 71
     3
 72
     8
 73
     4
 74
     0
 42
0.000000001
 43
0.00000001
 40
0.0
 40
0.0
 40
0.0
 40
0.0
 40
0.2877466169860351
 40
0.2877466169860351
 40
0.2877466169860351
 40
0.2877466169860351
 10
14.11666395784911
 20
9.765512123014588
 30
0.0
 10
13.41195256207092
 20
10.04819942516463
 30
0.0
 10
12.7053591128624
 20
10.31986986232587
 30
0.0
 10
12.00000000000004
 20
10.57939067730551
 30
0.0
  0
SPLINE
  5
237
330
1F
100
AcDbEntity
  8
외형선
  6
Continuous
 62
     1
370
    15
100
AcDbSpline
210
0.0
220
0.0
230
1.0
 70
     8
 71
     3
 72
    14
 73
    10
 74
     0
 42
0.000000001
 43
0.00000001
 40
0.0
 40
0.0
 40
0.0
 40
0.0
 40
0.0000587638821223
 40
0.0000587638821223
 40
0.0000587638821223
 40
0.0001174930229376
 40
0.0001174930229376
 40
0.0001174930229376
 40
0.0002033589875324
 40
0.0002033589875324
 40
0.0002033589875324
 40
0.0002033589875324
 10
17.25685329806005
 20
-1.7136983701604
 30
0.0
 10
17.21051300759108
 20
-1.670483373429054
 30
0.0
 10
17.16117920628428
 20
-1.628433648904994
 30
0.0
 10
17.11005768880528
 20
-1.588318002190721
 30
0.0
 10
17.05895509228425
 20
-1.548217202971244
 30
0.0
 10
17.00571931045712
 20
-1.509773799960607
 30
0.0
 10
16.95141693594219
 20
-1.473666849553164
 30
0.0
 10
16.87229708969828
 20
-1.421058167334518
 30
0.0
 10
16.79000182647098
 20
-1.372818083088627
 30
0.0
 10
16.70765929648458
 20
-1.331039982894401
 30
0.0
  0
SPLINE
  5
242
330
1F
100
AcDbEntity
  8
외형선
  6
Continuous
 62
     1
370
    15
100
AcDbSpline
210
0.0
220
0.0
230
1.0
 70
     8
 71
     3
 72
    10
 73
     6
 74
     0
 42
0.000000001
 43
0.00000001
 40
0.0
 40
0.0
 40
0.0
 40
0.0
 40
0.5
 40
0.5
 40
0.9274705290484854
 40
0.9274705290484854
 40
0.9274705290484854
 40
0.9274705290484854
 10
13.57933843483493
 20
0.543941764754988
 30
0.0
 10
13.39139799482826
 20
2.330991430785101
 30
0.0
 10
13.20318808393696
 20
4.182279240043149
 30
0.0
 10
12.87882621859686
 20
7.451497394916566
 30
0.0
 10
12.7186924584137
 20
8.960398629609916
 30
0.0
 10
12.55799215780745
 20
10.37165199603785
 30
0.0
  0
SPLINE
  5
243
330
1F
100
AcDbEntity
  8
외형선
  6
Continuous
 62
     1
370
    15
100
AcDbSpline
210
0.0
220
0.0
230
1.0
 70
     8
 71
     3
 72
    12
 73
     8
 74
     0
 42
0.000000001
 43
0.00000001
 40
0.0
 40
0.0
 40
0.0
 40
0.0
 40
0.25
 40
0.25
 40
0.5
 40
0.5
 40
0.912957293739408
 40
0.912957293739408
 40
0.912957293739408
 40
0.912957293739408
 10
13.0300614219254
 20
0.8436017114041392
 30
0.0
 10
12.93647657042239
 20
1.746970341673404
 30
0.0
 10
12.84283473433459
 20
2.664823497912527
 30
0.0
 10
12.65957907887536
 20
4.488323372057888
 30
0.0
 10
12.57157758619413
 20
5.388474337304445
 30
0.0
 10
12.3387207217672
 20
7.740655624609066
 30
0.0
 10
12.18439115454139
 20
9.201381552538301
 30
0.0
 10
12.02984241335598
 20
10.5684038633203
 30
0.0
  0
SPLINE
  5
24E
330
1F
100
AcDbEntity
  8
외형선
  6
Continuous
 62
     1
370
    15
100
AcDbSpline
210
0.0
220
0.0
230
1.0
 70
     8
 71
     3
 72
     9
 73
     5
 74
     0
 42
0.000000001
 43
0.00000001
 40
0.1222716229002004
 40
0.1222716229002004
 40
0.1222716229002004
 40
0.1222716229002004
 40
0.5028193248694652
 40
1.0
 40
1.0
 40
1.0
 40
1.0
 10
13.38512429782326
 20
-15.875
 30
0.0
 10
13.47109621043516
 20
-15.86622328119383
 30
0.0
 10
13.66720351810991
 20
-15.83690748477651
 30
0.0
 10
13.84257849131755
 20
-15.72153990683374
 30
0.0
 10
13.94191793374103
 20
-15.65619106796028
 30
0.0
  0
SPLINE
  5
24F
330
1F
100
AcDbEntity
  8
외형선
  6
Continuous
 62
     1
370
    15
100
AcDbSpline
210
0.0
220
0.0
230
1.0
 70
     8
 71
     3
 72
    11
 73
     7
 74
     0
 42
0.000000001
 43
0.00000001
 40
0.0
 40
0.0
 40
0.0
 40
0.0
 40
0.2457331235047843
 40
0.4998353072463358
 40
0.7540070196458815
 40
1.0
 40
1.0
 40
1.0
 40
1.0
 10
13.9334025171215
 20
-15.6626191534994
 30
0.0
 10
14.07253511707321
 20
-15.57302582584989
 30
0.0
 10
14.35553882798107
 20
-15.39078784419645
 30
0.0
 10
14.89295924272991
 20
-15.31309958518666
 30
0.0
 10
15.43029636732383
 20
-15.41037925412902
 30
0.0
 10
15.71266655945683
 20
-15.60670887440464
 30
0.0
 10
16.34236545876607
 20
-15.87500000000002
 30
0.0
  0
SPLINE
  5
250
330
1F
100
AcDbEntity
  8
외형선
  6
Continuous
 62
     1
370
    15
100
AcDbSpline
210
0.0
220
0.0
230
1.0
 70
     8
 71
     3
 72
    10
 73
     6
 74
     0
 42
0.000000001
 43
0.00000001
 40
0.0
 40
0.0
 40
0.0
 40
0.0
 40
0.5000000000000001
 40
0.5000000000000001
 40
1.0
 40
1.0
 40
1.0
 40
1.0
 10
13.60525789097016
 20
-15.57032137116119
 30
0.0
 10
13.93907571996083
 20
-15.34339160634084
 30
0.0
 10
14.33313776909063
 20
-15.2560653121292
 30
0.0
 10
15.10362074968008
 20
-15.30714112922452
 30
0.0
 10
15.47652583828324
 20
-15.44323343702016
 30
0.0
 10
15.81342419556547
 20
-15.63787949394327
 30
0.0
  0
SPLINE
  5
251
330
1F
100
AcDbEntity
  8
외형선
  6
Continuous
 62
     1
370
    15
100
AcDbSpline
210
0.0
220
0.0
230
1.0
 70
     8
 71
     3
 72
     8
 73
     4
 74
     0
 42
0.000000001
 43
0.00000001
 40
0.0
 40
0.0
 40
0.0
 40
0.0
 40
1.0
 40
1.0
 40
1.0
 40
1.0
 10
13.06121843449906
 20
-15.70606213072712
 30
0.0
 10
13.24980372971368
 20
-15.72224244324044
 30
0.0
 10
13.44161125853384
 20
-15.68156855027235
 30
0.0
 10
13.6052578909687
 20
-15.57032137116214
 30
0.0
  0
SPLINE
  5
252
330
1F
100
AcDbEntity
  8
외형선
  6
Continuous
 62
     1
370
    15
100
AcDbSpline
210
0.0
220
0.0
230
1.0
 70
     8
 71
     3
 72
     8
 73
     4
 74
     0
 42
0.000000001
 43
0.00000001
 40
0.0
 40
0.0
 40
0.0
 40
0.0
 40
0.1447158693803797
 40
0.1447158693803797
 40
0.1447158693803797
 40
0.1447158693803797
 10
13.0612183380034
 20
-15.70606212244792
 30
0.0
 10
12.70666782471296
 20
-15.67564226264395
 30
0.0
 10
12.35312854121421
 20
-15.64135477916995
 30
0.0
 10
12.00000000000004
 20
-15.60320702029782
 30
0.0
  0
LINE
  5
253
330
1F
100
AcDbEntity
  8
외형선
  6
Continuous
 62
     1
370
    15
100
AcDbLine
 10
13.30192782866394
 20
-15.86656276868079
 30
0.0
 11
13.06121835522647
 21
-15.70606201503751
 31
0.0
  0
SPLINE
  5
254
330
1F
100
AcDbEntity
  8
외형선
  6
Continuous
 62
     1
370
    15
100
AcDbSpline
210
0.0
220
0.0
230
1.0
 70
     8
 71
     3
 72
     9
 73
     5
 74
     0
 42
0.000000001
 43
0.00000001
 40
0.0
 40
0.0
 40
0.0
 40
0.0
 40
0.2445585977375364
 40
1.0
 40
1.0
 40
1.0
 40
1.0
 10
13.93101813451954
 20
-15.62398091667805
 30
0.0
 10
13.90503534937487
 20
-15.65445080471201
 30
0.0
 10
13.7987917521959
 20
-15.77904216365768
 30
0.0
 10
13.68854377640326
 20
-15.66014284168501
 30
0.0
 10
13.60525789097387
 20
-15.57032137116593
 30
0.0
  0
LINE
  5
2B9
330
1F
100
AcDbEntity
  8
외형선
  6
Continuous
370
    15
100
AcDbLine
 10
12.00000000000004
 20
15.875
 30
0.0
 11
12.00000000000004
 21
-15.875
 31
0.0
  0
LINE
  5
2BE
330
1F
100
AcDbEntity
  8
외형선
  6
Continuous
 62
     1
370
    15
100
AcDbLine
 10
12.00000000000004
 20
-15.875
 30
0.0
 11
13.38512429782326
 21
-15.875
 31
0.0
  0
LINE
  5
2BF
330
1F
100
AcDbEntity
  8
외형선
  6
Continuous
 62
     1
370
    15
100
AcDbLine
 10
26.52087308310222
 20
15.81617187863836
 30
0.0
 11
12.00000000000004
 21
15.875
 31
0.0
  0
LINE
  5
2FE
330
1F
100
AcDbEntity
  8
외형선
  6
Continuous
370
    15
100
AcDbLine
 10
-36.41240000000008
 20
15.87499999999999
 30
0.0
 11
-31.46892499999998
 21
15.87499999999999
 31
0.0
  0
LINE
  5
2FF
330
1F
100
AcDbEntity
  8
외형선
  6
Continuous
370
    15
100
AcDbLine
 10
-29.08132499999996
 20
13.48739999999998
 30
0.0
 11
-15.97492499999996
 21
13.48739999999998
 31
0.0
  0
LINE
  5
300
330
1F
100
AcDbEntity
  8
외형선
  6
Continuous
370
    15
100
AcDbLine
 10
-15.97492499999996
 20
13.48739999999998
 30
0.0
 11
-13.58732499999994
 21
15.875
 31
0.0
  0
LINE
  5
301
330
1F
100
AcDbEntity
  8
외형선
  6
Continuous
370
    15
100
AcDbLine
 10
-29.08132499999996
 20
13.48739999999998
 30
0.0
 11
-31.46892499999998
 21
15.875
 31
0.0
  0
LINE
  5
302
330
1F
100
AcDbEntity
  8
외형선
  6
Continuous
370
    15
100
AcDbLine
 10
-51.49999999999997
 20
13.48739999999998
 30
0.0
 11
-38.79999999999998
 21
13.48739999999998
 31
0.0
  0
LINE
  5
303
330
1F
100
AcDbEntity
  8
외형선
  6
Continuous
370
    15
100
AcDbLine
 10
-38.79999999999998
 20
13.48739999999998
 30
0.0
 11
-36.41240000000008
 21
15.87499999999997
 31
0.0
  0
ENDSEC
  0
SECTION
  2
OBJECTS
  0
DICTIONARY
  5
C
330
0
100
AcDbDictionary
281
     1
  3
ACAD_GROUP
350
D
  3
ACAD_IMAGE_VARS
350
1F5
  3
ACAD_LAYOUT
350
1A
  3
ACAD_MLINESTYLE
350
17
  3
ACAD_PLOTSETTINGS
350
19
  3
ACAD_PLOTSTYLENAME
350
E
  3
ACAD_SCALELIST
350
47
  3
APPDATA
350
1F3
  3
DWGPROPS
350
307
  0
DICTIONARY
  5
29E
330
2
100
AcDbDictionary
280
     1
281
     1
  3
ACAD_LAYERSTATES
360
29F
  0
DICTIONARY
  5
D
102
{ACAD_REACTORS
330
C
102
}
330
C
100
AcDbDictionary
281
     1
  0
RASTERVARIABLES
  5
1F5
102
{ACAD_REACTORS
330
C
102
}
330
C
100
AcDbRasterVariables
 90
        0
 70
     1
 71
     1
 72
     1
  0
DICTIONARY
  5
1A
102
{ACAD_REACTORS
330
C
102
}
330
C
100
AcDbDictionary
281
     1
  3
Layout1
350
1E
  3
Layout2
350
26
  3
Model
350
22
  0
DICTIONARY
  5
17
102
{ACAD_REACTORS
330
C
102
}
330
C
100
AcDbDictionary
281
     1
  3
Standard
350
18
  0
DICTIONARY
  5
19
102
{ACAD_REACTORS
330
C
102
}
330
C
100
AcDbDictionary
281
     1
  0
ACDBDICTIONARYWDFLT
  5
E
102
{ACAD_REACTORS
330
C
102
}
330
C
100
AcDbDictionary
281
     1
  3
Normal
350
F
100
AcDbDictionaryWithDefault
340
F
  0
DICTIONARY
  5
47
102
{ACAD_REACTORS
330
C
102
}
330
C
100
AcDbDictionary
281
     1
  3
A0
350
48
  3
A1
350
49
  3
A2
350
4A
  3
A3
350
4B
  3
A4
350
4C
  3
A5
350
4D
  3
A6
350
4E
  3
A7
350
4F
  3
A8
350
50
  3
A9
350
51
  3
B0
350
52
  3
B1
350
53
  3
B2
350
54
  3
B3
350
55
  3
B4
350
56
  3
B5
350
57
  3
B6
350
58
  3
B7
350
59
  3
B8
350
5A
  3
B9
350
5B
  3
C0
350
5C
  3
C1
350
5D
  3
C2
350
5E
  3
C3
350
5F
  3
C4
350
60
  3
C5
350
61
  3
C6
350
62
  3
C7
350
63
  3
C8
350
64
  3
C9
350
65
  3
D0
350
66
  3
D1
350
67
  3
D2
350
68
  0
DICTIONARY
  5
1F3
102
{ACAD_REACTORS
330
C
102
}
330
C
100
AcDbDictionary
281
     1
  0
XRECORD
  5
307
102
{ACAD_REACTORS
330
C
102
}
330
C
100
AcDbXrecord
280
     1
  1
DWGPROPS COOKIE
  2

  3

  4

  6

  7

  8
12016016
  9

300
=
301
=
302
=
303
=
304
=
305
=
306
=
307
=
308
=
309
=
 40
0.0
 41
2458298.969554676
 42
2458311.114069641
  1

 90
        0
  0
DICTIONARY
  5
29F
102
{ACAD_REACTORS
330
29E
102
}
330
29E
100
AcDbDictionary
281
     1
  0
LAYOUT
  5
1E
102
{ACAD_REACTORS
330
1A
102
}
330
1A
100
AcDbPlotSettings
  1

  2
none_device
  4

  6

 40
0.0
 41
0.0
 42
0.0
 43
0.0
 44
0.0
 45
0.0
 46
0.0
 47
0.0
 48
0.0
 49
0.0
140
0.0
141
0.0
142
1.0
143
1.0
 70
   688
 72
     1
 73
     0
 74
     5
  7

 75
    16
147
1.0
148
0.0
149
0.0
100
AcDbLayout
  1
Layout1
 70
     1
 71
     1
 10
0.0
 20
0.0
 11
420.0
 21
297.0
 12
0.0
 22
0.0
 32
0.0
 14
1.000000000000000E+20
 24
1.000000000000000E+20
 34
1.000000000000000E+20
 15
-1.000000000000000E+20
 25
-1.000000000000000E+20
 35
-1.000000000000000E+20
146
0.0
 13
0.0
 23
0.0
 33
0.0
 16
1.0
 26
0.0
 36
0.0
 17
0.0
 27
1.0
 37
0.0
 76
     0
330
1B
  0
LAYOUT
  5
26
102
{ACAD_REACTORS
330
1A
102
}
330
1A
100
AcDbPlotSettings
  1

  2
none_device
  4

  6

 40
0.0
 41
0.0
 42
0.0
 43
0.0
 44
0.0
 45
0.0
 46
0.0
 47
0.0
 48
0.0
 49
0.0
140
0.0
141
0.0
142
1.0
143
1.0
 70
   688
 72
     1
 73
     0
 74
     5
  7

 75
    16
147
1.0
148
0.0
149
0.0
100
AcDbLayout
  1
Layout2
 70
     1
 71
     2
 10
0.0
 20
0.0
 11
0.0
 21
0.0
 12
0.0
 22
0.0
 32
0.0
 14
0.0
 24
0.0
 34
0.0
 15
0.0
 25
0.0
 35
0.0
146
0.0
 13
0.0
 23
0.0
 33
0.0
 16
1.0
 26
0.0
 36
0.0
 17
0.0
 27
1.0
 37
0.0
 76
     0
330
23
  0
LAYOUT
  5
22
102
{ACAD_REACTORS
330
1A
102
}
330
1A
100
AcDbPlotSettings
  1

  2
none_device
  4
ANSI_A_(11.00_x_8.50_Inches)
  6

 40
6.35
 41
19.05
 42
6.35000508
 43
19.05000254
 44
279.4
 45
215.9
 46
98.76438513735204
 47
90.88064147516121
 48
0.0
 49
0.0
140
0.0
141
0.0
142
0.0787110341538491
143
1.0
 70
  1696
 72
     0
 73
     0
 74
     0
  7

 75
     0
147
0.0235690232323232
148
0.0
149
0.0
100
AcDbLayout
  1
Model
 70
     1
 71
     0
 10
0.0
 20
0.0
 11
420.0
 21
297.0
 12
0.0
 22
0.0
 32
0.0
 14
1.000000000000000E+20
 24
1.000000000000000E+20
 34
1.000000000000000E+20
 15
-1.000000000000000E+20
 25
-1.000000000000000E+20
 35
-1.000000000000000E+20
146
0.0
 13
0.0
 23
0.0
 33
0.0
 16
1.0
 26
0.0
 36
0.0
 17
0.0
 27
1.0
 37
0.0
 76
     0
330
1F
331
29
  0
MLINESTYLE
  5
18
102
{ACAD_REACTORS
330
17
102
}
330
17
100
AcDbMlineStyle
  2
Standard
 70
     0
  3

 62
   256
 51
90.0
 52
90.0
 71
     2
 49
0.5
 62
   256
  6
BYLAYER
 49
-0.5
 62
   256
  6
BYLAYER
  0
ACDBPLACEHOLDER
  5
F
102
{ACAD_REACTORS
330
E
102
}
330
E
  0
SCALE
  5
48
102
{ACAD_REACTORS
330
47
102
}
330
47
100
AcDbScale
 70
     0
300
1:1
140
1.0
141
1.0
290
     1
  0
SCALE
  5
49
102
{ACAD_REACTORS
330
47
102
}
330
47
100
AcDbScale
 70
     0
300
1:2
140
1.0
141
2.0
290
     0
  0
SCALE
  5
4A
102
{ACAD_REACTORS
330
47
102
}
330
47
100
AcDbScale
 70
     0
300
1:4
140
1.0
141
4.0
290
     0
  0
SCALE
  5
4B
102
{ACAD_REACTORS
330
47
102
}
330
47
100
AcDbScale
 70
     0
300
1:5
140
1.0
141
5.0
290
     0
  0
SCALE
  5
4C
102
{ACAD_REACTORS
330
47
102
}
330
47
100
AcDbScale
 70
     0
300
1:8
140
1.0
141
8.0
290
     0
  0
SCALE
  5
4D
102
{ACAD_REACTORS
330
47
102
}
330
47
100
AcDbScale
 70
     0
300
1:10
140
1.0
141
10.0
290
     0
  0
SCALE
  5
4E
102
{ACAD_REACTORS
330
47
102
}
330
47
100
AcDbScale
 70
     0
300
1:16
140
1.0
141
16.0
290
     0
  0
SCALE
  5
4F
102
{ACAD_REACTORS
330
47
102
}
330
47
100
AcDbScale
 70
     0
300
1:20
140
1.0
141
20.0
290
     0
  0
SCALE
  5
50
102
{ACAD_REACTORS
330
47
102
}
330
47
100
AcDbScale
 70
     0
300
1:30
140
1.0
141
30.0
290
     0
  0
SCALE
  5
51
102
{ACAD_REACTORS
330
47
102
}
330
47
100
AcDbScale
 70
     0
300
1:40
140
1.0
141
40.0
290
     0
  0
SCALE
  5
52
102
{ACAD_REACTORS
330
47
102
}
330
47
100
AcDbScale
 70
     0
300
1:50
140
1.0
141
50.0
290
     0
  0
SCALE
  5
53
102
{ACAD_REACTORS
330
47
102
}
330
47
100
AcDbScale
 70
     0
300
1:100
140
1.0
141
100.0
290
     0
  0
SCALE
  5
54
102
{ACAD_REACTORS
330
47
102
}
330
47
100
AcDbScale
 70
     0
300
2:1
140
2.0
141
1.0
290
     0
  0
SCALE
  5
55
102
{ACAD_REACTORS
330
47
102
}
330
47
100
AcDbScale
 70
     0
300
4:1
140
4.0
141
1.0
290
     0
  0
SCALE
  5
56
102
{ACAD_REACTORS
330
47
102
}
330
47
100
AcDbScale
 70
     0
300
8:1
140
8.0
141
1.0
290
     0
  0
SCALE
  5
57
102
{ACAD_REACTORS
330
47
102
}
330
47
100
AcDbScale
 70
     0
300
10:1
140
10.0
141
1.0
290
     0
  0
SCALE
  5
58
102
{ACAD_REACTORS
330
47
102
}
330
47
100
AcDbScale
 70
     0
300
100:1
140
100.0
141
1.0
290
     0
  0
SCALE
  5
59
102
{ACAD_REACTORS
330
47
102
}
330
47
100
AcDbScale
 70
     0
300
1/128" = 1'-0"
140
0.0078125
141
12.0
290
     0
  0
SCALE
  5
5A
102
{ACAD_REACTORS
330
47
102
}
330
47
100
AcDbScale
 70
     0
300
1/64" = 1'-0"
140
0.015625
141
12.0
290
     0
  0
SCALE
  5
5B
102
{ACAD_REACTORS
330
47
102
}
330
47
100
AcDbScale
 70
     0
300
1/32" = 1'-0"
140
0.03125
141
12.0
290
     0
  0
SCALE
  5
5C
102
{ACAD_REACTORS
330
47
102
}
330
47
100
AcDbScale
 70
     0
300
1/16" = 1'-0"
140
0.0625
141
12.0
290
     0
  0
SCALE
  5
5D
102
{ACAD_REACTORS
330
47
102
}
330
47
100
AcDbScale
 70
     0
300
3/32" = 1'-0"
140
0.09375
141
12.0
290
     0
  0
SCALE
  5
5E
102
{ACAD_REACTORS
330
47
102
}
330
47
100
AcDbScale
 70
     0
300
1/8" = 1'-0"
140
0.125
141
12.0
290
     0
  0
SCALE
  5
5F
102
{ACAD_REACTORS
330
47
102
}
330
47
100
AcDbScale
 70
     0
300
3/16" = 1'-0"
140
0.1875
141
12.0
290
     0
  0
SCALE
  5
60
102
{ACAD_REACTORS
330
47
102
}
330
47
100
AcDbScale
 70
     0
300
1/4" = 1'-0"
140
0.25
141
12.0
290
     0
  0
SCALE
  5
61
102
{ACAD_REACTORS
330
47
102
}
330
47
100
AcDbScale
 70
     0
300
3/8" = 1'-0"
140
0.375
141
12.0
290
     0
  0
SCALE
  5
62
102
{ACAD_REACTORS
330
47
102
}
330
47
100
AcDbScale
 70
     0
300
1/2" = 1'-0"
140
0.5
141
12.0
290
     0
  0
SCALE
  5
63
102
{ACAD_REACTORS
330
47
102
}
330
47
100
AcDbScale
 70
     0
300
3/4" = 1'-0"
140
0.75
141
12.0
290
     0
  0
SCALE
  5
64
102
{ACAD_REACTORS
330
47
102
}
330
47
100
AcDbScale
 70
     0
300
1" = 1'-0"
140
1.0
141
12.0
290
     0
  0
SCALE
  5
65
102
{ACAD_REACTORS
330
47
102
}
330
47
100
AcDbScale
 70
     0
300
1-1/2" = 1'-0"
140
1.5
141
12.0
290
     0
  0
SCALE
  5
66
102
{ACAD_REACTORS
330
47
102
}
330
47
100
AcDbScale
 70
     0
300
3" = 1'-0"
140
3.0
141
12.0
290
     0
  0
SCALE
  5
67
102
{ACAD_REACTORS
330
47
102
}
330
47
100
AcDbScale
 70
     0
300
6" = 1'-0"
140
6.0
141
12.0
290
     0
  0
SCALE
  5
68
102
{ACAD_REACTORS
330
47
102
}
330
47
100
AcDbScale
 70
     0
300
1'-0" = 1'-0"
140
12.0
141
12.0
290
     0
  0
ENDSEC
  0
EOF
