  0
SECTION
  2
HEADER
  9
$ACADVER
  1
AC1015
  9
$ACADMAINTVER
 70
     6
  9
$DWGCODEPAGE
  3
ANSI_949
  9
$INSBASE
 10
0.0
 20
0.0
 30
0.0
  9
$EXTMIN
 10
-59.7625000000001
 20
-49.97073246008785
 30
0.0
  9
$EXTMAX
 10
100.1152646366788
 20
39.24057492872409
 30
0.0
  9
$LIMMIN
 10
0.0
 20
0.0
  9
$LIMMAX
 10
420.0
 20
297.0
  9
$ORTHOMODE
 70
     0
  9
$REGENMODE
 70
     1
  9
$FILLMODE
 70
     1
  9
$QTEXTMODE
 70
     0
  9
$MIRRTEXT
 70
     1
  9
$LTSCALE
 40
1.0
  9
$ATTMODE
 70
     1
  9
$TEXTSIZE
 40
3.5
  9
$TRACEWID
 40
1.0
  9
$TEXTSTYLE
  7
Standard
  9
$CLAYER
  8
0
  9
$CELTYPE
  6
ByLayer
  9
$CECOLOR
 62
   256
  9
$CELTSCALE
 40
1.0
  9
$DISPSILH
 70
     0
  9
$DIMSCALE
 40
1.0
  9
$DIMASZ
 40
3.302
  9
$DIMEXO
 40
1.0
  9
$DIMDLI
 40
3.75
  9
$DIMRND
 40
0.0
  9
$DIMDLE
 40
0.0
  9
$DIMEXE
 40
1.0
  9
$DIMTP
 40
0.0
  9
$DIMTM
 40
0.0
  9
$DIMTXT
 40
3.5
  9
$DIMCEN
 40
2.5
  9
$DIMTSZ
 40
0.0
  9
$DIMTOL
 70
     0
  9
$DIMLIM
 70
     0
  9
$DIMTIH
 70
     1
  9
$DIMTOH
 70
     1
  9
$DIMSE1
 70
     0
  9
$DIMSE2
 70
     0
  9
$DIMTAD
 70
     1
  9
$DIMZIN
 70
     0
  9
$DIMBLK
  1

  9
$DIMASO
 70
     1
  9
$DIMSHO
 70
     1
  9
$DIMPOST
  1

  9
$DIMAPOST
  1

  9
$DIMALT
 70
     0
  9
$DIMALTD
 70
     3
  9
$DIMALTF
 40
0.0393700787401575
  9
$DIMLFAC
 40
1.0
  9
$DIMTOFL
 70
     1
  9
$DIMTVP
 40
0.0
  9
$DIMTIX
 70
     0
  9
$DIMSOXD
 70
     0
  9
$DIMSAH
 70
     0
  9
$DIMBLK1
  1

  9
$DIMBLK2
  1

  9
$DIMSTYLE
  2
ISO-25
  9
$DIMCLRD
 70
     0
  9
$DIMCLRE
 70
     0
  9
$DIMCLRT
 70
     0
  9
$DIMTFAC
 40
1.0
  9
$DIMGAP
 40
1.524
  9
$DIMJUST
 70
     0
  9
$DIMSD1
 70
     0
  9
$DIMSD2
 70
     0
  9
$DIMTOLJ
 70
     0
  9
$DIMTZIN
 70
     0
  9
$DIMALTZ
 70
     0
  9
$DIMALTTZ
 70
     0
  9
$DIMUPT
 70
     0
  9
$DIMDEC
 70
     2
  9
$DIMTDEC
 70
     2
  9
$DIMALTU
 70
     2
  9
$DIMALTTD
 70
     3
  9
$DIMTXSTY
  7
Standard
  9
$DIMAUNIT
 70
     0
  9
$DIMADEC
 70
     2
  9
$DIMALTRND
 40
0.0
  9
$DIMAZIN
 70
     0
  9
$DIMDSEP
 70
    44
  9
$DIMATFIT
 70
     3
  9
$DIMFRAC
 70
     0
  9
$DIMLDRBLK
  1

  9
$DIMLUNIT
 70
     2
  9
$DIMLWD
 70
    -2
  9
$DIMLWE
 70
    -2
  9
$DIMTMOVE
 70
     0
  9
$LUNITS
 70
     2
  9
$LUPREC
 70
     2
  9
$SKETCHINC
 40
1.0
  9
$FILLETRAD
 40
10.0
  9
$AUNITS
 70
     0
  9
$AUPREC
 70
     2
  9
$MENU
  1
.
  9
$ELEVATION
 40
0.0
  9
$PELEVATION
 40
0.0
  9
$THICKNESS
 40
0.0
  9
$LIMCHECK
 70
     0
  9
$CHAMFERA
 40
0.0
  9
$CHAMFERB
 40
0.0
  9
$CHAMFERC
 40
0.0
  9
$CHAMFERD
 40
0.0
  9
$SKPOLY
 70
     0
  9
$TDCREATE
 40
2458324.569290359
  9
$TDUCREATE
 40
2458324.194290359
  9
$TDUPDATE
 40
2458333.352471516
  9
$TDUUPDATE
 40
2458332.977471516
  9
$TDINDWG
 40
0.0017861574
  9
$TDUSRTIMER
 40
2458332.975967639
  9
$USRTIMER
 70
     1
  9
$ANGBASE
 50
0.0
  9
$ANGDIR
 70
     0
  9
$PDMODE
 70
     0
  9
$PDSIZE
 40
-1.0
  9
$PLINEWID
 40
0.0
  9
$SPLFRAME
 70
     0
  9
$SPLINETYPE
 70
     6
  9
$SPLINESEGS
 70
     8
  9
$HANDSEED
  5
410
  9
$SURFTAB1
 70
     6
  9
$SURFTAB2
 70
     6
  9
$SURFTYPE
 70
     6
  9
$SURFU
 70
     6
  9
$SURFV
 70
     6
  9
$UCSBASE
  2

  9
$UCSNAME
  2

  9
$UCSORG
 10
0.0
 20
0.0
 30
0.0
  9
$UCSXDIR
 10
1.0
 20
0.0
 30
0.0
  9
$UCSYDIR
 10
0.0
 20
1.0
 30
0.0
  9
$UCSORTHOREF
  2

  9
$UCSORTHOVIEW
 70
     0
  9
$UCSORGTOP
 10
0.0
 20
0.0
 30
0.0
  9
$UCSORGBOTTOM
 10
0.0
 20
0.0
 30
0.0
  9
$UCSORGLEFT
 10
0.0
 20
0.0
 30
0.0
  9
$UCSORGRIGHT
 10
0.0
 20
0.0
 30
0.0
  9
$UCSORGFRONT
 10
0.0
 20
0.0
 30
0.0
  9
$UCSORGBACK
 10
0.0
 20
0.0
 30
0.0
  9
$PUCSBASE
  2

  9
$PUCSNAME
  2

  9
$PUCSORG
 10
0.0
 20
0.0
 30
0.0
  9
$PUCSXDIR
 10
1.0
 20
0.0
 30
0.0
  9
$PUCSYDIR
 10
0.0
 20
1.0
 30
0.0
  9
$PUCSORTHOREF
  2

  9
$PUCSORTHOVIEW
 70
     0
  9
$PUCSORGTOP
 10
0.0
 20
0.0
 30
0.0
  9
$PUCSORGBOTTOM
 10
0.0
 20
0.0
 30
0.0
  9
$PUCSORGLEFT
 10
0.0
 20
0.0
 30
0.0
  9
$PUCSORGRIGHT
 10
0.0
 20
0.0
 30
0.0
  9
$PUCSORGFRONT
 10
0.0
 20
0.0
 30
0.0
  9
$PUCSORGBACK
 10
0.0
 20
0.0
 30
0.0
  9
$USERI1
 70
     0
  9
$USERI2
 70
     0
  9
$USERI3
 70
     0
  9
$USERI4
 70
     0
  9
$USERI5
 70
     0
  9
$USERR1
 40
0.0
  9
$USERR2
 40
0.0
  9
$USERR3
 40
0.0
  9
$USERR4
 40
0.0
  9
$USERR5
 40
0.0
  9
$WORLDVIEW
 70
     1
  9
$SHADEDGE
 70
     3
  9
$SHADEDIF
 70
    70
  9
$TILEMODE
 70
     1
  9
$MAXACTVP
 70
    64
  9
$PINSBASE
 10
0.0
 20
0.0
 30
0.0
  9
$PLIMCHECK
 70
     0
  9
$PEXTMIN
 10
1.000000000000000E+20
 20
1.000000000000000E+20
 30
1.000000000000000E+20
  9
$PEXTMAX
 10
-1.000000000000000E+20
 20
-1.000000000000000E+20
 30
-1.000000000000000E+20
  9
$PLIMMIN
 10
0.0
 20
0.0
  9
$PLIMMAX
 10
0.0
 20
0.0
  9
$UNITMODE
 70
     0
  9
$VISRETAIN
 70
     1
  9
$PLINEGEN
 70
     0
  9
$PSLTSCALE
 70
     1
  9
$TREEDEPTH
 70
  3020
  9
$CMLSTYLE
  2
Standard
  9
$CMLJUST
 70
     0
  9
$CMLSCALE
 40
20.0
  9
$PROXYGRAPHICS
 70
     1
  9
$MEASUREMENT
 70
     1
  9
$CELWEIGHT
370
    -1
  9
$ENDCAPS
280
     0
  9
$JOINSTYLE
280
     0
  9
$LWDISPLAY
290
     1
  9
$INSUNITS
 70
     4
  9
$HYPERLINKBASE
  1

  9
$STYLESHEET
  1

  9
$XEDIT
290
     1
  9
$CEPSNTYPE
380
     0
  9
$PSTYLEMODE
290
     1
  9
$FINGERPRINTGUID
  2
{F02507C6-D564-4771-BAF4-2896FAB52EF6}
  9
$VERSIONGUID
  2
{FAEB1C32-E019-11D5-929B-00C0DF256EC4}
  9
$EXTNAMES
290
     1
  9
$PSVPSCALE
 40
0.0
  9
$OLESTARTUP
290
     0
  0
ENDSEC
  0
SECTION
  2
CLASSES
  0
CLASS
  1
ACDBDICTIONARYWDFLT
  2
AcDbDictionaryWithDefault
  3
ObjectDBX Classes
 90
        0
280
     0
281
     0
  0
CLASS
  1
VISUALSTYLE
  2
AcDbVisualStyle
  3
ObjectDBX Classes
 90
     4095
280
     0
281
     0
  0
CLASS
  1
MATERIAL
  2
AcDbMaterial
  3
ObjectDBX Classes
 90
     1153
280
     0
281
     0
  0
CLASS
  1
SCALE
  2
AcDbScale
  3
ObjectDBX Classes
 90
     1153
280
     0
281
     0
  0
CLASS
  1
SUN
  2
AcDbSun
  3
SCENEOE
 90
     1153
280
     0
281
     0
  0
CLASS
  1
ACDBPLACEHOLDER
  2
AcDbPlaceHolder
  3
ObjectDBX Classes
 90
        0
280
     0
281
     0
  0
CLASS
  1
LAYOUT
  2
AcDbLayout
  3
ObjectDBX Classes
 90
        0
280
     0
281
     0
  0
CLASS
  1
TABLESTYLE
  2
AcDbTableStyle
  3
ObjectDBX Classes
 90
     4095
280
     0
281
     0
  0
CLASS
  1
MLEADERSTYLE
  2
AcDbMLeaderStyle
  3
ACDB_MLEADERSTYLE_CLASS
 90
     4095
280
     0
281
     0
  0
CLASS
  1
RASTERVARIABLES
  2
AcDbRasterVariables
  3
ISM
 90
        0
280
     0
281
     0
  0
ENDSEC
  0
SECTION
  2
TABLES
  0
TABLE
  2
VPORT
  5
8
330
0
100
AcDbSymbolTable
 70
     1
  0
VPORT
  5
29
330
8
100
AcDbSymbolTableRecord
100
AcDbViewportTableRecord
  2
*Active
 70
     0
 10
0.0
 20
0.0
 11
1.0
 21
1.0
 12
15.11980144258121
 22
-24.2690589323615
 13
0.0
 23
0.0
 14
10.0
 24
10.0
 15
10.0
 25
10.0
 16
0.0
 26
0.0
 36
1.0
 17
0.0
 27
0.0
 37
0.0
 40
139.8187916894836
 41
1.672916666666667
 42
50.0
 43
0.0
 44
0.0
 50
0.0
 51
0.0
 71
    16
 72
  2000
 73
     1
 74
     3
 75
     0
 76
     0
 77
     0
 78
     0
281
     0
 65
     1
110
0.0
120
0.0
130
0.0
111
1.0
121
0.0
131
0.0
112
0.0
122
1.0
132
0.0
 79
     0
146
0.0
  0
ENDTAB
  0
TABLE
  2
LTYPE
  5
5
330
0
100
AcDbSymbolTable
 70
     6
  0
LTYPE
  5
14
330
5
100
AcDbSymbolTableRecord
100
AcDbLinetypeTableRecord
  2
ByBlock
 70
     0
  3

 72
    65
 73
     0
 40
0.0
  0
LTYPE
  5
15
330
5
100
AcDbSymbolTableRecord
100
AcDbLinetypeTableRecord
  2
ByLayer
 70
     0
  3

 72
    65
 73
     0
 40
0.0
  0
LTYPE
  5
16
330
5
100
AcDbSymbolTableRecord
100
AcDbLinetypeTableRecord
  2
Continuous
 70
     0
  3
Solid line
 72
    65
 73
     0
 40
0.0
  0
LTYPE
  5
6A
330
5
100
AcDbSymbolTableRecord
100
AcDbLinetypeTableRecord
  2
HIDDEN
 70
     0
  3
Hidden __ __ __ __ __ __ __ __ __ __ __ __ __ __
 72
    65
 73
     2
 40
1.905
 49
1.27
 74
     0
 49
-0.635
 74
     0
  0
LTYPE
  5
6B
330
5
100
AcDbSymbolTableRecord
100
AcDbLinetypeTableRecord
  2
PHANTOM
 70
     0
  3
Phantom ______  __  __  ______  __  __  ______
 72
    65
 73
     6
 40
12.7
 49
6.35
 74
     0
 49
-1.27
 74
     0
 49
1.27
 74
     0
 49
-1.27
 74
     0
 49
1.27
 74
     0
 49
-1.27
 74
     0
  0
LTYPE
  5
6C
330
5
100
AcDbSymbolTableRecord
100
AcDbLinetypeTableRecord
  2
CENTER
 70
     0
  3
Center ____ _ ____ _ ____ _ ____ _ ____ _ ____
 72
    65
 73
     4
 40
10.16
 49
6.35
 74
     0
 49
-1.27
 74
     0
 49
1.27
 74
     0
 49
-1.27
 74
     0
  0
LTYPE
  5
6D
330
5
100
AcDbSymbolTableRecord
100
AcDbLinetypeTableRecord
  2
CENTERX2
 70
     0
  3
Center (2x) ________  __  ________  __  _____
 72
    65
 73
     4
 40
20.32
 49
12.7
 74
     0
 49
-2.54
 74
     0
 49
2.54
 74
     0
 49
-2.54
 74
     0
  0
LTYPE
  5
6E
330
5
100
AcDbSymbolTableRecord
100
AcDbLinetypeTableRecord
  2
DOT2
 70
     0
  3
Dot (.5x) ........................................
 72
    65
 73
     2
 40
0.635
 49
0.0
 74
     0
 49
-0.635
 74
     0
  0
ENDTAB
  0
TABLE
  2
LAYER
  5
2
102
{ACAD_XDICTIONARY
360
391
102
}
330
0
100
AcDbSymbolTable
 70
    18
  0
LAYER
  5
10
330
2
100
AcDbSymbolTableRecord
100
AcDbLayerTableRecord
  2
0
 70
     0
 62
     7
  6
Continuous
370
    -3
390
F
  0
LAYER
  5
6F
330
2
100
AcDbSymbolTableRecord
100
AcDbLayerTableRecord
  2
FORMAT
 70
     0
 62
     2
  6
Continuous
370
    -3
390
F
  0
LAYER
  5
70
330
2
100
AcDbSymbolTableRecord
100
AcDbLayerTableRecord
  2
외형선
 70
     0
 62
     4
  6
Continuous
370
    30
390
F
  0
LAYER
  5
71
330
2
100
AcDbSymbolTableRecord
100
AcDbLayerTableRecord
  2
숨은선
 70
     0
 62
     2
  6
HIDDEN
370
    15
390
F
  0
LAYER
  5
72
330
2
100
AcDbSymbolTableRecord
100
AcDbLayerTableRecord
  2
중심선
 70
     0
 62
     1
  6
CENTERX2
370
    -3
390
F
  0
LAYER
  5
73
330
2
100
AcDbSymbolTableRecord
100
AcDbLayerTableRecord
  2
파단선
 70
     0
 62
     4
  6
Continuous
370
    -3
390
F
  0
LAYER
  5
74
330
2
100
AcDbSymbolTableRecord
100
AcDbLayerTableRecord
  2
해칭선
 70
     0
 62
   100
  6
Continuous
370
    -3
390
F
  0
LAYER
  5
75
330
2
100
AcDbSymbolTableRecord
100
AcDbLayerTableRecord
  2
가는실선
 70
     0
 62
     4
  6
Continuous
370
    -3
390
F
  0
LAYER
  5
76
330
2
100
AcDbSymbolTableRecord
100
AcDbLayerTableRecord
  2
치수_보조선
 70
     0
 62
     4
  6
Continuous
370
    -3
390
F
  0
LAYER
  5
77
330
2
100
AcDbSymbolTableRecord
100
AcDbLayerTableRecord
  2
치수문자_일반주서
 70
     0
 62
     7
  6
Continuous
370
    15
390
F
  0
LAYER
  5
78
330
2
100
AcDbSymbolTableRecord
100
AcDbLayerTableRecord
  2
개별주서
 70
     0
 62
   100
  6
Continuous
370
    30
390
F
  0
LAYER
  5
79
330
2
100
AcDbSymbolTableRecord
100
AcDbLayerTableRecord
  2
중간선
 70
     0
 62
     2
  6
Continuous
370
    15
390
F
  0
LAYER
  5
7A
330
2
100
AcDbSymbolTableRecord
100
AcDbLayerTableRecord
  2
윤곽선
 70
     0
 62
     3
  6
Continuous
370
    40
390
F
  0
LAYER
  5
7B
330
2
100
AcDbSymbolTableRecord
100
AcDbLayerTableRecord
  2
중심마크
 70
     0
 62
   100
  6
Continuous
370
    30
390
F
  0
LAYER
  5
7C
330
2
100
AcDbSymbolTableRecord
100
AcDbLayerTableRecord
  2
가상선
 70
     0
 62
     4
  6
PHANTOM
370
    -3
390
F
  0
LAYER
  5
7D
330
2
100
AcDbSymbolTableRecord
100
AcDbLayerTableRecord
  2
특수지정선
 70
     0
 62
     5
  6
CENTERX2
370
    60
390
F
  0
LAYER
  5
7E
330
2
100
AcDbSymbolTableRecord
100
AcDbLayerTableRecord
  2
참조1
 70
     0
 62
    -4
  6
Continuous
370
    -3
390
F
  0
LAYER
  5
365
330
2
100
AcDbSymbolTableRecord
100
AcDbLayerTableRecord
  2
Defpoints
 70
     0
 62
     7
  6
Continuous
290
     0
370
    -3
390
F
  0
ENDTAB
  0
TABLE
  2
STYLE
  5
3
330
0
100
AcDbSymbolTable
 70
     2
  0
STYLE
  5
11
330
3
100
AcDbSymbolTableRecord
100
AcDbTextStyleTableRecord
  2
Standard
 70
     0
 40
0.0
 41
1.0
 50
0.0
 71
     0
 42
3.5
  3
txt
  4

  0
STYLE
  5
94
330
3
100
AcDbSymbolTableRecord
100
AcDbTextStyleTableRecord
  2
SLDTEXTSTYLE0
 70
     0
 40
0.0
 41
0.75
 50
0.0
 71
     0
 42
3.5
  3
TXT
  4

  0
ENDTAB
  0
TABLE
  2
VIEW
  5
6
330
0
100
AcDbSymbolTable
 70
     0
  0
ENDTAB
  0
TABLE
  2
UCS
  5
7
330
0
100
AcDbSymbolTable
 70
     0
  0
ENDTAB
  0
TABLE
  2
APPID
  5
9
330
0
100
AcDbSymbolTable
 70
     1
  0
APPID
  5
12
330
9
100
AcDbSymbolTableRecord
100
AcDbRegAppTableRecord
  2
ACAD
 70
     0
  0
ENDTAB
  0
TABLE
  2
DIMSTYLE
  5
A
330
0
100
AcDbSymbolTable
 70
     3
100
AcDbDimStyleTable
  0
DIMSTYLE
105
27
330
A
100
AcDbSymbolTableRecord
100
AcDbDimStyleTableRecord
  2
ISO-25
 70
     0
 41
2.5
 42
0.625
 43
3.75
 44
1.25
 73
     0
 74
     0
 77
     1
 78
     8
140
2.5
141
2.5
143
0.03937007874016
147
0.625
171
     3
172
     1
178
     0
271
     2
272
     2
274
     3
278
    44
283
     0
284
     8
340
11
  0
DIMSTYLE
105
2E5
102
{ACAD_REACTORS
330
2E4
102
}
330
A
100
AcDbSymbolTableRecord
100
AcDbDimStyleTableRecord
  2
SLDDIMSTYLE0
 70
     0
 41
3.302
 44
0.0
 45
0.000000001
 73
     0
 74
     0
 77
     1
 78
    12
 79
     3
140
3.5
143
0.0393700787401575
147
0.875
148
0.000000001
170
     1
172
     1
173
     1
178
     0
271
     2
272
     2
276
     2
284
    12
289
     0
340
94
  0
DIMSTYLE
105
2FA
102
{ACAD_REACTORS
330
2F9
330
30D
330
320
102
}
330
A
100
AcDbSymbolTableRecord
100
AcDbDimStyleTableRecord
  2
SLDDIMSTYLE1
 70
     0
 41
3.302
 44
0.0
 45
0.000000001
 73
     0
 74
     0
 77
     1
 78
    12
 79
     3
140
3.5
143
0.0393700787401575
147
0.875
148
0.000000001
170
     1
173
     1
178
     0
271
     2
272
     2
276
     2
284
    12
340
94
  0
ENDTAB
  0
TABLE
  2
BLOCK_RECORD
  5
1
330
0
100
AcDbSymbolTable
 70
     7
  0
BLOCK_RECORD
  5
1F
330
1
100
AcDbSymbolTableRecord
100
AcDbBlockTableRecord
  2
*Model_Space
340
22
  0
BLOCK_RECORD
  5
1B
330
1
100
AcDbSymbolTableRecord
100
AcDbBlockTableRecord
  2
*Paper_Space
340
1E
  0
BLOCK_RECORD
  5
23
330
1
100
AcDbSymbolTableRecord
100
AcDbBlockTableRecord
  2
*Paper_Space0
340
26
  0
BLOCK_RECORD
  5
7F
330
1
100
AcDbSymbolTableRecord
100
AcDbBlockTableRecord
  2
블럭10
340
0
102
{BLKREFS
331
2DD
102
}
  0
BLOCK_RECORD
  5
2E6
330
1
100
AcDbSymbolTableRecord
100
AcDbBlockTableRecord
  2
_D
340
0
  0
BLOCK_RECORD
  5
2FB
330
1
100
AcDbSymbolTableRecord
100
AcDbBlockTableRecord
  2
_D_1
340
0
  0
BLOCK_RECORD
  5
30E
330
1
100
AcDbSymbolTableRecord
100
AcDbBlockTableRecord
  2
_D_2
340
0
  0
BLOCK_RECORD
  5
321
330
1
100
AcDbSymbolTableRecord
100
AcDbBlockTableRecord
  2
_D_3
340
0
  0
BLOCK_RECORD
  5
33A
330
1
100
AcDbSymbolTableRecord
100
AcDbBlockTableRecord
  2
SW_DOWELSYMBOL_0
340
0
102
{BLKREFS
331
340
102
}
  0
ENDTAB
  0
ENDSEC
  0
SECTION
  2
BLOCKS
  0
BLOCK
  5
20
330
1F
100
AcDbEntity
  8
0
100
AcDbBlockBegin
  2
*Model_Space
 70
     0
 10
0.0
 20
0.0
 30
0.0
  3
*Model_Space
  1
*Model_Space
  0
ENDBLK
  5
21
330
1F
100
AcDbEntity
  8
0
100
AcDbBlockEnd
  0
BLOCK
  5
1C
330
1B
100
AcDbEntity
 67
     1
  8
0
100
AcDbBlockBegin
  2
*Paper_Space
 70
     0
 10
0.0
 20
0.0
 30
0.0
  3
*Paper_Space
  1
*Paper_Space
  0
ENDBLK
  5
1D
330
1B
100
AcDbEntity
 67
     1
  8
0
100
AcDbBlockEnd
  0
BLOCK
  5
24
330
23
100
AcDbEntity
  8
0
100
AcDbBlockBegin
  2
*Paper_Space0
 70
     0
 10
0.0
 20
0.0
 30
0.0
  3
*Paper_Space0
  1
*Paper_Space0
  0
ENDBLK
  5
25
330
23
100
AcDbEntity
  8
0
100
AcDbBlockEnd
  0
BLOCK
  5
80
330
7F
100
AcDbEntity
  8
0
100
AcDbBlockBegin
  2
블럭10
 70
     2
 10
0.0
 20
0.0
 30
0.0
  3
블럭10
  1
블럭10
  0
ELLIPSE
  5
82
330
7F
100
AcDbEntity
  8
중심선
100
AcDbEllipse
 10
20.54032771741204
 20
12.0471743016438
 30
0.0
 11
6.600054785286829
 21
-1.261213355974178E-13
 31
0.0
210
0.0
220
0.0
230
1.0
 40
0.636358354079598
 41
0.9219305317359503
 42
6.513795318482858
  0
ELLIPSE
  5
83
330
7F
100
AcDbEntity
  8
중심선
100
AcDbEllipse
 10
20.54032771746488
 20
12.04717430159265
 30
0.0
 11
3.960054785062283
 21
1.540847449632565E-10
 31
0.0
210
0.0
220
0.0
230
1.0
 40
0.3939339440162632
 41
1.131841032648279
 42
5.62031148352944
  0
LINE
  5
84
330
7F
100
AcDbEntity
  8
중심선
100
AcDbLine
 10
2.268634060543552
 20
16.24717430164393
 30
0.0
 11
5.714909304380834
 21
16.24717430164393
 31
0.0
  0
LINE
  5
85
330
7F
100
AcDbEntity
  8
중심선
100
AcDbLine
 10
5.245725140726316
 20
7.84717430164391
 30
0.0
 11
8.692000384563599
 21
7.84717430164391
 31
0.0
  0
LINE
  5
86
330
7F
100
AcDbEntity
  8
중심선
100
AcDbLine
 10
15.74043728645272
 20
16.24717430164393
 30
0.0
 11
8.692000384563599
 21
7.84717430164391
 31
0.0
  0
LINE
  5
87
330
7F
100
AcDbEntity
  8
중심선
100
AcDbLine
 10
0.1404042013395286
 20
13.71084872107135
 30
0.0
 11
3.58671253028996
 21
13.71088815037384
 31
0.0
  0
LINE
  5
88
330
7F
100
AcDbEntity
  8
중심선
100
AcDbLine
 10
2.750260043222114
 20
10.84717430164391
 30
0.0
 11
6.196535287059397
 21
10.84717430164391
 31
0.0
  0
LINE
  5
89
330
7F
100
AcDbEntity
  8
중심선
100
AcDbLine
 10
12.29416204261559
 20
16.24717430164393
 30
0.0
 11
5.245725140726316
 21
7.84717430164391
 31
0.0
  0
LINE
  5
8A
330
7F
100
AcDbEntity
  8
중심선
100
AcDbLine
 10
10.72767329541681
 20
16.24717430164393
 30
0.0
 11
6.196535287059397
 21
10.84717430164391
 31
0.0
  0
LINE
  5
8B
330
7F
100
AcDbEntity
  8
중심선
100
AcDbLine
 10
7.28139805157953
 20
16.24717430164393
 30
0.0
 11
2.750260043222114
 21
10.84717430164391
 31
0.0
  0
LINE
  5
8C
330
7F
100
AcDbEntity
  8
중심선
100
AcDbLine
 10
5.714909304380834
 20
16.24717430164393
 30
0.0
 11
3.58671253028996
 21
13.71088815037384
 31
0.0
  0
LINE
  5
8D
330
7F
100
AcDbEntity
  8
중심선
100
AcDbLine
 10
2.268634060543552
 20
16.24717430164393
 30
0.0
 11
0.1404042013395286
 21
13.71084872107135
 31
0.0
  0
LINE
  5
8E
330
7F
100
AcDbEntity
  8
중심선
100
AcDbLine
 10
7.28139805157953
 20
16.24717430164393
 30
0.0
 11
10.72767329541681
 21
16.24717430164393
 31
0.0
  0
LINE
  5
8F
330
7F
100
AcDbEntity
  8
중심선
100
AcDbLine
 10
12.29416204261559
 20
16.24717430164393
 30
0.0
 11
15.74043728645272
 21
16.24717430164393
 31
0.0
  0
LINE
  5
90
330
7F
100
AcDbEntity
  8
중심선
100
AcDbLine
 10
19.22036997980202
 20
11.08717430171403
 30
0.0
 11
23.66174974927406
 21
11.08717430171406
 31
0.0
  0
LINE
  5
91
330
7F
100
AcDbEntity
  8
중심선
100
AcDbLine
 10
19.22039502424796
 20
13.00717430171391
 30
0.0
 11
19.22036997980202
 21
11.08717430171403
 31
0.0
  0
LINE
  5
92
330
7F
100
AcDbEntity
  8
중심선
100
AcDbLine
 10
19.22039502424796
 20
13.00717430171391
 30
0.0
 11
26.96566020931264
 21
13.00717430171391
 31
0.0
  0
LINE
  5
93
330
7F
100
AcDbEntity
  8
중심선
100
AcDbLine
 10
22.22332737316547
 20
13.45928029700563
 30
0.0
 11
24.52862924686651
 21
15.39360700705356
 31
0.0
  0
ATTDEF
  5
95
330
7F
100
AcDbEntity
  8
FORMAT
 62
     2
100
AcDbText
 10
2.542683156192612
 20
2.075366912832191
 30
0.0
 40
4.233333333333333
  1
GYG68040
 41
0.75
  7
SLDTEXTSTYLE0
 11
2.542683156192612
 21
-0.0412997538344756
 31
0.0
100
AcDbAttributeDefinition
  3

  2
AUTOATTR0
 70
     0
 74
     1
  0
ENDBLK
  5
81
330
7F
100
AcDbEntity
  8
0
100
AcDbBlockEnd
  0
BLOCK
  5
2E7
330
2E6
100
AcDbEntity
  8
0
100
AcDbBlockBegin
  2
_D
 70
     0
 10
0.0
 20
0.0
 30
0.0
  3
_D
  1
_D
  0
LINE
  5
2E9
330
2E6
100
AcDbEntity
  8
치수문자_일반주서
 62
     0
370
    -2
100
AcDbLine
 10
-40.45000000000001
 20
7.938574928723877
 30
0.0
 11
-55.38750000000008
 21
7.938574928723827
 31
0.0
  0
LINE
  5
2EA
330
2E6
100
AcDbEntity
  8
치수문자_일반주서
 62
     0
370
    -2
100
AcDbLine
 10
-40.45000000000001
 20
-7.936425071276123
 30
0.0
 11
-55.38750000000002
 21
-7.936425071276173
 31
0.0
  0
LINE
  5
2EB
330
2E6
100
AcDbEntity
  8
치수문자_일반주서
 62
     0
370
    -2
100
AcDbLine
 10
-55.38750000000007
 20
4.636574928723827
 30
0.0
 11
-55.38750000000004
 21
-4.634425071276174
 31
0.0
  0
SOLID
  5
2EC
330
2E6
100
AcDbEntity
  8
치수문자_일반주서
 62
     0
100
AcDbTrace
 10
-54.83716666666673
 20
4.636574928723829
 30
0.0
 11
-55.9378333333334
 21
4.636574928723825
 31
0.0
 12
-55.38750000000008
 22
7.938574928723827
 32
0.0
 13
-55.38750000000008
 23
7.938574928723827
 33
0.0
  0
SOLID
  5
2ED
330
2E6
100
AcDbEntity
  8
치수문자_일반주서
 62
     0
100
AcDbTrace
 10
-55.93783333333337
 20
-4.634425071276175
 30
0.0
 11
-54.8371666666667
 21
-4.634425071276172
 31
0.0
 12
-55.38750000000002
 22
-7.936425071276173
 32
0.0
 13
-55.38750000000002
 23
-7.936425071276173
 33
0.0
  0
MTEXT
  5
2EE
330
2E6
100
AcDbEntity
  8
치수문자_일반주서
 62
     0
100
AcDbMText
 10
-59.76250000000005
 20
-1.769213943387232
 30
0.0
 40
3.5
 41
0.0
 71
     2
 72
     1
  1
\A1;%%c15.88 [5/8]
  7
SLDTEXTSTYLE0
 11
-3.580687802255623E-15
 21
1.0
 31
0.0
 73
     1
 44
1.0
  0
POINT
  5
2EF
330
2E6
100
AcDbEntity
  8
Defpoints
 62
     0
100
AcDbPoint
 10
-40.38750000000001
 20
7.938574928723877
 30
0.0
  0
POINT
  5
2F0
330
2E6
100
AcDbEntity
  8
Defpoints
 62
     0
100
AcDbPoint
 10
-40.38750000000001
 20
-7.936425071276123
 30
0.0
  0
POINT
  5
2F1
330
2E6
100
AcDbEntity
  8
Defpoints
 62
     0
100
AcDbPoint
 10
-55.38750000000002
 20
-7.936425071276175
 30
0.0
  0
ENDBLK
  5
2E8
330
2E6
100
AcDbEntity
  8
0
100
AcDbBlockEnd
  0
BLOCK
  5
2FC
330
2FB
100
AcDbEntity
  8
0
100
AcDbBlockBegin
  2
_D_1
 70
     0
 10
0.0
 20
0.0
 30
0.0
  3
_D_1
  1
_D_1
  0
LINE
  5
2FE
330
2FB
100
AcDbEntity
  8
치수문자_일반주서
 62
     0
370
    -2
100
AcDbLine
 10
11.0625
 20
7.938574928723892
 30
0.0
 11
69.42028087307985
 21
7.938574928724094
 31
0.0
  0
LINE
  5
2FF
330
2FB
100
AcDbEntity
  8
치수문자_일반주서
 62
     0
370
    -2
100
AcDbLine
 10
10.58678301214955
 20
-7.936425071276108
 30
0.0
 11
69.4202808730799
 21
-7.936425071275906
 31
0.0
  0
LINE
  5
300
330
2FB
100
AcDbEntity
  8
치수문자_일반주서
 62
     0
370
    -2
100
AcDbLine
 10
69.42028087307985
 20
7.938574928724094
 30
0.0
 11
69.42028087307973
 21
39.24057492872409
 31
0.0
  0
LINE
  5
301
330
2FB
100
AcDbEntity
  8
치수문자_일반주서
 62
     0
370
    -2
100
AcDbLine
 10
69.42028087307986
 20
4.636574928724094
 30
0.0
 11
69.42028087307989
 21
-4.634425071275906
 31
0.0
  0
SOLID
  5
302
330
2FB
100
AcDbEntity
  8
치수문자_일반주서
 62
     0
100
AcDbTrace
 10
69.97061420641319
 20
4.636574928724096
 30
0.0
 11
68.86994753974653
 21
4.636574928724093
 31
0.0
 12
69.42028087307985
 22
7.938574928724094
 32
0.0
 13
69.42028087307985
 23
7.938574928724094
 33
0.0
  0
SOLID
  5
303
330
2FB
100
AcDbEntity
  8
치수문자_일반주서
 62
     0
100
AcDbTrace
 10
68.86994753974656
 20
-4.634425071275908
 30
0.0
 11
69.97061420641322
 21
-4.634425071275905
 31
0.0
 12
69.4202808730799
 22
-7.936425071275906
 32
0.0
 13
69.4202808730799
 23
-7.936425071275906
 33
0.0
  0
MTEXT
  5
304
330
2FB
100
AcDbEntity
  8
치수문자_일반주서
 62
     0
100
AcDbMText
 10
65.04528087307979
 20
25.24057492872408
 30
0.0
 40
3.5
 41
0.0
 71
     2
 72
     1
  1
\A1;%%c15.88 [5/8]
  7
SLDTEXTSTYLE0
 11
-3.580687802255624E-15
 21
1.0
 31
0.0
 73
     1
 44
1.0
  0
POINT
  5
305
330
2FB
100
AcDbEntity
  8
Defpoints
 62
     0
100
AcDbPoint
 10
11.0
 20
7.938574928723892
 30
0.0
  0
POINT
  5
306
330
2FB
100
AcDbEntity
  8
Defpoints
 62
     0
100
AcDbPoint
 10
10.52428301214955
 20
-7.936425071276108
 30
0.0
  0
POINT
  5
307
330
2FB
100
AcDbEntity
  8
Defpoints
 62
     0
100
AcDbPoint
 10
69.4202808730799
 20
-7.936425071275902
 30
0.0
  0
ENDBLK
  5
2FD
330
2FB
100
AcDbEntity
  8
0
100
AcDbBlockEnd
  0
BLOCK
  5
30F
330
30E
100
AcDbEntity
  8
0
100
AcDbBlockBegin
  2
_D_2
 70
     0
 10
0.0
 20
0.0
 30
0.0
  3
_D_2
  1
_D_2
  0
LINE
  5
311
330
30E
100
AcDbEntity
  8
치수문자_일반주서
 62
     0
370
    -2
100
AcDbLine
 10
53.27499999999999
 20
7.790889888292647
 30
0.0
 11
53.27499999999999
 21
17.20147524595327
 31
0.0
  0
LINE
  5
312
330
30E
100
AcDbEntity
  8
치수문자_일반주서
 62
     0
370
    -2
100
AcDbLine
 10
12.0
 20
-7.873925071276104
 30
0.0
 11
12.0
 21
17.20147524595327
 31
0.0
  0
LINE
  5
313
330
30E
100
AcDbEntity
  8
치수문자_일반주서
 62
     0
370
    -2
100
AcDbLine
 10
49.97299999999999
 20
17.20147524595327
 30
0.0
 11
15.302
 21
17.20147524595327
 31
0.0
  0
SOLID
  5
314
330
30E
100
AcDbEntity
  8
치수문자_일반주서
 62
     0
100
AcDbTrace
 10
49.97299999999999
 20
16.65114191261993
 30
0.0
 11
49.97299999999999
 21
17.7518085792866
 31
0.0
 12
53.27499999999999
 22
17.20147524595327
 32
0.0
 13
53.27499999999999
 23
17.20147524595327
 33
0.0
  0
SOLID
  5
315
330
30E
100
AcDbEntity
  8
치수문자_일반주서
 62
     0
100
AcDbTrace
 10
15.302
 20
17.7518085792866
 30
0.0
 11
15.302
 21
16.65114191261993
 31
0.0
 12
12.0
 22
17.20147524595327
 32
0.0
 13
12.0
 23
17.20147524595327
 33
0.0
  0
MTEXT
  5
316
330
30E
100
AcDbEntity
  8
치수문자_일반주서
 62
     0
100
AcDbMText
 10
32.6375
 20
21.57647524595327
 30
0.0
 40
3.5
 41
0.0
 71
     2
 72
     1
  1
\A1;41.28 [1 5/8]
  7
SLDTEXTSTYLE0
 73
     1
 44
1.0
  0
POINT
  5
317
330
30E
100
AcDbEntity
  8
Defpoints
 62
     0
100
AcDbPoint
 10
53.27499999999999
 20
7.728389888292647
 30
0.0
  0
POINT
  5
318
330
30E
100
AcDbEntity
  8
Defpoints
 62
     0
100
AcDbPoint
 10
12.0
 20
-7.936425071276104
 30
0.0
  0
POINT
  5
319
330
30E
100
AcDbEntity
  8
Defpoints
 62
     0
100
AcDbPoint
 10
12.0
 20
17.20147524595327
 30
0.0
  0
ENDBLK
  5
310
330
30E
100
AcDbEntity
  8
0
100
AcDbBlockEnd
  0
BLOCK
  5
322
330
321
100
AcDbEntity
  8
0
100
AcDbBlockBegin
  2
_D_3
 70
     0
 10
0.0
 20
0.0
 30
0.0
  3
_D_3
  1
_D_3
  0
LINE
  5
324
330
321
100
AcDbEntity
  8
치수문자_일반주서
 62
     0
370
    -2
100
AcDbLine
 10
53.27499999999999
 20
7.790889888292647
 30
0.0
 11
53.27499999999998
 21
29.06456448679851
 31
0.0
  0
LINE
  5
325
330
321
100
AcDbEntity
  8
치수문자_일반주서
 62
     0
370
    -2
100
AcDbLine
 10
-41.97500000000002
 20
6.413574928723884
 30
0.0
 11
-41.97500000000002
 21
29.06456448679851
 31
0.0
  0
LINE
  5
326
330
321
100
AcDbEntity
  8
치수문자_일반주서
 62
     0
370
    -2
100
AcDbLine
 10
49.97299999999998
 20
29.06456448679851
 30
0.0
 11
-38.67300000000002
 21
29.06456448679851
 31
0.0
  0
SOLID
  5
327
330
321
100
AcDbEntity
  8
치수문자_일반주서
 62
     0
100
AcDbTrace
 10
49.97299999999998
 20
28.51423115346518
 30
0.0
 11
49.97299999999998
 21
29.61489782013185
 31
0.0
 12
53.27499999999998
 22
29.06456448679851
 32
0.0
 13
53.27499999999998
 23
29.06456448679851
 33
0.0
  0
SOLID
  5
328
330
321
100
AcDbEntity
  8
치수문자_일반주서
 62
     0
100
AcDbTrace
 10
-38.67300000000002
 20
29.61489782013185
 30
0.0
 11
-38.67300000000002
 21
28.51423115346518
 31
0.0
 12
-41.97500000000002
 22
29.06456448679851
 32
0.0
 13
-41.97500000000002
 23
29.06456448679851
 33
0.0
  0
MTEXT
  5
329
330
321
100
AcDbEntity
  8
치수문자_일반주서
 62
     0
100
AcDbMText
 10
5.649999999999991
 20
33.43956448679852
 30
0.0
 40
3.5
 41
0.0
 71
     2
 72
     1
  1
\A1;95.25 [3 3/4]
  7
SLDTEXTSTYLE0
 73
     1
 44
1.0
  0
POINT
  5
32A
330
321
100
AcDbEntity
  8
Defpoints
 62
     0
100
AcDbPoint
 10
53.27499999999999
 20
7.728389888292647
 30
0.0
  0
POINT
  5
32B
330
321
100
AcDbEntity
  8
Defpoints
 62
     0
100
AcDbPoint
 10
-41.97500000000002
 20
6.351074928723884
 30
0.0
  0
POINT
  5
32C
330
321
100
AcDbEntity
  8
Defpoints
 62
     0
100
AcDbPoint
 10
-41.97500000000002
 20
29.06456448679851
 30
0.0
  0
ENDBLK
  5
323
330
321
100
AcDbEntity
  8
0
100
AcDbBlockEnd
  0
BLOCK
  5
33B
330
33A
100
AcDbEntity
  8
0
100
AcDbBlockBegin
  2
SW_DOWELSYMBOL_0
 70
     0
 10
0.0
 20
0.0
 30
0.0
  3
SW_DOWELSYMBOL_0
  1
SW_DOWELSYMBOL_0
  0
CIRCLE
  5
33D
330
33A
100
AcDbEntity
  8
해칭선
 62
     0
100
AcDbCircle
 10
0.0
 20
0.0
 30
0.0
 40
3.000000000000002
  0
HATCH
  5
33E
330
33A
100
AcDbEntity
  8
0
  6
Continuous
 62
     0
370
     0
100
AcDbHatch
 10
0.0
 20
0.0
 30
0.0
210
0.0
220
0.0
230
1.0
  2
SOLID
 70
     1
 71
     0
 91
        1
 92
        0
 93
        3
 72
     2
 10
0.0000000000000104
 20
0.0
 40
3.000000000000002
 50
0.0
 51
90.0
 73
     1
 72
     1
 10
0.0000000000000104
 20
3.000000000000002
 11
0.0000000000000104
 21
0.0
 72
     1
 10
0.0000000000000104
 20
0.0
 11
3.000000000000012
 21
0.0
 97
        0
 75
     0
 76
     1
 98
        1
 10
0.0
 20
0.0
  0
HATCH
  5
33F
330
33A
100
AcDbEntity
  8
0
  6
Continuous
 62
     0
370
     0
100
AcDbHatch
 10
0.0
 20
0.0
 30
0.0
210
0.0
220
0.0
230
1.0
  2
SOLID
 70
     1
 71
     0
 91
        1
 92
        0
 93
        3
 72
     2
 10
0.0000000000000104
 20
0.0
 40
3.000000000000002
 50
180.0
 51
270.0000000000007
 73
     1
 72
     1
 10
0.0000000000000104
 20
-3.000000000000002
 11
0.0000000000000104
 21
0.0
 72
     1
 10
0.0000000000000104
 20
0.0
 11
-2.999999999999992
 21
0.0
 97
        0
 75
     0
 76
     1
 98
        1
 10
0.0
 20
0.0
  0
ENDBLK
  5
33C
330
33A
100
AcDbEntity
  8
0
100
AcDbBlockEnd
  0
ENDSEC
  0
SECTION
  2
ENTITIES
  0
LINE
  5
96
330
1F
100
AcDbEntity
  8
외형선
  6
Continuous
370
    15
100
AcDbLine
 10
-40.3875
 20
7.938574928723884
 30
0.0
 11
-41.97500000000002
 21
6.351074928723883
 31
0.0
  0
LINE
  5
97
330
1F
100
AcDbEntity
  8
외형선
  6
Continuous
370
    15
100
AcDbLine
 10
-41.97500000000002
 20
-6.348925071276114
 30
0.0
 11
-40.3875
 21
-7.936425071276119
 31
0.0
  0
LINE
  5
98
330
1F
100
AcDbEntity
  8
외형선
  6
Continuous
370
    15
100
AcDbLine
 10
11.0
 20
7.938574928723892
 30
0.0
 11
-11.02192500000009
 21
7.938574928723889
 31
0.0
  0
LINE
  5
99
330
1F
100
AcDbEntity
  8
외형선
  6
Continuous
370
    15
100
AcDbLine
 10
-40.3875
 20
-7.936425071276116
 30
0.0
 11
10.52429439346909
 21
-7.936425071276108
 31
0.0
  0
LINE
  5
9B
330
1F
100
AcDbEntity
  8
외형선
  6
Continuous
 62
     1
370
    15
100
AcDbLine
 10
35.10202679364567
 20
7.844150505263912
 30
0.0
 11
34.96910183355303
 21
7.774737311009811
 31
0.0
  0
LINE
  5
9C
330
1F
100
AcDbEntity
  8
외형선
  6
Continuous
 62
     1
370
    15
100
AcDbLine
 10
28.29490269806576
 20
-7.86179368530727
 30
0.0
 11
28.46936591819325
 21
-7.773748694766326
 31
0.0
  0
SPLINE
  5
9D
330
1F
100
AcDbEntity
  8
외형선
  6
Continuous
 62
     1
370
    15
100
AcDbSpline
210
0.0
220
0.0
230
1.0
 70
     8
 71
     3
 72
    11
 73
     7
 74
     0
 42
0.000000001
 43
0.00000001
 40
0.0
 40
0.0
 40
0.0
 40
0.0
 40
0.1994209603246247
 40
0.4698858603729288
 40
0.7403376435108521
 40
1.0
 40
1.0
 40
1.0
 40
1.0
 10
13.49844171346198
 20
7.804201602758582
 30
0.0
 10
13.43396163025238
 20
7.837343538114283
 30
0.0
 10
13.28203036221245
 20
7.915434260291565
 30
0.0
 10
13.00970366337818
 20
7.945571584958499
 30
0.0
 10
12.71654549326552
 20
7.90648501247095
 30
0.0
 10
12.54556799071238
 20
7.814023378244042
 30
0.0
 10
12.46181919417809
 20
7.768733498134283
 30
0.0
  0
SPLINE
  5
A0
330
1F
100
AcDbEntity
  8
외형선
  6
Continuous
 62
     1
370
    15
100
AcDbSpline
210
0.0
220
0.0
230
1.0
 70
     8
 71
     3
 72
     9
 73
     5
 74
     0
 42
0.000000001
 43
0.00000001
 40
0.0
 40
0.0
 40
0.0
 40
0.0
 40
0.7166295267078189
 40
1.0
 40
1.0
 40
1.0
 40
1.0
 10
34.96910180881215
 20
7.774737295063528
 30
0.0
 10
34.94476273062567
 20
7.760755086924067
 30
0.0
 10
34.91079946609444
 20
7.741244017929049
 30
0.0
 10
34.86992268625747
 20
7.74252067063314
 30
0.0
 10
34.8583394138084
 20
7.742882436314129
 30
0.0
  0
SPLINE
  5
A1
330
1F
100
AcDbEntity
  8
외형선
  6
Continuous
 62
     1
370
    15
100
AcDbSpline
210
0.0
220
0.0
230
1.0
 70
     8
 71
     3
 72
     9
 73
     5
 74
     0
 42
0.000000001
 43
0.00000001
 40
0.0
 40
0.0
 40
0.0
 40
0.0
 40
0.6240853322979577
 40
1.0
 40
1.0
 40
1.0
 40
1.0
 10
28.46936593303219
 20
-7.773748684982094
 30
0.0
 10
28.49797660293212
 20
-7.758094654538226
 30
0.0
 10
28.54382076625286
 20
-7.733011497422154
 30
0.0
 10
28.59792068474461
 20
-7.74013884308359
 30
0.0
 10
28.61825763762714
 20
-7.742818116859507
 30
0.0
  0
SPLINE
  5
A2
330
1F
100
AcDbEntity
  8
외형선
  6
Continuous
 62
     1
370
    15
100
AcDbSpline
210
0.0
220
0.0
230
1.0
 70
     8
 71
     3
 72
     9
 73
     5
 74
     0
 42
0.000000001
 43
0.00000001
 40
0.0
 40
0.0
 40
0.0
 40
0.0
 40
0.0005570111266889
 40
1.0
 40
1.0
 40
1.0
 40
1.0
 10
34.50677901058499
 20
7.883180668207907
 30
0.0
 10
34.50674090395358
 20
7.883199901891465
 30
0.0
 10
34.4383282105826
 20
7.917730062306661
 30
0.0
 10
34.35748677990332
 20
7.928082323362647
 30
0.0
 10
34.2766903788004
 20
7.938428818094036
 30
0.0
  0
SPLINE
  5
A3
330
1F
100
AcDbEntity
  8
외형선
  6
Continuous
 62
     1
370
    15
100
AcDbSpline
210
0.0
220
0.0
230
1.0
 70
     8
 71
     3
 72
    11
 73
     7
 74
     0
 42
0.000000001
 43
0.00000001
 40
0.0
 40
0.0
 40
0.0
 40
0.0
 40
0.244949441204519
 40
0.4999746274411622
 40
0.7550126839033764
 40
1.0
 40
1.0
 40
1.0
 40
1.0
 10
28.73188923877986
 20
-7.776825260179445
 30
0.0
 10
28.81580076298033
 20
-7.821079811368925
 30
0.0
 10
28.98707542620818
 20
-7.911409279502154
 30
0.0
 10
29.28112861172512
 20
-7.948046315376867
 30
0.0
 10
29.5751873252781
 20
-7.90899053999096
 30
0.0
 10
29.7464628329339
 20
-7.817042130865333
 30
0.0
 10
29.83037922845389
 20
-7.771992028995968
 30
0.0
  0
SPLINE
  5
A5
330
1F
100
AcDbEntity
  8
외형선
  6
Continuous
 62
     1
370
    15
100
AcDbSpline
210
0.0
220
0.0
230
1.0
 70
     8
 71
     3
 72
     9
 73
     5
 74
     0
 42
0.000000001
 43
0.00000001
 40
0.0
 40
0.0
 40
0.0
 40
0.0
 40
0.5004170044502161
 40
1.0
 40
1.0
 40
1.0
 40
1.0
 10
34.26469589236081
 20
7.936305058361662
 30
0.0
 10
34.18719010964205
 20
7.921996975811356
 30
0.0
 10
34.0323077174981
 20
7.893404656959153
 30
0.0
 10
33.89548040926865
 20
7.814044052040678
 30
0.0
 10
33.82712381275037
 20
7.774396843306867
 30
0.0
  0
SPLINE
  5
A6
330
1F
100
AcDbEntity
  8
외형선
  6
Continuous
 62
     1
370
    15
100
AcDbSpline
210
0.0
220
0.0
230
1.0
 70
     8
 71
     3
 72
    11
 73
     7
 74
     0
 42
0.000000001
 43
0.00000001
 40
0.0
 40
0.0
 40
0.0
 40
0.0
 40
0.2474518894963921
 40
0.4998232864157179
 40
0.7522809519884421
 40
1.0
 40
1.0
 40
1.0
 40
1.0
 10
12.46751127032359
 20
7.773649820735296
 30
0.0
 10
12.44767924361295
 20
7.763159193800081
 30
0.0
 10
12.40762091636812
 20
7.741969379319403
 30
0.0
 10
12.33590339014433
 20
7.733771598854179
 30
0.0
 10
12.26429561020208
 20
7.745374952446195
 30
0.0
 10
12.22451642842355
 20
7.768801257913312
 30
0.0
 10
12.20481526926674
 20
7.780403441563879
 30
0.0
  0
SPLINE
  5
A8
330
1F
100
AcDbEntity
  8
외형선
  6
Continuous
 62
     1
370
    15
100
AcDbSpline
210
0.0
220
0.0
230
1.0
 70
     8
 71
     3
 72
     9
 73
     5
 74
     0
 42
0.000000001
 43
0.00000001
 40
0.0
 40
0.0
 40
0.0
 40
0.0
 40
0.5998997504404376
 40
1.0
 40
1.0
 40
1.0
 40
1.0
 10
12.20818216037548
 20
7.780269255845027
 30
0.0
 10
12.16958738154093
 20
7.803965726575046
 30
0.0
 10
12.10525200082737
 20
7.84346644434101
 30
0.0
 10
12.03449591667242
 20
7.869333463376167
 30
0.0
 10
12.00618638974417
 20
7.879682864147494
 30
0.0
  0
SPLINE
  5
AA
330
1F
100
AcDbEntity
  8
외형선
  6
Continuous
 62
     1
370
    15
100
AcDbSpline
210
0.0
220
0.0
230
1.0
 70
     8
 71
     3
 72
    11
 73
     7
 74
     0
 42
0.000000001
 43
0.00000001
 40
0.0
 40
0.0
 40
0.0
 40
0.0
 40
0.2477513968955512
 40
0.4998631516962048
 40
0.7520398817620961
 40
1.0
 40
1.0
 40
1.0
 40
1.0
 10
33.83011817939757
 20
7.776478319579891
 30
0.0
 10
33.81053057359409
 20
7.765709836566864
 30
0.0
 10
33.77101062539683
 20
7.743983348138034
 30
0.0
 10
33.69965046526787
 20
7.734632459898296
 30
0.0
 10
33.62818820496398
 20
7.745072119899093
 30
0.0
 10
33.58846594658027
 20
7.767634988141716
 30
0.0
 10
33.56877226490312
 20
7.778821309437981
 30
0.0
  0
SPLINE
  5
AB
330
1F
100
AcDbEntity
  8
외형선
  6
Continuous
 62
     1
370
    15
100
AcDbSpline
210
0.0
220
0.0
230
1.0
 70
     8
 71
     3
 72
    11
 73
     7
 74
     0
 42
0.000000001
 43
0.00000001
 40
0.0
 40
0.0
 40
0.0
 40
0.0
 40
0.2828791173590888
 40
0.5506180760422978
 40
0.7911991739848072
 40
1.0
 40
1.0
 40
1.0
 40
1.0
 10
33.57975730434949
 20
7.77455662450766
 30
0.0
 10
33.47755075992323
 20
7.827244652835937
 30
0.0
 10
33.27860793453437
 20
7.929800758989759
 30
0.0
 10
32.95926111592268
 20
7.9496833993658
 30
0.0
 10
32.68266838110155
 20
7.893982566110869
 30
0.0
 10
32.53660023993769
 20
7.812401042407161
 30
0.0
 10
32.46873113594501
 20
7.774495001623653
 30
0.0
  0
LINE
  5
AC
330
1F
100
AcDbEntity
  8
외형선
  6
Continuous
370
    15
100
AcDbLine
 10
11.99999999999999
 20
7.875330845951881
 30
0.0
 11
11.0
 21
7.938574928723892
 31
0.0
  0
SPLINE
  5
AD
330
1F
100
AcDbEntity
  8
외형선
  6
Continuous
 62
     1
370
    15
100
AcDbSpline
210
0.0
220
0.0
230
1.0
 70
     8
 71
     3
 72
     9
 73
     5
 74
     0
 42
0.000000001
 43
0.00000001
 40
0.0
 40
0.0
 40
0.0
 40
0.0
 40
0.5001723183266538
 40
1.0
 40
1.0
 40
1.0
 40
1.0
 10
29.82691231497992
 20
-7.774067755720696
 30
0.0
 10
29.8701272963303
 20
-7.75496118978332
 30
0.0
 10
29.95652748236012
 20
-7.716761223017278
 30
0.0
 10
30.04262866514216
 20
-7.756938009539347
 30
0.0
 10
30.08566441972144
 20
-7.777019479603757
 30
0.0
  0
SPLINE
  5
AE
330
1F
100
AcDbEntity
  8
외형선
  6
Continuous
 62
     1
370
    15
100
AcDbSpline
210
0.0
220
0.0
230
1.0
 70
     8
 71
     3
 72
     9
 73
     5
 74
     0
 42
0.000000001
 43
0.00000001
 40
0.0
 40
0.0
 40
0.0
 40
0.0
 40
0.4994639123276197
 40
1.0
 40
1.0
 40
1.0
 40
1.0
 10
30.08122534710071
 20
-7.774986253127254
 30
0.0
 10
30.14981476925408
 20
-7.814548584138247
 30
0.0
 10
30.28714085120008
 20
-7.893758172728195
 30
0.0
 10
30.44241868439941
 20
-7.921912671506713
 30
0.0
 10
30.52014084353125
 20
-7.93600501417569
 30
0.0
  0
SPLINE
  5
AF
330
1F
100
AcDbEntity
  8
외형선
  6
Continuous
 62
     1
370
    15
100
AcDbSpline
210
0.0
220
0.0
230
1.0
 70
     8
 71
     3
 72
     9
 73
     5
 74
     0
 42
0.000000001
 43
0.00000001
 40
0.0
 40
0.0
 40
0.0
 40
0.0
 40
0.500900998969813
 40
1.0
 40
1.0
 40
1.0
 40
1.0
 10
30.5269142344329
 20
-7.936250832513652
 30
0.0
 10
30.60550561200628
 20
-7.922035213137798
 30
0.0
 10
30.76240563363734
 20
-7.893655115263985
 30
0.0
 10
30.90171065309951
 20
-7.812790282132732
 30
0.0
 10
30.97123764915158
 20
-7.772430724698451
 30
0.0
  0
SPLINE
  5
B1
330
1F
100
AcDbEntity
  8
외형선
  6
Continuous
 62
     1
370
    15
100
AcDbSpline
210
0.0
220
0.0
230
1.0
 70
     8
 71
     3
 72
     9
 73
     5
 74
     0
 42
0.000000001
 43
0.00000001
 40
0.0
 40
0.0
 40
0.0
 40
0.0
 40
0.4994762283095935
 40
1.0
 40
1.0
 40
1.0
 40
1.0
 10
32.46911207925065
 20
7.774743912091559
 30
0.0
 10
32.42781293978501
 20
7.756720448249401
 30
0.0
 10
32.34512804483936
 20
7.720635720247116
 30
0.0
 10
32.26324343646077
 20
7.756060444856823
 30
0.0
 10
32.22225824343174
 20
7.773791361629567
 30
0.0
  0
SPLINE
  5
B3
330
1F
100
AcDbEntity
  8
외형선
  6
Continuous
 62
     1
370
    15
100
AcDbSpline
210
0.0
220
0.0
230
1.0
 70
     8
 71
     3
 72
     9
 73
     5
 74
     0
 42
0.000000001
 43
0.00000001
 40
0.0
 40
0.0
 40
0.0
 40
0.0
 40
0.5005430220653158
 40
1.0
 40
1.0
 40
1.0
 40
1.0
 10
30.96936007052373
 20
-7.773752549681054
 30
0.0
 10
31.01038652941451
 20
-7.755314959525958
 30
0.0
 10
31.09235043078207
 20
-7.718479783842119
 30
0.0
 10
31.17512828412943
 20
-7.753320669442598
 30
0.0
 10
31.21647226060222
 20
-7.770722192873182
 30
0.0
  0
SPLINE
  5
B4
330
1F
100
AcDbEntity
  8
외형선
  6
Continuous
 62
     1
370
    15
100
AcDbSpline
210
0.0
220
0.0
230
1.0
 70
     8
 71
     3
 72
     9
 73
     5
 74
     0
 42
0.000000001
 43
0.00000001
 40
0.0
 40
0.0
 40
0.0
 40
0.0
 40
0.49909000093929
 40
1.0
 40
1.0
 40
1.0
 40
1.0
 10
32.21928171443781
 20
7.775953903275544
 30
0.0
 10
32.14972589534209
 20
7.816130423555204
 30
0.0
 10
32.01036061259789
 20
7.896629973143552
 30
0.0
 10
31.85340993237488
 20
7.924571643675358
 30
0.0
 10
31.77479176729179
 20
7.938567905835199
 30
0.0
  0
SPLINE
  5
B5
330
1F
100
AcDbEntity
  8
외형선
  6
Continuous
 62
     1
370
    15
100
AcDbSpline
210
0.0
220
0.0
230
1.0
 70
     8
 71
     3
 72
    11
 73
     7
 74
     0
 42
0.000000001
 43
0.00000001
 40
0.0
 40
0.0
 40
0.0
 40
0.0
 40
0.2452039327816714
 40
0.4998926118200127
 40
0.7546353913695588
 40
1.0
 40
1.0
 40
1.0
 40
1.0
 10
31.21907194776439
 20
-7.772568169268014
 30
0.0
 10
31.30375357367111
 20
-7.817985809810811
 30
0.0
 10
31.47639239992258
 20
-7.910577893045695
 30
0.0
 10
31.77327300685312
 20
-7.949406314067752
 30
0.0
 10
32.07017352569125
 20
-7.911157900366461
 30
0.0
 10
32.24280173300119
 20
-7.818981755707628
 30
0.0
 10
32.32749724745725
 20
-7.773757941395298
 30
0.0
  0
SPLINE
  5
B7
330
1F
100
AcDbEntity
  8
외형선
  6
Continuous
 62
     1
370
    15
100
AcDbSpline
210
0.0
220
0.0
230
1.0
 70
     8
 71
     3
 72
     9
 73
     5
 74
     0
 42
0.000000001
 43
0.00000001
 40
0.0
 40
0.0
 40
0.0
 40
0.0
 40
0.5008271037987712
 40
1.0
 40
1.0
 40
1.0
 40
1.0
 10
31.77303483407355
 20
7.938537855437984
 30
0.0
 10
31.69482332657298
 20
7.924548617301852
 30
0.0
 10
31.53865864038221
 20
7.896616346803665
 30
0.0
 10
31.40019312955265
 20
7.816861648822459
 30
0.0
 10
31.33107489948789
 20
7.77705026524553
 30
0.0
  0
SPLINE
  5
B8
330
1F
100
AcDbEntity
  8
외형선
  6
Continuous
 62
     1
370
    15
100
AcDbSpline
210
0.0
220
0.0
230
1.0
 70
     8
 71
     3
 72
     9
 73
     5
 74
     0
 42
0.000000001
 43
0.00000001
 40
0.0
 40
0.0
 40
0.0
 40
0.0
 40
0.4995463020560726
 40
1.0
 40
1.0
 40
1.0
 40
1.0
 10
31.32744017350586
 20
7.774637655082678
 30
0.0
 10
31.28619459619958
 20
7.756603645963599
 30
0.0
 10
31.20362852147035
 20
7.720502870029812
 30
0.0
 10
31.12096952653643
 20
7.756594681984908
 30
0.0
 10
31.07960252685342
 20
7.77465696274333
 30
0.0
  0
SPLINE
  5
B9
330
1F
100
AcDbEntity
  8
외형선
  6
Continuous
370
    15
100
AcDbSpline
210
0.0
220
0.0
230
1.0
 70
     8
 71
     3
 72
     9
 73
     5
 74
     0
 42
0.000000001
 43
0.00000001
 40
0.0
 40
0.0
 40
0.0
 40
0.0
 40
0.5467916811099912
 40
1.0
 40
1.0
 40
1.0
 40
1.0
 10
10.52496113254978
 20
-7.936412875821613
 30
0.0
 10
10.6145928051709
 20
-7.919172274810585
 30
0.0
 10
10.77851569521775
 20
-7.887641800579461
 30
0.0
 10
10.91102416352353
 20
-7.808443107403726
 30
0.0
 10
10.97107810368309
 20
-7.772549600811266
 30
0.0
  0
SPLINE
  5
BA
330
1F
100
AcDbEntity
  8
외형선
  6
Continuous
 62
     1
370
    15
100
AcDbSpline
210
0.0
220
0.0
230
1.0
 70
     8
 71
     3
 72
    11
 73
     7
 74
     0
 42
0.000000001
 43
0.00000001
 40
0.0
 40
0.0
 40
0.0
 40
0.0
 40
0.2070122498192902
 40
0.4470828014757154
 40
0.715385611814847
 40
1.0
 40
1.0
 40
1.0
 40
1.0
 10
31.081491845687
 20
7.773353758381679
 30
0.0
 10
31.01338087379069
 20
7.81152791313069
 30
0.0
 10
30.86628211923283
 20
7.893972348491662
 30
0.0
 10
30.58924044836195
 20
7.949795479054764
 30
0.0
 10
30.26884980778378
 20
7.929627076658972
 30
0.0
 10
30.06966204957405
 20
7.826470528406331
 30
0.0
 10
29.96713005728272
 20
7.773370646639987
 30
0.0
  0
SPLINE
  5
BB
330
1F
100
AcDbEntity
  8
외형선
  6
Continuous
 62
     1
370
    15
100
AcDbSpline
210
0.0
220
0.0
230
1.0
 70
     8
 71
     3
 72
     9
 73
     5
 74
     0
 42
0.000000001
 43
0.00000001
 40
0.0
 40
0.0
 40
0.0
 40
0.0
 40
0.5004512315040479
 40
1.0
 40
1.0
 40
1.0
 40
1.0
 10
32.33225464626398
 20
-7.770629368300525
 30
0.0
 10
32.37349913298706
 20
-7.753232284168551
 30
0.0
 10
32.45591373030782
 20
-7.718469488042166
 30
0.0
 10
32.5382344470477
 20
-7.755395387429418
 30
0.0
 10
32.57935765971681
 20
-7.773841674993927
 30
0.0
  0
SPLINE
  5
BE
330
1F
100
AcDbEntity
  8
외형선
  6
Continuous
 62
     1
370
    15
100
AcDbSpline
210
0.0
220
0.0
230
1.0
 70
     8
 71
     3
 72
     9
 73
     5
 74
     0
 42
0.000000001
 43
0.00000001
 40
0.0
 40
0.0
 40
0.0
 40
0.0
 40
0.4657853647223705
 40
1.0
 40
1.0
 40
1.0
 40
1.0
 10
32.57780391062403
 20
-7.77275856321029
 30
0.0
 10
32.64249123378196
 20
-7.810698441533495
 30
0.0
 10
32.78136919787705
 20
-7.892152006193733
 30
0.0
 10
32.93985479075177
 20
-7.921008058035476
 30
0.0
 10
33.0245201139461
 20
-7.936423383245666
 30
0.0
  0
SPLINE
  5
BF
330
1F
100
AcDbEntity
  8
외형선
  6
Continuous
370
    15
100
AcDbSpline
210
0.0
220
0.0
230
1.0
 70
     8
 71
     3
 72
     9
 73
     5
 74
     0
 42
0.000000001
 43
0.00000001
 40
0.0
 40
0.0
 40
0.0
 40
0.0
 40
0.5005146640627651
 40
1.0
 40
1.0
 40
1.0
 40
1.0
 10
10.97177721101501
 20
-7.772019685675833
 30
0.0
 10
11.01284260885003
 20
-7.754140603243932
 30
0.0
 10
11.09488895191154
 20
-7.718419207417536
 30
0.0
 10
11.17772850297808
 20
-7.754545403799812
 30
0.0
 10
11.21910564397145
 20
-7.772589909135947
 30
0.0
  0
SPLINE
  5
C1
330
1F
100
AcDbEntity
  8
외형선
  6
Continuous
370
    15
100
AcDbSpline
210
0.0
220
0.0
230
1.0
 70
     8
 71
     3
 72
     9
 73
     5
 74
     0
 42
0.000000001
 43
0.00000001
 40
0.0
 40
0.0
 40
0.0
 40
0.0
 40
0.4923412298495713
 40
1.0
 40
1.0
 40
1.0
 40
1.0
 10
11.21787449714452
 20
-7.771759294760002
 30
0.0
 10
11.26694484928129
 20
-7.800674103458973
 30
0.0
 10
11.36661221240617
 20
-7.859403307811418
 30
0.0
 10
11.47794927004224
 20
-7.89151515465202
 30
0.0
 10
11.53447050379394
 20
-7.907817015326378
 30
0.0
  0
SPLINE
  5
C3
330
1F
100
AcDbEntity
  8
외형선
  6
Continuous
 62
     1
370
    15
100
AcDbSpline
210
0.0
220
0.0
230
1.0
 70
     8
 71
     3
 72
     9
 73
     5
 74
     0
 42
0.000000001
 43
0.00000001
 40
0.0
 40
0.0
 40
0.0
 40
0.0
 40
0.5004380024562194
 40
0.9999999999999999
 40
0.9999999999999999
 40
0.9999999999999999
 40
0.9999999999999999
 10
33.02659766492685
 20
-7.936289886319169
 30
0.0
 10
33.10420943579327
 20
-7.922328187720174
 30
0.0
 10
33.25929711995293
 20
-7.894429230146067
 30
0.0
 10
33.39636028731415
 20
-7.815617123126033
 30
0.0
 10
33.46483183699081
 20
-7.776245589512473
 30
0.0
  0
LINE
  5
C4
330
1F
100
AcDbEntity
  8
외형선
  6
Continuous
370
    15
100
AcDbLine
 10
11.52016182475298
 20
-7.903527913776592
 30
0.0
 11
12.0
 21
-7.873180988504099
 31
0.0
  0
SPLINE
  5
C6
330
1F
100
AcDbEntity
  8
외형선
  6
Continuous
 62
     1
370
    15
100
AcDbSpline
210
0.0
220
0.0
230
1.0
 70
     8
 71
     3
 72
    11
 73
     7
 74
     0
 42
0.000000001
 43
0.00000001
 40
0.0
 40
0.0
 40
0.0
 40
0.0
 40
0.2479868429615232
 40
0.4997845784473905
 40
0.751687981167962
 40
0.9999999999999999
 40
0.9999999999999999
 40
0.9999999999999999
 40
0.9999999999999999
 10
29.97678215738963
 20
7.7782401127323
 30
0.0
 10
29.95722818042026
 20
7.767260731991044
 30
0.0
 10
29.9178197343112
 20
7.745133246879934
 30
0.0
 10
29.84667582479857
 20
7.735062382913681
 30
0.0
 10
29.77564446765016
 20
7.744743445134375
 30
0.0
 10
29.73652248798762
 20
7.766478877134018
 30
0.0
 10
29.71710193969552
 20
7.777268566470796
 30
0.0
  0
SPLINE
  5
C7
330
1F
100
AcDbEntity
  8
외형선
  6
Continuous
 62
     1
370
    15
100
AcDbSpline
210
0.0
220
0.0
230
1.0
 70
     8
 71
     3
 72
    11
 73
     7
 74
     0
 42
0.000000001
 43
0.00000001
 40
0.0
 40
0.0
 40
0.0
 40
0.0
 40
0.2481437978950548
 40
0.5002147828064623
 40
0.7521806233775357
 40
1.0
 40
1.0
 40
1.0
 40
1.0
 10
33.45997339179183
 20
-7.777824492369351
 30
0.0
 10
33.47948459190921
 20
-7.766535110095782
 30
0.0
 10
33.51881578137192
 20
-7.743777676906252
 30
0.0
 10
33.59004143270528
 20
-7.732784556930192
 30
0.0
 10
33.66137903569151
 20
-7.741569884320207
 30
0.0
 10
33.70099706902983
 20
-7.762930122228857
 30
0.0
 10
33.72064174035494
 20
-7.773521633664016
 30
0.0
  0
SPLINE
  5
C8
330
1F
100
AcDbEntity
  8
외형선
  6
Continuous
370
    15
100
AcDbSpline
210
0.0
220
0.0
230
1.0
 70
     8
 71
     3
 72
     9
 73
     5
 74
     0
 42
0.000000001
 43
0.00000001
 40
0.0
 40
0.0
 40
0.0
 40
0.0
 40
0.5088747304025023
 40
1.0
 40
1.0
 40
1.0
 40
1.0
 10
11.96693360904171
 20
-7.918057925885083
 30
0.0
 10
12.03112669410449
 20
-7.902400959002724
 30
0.0
 10
12.15727382075
 20
-7.871633137480169
 30
0.0
 10
12.26963427322548
 20
-7.806856210091483
 30
0.0
 10
12.32481733073959
 20
-7.775042624164016
 30
0.0
  0
SPLINE
  5
CA
330
1F
100
AcDbEntity
  8
외형선
  6
Continuous
 62
     1
370
    15
100
AcDbSpline
210
0.0
220
0.0
230
1.0
 70
     8
 71
     3
 72
     9
 73
     5
 74
     0
 42
0.000000001
 43
0.00000001
 40
0.0
 40
0.0
 40
0.0
 40
0.0
 40
0.4995578560021647
 40
1.0
 40
1.0
 40
1.0
 40
1.0
 10
29.7194220728943
 20
7.775861450434878
 30
0.0
 10
29.65094352276394
 20
7.815477491527538
 30
0.0
 10
29.51386520579306
 20
7.894779699703576
 30
0.0
 10
29.35876559074737
 20
7.923187568519325
 30
0.0
 10
29.28114720686067
 20
7.937404063295887
 30
0.0
  0
SPLINE
  5
CB
330
1F
100
AcDbEntity
  8
외형선
  6
Continuous
 62
     1
370
    15
100
AcDbSpline
210
0.0
220
0.0
230
1.0
 70
     8
 71
     3
 72
    10
 73
     6
 74
     0
 42
0.000000001
 43
0.00000001
 40
0.0
 40
0.0
 40
0.0
 40
0.0
 40
0.4731109502481008
 40
0.9657781011700198
 40
1.0
 40
1.0
 40
1.0
 40
1.0
 10
33.7160902515942
 20
-7.770422826158415
 30
0.0
 10
33.79966399284945
 20
-7.813831270851129
 30
0.0
 10
33.97026602413798
 20
-7.902442462936383
 30
0.0
 10
34.17443547815581
 20
-7.947869135057248
 30
0.0
 10
34.27830636902031
 20
-7.932354410274955
 30
0.0
 10
34.28505287309022
 20
-7.931346715501027
 30
0.0
  0
SPLINE
  5
CF
330
1F
100
AcDbEntity
  8
외형선
  6
Continuous
 62
     1
370
    15
100
AcDbSpline
210
0.0
220
0.0
230
1.0
 70
     8
 71
     3
 72
    11
 73
     7
 74
     0
 42
0.000000001
 43
0.00000001
 40
0.0
 40
0.0
 40
0.0
 40
0.0
 40
0.2482564852229323
 40
0.5001661918992049
 40
0.7519964589166297
 40
0.9999999999999999
 40
0.9999999999999999
 40
0.9999999999999999
 40
0.9999999999999999
 10
12.32138313382517
 20
-7.776184095724447
 30
0.0
 10
12.34093548013103
 20
-7.765179445728853
 30
0.0
 10
12.38032789554251
 20
-7.743008206671242
 30
0.0
 10
12.45149669721839
 20
-7.73286400278029
 30
0.0
 10
12.52256416991465
 20
-7.742475713305759
 30
0.0
 10
12.56176132286779
 20
-7.764198984478216
 30
0.0
 10
12.58120985270955
 20
-7.774977463419356
 30
0.0
  0
LINE
  5
D0
330
1F
100
AcDbEntity
  8
외형선
  6
Continuous
 62
     1
370
    15
100
AcDbLine
 10
29.27183356839546
 20
7.938429317739747
 30
0.0
 11
29.20904578872796
 21
7.923357846844283
 31
0.0
  0
SPLINE
  5
D1
330
1F
100
AcDbEntity
  8
외형선
  6
Continuous
 62
     1
370
    15
100
AcDbSpline
210
0.0
220
0.0
230
1.0
 70
     8
 71
     3
 72
     9
 73
     5
 74
     0
 42
0.000000001
 43
0.00000001
 40
0.0
 40
0.0
 40
0.0
 40
0.0
 40
0.4995172870516975
 40
1.0
 40
1.0
 40
1.0
 40
1.0
 10
12.58020658988434
 20
-7.774383203785036
 30
0.0
 10
12.64869359761535
 20
-7.813952575521864
 30
0.0
 10
12.78579997912866
 20
-7.893167795420213
 30
0.0
 10
12.94090440560094
 20
-7.921454865308446
 30
0.0
 10
13.01853148975208
 20
-7.935612054787468
 30
0.0
  0
SPLINE
  5
D2
330
1F
100
AcDbEntity
  8
외형선
  6
Continuous
 62
     1
370
    15
100
AcDbSpline
210
0.0
220
0.0
230
1.0
 70
     8
 71
     3
 72
     9
 73
     5
 74
     0
 42
0.000000001
 43
0.00000001
 40
0.0
 40
0.0
 40
0.0
 40
0.0
 40
0.4322029430662224
 40
1.0
 40
1.0
 40
1.0
 40
1.0
 10
28.76860136283936
 20
7.753259624715316
 30
0.0
 10
28.73988558365329
 20
7.74571331810597
 30
0.0
 10
28.67344508470078
 20
7.728253218098764
 30
0.0
 10
28.61358817191978
 20
7.75785165773599
 30
0.0
 10
28.57960159300559
 20
7.774657564651841
 30
0.0
  0
LINE
  5
D3
330
1F
100
AcDbEntity
  8
외형선
  6
Continuous
 62
     1
370
    15
100
AcDbLine
 10
28.57960161037508
 20
7.77465755345677
 30
0.0
 11
28.5446351571137
 21
7.790159059180859
 31
0.0
  0
SPLINE
  5
D4
330
1F
100
AcDbEntity
  8
외형선
  6
Continuous
 62
     1
370
    15
100
AcDbSpline
210
0.0
220
0.0
230
1.0
 70
     8
 71
     3
 72
     9
 73
     5
 74
     0
 42
0.000000001
 43
0.00000001
 40
0.0
 40
0.0
 40
0.0
 40
0.0
 40
0.0532388167670492
 40
1.0
 40
1.0
 40
1.0
 40
1.0
 10
35.01450384324131
 20
-7.745196727482588
 30
0.0
 10
35.01581923574945
 20
-7.745359031066345
 30
0.0
 10
35.04052663136822
 20
-7.748407625937735
 30
0.0
 10
35.06046713815766
 20
-7.761468492487211
 30
0.0
 10
35.07934603595992
 20
-7.773834013955638
 30
0.0
  0
LINE
  5
D5
330
1F
100
AcDbEntity
  8
외형선
  6
Continuous
 62
     1
370
    15
100
AcDbLine
 10
35.07934607624128
 20
-7.773834040515958
 30
0.0
 11
35.09035218211606
 21
-7.78019901872913
 31
0.0
  0
SPLINE
  5
D6
330
1F
100
AcDbEntity
  8
외형선
  6
Continuous
 62
     1
370
    15
100
AcDbSpline
210
0.0
220
0.0
230
1.0
 70
     8
 71
     3
 72
    12
 73
     8
 74
     0
 42
0.000000001
 43
0.00000001
 40
0.0
 40
0.0
 40
0.0
 40
0.0
 40
0.5000000000000001
 40
0.5000000000000001
 40
0.75
 40
0.75
 40
1.0
 40
1.0
 40
1.0
 40
1.0
 10
31.76502368681053
 20
-1.793603313496706
 30
0.0
 10
31.93199630191644
 20
-1.892149435315256
 30
0.0
 10
32.1175918061834
 20
-2.003531410721839
 30
0.0
 10
32.39413378362341
 20
-2.157093283545319
 30
0.0
 10
32.48349371348811
 20
-2.204803178159067
 30
0.0
 10
32.65717739710257
 20
-2.292916281180627
 30
0.0
 10
32.74099812185781
 20
-2.332995381920454
 30
0.0
 10
32.81810876760452
 20
-2.367514991668277
 30
0.0
  0
SPLINE
  5
D7
330
1F
100
AcDbEntity
  8
외형선
  6
Continuous
 62
     1
370
    15
100
AcDbSpline
210
0.0
220
0.0
230
1.0
 70
     8
 71
     3
 72
    12
 73
     8
 74
     0
 42
0.000000001
 43
0.00000001
 40
0.0
 40
0.0
 40
0.0
 40
0.0
 40
0.5000000000000033
 40
0.5000000000000033
 40
0.7500000000000017
 40
0.7500000000000017
 40
1.0
 40
1.0
 40
1.0
 40
1.0
 10
32.99417798980159
 20
1.016782222759128
 30
0.0
 10
32.82690849001651
 20
1.105443400616692
 30
0.0
 10
32.6410192995632
 20
1.213618961126665
 30
0.0
 10
32.36421707404265
 20
1.371032009414688
 30
0.0
 10
32.27479238049884
 20
1.421433144386359
 30
0.0
 10
32.10101281374823
 20
1.517610375980576
 30
0.0
 10
32.01715526818716
 20
1.563084771980495
 30
0.0
 10
31.94001390425447
 20
1.604188617888733
 30
0.0
  0
SPLINE
  5
D8
330
1F
100
AcDbEntity
  8
외형선
  6
Continuous
 62
     1
370
    15
100
AcDbSpline
210
0.0
220
0.0
230
1.0
 70
     8
 71
     3
 72
    10
 73
     6
 74
     0
 42
0.000000001
 43
0.00000001
 40
0.0
 40
0.0
 40
0.0
 40
0.0
 40
0.5
 40
0.5
 40
1.0
 40
1.0
 40
1.0
 40
1.0
 10
12.0
 20
-2.807588534199247
 30
0.0
 10
12.13375818153564
 20
-2.887163481542044
 30
0.0
 10
12.27180590020748
 20
-2.96329026994312
 30
0.0
 10
12.53346370719962
 20
-3.092063820351309
 30
0.0
 10
12.66035835117115
 20
-3.14636809141845
 30
0.0
 10
12.77334686434894
 20
-3.186178069682153
 30
0.0
  0
SPLINE
  5
D9
330
1F
100
AcDbEntity
  8
외형선
  6
Continuous
370
    15
100
AcDbSpline
210
0.0
220
0.0
230
1.0
 70
    24
 71
     3
 72
     8
 73
     4
 74
     0
 42
0.000000001
 43
0.00000001
 40
0.0
 40
0.0
 40
0.0
 40
0.0
 40
1.0
 40
1.0
 40
1.0
 40
1.0
 10
11.99999999999999
 20
-2.807588534199265
 30
0.0
 10
11.99999999999999
 20
-2.219233837159554
 30
0.0
 10
12.0
 20
-1.614120197420045
 30
0.0
 10
12.0
 20
-0.9922569587416438
 30
0.0
  0
SPLINE
  5
DA
330
1F
100
AcDbEntity
  8
외형선
  6
Continuous
370
    15
100
AcDbSpline
210
0.0
220
0.0
230
1.0
 70
     8
 71
     3
 72
     8
 73
     4
 74
     0
 42
0.000000001
 43
0.00000001
 40
0.0
 40
0.0
 40
0.0
 40
0.0
 40
1.0
 40
1.0
 40
1.0
 40
1.0
 10
11.92054019941151
 20
-2.759669333558344
 30
0.0
 10
11.94670704232938
 20
-2.187547816522688
 30
0.0
 10
11.97319449597525
 20
-1.598427429611597
 30
0.0
 10
11.99999999999999
 20
-0.9922569587461024
 30
0.0
  0
SPLINE
  5
DB
330
1F
100
AcDbEntity
  8
외형선
  6
Continuous
370
    15
100
AcDbSpline
210
0.0
220
0.0
230
1.0
 70
     8
 71
     3
 72
     8
 73
     4
 74
     0
 42
0.000000001
 43
0.00000001
 40
0.0
 40
0.0
 40
0.0
 40
0.0
 40
1.0
 40
1.0
 40
1.0
 40
1.0
 10
11.71975383900751
 20
-2.633421528777308
 30
0.0
 10
11.78454427729497
 20
-2.675198882196636
 30
0.0
 10
11.85147561756798
 20
-2.717472483212636
 30
0.0
 10
11.92054019941152
 20
-2.759669333558332
 30
0.0
  0
SPLINE
  5
DC
330
1F
100
AcDbEntity
  8
외형선
  6
Continuous
 62
     1
370
    15
100
AcDbSpline
210
0.0
220
0.0
230
1.0
 70
     8
 71
     3
 72
    12
 73
     8
 74
     0
 42
0.000000001
 43
0.00000001
 40
0.0
 40
0.0
 40
0.0
 40
0.0
 40
0.5
 40
0.5
 40
0.75
 40
0.75
 40
1.0
 40
1.0
 40
1.0
 40
1.0
 10
12.94995464882606
 20
0.1418162914275984
 30
0.0
 10
12.78281817456635
 20
0.2189785327411411
 30
0.0
 10
12.59717692298063
 20
0.3228262539792116
 30
0.0
 10
12.32050535756712
 20
0.4827198733153278
 30
0.0
 10
12.2310970978224
 20
0.5354407406784637
 30
0.0
 10
12.05730703343971
 20
0.639131019127484
 30
0.0
 10
11.97342039045984
 20
0.6898231826576241
 30
0.0
 10
11.89623835515526
 20
0.7374714575772094
 30
0.0
  0
SPLINE
  5
DD
330
1F
100
AcDbEntity
  8
외형선
  6
Continuous
370
    15
100
AcDbSpline
210
0.0
220
0.0
230
1.0
 70
     8
 71
     3
 72
     8
 73
     4
 74
     0
 42
0.000000001
 43
0.00000001
 40
0.0
 40
0.0
 40
0.0
 40
0.0
 40
1.0
 40
1.0
 40
1.0
 40
1.0
 10
11.06060067493307
 20
-2.301615554580308
 30
0.0
 10
11.19969787895371
 20
-2.375093892755523
 30
0.0
 10
11.33322482355808
 20
-2.439526936721178
 30
0.0
 10
11.45093861249271
 20
-2.490276529470436
 30
0.0
  0
SPLINE
  5
DE
330
1F
100
AcDbEntity
  8
외형선
  6
Continuous
370
    15
100
AcDbSpline
210
0.0
220
0.0
230
1.0
 70
     8
 71
     3
 72
    10
 73
     6
 74
     0
 42
0.000000001
 43
0.00000001
 40
0.0
 40
0.0
 40
0.0
 40
0.0
 40
0.5
 40
0.5
 40
1.0
 40
1.0
 40
1.0
 40
1.0
 10
11.31529726497018
 20
1.059756729525021
 30
0.0
 10
11.27766336999972
 20
0.497834952713079
 30
0.0
 10
11.23797875821212
 20
-0.0712691081630889
 30
0.0
 10
11.15386052794285
 20
-1.201444957678719
 30
0.0
 10
11.11032632852847
 20
-1.758693523645675
 30
0.0
 10
11.06060067493303
 20
-2.301615554580323
 30
0.0
  0
SPLINE
  5
DF
330
1F
100
AcDbEntity
  8
외형선
  6
Continuous
370
    15
100
AcDbSpline
210
0.0
220
0.0
230
1.0
 70
     8
 71
     3
 72
     8
 73
     4
 74
     0
 42
0.000000001
 43
0.00000001
 40
0.0
 40
0.0
 40
0.0
 40
0.0
 40
1.0
 40
1.0
 40
1.0
 40
1.0
 10
11.62720197318344
 20
0.8885550785779819
 30
0.0
 10
11.5292933980663
 20
0.9394181649131036
 30
0.0
 10
11.42339794288942
 20
0.9985098379903002
 30
0.0
 10
11.31529726497394
 20
1.059756729524808
 30
0.0
  0
SPLINE
  5
E0
330
1F
100
AcDbEntity
  8
외형선
  6
Continuous
 62
     1
370
    15
100
AcDbSpline
210
0.0
220
0.0
230
1.0
 70
     8
 71
     3
 72
    10
 73
     6
 74
     0
 42
0.000000001
 43
0.00000001
 40
0.0
 40
0.0
 40
0.0
 40
0.0
 40
0.5
 40
0.5
 40
1.0
 40
1.0
 40
1.0
 40
1.0
 10
33.68153151125031
 20
0.6176843245839782
 30
0.0
 10
33.65352779758306
 20
0.0519289288131549
 30
0.0
 10
33.62435413566982
 20
-0.5264210090489037
 30
0.0
 10
33.5656415786158
 20
-1.668157342648136
 30
0.0
 10
33.53611875957596
 20
-2.231227231302585
 30
0.0
 10
33.50745605555064
 20
-2.767173670861575
 30
0.0
  0
SPLINE
  5
E1
330
1F
100
AcDbEntity
  8
외형선
  6
Continuous
 62
     1
370
    15
100
AcDbSpline
210
0.0
220
0.0
230
1.0
 70
     8
 71
     3
 72
     8
 73
     4
 74
     0
 42
0.000000001
 43
0.00000001
 40
0.0
 40
0.0
 40
0.0
 40
0.0
 40
1.0
 40
1.0
 40
1.0
 40
1.0
 10
33.08693049899431
 20
-2.511910405274981
 30
0.0
 10
33.21745904050913
 20
-2.595377934084151
 30
0.0
 10
33.36183706558396
 20
-2.684618955011377
 30
0.0
 10
33.50745605555047
 20
-2.767173670862772
 30
0.0
  0
SPLINE
  5
E2
330
1F
100
AcDbEntity
  8
외형선
  6
Continuous
 62
     1
370
    15
100
AcDbSpline
210
0.0
220
0.0
230
1.0
 70
     8
 71
     3
 72
     8
 73
     4
 74
     0
 42
0.000000001
 43
0.00000001
 40
0.0
 40
0.0
 40
0.0
 40
0.0
 40
1.0
 40
1.0
 40
1.0
 40
1.0
 10
33.68153152540911
 20
0.6176843163217827
 30
0.0
 10
33.53216360512708
 20
0.7048428857476005
 30
0.0
 10
33.38884109808431
 20
0.789727628717455
 30
0.0
 10
33.26322763666521
 20
0.8658308279946519
 30
0.0
  0
SPLINE
  5
E3
330
1F
100
AcDbEntity
  8
외형선
  6
Continuous
 62
     1
370
    15
100
AcDbSpline
210
0.0
220
0.0
230
1.0
 70
    24
 71
     3
 72
    10
 73
     6
 74
     0
 42
0.000000001
 43
0.00000001
 40
0.0
 40
0.0
 40
0.0
 40
0.0
 40
0.4999999999999998
 40
0.4999999999999998
 40
1.0
 40
1.0
 40
1.0
 40
1.0
 10
52.90303591024809
 20
-0.7677641610280359
 30
0.0
 10
52.82338181814781
 20
-0.847418253128325
 30
0.0
 10
52.74176591452635
 20
-0.929034156747823
 30
0.0
 10
52.57532786576133
 20
-1.095472205512826
 30
0.0
 10
52.49012836897415
 20
-1.180671702302
 30
0.0
 10
52.40649246591109
 20
-1.264307605365057
 30
0.0
  0
SPLINE
  5
E4
330
1F
100
AcDbEntity
  8
외형선
  6
Continuous
 62
     1
370
    15
100
AcDbSpline
210
0.0
220
0.0
230
1.0
 70
     8
 71
     3
 72
    10
 73
     6
 74
     0
 42
0.000000001
 43
0.00000001
 40
0.0
 40
0.0
 40
0.0
 40
0.0
 40
0.5
 40
0.5
 40
1.0
 40
1.0
 40
1.0
 40
1.0
 10
51.81060571630213
 20
-0.9307599173897355
 30
0.0
 10
51.90306771235719
 20
-0.9791666004701507
 30
0.0
 10
51.99983752523097
 20
-1.033157918077747
 30
0.0
 10
52.20240219928728
 20
-1.147793601612306
 30
0.0
 10
52.30579944051944
 20
-1.207111457228746
 30
0.0
 10
52.406492465911
 20
-1.264307605365028
 30
0.0
  0
SPLINE
  5
E5
330
1F
100
AcDbEntity
  8
외형선
  6
Continuous
 62
     1
370
    15
100
AcDbSpline
210
0.0
220
0.0
230
1.0
 70
     8
 71
     3
 72
    12
 73
     8
 74
     0
 42
0.000000001
 43
0.00000001
 40
0.0
 40
0.0
 40
0.0
 40
0.0
 40
0.5
 40
0.5
 40
0.75
 40
0.75
 40
1.0
 40
1.0
 40
1.0
 40
1.0
 10
53.03822144902127
 20
1.879055831443941
 30
0.0
 10
52.87117834244672
 20
1.97853713434024
 30
0.0
 10
52.68552288610147
 20
2.090139785239604
 30
0.0
 10
52.40889809125493
 20
2.243164123483563
 30
0.0
 10
52.3195129335828
 20
2.290554249773645
 30
0.0
 10
52.14578432386812
 20
2.377755874005886
 30
0.0
 10
52.06194351029302
 20
2.417241779486071
 30
0.0
 10
51.98481867661263
 20
2.451044850330161
 30
0.0
  0
SPLINE
  5
E6
330
1F
100
AcDbEntity
  8
외형선
  6
Continuous
 62
     1
370
    15
100
AcDbSpline
210
0.0
220
0.0
230
1.0
 70
     8
 71
     3
 72
    12
 73
     8
 74
     0
 42
0.000000001
 43
0.00000001
 40
0.0
 40
0.0
 40
0.0
 40
0.0
 40
0.5000000000000001
 40
0.5000000000000001
 40
0.75
 40
0.75
 40
1.0
 40
1.0
 40
1.0
 40
1.0
 10
29.33634301179594
 20
-0.4359592095697987
 30
0.0
 10
29.50333023225072
 20
-0.5170360150643482
 30
0.0
 10
29.68894428092104
 20
-0.6221917703692179
 30
0.0
 10
29.96548967711046
 20
-0.781150049182455
 30
0.0
 10
30.05484596070876
 20
-0.833056780705392
 30
0.0
 10
30.22851353060463
 20
-0.9341516512754482
 30
0.0
 10
30.31231916792606
 20
-0.983048630531123
 30
0.0
 10
30.38941000987128
 20
-1.028454524908834
 30
0.0
  0
SPLINE
  5
E7
330
1F
100
AcDbEntity
  8
외형선
  6
Continuous
 62
     1
370
    15
100
AcDbSpline
210
0.0
220
0.0
230
1.0
 70
     8
 71
     3
 72
    12
 73
     8
 74
     0
 42
0.000000001
 43
0.00000001
 40
0.0
 40
0.0
 40
0.0
 40
0.0
 40
0.5000000000000004
 40
0.5000000000000004
 40
0.7500000000000002
 40
0.7500000000000002
 40
1.0
 40
1.0
 40
1.0
 40
1.0
 10
30.56366540612576
 20
2.357354962643852
 30
0.0
 10
30.39660410112961
 20
2.462036753769239
 30
0.0
 10
30.21090494022971
 20
2.574739260479834
 30
0.0
 10
29.93433914986685
 20
2.724335222771552
 30
0.0
 10
29.84498934127166
 20
2.769769429489394
 30
0.0
 10
29.67135400597982
 20
2.851507697387357
 30
0.0
 10
29.58757443013454
 20
2.887475784937893
 30
0.0
 10
29.51050986561222
 20
2.917077750371013
 30
0.0
  0
SPLINE
  5
E8
330
1F
100
AcDbEntity
  8
외형선
  6
Continuous
 62
     1
370
    15
100
AcDbSpline
210
0.0
220
0.0
230
1.0
 70
     8
 71
     3
 72
     8
 73
     4
 74
     0
 42
0.000000001
 43
0.00000001
 40
0.0
 40
0.0
 40
0.0
 40
0.0
 40
1.0
 40
1.0
 40
1.0
 40
1.0
 10
33.50745605552493
 20
-2.767173670849612
 30
0.0
 10
33.65679773302544
 20
-2.843957282339115
 30
0.0
 10
33.80003274792906
 20
-2.908467808298952
 30
0.0
 10
33.92553520303392
 20
-2.955666454891797
 30
0.0
  0
SPLINE
  5
E9
330
1F
100
AcDbEntity
  8
외형선
  6
Continuous
 62
     1
370
    15
100
AcDbSpline
210
0.0
220
0.0
230
1.0
 70
     8
 71
     3
 72
     8
 73
     4
 74
     0
 42
0.000000001
 43
0.00000001
 40
0.0
 40
0.0
 40
0.0
 40
0.0
 40
1.0
 40
1.0
 40
1.0
 40
1.0
 10
34.10218929202034
 20
0.3928856860002325
 30
0.0
 10
33.9716314193393
 20
0.4556181894938764
 30
0.0
 10
33.82722503256968
 20
0.5350538462371643
 30
0.0
 10
33.68153151125028
 20
0.6176843245839473
 30
0.0
  0
SPLINE
  5
EA
330
1F
100
AcDbEntity
  8
외형선
  6
Continuous
 62
     1
370
    15
100
AcDbSpline
210
0.0
220
0.0
230
1.0
 70
     8
 71
     3
 72
    12
 73
     8
 74
     0
 42
0.000000001
 43
0.00000001
 40
0.0
 40
0.0
 40
0.0
 40
0.0
 40
0.5000000000000002
 40
0.5000000000000002
 40
0.7500000000000001
 40
0.7500000000000001
 40
1.0
 40
1.0
 40
1.0
 40
1.0
 10
34.19442417019388
 20
-3.095654615818649
 30
0.0
 10
34.36162014022748
 20
-3.208542049047629
 30
0.0
 10
34.5473136171779
 20
-3.32285999025624
 30
0.0
 10
34.82405690814158
 20
-3.466384225087306
 30
0.0
 10
34.91348959235923
 20
-3.508458614394766
 30
0.0
 10
35.08732989259213
 20
-3.580940086885748
 30
0.0
 10
35.17124532782228
 20
-3.611002942512672
 30
0.0
 10
35.24845769503047
 20
-3.633607770089476
 30
0.0
  0
SPLINE
  5
EB
330
1F
100
AcDbEntity
  8
외형선
  6
Continuous
 62
     1
370
    15
100
AcDbSpline
210
0.0
220
0.0
230
1.0
 70
     8
 71
     3
 72
    12
 73
     8
 74
     0
 42
0.000000001
 43
0.00000001
 40
0.0
 40
0.0
 40
0.0
 40
0.0
 40
0.5000000000000036
 40
0.5000000000000036
 40
0.7500000000000018
 40
0.7500000000000018
 40
1.0
 40
1.0
 40
1.0
 40
1.0
 10
35.42443093682926
 20
-0.3553098039587755
 30
0.0
 10
35.25728100334216
 20
-0.2855860462642332
 30
0.0
 10
35.07149300715659
 20
-0.1854276002011593
 30
0.0
 10
34.79489898161588
 20
-0.0252767367145442
 30
0.0
 10
34.7055491019439
 20
0.0284618834563633
 30
0.0
 10
34.5319234362461
 20
0.1359636756710141
 30
0.0
 10
34.44814981939348
 20
0.1894664708505892
 30
0.0
 10
34.37107876116353
 20
0.2407292072886616
 30
0.0
  0
SPLINE
  5
EC
330
1F
100
AcDbEntity
  8
외형선
  6
Continuous
 62
     1
370
    15
100
AcDbSpline
210
0.0
220
0.0
230
1.0
 70
     8
 71
     3
 72
     8
 73
     4
 74
     0
 42
0.000000001
 43
0.00000001
 40
0.0
 40
0.0
 40
0.0
 40
0.0
 40
1.0
 40
1.0
 40
1.0
 40
1.0
 10
31.07852289738709
 20
-1.416520395442847
 30
0.0
 10
31.22778736528915
 20
-1.500626271962448
 30
0.0
 10
31.37093150695177
 20
-1.578815071581634
 30
0.0
 10
31.49633154818966
 20
-1.645015603449054
 30
0.0
  0
SPLINE
  5
ED
330
1F
100
AcDbEntity
  8
외형선
  6
Continuous
 62
     1
370
    15
100
AcDbSpline
210
0.0
220
0.0
230
1.0
 70
     8
 71
     3
 72
    10
 73
     6
 74
     0
 42
0.000000001
 43
0.00000001
 40
0.0
 40
0.0
 40
0.0
 40
0.0
 40
0.5
 40
0.5
 40
1.0
 40
1.0
 40
1.0
 40
1.0
 10
31.25050943040533
 20
2.000092283014386
 30
0.0
 10
31.22180448965108
 20
1.443986045085
 30
0.0
 10
31.19484451331607
 20
0.8837259849639657
 30
0.0
 10
31.1376912048717
 20
-0.2629557528987467
 30
0.0
 10
31.10809877624701
 20
-0.845488693532055
 30
0.0
 10
31.07852289741205
 20
-1.416520395456905
 30
0.0
  0
SPLINE
  5
EE
330
1F
100
AcDbEntity
  8
외형선
  6
Continuous
 62
     1
370
    15
100
AcDbSpline
210
0.0
220
0.0
230
1.0
 70
     8
 71
     3
 72
     8
 73
     4
 74
     0
 42
0.000000001
 43
0.00000001
 40
0.0
 40
0.0
 40
0.0
 40
0.0
 40
1.0
 40
1.0
 40
1.0
 40
1.0
 10
31.67108858113239
 20
1.753175520469818
 30
0.0
 10
31.54055144763387
 20
1.829997361491178
 30
0.0
 10
31.39618007449358
 20
1.916630846440725
 30
0.0
 10
31.25050943040531
 20
2.000092283014479
 30
0.0
  0
SPLINE
  5
EF
330
1F
100
AcDbEntity
  8
외형선
  6
Continuous
 62
     1
370
    15
100
AcDbSpline
210
0.0
220
0.0
230
1.0
 70
     8
 71
     3
 72
     8
 73
     4
 74
     0
 42
0.000000001
 43
0.00000001
 40
0.0
 40
0.0
 40
0.0
 40
0.0
 40
1.0
 40
1.0
 40
1.0
 40
1.0
 10
30.65815504123665
 20
-1.178692565860963
 30
0.0
 10
30.78864084353637
 20
-1.24950446129192
 30
0.0
 10
30.9329671563429
 20
-1.333187427148142
 30
0.0
 10
31.07852289741195
 20
-1.416520395456874
 30
0.0
  0
SPLINE
  5
F0
330
1F
100
AcDbEntity
  8
외형선
  6
Continuous
 62
     1
370
    15
100
AcDbSpline
210
0.0
220
0.0
230
1.0
 70
     8
 71
     3
 72
     8
 73
     4
 74
     0
 42
0.000000001
 43
0.00000001
 40
0.0
 40
0.0
 40
0.0
 40
0.0
 40
1.0
 40
1.0
 40
1.0
 40
1.0
 10
31.25050944455918
 20
2.00009227529752
 30
0.0
 10
31.10123800214507
 20
2.081478061203411
 30
0.0
 10
30.95799361678565
 20
2.154097749684579
 30
0.0
 10
30.83247175859357
 20
2.212329532190445
 30
0.0
  0
SPLINE
  5
F1
330
1F
100
AcDbEntity
  8
외형선
  6
Continuous
 62
     1
370
    15
100
AcDbSpline
210
0.0
220
0.0
230
1.0
 70
     8
 71
     3
 72
    10
 73
     6
 74
     0
 42
0.000000001
 43
0.00000001
 40
0.0
 40
0.0
 40
0.0
 40
0.0
 40
0.0183196345379861
 40
0.6442897003323081
 40
0.9999999999999999
 40
0.9999999999999999
 40
0.9999999999999999
 40
0.9999999999999999
 10
20.74119068752159
 20
6.672742789915705
 30
0.0
 10
20.74466838758197
 20
6.674169328045899
 30
0.0
 10
20.86697684985547
 20
6.724339751615754
 30
0.0
 10
21.05746981321824
 20
6.744480014048789
 30
0.0
 10
21.21873011253663
 20
6.720628532569647
 30
0.0
 10
21.27716252232416
 20
6.711985986662688
 30
0.0
  0
SPLINE
  5
F2
330
1F
100
AcDbEntity
  8
외형선
  6
Continuous
 62
     1
370
    15
100
AcDbSpline
210
0.0
220
0.0
230
1.0
 70
     8
 71
     3
 72
    10
 73
     6
 74
     0
 42
0.000000001
 43
0.00000001
 40
0.0
 40
0.0
 40
0.0
 40
0.0
 40
0.5
 40
0.5
 40
1.0
 40
1.0
 40
1.0
 40
1.0
 10
21.27716252232415
 20
6.711985986662701
 30
0.0
 10
21.3165486962934
 20
6.70294422059362
 30
0.0
 10
21.36170172063086
 20
6.705019708010886
 30
0.0
 10
21.45541965642258
 20
6.730711275127894
 30
0.0
 10
21.50367854546053
 20
6.754531830870991
 30
0.0
 10
21.54612508992172
 20
6.788764948764105
 30
0.0
  0
SPLINE
  5
F3
330
1F
100
AcDbEntity
  8
외형선
  6
Continuous
 62
     1
370
    15
100
AcDbSpline
210
0.0
220
0.0
230
1.0
 70
     8
 71
     3
 72
     8
 73
     4
 74
     0
 42
0.000000001
 43
0.00000001
 40
0.0
 40
0.0
 40
0.0
 40
0.0
 40
1.0
 40
1.0
 40
1.0
 40
1.0
 10
21.54612508992174
 20
6.788764948764118
 30
0.0
 10
21.67671942347488
 20
6.894089216580217
 30
0.0
 10
21.82116787293777
 20
6.976435626295207
 30
0.0
 10
21.96688716298158
 20
7.030181804884029
 30
0.0
  0
SPLINE
  5
F4
330
1F
100
AcDbEntity
  8
외형선
  6
Continuous
 62
     1
370
    15
100
AcDbSpline
210
0.0
220
0.0
230
1.0
 70
     8
 71
     3
 72
     8
 73
     4
 74
     0
 42
0.000000001
 43
0.00000001
 40
0.0
 40
0.0
 40
0.0
 40
0.0
 40
1.0
 40
1.0
 40
1.0
 40
1.0
 10
21.96688716295685
 20
7.030181804879903
 30
0.0
 10
22.11631206750564
 20
7.055080003945347
 30
0.0
 10
22.25967374981722
 20
7.047466936498919
 30
0.0
 10
22.38531581075191
 20
7.007715793887748
 30
0.0
  0
SPLINE
  5
F5
330
1F
100
AcDbEntity
  8
외형선
  6
Continuous
 62
     1
370
    15
100
AcDbSpline
210
0.0
220
0.0
230
1.0
 70
     8
 71
     3
 72
    10
 73
     6
 74
     0
 42
0.000000001
 43
0.00000001
 40
0.0
 40
0.0
 40
0.0
 40
0.0
 40
0.5
 40
0.5
 40
1.0
 40
1.0
 40
1.0
 40
1.0
 10
22.38531581075192
 20
7.007715793887735
 30
0.0
 10
22.42450522100595
 20
6.995316890015365
 30
0.0
 10
22.46956429570134
 20
6.994453871168504
 30
0.0
 10
22.56329270715505
 20
7.015505428783172
 30
0.0
 10
22.61166111927301
 20
7.037655667674169
 30
0.0
 10
22.654373887558
 20
7.071229127157343
 30
0.0
  0
SPLINE
  5
F6
330
1F
100
AcDbEntity
  8
외형선
  6
Continuous
 62
     1
370
    15
100
AcDbSpline
210
0.0
220
0.0
230
1.0
 70
     8
 71
     3
 72
    12
 73
     8
 74
     0
 42
0.000000001
 43
0.00000001
 40
0.0
 40
0.0
 40
0.0
 40
0.0
 40
0.5000000000000016
 40
0.5000000000000016
 40
0.7500000000000008
 40
0.7500000000000008
 40
1.0
 40
1.0
 40
1.0
 40
1.0
 10
22.65437388755802
 20
7.071229127157364
 30
0.0
 10
22.82164019174252
 20
7.202705233996676
 30
0.0
 10
23.0075072162084
 20
7.290779498675722
 30
0.0
 10
23.28422010007119
 20
7.349798582334787
 30
0.0
 10
23.37360832827296
 20
7.356881017682845
 30
0.0
 10
23.5473067627278
 20
7.346599363884852
 30
0.0
 10
23.63111578261074
 20
7.32891399873597
 30
0.0
 10
23.70824476083841
 20
7.298907894029806
 30
0.0
  0
SPLINE
  5
F7
330
1F
100
AcDbEntity
  8
외형선
  6
Continuous
 62
     1
370
    15
100
AcDbSpline
210
0.0
220
0.0
230
1.0
 70
     8
 71
     3
 72
    10
 73
     6
 74
     0
 42
0.000000001
 43
0.00000001
 40
0.0
 40
0.0
 40
0.0
 40
0.0
 40
0.5
 40
0.5
 40
1.0
 40
1.0
 40
1.0
 40
1.0
 10
23.70824476083841
 20
7.298907894029798
 30
0.0
 10
23.7476161452813
 20
7.283590928718363
 30
0.0
 10
23.79275224993926
 20
7.28016536912406
 30
0.0
 10
23.88643916095737
 20
7.297342338512423
 30
0.0
 10
23.93468571154909
 20
7.318215040331832
 30
0.0
 10
23.97712154589864
 20
7.351478656835851
 30
0.0
  0
SPLINE
  5
F8
330
1F
100
AcDbEntity
  8
외형선
  6
Continuous
 62
     1
370
    15
100
AcDbSpline
210
0.0
220
0.0
230
1.0
 70
     8
 71
     3
 72
     8
 73
     4
 74
     0
 42
0.000000001
 43
0.00000001
 40
0.0
 40
0.0
 40
0.0
 40
0.0
 40
1.0
 40
1.0
 40
1.0
 40
1.0
 10
23.97712154589863
 20
7.351478656835841
 30
0.0
 10
24.10763910684086
 20
7.45378573199454
 30
0.0
 10
24.25200298396365
 20
7.527486801784977
 30
0.0
 10
24.39765492201863
 20
7.56918898944065
 30
0.0
  0
SPLINE
  5
F9
330
1F
100
AcDbEntity
  8
외형선
  6
Continuous
 62
     1
370
    15
100
AcDbSpline
210
0.0
220
0.0
230
1.0
 70
     8
 71
     3
 72
     8
 73
     4
 74
     0
 42
0.000000001
 43
0.00000001
 40
0.0
 40
0.0
 40
0.0
 40
0.0
 40
1.0
 40
1.0
 40
1.0
 40
1.0
 10
24.39765492199448
 20
7.56918898943912
 30
0.0
 10
24.5469269636334
 20
7.578346075407691
 30
0.0
 10
24.69014786940454
 20
7.552365999447493
 30
0.0
 10
24.81563401235937
 20
7.493000966702614
 30
0.0
  0
SPLINE
  5
FA
330
1F
100
AcDbEntity
  8
외형선
  6
Continuous
 62
     1
370
    15
100
AcDbSpline
210
0.0
220
0.0
230
1.0
 70
     8
 71
     3
 72
    10
 73
     6
 74
     0
 42
0.000000001
 43
0.00000001
 40
0.0
 40
0.0
 40
0.0
 40
0.0
 40
0.5
 40
0.5
 40
1.0
 40
1.0
 40
1.0
 40
1.0
 10
24.81563401235938
 20
7.49300096670261
 30
0.0
 10
24.85477022676968
 20
7.474486391345753
 30
0.0
 10
24.89977623036361
 20
7.468105507481524
 30
0.0
 10
24.99342036174679
 20
7.48026106133209
 30
0.0
 10
25.04174290386754
 20
7.499094665894275
 30
0.0
 10
25.08440832796649
 20
7.531132115873333
 30
0.0
  0
SPLINE
  5
FB
330
1F
100
AcDbEntity
  8
외형선
  6
Continuous
 62
     1
370
    15
100
AcDbSpline
210
0.0
220
0.0
230
1.0
 70
     8
 71
     3
 72
    12
 73
     8
 74
     0
 42
0.000000001
 43
0.00000001
 40
0.0
 40
0.0
 40
0.0
 40
0.0
 40
0.5000000000000017
 40
0.5000000000000017
 40
0.7500000000000008
 40
0.7500000000000008
 40
1.0
 40
1.0
 40
1.0
 40
1.0
 10
25.08440832796658
 20
7.53113211587339
 30
0.0
 10
25.25149106525799
 20
7.65659447682224
 30
0.0
 10
25.43720633431097
 20
7.730530769923615
 30
0.0
 10
25.7137342971615
 20
7.762368358166216
 30
0.0
 10
25.80306477372067
 20
7.759621209505345
 30
0.0
 10
25.97665278917838
 20
7.728316657059038
 30
0.0
 10
26.06040511955364
 20
7.699463037127352
 30
0.0
 10
26.13744463585147
 20
7.658087345667963
 30
0.0
  0
SPLINE
  5
FC
330
1F
100
AcDbEntity
  8
외형선
  6
Continuous
 62
     1
370
    15
100
AcDbSpline
210
0.0
220
0.0
230
1.0
 70
     8
 71
     3
 72
    10
 73
     6
 74
     0
 42
0.000000001
 43
0.00000001
 40
0.0
 40
0.0
 40
0.0
 40
0.0
 40
0.5
 40
0.5
 40
1.0
 40
1.0
 40
1.0
 40
1.0
 10
26.13744463585147
 20
7.658087345667972
 30
0.0
 10
26.17679732129733
 20
7.636952158826827
 30
0.0
 10
26.22191041990333
 20
7.628129074113327
 30
0.0
 10
26.31553616109228
 20
7.63625551677783
 30
0.0
 10
26.36374776497328
 20
7.65352738718023
 30
0.0
 10
26.40615595755079
 20
7.684771945841993
 30
0.0
  0
SPLINE
  5
FD
330
1F
100
AcDbEntity
  8
외형선
  6
Continuous
 62
     1
370
    15
100
AcDbSpline
210
0.0
220
0.0
230
1.0
 70
     8
 71
     3
 72
     8
 73
     4
 74
     0
 42
0.000000001
 43
0.00000001
 40
0.0
 40
0.0
 40
0.0
 40
0.0
 40
1.0
 40
1.0
 40
1.0
 40
1.0
 10
26.40615595755081
 20
7.684771945842002
 30
0.0
 10
26.53660782134444
 20
7.78088334939653
 30
0.0
 10
26.68090414340827
 20
7.843639985794164
 30
0.0
 10
26.82650001440706
 20
7.87200812390162
 30
0.0
  0
SPLINE
  5
FE
330
1F
100
AcDbEntity
  8
외형선
  6
Continuous
 62
     1
370
    15
100
AcDbSpline
210
0.0
220
0.0
230
1.0
 70
     8
 71
     3
 72
     8
 73
     4
 74
     0
 42
0.000000001
 43
0.00000001
 40
0.0
 40
0.0
 40
0.0
 40
0.0
 40
1.0
 40
1.0
 40
1.0
 40
1.0
 10
26.82650001438238
 20
7.872008123902744
 30
0.0
 10
26.97571064546086
 20
7.865173013270923
 30
0.0
 10
27.11888155381816
 20
7.821674205090912
 30
0.0
 10
27.24432806402526
 20
7.744606941101405
 30
0.0
  0
SPLINE
  5
FF
330
1F
100
AcDbEntity
  8
외형선
  6
Continuous
 62
     1
370
    15
100
AcDbSpline
210
0.0
220
0.0
230
1.0
 70
     8
 71
     3
 72
     8
 73
     4
 74
     0
 42
0.000000001
 43
0.00000001
 40
0.0
 40
0.0
 40
0.0
 40
0.0
 40
1.0
 40
1.0
 40
1.0
 40
1.0
 10
27.24432806402529
 20
7.744606941101394
 30
0.0
 10
27.32253219722428
 20
7.696562730318905
 30
0.0
 10
27.4277496439117
 20
7.697224500899211
 30
0.0
 10
27.5130537546995
 20
7.756265876878738
 30
0.0
  0
SPLINE
  5
100
330
1F
100
AcDbEntity
  8
외형선
  6
Continuous
 62
     1
370
    15
100
AcDbSpline
210
0.0
220
0.0
230
1.0
 70
     8
 71
     3
 72
    12
 73
     8
 74
     0
 42
0.000000001
 43
0.00000001
 40
0.0
 40
0.0
 40
0.0
 40
0.0
 40
0.5
 40
0.5
 40
0.75
 40
0.75
 40
1.0
 40
1.0
 40
1.0
 40
1.0
 10
27.51305375469949
 20
7.756265876878721
 30
0.0
 10
27.68011583203494
 20
7.871894242602139
 30
0.0
 10
27.8658271839104
 20
7.929439583425977
 30
0.0
 10
28.14238130340411
 20
7.933215455115239
 30
0.0
 10
28.23172502661914
 20
7.920765154905024
 30
0.0
 10
28.40534678510559
 20
7.869501129804415
 30
0.0
 10
28.48911998787352
 20
7.830432668794142
 30
0.0
 10
28.5661830594652
 20
7.778979152867195
 30
0.0
  0
SPLINE
  5
101
330
1F
100
AcDbEntity
  8
외형선
  6
Continuous
 62
     1
370
    15
100
AcDbSpline
210
0.0
220
0.0
230
1.0
 70
     8
 71
     3
 72
    10
 73
     6
 74
     0
 42
0.000000001
 43
0.00000001
 40
0.0
 40
0.0
 40
0.0
 40
0.0
 40
0.5
 40
0.5
 40
1.0
 40
1.0
 40
1.0
 40
1.0
 10
28.56618305946519
 20
7.778979152867194
 30
0.0
 10
28.605552659289
 20
7.752692835831909
 30
0.0
 10
28.65068554432533
 20
7.738742777177114
 30
0.0
 10
28.74435276520307
 20
7.737548715198053
 30
0.0
 10
28.79257503305748
 20
7.75067565986916
 30
0.0
 10
28.83498730969302
 20
7.77892157782288
 30
0.0
  0
SPLINE
  5
102
330
1F
100
AcDbEntity
  8
외형선
  6
Continuous
 62
     1
370
    15
100
AcDbSpline
210
0.0
220
0.0
230
1.0
 70
     8
 71
     3
 72
     8
 73
     4
 74
     0
 42
0.000000001
 43
0.00000001
 40
0.0
 40
0.0
 40
0.0
 40
0.0
 40
1.0
 40
1.0
 40
1.0
 40
1.0
 10
28.83498730969304
 20
7.778921577822905
 30
0.0
 10
28.96552817478716
 20
7.865859767836634
 30
0.0
 10
29.10984230959015
 20
7.915659042404267
 30
0.0
 10
29.25547654336044
 20
7.929786542753675
 30
0.0
  0
SPLINE
  5
103
330
1F
100
AcDbEntity
  8
외형선
  6
Continuous
 62
     1
370
    15
100
AcDbSpline
210
0.0
220
0.0
230
1.0
 70
     8
 71
     3
 72
     8
 73
     4
 74
     0
 42
0.000000001
 43
0.00000001
 40
0.0
 40
0.0
 40
0.0
 40
0.0
 40
1.0
 40
1.0
 40
1.0
 40
1.0
 10
29.25547654333453
 20
7.929786542757512
 30
0.0
 10
29.40475313882275
 20
7.907152729500756
 30
0.0
 10
29.54800776638555
 20
7.847481326948444
 30
0.0
 10
29.67356030727462
 20
7.755091528872981
 30
0.0
  0
SPLINE
  5
104
330
1F
100
AcDbEntity
  8
외형선
  6
Continuous
 62
     1
370
    15
100
AcDbSpline
210
0.0
220
0.0
230
1.0
 70
     8
 71
     3
 72
    10
 73
     6
 74
     0
 42
0.000000001
 43
0.00000001
 40
0.0
 40
0.0
 40
0.0
 40
0.0
 40
0.5
 40
0.5
 40
1.0
 40
1.0
 40
1.0
 40
1.0
 10
29.67356030727406
 20
7.755091528873384
 30
0.0
 10
29.71271770157036
 20
7.726276948725689
 30
0.0
 10
29.75774693352258
 20
7.70965706962597
 30
0.0
 10
29.85143084757821
 20
7.703220247483875
 30
0.0
 10
29.89977894437171
 20
7.713793028062714
 30
0.0
 10
29.94247361102639
 20
7.739892526638346
 30
0.0
  0
SPLINE
  5
105
330
1F
100
AcDbEntity
  8
외형선
  6
Continuous
 62
     1
370
    15
100
AcDbSpline
210
0.0
220
0.0
230
1.0
 70
     8
 71
     3
 72
    12
 73
     8
 74
     0
 42
0.000000001
 43
0.00000001
 40
0.0
 40
0.0
 40
0.0
 40
0.0
 40
0.4999999999999967
 40
0.4999999999999967
 40
0.7499999999999983
 40
0.7499999999999983
 40
1.0
 40
1.0
 40
1.0
 40
1.0
 10
29.9424736110264
 20
7.739892526638333
 30
0.0
 10
30.10968131056854
 20
7.842107567953278
 30
0.0
 10
30.29554101402107
 20
7.881434468742569
 30
0.0
 10
30.57233712834961
 20
7.857019706698538
 30
0.0
 10
30.66176653085051
 20
7.835253884949175
 30
0.0
 10
30.83556867695972
 20
7.765633272655788
 30
0.0
 10
30.91944612724629
 20
7.717570917349907
 30
0.0
 10
30.99661616027831
 20
7.657638027801124
 30
0.0
  0
SPLINE
  5
106
330
1F
100
AcDbEntity
  8
외형선
  6
Continuous
 62
     1
370
    15
100
AcDbSpline
210
0.0
220
0.0
230
1.0
 70
     8
 71
     3
 72
    10
 73
     6
 74
     0
 42
0.000000001
 43
0.00000001
 40
0.0
 40
0.0
 40
0.0
 40
0.0
 40
0.5
 40
0.5
 40
1.0
 40
1.0
 40
1.0
 40
1.0
 10
30.99661616027829
 20
7.65763802780115
 30
0.0
 10
31.0360337420785
 20
7.627024984324398
 30
0.0
 10
31.08121467232788
 20
7.608383329113483
 30
0.0
 10
31.17496682731366
 20
7.597903262987407
 30
0.0
 10
31.22323654911211
 20
7.60646878483609
 30
0.0
 10
31.26569262412234
 20
7.630850249448774
 30
0.0
  0
SPLINE
  5
107
330
1F
100
AcDbEntity
  8
외형선
  6
Continuous
 62
     1
370
    15
100
AcDbSpline
210
0.0
220
0.0
230
1.0
 70
     8
 71
     3
 72
     8
 73
     4
 74
     0
 42
0.000000001
 43
0.00000001
 40
0.0
 40
0.0
 40
0.0
 40
0.0
 40
1.0
 40
1.0
 40
1.0
 40
1.0
 10
31.26569262412237
 20
7.630850249448787
 30
0.0
 10
31.39634823867754
 20
7.705882509071394
 30
0.0
 10
31.54080149334522
 20
7.741171866713249
 30
0.0
 10
31.68644293069461
 20
7.740554777124299
 30
0.0
  0
SPLINE
  5
108
330
1F
100
AcDbEntity
  8
외형선
  6
Continuous
 62
     1
370
    15
100
AcDbSpline
210
0.0
220
0.0
230
1.0
 70
     8
 71
     3
 72
     8
 73
     4
 74
     0
 42
0.000000001
 43
0.00000001
 40
0.0
 40
0.0
 40
0.0
 40
0.0
 40
1.0
 40
1.0
 40
1.0
 40
1.0
 10
31.68644293066918
 20
7.740554777130678
 30
0.0
 10
31.83574168662595
 20
7.702766888753042
 30
0.0
 10
31.97904340336834
 20
7.628740588999158
 30
0.0
 10
32.10464197686308
 20
7.523838747218709
 30
0.0
  0
SPLINE
  5
109
330
1F
100
AcDbEntity
  8
외형선
  6
Continuous
 62
     1
370
    15
100
AcDbSpline
210
0.0
220
0.0
230
1.0
 70
     8
 71
     3
 72
    10
 73
     6
 74
     0
 42
0.000000001
 43
0.00000001
 40
0.0
 40
0.0
 40
0.0
 40
0.0
 40
0.5
 40
0.5
 40
1.0
 40
1.0
 40
1.0
 40
1.0
 10
32.10464197686438
 20
7.52383874721696
 30
0.0
 10
32.14379591877222
 20
7.491136778517671
 30
0.0
 10
32.18881983011869
 20
7.470080477239278
 30
0.0
 10
32.2824931252621
 20
7.454472877437337
 30
0.0
 10
32.33083943038369
 20
7.460340429303315
 30
0.0
 10
32.37353317147728
 20
7.482188387352774
 30
0.0
  0
SPLINE
  5
10A
330
1F
100
AcDbEntity
  8
외형선
  6
Continuous
 62
     1
370
    15
100
AcDbSpline
210
0.0
220
0.0
230
1.0
 70
     8
 71
     3
 72
    12
 73
     8
 74
     0
 42
0.000000001
 43
0.00000001
 40
0.0
 40
0.0
 40
0.0
 40
0.0
 40
0.5000000000000001
 40
0.5000000000000001
 40
0.75
 40
0.75
 40
1.0
 40
1.0
 40
1.0
 40
1.0
 10
32.37353317147729
 20
7.482188387352786
 30
0.0
 10
32.54060950307093
 20
7.567687493081483
 30
0.0
 10
32.72631446879441
 20
7.587627651255411
 30
0.0
 10
33.00295143602602
 20
7.535864296674245
 30
0.0
 10
33.09233250160737
 20
7.505488164509962
 30
0.0
 10
33.26604068287394
 20
7.419707562874559
 30
0.0
 10
33.34986374827783
 20
7.364152654132445
 30
0.0
 10
33.42697015631745
 20
7.297607146466694
 30
0.0
  0
SPLINE
  5
10B
330
1F
100
AcDbEntity
  8
외형선
  6
Continuous
 62
     1
370
    15
100
AcDbSpline
210
0.0
220
0.0
230
1.0
 70
     8
 71
     3
 72
    10
 73
     6
 74
     0
 42
0.000000001
 43
0.00000001
 40
0.0
 40
0.0
 40
0.0
 40
0.0
 40
0.5
 40
0.5
 40
1.0
 40
1.0
 40
1.0
 40
1.0
 10
33.42697015631748
 20
7.297607146466593
 30
0.0
 10
33.46633490433227
 20
7.2636340019851
 30
0.0
 10
33.51146345070565
 20
7.24089820992206
 30
0.0
 10
33.60513478762339
 20
7.221502096179054
 30
0.0
 10
33.65335896241214
 20
7.22527407305378
 30
0.0
 10
33.69576634574176
 20
7.245031797672415
 30
0.0
  0
SPLINE
  5
10C
330
1F
100
AcDbEntity
  8
외형선
  6
Continuous
 62
     1
370
    15
100
AcDbSpline
210
0.0
220
0.0
230
1.0
 70
     8
 71
     3
 72
     8
 73
     4
 74
     0
 42
0.000000001
 43
0.00000001
 40
0.0
 40
0.0
 40
0.0
 40
0.0
 40
1.0
 40
1.0
 40
1.0
 40
1.0
 10
33.69576634574172
 20
7.245031797671981
 30
0.0
 10
33.82628421231218
 20
7.305840455576352
 30
0.0
 10
33.97062575117489
 20
7.325619503326468
 30
0.0
 10
34.11617430211686
 20
7.310376973540784
 30
0.0
  0
SPLINE
  5
10D
330
1F
100
AcDbEntity
  8
외형선
  6
Continuous
 62
     1
370
    15
100
AcDbSpline
210
0.0
220
0.0
230
1.0
 70
     8
 71
     3
 72
     8
 73
     4
 74
     0
 42
0.000000001
 43
0.00000001
 40
0.0
 40
0.0
 40
0.0
 40
0.0
 40
1.0
 40
1.0
 40
1.0
 40
1.0
 10
34.11617430209238
 20
7.31037697354926
 30
0.0
 10
34.26543691003927
 20
7.25867380768558
 30
0.0
 10
34.40854754336515
 20
7.172555282672938
 30
0.0
 10
34.53399420218651
 20
7.058470700548011
 30
0.0
  0
SPLINE
  5
10E
330
1F
100
AcDbEntity
  8
외형선
  6
Continuous
 62
     1
370
    15
100
AcDbSpline
210
0.0
220
0.0
230
1.0
 70
     8
 71
     3
 72
    10
 73
     6
 74
     0
 42
0.000000001
 43
0.00000001
 40
0.0
 40
0.0
 40
0.0
 40
0.0
 40
0.5
 40
0.5
 40
1.0
 40
1.0
 40
1.0
 40
1.0
 10
34.53399420218706
 20
7.05847070054697
 30
0.0
 10
34.57311262083657
 20
7.022895353328087
 30
0.0
 10
34.61810079420493
 20
6.99805843822417
 30
0.0
 10
34.71171293262762
 20
6.973768150794866
 30
0.0
 10
34.76002878971639
 20
6.974751766050395
 30
0.0
 10
34.80269506903018
 20
6.991660511205052
 30
0.0
  0
SPLINE
  5
10F
330
1F
100
AcDbEntity
  8
외형선
  6
Continuous
 62
     1
370
    15
100
AcDbSpline
210
0.0
220
0.0
230
1.0
 70
     8
 71
     3
 72
    12
 73
     8
 74
     0
 42
0.000000001
 43
0.00000001
 40
0.0
 40
0.0
 40
0.0
 40
0.0
 40
0.5
 40
0.5
 40
0.75
 40
0.75
 40
1.0
 40
1.0
 40
1.0
 40
1.0
 10
34.80269506903019
 20
6.99166051120503
 30
0.0
 10
34.96966728579452
 20
7.0578319868196
 30
0.0
 10
35.15527505401928
 20
7.057737117555894
 30
0.0
 10
35.43179817973799
 20
6.980195640050877
 30
0.0
 10
35.52114571336772
 20
6.9421446660661
 30
0.0
 10
35.69479432377942
 20
6.842885378116678
 30
0.0
 10
35.77858908884996
 20
6.781588689742831
 30
0.0
 10
35.85567059867422
 20
6.710539341926267
 30
0.0
  0
SPLINE
  5
110
330
1F
100
AcDbEntity
  8
외형선
  6
Continuous
 62
     1
370
    15
100
AcDbSpline
210
0.0
220
0.0
230
1.0
 70
     8
 71
     3
 72
     8
 73
     4
 74
     0
 42
0.000000001
 43
0.00000001
 40
0.0
 40
0.0
 40
0.0
 40
0.0
 40
1.0
 40
1.0
 40
1.0
 40
1.0
 10
35.85567059867421
 20
6.71053934192627
 30
0.0
 10
35.93433260814182
 20
6.638033179509942
 30
0.0
 10
36.03963600337325
 20
6.604773398365909
 30
0.0
 10
36.12442119240428
 20
6.633829084389844
 30
0.0
  0
SPLINE
  5
111
330
1F
100
AcDbEntity
  8
외형선
  6
Continuous
 62
     1
370
    15
100
AcDbSpline
210
0.0
220
0.0
230
1.0
 70
     8
 71
     3
 72
     8
 73
     4
 74
     0
 42
0.000000001
 43
0.00000001
 40
0.0
 40
0.0
 40
0.0
 40
0.0
 40
1.0
 40
1.0
 40
1.0
 40
1.0
 10
36.12442119240409
 20
6.633829084389807
 30
0.0
 10
36.25491887265225
 20
6.678550334262278
 30
0.0
 10
36.3992554524029
 20
6.68220005513087
 30
0.0
 10
36.544816227265
 20
6.652824029423048
 30
0.0
  0
SPLINE
  5
112
330
1F
100
AcDbEntity
  8
외형선
  6
Continuous
 62
     1
370
    15
100
AcDbSpline
210
0.0
220
0.0
230
1.0
 70
     8
 71
     3
 72
     8
 73
     4
 74
     0
 42
0.000000001
 43
0.00000001
 40
0.0
 40
0.0
 40
0.0
 40
0.0
 40
1.0
 40
1.0
 40
1.0
 40
1.0
 10
36.54481622723443
 20
6.652824029435809
 30
0.0
 10
36.69410310954263
 20
6.588848471322554
 30
0.0
 10
36.83726641203194
 20
6.493420865112652
 30
0.0
 10
36.96269075353795
 20
6.373713723317688
 30
0.0
  0
SPLINE
  5
113
330
1F
100
AcDbEntity
  8
외형선
  6
Continuous
 62
     1
370
    15
100
AcDbSpline
210
0.0
220
0.0
230
1.0
 70
     8
 71
     3
 72
    10
 73
     6
 74
     0
 42
0.000000001
 43
0.00000001
 40
0.0
 40
0.0
 40
0.0
 40
0.0
 40
0.5
 40
0.5
 40
1.0
 40
1.0
 40
1.0
 40
1.0
 10
36.96269075353799
 20
6.373713723317606
 30
0.0
 10
37.00182740672464
 20
6.336361030561627
 30
0.0
 10
37.04682779737546
 20
6.308506835980938
 30
0.0
 10
37.14044281992011
 20
6.276250133194284
 30
0.0
 10
37.18876339860395
 20
6.272291629823557
 30
0.0
 10
37.23144051424295
 20
6.283719898160186
 30
0.0
  0
SPLINE
  5
114
330
1F
100
AcDbEntity
  8
외형선
  6
Continuous
 62
     1
370
    15
100
AcDbSpline
210
0.0
220
0.0
230
1.0
 70
     8
 71
     3
 72
    12
 73
     8
 74
     0
 42
0.000000001
 43
0.00000001
 40
0.0
 40
0.0
 40
0.0
 40
0.0
 40
0.5000000000000004
 40
0.5000000000000004
 40
0.7500000000000002
 40
0.7500000000000002
 40
1.0
 40
1.0
 40
1.0
 40
1.0
 10
37.23144051424295
 20
6.2837198981602
 30
0.0
 10
37.39847513402604
 20
6.328449173506169
 30
0.0
 10
37.5841383321704
 20
6.308211853779542
 30
0.0
 10
37.86076454204409
 20
6.207186712399349
 30
0.0
 10
37.95015142453632
 20
6.162609959671332
 30
0.0
 10
38.12388814863492
 20
6.052899027378293
 30
0.0
 10
38.20773785956651
 20
5.987736044464072
 30
0.0
 10
38.28487951124979
 20
5.914359797615652
 30
0.0
  0
SPLINE
  5
115
330
1F
100
AcDbEntity
  8
외형선
  6
Continuous
 62
     1
370
    15
100
AcDbSpline
210
0.0
220
0.0
230
1.0
 70
     8
 71
     3
 72
    10
 73
     6
 74
     0
 42
0.000000001
 43
0.00000001
 40
0.0
 40
0.0
 40
0.0
 40
0.0
 40
0.5
 40
0.5
 40
1.0
 40
1.0
 40
1.0
 40
1.0
 10
38.2848795112498
 20
5.914359797615638
 30
0.0
 10
38.32426550561889
 20
5.876896295316494
 30
0.0
 10
38.36941796320171
 20
5.84819250046987
 30
0.0
 10
38.46313528338816
 20
5.813008632310291
 30
0.0
 10
38.5113860695753
 20
5.806963644587978
 30
0.0
 10
38.55381987973955
 20
5.815804560806942
 30
0.0
  0
SPLINE
  5
116
330
1F
100
AcDbEntity
  8
외형선
  6
Continuous
 62
     1
370
    15
100
AcDbSpline
210
0.0
220
0.0
230
1.0
 70
     8
 71
     3
 72
     8
 73
     4
 74
     0
 42
0.000000001
 43
0.00000001
 40
0.0
 40
0.0
 40
0.0
 40
0.0
 40
1.0
 40
1.0
 40
1.0
 40
1.0
 10
38.55381987973957
 20
5.815804560806971
 30
0.0
 10
38.68441483255293
 20
5.84301350178996
 30
0.0
 10
38.82885643941842
 20
5.830359983978718
 30
0.0
 10
38.97453087816476
 20
5.787723975188594
 30
0.0
  0
SPLINE
  5
117
330
1F
100
AcDbEntity
  8
외형선
  6
Continuous
 62
     1
370
    15
100
AcDbSpline
210
0.0
220
0.0
230
1.0
 70
     8
 71
     3
 72
     8
 73
     4
 74
     0
 42
0.000000001
 43
0.00000001
 40
0.0
 40
0.0
 40
0.0
 40
0.0
 40
1.0
 40
1.0
 40
1.0
 40
1.0
 10
38.97453087813854
 20
5.787723975201544
 30
0.0
 10
39.12395664411736
 20
5.713426052202543
 30
0.0
 10
39.26727487629243
 20
5.611629336714833
 30
0.0
 10
39.39286989581365
 20
5.490002113713398
 30
0.0
  0
SPLINE
  5
118
330
1F
100
AcDbEntity
  8
외형선
  6
Continuous
 62
     1
370
    15
100
AcDbSpline
210
0.0
220
0.0
230
1.0
 70
     8
 71
     3
 72
    10
 73
     6
 74
     0
 42
0.000000001
 43
0.00000001
 40
0.0
 40
0.0
 40
0.0
 40
0.0
 40
0.5
 40
0.5
 40
1.0
 40
1.0
 40
1.0
 40
1.0
 10
39.39286989581365
 20
5.490002113713401
 30
0.0
 10
39.43206308325458
 20
5.452047117032905
 30
0.0
 10
39.4771259526895
 20
5.422060111879148
 30
0.0
 10
39.57084530255643
 20
5.382892271905303
 30
0.0
 10
39.61920795547461
 20
5.374127741569269
 30
0.0
 10
39.6619237151502
 20
5.379714379397255
 30
0.0
  0
SPLINE
  5
119
330
1F
100
AcDbEntity
  8
외형선
  6
Continuous
 62
     1
370
    15
100
AcDbSpline
210
0.0
220
0.0
230
1.0
 70
     8
 71
     3
 72
    12
 73
     8
 74
     0
 42
0.000000001
 43
0.00000001
 40
0.0
 40
0.0
 40
0.0
 40
0.0
 40
0.4999999999999964
 40
0.4999999999999964
 40
0.7499999999999982
 40
0.7499999999999982
 40
1.0
 40
1.0
 40
1.0
 40
1.0
 10
39.6619237151502
 20
5.379714379397257
 30
0.0
 10
39.82911406457376
 20
5.401580593123933
 30
0.0
 10
40.01480087034255
 20
5.361674577085331
 30
0.0
 10
40.29156078377913
 20
5.240228145750351
 30
0.0
 10
40.38099800078139
 20
5.190489730646846
 30
0.0
 10
40.55484160693147
 20
5.073684992393617
 30
0.0
 10
40.63875263813421
 20
5.006650545408382
 30
0.0
 10
40.71594817016696
 20
4.933190452427336
 30
0.0
  0
SPLINE
  5
11A
330
1F
100
AcDbEntity
  8
외형선
  6
Continuous
 62
     1
370
    15
100
AcDbSpline
210
0.0
220
0.0
230
1.0
 70
     8
 71
     3
 72
    10
 73
     6
 74
     0
 42
0.000000001
 43
0.00000001
 40
0.0
 40
0.0
 40
0.0
 40
0.0
 40
0.5
 40
0.5
 40
1.0
 40
1.0
 40
1.0
 40
1.0
 10
40.71594817016694
 20
4.933190452427344
 30
0.0
 10
40.75533243628918
 20
4.895711964033711
 30
0.0
 10
40.80048173505995
 20
4.865317208376608
 30
0.0
 10
40.89419453589607
 20
4.823750355184164
 30
0.0
 10
40.94244565105672
 20
4.812995346003297
 30
0.0
 10
40.98487879925845
 20
4.815869579904288
 30
0.0
  0
SPLINE
  5
11B
330
1F
100
AcDbEntity
  8
외형선
  6
Continuous
 62
     1
370
    15
100
AcDbSpline
210
0.0
220
0.0
230
1.0
 70
     8
 71
     3
 72
     8
 73
     4
 74
     0
 42
0.000000001
 43
0.00000001
 40
0.0
 40
0.0
 40
0.0
 40
0.0
 40
1.0
 40
1.0
 40
1.0
 40
1.0
 10
40.9848787992585
 20
4.815869579904293
 30
0.0
 10
41.11542673831216
 20
4.824712320262575
 30
0.0
 10
41.25982171362428
 20
4.796204202493339
 30
0.0
 10
41.4054690633118
 20
4.741678538499469
 30
0.0
  0
SPLINE
  5
11C
330
1F
100
AcDbEntity
  8
외형선
  6
Continuous
 62
     1
370
    15
100
AcDbSpline
210
0.0
220
0.0
230
1.0
 70
     8
 71
     3
 72
     8
 73
     4
 74
     0
 42
0.000000001
 43
0.00000001
 40
0.0
 40
0.0
 40
0.0
 40
0.0
 40
1.0
 40
1.0
 40
1.0
 40
1.0
 10
41.40546906328422
 20
4.741678538514187
 30
0.0
 10
41.55478535611124
 20
4.659460856093729
 30
0.0
 10
41.698008594959
 20
4.554566376926023
 30
0.0
 10
41.82348524063315
 20
4.434917682826154
 30
0.0
  0
SPLINE
  5
11D
330
1F
100
AcDbEntity
  8
외형선
  6
Continuous
 62
     1
370
    15
100
AcDbSpline
210
0.0
220
0.0
230
1.0
 70
     8
 71
     3
 72
    10
 73
     6
 74
     0
 42
0.000000001
 43
0.00000001
 40
0.0
 40
0.0
 40
0.0
 40
0.0
 40
0.5
 40
0.5
 40
1.0
 40
1.0
 40
1.0
 40
1.0
 10
41.82348524063318
 20
4.434917682826049
 30
0.0
 10
41.86262829893012
 20
4.397592682758172
 30
0.0
 10
41.90763946150724
 20
4.366446180395561
 30
0.0
 10
42.00128007760605
 20
4.321665984827463
 30
0.0
 10
42.04959913874606
 20
4.308435435920459
 30
0.0
 10
42.09226569348777
 20
4.308069507422334
 30
0.0
  0
SPLINE
  5
11E
330
1F
100
AcDbEntity
  8
외형선
  6
Continuous
 62
     1
370
    15
100
AcDbSpline
210
0.0
220
0.0
230
1.0
 70
     8
 71
     3
 72
    12
 73
     8
 74
     0
 42
0.000000001
 43
0.00000001
 40
0.0
 40
0.0
 40
0.0
 40
0.0
 40
0.4999999999999937
 40
0.4999999999999937
 40
0.7499999999999968
 40
0.7499999999999968
 40
1.0
 40
1.0
 40
1.0
 40
1.0
 10
42.09226569348776
 20
4.308069507422318
 30
0.0
 10
42.25934536195901
 20
4.30663655337855
 30
0.0
 10
42.4449087426674
 20
4.248551160745082
 30
0.0
 10
42.72136703136712
 20
4.110531522061896
 30
0.0
 10
42.81070923819517
 20
4.057205891604638
 30
0.0
 10
42.9843722017767
 20
3.937019159554684
 30
0.0
 10
43.06819210948093
 20
3.870257677118559
 30
0.0
 10
43.14530283858905
 20
3.799079265432116
 30
0.0
  0
SPLINE
  5
11F
330
1F
100
AcDbEntity
  8
외형선
  6
Continuous
 62
     1
370
    15
100
AcDbSpline
210
0.0
220
0.0
230
1.0
 70
     8
 71
     3
 72
    10
 73
     6
 74
     0
 42
0.000000001
 43
0.00000001
 40
0.0
 40
0.0
 40
0.0
 40
0.0
 40
0.5
 40
0.5
 40
1.0
 40
1.0
 40
1.0
 40
1.0
 10
43.14530283858989
 20
3.799079265428555
 30
0.0
 10
43.18465187131979
 20
3.76275745024786
 30
0.0
 10
43.22976606463552
 20
3.731627050147143
 30
0.0
 10
43.32342127005042
 20
3.684988487551268
 30
0.0
 10
43.37164249119653
 20
3.669870894613082
 30
0.0
 10
43.41404696168211
 20
3.666693779580251
 30
0.0
  0
SPLINE
  5
120
330
1F
100
AcDbEntity
  8
외형선
  6
Continuous
 62
     1
370
    15
100
AcDbSpline
210
0.0
220
0.0
230
1.0
 70
     8
 71
     3
 72
     8
 73
     4
 74
     0
 42
0.000000001
 43
0.00000001
 40
0.0
 40
0.0
 40
0.0
 40
0.0
 40
1.0
 40
1.0
 40
1.0
 40
1.0
 10
43.41404696167943
 20
3.666693779580456
 30
0.0
 10
43.54451342909017
 20
3.65691870232699
 30
0.0
 10
43.68883491921214
 20
3.613444429205375
 30
0.0
 10
43.83442519749338
 20
3.548733984402166
 30
0.0
  0
SPLINE
  5
121
330
1F
100
AcDbEntity
  8
외형선
  6
Continuous
 62
     1
370
    15
100
AcDbSpline
210
0.0
220
0.0
230
1.0
 70
     8
 71
     3
 72
     8
 73
     4
 74
     0
 42
0.000000001
 43
0.00000001
 40
0.0
 40
0.0
 40
0.0
 40
0.0
 40
1.0
 40
1.0
 40
1.0
 40
1.0
 10
43.83442519746718
 20
3.548733984417295
 30
0.0
 10
43.98367342830163
 20
3.461133308192437
 30
0.0
 10
44.12683738173401
 20
3.356379989824622
 30
0.0
 10
44.25225851047585
 20
3.242423118345022
 30
0.0
  0
SPLINE
  5
122
330
1F
100
AcDbEntity
  8
외형선
  6
Continuous
 62
     1
370
    15
100
AcDbSpline
210
0.0
220
0.0
230
1.0
 70
     8
 71
     3
 72
    10
 73
     6
 74
     0
 42
0.000000001
 43
0.00000001
 40
0.0
 40
0.0
 40
0.0
 40
0.0
 40
0.5
 40
0.5
 40
1.0
 40
1.0
 40
1.0
 40
1.0
 10
44.25225851047585
 20
3.242423118345017
 30
0.0
 10
44.29138691882131
 20
3.20687128552581
 30
0.0
 10
44.33638458901699
 20
3.175522919947928
 30
0.0
 10
44.43000863371974
 20
3.126501897903428
 30
0.0
 10
44.47831802224855
 20
3.109199736728679
 30
0.0
 10
44.52097257515553
 20
3.102885798371881
 30
0.0
  0
SPLINE
  5
123
330
1F
100
AcDbEntity
  8
외형선
  6
Continuous
 62
     1
370
    15
100
AcDbSpline
210
0.0
220
0.0
230
1.0
 70
     8
 71
     3
 72
    12
 73
     8
 74
     0
 42
0.000000001
 43
0.00000001
 40
0.0
 40
0.0
 40
0.0
 40
0.0
 40
0.4999999999999933
 40
0.4999999999999933
 40
0.7499999999999967
 40
0.7499999999999967
 40
1.0
 40
1.0
 40
1.0
 40
1.0
 10
44.52097257515551
 20
3.102885798371894
 30
0.0
 10
44.68807629185985
 20
3.078150277904378
 30
0.0
 10
44.87377961959806
 20
3.00387372505324
 30
0.0
 10
45.15021034156599
 20
2.853607128155519
 30
0.0
 10
45.23949550051209
 20
2.79828127864941
 30
0.0
 10
45.41308806765925
 20
2.678359890494067
 30
0.0
 10
45.49688040980153
 20
2.613901488045615
 30
0.0
 10
45.57397530766277
 20
2.547170647657936
 30
0.0
  0
SPLINE
  5
124
330
1F
100
AcDbEntity
  8
외형선
  6
Continuous
 62
     1
370
    15
100
AcDbSpline
210
0.0
220
0.0
230
1.0
 70
     8
 71
     3
 72
    10
 73
     6
 74
     0
 42
0.000000001
 43
0.00000001
 40
0.0
 40
0.0
 40
0.0
 40
0.0
 40
0.5
 40
0.5
 40
1.0
 40
1.0
 40
1.0
 40
1.0
 10
45.57397530766278
 20
2.547170647657927
 30
0.0
 10
45.61333148752933
 20
2.513105216224711
 30
0.0
 10
45.65845356321981
 20
2.482177736814631
 30
0.0
 10
45.75212049661043
 20
2.431863109123506
 30
0.0
 10
45.80035118222672
 20
2.412820081910555
 30
0.0
 10
45.8427683773069
 20
2.403667310554615
 30
0.0
  0
SPLINE
  5
125
330
1F
100
AcDbEntity
  8
외형선
  6
Continuous
 62
     1
370
    15
100
AcDbSpline
210
0.0
220
0.0
230
1.0
 70
     8
 71
     3
 72
     8
 73
     4
 74
     0
 42
0.000000001
 43
0.00000001
 40
0.0
 40
0.0
 40
0.0
 40
0.0
 40
1.0
 40
1.0
 40
1.0
 40
1.0
 10
45.84276837730693
 20
2.403667310554616
 30
0.0
 10
45.9732708574245
 20
2.375507519233151
 30
0.0
 10
46.11762903194517
 20
2.318326484034526
 30
0.0
 10
46.26326410276592
 20
2.245365789779352
 30
0.0
  0
SPLINE
  5
126
330
1F
100
AcDbEntity
  8
외형선
  6
Continuous
 62
     1
370
    15
100
AcDbSpline
210
0.0
220
0.0
230
1.0
 70
     8
 71
     3
 72
     8
 73
     4
 74
     0
 42
0.000000001
 43
0.00000001
 40
0.0
 40
0.0
 40
0.0
 40
0.0
 40
1.0
 40
1.0
 40
1.0
 40
1.0
 10
46.26326410274141
 20
2.245365789794187
 30
0.0
 10
46.4125717745486
 20
2.155017576367593
 30
0.0
 10
46.55581003582225
 20
2.053579096967416
 30
0.0
 10
46.68132111744379
 20
1.948765531641391
 30
0.0
  0
SPLINE
  5
127
330
1F
100
AcDbEntity
  8
외형선
  6
Continuous
 62
     1
370
    15
100
AcDbSpline
210
0.0
220
0.0
230
1.0
 70
     8
 71
     3
 72
    10
 73
     6
 74
     0
 42
0.000000001
 43
0.00000001
 40
0.0
 40
0.0
 40
0.0
 40
0.0
 40
0.5
 40
0.5
 40
1.0
 40
1.0
 40
1.0
 40
1.0
 10
46.6813211174437
 20
1.948765531641456
 30
0.0
 10
46.72047759007133
 20
1.916066191880624
 30
0.0
 10
46.76550507954275
 20
1.885464386981517
 30
0.0
 10
46.8591822268256
 20
1.83367763752435
 30
0.0
 10
46.90752115845383
 20
1.812811065783579
 30
0.0
 10
46.95020514587373
 20
1.800721087054265
 30
0.0
  0
SPLINE
  5
128
330
1F
100
AcDbEntity
  8
외형선
  6
Continuous
 62
     1
370
    15
100
AcDbSpline
210
0.0
220
0.0
230
1.0
 70
     8
 71
     3
 72
    12
 73
     8
 74
     0
 42
0.000000001
 43
0.00000001
 40
0.0
 40
0.0
 40
0.0
 40
0.0
 40
0.4999999999999927
 40
0.4999999999999927
 40
0.7499999999999963
 40
0.7499999999999963
 40
1.0
 40
1.0
 40
1.0
 40
1.0
 10
46.95020514587372
 20
1.800721087054283
 30
0.0
 10
47.11746429103663
 20
1.753345955780583
 30
0.0
 10
47.30335423742248
 20
1.665001637066447
 30
0.0
 10
47.58007105478055
 20
1.50728223067293
 30
0.0
 10
47.66946018446904
 20
1.451798118526602
 30
0.0
 10
47.84316371395186
 20
1.335886980641682
 30
0.0
 10
47.92697993389173
 20
1.275659693339674
 30
0.0
 10
48.00412724283799
 20
1.215394324642567
 30
0.0
  0
SPLINE
  5
129
330
1F
100
AcDbEntity
  8
외형선
  6
Continuous
 62
     1
370
    15
100
AcDbSpline
210
0.0
220
0.0
230
1.0
 70
     8
 71
     3
 72
    10
 73
     6
 74
     0
 42
0.000000001
 43
0.00000001
 40
0.0
 40
0.0
 40
0.0
 40
0.0
 40
0.5
 40
0.5
 40
1.0
 40
1.0
 40
1.0
 40
1.0
 10
48.004127242838
 20
1.21539432464255
 30
0.0
 10
48.04353276476044
 20
1.184611808184168
 30
0.0
 10
48.08870543925795
 20
1.154813971947848
 30
0.0
 10
48.1824531064204
 20
1.102323227332801
 30
0.0
 10
48.23073260133376
 20
1.079909198100654
 30
0.0
 10
48.2732034270579
 20
1.065029311730454
 30
0.0
  0
SPLINE
  5
12A
330
1F
100
AcDbEntity
  8
외형선
  6
Continuous
 62
     1
370
    15
100
AcDbSpline
210
0.0
220
0.0
230
1.0
 70
     8
 71
     3
 72
     8
 73
     4
 74
     0
 42
0.000000001
 43
0.00000001
 40
0.0
 40
0.0
 40
0.0
 40
0.0
 40
1.0
 40
1.0
 40
1.0
 40
1.0
 10
48.2732034270579
 20
1.065029311730459
 30
0.0
 10
48.40382650858829
 20
1.019264799801214
 30
0.0
 10
48.54829036945979
 20
0.9500739216965155
 30
0.0
 10
48.69403678377525
 20
0.8710583403586768
 30
0.0
  0
SPLINE
  5
12B
330
1F
100
AcDbEntity
  8
외형선
  6
Continuous
 62
     1
370
    15
100
AcDbSpline
210
0.0
220
0.0
230
1.0
 70
     8
 71
     3
 72
     8
 73
     4
 74
     0
 42
0.000000001
 43
0.00000001
 40
0.0
 40
0.0
 40
0.0
 40
0.0
 40
1.0
 40
1.0
 40
1.0
 40
1.0
 10
48.69403678375079
 20
0.871058340373463
 30
0.0
 10
48.84341108998285
 20
0.7807368870030945
 30
0.0
 10
48.98674000625433
 20
0.6857395433929117
 30
0.0
 10
49.11233798991434
 20
0.5933122872249568
 30
0.0
  0
SPLINE
  5
12C
330
1F
100
AcDbEntity
  8
외형선
  6
Continuous
 62
     1
370
    15
100
AcDbSpline
210
0.0
220
0.0
230
1.0
 70
     8
 71
     3
 72
    10
 73
     6
 74
     0
 42
0.000000001
 43
0.00000001
 40
0.0
 40
0.0
 40
0.0
 40
0.0
 40
0.5000000000000001
 40
0.5000000000000001
 40
1.0
 40
1.0
 40
1.0
 40
1.0
 10
49.11233798991434
 20
0.5933122872249585
 30
0.0
 10
49.15150402272953
 20
0.5644900972295308
 30
0.0
 10
49.19653993434571
 20
0.5355906531563571
 30
0.0
 10
49.29023298577268
 20
0.4826510812729136
 30
0.0
 10
49.33858285841245
 20
0.4588695245057417
 30
0.0
 10
49.3812760934909
 20
0.4413768299194815
 30
0.0
  0
SPLINE
  5
12D
330
1F
100
AcDbEntity
  8
외형선
  6
Continuous
 62
     1
370
    15
100
AcDbSpline
210
0.0
220
0.0
230
1.0
 70
     8
 71
     3
 72
    12
 73
     8
 74
     0
 42
0.000000001
 43
0.00000001
 40
0.0
 40
0.0
 40
0.0
 40
0.0
 40
0.4999999999999929
 40
0.4999999999999929
 40
0.7499999999999964
 40
0.7499999999999964
 40
1.0
 40
1.0
 40
1.0
 40
1.0
 10
49.38127609349089
 20
0.4413768299195053
 30
0.0
 10
49.54844576228707
 20
0.3728824196232505
 30
0.0
 10
49.73423636258079
 20
0.2733610251883985
 30
0.0
 10
50.01087841479279
 20
0.1132814658549525
 30
0.0
 10
50.10024721240637
 20
0.0594210715602636
 30
0.0
 10
50.27391182530192
 20
-0.048605547364136
 30
0.0
 10
50.35770584919092
 20
-0.1025098000492916
 30
0.0
 10
50.43478520622065
 20
-0.1543128624949284
 30
0.0
  0
SPLINE
  5
12E
330
1F
100
AcDbEntity
  8
외형선
  6
Continuous
 62
     1
370
    15
100
AcDbSpline
210
0.0
220
0.0
230
1.0
 70
     8
 71
     3
 72
    10
 73
     6
 74
     0
 42
0.000000001
 43
0.00000001
 40
0.0
 40
0.0
 40
0.0
 40
0.0
 40
0.5
 40
0.5
 40
1.0
 40
1.0
 40
1.0
 40
1.0
 10
50.43478520622065
 20
-0.15431286249493
 30
0.0
 10
50.47415207161608
 20
-0.1807703248422368
 30
0.0
 10
50.51927912154218
 20
-0.2084391920413811
 30
0.0
 10
50.6129275327298
 20
-0.261386024915486
 30
0.0
 10
50.66115274617167
 20
-0.2864255047433226
 30
0.0
 10
50.70357413626604
 20
-0.3065284668670595
 30
0.0
  0
SPLINE
  5
12F
330
1F
100
AcDbEntity
  8
외형선
  6
Continuous
 62
     1
370
    15
100
AcDbSpline
210
0.0
220
0.0
230
1.0
 70
     8
 71
     3
 72
     8
 73
     4
 74
     0
 42
0.000000001
 43
0.00000001
 40
0.0
 40
0.0
 40
0.0
 40
0.0
 40
1.0
 40
1.0
 40
1.0
 40
1.0
 10
50.70357413626606
 20
-0.3065284668670607
 30
0.0
 10
50.83405454192218
 20
-0.3683614866469209
 30
0.0
 10
50.97837666323642
 20
-0.4472913951943136
 30
0.0
 10
51.12399732184488
 20
-0.5297971166343082
 30
0.0
  0
SPLINE
  5
130
330
1F
100
AcDbEntity
  8
외형선
  6
Continuous
 62
     1
370
    15
100
AcDbSpline
210
0.0
220
0.0
230
1.0
 70
     8
 71
     3
 72
     8
 73
     4
 74
     0
 42
0.000000001
 43
0.00000001
 40
0.0
 40
0.0
 40
0.0
 40
0.0
 40
1.0
 40
1.0
 40
1.0
 40
1.0
 10
51.12399732181936
 20
-0.5297971166193695
 30
0.0
 10
51.27322414616247
 20
-0.6171924862090876
 30
0.0
 10
51.41641331715585
 20
-0.7027011523373523
 30
0.0
 10
51.54187511781042
 20
-0.7797604404474363
 30
0.0
  0
SPLINE
  5
131
330
1F
100
AcDbEntity
  8
외형선
  6
Continuous
 62
     1
370
    15
100
AcDbSpline
210
0.0
220
0.0
230
1.0
 70
     8
 71
     3
 72
    10
 73
     6
 74
     0
 42
0.000000001
 43
0.00000001
 40
0.0
 40
0.0
 40
0.0
 40
0.0
 40
0.5
 40
0.5
 40
1.0
 40
1.0
 40
1.0
 40
1.0
 10
51.54187511780913
 20
-0.7797604404466357
 30
0.0
 10
51.58100187276799
 20
-0.8037922960987802
 30
0.0
 10
51.62599871287539
 20
-0.8300723785424444
 30
0.0
 10
51.71962916929986
 20
-0.8824882509211874
 30
0.0
 10
51.76794580891499
 20
-0.9084261510291207
 30
0.0
 10
51.81060571630375
 20
-0.9307599173905909
 30
0.0
  0
SPLINE
  5
132
330
1F
100
AcDbEntity
  8
외형선
  6
Continuous
 62
     1
370
    15
100
AcDbSpline
210
0.0
220
0.0
230
1.0
 70
    24
 71
     3
 72
    13
 73
     9
 74
     0
 42
0.000000001
 43
0.00000001
 40
0.0
 40
0.0
 40
0.0
 40
0.0
 40
0.2062056100008792
 40
0.4563026900876995
 40
0.632366419056204
 40
0.813063073223351
 40
0.9061019128244979
 40
1.0
 40
1.0
 40
1.0
 40
1.0
 10
52.40076945428027
 20
-1.270030616995858
 30
0.0
 10
52.39558061389562
 20
-1.275219457380499
 30
0.0
 10
52.38409847320151
 20
-1.28670159807462
 30
0.0
 10
52.25325277791091
 20
-1.417547293365188
 30
0.0
 10
52.04857167958298
 20
-1.622228391693157
 30
0.0
 10
51.83774436652564
 20
-1.833055704750478
 30
0.0
 10
51.63274751682067
 20
-2.038052554455458
 30
0.0
 10
51.51426423331692
 20
-2.156535837959196
 30
0.0
 10
51.45475028989704
 20
-2.216049781379087
 30
0.0
  0
SPLINE
  5
133
330
1F
100
AcDbEntity
  8
외형선
  6
Continuous
 62
     1
370
    15
100
AcDbSpline
210
0.0
220
0.0
230
1.0
 70
     8
 71
     3
 72
     8
 73
     4
 74
     0
 42
0.000000001
 43
0.00000001
 40
0.3482839964871275
 40
0.3482839964871275
 40
0.3482839964871275
 40
0.3482839964871275
 40
1.0
 40
1.0
 40
1.0
 40
1.0
 10
52.64021452359223
 20
-3.109273417830679
 30
0.0
 10
52.24455075060369
 20
-2.818254216067388
 30
0.0
 10
51.84940247450612
 20
-2.52042758411763
 30
0.0
 10
51.45475028989702
 20
-2.216049781379082
 30
0.0
  0
SPLINE
  5
13D
330
1F
100
AcDbEntity
  8
외형선
  6
Continuous
 62
     1
370
    15
100
AcDbSpline
210
0.0
220
0.0
230
1.0
 70
     8
 71
     3
 72
    10
 73
     6
 74
     0
 42
0.000000001
 43
0.00000001
 40
0.6736139840655132
 40
0.6736139840655132
 40
0.6736139840655132
 40
0.6736139840655132
 40
0.7500000000000003
 40
0.7500000000000003
 40
1.0
 40
1.0
 40
1.0
 40
1.0
 10
49.27603397184953
 20
-6.890358623345455
 30
0.0
 10
49.24900024455346
 20
-6.877243110874197
 30
0.0
 10
49.22221092369357
 20
-6.863035073024115
 30
0.0
 10
49.10875148161127
 20
-6.797733945628816
 30
0.0
 10
49.02487006846545
 20
-6.736114046475602
 30
0.0
 10
48.94770637920782
 20
-6.664817924268251
 30
0.0
  0
SPLINE
  5
13E
330
1F
100
AcDbEntity
  8
외형선
  6
Continuous
 62
     1
370
    15
100
AcDbSpline
210
0.0
220
0.0
230
1.0
 70
     8
 71
     3
 72
    10
 73
     6
 74
     0
 42
0.000000001
 43
0.00000001
 40
0.0
 40
0.0
 40
0.0
 40
0.0
 40
0.5
 40
0.5
 40
1.0
 40
1.0
 40
1.0
 40
1.0
 10
48.94770637920782
 20
-6.664817924268259
 30
0.0
 10
48.90832035041775
 20
-6.628426829585063
 30
0.0
 10
48.86317020737731
 20
-6.602112599962186
 30
0.0
 10
48.76946164043741
 20
-6.573891639103256
 30
0.0
 10
48.72121637489817
 20
-6.57242449807678
 30
0.0
 10
48.6787884219499
 20
-6.586605650898997
 30
0.0
  0
SPLINE
  5
13F
330
1F
100
AcDbEntity
  8
외형선
  6
Continuous
 62
     1
370
    15
100
AcDbSpline
210
0.0
220
0.0
230
1.0
 70
     8
 71
     3
 72
     8
 73
     4
 74
     0
 42
0.000000001
 43
0.00000001
 40
0.0
 40
0.0
 40
0.0
 40
0.0
 40
1.0
 40
1.0
 40
1.0
 40
1.0
 10
48.6787884219499
 20
-6.586605650898987
 30
0.0
 10
48.54822376391602
 20
-6.630245686302454
 30
0.0
 10
48.40383288043576
 20
-6.632832270593922
 30
0.0
 10
48.25822949503229
 20
-6.602550352440616
 30
0.0
  0
SPLINE
  5
140
330
1F
100
AcDbEntity
  8
외형선
  6
Continuous
 62
     1
370
    15
100
AcDbSpline
210
0.0
220
0.0
230
1.0
 70
     8
 71
     3
 72
     8
 73
     4
 74
     0
 42
0.000000001
 43
0.00000001
 40
0.0
 40
0.0
 40
0.0
 40
0.0
 40
1.0
 40
1.0
 40
1.0
 40
1.0
 10
48.25822950918446
 20
-6.602550358575001
 30
0.0
 10
48.10890974022855
 20
-6.537826438093218
 30
0.0
 10
47.96572698884464
 20
-6.441857940679689
 30
0.0
 10
47.84026323422452
 20
-6.321867113844815
 30
0.0
  0
SPLINE
  5
141
330
1F
100
AcDbEntity
  8
외형선
  6
Continuous
 62
     1
370
    15
100
AcDbSpline
210
0.0
220
0.0
230
1.0
 70
     8
 71
     3
 72
    10
 73
     6
 74
     0
 42
0.000000001
 43
0.00000001
 40
0.0
 40
0.0
 40
0.0
 40
0.0
 40
0.5
 40
0.5
 40
1.0
 40
1.0
 40
1.0
 40
1.0
 10
47.84026323422449
 20
-6.321867113844785
 30
0.0
 10
47.80113430262548
 20
-6.284445048245465
 30
0.0
 10
47.75613594661714
 20
-6.256432312046494
 30
0.0
 10
47.66250881764247
 20
-6.223733580920219
 30
0.0
 10
47.61418256485624
 20
-6.219484342062373
 30
0.0
 10
47.57150404600355
 20
-6.230571433388654
 30
0.0
  0
SPLINE
  5
142
330
1F
100
AcDbEntity
  8
외형선
  6
Continuous
 62
     1
370
    15
100
AcDbSpline
210
0.0
220
0.0
230
1.0
 70
     8
 71
     3
 72
    12
 73
     8
 74
     0
 42
0.000000001
 43
0.00000001
 40
0.0
 40
0.0
 40
0.0
 40
0.0
 40
0.5000000000000004
 40
0.5000000000000004
 40
0.7500000000000002
 40
0.7500000000000002
 40
1.0
 40
1.0
 40
1.0
 40
1.0
 10
47.57150404600354
 20
-6.230571433388636
 30
0.0
 10
47.40451632977506
 20
-6.273951759369109
 30
0.0
 10
47.21890480093586
 20
-6.252558986851699
 30
0.0
 10
46.94235608169118
 20
-6.15026535477414
 30
0.0
 10
46.85299774301998
 20
-6.105354618688785
 30
0.0
 10
46.67932465736567
 20
-5.995145917128362
 30
0.0
 10
46.59551520386627
 20
-5.929826300606154
 30
0.0
 10
46.51842057162997
 20
-5.85639318700503
 30
0.0
  0
SPLINE
  5
143
330
1F
100
AcDbEntity
  8
외형선
  6
Continuous
 62
     1
370
    15
100
AcDbSpline
210
0.0
220
0.0
230
1.0
 70
     8
 71
     3
 72
     8
 73
     4
 74
     0
 42
0.000000001
 43
0.00000001
 40
0.0
 40
0.0
 40
0.0
 40
0.0
 40
1.0
 40
1.0
 40
1.0
 40
1.0
 10
46.51842057162998
 20
-5.856393187005033
 30
0.0
 10
46.43976050493196
 20
-5.781468987405718
 30
0.0
 10
46.33445732255095
 20
-5.739683108493671
 30
0.0
 10
46.24967294645931
 20
-5.756646216163892
 30
0.0
  0
SPLINE
  5
144
330
1F
100
AcDbEntity
  8
외형선
  6
Continuous
 62
     1
370
    15
100
AcDbSpline
210
0.0
220
0.0
230
1.0
 70
     8
 71
     3
 72
     8
 73
     4
 74
     0
 42
0.000000001
 43
0.00000001
 40
0.0
 40
0.0
 40
0.0
 40
0.0
 40
1.0
 40
1.0
 40
1.0
 40
1.0
 10
46.24967294645931
 20
-5.756646216163902
 30
0.0
 10
46.11918837010828
 20
-5.782752723282071
 30
0.0
 10
45.97486161860985
 20
-5.769138845056188
 30
0.0
 10
45.8293023033568
 20
-5.725740595575682
 30
0.0
  0
SPLINE
  5
145
330
1F
100
AcDbEntity
  8
외형선
  6
Continuous
 62
     1
370
    15
100
AcDbSpline
210
0.0
220
0.0
230
1.0
 70
     8
 71
     3
 72
     8
 73
     4
 74
     0
 42
0.000000001
 43
0.00000001
 40
0.0
 40
0.0
 40
0.0
 40
0.0
 40
1.0
 40
1.0
 40
1.0
 40
1.0
 10
45.82930231750274
 20
-5.725740602667293
 30
0.0
 10
45.68003889259498
 20
-5.650912243395823
 30
0.0
 10
45.53689332507292
 20
-5.54885275367536
 30
0.0
 10
45.41149251222129
 20
-5.427267494042625
 30
0.0
  0
SPLINE
  5
146
330
1F
100
AcDbEntity
  8
외형선
  6
Continuous
 62
     1
370
    15
100
AcDbSpline
210
0.0
220
0.0
230
1.0
 70
     8
 71
     3
 72
    10
 73
     6
 74
     0
 42
0.000000001
 43
0.00000001
 40
0.0
 40
0.0
 40
0.0
 40
0.0
 40
0.5
 40
0.5
 40
1.0
 40
1.0
 40
1.0
 40
1.0
 10
45.41149251222129
 20
-5.427267494042622
 30
0.0
 10
45.37236257137338
 20
-5.389328154502331
 30
0.0
 10
45.32736562552802
 20
-5.359247520264526
 30
0.0
 10
45.23375916941875
 20
-5.319701223432139
 30
0.0
 10
45.18546013555299
 20
-5.310654396825496
 30
0.0
 10
45.14280173097949
 20
-5.31588099418366
 30
0.0
  0
SPLINE
  5
147
330
1F
100
AcDbEntity
  8
외형선
  6
Continuous
 62
     1
370
    15
100
AcDbSpline
210
0.0
220
0.0
230
1.0
 70
     8
 71
     3
 72
    12
 73
     8
 74
     0
 42
0.000000001
 43
0.00000001
 40
0.0
 40
0.0
 40
0.0
 40
0.0
 40
0.4999999999999997
 40
0.4999999999999997
 40
0.7499999999999998
 40
0.7499999999999998
 40
1.0
 40
1.0
 40
1.0
 40
1.0
 10
45.14280173097948
 20
-5.315880994183638
 30
0.0
 10
44.97583573929496
 20
-5.336338018298036
 30
0.0
 10
44.79025040703484
 20
-5.295495204857691
 30
0.0
 10
44.51371640838901
 20
-5.173081942432639
 30
0.0
 10
44.42435819320306
 20
-5.123127062721545
 30
0.0
 10
44.25067651828704
 20
-5.006108979163853
 30
0.0
 10
44.16685598228391
 20
-4.939087013035327
 30
0.0
 10
44.08974551622124
 20
-4.8657643031497
 30
0.0
  0
SPLINE
  5
148
330
1F
100
AcDbEntity
  8
외형선
  6
Continuous
 62
     1
370
    15
100
AcDbSpline
210
0.0
220
0.0
230
1.0
 70
     8
 71
     3
 72
    10
 73
     6
 74
     0
 42
0.000000001
 43
0.00000001
 40
0.0
 40
0.0
 40
0.0
 40
0.0
 40
0.5
 40
0.5
 40
1.0
 40
1.0
 40
1.0
 40
1.0
 10
44.08974551622126
 20
-4.865764303149721
 30
0.0
 10
44.05038275473001
 20
-4.828335086488329
 30
0.0
 10
44.00525414295674
 20
-4.797881664735538
 30
0.0
 10
43.91157542084608
 20
-4.755990683135203
 30
0.0
 10
43.86334520017985
 20
-4.744972332045995
 30
0.0
 10
43.82093271053837
 20
-4.747482999802433
 30
0.0
  0
SPLINE
  5
149
330
1F
100
AcDbEntity
  8
외형선
  6
Continuous
 62
     1
370
    15
100
AcDbSpline
210
0.0
220
0.0
230
1.0
 70
     8
 71
     3
 72
     8
 73
     4
 74
     0
 42
0.000000001
 43
0.00000001
 40
0.0
 40
0.0
 40
0.0
 40
0.0
 40
1.0
 40
1.0
 40
1.0
 40
1.0
 10
43.82093271053838
 20
-4.747482999802441
 30
0.0
 10
43.69041053839588
 20
-4.755209445759015
 30
0.0
 10
43.54603763254479
 20
-4.725756111831092
 30
0.0
 10
43.40042059863141
 20
-4.670547073578817
 30
0.0
  0
SPLINE
  5
14A
330
1F
100
AcDbEntity
  8
외형선
  6
Continuous
 62
     1
370
    15
100
AcDbSpline
210
0.0
220
0.0
230
1.0
 70
     8
 71
     3
 72
     8
 73
     4
 74
     0
 42
0.000000001
 43
0.00000001
 40
0.0
 40
0.0
 40
0.0
 40
0.0
 40
1.0
 40
1.0
 40
1.0
 40
1.0
 10
43.40042061278351
 20
-4.670547081412095
 30
0.0
 10
43.25108643494568
 20
-4.587891932841106
 30
0.0
 10
43.10785659456953
 20
-4.482865428092966
 30
0.0
 10
42.98236008318943
 20
-4.36341907619734
 30
0.0
  0
SPLINE
  5
14B
330
1F
100
AcDbEntity
  8
외형선
  6
Continuous
 62
     1
370
    15
100
AcDbSpline
210
0.0
220
0.0
230
1.0
 70
     8
 71
     3
 72
    10
 73
     6
 74
     0
 42
0.000000001
 43
0.00000001
 40
0.0
 40
0.0
 40
0.0
 40
0.0
 40
0.5
 40
0.5
 40
1.0
 40
1.0
 40
1.0
 40
1.0
 10
42.98236008318941
 20
-4.363419076197297
 30
0.0
 10
42.94319953856272
 20
-4.326146452899138
 30
0.0
 10
42.89816968911963
 20
-4.294937202380289
 30
0.0
 10
42.80450149431028
 20
-4.249809300356034
 30
0.0
 10
42.7561676240581
 20
-4.236287595144232
 30
0.0
 10
42.71348279084047
 20
-4.235528999111237
 30
0.0
  0
SPLINE
  5
14C
330
1F
100
AcDbEntity
  8
외형선
  6
Continuous
 62
     1
370
    15
100
AcDbSpline
210
0.0
220
0.0
230
1.0
 70
     8
 71
     3
 72
    12
 73
     8
 74
     0
 42
0.000000001
 43
0.00000001
 40
0.0
 40
0.0
 40
0.0
 40
0.0
 40
0.4999999999999969
 40
0.4999999999999969
 40
0.7499999999999987
 40
0.7499999999999987
 40
1.0
 40
1.0
 40
1.0
 40
1.0
 10
42.71348279084048
 20
-4.235528999111237
 30
0.0
 10
42.54628502111525
 20
-4.232557555737144
 30
0.0
 10
42.36060276358527
 20
-4.173281278577705
 30
0.0
 10
42.08388582790908
 20
-4.034360368959693
 30
0.0
 10
41.99446081605039
 20
-3.980855599822476
 30
0.0
 10
41.82063419680354
 20
-3.8605590306647
 30
0.0
 10
41.73672499840013
 20
-3.793864390841265
 30
0.0
 10
41.65951848956114
 20
-3.722879361566506
 30
0.0
  0
SPLINE
  5
14D
330
1F
100
AcDbEntity
  8
외형선
  6
Continuous
 62
     1
370
    15
100
AcDbSpline
210
0.0
220
0.0
230
1.0
 70
     8
 71
     3
 72
    10
 73
     6
 74
     0
 42
0.000000001
 43
0.00000001
 40
0.0
 40
0.0
 40
0.0
 40
0.0
 40
0.5
 40
0.5
 40
1.0
 40
1.0
 40
1.0
 40
1.0
 10
41.65951848956114
 20
-3.722879361566511
 30
0.0
 10
41.62010525106208
 20
-3.686642133245482
 30
0.0
 10
41.57492486575475
 20
-3.655477329729125
 30
0.0
 10
41.48116054141844
 20
-3.608534123960367
 30
0.0
 10
41.43288014249865
 20
-3.593133788744342
 30
0.0
 10
41.39041608816331
 20
-3.589567185097824
 30
0.0
  0
SPLINE
  5
14E
330
1F
100
AcDbEntity
  8
외형선
  6
Continuous
 62
     1
370
    15
100
AcDbSpline
210
0.0
220
0.0
230
1.0
 70
     8
 71
     3
 72
     8
 73
     4
 74
     0
 42
0.000000001
 43
0.00000001
 40
0.0
 40
0.0
 40
0.0
 40
0.0
 40
1.0
 40
1.0
 40
1.0
 40
1.0
 10
41.3904160881633
 20
-3.589567185097803
 30
0.0
 10
41.25978696208146
 20
-3.578595497991676
 30
0.0
 10
41.11531362430159
 20
-3.534155342703548
 30
0.0
 10
40.96958635351294
 20
-3.468798673439916
 30
0.0
  0
SPLINE
  5
14F
330
1F
100
AcDbEntity
  8
외형선
  6
Continuous
 62
     1
370
    15
100
AcDbSpline
210
0.0
220
0.0
230
1.0
 70
     8
 71
     3
 72
     8
 73
     4
 74
     0
 42
0.000000001
 43
0.00000001
 40
0.0
 40
0.0
 40
0.0
 40
0.0
 40
1.0
 40
1.0
 40
1.0
 40
1.0
 10
40.96958636767534
 20
-3.468798681775322
 30
0.0
 10
40.82019118738387
 20
-3.380870894362462
 30
0.0
 10
40.67687849235305
 20
-3.276140098369589
 30
0.0
 10
40.55130842864936
 20
-3.162539541734334
 30
0.0
  0
SPLINE
  5
150
330
1F
100
AcDbEntity
  8
외형선
  6
Continuous
 62
     1
370
    15
100
AcDbSpline
210
0.0
220
0.0
230
1.0
 70
     8
 71
     3
 72
    10
 73
     6
 74
     0
 42
0.000000001
 43
0.00000001
 40
0.0
 40
0.0
 40
0.0
 40
0.0
 40
0.5
 40
0.5
 40
1.0
 40
1.0
 40
1.0
 40
1.0
 10
40.55130842864935
 20
-3.162539541734314
 30
0.0
 10
40.5121416239914
 20
-3.127106169483538
 30
0.0
 10
40.46710628516466
 20
-3.095747005127245
 30
0.0
 10
40.37342356252457
 20
-3.04645205139774
 30
0.0
 10
40.32508112871422
 20
-3.028876699795157
 30
0.0
 10
40.28239202727346
 20
-3.02216831280478
 30
0.0
  0
SPLINE
  5
151
330
1F
100
AcDbEntity
  8
외형선
  6
Continuous
 62
     1
370
    15
100
AcDbSpline
210
0.0
220
0.0
230
1.0
 70
     8
 71
     3
 72
    12
 73
     8
 74
     0
 42
0.000000001
 43
0.00000001
 40
0.0
 40
0.0
 40
0.0
 40
0.0
 40
0.5000000000000038
 40
0.5000000000000038
 40
0.7500000000000019
 40
0.7500000000000019
 40
1.0
 40
1.0
 40
1.0
 40
1.0
 10
40.28239202727347
 20
-3.022168312804776
 30
0.0
 10
40.11522215915947
 20
-2.995898371986391
 30
0.0
 10
39.92951652887802
 20
-2.920542125944447
 30
0.0
 10
39.65301690018898
 20
-2.769562638570681
 30
0.0
 10
39.56365739085236
 20
-2.714218028039705
 30
0.0
 10
39.38995465313008
 20
-2.594470164938615
 30
0.0
 10
39.30610873838197
 20
-2.530228000462889
 30
0.0
 10
39.22897065565412
 20
-2.463842558793274
 30
0.0
  0
SPLINE
  5
152
330
1F
100
AcDbEntity
  8
외형선
  6
Continuous
 62
     1
370
    15
100
AcDbSpline
210
0.0
220
0.0
230
1.0
 70
     8
 71
     3
 72
    10
 73
     6
 74
     0
 42
0.000000001
 43
0.00000001
 40
0.0
 40
0.0
 40
0.0
 40
0.0
 40
0.5
 40
0.5
 40
1.0
 40
1.0
 40
1.0
 40
1.0
 10
39.22897065565413
 20
-2.463842558793274
 30
0.0
 10
39.18961073738581
 20
-2.429969205114757
 30
0.0
 10
39.14448580308743
 20
-2.399102173136397
 30
0.0
 10
39.05081352080071
 20
-2.348639059065838
 30
0.0
 10
39.00258121439767
 20
-2.329384607541305
 30
0.0
 10
38.96016471188202
 20
-2.3198797275006
 30
0.0
  0
SPLINE
  5
153
330
1F
100
AcDbEntity
  8
외형선
  6
Continuous
 62
     1
370
    15
100
AcDbSpline
210
0.0
220
0.0
230
1.0
 70
     8
 71
     3
 72
     8
 73
     4
 74
     0
 42
0.000000001
 43
0.00000001
 40
0.0
 40
0.0
 40
0.0
 40
0.0
 40
1.0
 40
1.0
 40
1.0
 40
1.0
 10
38.960164711882
 20
-2.319879727500572
 30
0.0
 10
38.82967641455188
 20
-2.29063932484406
 30
0.0
 10
38.68533518759341
 20
-2.232702364861865
 30
0.0
 10
38.5397207490609
 20
-2.159327486648274
 30
0.0
  0
SPLINE
  5
154
330
1F
100
AcDbEntity
  8
외형선
  6
Continuous
 62
     1
370
    15
100
AcDbSpline
210
0.0
220
0.0
230
1.0
 70
     8
 71
     3
 72
     8
 73
     4
 74
     0
 42
0.000000001
 43
0.00000001
 40
0.0
 40
0.0
 40
0.0
 40
0.0
 40
1.0
 40
1.0
 40
1.0
 40
1.0
 10
38.53972076320951
 20
-2.159327495215971
 30
0.0
 10
38.39046179657083
 20
-2.068943588152228
 30
0.0
 10
38.2472790877431
 20
-1.967847631939357
 30
0.0
 10
38.12183971170327
 20
-1.863740093413002
 30
0.0
  0
SPLINE
  5
155
330
1F
100
AcDbEntity
  8
외형선
  6
Continuous
 62
     1
370
    15
100
AcDbSpline
210
0.0
220
0.0
230
1.0
 70
     8
 71
     3
 72
    10
 73
     6
 74
     0
 42
0.000000001
 43
0.00000001
 40
0.0
 40
0.0
 40
0.0
 40
0.0
 40
0.5
 40
0.5
 40
1.0
 40
1.0
 40
1.0
 40
1.0
 10
38.12183971170326
 20
-1.863740093413011
 30
0.0
 10
38.08270991378987
 20
-1.831264589528939
 30
0.0
 10
38.03771090481076
 20
-1.800750565689405
 30
0.0
 10
37.94408285296008
 20
-1.748856533572624
 30
0.0
 10
37.89577089500524
 20
-1.727795679712249
 30
0.0
 10
37.85311480825857
 20
-1.715361716108288
 30
0.0
  0
SPLINE
  5
156
330
1F
100
AcDbEntity
  8
외형선
  6
Continuous
 62
     1
370
    15
100
AcDbSpline
210
0.0
220
0.0
230
1.0
 70
     8
 71
     3
 72
    12
 73
     8
 74
     0
 42
0.000000001
 43
0.00000001
 40
0.0
 40
0.0
 40
0.0
 40
0.0
 40
0.5000000000000036
 40
0.5000000000000036
 40
0.7500000000000018
 40
0.7500000000000018
 40
1.0
 40
1.0
 40
1.0
 40
1.0
 10
37.85311480825855
 20
-1.715361716108281
 30
0.0
 10
37.6860201378752
 20
-1.666654738782846
 30
0.0
 10
37.50031534854031
 20
-1.577578327250881
 30
0.0
 10
37.22386645592707
 20
-1.419587314793659
 30
0.0
 10
37.13457625149169
 20
-1.364143701567811
 30
0.0
 10
36.96104117359323
 20
-1.24864698815223
 30
0.0
 10
36.8772762828935
 20
-1.188850552765607
 30
0.0
 10
36.80020616793414
 20
-1.129129329125564
 30
0.0
  0
SPLINE
  5
157
330
1F
100
AcDbEntity
  8
외형선
  6
Continuous
 62
     1
370
    15
100
AcDbSpline
210
0.0
220
0.0
230
1.0
 70
     8
 71
     3
 72
    10
 73
     6
 74
     0
 42
0.000000001
 43
0.00000001
 40
0.0
 40
0.0
 40
0.0
 40
0.0
 40
0.5
 40
0.5
 40
1.0
 40
1.0
 40
1.0
 40
1.0
 10
36.80020616793414
 20
-1.129129329125575
 30
0.0
 10
36.76086145266277
 20
-1.09864131777366
 30
0.0
 10
36.71575145465612
 20
-1.069003843476647
 30
0.0
 10
36.62210551423828
 20
-1.016538834686833
 30
0.0
 10
36.573884654145
 20
-0.993998648778552
 30
0.0
 10
36.53147645140601
 20
-0.9788301845204274
 30
0.0
  0
SPLINE
  5
158
330
1F
100
AcDbEntity
  8
외형선
  6
Continuous
 62
     1
370
    15
100
AcDbSpline
210
0.0
220
0.0
230
1.0
 70
     8
 71
     3
 72
     8
 73
     4
 74
     0
 42
0.000000001
 43
0.00000001
 40
0.0
 40
0.0
 40
0.0
 40
0.0
 40
1.0
 40
1.0
 40
1.0
 40
1.0
 10
36.53147645140599
 20
-0.9788301845204289
 30
0.0
 10
36.40101211450574
 20
-0.9321660133596721
 30
0.0
 10
36.25669338088186
 20
-0.8624452048372839
 30
0.0
 10
36.11109037385127
 20
-0.7832559975220453
 30
0.0
  0
SPLINE
  5
159
330
1F
100
AcDbEntity
  8
외형선
  6
Continuous
 62
     1
370
    15
100
AcDbSpline
210
0.0
220
0.0
230
1.0
 70
     8
 71
     3
 72
     8
 73
     4
 74
     0
 42
0.000000001
 43
0.00000001
 40
0.0
 40
0.0
 40
0.0
 40
0.0
 40
1.0
 40
1.0
 40
1.0
 40
1.0
 10
36.11109038799849
 20
-0.7832560060647403
 30
0.0
 10
35.96184049378051
 20
-0.6931345297305033
 30
0.0
 10
35.81865452536598
 20
-0.5987257784605681
 30
0.0
 10
35.69320063817759
 20
-0.5072463727429872
 30
0.0
  0
SPLINE
  5
15A
330
1F
100
AcDbEntity
  8
외형선
  6
Continuous
 62
     1
370
    15
100
AcDbSpline
210
0.0
220
0.0
230
1.0
 70
     8
 71
     3
 72
    10
 73
     6
 74
     0
 42
0.000000001
 43
0.00000001
 40
0.0
 40
0.0
 40
0.0
 40
0.0
 40
0.5
 40
0.5
 40
1.0
 40
1.0
 40
1.0
 40
1.0
 10
35.69320063817755
 20
-0.5072463727429416
 30
0.0
 10
35.6540651632253
 20
-0.4787092738029121
 30
0.0
 10
35.60905919551023
 20
-0.4499604931683229
 30
0.0
 10
35.51541613413669
 20
-0.397029180182573
 30
0.0
 10
35.46709544040086
 20
-0.3731065774730001
 30
0.0
 10
35.42443093682925
 20
-0.3553098039587922
 30
0.0
  0
SPLINE
  5
15B
330
1F
100
AcDbEntity
  8
외형선
  6
Continuous
 62
     1
370
    15
100
AcDbSpline
210
0.0
220
0.0
230
1.0
 70
     8
 71
     3
 72
    10
 73
     6
 74
     0
 42
0.000000001
 43
0.00000001
 40
0.0
 40
0.0
 40
0.0
 40
0.0
 40
0.5
 40
0.5
 40
1.0
 40
1.0
 40
1.0
 40
1.0
 10
34.37107876116355
 20
0.2407292072886202
 30
0.0
 10
34.33170677820576
 20
0.2669169310822705
 30
0.0
 10
34.28656865924421
 20
0.2944374949150577
 30
0.0
 10
34.19287956811056
 20
0.3473337363767803
 30
0.0
 10
34.1446307021302
 20
0.3724927686424744
 30
0.0
 10
34.10218929202037
 20
0.3928856860002393
 30
0.0
  0
SPLINE
  5
15C
330
1F
100
AcDbEntity
  8
외형선
  6
Continuous
 62
     1
370
    15
100
AcDbSpline
210
0.0
220
0.0
230
1.0
 70
     8
 71
     3
 72
    10
 73
     6
 74
     0
 42
0.000000001
 43
0.00000001
 40
0.0
 40
0.0
 40
0.0
 40
0.0
 40
0.5
 40
0.5
 40
1.0
 40
1.0
 40
1.0
 40
1.0
 10
33.26322763666517
 20
0.8658308279946922
 30
0.0
 10
33.22404399166834
 20
0.8895703278055538
 30
0.0
 10
33.17898799696088
 20
0.915690491460063
 30
0.0
 10
33.08526059618463
 20
0.9680688962598081
 30
0.0
 10
33.03689213680217
 20
0.9941415943773129
 30
0.0
 10
32.99417798980158
 20
1.016782222759173
 30
0.0
  0
SPLINE
  5
15D
330
1F
100
AcDbEntity
  8
외형선
  6
Continuous
 62
     1
370
    15
100
AcDbSpline
210
0.0
220
0.0
230
1.0
 70
     8
 71
     3
 72
    10
 73
     6
 74
     0
 42
0.000000001
 43
0.00000001
 40
0.0
 40
0.0
 40
0.0
 40
0.0
 40
0.5
 40
0.5
 40
1.0
 40
1.0
 40
1.0
 40
1.0
 10
31.94001390425447
 20
1.604188617888757
 30
0.0
 10
31.90061998885388
 20
1.625179190855037
 30
0.0
 10
31.85546437974773
 20
1.649653994508101
 30
0.0
 10
31.76176449656556
 20
1.701237458571597
 30
0.0
 10
31.71352327692312
 20
1.728202462103498
 30
0.0
 10
31.67108858113238
 20
1.753175520469782
 30
0.0
  0
SPLINE
  5
15E
330
1F
100
AcDbEntity
  8
외형선
  6
Continuous
 62
     1
370
    15
100
AcDbSpline
210
0.0
220
0.0
230
1.0
 70
     8
 71
     3
 72
    10
 73
     6
 74
     0
 42
0.000000001
 43
0.00000001
 40
0.0
 40
0.0
 40
0.0
 40
0.0
 40
0.5
 40
0.5
 40
1.0
 40
1.0
 40
1.0
 40
1.0
 10
30.83247175859356
 20
2.21232953219045
 30
0.0
 10
30.79333164922813
 20
2.230487312585445
 30
0.0
 10
30.74832150470337
 20
2.253120404174549
 30
0.0
 10
30.65466918600256
 20
2.303243391472325
 30
0.0
 10
30.60633923242744
 20
2.330615242326579
 30
0.0
 10
30.56366540612576
 20
2.357354962643841
 30
0.0
  0
SPLINE
  5
15F
330
1F
100
AcDbEntity
  8
외형선
  6
Continuous
 62
     1
370
    15
100
AcDbSpline
210
0.0
220
0.0
230
1.0
 70
     8
 71
     3
 72
    10
 73
     6
 74
     0
 42
0.000000001
 43
0.00000001
 40
0.0
 40
0.0
 40
0.0
 40
0.0
 40
0.5
 40
0.5
 40
1.0
 40
1.0
 40
1.0
 40
1.0
 10
29.51050986561224
 20
2.91707775037096
 30
0.0
 10
29.47115263595434
 20
2.932195611077733
 30
0.0
 10
29.42603271029728
 20
2.95282498117674
 30
0.0
 10
29.33238406177077
 20
3.001379358874351
 30
0.0
 10
29.28417212942104
 20
3.029226006274363
 30
0.0
 10
29.24177277674534
 20
3.057903435609046
 30
0.0
  0
SPLINE
  5
160
330
1F
100
AcDbEntity
  8
외형선
  6
Continuous
 62
     1
370
    15
100
AcDbSpline
210
0.0
220
0.0
230
1.0
 70
     8
 71
     3
 72
     8
 73
     4
 74
     0
 42
0.000000001
 43
0.00000001
 40
0.0
 40
0.0
 40
0.0
 40
0.0
 40
1.0
 40
1.0
 40
1.0
 40
1.0
 10
29.24177277674536
 20
3.057903435609013
 30
0.0
 10
29.11126652444804
 20
3.146173269741062
 30
0.0
 10
28.96700038245065
 20
3.237279603516801
 30
0.0
 10
28.82143754463411
 20
3.318950330324215
 30
0.0
  0
SPLINE
  5
161
330
1F
100
AcDbEntity
  8
외형선
  6
Continuous
 62
     1
370
    15
100
AcDbSpline
210
0.0
220
0.0
230
1.0
 70
     8
 71
     3
 72
     8
 73
     4
 74
     0
 42
0.000000001
 43
0.00000001
 40
0.0
 40
0.0
 40
0.0
 40
0.0
 40
1.0
 40
1.0
 40
1.0
 40
1.0
 10
28.82143755877918
 20
3.318950323391575
 30
0.0
 10
28.67225536798341
 20
3.392065878239093
 30
0.0
 10
28.52908868865529
 20
3.450197739761284
 30
0.0
 10
28.40363334261104
 20
3.488798131270682
 30
0.0
  0
SPLINE
  5
162
330
1F
100
AcDbEntity
  8
외형선
  6
Continuous
 62
     1
370
    15
100
AcDbSpline
210
0.0
220
0.0
230
1.0
 70
     8
 71
     3
 72
    10
 73
     6
 74
     0
 42
0.000000001
 43
0.00000001
 40
0.0
 40
0.0
 40
0.0
 40
0.0
 40
0.5
 40
0.5
 40
1.0
 40
1.0
 40
1.0
 40
1.0
 10
28.40363334261104
 20
3.488798131270715
 30
0.0
 10
28.36451232993313
 20
3.500834975081888
 30
0.0
 10
28.31952094526601
 20
3.519302454693257
 30
0.0
 10
28.2258998173025
 20
3.565653328383548
 30
0.0
 10
28.17758476018041
 20
3.593493998024421
 30
0.0
 10
28.13492391698332
 20
3.623520094792316
 30
0.0
  0
SPLINE
  5
163
330
1F
100
AcDbEntity
  8
외형선
  6
Continuous
 62
     1
370
    15
100
AcDbSpline
210
0.0
220
0.0
230
1.0
 70
     8
 71
     3
 72
    12
 73
     8
 74
     0
 42
0.000000001
 43
0.00000001
 40
0.0
 40
0.0
 40
0.0
 40
0.0
 40
0.4999999999999998
 40
0.4999999999999998
 40
0.7499999999999999
 40
0.7499999999999999
 40
1.0
 40
1.0
 40
1.0
 40
1.0
 10
28.13492391698334
 20
3.623520094792283
 30
0.0
 10
27.96790975725072
 20
3.741070123013075
 30
0.0
 10
27.78224644939226
 20
3.854920146006592
 30
0.0
 10
27.50570343320551
 20
3.992231242097027
 30
0.0
 10
27.41635671943939
 20
4.031348704811696
 30
0.0
 10
27.24272010723881
 20
4.096235148886199
 30
0.0
 10
27.1589364019552
 20
4.121648885982443
 30
0.0
 10
27.08186457014979
 20
4.138898990044778
 30
0.0
  0
SPLINE
  5
164
330
1F
100
AcDbEntity
  8
외형선
  6
Continuous
 62
     1
370
    15
100
AcDbSpline
210
0.0
220
0.0
230
1.0
 70
     8
 71
     3
 72
    10
 73
     6
 74
     0
 42
0.000000001
 43
0.00000001
 40
0.0
 40
0.0
 40
0.0
 40
0.0
 40
0.5
 40
0.5
 40
1.0
 40
1.0
 40
1.0
 40
1.0
 10
27.08186457014979
 20
4.138898990044778
 30
0.0
 10
27.04250153470565
 20
4.147709166755448
 30
0.0
 10
26.99737422323063
 20
4.163887987556476
 30
0.0
 10
26.90370733914881
 20
4.20796761528607
 30
0.0
 10
26.8554861617621
 20
4.235866891354757
 30
0.0
 10
26.81307980121938
 20
4.267389831984276
 30
0.0
  0
SPLINE
  5
165
330
1F
100
AcDbEntity
  8
외형선
  6
Continuous
 62
     1
370
    15
100
AcDbSpline
210
0.0
220
0.0
230
1.0
 70
     8
 71
     3
 72
     8
 73
     4
 74
     0
 42
0.000000001
 43
0.00000001
 40
0.0
 40
0.0
 40
0.0
 40
0.0
 40
1.0
 40
1.0
 40
1.0
 40
1.0
 10
26.81307980121937
 20
4.267389831984281
 30
0.0
 10
26.68254056537351
 20
4.364426704017834
 30
0.0
 10
26.53818273680557
 20
4.456942337052967
 30
0.0
 10
26.39263085078788
 20
4.534231320157963
 30
0.0
  0
SPLINE
  5
166
330
1F
100
AcDbEntity
  8
외형선
  6
Continuous
 62
     1
370
    15
100
AcDbSpline
210
0.0
220
0.0
230
1.0
 70
     8
 71
     3
 72
     8
 73
     4
 74
     0
 42
0.000000001
 43
0.00000001
 40
0.0
 40
0.0
 40
0.0
 40
0.0
 40
1.0
 40
1.0
 40
1.0
 40
1.0
 10
26.39263086493767
 20
4.534231314227974
 30
0.0
 10
26.24335629562099
 20
4.596790158006347
 30
0.0
 10
26.10017947545492
 20
4.638762140883153
 30
0.0
 10
25.97465048039741
 20
4.656611287644088
 30
0.0
  0
SPLINE
  5
167
330
1F
100
AcDbEntity
  8
외형선
  6
Continuous
 62
     1
370
    15
100
AcDbSpline
210
0.0
220
0.0
230
1.0
 70
     8
 71
     3
 72
    10
 73
     6
 74
     0
 42
0.000000001
 43
0.00000001
 40
0.0
 40
0.0
 40
0.0
 40
0.0
 40
0.5
 40
0.5
 40
1.0
 40
1.0
 40
1.0
 40
1.0
 10
25.97465048039742
 20
4.656611287644078
 30
0.0
 10
25.93550585150599
 20
4.662177318230602
 30
0.0
 10
25.89048991154415
 20
4.675930707809986
 30
0.0
 10
25.79683023105103
 20
4.717109672416498
 30
0.0
 10
25.74849078042099
 20
4.744573864028529
 30
0.0
 10
25.70580140663346
 20
4.776979752389884
 30
0.0
  0
SPLINE
  5
168
330
1F
100
AcDbEntity
  8
외형선
  6
Continuous
 62
     1
370
    15
100
AcDbSpline
210
0.0
220
0.0
230
1.0
 70
     8
 71
     3
 72
    12
 73
     8
 74
     0
 42
0.000000001
 43
0.00000001
 40
0.0
 40
0.0
 40
0.0
 40
0.0
 40
0.5000000000000021
 40
0.5000000000000021
 40
0.750000000000001
 40
0.750000000000001
 40
1.0
 40
1.0
 40
1.0
 40
1.0
 10
25.70580140663348
 20
4.776979752389843
 30
0.0
 10
25.53866791657061
 20
4.903852290913779
 30
0.0
 10
25.35288791230684
 20
5.0153949178544
 30
0.0
 10
25.07615116190477
 20
5.136286122092139
 30
0.0
 10
24.9867348490241
 20
5.167916442884626
 30
0.0
 10
24.81294973460192
 20
5.214027184806818
 30
0.0
 10
24.72907896465983
 20
5.22814609127503
 30
0.0
 10
24.65191517014171
 20
5.232554249576929
 30
0.0
  0
SPLINE
  5
169
330
1F
100
AcDbEntity
  8
외형선
  6
Continuous
 62
     1
370
    15
100
AcDbSpline
210
0.0
220
0.0
230
1.0
 70
     8
 71
     3
 72
    10
 73
     6
 74
     0
 42
0.000000001
 43
0.00000001
 40
0.0
 40
0.0
 40
0.0
 40
0.0
 40
0.5
 40
0.5
 40
1.0
 40
1.0
 40
1.0
 40
1.0
 10
24.65191517014171
 20
5.232554249576923
 30
0.0
 10
24.61250408466253
 20
5.234805698002015
 30
0.0
 10
24.56732657917244
 20
5.24605714378087
 30
0.0
 10
24.47357246667555
 20
5.28433768993748
 30
0.0
 10
24.42530291267018
 20
5.311446138144302
 30
0.0
 10
24.38284837585598
 20
5.34486832506652
 30
0.0
  0
SPLINE
  5
16A
330
1F
100
AcDbEntity
  8
외형선
  6
Continuous
 62
     1
370
    15
100
AcDbSpline
210
0.0
220
0.0
230
1.0
 70
     8
 71
     3
 72
     8
 73
     4
 74
     0
 42
0.000000001
 43
0.00000001
 40
0.0
 40
0.0
 40
0.0
 40
0.0
 40
1.0
 40
1.0
 40
1.0
 40
1.0
 10
24.38284837585599
 20
5.344868325066532
 30
0.0
 10
24.25218075161813
 20
5.447735959238889
 30
0.0
 10
24.10768601829604
 20
5.538911884342761
 30
0.0
 10
23.9619872808948
 20
5.609359526947275
 30
0.0
  0
SPLINE
  5
16B
330
1F
100
AcDbEntity
  8
외형선
  6
Continuous
 62
     1
370
    15
100
AcDbSpline
210
0.0
220
0.0
230
1.0
 70
     8
 71
     3
 72
     8
 73
     4
 74
     0
 42
0.000000001
 43
0.00000001
 40
0.0
 40
0.0
 40
0.0
 40
0.0
 40
1.0
 40
1.0
 40
1.0
 40
1.0
 10
23.96198729505866
 20
5.609359522213655
 30
0.0
 10
23.81255868960528
 20
5.659299379804892
 30
0.0
 10
23.66926159892739
 20
5.683597136800429
 30
0.0
 10
23.54367810866744
 20
5.680114423622121
 30
0.0
  0
SPLINE
  5
16C
330
1F
100
AcDbEntity
  8
외형선
  6
Continuous
 62
     1
370
    15
100
AcDbSpline
210
0.0
220
0.0
230
1.0
 70
     8
 71
     3
 72
    10
 73
     6
 74
     0
 42
0.000000001
 43
0.00000001
 40
0.0
 40
0.0
 40
0.0
 40
0.0
 40
0.5
 40
0.5
 40
1.0
 40
1.0
 40
1.0
 40
1.0
 10
23.54367810866741
 20
5.680114423622099
 30
0.0
 10
23.50451717528954
 20
5.67902840269317
 30
0.0
 10
23.45948670244173
 20
5.687628456665788
 30
0.0
 10
23.36580692318203
 20
5.72233527406076
 30
0.0
 10
23.31745129401628
 20
5.748559709891991
 30
0.0
 10
23.27474287690311
 20
5.782334395601988
 30
0.0
  0
SPLINE
  5
16D
330
1F
100
AcDbEntity
  8
외형선
  6
Continuous
 62
     1
370
    15
100
AcDbSpline
210
0.0
220
0.0
230
1.0
 70
     8
 71
     3
 72
    12
 73
     8
 74
     0
 42
0.000000001
 43
0.00000001
 40
0.0
 40
0.0
 40
0.0
 40
0.0
 40
0.500000000000002
 40
0.500000000000002
 40
0.750000000000001
 40
0.750000000000001
 40
1.0
 40
1.0
 40
1.0
 40
1.0
 10
23.27474287690313
 20
5.782334395601956
 30
0.0
 10
23.10766045385168
 20
5.914466577210898
 30
0.0
 10
22.92196615134549
 20
6.020160519079964
 30
0.0
 10
22.64529238785711
 20
6.120803871659334
 30
0.0
 10
22.55589203861173
 20
6.14394092041579
 30
0.0
 10
22.38213489194029
 20
6.169778131762324
 30
0.0
 10
22.29827960588548
 20
6.172117865489769
 30
0.0
 10
22.22114095012469
 20
6.163485150118527
 30
0.0
  0
SPLINE
  5
16E
330
1F
100
AcDbEntity
  8
외형선
  6
Continuous
 62
     1
370
    15
100
AcDbSpline
210
0.0
220
0.0
230
1.0
 70
     8
 71
     3
 72
    10
 73
     6
 74
     0
 42
0.000000001
 43
0.00000001
 40
0.0
 40
0.0
 40
0.0
 40
0.0
 40
0.5
 40
0.5
 40
1.0
 40
1.0
 40
1.0
 40
1.0
 10
22.22114095012473
 20
6.163485150118496
 30
0.0
 10
22.18177142162164
 20
6.159079240649176
 30
0.0
 10
22.13663735767765
 20
6.165019192104062
 30
0.0
 10
22.04295194584248
 20
6.19626270239799
 30
0.0
 10
21.99471889309791
 20
6.221718420045698
 30
0.0
 10
21.95230435535651
 20
6.255966631975144
 30
0.0
  0
SPLINE
  5
16F
330
1F
100
AcDbEntity
  8
외형선
  6
Continuous
 62
     1
370
    15
100
AcDbSpline
210
0.0
220
0.0
230
1.0
 70
     8
 71
     3
 72
     8
 73
     4
 74
     0
 42
0.000000001
 43
0.00000001
 40
0.0
 40
0.0
 40
0.0
 40
0.0
 40
1.0
 40
1.0
 40
1.0
 40
1.0
 10
21.95230435535648
 20
6.255966631975173
 30
0.0
 10
21.8217854983676
 20
6.361355909165889
 30
0.0
 10
21.67742755299381
 20
6.448305905517242
 30
0.0
 10
21.53183850242291
 20
6.509665266534581
 30
0.0
  0
SPLINE
  5
170
330
1F
100
AcDbEntity
  8
외형선
  6
Continuous
 62
     1
370
    15
100
AcDbSpline
210
0.0
220
0.0
230
1.0
 70
     8
 71
     3
 72
     8
 73
     4
 74
     0
 42
0.000000001
 43
0.00000001
 40
0.0
 40
0.0
 40
0.0
 40
0.0
 40
1.0
 40
1.0
 40
1.0
 40
1.0
 10
21.53183851657191
 20
6.509665263151297
 30
0.0
 10
21.3825525613616
 20
6.54536220449695
 30
0.0
 10
21.23938210769778
 20
6.551078837093684
 30
0.0
 10
21.11395879833999
 20
6.526176903142439
 30
0.0
  0
SPLINE
  5
171
330
1F
100
AcDbEntity
  8
외형선
  6
Continuous
 62
     1
370
    15
100
AcDbSpline
210
0.0
220
0.0
230
1.0
 70
     8
 71
     3
 72
    10
 73
     6
 74
     0
 42
0.000000001
 43
0.00000001
 40
0.0
 40
0.0
 40
0.0
 40
0.0
 40
0.5
 40
0.5
 40
1.0
 40
1.0
 40
1.0
 40
1.0
 10
21.11395879833998
 20
6.526176903142446
 30
0.0
 10
21.0748254855881
 20
6.518407253510088
 30
0.0
 10
21.02982558034964
 20
6.521536019292645
 30
0.0
 10
20.93621448944768
 20
6.54862543191657
 30
0.0
 10
20.88791264572515
 20
6.572773697456589
 30
0.0
 10
20.84525138352717
 20
6.606825319443649
 30
0.0
  0
SPLINE
  5
172
330
1F
100
AcDbEntity
  8
외형선
  6
Continuous
 62
     1
370
    15
100
AcDbSpline
210
0.0
220
0.0
230
1.0
 70
     8
 71
     3
 72
    12
 73
     8
 74
     0
 42
0.000000001
 43
0.00000001
 40
0.0
 40
0.0
 40
0.0
 40
0.0
 40
0.4999999999999982
 40
0.4999999999999982
 40
0.7499999999999991
 40
0.7499999999999991
 40
1.0
 40
1.0
 40
1.0
 40
1.0
 10
20.84525138352714
 20
6.606825319443675
 30
0.0
 10
20.67829987913918
 20
6.740083671979235
 30
0.0
 10
20.49273498012881
 20
6.836637017482163
 30
0.0
 10
20.21622389740921
 20
6.913878164102762
 30
0.0
 10
20.12687332479397
 20
6.927797057932489
 30
0.0
 10
19.95320792495525
 20
6.932568448429126
 30
0.0
 10
19.86939748665352
 20
6.923074295852035
 30
0.0
 10
19.79229982164384
 20
6.901707533284766
 30
0.0
  0
SPLINE
  5
173
330
1F
100
AcDbEntity
  8
외형선
  6
Continuous
 62
     1
370
    15
100
AcDbSpline
210
0.0
220
0.0
230
1.0
 70
     8
 71
     3
 72
     8
 73
     4
 74
     0
 42
0.000000001
 43
0.00000001
 40
0.0
 40
0.0
 40
0.0
 40
0.0
 40
1.0
 40
1.0
 40
1.0
 40
1.0
 10
19.79229982164388
 20
6.901707533284769
 30
0.0
 10
19.7136448712102
 20
6.87990918633813
 30
0.0
 10
19.60834270558939
 20
6.903560280545643
 30
0.0
 10
19.5235569108794
 20
6.971604632423514
 30
0.0
  0
SPLINE
  5
174
330
1F
100
AcDbEntity
  8
외형선
  6
Continuous
 62
     1
370
    15
100
AcDbSpline
210
0.0
220
0.0
230
1.0
 70
     8
 71
     3
 72
     8
 73
     4
 74
     0
 42
0.000000001
 43
0.00000001
 40
0.0
 40
0.0
 40
0.0
 40
0.0
 40
1.0
 40
1.0
 40
1.0
 40
1.0
 10
19.52355691087937
 20
6.971604632423539
 30
0.0
 10
19.39307808580058
 20
7.076319663009052
 30
0.0
 10
19.24874878839669
 20
7.156410938279044
 30
0.0
 10
19.10317218529651
 20
7.206858237606462
 30
0.0
  0
SPLINE
  5
175
330
1F
100
AcDbEntity
  8
외형선
  6
Continuous
 62
     1
370
    15
100
AcDbSpline
210
0.0
220
0.0
230
1.0
 70
     8
 71
     3
 72
     8
 73
     4
 74
     0
 42
0.000000001
 43
0.00000001
 40
0.0
 40
0.0
 40
0.0
 40
0.0
 40
1.0
 40
1.0
 40
1.0
 40
1.0
 10
19.10317219944348
 20
7.206858235668547
 30
0.0
 10
18.95390214626678
 20
7.227305992612954
 30
0.0
 10
18.81073767587505
 20
7.214400840476812
 30
0.0
 10
18.68531561685377
 20
7.16893613184607
 30
0.0
  0
SPLINE
  5
176
330
1F
100
AcDbEntity
  8
외형선
  6
Continuous
 62
     1
370
    15
100
AcDbSpline
210
0.0
220
0.0
230
1.0
 70
     8
 71
     3
 72
    10
 73
     6
 74
     0
 42
0.000000001
 43
0.00000001
 40
0.0
 40
0.0
 40
0.0
 40
0.0
 40
0.5
 40
0.5
 40
1.0
 40
1.0
 40
1.0
 40
1.0
 10
18.68531561685369
 20
7.168936131846047
 30
0.0
 10
18.64618032598091
 20
7.154749834709841
 30
0.0
 10
18.60117663434403
 20
7.152316922962418
 30
0.0
 10
18.50755156426131
 20
7.170923564718595
 30
0.0
 10
18.45924129599641
 20
7.1922152993141
 30
0.0
 10
18.41658115628377
 20
7.225467187987076
 30
0.0
  0
SPLINE
  5
177
330
1F
100
AcDbEntity
  8
외형선
  6
Continuous
 62
     1
370
    15
100
AcDbSpline
210
0.0
220
0.0
230
1.0
 70
     8
 71
     3
 72
    12
 73
     8
 74
     0
 42
0.000000001
 43
0.00000001
 40
0.0
 40
0.0
 40
0.0
 40
0.0
 40
0.5
 40
0.5
 40
0.75
 40
0.75
 40
1.0
 40
1.0
 40
1.0
 40
1.0
 10
18.41658115628376
 20
7.225467187987077
 30
0.0
 10
18.24950758302982
 20
7.3556944187336
 30
0.0
 10
18.06394908721654
 20
7.440106397761307
 30
0.0
 10
17.78740258916823
 20
7.491574183388312
 30
0.0
 10
17.69803471939527
 20
7.495858331983408
 30
0.0
 10
17.52432436127931
 20
7.479458475335719
 30
0.0
 10
17.44048092651361
 20
7.458452143134191
 30
0.0
 10
17.36334372779425
 20
7.425041477404463
 30
0.0
  0
SPLINE
  5
178
330
1F
100
AcDbEntity
  8
외형선
  6
Continuous
 62
     1
370
    15
100
AcDbSpline
210
0.0
220
0.0
230
1.0
 70
     8
 71
     3
 72
    10
 73
     6
 74
     0
 42
0.000000001
 43
0.00000001
 40
0.0
 40
0.0
 40
0.0
 40
0.0
 40
0.5
 40
0.5
 40
1.0
 40
1.0
 40
1.0
 40
1.0
 10
17.36334372779426
 20
7.425041477404482
 30
0.0
 10
17.3239695827556
 20
7.407987236128922
 30
0.0
 10
17.27882897691885
 20
7.40298362633739
 30
0.0
 10
17.18512987915107
 20
7.417586971407541
 30
0.0
 10
17.13688623868293
 20
7.437480186332409
 30
0.0
 10
17.09445889856693
 20
7.470248318380755
 30
0.0
  0
SPLINE
  5
179
330
1F
100
AcDbEntity
  8
외형선
  6
Continuous
 62
     1
370
    15
100
AcDbSpline
210
0.0
220
0.0
230
1.0
 70
     8
 71
     3
 72
     8
 73
     4
 74
     0
 42
0.000000001
 43
0.00000001
 40
0.0
 40
0.0
 40
0.0
 40
0.0
 40
1.0
 40
1.0
 40
1.0
 40
1.0
 10
17.09445889856693
 20
7.470248318380756
 30
0.0
 10
16.96390259001089
 20
7.571081562859757
 30
0.0
 10
16.8194918085207
 20
7.64184829166327
 30
0.0
 10
16.67382595182096
 20
7.679853197965879
 30
0.0
  0
SPLINE
  5
17A
330
1F
100
AcDbEntity
  8
외형선
  6
Continuous
 62
     1
370
    15
100
AcDbSpline
210
0.0
220
0.0
230
1.0
 70
     8
 71
     3
 72
     8
 73
     4
 74
     0
 42
0.000000001
 43
0.00000001
 40
0.0
 40
0.0
 40
0.0
 40
0.0
 40
1.0
 40
1.0
 40
1.0
 40
1.0
 10
16.67382596597871
 20
7.679853197529016
 30
0.0
 10
16.52444446195316
 20
7.684462582835915
 30
0.0
 10
16.3811526626407
 20
7.653392629088926
 30
0.0
 10
16.25558676985147
 20
7.588819955954823
 30
0.0
  0
SPLINE
  5
17B
330
1F
100
AcDbEntity
  8
외형선
  6
Continuous
 62
     1
370
    15
100
AcDbSpline
210
0.0
220
0.0
230
1.0
 70
     8
 71
     3
 72
    10
 73
     6
 74
     0
 42
0.000000001
 43
0.00000001
 40
0.0
 40
0.0
 40
0.0
 40
0.0
 40
0.5
 40
0.5
 40
1.0
 40
1.0
 40
1.0
 40
1.0
 10
16.25558676985148
 20
7.588819955954824
 30
0.0
 10
16.2164070994492
 20
7.56867168165684
 30
0.0
 10
16.17135673188807
 20
7.560769971192546
 30
0.0
 10
16.07764874553508
 20
7.570344273601656
 30
0.0
 10
16.02929343624935
 20
7.588130798857257
 30
0.0
 10
15.98658942495396
 20
7.619570200480657
 30
0.0
  0
SPLINE
  5
17C
330
1F
100
AcDbEntity
  8
외형선
  6
Continuous
 62
     1
370
    15
100
AcDbSpline
210
0.0
220
0.0
230
1.0
 70
     8
 71
     3
 72
    12
 73
     8
 74
     0
 42
0.000000001
 43
0.00000001
 40
0.0
 40
0.0
 40
0.0
 40
0.0
 40
0.5000000000000011
 40
0.5000000000000011
 40
0.7500000000000008
 40
0.7500000000000008
 40
1.0
 40
1.0
 40
1.0
 40
1.0
 10
15.98658942495396
 20
7.619570200480659
 30
0.0
 10
15.81929315556661
 20
7.742736489637543
 30
0.0
 10
15.6334556572842
 20
7.81221628659546
 30
0.0
 10
15.35677438022947
 20
7.836235143840249
 30
0.0
 10
15.26735320893462
 20
7.830738770007813
 30
0.0
 10
15.09352574928838
 20
7.793647856371209
 30
0.0
 10
15.00961044126677
 20
7.761763192234281
 30
0.0
 10
14.93240311677238
 20
7.71731140509362
 30
0.0
  0
SPLINE
  5
17D
330
1F
100
AcDbEntity
  8
외형선
  6
Continuous
 62
     1
370
    15
100
AcDbSpline
210
0.0
220
0.0
230
1.0
 70
     8
 71
     3
 72
    10
 73
     6
 74
     0
 42
0.000000001
 43
0.00000001
 40
0.0
 40
0.0
 40
0.0
 40
0.0
 40
0.5
 40
0.5
 40
1.0
 40
1.0
 40
1.0
 40
1.0
 10
14.9324031167724
 20
7.717311405093627
 30
0.0
 10
14.89301114630204
 20
7.694631646432556
 30
0.0
 10
14.84785402638412
 20
7.684297599890131
 30
0.0
 10
14.75412895550543
 20
7.689749230243776
 30
0.0
 10
14.70586699349272
 20
7.705875577540605
 30
0.0
 10
14.66342043884281
 20
7.736358015885846
 30
0.0
  0
SPLINE
  5
17E
330
1F
100
AcDbEntity
  8
외형선
  6
Continuous
 62
     1
370
    15
100
AcDbSpline
210
0.0
220
0.0
230
1.0
 70
     8
 71
     3
 72
     8
 73
     4
 74
     0
 42
0.000000001
 43
0.00000001
 40
0.0
 40
0.0
 40
0.0
 40
0.0
 40
1.0
 40
1.0
 40
1.0
 40
1.0
 10
14.66342043884284
 20
7.736358015885846
 30
0.0
 10
14.53285508860691
 20
7.830121815360673
 30
0.0
 10
14.38844133777103
 20
7.88935029091733
 30
0.0
 10
14.2427582809704
 20
7.913717401235343
 30
0.0
  0
SPLINE
  5
17F
330
1F
100
AcDbEntity
  8
외형선
  6
Continuous
 62
     1
370
    15
100
AcDbSpline
210
0.0
220
0.0
230
1.0
 70
     8
 71
     3
 72
     8
 73
     4
 74
     0
 42
0.000000001
 43
0.00000001
 40
0.0
 40
0.0
 40
0.0
 40
0.0
 40
1.0
 40
1.0
 40
1.0
 40
1.0
 10
14.24275829512684
 20
7.91371740231551
 30
0.0
 10
14.09342885178285
 20
7.902323232394764
 30
0.0
 10
13.95017129322203
 20
7.854048858912518
 30
0.0
 10
13.82465573624033
 20
7.7723482110545
 30
0.0
  0
SPLINE
  5
180
330
1F
100
AcDbEntity
  8
외형선
  6
Continuous
 62
     1
370
    15
100
AcDbSpline
210
0.0
220
0.0
230
1.0
 70
     8
 71
     3
 72
    10
 73
     6
 74
     0
 42
0.000000001
 43
0.00000001
 40
0.0
 40
0.0
 40
0.0
 40
0.0
 40
0.5
 40
0.5
 40
1.0
 40
1.0
 40
1.0
 40
1.0
 10
13.82465573624035
 20
7.772348211054516
 30
0.0
 10
13.78550665018974
 20
7.746865268777874
 30
0.0
 10
13.74048845580576
 20
7.733732781684087
 30
0.0
 10
13.64682910753058
 20
7.733974702314633
 30
0.0
 10
13.59849957135962
 20
7.747711276156697
 30
0.0
 10
13.55582571837523
 20
7.776351154183523
 30
0.0
  0
LINE
  5
181
330
1F
100
AcDbEntity
  8
외형선
  6
Continuous
 62
     1
370
    15
100
AcDbLine
 10
13.55582571837527
 20
7.776351154183518
 30
0.0
 11
13.49758454134789
 21
7.802291122593067
 31
0.0
  0
SPLINE
  5
182
330
1F
100
AcDbEntity
  8
외형선
  6
Continuous
 62
     1
370
    15
100
AcDbSpline
210
0.0
220
0.0
230
1.0
 70
     8
 71
     3
 72
    12
 73
     8
 74
     0
 42
0.000000001
 43
0.00000001
 40
0.0
 40
0.0
 40
0.0
 40
0.0
 40
0.5000000000000069
 40
0.5000000000000069
 40
0.7500000000000034
 40
0.7500000000000034
 40
1.0
 40
1.0
 40
1.0
 40
1.0
 10
50.60905447281714
 20
3.176159283367386
 30
0.0
 10
50.44209513521346
 20
3.289766438127403
 30
0.0
 10
50.25655315069136
 20
3.403902538487294
 30
0.0
 10
49.98005016195348
 20
3.546415115234564
 30
0.0
 10
49.89070101821681
 20
3.58802054929277
 30
0.0
 10
49.71703619694377
 20
3.659310200994744
 30
0.0
 10
49.63322437070081
 20
3.68864455983758
 30
0.0
 10
49.55612424898055
 20
3.71041314893001
 30
0.0
  0
SPLINE
  5
184
330
1F
100
AcDbEntity
  8
외형선
  6
Continuous
 62
     1
370
    15
100
AcDbSpline
210
0.0
220
0.0
230
1.0
 70
     8
 71
     3
 72
     8
 73
     4
 74
     0
 42
0.000000001
 43
0.00000001
 40
0.0
 40
0.0
 40
0.0
 40
0.0
 40
1.0
 40
1.0
 40
1.0
 40
1.0
 10
51.71601851231564
 20
2.594911519974974
 30
0.0
 10
51.58551712886455
 20
2.679076333779495
 30
0.0
 10
51.44117333436225
 20
2.768576146289731
 30
0.0
 10
51.29559361636046
 20
2.851012947781358
 30
0.0
  0
SPLINE
  5
185
330
1F
100
AcDbEntity
  8
외형선
  6
Continuous
 62
     1
370
    15
100
AcDbSpline
210
0.0
220
0.0
230
1.0
 70
     8
 71
     3
 72
    12
 73
     8
 74
     0
 42
0.000000001
 43
0.00000001
 40
0.0
 40
0.0
 40
0.0
 40
0.0
 40
0.4999999999999999
 40
0.4999999999999999
 40
0.7499999999999999
 40
0.7499999999999999
 40
1.0
 40
1.0
 40
1.0
 40
1.0
 10
26.90622796711823
 20
0.9363051393145123
 30
0.0
 10
27.07339572331486
 20
0.8751148775012508
 30
0.0
 10
27.25918048720761
 20
0.7793309550744284
 30
0.0
 10
27.53594556353464
 20
0.619742949953142
 30
0.0
 10
27.62537087359537
 20
0.5651943340114078
 30
0.0
 10
27.79916963380744
 20
0.4541425950340985
 30
0.0
 10
27.88304325395937
 20
0.3978836442973948
 30
0.0
 10
27.96019920528788
 20
0.3429387061367663
 30
0.0
  0
SPLINE
  5
186
330
1F
100
AcDbEntity
  8
외형선
  6
Continuous
 62
     1
370
    15
100
AcDbSpline
210
0.0
220
0.0
230
1.0
 70
     8
 71
     3
 72
     8
 73
     4
 74
     0
 42
0.000000001
 43
0.00000001
 40
0.0
 40
0.0
 40
0.0
 40
0.0
 40
1.0
 40
1.0
 40
1.0
 40
1.0
 10
51.2955936305575
 20
2.851012940529262
 30
0.0
 10
51.14632093941997
 20
2.927259366902821
 30
0.0
 10
51.0031614792438
 20
2.990859069249233
 30
0.0
 10
50.87774924366365
 20
3.03682469043354
 30
0.0
  0
SPLINE
  5
187
330
1F
100
AcDbEntity
  8
외형선
  6
Continuous
 62
     1
370
    15
100
AcDbSpline
210
0.0
220
0.0
230
1.0
 70
     8
 71
     3
 72
    12
 73
     8
 74
     0
 42
0.000000001
 43
0.00000001
 40
0.0
 40
0.0
 40
0.0
 40
0.0
 40
0.4999999999999996
 40
0.4999999999999996
 40
0.7499999999999998
 40
0.7499999999999998
 40
1.0
 40
1.0
 40
1.0
 40
1.0
 10
14.15056267525517
 20
-3.879739275533137
 30
0.0
 10
14.31777581472824
 20
-3.9996351586391
 30
0.0
 10
14.50360800908816
 20
-4.113343872971911
 30
0.0
 10
14.78033390956705
 20
-4.247648243216459
 30
0.0
 10
14.86973321366204
 20
-4.285324723791399
 30
0.0
 10
15.04346206144194
 20
-4.346491870398382
 30
0.0
 10
15.12729165327867
 20
-4.369626581893759
 30
0.0
 10
15.20440529113152
 20
-4.384239032545554
 30
0.0
  0
SPLINE
  5
188
330
1F
100
AcDbEntity
  8
외형선
  6
Continuous
 62
     1
370
    15
100
AcDbSpline
210
0.0
220
0.0
230
1.0
 70
     8
 71
     3
 72
    12
 73
     8
 74
     0
 42
0.000000001
 43
0.00000001
 40
0.0
 40
0.0
 40
0.0
 40
0.0
 40
0.5000000000000003
 40
0.5000000000000003
 40
0.7500000000000001
 40
0.7500000000000001
 40
1.0
 40
1.0
 40
1.0
 40
1.0
 10
15.37898825327723
 20
-1.226805646620498
 30
0.0
 10
15.21203005731309
 20
-1.170013561050036
 30
0.0
 10
15.02644949474374
 20
-1.076550156297429
 30
0.0
 10
14.74992872243507
 20
-0.9174349562228524
 30
0.0
 10
14.66057620940304
 20
-0.8625430521957881
 30
0.0
 10
14.48690830916128
 20
-0.7498348018416052
 30
0.0
 10
14.40309707230471
 20
-0.6922557079800384
 30
0.0
 10
14.32599703325934
 20
-0.6355262755100186
 30
0.0
  0
SPLINE
  5
189
330
1F
100
AcDbEntity
  8
외형선
  6
Continuous
 62
     1
370
    15
100
AcDbSpline
210
0.0
220
0.0
230
1.0
 70
     8
 71
     3
 72
     8
 73
     4
 74
     0
 42
0.000000001
 43
0.00000001
 40
0.0
 40
0.0
 40
0.0
 40
0.0
 40
1.0
 40
1.0
 40
1.0
 40
1.0
 10
28.64964305138323
 20
-0.021926308749402
 30
0.0
 10
28.79895409722001
 20
-0.1108420502775306
 30
0.0
 10
28.94211661305586
 20
-0.2004266381383947
 30
0.0
 10
29.0675896664048
 20
-0.283607897593084
 30
0.0
  0
SPLINE
  5
18A
330
1F
100
AcDbEntity
  8
외형선
  6
Continuous
 62
     1
370
    15
100
AcDbSpline
210
0.0
220
0.0
230
1.0
 70
     8
 71
     3
 72
    12
 73
     8
 74
     0
 42
0.000000001
 43
0.00000001
 40
0.0
 40
0.0
 40
0.0
 40
0.0
 40
0.5
 40
0.5
 40
0.75
 40
0.75
 40
1.0
 40
1.0
 40
1.0
 40
1.0
 10
28.82143754463412
 20
3.318950330324252
 30
0.0
 10
28.7918565848468
 20
2.791503987352374
 30
0.0
 10
28.76239582704608
 20
2.237947025470065
 30
0.0
 10
28.71991067616973
 20
1.398892382706787
 30
0.0
 10
28.70626718691065
 20
1.119371880774929
 30
0.0
 10
28.67838061220223
 20
0.553159735586668
 30
0.0
 10
28.66411465467926
 20
0.2662774175598925
 30
0.0
 10
28.64964305140762
 20
-0.0219263087650345
 30
0.0
  0
SPLINE
  5
18B
330
1F
100
AcDbEntity
  8
외형선
  6
Continuous
370
    15
100
AcDbSpline
210
0.0
220
0.0
230
1.0
 70
     8
 71
     3
 72
     8
 73
     4
 74
     0
 42
0.000000001
 43
0.00000001
 40
0.0
 40
0.0
 40
0.0
 40
0.0
 40
1.0
 40
1.0
 40
1.0
 40
1.0
 10
11.31529726497391
 20
1.059756729524821
 30
0.0
 10
11.21016129330263
 20
1.119577756334038
 30
0.0
 10
11.10506224561347
 20
1.17945729169912
 30
0.0
 10
11.0
 20
1.239395068072124
 30
0.0
  0
SPLINE
  5
18C
330
1F
100
AcDbEntity
  8
외형선
  6
Continuous
370
    15
100
AcDbSpline
210
0.0
220
0.0
230
1.0
 70
     8
 71
     3
 72
     8
 73
     4
 74
     0
 42
0.000000001
 43
0.00000001
 40
0.0
 40
0.0
 40
0.0
 40
0.0
 40
1.0
 40
1.0
 40
1.0
 40
1.0
 10
11.0
 20
1.239395068072098
 30
0.0
 10
10.31507089740236
 20
1.629563461835494
 30
0.0
 10
9.635389948186791
 20
2.014143339759792
 30
0.0
 10
8.950077405443878
 20
2.390890024751938
 30
0.0
  0
SPLINE
  5
18D
330
1F
100
AcDbEntity
  8
외형선
  6
Continuous
370
    15
100
AcDbSpline
210
0.0
220
0.0
230
1.0
 70
     8
 71
     3
 72
     8
 73
     4
 74
     0
 42
0.000000001
 43
0.00000001
 40
0.0
 40
0.0
 40
0.0
 40
0.0
 40
1.0
 40
1.0
 40
1.0
 40
1.0
 10
11.00000000000001
 20
7.607117515343269
 30
0.0
 10
10.31507089740237
 20
7.720073096110696
 30
0.0
 10
9.635389948186797
 20
7.80453311190044
 30
0.0
 10
8.950077405443874
 20
7.859989360801918
 30
0.0
  0
SPLINE
  5
18E
330
1F
100
AcDbEntity
  8
외형선
  6
Continuous
370
    15
100
AcDbSpline
210
0.0
220
0.0
230
1.0
 70
     8
 71
     3
 72
     8
 73
     4
 74
     0
 42
0.000000001
 43
0.00000001
 40
0.0
 40
0.0
 40
0.0
 40
0.0
 40
1.0
 40
1.0
 40
1.0
 40
1.0
 10
11.0
 20
7.607117515343296
 30
0.0
 10
11.28692701679019
 20
7.541661078501897
 30
0.0
 10
11.5740387500551
 20
7.47139562975663
 30
0.0
 10
11.86134717251915
 20
7.39638900118371
 30
0.0
  0
SPLINE
  5
18F
330
1F
100
AcDbEntity
  8
외형선
  6
Continuous
370
    15
100
AcDbSpline
210
0.0
220
0.0
230
1.0
 70
     8
 71
     3
 72
     8
 73
     4
 74
     0
 42
0.000000001
 43
0.00000001
 40
0.0
 40
0.0
 40
0.0
 40
0.0
 40
1.0
 40
1.0
 40
1.0
 40
1.0
 10
11.86134717251916
 20
7.396389001183779
 30
0.0
 10
11.93092525161844
 20
7.356354037407772
 30
0.0
 10
11.99756057233907
 20
7.308420363835605
 30
0.0
 10
12.05978130042341
 20
7.253337808616208
 30
0.0
  0
SPLINE
  5
190
330
1F
100
AcDbEntity
  8
외형선
  6
Continuous
 62
     1
370
    15
100
AcDbSpline
210
0.0
220
0.0
230
1.0
 70
     8
 71
     3
 72
    10
 73
     6
 74
     0
 42
0.000000001
 43
0.00000001
 40
0.0
 40
0.0
 40
0.0
 40
0.0
 40
0.5
 40
0.5
 40
1.0
 40
1.0
 40
1.0
 40
1.0
 10
12.05978130042343
 20
7.253337808616211
 30
0.0
 10
12.09891814262428
 20
7.218690877633356
 30
0.0
 10
12.14392331695151
 20
7.195157318196626
 30
0.0
 10
12.23755566049646
 20
7.173967398867545
 30
0.0
 10
12.28586997816475
 20
7.176743299861487
 30
0.0
 10
12.32853098491958
 20
7.195504896887166
 30
0.0
  0
SPLINE
  5
191
330
1F
100
AcDbEntity
  8
외형선
  6
Continuous
 62
     1
370
    15
100
AcDbSpline
210
0.0
220
0.0
230
1.0
 70
     8
 71
     3
 72
    12
 73
     8
 74
     0
 42
0.000000001
 43
0.00000001
 40
0.0
 40
0.0
 40
0.0
 40
0.0
 40
0.4999999999999998
 40
0.4999999999999998
 40
0.7499999999999999
 40
0.7499999999999999
 40
1.0
 40
1.0
 40
1.0
 40
1.0
 10
12.32853098491928
 20
7.195504896886213
 30
0.0
 10
12.49560782420841
 20
7.268982495506439
 30
0.0
 10
12.68120166174442
 20
7.275996254319449
 30
0.0
 10
12.9576114146582
 20
7.207316482549951
 30
0.0
 10
13.04693923155267
 20
7.171860222837213
 30
0.0
 10
13.2205764414518
 20
7.07704039748749
 30
0.0
 10
13.30438490868115
 20
7.017563489721248
 30
0.0
 10
13.38148638756786
 20
6.947847120144123
 30
0.0
  0
SPLINE
  5
192
330
1F
100
AcDbEntity
  8
외형선
  6
Continuous
 62
     1
370
    15
100
AcDbSpline
210
0.0
220
0.0
230
1.0
 70
     8
 71
     3
 72
    10
 73
     6
 74
     0
 42
0.000000001
 43
0.00000001
 40
0.0
 40
0.0
 40
0.0
 40
0.0
 40
0.5
 40
0.5
 40
1.0
 40
1.0
 40
1.0
 40
1.0
 10
13.38148638756759
 20
6.947847120144369
 30
0.0
 10
13.42083333795056
 20
6.912268988904346
 30
0.0
 10
13.46594554107588
 20
6.887272648076488
 30
0.0
 10
13.55959727300435
 20
6.862465788441986
 30
0.0
 10
13.60781726955566
 20
6.863097004667579
 30
0.0
 10
13.650221127594
 20
6.879579355188968
 30
0.0
  0
SPLINE
  5
193
330
1F
100
AcDbEntity
  8
외형선
  6
Continuous
 62
     1
370
    15
100
AcDbSpline
210
0.0
220
0.0
230
1.0
 70
     8
 71
     3
 72
     8
 73
     4
 74
     0
 42
0.000000001
 43
0.00000001
 40
0.0
 40
0.0
 40
0.0
 40
0.0
 40
1.0
 40
1.0
 40
1.0
 40
1.0
 10
13.65022112759407
 20
6.879579355188816
 30
0.0
 10
13.78068501293306
 20
6.930290577893937
 30
0.0
 10
13.92500464771126
 20
6.939864558510251
 30
0.0
 10
14.07059606559221
 20
6.915597488231314
 30
0.0
  0
SPLINE
  5
194
330
1F
100
AcDbEntity
  8
외형선
  6
Continuous
 62
     1
370
    15
100
AcDbSpline
210
0.0
220
0.0
230
1.0
 70
     8
 71
     3
 72
     8
 73
     4
 74
     0
 42
0.000000001
 43
0.00000001
 40
0.0
 40
0.0
 40
0.0
 40
0.0
 40
1.0
 40
1.0
 40
1.0
 40
1.0
 10
14.07059606556479
 20
6.915597488241946
 30
0.0
 10
14.21984523395154
 20
6.85594871227832
 30
0.0
 10
14.36301343425717
 20
6.763699105775883
 30
0.0
 10
14.48844114649019
 20
6.645740504413583
 30
0.0
  0
SPLINE
  5
195
330
1F
100
AcDbEntity
  8
외형선
  6
Continuous
 62
     1
370
    15
100
AcDbSpline
210
0.0
220
0.0
230
1.0
 70
     8
 71
     3
 72
    10
 73
     6
 74
     0
 42
0.000000001
 43
0.00000001
 40
0.0
 40
0.0
 40
0.0
 40
0.0
 40
0.5
 40
0.5
 40
1.0
 40
1.0
 40
1.0
 40
1.0
 10
14.48844114649022
 20
6.645740504413553
 30
0.0
 10
14.5275715982732
 20
6.608940236906317
 30
0.0
 10
14.57257164502878
 20
6.582130683722708
 30
0.0
 10
14.66620078773102
 20
6.552756074863276
 30
0.0
 10
14.7145129984638
 20
6.550633132074845
 30
0.0
 10
14.75717006426893
 20
6.564123161546665
 30
0.0
  0
SPLINE
  5
196
330
1F
100
AcDbEntity
  8
외형선
  6
Continuous
 62
     1
370
    15
100
AcDbSpline
210
0.0
220
0.0
230
1.0
 70
     8
 71
     3
 72
    12
 73
     8
 74
     0
 42
0.000000001
 43
0.00000001
 40
0.0
 40
0.0
 40
0.0
 40
0.0
 40
0.4999999999999987
 40
0.4999999999999987
 40
0.7499999999999993
 40
0.7499999999999993
 40
1.0
 40
1.0
 40
1.0
 40
1.0
 10
14.75717006426893
 20
6.564123161546674
 30
0.0
 10
14.92429458942902
 20
6.616975244251403
 30
0.0
 10
15.11002910421859
 20
6.603937861767609
 30
0.0
 10
15.38650852724483
 20
6.510842188813752
 30
0.0
 10
15.47580312292716
 20
6.468363361983887
 30
0.0
 10
15.64938828257054
 20
6.361875055917848
 30
0.0
 10
15.73317979620642
 20
6.297812341694094
 30
0.0
 10
15.81027749837362
 20
6.224957798496825
 30
0.0
  0
SPLINE
  5
197
330
1F
100
AcDbEntity
  8
외형선
  6
Continuous
 62
     1
370
    15
100
AcDbSpline
210
0.0
220
0.0
230
1.0
 70
     8
 71
     3
 72
    10
 73
     6
 74
     0
 42
0.000000001
 43
0.00000001
 40
0.0
 40
0.0
 40
0.0
 40
0.0
 40
0.5
 40
0.5
 40
1.0
 40
1.0
 40
1.0
 40
1.0
 10
15.81027749837361
 20
6.224957798496828
 30
0.0
 10
15.84963979090276
 20
6.187761854119801
 30
0.0
 10
15.89476817544043
 20
6.159860042654436
 30
0.0
 10
15.98844494025448
 20
6.127203387287206
 30
0.0
 10
16.03668200129605
 20
6.12288689725351
 30
0.0
 10
16.07910664249813
 20
6.133810026459964
 30
0.0
  0
SPLINE
  5
198
330
1F
100
AcDbEntity
  8
외형선
  6
Continuous
 62
     1
370
    15
100
AcDbSpline
210
0.0
220
0.0
230
1.0
 70
     8
 71
     3
 72
     8
 73
     4
 74
     0
 42
0.000000001
 43
0.00000001
 40
0.0
 40
0.0
 40
0.0
 40
0.0
 40
1.0
 40
1.0
 40
1.0
 40
1.0
 10
16.07910664249814
 20
6.133810026459996
 30
0.0
 10
16.20962933375229
 20
6.167415878638029
 30
0.0
 10
16.35400681963651
 20
6.160633786811316
 30
0.0
 10
16.49966250839719
 20
6.122697324684623
 30
0.0
  0
SPLINE
  5
199
330
1F
100
AcDbEntity
  8
외형선
  6
Continuous
 62
     1
370
    15
100
AcDbSpline
210
0.0
220
0.0
230
1.0
 70
     8
 71
     3
 72
     8
 73
     4
 74
     0
 42
0.000000001
 43
0.00000001
 40
0.0
 40
0.0
 40
0.0
 40
0.0
 40
1.0
 40
1.0
 40
1.0
 40
1.0
 10
16.4996625083728
 20
6.122697324696188
 30
0.0
 10
16.64899553181566
 20
6.051943186111248
 30
0.0
 10
16.79226368061964
 20
5.952208302582632
 30
0.0
 10
16.91780937567125
 20
5.830964964061394
 30
0.0
  0
SPLINE
  5
19A
330
1F
100
AcDbEntity
  8
외형선
  6
Continuous
 62
     1
370
    15
100
AcDbSpline
210
0.0
220
0.0
230
1.0
 70
     8
 71
     3
 72
    10
 73
     6
 74
     0
 42
0.000000001
 43
0.00000001
 40
0.0
 40
0.0
 40
0.0
 40
0.0
 40
0.5
 40
0.5
 40
1.0
 40
1.0
 40
1.0
 40
1.0
 10
16.91780937567128
 20
5.830964964061359
 30
0.0
 10
16.95697608608208
 20
5.793140467354015
 30
0.0
 10
17.00201424492526
 20
5.76387441847073
 30
0.0
 10
17.09570974739268
 20
5.727199301196101
 30
0.0
 10
17.14405900717913
 20
5.720221798162187
 30
0.0
 10
17.18675350239797
 20
5.728010760434927
 30
0.0
  0
SPLINE
  5
19B
330
1F
100
AcDbEntity
  8
외형선
  6
Continuous
 62
     1
370
    15
100
AcDbSpline
210
0.0
220
0.0
230
1.0
 70
     8
 71
     3
 72
    12
 73
     8
 74
     0
 42
0.000000001
 43
0.00000001
 40
0.0
 40
0.0
 40
0.0
 40
0.0
 40
0.4999999999999996
 40
0.4999999999999996
 40
0.7499999999999998
 40
0.7499999999999998
 40
1.0
 40
1.0
 40
1.0
 40
1.0
 10
17.18675350239799
 20
5.728010760434891
 30
0.0
 10
17.35405106153635
 20
5.758531659435373
 30
0.0
 10
17.5399815817328
 20
5.725746348775418
 30
0.0
 10
17.81676715446161
 20
5.611160584516393
 30
0.0
 10
17.90618079238371
 20
5.563044436097964
 30
0.0
 10
18.07993594140902
 20
5.448226816139219
 30
0.0
 10
18.16377594768349
 20
5.381523571316427
 30
0.0
 10
18.24092849918499
 20
5.307740827048113
 30
0.0
  0
SPLINE
  5
19C
330
1F
100
AcDbEntity
  8
외형선
  6
Continuous
 62
     1
370
    15
100
AcDbSpline
210
0.0
220
0.0
230
1.0
 70
     8
 71
     3
 72
    10
 73
     6
 74
     0
 42
0.000000001
 43
0.00000001
 40
0.0
 40
0.0
 40
0.0
 40
0.0
 40
0.5
 40
0.5
 40
1.0
 40
1.0
 40
1.0
 40
1.0
 10
18.24092849918495
 20
5.307740827048137
 30
0.0
 10
18.28032738916759
 20
5.270062770166399
 30
0.0
 10
18.32549108559514
 20
5.240095776349809
 30
0.0
 10
18.41922242471811
 20
5.200550761790682
 30
0.0
 10
18.46749503955546
 20
5.191389584999397
 30
0.0
 10
18.50995839978504
 20
5.196390631887796
 30
0.0
  0
SPLINE
  5
19D
330
1F
100
AcDbEntity
  8
외형선
  6
Continuous
 62
     1
370
    15
100
AcDbSpline
210
0.0
220
0.0
230
1.0
 70
     8
 71
     3
 72
     8
 73
     4
 74
     0
 42
0.000000001
 43
0.00000001
 40
0.0
 40
0.0
 40
0.0
 40
0.0
 40
1.0
 40
1.0
 40
1.0
 40
1.0
 10
18.50995839978504
 20
5.196390631887813
 30
0.0
 10
18.64054464967465
 20
5.211770195708186
 30
0.0
 10
18.78497203875286
 20
5.188796362577015
 30
0.0
 10
18.9306863007032
 20
5.138328236421744
 30
0.0
  0
SPLINE
  5
19E
330
1F
100
AcDbEntity
  8
외형선
  6
Continuous
 62
     1
370
    15
100
AcDbSpline
210
0.0
220
0.0
230
1.0
 70
     8
 71
     3
 72
     8
 73
     4
 74
     0
 42
0.000000001
 43
0.00000001
 40
0.0
 40
0.0
 40
0.0
 40
0.0
 40
1.0
 40
1.0
 40
1.0
 40
1.0
 10
18.93068630067742
 20
5.138328236435466
 30
0.0
 10
19.08002131042592
 20
5.05866177744875
 30
0.0
 10
19.22331294542407
 20
4.954552773896934
 30
0.0
 10
19.34887386318462
 20
4.833801802784999
 30
0.0
  0
SPLINE
  5
19F
330
1F
100
AcDbEntity
  8
외형선
  6
Continuous
 62
     1
370
    15
100
AcDbSpline
210
0.0
220
0.0
230
1.0
 70
     8
 71
     3
 72
    10
 73
     6
 74
     0
 42
0.000000001
 43
0.00000001
 40
0.0
 40
0.0
 40
0.0
 40
0.0
 40
0.5
 40
0.5
 40
1.0
 40
1.0
 40
1.0
 40
1.0
 10
19.34887386318466
 20
4.833801802784906
 30
0.0
 10
19.38802889494125
 20
4.796146709202812
 30
0.0
 10
19.43305381647428
 20
4.765344141656707
 30
0.0
 10
19.52672933394601
 20
4.722525774132706
 30
0.0
 10
19.57506983034891
 20
4.710924230822831
 30
0.0
 10
19.6177535077094
 20
4.712774223873781
 30
0.0
  0
SPLINE
  5
1A0
330
1F
100
AcDbEntity
  8
외형선
  6
Continuous
 62
     1
370
    15
100
AcDbSpline
210
0.0
220
0.0
230
1.0
 70
     8
 71
     3
 72
    12
 73
     8
 74
     0
 42
0.000000001
 43
0.00000001
 40
0.0
 40
0.0
 40
0.0
 40
0.0
 40
0.5
 40
0.5
 40
0.75
 40
0.75
 40
1.0
 40
1.0
 40
1.0
 40
1.0
 10
19.61775350770941
 20
4.712774223873747
 30
0.0
 10
19.78488322154788
 20
4.720017948602459
 30
0.0
 10
19.97063983531804
 20
4.668693055247707
 30
0.0
 10
20.24724232248005
 20
4.536440314335596
 30
0.0
 10
20.33659900978982
 20
4.484261865183133
 30
0.0
 10
20.51024085419628
 20
4.36488567850089
 30
0.0
 10
20.59402254254264
 20
4.297765774179758
 30
0.0
 10
20.6710896748703
 20
4.225471090467625
 30
0.0
  0
SPLINE
  5
1A1
330
1F
100
AcDbEntity
  8
외형선
  6
Continuous
 62
     1
370
    15
100
AcDbSpline
210
0.0
220
0.0
230
1.0
 70
     8
 71
     3
 72
    10
 73
     6
 74
     0
 42
0.000000001
 43
0.00000001
 40
0.0
 40
0.0
 40
0.0
 40
0.0
 40
0.5
 40
0.5
 40
1.0
 40
1.0
 40
1.0
 40
1.0
 10
20.67108967487023
 20
4.225471090467694
 30
0.0
 10
20.7104527803687
 20
4.188545579215504
 30
0.0
 10
20.75557713082883
 20
4.157510078400326
 30
0.0
 10
20.84922418060532
 20
4.11239950474958
 30
0.0
 10
20.89743530060531
 20
4.098714050520262
 30
0.0
 10
20.93984619333171
 20
4.097644614146001
 30
0.0
  0
SPLINE
  5
1A2
330
1F
100
AcDbEntity
  8
외형선
  6
Continuous
 62
     1
370
    15
100
AcDbSpline
210
0.0
220
0.0
230
1.0
 70
     8
 71
     3
 72
     8
 73
     4
 74
     0
 42
0.000000001
 43
0.00000001
 40
0.0
 40
0.0
 40
0.0
 40
0.0
 40
1.0
 40
1.0
 40
1.0
 40
1.0
 10
20.93984619333175
 20
4.097644614145997
 30
0.0
 10
21.0703122341197
 20
4.094354772299848
 30
0.0
 10
21.21461874568735
 20
4.055954077015714
 30
0.0
 10
21.36022647818297
 20
3.994568396319704
 30
0.0
  0
SPLINE
  5
1A3
330
1F
100
AcDbEntity
  8
외형선
  6
Continuous
 62
     1
370
    15
100
AcDbSpline
210
0.0
220
0.0
230
1.0
 70
     8
 71
     3
 72
     8
 73
     4
 74
     0
 42
0.000000001
 43
0.00000001
 40
0.0
 40
0.0
 40
0.0
 40
0.0
 40
1.0
 40
1.0
 40
1.0
 40
1.0
 10
21.36022647815716
 20
3.994568396334535
 30
0.0
 10
21.50943822712226
 20
3.908493357546858
 30
0.0
 10
21.65261559560478
 20
3.803272257630086
 30
0.0
 10
21.77806826375074
 20
3.686833816663444
 30
0.0
  0
SPLINE
  5
1A4
330
1F
100
AcDbEntity
  8
외형선
  6
Continuous
 62
     1
370
    15
100
AcDbSpline
210
0.0
220
0.0
230
1.0
 70
     8
 71
     3
 72
    10
 73
     6
 74
     0
 42
0.000000001
 43
0.00000001
 40
0.0
 40
0.0
 40
0.0
 40
0.0
 40
0.5
 40
0.5
 40
1.0
 40
1.0
 40
1.0
 40
1.0
 10
21.77806826375072
 20
3.6868338166635
 30
0.0
 10
21.81719220717188
 20
3.650521069842303
 30
0.0
 10
21.86218635201794
 20
3.619146300133353
 30
0.0
 10
21.95581254713955
 20
3.571528013573253
 30
0.0
 10
22.00412732707833
 20
3.555670870094062
 30
0.0
 10
22.0467856857551
 20
3.551527470140523
 30
0.0
  0
SPLINE
  5
1A5
330
1F
100
AcDbEntity
  8
외형선
  6
Continuous
 62
     1
370
    15
100
AcDbSpline
210
0.0
220
0.0
230
1.0
 70
     8
 71
     3
 72
    12
 73
     8
 74
     0
 42
0.000000001
 43
0.00000001
 40
0.0
 40
0.0
 40
0.0
 40
0.0
 40
0.4999999999999998
 40
0.4999999999999998
 40
0.7499999999999999
 40
0.7499999999999999
 40
1.0
 40
1.0
 40
1.0
 40
1.0
 10
22.04678568575512
 20
3.551527470140459
 30
0.0
 10
22.21381780730187
 20
3.535303665331176
 30
0.0
 10
22.399496500811
 20
3.466968655997238
 30
0.0
 10
22.67601863117367
 20
3.321085156096737
 30
0.0
 10
22.76535284795445
 20
3.266444269968906
 30
0.0
 10
22.93895638032809
 20
3.146199012167368
 30
0.0
 10
23.02271903135723
 20
3.080735782725328
 30
0.0
 10
23.09976930321883
 20
3.012186102954524
 30
0.0
  0
SPLINE
  5
1A6
330
1F
100
AcDbEntity
  8
외형선
  6
Continuous
 62
     1
370
    15
100
AcDbSpline
210
0.0
220
0.0
230
1.0
 70
     8
 71
     3
 72
    10
 73
     6
 74
     0
 42
0.000000001
 43
0.00000001
 40
0.0
 40
0.0
 40
0.0
 40
0.0
 40
0.5
 40
0.5
 40
1.0
 40
1.0
 40
1.0
 40
1.0
 10
23.09976930321881
 20
3.012186102954586
 30
0.0
 10
23.13912674016202
 20
2.977170785891171
 30
0.0
 10
23.18424717658314
 20
2.946046868686756
 30
0.0
 10
23.27789558992315
 20
2.896840721916806
 30
0.0
 10
23.32610729059896
 20
2.879119059183919
 30
0.0
 10
23.36850747806492
 20
2.872057869733413
 30
0.0
  0
SPLINE
  5
1A7
330
1F
100
AcDbEntity
  8
외형선
  6
Continuous
 62
     1
370
    15
100
AcDbSpline
210
0.0
220
0.0
230
1.0
 70
     8
 71
     3
 72
     8
 73
     4
 74
     0
 42
0.000000001
 43
0.00000001
 40
0.0
 40
0.0
 40
0.0
 40
0.0
 40
1.0
 40
1.0
 40
1.0
 40
1.0
 10
23.36850747806491
 20
2.872057869733437
 30
0.0
 10
23.49901955295075
 20
2.850322812852206
 30
0.0
 10
23.64329307830462
 20
2.797551534790636
 30
0.0
 10
23.78887829643323
 20
2.727080111911044
 30
0.0
  0
SPLINE
  5
1A8
330
1F
100
AcDbEntity
  8
외형선
  6
Continuous
 62
     1
370
    15
100
AcDbSpline
210
0.0
220
0.0
230
1.0
 70
     8
 71
     3
 72
     8
 73
     4
 74
     0
 42
0.000000001
 43
0.00000001
 40
0.0
 40
0.0
 40
0.0
 40
0.0
 40
1.0
 40
1.0
 40
1.0
 40
1.0
 10
23.78887829640873
 20
2.727080111925791
 30
0.0
 10
23.93809390018301
 20
2.637175133876684
 30
0.0
 10
24.08129047983587
 20
2.534020762532925
 30
0.0
 10
24.20678042751841
 20
2.42541417210824
 30
0.0
  0
SPLINE
  5
1A9
330
1F
100
AcDbEntity
  8
외형선
  6
Continuous
 62
     1
370
    15
100
AcDbSpline
210
0.0
220
0.0
230
1.0
 70
     8
 71
     3
 72
    10
 73
     6
 74
     0
 42
0.000000001
 43
0.00000001
 40
0.0
 40
0.0
 40
0.0
 40
0.0
 40
0.5
 40
0.5
 40
1.0
 40
1.0
 40
1.0
 40
1.0
 10
24.20678042751842
 20
2.425414172108271
 30
0.0
 10
24.24591595487431
 20
2.391543919796534
 30
0.0
 10
24.29092260816042
 20
2.360543916945316
 30
0.0
 10
24.38456914813601
 20
2.309553397101311
 30
0.0
 10
24.43289745354341
 20
2.289901519091631
 30
0.0
 10
24.47557195306524
 20
2.279870136048845
 30
0.0
  0
SPLINE
  5
1AA
330
1F
100
AcDbEntity
  8
외형선
  6
Continuous
 62
     1
370
    15
100
AcDbSpline
210
0.0
220
0.0
230
1.0
 70
     8
 71
     3
 72
    12
 73
     8
 74
     0
 42
0.000000001
 43
0.00000001
 40
0.0
 40
0.0
 40
0.0
 40
0.0
 40
0.5000000000000014
 40
0.5000000000000014
 40
0.7500000000000007
 40
0.7500000000000007
 40
1.0
 40
1.0
 40
1.0
 40
1.0
 10
24.47557195306523
 20
2.279870136048898
 30
0.0
 10
24.64267332783417
 20
2.240590052718914
 30
0.0
 10
24.82842708956314
 20
2.157241711429401
 30
0.0
 10
25.1050856829082
 20
2.002107236407172
 30
0.0
 10
25.1944702040503
 20
1.946653583553023
 30
0.0
 10
25.36818279173905
 20
1.829184584185471
 30
0.0
 10
25.45200943190041
 20
1.767363484364259
 30
0.0
 10
25.52912766014533
 20
1.704639326545182
 30
0.0
  0
SPLINE
  5
1AB
330
1F
100
AcDbEntity
  8
외형선
  6
Continuous
 62
     1
370
    15
100
AcDbSpline
210
0.0
220
0.0
230
1.0
 70
     8
 71
     3
 72
    10
 73
     6
 74
     0
 42
0.000000001
 43
0.00000001
 40
0.0
 40
0.0
 40
0.0
 40
0.0
 40
0.5
 40
0.5
 40
1.0
 40
1.0
 40
1.0
 40
1.0
 10
25.52912766014534
 20
1.704639326545204
 30
0.0
 10
25.56852135666015
 20
1.672598439539545
 30
0.0
 10
25.61368019087349
 20
1.64232849995436
 30
0.0
 10
25.70739803795778
 20
1.590508342400224
 30
0.0
 10
25.75564738927648
 20
1.569264574283228
 30
0.0
 10
25.79808357121425
 20
1.556422595910493
 30
0.0
  0
SPLINE
  5
1AC
330
1F
100
AcDbEntity
  8
외형선
  6
Continuous
 62
     1
370
    15
100
AcDbSpline
210
0.0
220
0.0
230
1.0
 70
     8
 71
     3
 72
     8
 73
     4
 74
     0
 42
0.000000001
 43
0.00000001
 40
0.0
 40
0.0
 40
0.0
 40
0.0
 40
1.0
 40
1.0
 40
1.0
 40
1.0
 10
25.79808357121428
 20
1.55642259591046
 30
0.0
 10
25.92871920278158
 20
1.51688982272753
 30
0.0
 10
26.07316893500035
 20
1.451655819132647
 30
0.0
 10
26.21880269140195
 20
1.374276381207194
 30
0.0
  0
SPLINE
  5
1AD
330
1F
100
AcDbEntity
  8
외형선
  6
Continuous
 62
     1
370
    15
100
AcDbSpline
210
0.0
220
0.0
230
1.0
 70
     8
 71
     3
 72
     8
 73
     4
 74
     0
 42
0.000000001
 43
0.00000001
 40
0.0
 40
0.0
 40
0.0
 40
0.0
 40
1.0
 40
1.0
 40
1.0
 40
1.0
 10
26.21880269137617
 20
1.374276381222868
 30
0.0
 10
26.36818077191364
 20
1.283275257901734
 30
0.0
 10
26.51150087144794
 20
1.185240978479952
 30
0.0
 10
26.63717158898553
 20
1.087736993177637
 30
0.0
  0
SPLINE
  5
1AE
330
1F
100
AcDbEntity
  8
외형선
  6
Continuous
 62
     1
370
    15
100
AcDbSpline
210
0.0
220
0.0
230
1.0
 70
     8
 71
     3
 72
    10
 73
     6
 74
     0
 42
0.000000001
 43
0.00000001
 40
0.0
 40
0.0
 40
0.0
 40
0.0
 40
0.5
 40
0.5
 40
1.0
 40
1.0
 40
1.0
 40
1.0
 10
26.63717158898553
 20
1.087736993177659
 30
0.0
 10
26.67635516475233
 20
1.057335680361762
 30
0.0
 10
26.72140902329282
 20
1.027644553180846
 30
0.0
 10
26.81513077412047
 20
0.974811727074834
 30
0.0
 10
26.8635049640278
 20
0.9519435124316667
 30
0.0
 10
26.90622796711822
 20
0.9363051393145635
 30
0.0
  0
SPLINE
  5
1AF
330
1F
100
AcDbEntity
  8
외형선
  6
Continuous
 62
     1
370
    15
100
AcDbSpline
210
0.0
220
0.0
230
1.0
 70
     8
 71
     3
 72
    10
 73
     6
 74
     0
 42
0.000000001
 43
0.00000001
 40
0.0
 40
0.0
 40
0.0
 40
0.0
 40
0.5
 40
0.5
 40
1.0
 40
1.0
 40
1.0
 40
1.0
 10
27.96019920528789
 20
0.3429387061367884
 30
0.0
 10
27.99958304647016
 20
0.3148923573972816
 30
0.0
 10
28.04473087852547
 20
0.2864380880401081
 30
0.0
 10
28.13843488904511
 20
0.2336458215629696
 30
0.0
 10
28.18667751745434
 20
0.209557386448017
 30
0.0
 10
28.22910310686689
 20
0.1913462215920787
 30
0.0
  0
SPLINE
  5
1B0
330
1F
100
AcDbEntity
  8
외형선
  6
Continuous
 62
     1
370
    15
100
AcDbSpline
210
0.0
220
0.0
230
1.0
 70
     8
 71
     3
 72
     8
 73
     4
 74
     0
 42
0.000000001
 43
0.00000001
 40
0.0
 40
0.0
 40
0.0
 40
0.0
 40
1.0
 40
1.0
 40
1.0
 40
1.0
 10
28.22910310686693
 20
0.1913462215920292
 30
0.0
 10
28.35966387643154
 20
0.1353030709562531
 30
0.0
 10
28.50404877626272
 20
0.0596846838792167
 30
0.0
 10
28.64964305140759
 20
-0.0219263087639237
 30
0.0
  0
SPLINE
  5
1B1
330
1F
100
AcDbEntity
  8
외형선
  6
Continuous
 62
     1
370
    15
100
AcDbSpline
210
0.0
220
0.0
230
1.0
 70
     8
 71
     3
 72
    10
 73
     6
 74
     0
 42
0.000000001
 43
0.00000001
 40
0.0
 40
0.0
 40
0.0
 40
0.0
 40
0.5
 40
0.5
 40
1.0
 40
1.0
 40
1.0
 40
1.0
 10
29.06758966640481
 20
-0.2836078975931418
 30
0.0
 10
29.10671763165092
 20
-0.3095474387312639
 30
0.0
 10
29.15171511200927
 20
-0.3369595844250864
 30
0.0
 10
29.24534154567234
 20
-0.389913367451301
 30
0.0
 10
29.29366655752778
 20
-0.4152386384238822
 30
0.0
 10
29.33634301179597
 20
-0.4359592095698422
 30
0.0
  0
SPLINE
  5
1B2
330
1F
100
AcDbEntity
  8
외형선
  6
Continuous
 62
     1
370
    15
100
AcDbSpline
210
0.0
220
0.0
230
1.0
 70
     8
 71
     3
 72
     8
 73
     4
 74
     0
 42
0.000000001
 43
0.00000001
 40
0.0
 40
0.0
 40
0.0
 40
0.0
 40
1.0
 40
1.0
 40
1.0
 40
1.0
 10
30.38941000987128
 20
-1.028454524908843
 30
0.0
 10
30.4680697226041
 20
-1.074784471735279
 30
0.0
 10
30.57337183253308
 20
-1.132682504971495
 30
0.0
 10
30.65815504123665
 20
-1.178692565860935
 30
0.0
  0
SPLINE
  5
1B3
330
1F
100
AcDbEntity
  8
외형선
  6
Continuous
 62
     1
370
    15
100
AcDbSpline
210
0.0
220
0.0
230
1.0
 70
     8
 71
     3
 72
    10
 73
     6
 74
     0
 42
0.000000001
 43
0.00000001
 40
0.0
 40
0.0
 40
0.0
 40
0.0
 40
0.5
 40
0.5
 40
1.0
 40
1.0
 40
1.0
 40
1.0
 10
31.49633154818968
 20
-1.645015603449101
 30
0.0
 10
31.53546096937434
 20
-1.66567260219103
 30
0.0
 10
31.58045684615078
 20
-1.6899484330321
 30
0.0
 10
31.67405974644186
 20
-1.741397242671364
 30
0.0
 10
31.72236061460935
 20
-1.76842385333415
 30
0.0
 10
31.76502368681068
 20
-1.793603313496758
 30
0.0
  0
SPLINE
  5
1B4
330
1F
100
AcDbEntity
  8
외형선
  6
Continuous
 62
     1
370
    15
100
AcDbSpline
210
0.0
220
0.0
230
1.0
 70
     8
 71
     3
 72
    10
 73
     6
 74
     0
 42
0.000000001
 43
0.00000001
 40
0.0
 40
0.0
 40
0.0
 40
0.0
 40
0.5
 40
0.5
 40
1.0
 40
1.0
 40
1.0
 40
1.0
 10
32.81810876760451
 20
-2.367514991668229
 30
0.0
 10
32.85747338306348
 20
-2.385137087169548
 30
0.0
 10
32.90260385742175
 20
-2.407416347076948
 30
0.0
 10
32.99628538429046
 20
-2.457298108592285
 30
0.0
 10
33.04451680795904
 20
-2.484788628403051
 30
0.0
 10
33.08693049899428
 20
-2.511910405275009
 30
0.0
  0
SPLINE
  5
1B5
330
1F
100
AcDbEntity
  8
외형선
  6
Continuous
 62
     1
370
    15
100
AcDbSpline
210
0.0
220
0.0
230
1.0
 70
     8
 71
     3
 72
    10
 73
     6
 74
     0
 42
0.000000001
 43
0.00000001
 40
0.0
 40
0.0
 40
0.0
 40
0.0
 40
0.5
 40
0.5
 40
1.0
 40
1.0
 40
1.0
 40
1.0
 10
33.92553520303393
 20
-2.955666454891813
 30
0.0
 10
33.96469828280117
 20
-2.970394807097171
 30
0.0
 10
34.00973056090755
 20
-2.990759604426326
 30
0.0
 10
34.10340142969012
 20
-3.039013859105349
 30
0.0
 10
34.15173692099998
 20
-3.066833024053384
 30
0.0
 10
34.19442417019388
 20
-3.095654615818646
 30
0.0
  0
SPLINE
  5
1B6
330
1F
100
AcDbEntity
  8
외형선
  6
Continuous
 62
     1
370
    15
100
AcDbSpline
210
0.0
220
0.0
230
1.0
 70
     8
 71
     3
 72
    10
 73
     6
 74
     0
 42
0.000000001
 43
0.00000001
 40
0.0
 40
0.0
 40
0.0
 40
0.0
 40
0.5
 40
0.5
 40
1.0
 40
1.0
 40
1.0
 40
1.0
 10
35.24845769503047
 20
-3.633607770089454
 30
0.0
 10
35.28787129892829
 20
-3.645146565654271
 30
0.0
 10
35.33305085410254
 20
-3.663283431116509
 30
0.0
 10
35.42681310481164
 20
-3.709414570431016
 30
0.0
 10
35.47509244567996
 20
-3.737381231396619
 30
0.0
 10
35.51755462391392
 20
-3.767802011342019
 30
0.0
  0
SPLINE
  5
1B7
330
1F
100
AcDbEntity
  8
외형선
  6
Continuous
 62
     1
370
    15
100
AcDbSpline
210
0.0
220
0.0
230
1.0
 70
     8
 71
     3
 72
     8
 73
     4
 74
     0
 42
0.000000001
 43
0.00000001
 40
0.0
 40
0.0
 40
0.0
 40
0.0
 40
1.0
 40
1.0
 40
1.0
 40
1.0
 10
35.51755462391395
 20
-3.767802011342076
 30
0.0
 10
35.64817632705565
 20
-3.861382092549242
 30
0.0
 10
35.79264207837724
 20
-3.953450445889886
 30
0.0
 10
35.93835967848572
 20
-4.032703527891482
 30
0.0
  0
SPLINE
  5
1B8
330
1F
100
AcDbEntity
  8
외형선
  6
Continuous
 62
     1
370
    15
100
AcDbSpline
210
0.0
220
0.0
230
1.0
 70
     8
 71
     3
 72
     8
 73
     4
 74
     0
 42
0.000000001
 43
0.00000001
 40
0.0
 40
0.0
 40
0.0
 40
0.0
 40
1.0
 40
1.0
 40
1.0
 40
1.0
 10
35.93835967845972
 20
-4.032703527879766
 30
0.0
 10
36.08774763546793
 20
-4.099783896167668
 30
0.0
 10
36.23105003891392
 20
-4.148621568130526
 30
0.0
 10
36.35660905315635
 20
-4.175329431103956
 30
0.0
  0
SPLINE
  5
1B9
330
1F
100
AcDbEntity
  8
외형선
  6
Continuous
 62
     1
370
    15
100
AcDbSpline
210
0.0
220
0.0
230
1.0
 70
     8
 71
     3
 72
    10
 73
     6
 74
     0
 42
0.000000001
 43
0.00000001
 40
0.0
 40
0.0
 40
0.0
 40
0.0
 40
0.5
 40
0.5
 40
1.0
 40
1.0
 40
1.0
 40
1.0
 10
36.3566090531564
 20
-4.175329431104093
 30
0.0
 10
36.39577340826822
 20
-4.183660145040327
 30
0.0
 10
36.44080613598484
 20
-4.199468735212483
 30
0.0
 10
36.53448351964033
 20
-4.243015648547115
 30
0.0
 10
36.58282302093333
 20
-4.270759905182612
 30
0.0
 10
36.62550964895374
 20
-4.302300820145423
 30
0.0
  0
SPLINE
  5
1BA
330
1F
100
AcDbEntity
  8
외형선
  6
Continuous
 62
     1
370
    15
100
AcDbSpline
210
0.0
220
0.0
230
1.0
 70
     8
 71
     3
 72
    12
 73
     8
 74
     0
 42
0.000000001
 43
0.00000001
 40
0.0
 40
0.0
 40
0.0
 40
0.0
 40
0.4999999999999962
 40
0.4999999999999962
 40
0.7499999999999981
 40
0.7499999999999981
 40
1.0
 40
1.0
 40
1.0
 40
1.0
 10
36.62550964895373
 20
-4.302300820145423
 30
0.0
 10
36.7926639354292
 20
-4.425810204228697
 30
0.0
 10
36.97832288274157
 20
-4.539055674549425
 30
0.0
 10
37.25483567258311
 20
-4.667877646088522
 30
0.0
 10
37.34419810466011
 20
-4.702944424049262
 30
0.0
 10
37.51790440231513
 20
-4.757404594458138
 30
0.0
 10
37.60175030507165
 20
-4.77643700917143
 30
0.0
 10
37.67888721499013
 20
-4.786334810885692
 30
0.0
  0
SPLINE
  5
1BB
330
1F
100
AcDbEntity
  8
외형선
  6
Continuous
 62
     1
370
    15
100
AcDbSpline
210
0.0
220
0.0
230
1.0
 70
     8
 71
     3
 72
    10
 73
     6
 74
     0
 42
0.000000001
 43
0.00000001
 40
0.0
 40
0.0
 40
0.0
 40
0.0
 40
0.5
 40
0.5
 40
1.0
 40
1.0
 40
1.0
 40
1.0
 10
37.67888721499014
 20
-4.786334810885696
 30
0.0
 10
37.71824606138241
 20
-4.79138513060559
 30
0.0
 10
37.76336993916449
 20
-4.804768523086171
 30
0.0
 10
37.85704072713784
 20
-4.845643460601623
 30
0.0
 10
37.9052715727132
 20
-4.873179694970039
 30
0.0
 10
37.94768616611474
 20
-4.905904314678439
 30
0.0
  0
SPLINE
  5
1BC
330
1F
100
AcDbEntity
  8
외형선
  6
Continuous
 62
     1
370
    15
100
AcDbSpline
210
0.0
220
0.0
230
1.0
 70
     8
 71
     3
 72
     8
 73
     4
 74
     0
 42
0.000000001
 43
0.00000001
 40
0.0
 40
0.0
 40
0.0
 40
0.0
 40
1.0
 40
1.0
 40
1.0
 40
1.0
 10
37.94768616611476
 20
-4.905904314678442
 30
0.0
 10
38.07817211584531
 20
-5.006579642195926
 30
0.0
 10
38.22251124389466
 20
-5.098534454553901
 30
0.0
 10
38.36812146887688
 20
-5.171949195606283
 30
0.0
  0
SPLINE
  5
1BD
330
1F
100
AcDbEntity
  8
외형선
  6
Continuous
 62
     1
370
    15
100
AcDbSpline
210
0.0
220
0.0
230
1.0
 70
     8
 71
     3
 72
     8
 73
     4
 74
     0
 42
0.000000001
 43
0.00000001
 40
0.0
 40
0.0
 40
0.0
 40
0.0
 40
1.0
 40
1.0
 40
1.0
 40
1.0
 10
38.36812146885197
 20
-5.171949195597058
 30
0.0
 10
38.5173796026337
 20
-5.227188375964672
 30
0.0
 10
38.66055854429877
 20
-5.25877753035598
 30
0.0
 10
38.78599351890283
 20
-5.264137396621936
 30
0.0
  0
SPLINE
  5
1BE
330
1F
100
AcDbEntity
  8
외형선
  6
Continuous
 62
     1
370
    15
100
AcDbSpline
210
0.0
220
0.0
230
1.0
 70
     8
 71
     3
 72
    10
 73
     6
 74
     0
 42
0.000000001
 43
0.00000001
 40
0.0
 40
0.0
 40
0.0
 40
0.0
 40
0.5
 40
0.5
 40
1.0
 40
1.0
 40
1.0
 40
1.0
 10
38.7859935189028
 20
-5.264137396621925
 30
0.0
 10
38.82512288138678
 20
-5.265809403577308
 30
0.0
 10
38.87012136288628
 20
-5.27656998456227
 30
0.0
 10
38.96374775779913
 20
-5.314060764296623
 30
0.0
 10
39.01205869966952
 20
-5.340870228763302
 30
0.0
 10
39.05471409817265
 20
-5.374143129178821
 30
0.0
  0
SPLINE
  5
1BF
330
1F
100
AcDbEntity
  8
외형선
  6
Continuous
 62
     1
370
    15
100
AcDbSpline
210
0.0
220
0.0
230
1.0
 70
     8
 71
     3
 72
    12
 73
     8
 74
     0
 42
0.000000001
 43
0.00000001
 40
0.0
 40
0.0
 40
0.0
 40
0.0
 40
0.4999999999999958
 40
0.4999999999999958
 40
0.7499999999999979
 40
0.7499999999999979
 40
1.0
 40
1.0
 40
1.0
 40
1.0
 10
39.05471409817003
 20
-5.374143129176779
 30
0.0
 10
39.22180669562889
 20
-5.504481973743145
 30
0.0
 10
39.40750379048998
 20
-5.613102377160774
 30
0.0
 10
39.68393612260557
 20
-5.72296761632196
 30
0.0
 10
39.77321496757893
 20
-5.749929764789311
 30
0.0
 10
39.94676905187597
 20
-5.784696940526849
 30
0.0
 10
40.03054215513145
 20
-5.792134109397248
 30
0.0
 10
40.10761851010888
 20
-5.789065071847111
 30
0.0
  0
SPLINE
  5
1C0
330
1F
100
AcDbEntity
  8
외형선
  6
Continuous
 62
     1
370
    15
100
AcDbSpline
210
0.0
220
0.0
230
1.0
 70
     8
 71
     3
 72
    10
 73
     6
 74
     0
 42
0.000000001
 43
0.00000001
 40
0.0
 40
0.0
 40
0.0
 40
0.0
 40
0.5
 40
0.5
 40
1.0
 40
1.0
 40
1.0
 40
1.0
 10
40.10761851010984
 20
-5.789065071849319
 30
0.0
 10
40.14696418915361
 20
-5.787498399859482
 30
0.0
 10
40.19207523238288
 20
-5.795741143606832
 30
0.0
 10
40.28572338301969
 20
-5.830132804463989
 30
0.0
 10
40.33394471102933
 20
-5.856402898818533
 30
0.0
 10
40.37635279332494
 20
-5.890438010183525
 30
0.0
  0
SPLINE
  5
1C1
330
1F
100
AcDbEntity
  8
외형선
  6
Continuous
 62
     1
370
    15
100
AcDbSpline
210
0.0
220
0.0
230
1.0
 70
     8
 71
     3
 72
     8
 73
     4
 74
     0
 42
0.000000001
 43
0.00000001
 40
0.0
 40
0.0
 40
0.0
 40
0.0
 40
1.0
 40
1.0
 40
1.0
 40
1.0
 10
40.37635279332491
 20
-5.890438010183496
 30
0.0
 10
40.50681994832794
 20
-5.995145978797781
 30
0.0
 10
40.65114215537708
 20
-6.084192377923625
 30
0.0
 10
40.79674647099581
 20
-6.149557773247432
 30
0.0
  0
SPLINE
  5
1C2
330
1F
100
AcDbEntity
  8
외형선
  6
Continuous
 62
     1
370
    15
100
AcDbSpline
210
0.0
220
0.0
230
1.0
 70
     8
 71
     3
 72
     8
 73
     4
 74
     0
 42
0.000000001
 43
0.00000001
 40
0.0
 40
0.0
 40
0.0
 40
0.0
 40
1.0
 40
1.0
 40
1.0
 40
1.0
 10
40.79674647097104
 20
-6.149557773240497
 30
0.0
 10
40.94600200487285
 20
-6.191327901946762
 30
0.0
 10
41.08919080095669
 20
-6.204786085213424
 30
0.0
 10
41.21464699648432
 20
-6.188728477342119
 30
0.0
  0
SPLINE
  5
1C3
330
1F
100
AcDbEntity
  8
외형선
  6
Continuous
 62
     1
370
    15
100
AcDbSpline
210
0.0
220
0.0
230
1.0
 70
     8
 71
     3
 72
    10
 73
     6
 74
     0
 42
0.000000001
 43
0.00000001
 40
0.0
 40
0.0
 40
0.0
 40
0.0
 40
0.5
 40
0.5
 40
1.0
 40
1.0
 40
1.0
 40
1.0
 10
41.21464699648433
 20
-6.188728477342128
 30
0.0
 10
41.25378406906455
 20
-6.183719176987682
 30
0.0
 10
41.29879161120495
 20
-6.189128304081381
 30
0.0
 10
41.39243672192905
 20
-6.219449516960309
 30
0.0
 10
41.4407583284436
 20
-6.244516261609816
 30
0.0
 10
41.48342394298223
 20
-6.27851842588774
 30
0.0
  0
SPLINE
  5
1C4
330
1F
100
AcDbEntity
  8
외형선
  6
Continuous
 62
     1
370
    15
100
AcDbSpline
210
0.0
220
0.0
230
1.0
 70
     8
 71
     3
 72
    12
 73
     8
 74
     0
 42
0.000000001
 43
0.00000001
 40
0.0
 40
0.0
 40
0.0
 40
0.0
 40
0.5000000000000037
 40
0.5000000000000037
 40
0.7500000000000018
 40
0.7500000000000018
 40
1.0
 40
1.0
 40
1.0
 40
1.0
 10
41.48342394298289
 20
-6.278518425888988
 30
0.0
 10
41.65058592684416
 20
-6.411737396194163
 30
0.0
 10
41.83638339043141
 20
-6.512499120647703
 30
0.0
 10
42.11298238192668
 20
-6.600033181854409
 30
0.0
 10
42.20233306563698
 20
-6.617967069934771
 30
0.0
 10
42.37595942866823
 20
-6.631873218161521
 30
0.0
 10
42.45972705189086
 20
-6.627506757392164
 30
0.0
 10
42.53681153311726
 20
-6.611603126962745
 30
0.0
  0
SPLINE
  5
1C5
330
1F
100
AcDbEntity
  8
외형선
  6
Continuous
 62
     1
370
    15
100
AcDbSpline
210
0.0
220
0.0
230
1.0
 70
     8
 71
     3
 72
    10
 73
     6
 74
     0
 42
0.000000001
 43
0.00000001
 40
0.0
 40
0.0
 40
0.0
 40
0.0
 40
0.5
 40
0.5
 40
1.0
 40
1.0
 40
1.0
 40
1.0
 10
42.53681153311727
 20
-6.611603126962754
 30
0.0
 10
42.57618650413373
 20
-6.603479507561647
 30
0.0
 10
42.62132775830651
 20
-6.606337809515111
 30
0.0
 10
42.7150227452359
 20
-6.633192252722383
 30
0.0
 10
42.76327399434717
 20
-6.65738389990651
 30
0.0
 10
42.80571705402598
 20
-6.691688347920647
 30
0.0
  0
SPLINE
  5
1C6
330
1F
100
AcDbEntity
  8
외형선
  6
Continuous
 62
     1
370
    15
100
AcDbSpline
210
0.0
220
0.0
230
1.0
 70
     8
 71
     3
 72
     8
 73
     4
 74
     0
 42
0.000000001
 43
0.00000001
 40
0.0
 40
0.0
 40
0.0
 40
0.0
 40
1.0
 40
1.0
 40
1.0
 40
1.0
 10
42.80571705402597
 20
-6.691688347920643
 30
0.0
 10
42.93628286214883
 20
-6.797217685604335
 30
0.0
 10
43.08069824665372
 20
-6.880606210425959
 30
0.0
 10
43.22639854011017
 20
-6.935919644852538
 30
0.0
  0
SPLINE
  5
1C7
330
1F
100
AcDbEntity
  8
외형선
  6
Continuous
 62
     1
370
    15
100
AcDbSpline
210
0.0
220
0.0
230
1.0
 70
     8
 71
     3
 72
     8
 73
     4
 74
     0
 42
0.000000001
 43
0.00000001
 40
0.0
 40
0.0
 40
0.0
 40
0.0
 40
1.0
 40
1.0
 40
1.0
 40
1.0
 10
43.22639854008465
 20
-6.935919644847869
 30
0.0
 10
43.37577850715122
 20
-6.962960846270379
 30
0.0
 10
43.5191103508041
 20
-6.957916593733383
 30
0.0
 10
43.64473272422308
 20
-6.92097593595753
 30
0.0
  0
SPLINE
  5
1C8
330
1F
100
AcDbEntity
  8
외형선
  6
Continuous
 62
     1
370
    15
100
AcDbSpline
210
0.0
220
0.0
230
1.0
 70
     8
 71
     3
 72
    10
 73
     6
 74
     0
 42
0.000000001
 43
0.00000001
 40
0.0
 40
0.0
 40
0.0
 40
0.0
 40
0.5
 40
0.5
 40
1.0
 40
1.0
 40
1.0
 40
1.0
 10
43.64473272422309
 20
-6.920975935957533
 30
0.0
 10
43.68391996864354
 20
-6.909452490364873
 30
0.0
 10
43.72897960393048
 20
-6.909356399225259
 30
0.0
 10
43.82271270399803
 20
-6.931587524547882
 30
0.0
 10
43.87108397160767
 20
-6.954140606335228
 30
0.0
 10
43.9138009952085
 20
-6.98783686995425
 30
0.0
  0
SPLINE
  5
1C9
330
1F
100
AcDbEntity
  8
외형선
  6
Continuous
 62
     1
370
    15
100
AcDbSpline
210
0.0
220
0.0
230
1.0
 70
     8
 71
     3
 72
    12
 73
     8
 74
     0
 42
0.000000001
 43
0.00000001
 40
0.0
 40
0.0
 40
0.0
 40
0.0
 40
0.5000000000000002
 40
0.5000000000000002
 40
0.7500000000000001
 40
0.7500000000000001
 40
1.0
 40
1.0
 40
1.0
 40
1.0
 10
43.9138009952085
 20
-6.987836869954256
 30
0.0
 10
44.08106847181845
 20
-7.11978166646928
 30
0.0
 10
44.26694901062664
 20
-7.209570144071942
 30
0.0
 10
44.54373486720077
 20
-7.272152145514277
 30
0.0
 10
44.63315312123503
 20
-7.280556728548974
 30
0.0
 10
44.80691853568896
 20
-7.273158594043486
 30
0.0
 10
44.89076808934336
 20
-7.25702266610269
 30
0.0
 10
44.96790167862378
 20
-7.228675918712534
 30
0.0
  0
SPLINE
  5
1CA
330
1F
100
AcDbEntity
  8
외형선
  6
Continuous
 62
     1
370
    15
100
AcDbSpline
210
0.0
220
0.0
230
1.0
 70
     8
 71
     3
 72
    10
 73
     6
 74
     0
 42
0.000000001
 43
0.00000001
 40
0.0
 40
0.0
 40
0.0
 40
0.0
 40
0.5
 40
0.5
 40
1.0
 40
1.0
 40
1.0
 40
1.0
 10
44.96790167862376
 20
-7.228675918712534
 30
0.0
 10
45.00729247145025
 20
-7.214199724046012
 30
0.0
 10
45.05244453678618
 20
-7.211544074971257
 30
0.0
 10
45.14613697303773
 20
-7.229970458972645
 30
0.0
 10
45.1943737473249
 20
-7.251312320906658
 30
0.0
 10
45.23681071407363
 20
-7.284791125959421
 30
0.0
  0
SPLINE
  5
1CB
330
1F
100
AcDbEntity
  8
외형선
  6
Continuous
 62
     1
370
    15
100
AcDbSpline
210
0.0
220
0.0
230
1.0
 70
     8
 71
     3
 72
     8
 73
     4
 74
     0
 42
0.000000001
 43
0.00000001
 40
0.0
 40
0.0
 40
0.0
 40
0.0
 40
1.0
 40
1.0
 40
1.0
 40
1.0
 10
45.23681071407364
 20
-7.284791125959427
 30
0.0
 10
45.36734193950942
 20
-7.387768077058129
 30
0.0
 10
45.51170956585938
 20
-7.462855507565422
 30
0.0
 10
45.65737527988916
 20
-7.506345204183114
 30
0.0
  0
SPLINE
  5
1CC
330
1F
100
AcDbEntity
  8
외형선
  6
Continuous
 62
     1
370
    15
100
AcDbSpline
210
0.0
220
0.0
230
1.0
 70
     8
 71
     3
 72
     8
 73
     4
 74
     0
 42
0.000000001
 43
0.00000001
 40
0.0
 40
0.0
 40
0.0
 40
0.0
 40
1.0
 40
1.0
 40
1.0
 40
1.0
 10
45.65737527986305
 20
-7.506345204181035
 30
0.0
 10
45.80664408803824
 20
-7.51773845425904
 30
0.0
 10
45.9498823372337
 20
-7.494284051430271
 30
0.0
 10
46.07539611129265
 20
-7.437527887467567
 30
0.0
  0
SPLINE
  5
1CD
330
1F
100
AcDbEntity
  8
외형선
  6
Continuous
 62
     1
370
    15
100
AcDbSpline
210
0.0
220
0.0
230
1.0
 70
     8
 71
     3
 72
    10
 73
     6
 74
     0
 42
0.000000001
 43
0.00000001
 40
0.0
 40
0.0
 40
0.0
 40
0.0
 40
0.5
 40
0.5
 40
1.0
 40
1.0
 40
1.0
 40
1.0
 10
46.07539611129263
 20
-7.437527887467574
 30
0.0
 10
46.1145348627304
 20
-7.419829707243509
 30
0.0
 10
46.15954363535114
 20
-7.414202994800268
 30
0.0
 10
46.25319368007737
 20
-7.427614880093696
 30
0.0
 10
46.30152190409405
 20
-7.446942782713106
 30
0.0
 10
46.3441937397749
 20
-7.479252992145446
 30
0.0
  0
SPLINE
  5
1CE
330
1F
100
AcDbEntity
  8
외형선
  6
Continuous
 62
     1
370
    15
100
AcDbSpline
210
0.0
220
0.0
230
1.0
 70
     8
 71
     3
 72
    12
 73
     8
 74
     0
 42
0.000000001
 43
0.00000001
 40
0.0
 40
0.0
 40
0.0
 40
0.0
 40
0.4999999999999998
 40
0.4999999999999998
 40
0.7499999999999999
 40
0.7499999999999999
 40
1.0
 40
1.0
 40
1.0
 40
1.0
 10
46.34419373977489
 20
-7.479252992145445
 30
0.0
 10
46.51125513290522
 20
-7.605748337704743
 30
0.0
 10
46.69695461152955
 20
-7.681771713191674
 30
0.0
 10
46.97351278573927
 20
-7.717411524513272
 30
0.0
 10
47.06285914440539
 20
-7.716011261447663
 30
0.0
 10
47.23648638700772
 20
-7.687532191996302
 30
0.0
 10
47.3202612564789
 20
-7.660152066590575
 30
0.0
 10
47.39732141231863
 20
-7.62025843006814
 30
0.0
  0
SPLINE
  5
1CF
330
1F
100
AcDbEntity
  8
외형선
  6
Continuous
 62
     1
370
    15
100
AcDbSpline
210
0.0
220
0.0
230
1.0
 70
     8
 71
     3
 72
    10
 73
     6
 74
     0
 42
0.000000001
 43
0.00000001
 40
0.0
 40
0.0
 40
0.0
 40
0.0
 40
0.5
 40
0.5
 40
0.7176751222350224
 40
0.7176751222350224
 40
0.7176751222350224
 40
0.7176751222350224
 10
47.39732141231865
 20
-7.620258430068152
 30
0.0
 10
47.43667806516913
 20
-7.599883698321923
 30
0.0
 10
47.48179725797372
 20
-7.59178544004826
 30
0.0
 10
47.54900478577564
 20
-7.59852373247773
 30
0.0
 10
47.56965222474929
 20
-7.603052371656084
 30
0.0
 10
47.5899686152959
 20
-7.610120206542761
 30
0.0
  0
SPLINE
  5
1D6
330
1F
100
AcDbEntity
  8
외형선
  6
Continuous
 62
     1
370
    15
100
AcDbSpline
210
0.0
220
0.0
230
1.0
 70
     8
 71
     3
 72
    12
 73
     8
 74
     0
 42
0.000000001
 43
0.00000001
 40
0.0
 40
0.0
 40
0.0
 40
0.0
 40
0.2390018349679689
 40
0.4272256375711245
 40
0.6162367107428001
 40
0.8076970562329474
 40
1.0
 40
1.0
 40
1.0
 40
1.0
 10
42.70399338648778
 20
-6.632923887180307
 30
0.0
 10
42.67609173579859
 20
-6.636473711732589
 30
0.0
 10
42.62621638439567
 20
-6.642819169531347
 30
0.0
 10
42.55646649580372
 20
-6.645144450255422
 30
0.0
 10
42.49375996874369
 20
-6.64329335150497
 30
0.0
 10
42.43245729970442
 20
-6.637304988266429
 30
0.0
 10
42.39340279979869
 20
-6.629605029271509
 30
0.0
 10
42.37383267542917
 20
-6.62574659668283
 30
0.0
  0
SPLINE
  5
1D7
330
1F
100
AcDbEntity
  8
외형선
  6
Continuous
 62
     1
370
    15
100
AcDbSpline
210
0.0
220
0.0
230
1.0
 70
     8
 71
     3
 72
    10
 73
     6
 74
     0
 42
0.000000001
 43
0.00000001
 40
0.0
 40
0.0
 40
0.0
 40
0.0
 40
0.499999999999986
 40
0.499999999999986
 40
1.0
 40
1.0
 40
1.0
 40
1.0
 10
42.37383267542917
 20
-6.625746596682824
 30
0.0
 10
42.33471421325053
 20
-6.617081210632463
 30
0.0
 10
42.2897260945514
 20
-6.619438362829989
 30
0.0
 10
42.1961147261247
 20
-6.645372243766928
 30
0.0
 10
42.14779847239978
 20
-6.669145822947429
 30
0.0
 10
42.10513104877535
 20
-6.703131045965235
 30
0.0
  0
SPLINE
  5
1D8
330
1F
100
AcDbEntity
  8
외형선
  6
Continuous
 62
     1
370
    15
100
AcDbSpline
210
0.0
220
0.0
230
1.0
 70
     8
 71
     3
 72
    12
 73
     8
 74
     0
 42
0.000000001
 43
0.00000001
 40
0.0
 40
0.0
 40
0.0
 40
0.0
 40
0.4999999999999967
 40
0.4999999999999967
 40
0.7499999999999983
 40
0.7499999999999983
 40
1.0
 40
1.0
 40
1.0
 40
1.0
 10
42.10513104877535
 20
-6.703131045965221
 30
0.0
 10
41.93816201618819
 20
-6.836124307041652
 30
0.0
 10
41.75256001483593
 20
-6.931088498290312
 30
0.0
 10
41.47603813954934
 20
-7.004794833649001
 30
0.0
 10
41.38669009059329
 20
-7.017374801073065
 30
0.0
 10
41.2130390973197
 20
-7.019178397694582
 30
0.0
 10
41.12924230811045
 20
-7.008058715005456
 30
0.0
 10
41.05215885160629
 20
-6.984981671466932
 30
0.0
  0
SPLINE
  5
1D9
330
1F
100
AcDbEntity
  8
외형선
  6
Continuous
 62
     1
370
    15
100
AcDbSpline
210
0.0
220
0.0
230
1.0
 70
     8
 71
     3
 72
     8
 73
     4
 74
     0
 42
0.000000001
 43
0.00000001
 40
0.0
 40
0.0
 40
0.0
 40
0.0
 40
1.0
 40
1.0
 40
1.0
 40
1.0
 10
41.0521588516063
 20
-6.984981671466934
 30
0.0
 10
40.97349832218511
 20
-6.96143248796453
 30
0.0
 10
40.86819523493359
 20
-6.983762129964617
 30
0.0
 10
40.78341070612321
 20
-7.051585660872386
 30
0.0
  0
SPLINE
  5
1DA
330
1F
100
AcDbEntity
  8
외형선
  6
Continuous
 62
     1
370
    15
100
AcDbSpline
210
0.0
220
0.0
230
1.0
 70
     8
 71
     3
 72
     8
 73
     4
 74
     0
 42
0.000000001
 43
0.00000001
 40
0.0
 40
0.0
 40
0.0
 40
0.0
 40
1.0
 40
1.0
 40
1.0
 40
1.0
 10
40.78341070612322
 20
-7.051585660872382
 30
0.0
 10
40.65291684003815
 20
-7.155974455430509
 30
0.0
 10
40.50858216552747
 20
-7.234939509560568
 30
0.0
 10
40.36301993346191
 20
-7.283783940389054
 30
0.0
  0
SPLINE
  5
1DB
330
1F
100
AcDbEntity
  8
외형선
  6
Continuous
 62
     1
370
    15
100
AcDbSpline
210
0.0
220
0.0
230
1.0
 70
     8
 71
     3
 72
     8
 73
     4
 74
     0
 42
0.000000001
 43
0.00000001
 40
0.0
 40
0.0
 40
0.0
 40
0.0
 40
1.0
 40
1.0
 40
1.0
 40
1.0
 10
40.3630199476091
 20
-7.283783938652444
 30
0.0
 10
40.21373682831835
 20
-7.302108782932809
 30
0.0
 10
40.0705749587845
 20
-7.286701326555006
 30
0.0
 10
39.94515300972056
 20
-7.238544829621727
 30
0.0
  0
SPLINE
  5
1DC
330
1F
100
AcDbEntity
  8
외형선
  6
Continuous
 62
     1
370
    15
100
AcDbSpline
210
0.0
220
0.0
230
1.0
 70
     8
 71
     3
 72
    10
 73
     6
 74
     0
 42
0.000000001
 43
0.00000001
 40
0.0
 40
0.0
 40
0.0
 40
0.0
 40
0.5
 40
0.5
 40
1.0
 40
1.0
 40
1.0
 40
1.0
 10
39.94515300972053
 20
-7.238544829621719
 30
0.0
 10
39.90601539786243
 20
-7.223517712761494
 30
0.0
 10
39.8610111329995
 20
-7.220338536010011
 30
0.0
 10
39.7673950736506
 20
-7.237758888349137
 30
0.0
 10
39.71908405302586
 20
-7.258616432147533
 30
0.0
 10
39.67641111449236
 20
-7.291693481467619
 30
0.0
  0
SPLINE
  5
1DD
330
1F
100
AcDbEntity
  8
외형선
  6
Continuous
 62
     1
370
    15
100
AcDbSpline
210
0.0
220
0.0
230
1.0
 70
     8
 71
     3
 72
    12
 73
     8
 74
     0
 42
0.000000001
 43
0.00000001
 40
0.0
 40
0.0
 40
0.0
 40
0.0
 40
0.4999999999999962
 40
0.4999999999999962
 40
0.7499999999999981
 40
0.7499999999999981
 40
1.0
 40
1.0
 40
1.0
 40
1.0
 10
39.67641111449237
 20
-7.291693481467611
 30
0.0
 10
39.50938677082733
 20
-7.421158961064918
 30
0.0
 10
39.3237369636881
 20
-7.503602438476757
 30
0.0
 10
39.04712326379868
 20
-7.551274458687668
 30
0.0
 10
38.95773962117645
 20
-7.554183554975168
 30
0.0
 10
38.78400800813286
 20
-7.534844313209731
 30
0.0
 10
38.70016025965096
 20
-7.512278342874956
 30
0.0
 10
38.62302061144134
 20
-7.477274612527982
 30
0.0
  0
SPLINE
  5
1DE
330
1F
100
AcDbEntity
  8
외형선
  6
Continuous
 62
     1
370
    15
100
AcDbSpline
210
0.0
220
0.0
230
1.0
 70
     8
 71
     3
 72
    10
 73
     6
 74
     0
 42
0.000000001
 43
0.00000001
 40
0.0
 40
0.0
 40
0.0
 40
0.0
 40
0.5
 40
0.5
 40
1.0
 40
1.0
 40
1.0
 40
1.0
 10
38.62302061144133
 20
-7.477274612527974
 30
0.0
 10
38.58363737348383
 20
-7.459403643789447
 30
0.0
 10
38.53848768858617
 20
-7.453649309040221
 30
0.0
 10
38.44477460668483
 20
-7.467008073420785
 30
0.0
 10
38.39652585496023
 20
-7.486415177293258
 30
0.0
 10
38.35409414695346
 20
-7.51892520616426
 30
0.0
  0
SPLINE
  5
1DF
330
1F
100
AcDbEntity
  8
외형선
  6
Continuous
 62
     1
370
    15
100
AcDbSpline
210
0.0
220
0.0
230
1.0
 70
     8
 71
     3
 72
     8
 73
     4
 74
     0
 42
0.000000001
 43
0.00000001
 40
0.0
 40
0.0
 40
0.0
 40
0.0
 40
1.0
 40
1.0
 40
1.0
 40
1.0
 10
38.35409414695348
 20
-7.518925206164248
 30
0.0
 10
38.22350811955748
 20
-7.618976694077866
 30
0.0
 10
38.07907394152308
 20
-7.68827490819366
 30
0.0
 10
37.93340354260635
 20
-7.724468337591632
 30
0.0
  0
SPLINE
  5
1E0
330
1F
100
AcDbEntity
  8
외형선
  6
Continuous
 62
     1
370
    15
100
AcDbSpline
210
0.0
220
0.0
230
1.0
 70
     8
 71
     3
 72
     8
 73
     4
 74
     0
 42
0.000000001
 43
0.00000001
 40
0.0
 40
0.0
 40
0.0
 40
0.0
 40
1.0
 40
1.0
 40
1.0
 40
1.0
 10
37.93340355676624
 20
-7.724468337362982
 30
0.0
 10
37.78398796633031
 20
-7.726881036519783
 30
0.0
 10
37.6406777199203
 20
-7.693382674721948
 30
0.0
 10
37.51509175358058
 20
-7.626336785819396
 30
0.0
  0
SPLINE
  5
1E1
330
1F
100
AcDbEntity
  8
외형선
  6
Continuous
 62
     1
370
    15
100
AcDbSpline
210
0.0
220
0.0
230
1.0
 70
     8
 71
     3
 72
    10
 73
     6
 74
     0
 42
0.000000001
 43
0.00000001
 40
0.0
 40
0.0
 40
0.0
 40
0.0
 40
0.5
 40
0.5
 40
1.0
 40
1.0
 40
1.0
 40
1.0
 10
37.51509175358058
 20
-7.626336785819402
 30
0.0
 10
37.4759017370059
 20
-7.605414627285793
 30
0.0
 10
37.43084183344007
 20
-7.596781393581698
 30
0.0
 10
37.33712593038581
 20
-7.60509345837782
 30
0.0
 10
37.28876563369701
 20
-7.622355413055159
 30
0.0
 10
37.24605231851255
 20
-7.653476217936159
 30
0.0
  0
SPLINE
  5
1E2
330
1F
100
AcDbEntity
  8
외형선
  6
Continuous
 62
     1
370
    15
100
AcDbSpline
210
0.0
220
0.0
230
1.0
 70
     8
 71
     3
 72
    12
 73
     8
 74
     0
 42
0.000000001
 43
0.00000001
 40
0.0
 40
0.0
 40
0.0
 40
0.0
 40
0.5000000000000034
 40
0.5000000000000034
 40
0.7500000000000018
 40
0.7500000000000018
 40
1.0
 40
1.0
 40
1.0
 40
1.0
 10
37.24605231851253
 20
-7.653476217936157
 30
0.0
 10
37.07883613436728
 20
-7.775309473380187
 30
0.0
 10
36.89314694984265
 20
-7.842594859156095
 30
0.0
 10
36.61638001981069
 20
-7.862721721883185
 30
0.0
 10
36.52693932651929
 20
-7.855864489096004
 30
0.0
 10
36.35308696570762
 20
-7.815956053055011
 30
0.0
 10
36.26916978677914
 20
-7.782620789712535
 30
0.0
 10
36.1919676497999
 20
-7.736733268724331
 30
0.0
  0
SPLINE
  5
1E3
330
1F
100
AcDbEntity
  8
외형선
  6
Continuous
 62
     1
370
    15
100
AcDbSpline
210
0.0
220
0.0
230
1.0
 70
     8
 71
     3
 72
    10
 73
     6
 74
     0
 42
0.000000001
 43
0.00000001
 40
0.0
 40
0.0
 40
0.0
 40
0.0
 40
0.5
 40
0.5
 40
1.0
 40
1.0
 40
1.0
 40
1.0
 10
36.19196764979989
 20
-7.736733268724328
 30
0.0
 10
36.15258120566953
 20
-7.713322695488924
 30
0.0
 10
36.10742968799062
 20
-7.702270191322182
 30
0.0
 10
36.0137131687113
 20
-7.706434354240474
 30
0.0
 10
35.96545952108288
 20
-7.721998740419071
 30
0.0
 10
35.92302359965464
 20
-7.75208149049083
 30
0.0
  0
SPLINE
  5
1E4
330
1F
100
AcDbEntity
  8
외형선
  6
Continuous
 62
     1
370
    15
100
AcDbSpline
210
0.0
220
0.0
230
1.0
 70
     8
 71
     3
 72
     8
 73
     4
 74
     0
 42
0.000000001
 43
0.00000001
 40
0.0
 40
0.0
 40
0.0
 40
0.0
 40
1.0
 40
1.0
 40
1.0
 40
1.0
 10
35.92302359965464
 20
-7.752081490490823
 30
0.0
 10
35.79247076258028
 20
-7.844630167099838
 30
0.0
 10
35.64807048589221
 20
-7.902108990163392
 30
0.0
 10
35.50241553998525
 20
-7.924523461486667
 30
0.0
  0
SPLINE
  5
1E5
330
1F
100
AcDbEntity
  8
외형선
  6
Continuous
 62
     1
370
    15
100
AcDbSpline
210
0.0
220
0.0
230
1.0
 70
     8
 71
     3
 72
     8
 73
     4
 74
     0
 42
0.000000001
 43
0.00000001
 40
0.0
 40
0.0
 40
0.0
 40
0.0
 40
1.0
 40
1.0
 40
1.0
 40
1.0
 10
35.5024155541395
 20
-7.924523462774466
 30
0.0
 10
35.35309468499099
 20
-7.910937767299653
 30
0.0
 10
35.20986394966885
 20
-7.86039337089443
 30
0.0
 10
35.08437935694292
 20
-7.776530159528385
 30
0.0
  0
SPLINE
  5
1E6
330
1F
100
AcDbEntity
  8
외형선
  6
Continuous
 62
     1
370
    15
100
AcDbSpline
210
0.0
220
0.0
230
1.0
 70
     8
 71
     3
 72
    10
 73
     6
 74
     0
 42
0.000000001
 43
0.00000001
 40
0.0
 40
0.0
 40
0.0
 40
0.0
 40
0.5
 40
0.5
 40
1.0
 40
1.0
 40
1.0
 40
1.0
 10
35.08437935694293
 20
-7.776530159528392
 30
0.0
 10
35.04523475435531
 20
-7.750369242005912
 30
0.0
 10
35.00022189408542
 20
-7.736546075206981
 30
0.0
 10
34.90657737325976
 20
-7.735496557029295
 30
0.0
 10
34.85825620429986
 20
-7.748637662122354
 30
0.0
 10
34.81558807436121
 20
-7.776819679621273
 30
0.0
  0
SPLINE
  5
1E7
330
1F
100
AcDbEntity
  8
외형선
  6
Continuous
 62
     1
370
    15
100
AcDbSpline
210
0.0
220
0.0
230
1.0
 70
     8
 71
     3
 72
    12
 73
     8
 74
     0
 42
0.000000001
 43
0.00000001
 40
0.0
 40
0.0
 40
0.0
 40
0.0
 40
0.5000000000000034
 40
0.5000000000000034
 40
0.7500000000000017
 40
0.7500000000000017
 40
1.0
 40
1.0
 40
1.0
 40
1.0
 10
34.81558807436121
 20
-7.776819679621267
 30
0.0
 10
34.64849460772805
 20
-7.887183808712041
 30
0.0
 10
34.4628969709848
 20
-7.937166813314701
 30
0.0
 10
34.18645396586209
 20
-7.928986290557674
 30
0.0
 10
34.09711546410138
 20
-7.912537317573931
 30
0.0
 10
33.92345775822926
 20
-7.853258147622314
 30
0.0
 10
33.83963892240864
 20
-7.810190793093203
 30
0.0
 10
33.76252826955198
 20
-7.754882640842844
 30
0.0
  0
SPLINE
  5
1E8
330
1F
100
AcDbEntity
  8
외형선
  6
Continuous
 62
     1
370
    15
100
AcDbSpline
210
0.0
220
0.0
230
1.0
 70
     8
 71
     3
 72
    10
 73
     6
 74
     0
 42
0.000000001
 43
0.00000001
 40
0.0
 40
0.0
 40
0.0
 40
0.0
 40
0.5
 40
0.5
 40
1.0
 40
1.0
 40
1.0
 40
1.0
 10
33.76252826955195
 20
-7.754882640842824
 30
0.0
 10
33.72317907714359
 20
-7.726659158820224
 30
0.0
 10
33.6780647480702
 20
-7.710654728414441
 30
0.0
 10
33.58440950028942
 20
-7.70550268208713
 30
0.0
 10
33.53618766182775
 20
-7.716746693351657
 30
0.0
 10
33.49378219594431
 20
-7.743457186607183
 30
0.0
  0
SPLINE
  5
1E9
330
1F
100
AcDbEntity
  8
외형선
  6
Continuous
 62
     1
370
    15
100
AcDbSpline
210
0.0
220
0.0
230
1.0
 70
     8
 71
     3
 72
     8
 73
     4
 74
     0
 42
0.000000001
 43
0.00000001
 40
0.0
 40
0.0
 40
0.0
 40
0.0
 40
1.0
 40
1.0
 40
1.0
 40
1.0
 10
33.49378219594431
 20
-7.743457186607183
 30
0.0
 10
33.36331595752588
 20
-7.825635686683766
 30
0.0
 10
33.21899470467044
 20
-7.869521489209915
 30
0.0
 10
33.07340233411041
 20
-7.877483781535656
 30
0.0
  0
SPLINE
  5
1EA
330
1F
100
AcDbEntity
  8
외형선
  6
Continuous
 62
     1
370
    15
100
AcDbSpline
210
0.0
220
0.0
230
1.0
 70
     8
 71
     3
 72
     8
 73
     4
 74
     0
 42
0.000000001
 43
0.00000001
 40
0.0
 40
0.0
 40
0.0
 40
0.0
 40
1.0
 40
1.0
 40
1.0
 40
1.0
 10
33.07340234825696
 20
-7.877483784296238
 30
0.0
 10
32.92415598461784
 20
-7.848359511240849
 30
0.0
 10
32.78099111406127
 20
-7.782376467553981
 30
0.0
 10
32.65556874027055
 20
-7.684379701725634
 30
0.0
  0
SPLINE
  5
1EB
330
1F
100
AcDbEntity
  8
외형선
  6
Continuous
 62
     1
370
    15
100
AcDbSpline
210
0.0
220
0.0
230
1.0
 70
     8
 71
     3
 72
    10
 73
     6
 74
     0
 42
0.000000001
 43
0.00000001
 40
0.0
 40
0.0
 40
0.0
 40
0.0
 40
0.5
 40
0.5
 40
1.0
 40
1.0
 40
1.0
 40
1.0
 10
32.65556874027057
 20
-7.684379701725649
 30
0.0
 10
32.61644081724246
 20
-7.653807724857043
 30
0.0
 10
32.57144354924598
 20
-7.635247057835035
 30
0.0
 10
32.47781930724516
 20
-7.624906980910241
 30
0.0
 10
32.42950974130832
 20
-7.633533697795984
 30
0.0
 10
32.38685541243527
 20
-7.657920427807604
 30
0.0
  0
SPLINE
  5
1EC
330
1F
100
AcDbEntity
  8
외형선
  6
Continuous
 62
     1
370
    15
100
AcDbSpline
210
0.0
220
0.0
230
1.0
 70
     8
 71
     3
 72
    12
 73
     8
 74
     0
 42
0.000000001
 43
0.00000001
 40
0.0
 40
0.0
 40
0.0
 40
0.0
 40
0.4999999999999999
 40
0.4999999999999999
 40
0.7499999999999999
 40
0.7499999999999999
 40
1.0
 40
1.0
 40
1.0
 40
1.0
 10
32.38685541243527
 20
-7.657920427807597
 30
0.0
 10
32.21975156984794
 20
-7.753458592414781
 30
0.0
 10
32.03404143953899
 20
-7.784653422689687
 30
0.0
 10
31.75759617022009
 20
-7.748410412891095
 30
0.0
 10
31.66831290063139
 20
-7.722860856474622
 30
0.0
 10
31.49474053239353
 20
-7.646044108800801
 30
0.0
 10
31.41095731607843
 20
-7.594587790836777
 30
0.0
 10
31.33386972945173
 20
-7.531585605006699
 30
0.0
  0
SPLINE
  5
1ED
330
1F
100
AcDbEntity
  8
외형선
  6
Continuous
 62
     1
370
    15
100
AcDbSpline
210
0.0
220
0.0
230
1.0
 70
     8
 71
     3
 72
    10
 73
     6
 74
     0
 42
0.000000001
 43
0.00000001
 40
0.0
 40
0.0
 40
0.0
 40
0.0
 40
0.5
 40
0.5
 40
1.0
 40
1.0
 40
1.0
 40
1.0
 10
31.33386972945172
 20
-7.531585605006694
 30
0.0
 10
31.2945154236746
 20
-7.499422096012813
 30
0.0
 10
31.24939531205344
 20
-7.478959379132031
 30
0.0
 10
31.15573203567023
 20
-7.46463671540865
 30
0.0
 10
31.10750265885816
 20
-7.471197099844974
 30
0.0
 10
31.06508625382817
 20
-7.493706146076714
 30
0.0
  0
SPLINE
  5
1EE
330
1F
100
AcDbEntity
  8
외형선
  6
Continuous
 62
     1
370
    15
100
AcDbSpline
210
0.0
220
0.0
230
1.0
 70
     8
 71
     3
 72
     8
 73
     4
 74
     0
 42
0.000000001
 43
0.00000001
 40
0.0
 40
0.0
 40
0.0
 40
0.0
 40
1.0
 40
1.0
 40
1.0
 40
1.0
 10
31.06508625382819
 20
-7.493706146076662
 30
0.0
 10
30.93458915768896
 20
-7.562956832645435
 30
0.0
 10
30.79023678151647
 20
-7.591853336157087
 30
0.0
 10
30.64460512864366
 20
-7.585103744838745
 30
0.0
  0
SPLINE
  5
1EF
330
1F
100
AcDbEntity
  8
외형선
  6
Continuous
 62
     1
370
    15
100
AcDbSpline
210
0.0
220
0.0
230
1.0
 70
     8
 71
     3
 72
     8
 73
     4
 74
     0
 42
0.000000001
 43
0.00000001
 40
0.0
 40
0.0
 40
0.0
 40
0.0
 40
1.0
 40
1.0
 40
1.0
 40
1.0
 10
30.64460514279528
 20
-7.585103748987182
 30
0.0
 10
30.49530579395593
 20
-7.541337751726084
 30
0.0
 10
30.35207319198216
 20
-7.461970661087757
 30
0.0
 10
30.22656755171337
 20
-7.352876792451283
 30
0.0
  0
SPLINE
  5
1F0
330
1F
100
AcDbEntity
  8
외형선
  6
Continuous
 62
     1
370
    15
100
AcDbSpline
210
0.0
220
0.0
230
1.0
 70
     8
 71
     3
 72
    10
 73
     6
 74
     0
 42
0.000000001
 43
0.00000001
 40
0.0
 40
0.0
 40
0.0
 40
0.0
 40
0.5
 40
0.5
 40
1.0
 40
1.0
 40
1.0
 40
1.0
 10
30.22656755171337
 20
-7.352876792451283
 30
0.0
 10
30.18741358975464
 20
-7.318842806621045
 30
0.0
 10
30.14238859524847
 20
-7.296122436025495
 30
0.0
 10
30.04871494417054
 20
-7.276810346171438
 30
0.0
 10
30.00037775641896
 20
-7.28064686162745
 30
0.0
 10
29.95769578482291
 20
-7.300486357310389
 30
0.0
  0
SPLINE
  5
1F1
330
1F
100
AcDbEntity
  8
외형선
  6
Continuous
 62
     1
370
    15
100
AcDbSpline
210
0.0
220
0.0
230
1.0
 70
     8
 71
     3
 72
    12
 73
     8
 74
     0
 42
0.000000001
 43
0.00000001
 40
0.0
 40
0.0
 40
0.0
 40
0.0
 40
0.5
 40
0.5
 40
0.75
 40
0.75
 40
1.0
 40
1.0
 40
1.0
 40
1.0
 10
29.95769578482291
 20
-7.300486357310407
 30
0.0
 10
29.79045064780473
 20
-7.378225483451748
 30
0.0
 10
29.60457107265353
 20
-7.38963129058998
 30
0.0
 10
29.32786124935527
 20
-7.326492518604434
 30
0.0
 10
29.23847372041764
 20
-7.292654664039508
 30
0.0
 10
29.06477275199953
 20
-7.200666801985961
 30
0.0
 10
28.98096314939271
 20
-7.142385487848327
 30
0.0
 10
28.9038301432819
 20
-7.073619172423157
 30
0.0
  0
SPLINE
  5
1F2
330
1F
100
AcDbEntity
  8
외형선
  6
Continuous
 62
     1
370
    15
100
AcDbSpline
210
0.0
220
0.0
230
1.0
 70
     8
 71
     3
 72
    10
 73
     6
 74
     0
 42
0.000000001
 43
0.00000001
 40
0.0
 40
0.0
 40
0.0
 40
0.0
 40
0.5
 40
0.5
 40
1.0
 40
1.0
 40
1.0
 40
1.0
 10
28.90383014328192
 20
-7.073619172423191
 30
0.0
 10
28.86442840844689
 20
-7.03849138131814
 30
0.0
 10
28.8192596430481
 20
-7.014181930775978
 30
0.0
 10
28.72551906767332
 20
-6.991082270510059
 30
0.0
 10
28.67724285317283
 20
-6.992721491165262
 30
0.0
 10
28.63477417668733
 20
-7.010310221841269
 30
0.0
  0
SPLINE
  5
1F3
330
1F
100
AcDbEntity
  8
외형선
  6
Continuous
 62
     1
370
    15
100
AcDbSpline
210
0.0
220
0.0
230
1.0
 70
     8
 71
     3
 72
     8
 73
     4
 74
     0
 42
0.000000001
 43
0.00000001
 40
0.0
 40
0.0
 40
0.0
 40
0.0
 40
1.0
 40
1.0
 40
1.0
 40
1.0
 10
28.63477417668734
 20
-7.01031022184128
 30
0.0
 10
28.50414605234108
 20
-7.064410869376737
 30
0.0
 10
28.35967469115283
 20
-7.07734038799221
 30
0.0
 10
28.21392114717397
 20
-7.056029126455817
 30
0.0
  0
SPLINE
  5
1F4
330
1F
100
AcDbEntity
  8
외형선
  6
Continuous
 62
     1
370
    15
100
AcDbSpline
210
0.0
220
0.0
230
1.0
 70
     8
 71
     3
 72
     8
 73
     4
 74
     0
 42
0.000000001
 43
0.00000001
 40
0.0
 40
0.0
 40
0.0
 40
0.0
 40
1.0
 40
1.0
 40
1.0
 40
1.0
 10
28.21392116133935
 20
-7.056029131869295
 30
0.0
 10
28.06454048935332
 20
-6.998940523210767
 30
0.0
 10
27.92120175951323
 20
-6.908636471874968
 30
0.0
 10
27.79559221184741
 20
-6.791787294154919
 30
0.0
  0
SPLINE
  5
1F5
330
1F
100
AcDbEntity
  8
외형선
  6
Continuous
 62
     1
370
    15
100
AcDbSpline
210
0.0
220
0.0
230
1.0
 70
     8
 71
     3
 72
    10
 73
     6
 74
     0
 42
0.000000001
 43
0.00000001
 40
0.0
 40
0.0
 40
0.0
 40
0.0
 40
0.5
 40
0.5
 40
1.0
 40
1.0
 40
1.0
 40
1.0
 10
27.79559221184739
 20
-6.791787294154919
 30
0.0
 10
27.75642372221127
 20
-6.755350527272412
 30
0.0
 10
27.71138528098529
 20
-6.729170734200068
 30
0.0
 10
27.61768773381327
 20
-6.701475087059564
 30
0.0
 10
27.56933505764262
 20
-6.700396963302333
 30
0.0
 10
27.52663896073257
 20
-6.715067646770249
 30
0.0
  0
SPLINE
  5
1F6
330
1F
100
AcDbEntity
  8
외형선
  6
Continuous
 62
     1
370
    15
100
AcDbSpline
210
0.0
220
0.0
230
1.0
 70
     8
 71
     3
 72
    12
 73
     8
 74
     0
 42
0.000000001
 43
0.00000001
 40
0.0
 40
0.0
 40
0.0
 40
0.0
 40
0.4999999999999967
 40
0.4999999999999967
 40
0.7499999999999983
 40
0.7499999999999983
 40
1.0
 40
1.0
 40
1.0
 40
1.0
 10
27.52663896073258
 20
-6.715067646770231
 30
0.0
 10
27.35946607798729
 20
-6.772509441797607
 30
0.0
 10
27.17367151646966
 20
-6.76386184245207
 30
0.0
 10
26.89701516551232
 20
-6.675953925419842
 30
0.0
 10
26.80764068545949
 20
-6.634938443951246
 30
0.0
 10
26.63396355642273
 20
-6.530748697755899
 30
0.0
 10
26.55016258419814
 20
-6.467509944061698
 30
0.0
 10
26.4730766599207
 20
-6.395132093075694
 30
0.0
  0
SPLINE
  5
1F7
330
1F
100
AcDbEntity
  8
외형선
  6
Continuous
 62
     1
370
    15
100
AcDbSpline
210
0.0
220
0.0
230
1.0
 70
     8
 71
     3
 72
    10
 73
     6
 74
     0
 42
0.000000001
 43
0.00000001
 40
0.0
 40
0.0
 40
0.0
 40
0.0
 40
0.5
 40
0.5
 40
1.0
 40
1.0
 40
1.0
 40
1.0
 10
26.47307665992068
 20
-6.395132093075658
 30
0.0
 10
26.43370616004496
 20
-6.358166172254723
 30
0.0
 10
26.38857465673525
 20
-6.33079491838964
 30
0.0
 10
26.29491651606973
 20
-6.299676293990752
 30
0.0
 10
26.24669735083297
 20
-6.296360971729395
 30
0.0
 10
26.20427784459478
 20
-6.308472303098393
 30
0.0
  0
SPLINE
  5
1F8
330
1F
100
AcDbEntity
  8
외형선
  6
Continuous
 62
     1
370
    15
100
AcDbSpline
210
0.0
220
0.0
230
1.0
 70
     8
 71
     3
 72
     8
 73
     4
 74
     0
 42
0.000000001
 43
0.00000001
 40
0.0
 40
0.0
 40
0.0
 40
0.0
 40
1.0
 40
1.0
 40
1.0
 40
1.0
 10
26.2042778445933
 20
-6.308472303094633
 30
0.0
 10
26.07379411304787
 20
-6.345727138220114
 30
0.0
 10
25.92947058017251
 20
-6.342346924947341
 30
0.0
 10
25.78384712258011
 20
-6.307174470540426
 30
0.0
  0
SPLINE
  5
1F9
330
1F
100
AcDbEntity
  8
외형선
  6
Continuous
 62
     1
370
    15
100
AcDbSpline
210
0.0
220
0.0
230
1.0
 70
     8
 71
     3
 72
     8
 73
     4
 74
     0
 42
0.000000001
 43
0.00000001
 40
0.0
 40
0.0
 40
0.0
 40
0.0
 40
1.0
 40
1.0
 40
1.0
 40
1.0
 10
25.78384713672861
 20
-6.307174477044891
 30
0.0
 10
25.63462036258717
 20
-6.2385707702916
 30
0.0
 10
25.49142790268239
 20
-6.140166888829573
 30
0.0
 10
25.36596117677781
 20
-6.019294593537043
 30
0.0
  0
SPLINE
  5
1FA
330
1F
100
AcDbEntity
  8
외형선
  6
Continuous
 62
     1
370
    15
100
AcDbSpline
210
0.0
220
0.0
230
1.0
 70
     8
 71
     3
 72
    10
 73
     6
 74
     0
 42
0.000000001
 43
0.00000001
 40
0.0
 40
0.0
 40
0.0
 40
0.0
 40
0.5
 40
0.5
 40
1.0
 40
1.0
 40
1.0
 40
1.0
 10
25.36596117677779
 20
-6.019294593537009
 30
0.0
 10
25.32683398018228
 20
-5.981600184706592
 30
0.0
 10
25.28183669298906
 20
-5.952790588996924
 30
0.0
 10
25.18820541723074
 20
-5.917603801153478
 30
0.0
 10
25.13988788527235
 20
-5.911666544113211
 30
0.0
 10
25.09722689822704
 20
-5.920716046667843
 30
0.0
  0
SPLINE
  5
1FB
330
1F
100
AcDbEntity
  8
외형선
  6
Continuous
 62
     1
370
    15
100
AcDbSpline
210
0.0
220
0.0
230
1.0
 70
     8
 71
     3
 72
    12
 73
     8
 74
     0
 42
0.000000001
 43
0.00000001
 40
0.0
 40
0.0
 40
0.0
 40
0.0
 40
0.5000000000000013
 40
0.5000000000000013
 40
0.7500000000000007
 40
0.7500000000000007
 40
1.0
 40
1.0
 40
1.0
 40
1.0
 10
25.09722689822702
 20
-5.920716046667826
 30
0.0
 10
24.93019101973903
 20
-5.956148691662373
 30
0.0
 10
24.74451137605158
 20
-5.927738571178185
 30
0.0
 10
24.46798818986639
 20
-5.817820626200231
 30
0.0
 10
24.3786538976203
 20
-5.770913902611208
 30
0.0
 10
24.20505089737282
 20
-5.657811110592172
 30
0.0
 10
24.12128898118842
 20
-5.59161776941515
 30
0.0
 10
24.04424029501235
 20
-5.517939689837725
 30
0.0
  0
SPLINE
  5
1FC
330
1F
100
AcDbEntity
  8
외형선
  6
Continuous
 62
     1
370
    15
100
AcDbSpline
210
0.0
220
0.0
230
1.0
 70
     8
 71
     3
 72
    10
 73
     6
 74
     0
 42
0.000000001
 43
0.00000001
 40
0.0
 40
0.0
 40
0.0
 40
0.0
 40
0.5
 40
0.5
 40
1.0
 40
1.0
 40
1.0
 40
1.0
 10
24.04424029501235
 20
-5.517939689837723
 30
0.0
 10
24.00488531010322
 20
-5.480306345859902
 30
0.0
 10
23.95976758979971
 20
-5.450749425708956
 30
0.0
 10
23.86612415005264
 20
-5.412651517302616
 30
0.0
 10
23.81791506030923
 20
-5.404540283719814
 30
0.0
 10
23.7755174375215
 20
-5.410828862302786
 30
0.0
  0
SPLINE
  5
1FD
330
1F
100
AcDbEntity
  8
외형선
  6
Continuous
 62
     1
370
    15
100
AcDbSpline
210
0.0
220
0.0
230
1.0
 70
     8
 71
     3
 72
     8
 73
     4
 74
     0
 42
0.000000001
 43
0.00000001
 40
0.0
 40
0.0
 40
0.0
 40
0.0
 40
1.0
 40
1.0
 40
1.0
 40
1.0
 10
23.77551743752149
 20
-5.410828862302801
 30
0.0
 10
23.64501854494228
 20
-5.430184960286983
 30
0.0
 10
23.50075656089699
 20
-5.410470350524106
 30
0.0
 10
23.35517770157914
 20
-5.362473376445456
 30
0.0
  0
SPLINE
  5
1FE
330
1F
100
AcDbEntity
  8
외형선
  6
Continuous
 62
     1
370
    15
100
AcDbSpline
210
0.0
220
0.0
230
1.0
 70
     8
 71
     3
 72
     8
 73
     4
 74
     0
 42
0.000000001
 43
0.00000001
 40
0.0
 40
0.0
 40
0.0
 40
0.0
 40
1.0
 40
1.0
 40
1.0
 40
1.0
 10
23.35517771572507
 20
-5.362473383845823
 30
0.0
 10
23.20597808879606
 20
-5.284420331163441
 30
0.0
 10
23.06279880976093
 20
-5.180917882621301
 30
0.0
 10
22.93732974348344
 20
-5.059711054897441
 30
0.0
  0
SPLINE
  5
1FF
330
1F
100
AcDbEntity
  8
외형선
  6
Continuous
 62
     1
370
    15
100
AcDbSpline
210
0.0
220
0.0
230
1.0
 70
     8
 71
     3
 72
    10
 73
     6
 74
     0
 42
0.000000001
 43
0.00000001
 40
0.0
 40
0.0
 40
0.0
 40
0.0
 40
0.5
 40
0.5
 40
1.0
 40
1.0
 40
1.0
 40
1.0
 10
22.93732974348343
 20
-5.059711054897437
 30
0.0
 10
22.89820124715788
 20
-5.021911770548442
 30
0.0
 10
22.8532019104826
 20
-4.991350106824154
 30
0.0
 10
22.75956735732145
 20
-4.949729884818814
 30
0.0
 10
22.71124579638503
 20
-4.939093304081311
 30
0.0
 10
22.66857852595297
 20
-4.942228649710499
 30
0.0
  0
SPLINE
  5
200
330
1F
100
AcDbEntity
  8
외형선
  6
Continuous
 62
     1
370
    15
100
AcDbSpline
210
0.0
220
0.0
230
1.0
 70
     8
 71
     3
 72
    12
 73
     8
 74
     0
 42
0.000000001
 43
0.00000001
 40
0.0
 40
0.0
 40
0.0
 40
0.0
 40
0.5000000000000003
 40
0.5000000000000003
 40
0.7500000000000001
 40
0.7500000000000001
 40
1.0
 40
1.0
 40
1.0
 40
1.0
 10
22.66857852595297
 20
-4.942228649710494
 30
0.0
 10
22.50151283995804
 20
-4.954505241652461
 30
0.0
 10
22.31579508326623
 20
-4.907120055764512
 30
0.0
 10
22.03918821549622
 20
-4.778510024023438
 30
0.0
 10
21.94982132497841
 20
-4.72714093059663
 30
0.0
 10
21.77614505249314
 20
-4.608589187657335
 30
0.0
 10
21.69233913615647
 20
-4.541470786228963
 30
0.0
 10
21.6152428193025
 20
-4.468751714287606
 30
0.0
  0
SPLINE
  5
201
330
1F
100
AcDbEntity
  8
외형선
  6
Continuous
 62
     1
370
    15
100
AcDbSpline
210
0.0
220
0.0
230
1.0
 70
     8
 71
     3
 72
    10
 73
     6
 74
     0
 42
0.000000001
 43
0.00000001
 40
0.0
 40
0.0
 40
0.0
 40
0.0
 40
0.5
 40
0.5
 40
1.0
 40
1.0
 40
1.0
 40
1.0
 10
21.61524281930248
 20
-4.468751714287562
 30
0.0
 10
21.57586174551194
 20
-4.431606552819901
 30
0.0
 10
21.53071595982456
 20
-4.40076915210417
 30
0.0
 10
21.43701997359689
 20
-4.356847821975027
 30
0.0
 10
21.38878268912164
 20
-4.34416785362311
 30
0.0
 10
21.34635884949056
 20
-4.344445098383738
 30
0.0
  0
SPLINE
  5
202
330
1F
100
AcDbEntity
  8
외형선
  6
Continuous
 62
     1
370
    15
100
AcDbSpline
210
0.0
220
0.0
230
1.0
 70
     8
 71
     3
 72
     8
 73
     4
 74
     0
 42
0.000000001
 43
0.00000001
 40
0.0
 40
0.0
 40
0.0
 40
0.0
 40
1.0
 40
1.0
 40
1.0
 40
1.0
 10
21.3463588494906
 20
-4.344445098383741
 30
0.0
 10
21.21576072184548
 20
-4.345298572443429
 30
0.0
 10
21.07134880743076
 20
-4.31007153204979
 30
0.0
 10
20.92575162316485
 20
-4.250701894275521
 30
0.0
  0
SPLINE
  5
203
330
1F
100
AcDbEntity
  8
외형선
  6
Continuous
 62
     1
370
    15
100
AcDbSpline
210
0.0
220
0.0
230
1.0
 70
     8
 71
     3
 72
     8
 73
     4
 74
     0
 42
0.000000001
 43
0.00000001
 40
0.0
 40
0.0
 40
0.0
 40
0.0
 40
1.0
 40
1.0
 40
1.0
 40
1.0
 10
20.92575163732133
 20
-4.250701902348724
 30
0.0
 10
20.77642890299857
 20
-4.165545583453551
 30
0.0
 10
20.63315079410931
 20
-4.060030837366652
 30
0.0
 10
20.50753465850489
 20
-3.942151997113838
 30
0.0
  0
SPLINE
  5
204
330
1F
100
AcDbEntity
  8
외형선
  6
Continuous
 62
     1
370
    15
100
AcDbSpline
210
0.0
220
0.0
230
1.0
 70
     8
 71
     3
 72
    10
 73
     6
 74
     0
 42
0.000000001
 43
0.00000001
 40
0.0
 40
0.0
 40
0.0
 40
0.0
 40
0.5
 40
0.5
 40
1.0
 40
1.0
 40
1.0
 40
1.0
 10
20.50753465850483
 20
-3.942151997113761
 30
0.0
 10
20.4683622731194
 20
-3.905392425288429
 30
0.0
 10
20.42331772162393
 20
-3.873997152948399
 30
0.0
 10
20.32961033443442
 20
-3.827176513963665
 30
0.0
 10
20.28124557814187
 20
-3.812133939536052
 30
0.0
 10
20.23853065271419
 20
-3.809227576639216
 30
0.0
  0
SPLINE
  5
205
330
1F
100
AcDbEntity
  8
외형선
  6
Continuous
 62
     1
370
    15
100
AcDbSpline
210
0.0
220
0.0
230
1.0
 70
     8
 71
     3
 72
    12
 73
     8
 74
     0
 42
0.000000001
 43
0.00000001
 40
0.0
 40
0.0
 40
0.0
 40
0.0
 40
0.4999999999999998
 40
0.4999999999999998
 40
0.7499999999999999
 40
0.7499999999999999
 40
1.0
 40
1.0
 40
1.0
 40
1.0
 10
20.23853065271416
 20
-3.809227576639202
 30
0.0
 10
20.07132002555696
 20
-3.797850411447888
 30
0.0
 10
19.88547992130989
 20
-3.732857958110487
 30
0.0
 10
19.60864788045232
 20
-3.589447084722421
 30
0.0
 10
19.51919996058376
 20
-3.535181445216291
 30
0.0
 10
19.34535562600539
 20
-3.414800160777474
 30
0.0
 10
19.261456555748
 20
-3.34880609920625
 30
0.0
 10
19.18427477619566
 20
-3.279265317542478
 30
0.0
  0
SPLINE
  5
206
330
1F
100
AcDbEntity
  8
외형선
  6
Continuous
 62
     1
370
    15
100
AcDbSpline
210
0.0
220
0.0
230
1.0
 70
     8
 71
     3
 72
    10
 73
     6
 74
     0
 42
0.000000001
 43
0.00000001
 40
0.0
 40
0.0
 40
0.0
 40
0.0
 40
0.5
 40
0.5
 40
1.0
 40
1.0
 40
1.0
 40
1.0
 10
19.18427477619566
 20
-3.279265317542473
 30
0.0
 10
19.1448774697526
 20
-3.243768345311616
 30
0.0
 10
19.09971613039009
 20
-3.212609239040676
 30
0.0
 10
19.00599023886794
 20
-3.16422661501755
 30
0.0
 10
18.95773535119173
 20
-3.147369539962559
 30
0.0
 10
18.91529719221503
 20
-3.141622980824545
 30
0.0
  0
SPLINE
  5
207
330
1F
100
AcDbEntity
  8
외형선
  6
Continuous
 62
     1
370
    15
100
AcDbSpline
210
0.0
220
0.0
230
1.0
 70
     8
 71
     3
 72
     8
 73
     4
 74
     0
 42
0.000000001
 43
0.00000001
 40
0.0
 40
0.0
 40
0.0
 40
0.0
 40
1.0
 40
1.0
 40
1.0
 40
1.0
 10
18.91529719221504
 20
-3.141622980824501
 30
0.0
 10
18.78470285158829
 20
-3.123939176446618
 30
0.0
 10
18.64028706467182
 20
-3.074313109234803
 30
0.0
 10
18.4946648058888
 20
-3.00562063701477
 30
0.0
  0
SPLINE
  5
208
330
1F
100
AcDbEntity
  8
외형선
  6
Continuous
 62
     1
370
    15
100
AcDbSpline
210
0.0
220
0.0
230
1.0
 70
     8
 71
     3
 72
     8
 73
     4
 74
     0
 42
0.000000001
 43
0.00000001
 40
0.0
 40
0.0
 40
0.0
 40
0.0
 40
1.0
 40
1.0
 40
1.0
 40
1.0
 10
18.49466482004372
 20
-3.005620645484609
 30
0.0
 10
18.34532441445032
 20
-2.916259967545757
 30
0.0
 10
18.20213243240043
 20
-2.8121444853858
 30
0.0
 10
18.07662073634632
 20
-2.701356069328076
 30
0.0
  0
SPLINE
  5
209
330
1F
100
AcDbEntity
  8
외형선
  6
Continuous
 62
     1
370
    15
100
AcDbSpline
210
0.0
220
0.0
230
1.0
 70
     8
 71
     3
 72
    10
 73
     6
 74
     0
 42
0.000000001
 43
0.00000001
 40
0.0
 40
0.0
 40
0.0
 40
0.0
 40
0.5
 40
0.5
 40
1.0
 40
1.0
 40
1.0
 40
1.0
 10
18.07662073634631
 20
-2.701356069328013
 30
0.0
 10
18.0374837316115
 20
-2.666810071623193
 30
0.0
 10
17.99247718780484
 20
-2.635581672670379
 30
0.0
 10
17.89883567692484
 20
-2.585057266255834
 30
0.0
 10
17.85050251101035
 20
-2.566105388229509
 30
0.0
 10
17.80781805643029
 20
-2.557264364283375
 30
0.0
  0
SPLINE
  5
20A
330
1F
100
AcDbEntity
  8
외형선
  6
Continuous
 62
     1
370
    15
100
AcDbSpline
210
0.0
220
0.0
230
1.0
 70
     8
 71
     3
 72
    12
 73
     8
 74
     0
 42
0.000000001
 43
0.00000001
 40
0.0
 40
0.0
 40
0.0
 40
0.0
 40
0.5000000000000007
 40
0.5000000000000007
 40
0.7500000000000003
 40
0.7500000000000003
 40
1.0
 40
1.0
 40
1.0
 40
1.0
 10
17.80781805643025
 20
-2.557264364283282
 30
0.0
 10
17.64080575795245
 20
-2.522671917345234
 30
0.0
 10
17.45516963618107
 20
-2.442262813408099
 30
0.0
 10
17.17859249381555
 20
-2.288693738133587
 30
0.0
 10
17.08922585193462
 20
-2.233279557569432
 30
0.0
 10
16.91553812122521
 20
-2.114945452001091
 30
0.0
 10
16.83172187758526
 20
-2.052210667377115
 30
0.0
 10
16.75462120111847
 20
-1.988106844023051
 30
0.0
  0
SPLINE
  5
20B
330
1F
100
AcDbEntity
  8
외형선
  6
Continuous
 62
     1
370
    15
100
AcDbSpline
210
0.0
220
0.0
230
1.0
 70
     8
 71
     3
 72
    10
 73
     6
 74
     0
 42
0.000000001
 43
0.00000001
 40
0.0
 40
0.0
 40
0.0
 40
0.0
 40
0.5
 40
0.5
 40
1.0
 40
1.0
 40
1.0
 40
1.0
 10
16.75462120111847
 20
-1.98810684402306
 30
0.0
 10
16.71526487485522
 20
-1.955384809635583
 30
0.0
 10
16.67014405506161
 20
-1.924898568851799
 30
0.0
 10
16.57648098690357
 20
-1.873604433803268
 30
0.0
 10
16.52826083701418
 20
-1.853122889006428
 30
0.0
 10
16.48585909714162
 20
-1.841550275714857
 30
0.0
  0
SPLINE
  5
20C
330
1F
100
AcDbEntity
  8
외형선
  6
Continuous
 62
     1
370
    15
100
AcDbSpline
210
0.0
220
0.0
230
1.0
 70
     8
 71
     3
 72
     8
 73
     4
 74
     0
 42
0.000000001
 43
0.00000001
 40
0.0
 40
0.0
 40
0.0
 40
0.0
 40
1.0
 40
1.0
 40
1.0
 40
1.0
 10
16.48585909714163
 20
-1.841550275714848
 30
0.0
 10
16.35536762290928
 20
-1.805935525620236
 30
0.0
 10
16.21103712453295
 20
-1.743495921143535
 30
0.0
 10
16.06547835021773
 20
-1.667658950016061
 30
0.0
  0
SPLINE
  5
20D
330
1F
100
AcDbEntity
  8
외형선
  6
Continuous
 62
     1
370
    15
100
AcDbSpline
210
0.0
220
0.0
230
1.0
 70
     8
 71
     3
 72
     8
 73
     4
 74
     0
 42
0.000000001
 43
0.00000001
 40
0.0
 40
0.0
 40
0.0
 40
0.0
 40
1.0
 40
1.0
 40
1.0
 40
1.0
 10
16.06547836436344
 20
-1.667658958615528
 30
0.0
 10
15.91621375758713
 20
-1.576920238005301
 30
0.0
 10
15.77306974053225
 20
-1.477690986448501
 30
0.0
 10
15.64767120681229
 20
-1.377577162073655
 30
0.0
  0
SPLINE
  5
20E
330
1F
100
AcDbEntity
  8
외형선
  6
Continuous
 62
     1
370
    15
100
AcDbSpline
210
0.0
220
0.0
230
1.0
 70
     8
 71
     3
 72
    10
 73
     6
 74
     0
 42
0.000000001
 43
0.00000001
 40
0.0
 40
0.0
 40
0.0
 40
0.0
 40
0.5
 40
0.5
 40
1.0
 40
1.0
 40
1.0
 40
1.0
 10
15.64767120681231
 20
-1.377577162073686
 30
0.0
 10
15.60854387692372
 20
-1.346339263858136
 30
0.0
 10
15.56355056719022
 20
-1.316266483712264
 30
0.0
 10
15.46995274944692
 20
-1.263606998403
 30
0.0
 10
15.42165101958875
 20
-1.241317707325546
 30
0.0
 10
15.3789882532772
 20
-1.22680564662049
 30
0.0
  0
SPLINE
  5
20F
330
1F
100
AcDbEntity
  8
외형선
  6
Continuous
 62
     1
370
    15
100
AcDbSpline
210
0.0
220
0.0
230
1.0
 70
     8
 71
     3
 72
    10
 73
     6
 74
     0
 42
0.000000001
 43
0.00000001
 40
0.0
 40
0.0
 40
0.0
 40
0.0
 40
0.5
 40
0.5
 40
1.0
 40
1.0
 40
1.0
 40
1.0
 10
14.32599703325932
 20
-0.6355262755099688
 30
0.0
 10
14.28663932978574
 20
-0.6065672735558301
 30
0.0
 10
14.24151606769674
 20
-0.5776730515037996
 30
0.0
 10
14.14784653785455
 20
-0.5250104808550384
 30
0.0
 10
14.09962182657671
 20
-0.5015102422192248
 30
0.0
 10
14.05721517413071
 20
-0.4844485594429713
 30
0.0
  0
SPLINE
  5
210
330
1F
100
AcDbEntity
  8
외형선
  6
Continuous
 62
     1
370
    15
100
AcDbSpline
210
0.0
220
0.0
230
1.0
 70
     8
 71
     3
 72
     8
 73
     4
 74
     0
 42
0.000000001
 43
0.00000001
 40
0.0
 40
0.0
 40
0.0
 40
0.0
 40
1.0
 40
1.0
 40
1.0
 40
1.0
 10
14.05721517413073
 20
-0.4844485594430331
 30
0.0
 10
13.92670893113955
 20
-0.4319413232005186
 30
0.0
 10
13.78235346273932
 20
-0.3585399944240041
 30
0.0
 10
13.6367564118346
 20
-0.2778379678103596
 30
0.0
  0
SPLINE
  5
211
330
1F
100
AcDbEntity
  8
외형선
  6
Continuous
 62
     1
370
    15
100
AcDbSpline
210
0.0
220
0.0
230
1.0
 70
     8
 71
     3
 72
     8
 73
     4
 74
     0
 42
0.000000001
 43
0.00000001
 40
0.0
 40
0.0
 40
0.0
 40
0.0
 40
1.0
 40
1.0
 40
1.0
 40
1.0
 10
13.63675642598485
 20
-0.2778379762812653
 30
0.0
 10
13.48744555422842
 20
-0.1884546510451957
 30
0.0
 10
13.34424293198715
 20
-0.0970727487686238
 30
0.0
 10
13.21877675950312
 20
-0.0107184461660905
 30
0.0
  0
SPLINE
  5
212
330
1F
100
AcDbEntity
  8
외형선
  6
Continuous
 62
     1
370
    15
100
AcDbSpline
210
0.0
220
0.0
230
1.0
 70
     8
 71
     3
 72
    10
 73
     6
 74
     0
 42
0.000000001
 43
0.00000001
 40
0.0
 40
0.0
 40
0.0
 40
0.0
 40
0.5
 40
0.5
 40
1.0
 40
1.0
 40
1.0
 40
1.0
 10
13.21877675950313
 20
-0.0107184461660794
 30
0.0
 10
13.17962538848161
 20
0.0162281743736213
 30
0.0
 10
13.13460524990223
 20
0.0441856634613845
 30
0.0
 10
13.04095483299147
 20
0.0972436775913976
 30
0.0
 10
12.99263050493203
 20
0.1221140407865985
 30
0.0
 10
12.94995464882605
 20
0.1418162914275624
 30
0.0
  0
SPLINE
  5
213
330
1F
100
AcDbEntity
  8
외형선
  6
Continuous
370
    15
100
AcDbSpline
210
0.0
220
0.0
230
1.0
 70
     8
 71
     3
 72
    10
 73
     6
 74
     0
 42
0.000000001
 43
0.00000001
 40
0.0
 40
0.0
 40
0.0
 40
0.0
 40
0.5
 40
0.5
 40
1.0
 40
1.0
 40
1.0
 40
1.0
 10
11.89623835515522
 20
0.7374714575773008
 30
0.0
 10
11.85683698692064
 20
0.7617958643960697
 30
0.0
 10
11.81166841389613
 20
0.7882306481145362
 30
0.0
 10
11.71792328167577
 20
0.8406803795666676
 30
0.0
 10
11.66965478057759
 20
0.866501026570066
 30
0.0
 10
11.62720197318342
 20
0.8885550785780221
 30
0.0
  0
SPLINE
  5
214
330
1F
100
AcDbEntity
  8
외형선
  6
Continuous
370
    15
100
AcDbSpline
210
0.0
220
0.0
230
1.0
 70
     8
 71
     3
 72
    10
 73
     6
 74
     0
 42
0.000000001
 43
0.00000001
 40
0.0
 40
0.0
 40
0.0
 40
0.0
 40
0.5
 40
0.5
 40
1.0
 40
1.0
 40
1.0
 40
1.0
 10
11.45093861249265
 20
-2.490276529470374
 30
0.0
 10
11.49008201605539
 20
-2.507152307640528
 30
0.0
 10
11.5350962445332
 20
-2.528938018366245
 30
0.0
 10
11.62875308313624
 20
-2.578366270449545
 30
0.0
 10
11.67708139147836
 20
-2.605906019254387
 30
0.0
 10
11.71975383900751
 20
-2.63342152877731
 30
0.0
  0
SPLINE
  5
215
330
1F
100
AcDbEntity
  8
외형선
  6
Continuous
 62
     1
370
    15
100
AcDbSpline
210
0.0
220
0.0
230
1.0
 70
     8
 71
     3
 72
    10
 73
     6
 74
     0
 42
0.000000001
 43
0.00000001
 40
0.0
 40
0.0
 40
0.0
 40
0.0
 40
0.5
 40
0.5
 40
1.0
 40
1.0
 40
1.0
 40
1.0
 10
13.63675641183458
 20
-0.2778379678103798
 30
0.0
 10
13.60776116364992
 20
-0.8520170974164116
 30
0.0
 10
13.57809954632544
 20
-1.428323471357152
 30
0.0
 10
13.51952761013415
 20
-2.544485244766737
 30
0.0
 10
13.49063306182954
 20
-3.08404868476006
 30
0.0
 10
13.46308571508591
 20
-3.587899880467983
 30
0.0
  0
SPLINE
  5
216
330
1F
100
AcDbEntity
  8
외형선
  6
Continuous
 62
     1
370
    15
100
AcDbSpline
210
0.0
220
0.0
230
1.0
 70
     8
 71
     3
 72
     8
 73
     4
 74
     0
 42
0.000000001
 43
0.00000001
 40
0.0
 40
0.0
 40
0.0
 40
0.0
 40
1.0
 40
1.0
 40
1.0
 40
1.0
 10
13.04231176714969
 20
-3.325074631874451
 30
0.0
 10
13.17290989271109
 20
-3.415532136757294
 30
0.0
 10
13.31735525192899
 20
-3.507069432513084
 30
0.0
 10
13.46308571508588
 20
-3.587899880468199
 30
0.0
  0
LINE
  5
217
330
1F
100
AcDbEntity
  8
외형선
  6
Continuous
370
    15
100
AcDbLine
 10
-40.3875
 20
7.938574928723886
 30
0.0
 11
-40.3875
 21
-7.936425071276107
 31
0.0
  0
LINE
  5
218
330
1F
100
AcDbEntity
  8
외형선
  6
Continuous
370
    15
100
AcDbLine
 10
-41.97500000000002
 20
6.351074928723884
 30
0.0
 11
-41.97500000000002
 21
-6.348925071276114
 31
0.0
  0
LINE
  5
219
330
1F
100
AcDbEntity
  8
외형선
  6
Continuous
370
    15
100
AcDbLine
 10
11.0
 20
7.938574928723892
 30
0.0
 11
11.0
 21
7.607117515343296
 31
0.0
  0
LINE
  5
21A
330
1F
100
AcDbEntity
  8
외형선
  6
Continuous
370
    15
100
AcDbLine
 10
8.950077405443874
 20
7.859989381663806
 30
0.0
 11
8.950077405443876
 21
2.390879539946619
 31
0.0
  0
LINE
  5
21B
330
1F
100
AcDbEntity
  8
외형선
  6
Continuous
370
    15
100
AcDbLine
 10
11.0
 20
1.239395068072125
 30
0.0
 11
11.0
 21
-2.268731763603093
 31
0.0
  0
SPLINE
  5
21C
330
1F
100
AcDbEntity
  8
외형선
  6
Continuous
370
    15
100
AcDbSpline
210
0.0
220
0.0
230
1.0
 70
     8
 71
     3
 72
     8
 73
     4
 74
     0
 42
0.000000001
 43
0.00000001
 40
0.0
 40
0.0
 40
0.0
 40
0.0
 40
1.0
 40
1.0
 40
1.0
 40
1.0
 10
11.00000000000001
 20
-2.268731763603099
 30
0.0
 10
10.31507089740237
 20
-1.890221575657263
 30
0.0
 10
9.635389948186798
 20
-1.50426017686934
 30
0.0
 10
8.950077405443876
 20
-1.113093011613433
 30
0.0
  0
LINE
  5
21D
330
1F
100
AcDbEntity
  8
외형선
  6
Continuous
370
    15
100
AcDbLine
 10
8.950077405443876
 20
-1.113092864461819
 30
0.0
 11
8.950077405443878
 21
-7.568121869495783
 31
0.0
  0
SPLINE
  5
21E
330
1F
100
AcDbEntity
  8
외형선
  6
Continuous
370
    15
100
AcDbSpline
210
0.0
220
0.0
230
1.0
 70
     8
 71
     3
 72
     8
 73
     4
 74
     0
 42
0.000000001
 43
0.00000001
 40
0.0
 40
0.0
 40
0.0
 40
0.0
 40
1.0
 40
1.0
 40
1.0
 40
1.0
 10
10.59938358088805
 20
-7.79984986767422
 30
0.0
 10
10.04922232946825
 20
-7.741166803496477
 30
0.0
 10
9.50165602527979
 20
-7.663856234080595
 30
0.0
 10
8.950077405443878
 20
-7.568118559143023
 30
0.0
  0
SPLINE
  5
21F
330
1F
100
AcDbEntity
  8
외형선
  6
Continuous
370
    15
100
AcDbSpline
210
0.0
220
0.0
230
1.0
 70
     8
 71
     3
 72
     9
 73
     5
 74
     0
 42
0.000000001
 43
0.00000001
 40
0.0
 40
0.0
 40
0.0
 40
0.0
 40
0.9757026406900426
 40
1.0
 40
1.0
 40
1.0
 40
1.0
 10
10.59921629602219
 20
-7.799848285886443
 30
0.0
 10
10.57454821889465
 20
-7.887380545242373
 30
0.0
 10
10.54926584689031
 20
-7.97709256989573
 30
0.0
 10
10.52488674135592
 20
-7.934344691138689
 30
0.0
 10
10.52429439346909
 20
-7.933306030568792
 30
0.0
  0
SPLINE
  5
220
330
1F
100
AcDbEntity
  8
외형선
  6
Continuous
370
    15
100
AcDbSpline
210
0.0
220
0.0
230
1.0
 70
     8
 71
     3
 72
     8
 73
     4
 74
     0
 42
0.000000001
 43
0.00000001
 40
0.0
 40
0.0
 40
0.0
 40
0.0
 40
1.0
 40
1.0
 40
1.0
 40
1.0
 10
11.0
 20
-2.268731763603093
 30
0.0
 10
11.02019930880994
 20
-2.279705822821954
 30
0.0
 10
11.04039953229146
 20
-2.290667084178247
 30
0.0
 10
11.06060067493307
 20
-2.301615554580294
 30
0.0
  0
SPLINE
  5
221
330
1F
100
AcDbEntity
  8
외형선
  6
Continuous
 62
     1
370
    15
100
AcDbSpline
210
0.0
220
0.0
230
1.0
 70
     8
 71
     3
 72
     8
 73
     4
 74
     0
 42
0.000000001
 43
0.00000001
 40
0.0
 40
0.0
 40
0.0
 40
0.0
 40
1.0
 40
1.0
 40
1.0
 40
1.0
 10
13.46308571506142
 20
-3.58789988045657
 30
0.0
 10
13.61249614948077
 20
-3.658834597207854
 30
0.0
 10
13.75587022066003
 20
-3.713563275176172
 30
0.0
 10
13.88152525225607
 20
-3.747776891569186
 30
0.0
  0
SPLINE
  5
222
330
1F
100
AcDbEntity
  8
외형선
  6
Continuous
 62
     1
370
    15
100
AcDbSpline
210
0.0
220
0.0
230
1.0
 70
     8
 71
     3
 72
    12
 73
     8
 74
     0
 42
0.000000001
 43
0.00000001
 40
0.0
 40
0.0
 40
0.0
 40
0.0
 40
0.4999999999999998
 40
0.4999999999999998
 40
0.7499999999999999
 40
0.7499999999999999
 40
1.0
 40
1.0
 40
1.0
 40
1.0
 10
36.11109037385124
 20
-0.7832559975229082
 30
0.0
 10
36.08170650449098
 20
-1.358663292799873
 30
0.0
 10
36.05195933272854
 20
-1.930050833755749
 30
0.0
 10
36.00836984584321
 20
-2.751005690165147
 30
0.0
 10
35.99401162880392
 20
-3.018666525330658
 30
0.0
 10
35.96587803154608
 20
-3.53771603818929
 30
0.0
 10
35.95232387701993
 20
-3.78785558342084
 30
0.0
 10
35.93835967848578
 20
-4.032703527891521
 30
0.0
  0
SPLINE
  5
224
330
1F
100
AcDbEntity
  8
외형선
  6
Continuous
 62
     1
370
    15
100
AcDbSpline
210
0.0
220
0.0
230
1.0
 70
     8
 71
     3
 72
     8
 73
     4
 74
     0
 42
0.000000001
 43
0.00000001
 40
0.0
 40
0.0
 40
0.0
 40
0.0
 40
1.0
 40
1.0
 40
1.0
 40
1.0
 10
49.28737237181505
 20
3.84362885051735
 30
0.0
 10
49.156888175916
 20
3.93765618128925
 30
0.0
 10
49.01255181547905
 20
4.029744363838335
 30
0.0
 10
48.86696506601381
 20
4.108663954662802
 30
0.0
  0
SPLINE
  5
225
330
1F
100
AcDbEntity
  8
외형선
  6
Continuous
 62
     1
370
    15
100
AcDbSpline
210
0.0
220
0.0
230
1.0
 70
     8
 71
     3
 72
    12
 73
     8
 74
     0
 42
0.000000001
 43
0.00000001
 40
0.0
 40
0.0
 40
0.0
 40
0.0
 40
0.5000000000000003
 40
0.5000000000000003
 40
0.7500000000000001
 40
0.7500000000000001
 40
1.0
 40
1.0
 40
1.0
 40
1.0
 10
48.18029761234452
 20
4.374309725503929
 30
0.0
 10
48.01318096447739
 20
4.498402971473005
 30
0.0
 10
47.82758277623996
 20
4.611554936928525
 30
0.0
 10
47.5510144529394
 20
4.739232002873595
 30
0.0
 10
47.46163764356051
 20
4.773798169771682
 30
0.0
 10
47.28790636129064
 20
4.827042919782727
 30
0.0
 10
47.20404888855289
 20
4.845360839628287
 30
0.0
 10
47.12689567167618
 20
4.854464846191291
 30
0.0
  0
SPLINE
  5
226
330
1F
100
AcDbEntity
  8
외형선
  6
Continuous
370
    15
100
AcDbSpline
210
0.0
220
0.0
230
1.0
 70
     8
 71
     3
 72
     8
 73
     4
 74
     0
 42
0.000000001
 43
0.00000001
 40
0.0
 40
0.0
 40
0.0
 40
0.0
 40
1.0
 40
1.0
 40
1.0
 40
1.0
 10
11.92054019941152
 20
-2.759669333558319
 30
0.0
 10
11.94702512057657
 20
-2.773530405183534
 30
0.0
 10
11.97351171794023
 20
-2.787369612126435
 30
0.0
 10
12.0
 20
-2.80118695034025
 30
0.0
  0
SPLINE
  5
227
330
1F
100
AcDbEntity
  8
외형선
  6
Continuous
 62
     1
370
    15
100
AcDbSpline
210
0.0
220
0.0
230
1.0
 70
     8
 71
     3
 72
    10
 73
     6
 74
     0
 42
0.000000001
 43
0.00000001
 40
0.0
 40
0.0
 40
0.0
 40
0.0
 40
0.5
 40
0.5
 40
1.0
 40
1.0
 40
1.0
 40
1.0
 10
12.77334686434893
 20
-3.186178069682177
 30
0.0
 10
12.81273339173982
 20
-3.200055381235495
 30
0.0
 10
12.85788409090251
 20
-3.219858884563163
 30
0.0
 10
12.95159547647891
 20
-3.267691596058843
 30
0.0
 10
12.99985696142364
 20
-3.295668728996761
 30
0.0
 10
13.04231176714968
 20
-3.325074631874422
 30
0.0
  0
SPLINE
  5
228
330
1F
100
AcDbEntity
  8
외형선
  6
Continuous
 62
     1
370
    15
100
AcDbSpline
210
0.0
220
0.0
230
1.0
 70
     8
 71
     3
 72
    10
 73
     6
 74
     0
 42
0.000000001
 43
0.00000001
 40
0.0
 40
0.0
 40
0.0
 40
0.0
 40
0.5
 40
0.5
 40
1.0
 40
1.0
 40
1.0
 40
1.0
 10
13.88152525225607
 20
-3.74777689156919
 30
0.0
 10
13.92070852941915
 20
-3.758445796720464
 30
0.0
 10
13.96576195051039
 20
-3.775940251054975
 30
0.0
 10
14.05948452457979
 20
-3.821284817850517
 30
0.0
 10
14.10785169037509
 20
-3.849114461797426
 30
0.0
 10
14.15056267525518
 20
-3.879739275533117
 30
0.0
  0
SPLINE
  5
229
330
1F
100
AcDbEntity
  8
외형선
  6
Continuous
 62
     1
370
    15
100
AcDbSpline
210
0.0
220
0.0
230
1.0
 70
     8
 71
     3
 72
    10
 73
     6
 74
     0
 42
0.000000001
 43
0.00000001
 40
0.0
 40
0.0
 40
0.0
 40
0.0
 40
0.5
 40
0.5
 40
1.0
 40
1.0
 40
1.0
 40
1.0
 10
15.20440529113151
 20
-4.384239032545511
 30
0.0
 10
15.2437866060823
 20
-4.391701493626902
 30
0.0
 10
15.2889296266629
 20
-4.406912988306955
 30
0.0
 10
15.38260937089569
 20
-4.449971160672708
 30
0.0
 10
15.43084001803979
 20
-4.477837437553043
 30
0.0
 10
15.47326191240205
 20
-4.509922694861485
 30
0.0
  0
SPLINE
  5
22A
330
1F
100
AcDbEntity
  8
외형선
  6
Continuous
 62
     1
370
    15
100
AcDbSpline
210
0.0
220
0.0
230
1.0
 70
     8
 71
     3
 72
     8
 73
     4
 74
     0
 42
0.000000001
 43
0.00000001
 40
0.0
 40
0.0
 40
0.0
 40
0.0
 40
1.0
 40
1.0
 40
1.0
 40
1.0
 10
15.47326191240208
 20
-4.509922694861491
 30
0.0
 10
15.60377132789077
 20
-4.608631822308054
 30
0.0
 10
15.74810996447188
 20
-4.701179479271318
 30
0.0
 10
15.89375289428733
 20
-4.777128559590356
 30
0.0
  0
SPLINE
  5
22B
330
1F
100
AcDbEntity
  8
외형선
  6
Continuous
 62
     1
370
    15
100
AcDbSpline
210
0.0
220
0.0
230
1.0
 70
     8
 71
     3
 72
     8
 73
     4
 74
     0
 42
0.000000001
 43
0.00000001
 40
0.0
 40
0.0
 40
0.0
 40
0.0
 40
1.0
 40
1.0
 40
1.0
 40
1.0
 10
15.89375289426284
 20
-4.77712855958054
 30
0.0
 10
16.04299461450309
 20
-4.836993788154524
 30
0.0
 10
16.18620859434953
 20
-4.875020923205756
 30
0.0
 10
16.31169995672593
 20
-4.888144625353585
 30
0.0
  0
SPLINE
  5
22C
330
1F
100
AcDbEntity
  8
외형선
  6
Continuous
 62
     1
370
    15
100
AcDbSpline
210
0.0
220
0.0
230
1.0
 70
     8
 71
     3
 72
    10
 73
     6
 74
     0
 42
0.000000001
 43
0.00000001
 40
0.0
 40
0.0
 40
0.0
 40
0.0
 40
0.5
 40
0.5
 40
1.0
 40
1.0
 40
1.0
 40
1.0
 10
16.31169995672604
 20
-4.88814462535382
 30
0.0
 10
16.35083195408037
 20
-4.892236992095265
 30
0.0
 10
16.39583400621752
 20
-4.904859212219914
 30
0.0
 10
16.48947309973774
 20
-4.944654405615877
 30
0.0
 10
16.53779580127951
 20
-4.971879803925797
 30
0.0
 10
16.58046237456731
 20
-5.004620822016946
 30
0.0
  0
SPLINE
  5
22D
330
1F
100
AcDbEntity
  8
외형선
  6
Continuous
 62
     1
370
    15
100
AcDbSpline
210
0.0
220
0.0
230
1.0
 70
     8
 71
     3
 72
    12
 73
     8
 74
     0
 42
0.000000001
 43
0.00000001
 40
0.0
 40
0.0
 40
0.0
 40
0.0
 40
0.5000000000000004
 40
0.5000000000000004
 40
0.7500000000000002
 40
0.7500000000000002
 40
1.0
 40
1.0
 40
1.0
 40
1.0
 10
16.58046237456709
 20
-5.004620822016767
 30
0.0
 10
16.74750139075426
 20
-5.132801433429393
 30
0.0
 10
16.93318198337357
 20
-5.243272869929967
 30
0.0
 10
17.20972145401064
 20
-5.360031255756666
 30
0.0
 10
17.29906271284883
 20
-5.389896808912931
 30
0.0
 10
17.47268146719925
 20
-5.431744470285838
 30
0.0
 10
17.55645225776478
 20
-5.443362904987036
 30
0.0
 10
17.63350874474125
 20
-5.444980314147476
 30
0.0
  0
SPLINE
  5
22E
330
1F
100
AcDbEntity
  8
외형선
  6
Continuous
 62
     1
370
    15
100
AcDbSpline
210
0.0
220
0.0
230
1.0
 70
     8
 71
     3
 72
    10
 73
     6
 74
     0
 42
0.000000001
 43
0.00000001
 40
0.0
 40
0.0
 40
0.0
 40
0.0
 40
0.5
 40
0.5
 40
1.0
 40
1.0
 40
1.0
 40
1.0
 10
17.63350874474126
 20
-5.444980314147479
 30
0.0
 10
17.67286356667019
 20
-5.445806368539435
 30
0.0
 10
17.71798125894029
 20
-5.455951561595456
 30
0.0
 10
17.81162672630626
 20
-5.492850631302336
 30
0.0
 10
17.85983673766315
 20
-5.519697151669153
 30
0.0
 10
17.90223401814945
 20
-5.553401887642581
 30
0.0
  0
SPLINE
  5
22F
330
1F
100
AcDbEntity
  8
외형선
  6
Continuous
 62
     1
370
    15
100
AcDbSpline
210
0.0
220
0.0
230
1.0
 70
     8
 71
     3
 72
     8
 73
     4
 74
     0
 42
0.000000001
 43
0.00000001
 40
0.0
 40
0.0
 40
0.0
 40
0.0
 40
1.0
 40
1.0
 40
1.0
 40
1.0
 10
17.90223401814798
 20
-5.5534018876414
 30
0.0
 10
18.03273909211307
 20
-5.657150029284723
 30
0.0
 10
18.17700666164863
 20
-5.747803069168203
 30
0.0
 10
18.32256275553339
 20
-5.81651995691577
 30
0.0
  0
SPLINE
  5
230
330
1F
100
AcDbEntity
  8
외형선
  6
Continuous
 62
     1
370
    15
100
AcDbSpline
210
0.0
220
0.0
230
1.0
 70
     8
 71
     3
 72
     8
 73
     4
 74
     0
 42
0.000000001
 43
0.00000001
 40
0.0
 40
0.0
 40
0.0
 40
0.0
 40
1.0
 40
1.0
 40
1.0
 40
1.0
 10
18.32256275550835
 20
-5.816519956907864
 30
0.0
 10
18.47174613817104
 20
-5.863527144318748
 30
0.0
 10
18.61491471916878
 20
-5.883754449278359
 30
0.0
 10
18.74037444660615
 20
-5.875473601343429
 30
0.0
  0
SPLINE
  5
231
330
1F
100
AcDbEntity
  8
외형선
  6
Continuous
 62
     1
370
    15
100
AcDbSpline
210
0.0
220
0.0
230
1.0
 70
     8
 71
     3
 72
    10
 73
     6
 74
     0
 42
0.000000001
 43
0.00000001
 40
0.0
 40
0.0
 40
0.0
 40
0.0
 40
0.5
 40
0.5
 40
1.0
 40
1.0
 40
1.0
 40
1.0
 10
18.74037444660626
 20
-5.875473601343638
 30
0.0
 10
18.77949762274988
 20
-5.872891313951544
 30
0.0
 10
18.82449136697136
 20
-5.880277988286458
 30
0.0
 10
18.91811632539403
 20
-5.913332042012513
 30
0.0
 10
18.96643362196458
 20
-5.939128137984504
 30
0.0
 10
19.00909706754374
 20
-5.972992957665682
 30
0.0
  0
SPLINE
  5
232
330
1F
100
AcDbEntity
  8
외형선
  6
Continuous
 62
     1
370
    15
100
AcDbSpline
210
0.0
220
0.0
230
1.0
 70
     8
 71
     3
 72
    12
 73
     8
 74
     0
 42
0.000000001
 43
0.00000001
 40
0.0
 40
0.0
 40
0.0
 40
0.0
 40
0.5000000000000004
 40
0.5000000000000004
 40
0.7500000000000002
 40
0.7500000000000002
 40
1.0
 40
1.0
 40
1.0
 40
1.0
 10
19.00909706754322
 20
-5.972992957665276
 30
0.0
 10
19.17612845311029
 20
-6.105576898707495
 30
0.0
 10
19.361810244659
 20
-6.209469318267001
 30
0.0
 10
19.63837985955769
 20
-6.305208000635719
 30
0.0
 10
19.7277357791747
 20
-6.326389043600956
 30
0.0
 10
19.90139170255817
 20
-6.347731029300665
 30
0.0
 10
19.98518668242315
 20
-6.347534168075235
 30
0.0
 10
20.06227084268983
 20
-6.336166278650855
 30
0.0
  0
SPLINE
  5
233
330
1F
100
AcDbEntity
  8
외형선
  6
Continuous
 62
     1
370
    15
100
AcDbSpline
210
0.0
220
0.0
230
1.0
 70
     8
 71
     3
 72
    10
 73
     6
 74
     0
 42
0.000000001
 43
0.00000001
 40
0.0
 40
0.0
 40
0.0
 40
0.0
 40
0.5
 40
0.5
 40
1.0
 40
1.0
 40
1.0
 40
1.0
 10
20.06227084268986
 20
-6.336166278650864
 30
0.0
 10
20.10164169995996
 20
-6.330360111074526
 30
0.0
 10
20.14677717746379
 20
-6.335155954617908
 30
0.0
 10
20.24045787129747
 20
-6.364804931527993
 30
0.0
 10
20.28868664224507
 20
-6.389825263940048
 30
0.0
 10
20.33110076694068
 20
-6.424137110800428
 30
0.0
  0
SPLINE
  5
234
330
1F
100
AcDbEntity
  8
외형선
  6
Continuous
 62
     1
370
    15
100
AcDbSpline
210
0.0
220
0.0
230
1.0
 70
     8
 71
     3
 72
     8
 73
     4
 74
     0
 42
0.000000001
 43
0.00000001
 40
0.0
 40
0.0
 40
0.0
 40
0.0
 40
1.0
 40
1.0
 40
1.0
 40
1.0
 10
20.33110076694073
 20
-6.424137110800467
 30
0.0
 10
20.46166446106492
 20
-6.529759506888216
 30
0.0
 10
20.60604750646122
 20
-6.615553311038934
 30
0.0
 10
20.7516241306549
 20
-6.67484247590801
 30
0.0
  0
SPLINE
  5
235
330
1F
100
AcDbEntity
  8
외형선
  6
Continuous
 62
     1
370
    15
100
AcDbSpline
210
0.0
220
0.0
230
1.0
 70
     8
 71
     3
 72
     8
 73
     4
 74
     0
 42
0.000000001
 43
0.00000001
 40
0.0
 40
0.0
 40
0.0
 40
0.0
 40
1.0
 40
1.0
 40
1.0
 40
1.0
 10
20.75162413062881
 20
-6.674842475902222
 30
0.0
 10
20.90093830511798
 20
-6.70748973999557
 30
0.0
 10
21.0441447885
 20
-6.709366386416036
 30
0.0
 10
21.16971104049721
 20
-6.679975132375602
 30
0.0
  0
SPLINE
  5
236
330
1F
100
AcDbEntity
  8
외형선
  6
Continuous
 62
     1
370
    15
100
AcDbSpline
210
0.0
220
0.0
230
1.0
 70
     8
 71
     3
 72
    10
 73
     6
 74
     0
 42
0.000000001
 43
0.00000001
 40
0.0
 40
0.0
 40
0.0
 40
0.0
 40
0.5
 40
0.5
 40
1.0
 40
1.0
 40
1.0
 40
1.0
 10
21.16971104049718
 20
-6.679975132375608
 30
0.0
 10
21.20886807838501
 20
-6.670809656543314
 30
0.0
 10
21.25389678808619
 20
-6.672744025429083
 30
0.0
 10
21.34757731501832
 20
-6.698046030606172
 30
0.0
 10
21.39592846654106
 20
-6.721615964385124
 30
0.0
 10
21.43863026163742
 20
-6.755569384682039
 30
0.0
  0
SPLINE
  5
237
330
1F
100
AcDbEntity
  8
외형선
  6
Continuous
 62
     1
370
    15
100
AcDbSpline
210
0.0
220
0.0
230
1.0
 70
     8
 71
     3
 72
    12
 73
     8
 74
     0
 42
0.000000001
 43
0.00000001
 40
0.0
 40
0.0
 40
0.0
 40
0.0
 40
0.5000000000000018
 40
0.5000000000000018
 40
0.7500000000000009
 40
0.7500000000000009
 40
1.0
 40
1.0
 40
1.0
 40
1.0
 10
21.43863026163738
 20
-6.755569384682013
 30
0.0
 10
21.60581766836228
 20
-6.888504880158793
 30
0.0
 10
21.79164947348287
 20
-6.982612689585432
 30
0.0
 10
22.06846168807047
 20
-7.054420490231212
 30
0.0
 10
22.1579037941772
 20
-7.066283331774975
 30
0.0
 10
22.3317421228795
 20
-7.06651134364223
 30
0.0
 10
22.41564423159308
 20
-7.054537254850956
 30
0.0
 10
22.4928341126106
 20
-7.03055263746641
 30
0.0
  0
SPLINE
  5
238
330
1F
100
AcDbEntity
  8
외형선
  6
Continuous
 62
     1
370
    15
100
AcDbSpline
210
0.0
220
0.0
230
1.0
 70
     8
 71
     3
 72
    10
 73
     6
 74
     0
 42
0.000000001
 43
0.00000001
 40
0.0
 40
0.0
 40
0.0
 40
0.0
 40
0.5
 40
0.5
 40
1.0
 40
1.0
 40
1.0
 40
1.0
 10
22.4928341126106
 20
-7.030552637466416
 30
0.0
 10
22.53224641809331
 20
-7.018306355249311
 30
0.0
 10
22.57742305916551
 20
-7.017612454984135
 30
0.0
 10
22.67117534440456
 20
-7.039105110301218
 30
0.0
 10
22.71944515855627
 20
-7.061529489644281
 30
0.0
 10
22.76189798230513
 20
-7.095401972714354
 30
0.0
  0
SPLINE
  5
239
330
1F
100
AcDbEntity
  8
외형선
  6
Continuous
 62
     1
370
    15
100
AcDbSpline
210
0.0
220
0.0
230
1.0
 70
     8
 71
     3
 72
     8
 73
     4
 74
     0
 42
0.000000001
 43
0.00000001
 40
0.0
 40
0.0
 40
0.0
 40
0.0
 40
1.0
 40
1.0
 40
1.0
 40
1.0
 10
22.76189798230516
 20
-7.095401972714384
 30
0.0
 10
22.89252741422575
 20
-7.199629273290645
 30
0.0
 10
23.03698034183027
 20
-7.277972392330074
 30
0.0
 10
23.18264340512052
 20
-7.325942094938162
 30
0.0
  0
SPLINE
  5
23A
330
1F
100
AcDbEntity
  8
외형선
  6
Continuous
 62
     1
370
    15
100
AcDbSpline
210
0.0
220
0.0
230
1.0
 70
     8
 71
     3
 72
     8
 73
     4
 74
     0
 42
0.000000001
 43
0.00000001
 40
0.0
 40
0.0
 40
0.0
 40
0.0
 40
1.0
 40
1.0
 40
1.0
 40
1.0
 10
23.18264340509602
 20
-7.325942094935351
 30
0.0
 10
23.33202679890501
 20
-7.343110507870017
 30
0.0
 10
23.47528210573044
 20
-7.326361066844838
 30
0.0
 10
23.60080961326343
 20
-7.276713068082241
 30
0.0
  0
SPLINE
  5
23B
330
1F
100
AcDbEntity
  8
외형선
  6
Continuous
 62
     1
370
    15
100
AcDbSpline
210
0.0
220
0.0
230
1.0
 70
     8
 71
     3
 72
    10
 73
     6
 74
     0
 42
0.000000001
 43
0.00000001
 40
0.0
 40
0.0
 40
0.0
 40
0.0
 40
0.5
 40
0.5
 40
1.0
 40
1.0
 40
1.0
 40
1.0
 10
23.60080961326342
 20
-7.276713068082266
 30
0.0
 10
23.63995668494482
 20
-7.261229818198674
 30
0.0
 10
23.68497318738911
 20
-7.257624654631958
 30
0.0
 10
23.7786297972537
 20
-7.274343456390131
 30
0.0
 10
23.82697280250508
 20
-7.294935359786721
 30
0.0
 10
23.86966861986044
 20
-7.327898378953074
 30
0.0
  0
SPLINE
  5
23C
330
1F
100
AcDbEntity
  8
외형선
  6
Continuous
 62
     1
370
    15
100
AcDbSpline
210
0.0
220
0.0
230
1.0
 70
     8
 71
     3
 72
    12
 73
     8
 74
     0
 42
0.000000001
 43
0.00000001
 40
0.0
 40
0.0
 40
0.0
 40
0.0
 40
0.5000000000000017
 40
0.5000000000000017
 40
0.7500000000000008
 40
0.7500000000000008
 40
1.0
 40
1.0
 40
1.0
 40
1.0
 10
23.86966861986042
 20
-7.327898378953059
 30
0.0
 10
24.03670756482748
 20
-7.456859675059646
 30
0.0
 10
24.22236231065685
 20
-7.538198377691215
 30
0.0
 10
24.49897922410528
 20
-7.583775856556149
 30
0.0
 10
24.5883607911604
 20
-7.585929335486363
 30
0.0
 10
24.7620807591401
 20
-7.564966402294417
 30
0.0
 10
24.84591596753553
 20
-7.541535052518585
 30
0.0
 10
24.92303516951229
 20
-7.505638733103557
 30
0.0
  0
SPLINE
  5
23D
330
1F
100
AcDbEntity
  8
외형선
  6
Continuous
 62
     1
370
    15
100
AcDbSpline
210
0.0
220
0.0
230
1.0
 70
     8
 71
     3
 72
    10
 73
     6
 74
     0
 42
0.000000001
 43
0.00000001
 40
0.0
 40
0.0
 40
0.0
 40
0.0
 40
0.5
 40
0.5
 40
1.0
 40
1.0
 40
1.0
 40
1.0
 10
24.92303516951227
 20
-7.505638733103581
 30
0.0
 10
24.96239655697764
 20
-7.487317369540958
 30
0.0
 10
25.00752251716128
 20
-7.481142232329915
 30
0.0
 10
25.10119483529794
 20
-7.49380049156105
 30
0.0
 10
25.14942057817546
 20
-7.512933088247075
 30
0.0
 10
25.19182771145968
 20
-7.545286249937223
 30
0.0
  0
SPLINE
  5
23E
330
1F
100
AcDbEntity
  8
외형선
  6
Continuous
 62
     1
370
    15
100
AcDbSpline
210
0.0
220
0.0
230
1.0
 70
     8
 71
     3
 72
     8
 73
     4
 74
     0
 42
0.000000001
 43
0.00000001
 40
0.0
 40
0.0
 40
0.0
 40
0.0
 40
1.0
 40
1.0
 40
1.0
 40
1.0
 10
25.19182771145971
 20
-7.545286249937234
 30
0.0
 10
25.32232774167113
 20
-7.644847060843769
 30
0.0
 10
25.46666876026927
 20
-7.713316240047054
 30
0.0
 10
25.612242790594
 20
-7.748488207431075
 30
0.0
  0
SPLINE
  5
23F
330
1F
100
AcDbEntity
  8
외형선
  6
Continuous
 62
     1
370
    15
100
AcDbSpline
210
0.0
220
0.0
230
1.0
 70
     8
 71
     3
 72
     8
 73
     4
 74
     0
 42
0.000000001
 43
0.00000001
 40
0.0
 40
0.0
 40
0.0
 40
0.0
 40
1.0
 40
1.0
 40
1.0
 40
1.0
 10
25.61224279056924
 20
-7.748488207430857
 30
0.0
 10
25.76151381238931
 20
-7.749663397647562
 30
0.0
 10
25.90466899309233
 20
-7.714809930761159
 30
0.0
 10
26.03007729695437
 20
-7.646385753943359
 30
0.0
  0
SPLINE
  5
240
330
1F
100
AcDbEntity
  8
외형선
  6
Continuous
 62
     1
370
    15
100
AcDbSpline
210
0.0
220
0.0
230
1.0
 70
     8
 71
     3
 72
    10
 73
     6
 74
     0
 42
0.000000001
 43
0.00000001
 40
0.0
 40
0.0
 40
0.0
 40
0.0
 40
0.5
 40
0.5
 40
1.0
 40
1.0
 40
1.0
 40
1.0
 10
26.03007729695437
 20
-7.646385753943363
 30
0.0
 10
26.06920731954675
 20
-7.625035974843483
 30
0.0
 10
26.1142041663902
 20
-7.615989290970044
 30
0.0
 10
26.20781086460106
 20
-7.623589430297977
 30
0.0
 10
26.25611069260373
 20
-7.640558480290996
 30
0.0
 10
26.29876713845649
 20
-7.671480361257363
 30
0.0
  0
SPLINE
  5
241
330
1F
100
AcDbEntity
  8
외형선
  6
Continuous
 62
     1
370
    15
100
AcDbSpline
210
0.0
220
0.0
230
1.0
 70
     8
 71
     3
 72
    12
 73
     8
 74
     0
 42
0.000000001
 43
0.00000001
 40
0.0
 40
0.0
 40
0.0
 40
0.0
 40
0.4999999999999999
 40
0.4999999999999999
 40
0.7499999999999999
 40
0.7499999999999999
 40
1.0
 40
1.0
 40
1.0
 40
1.0
 10
26.29876713845648
 20
-7.671480361257354
 30
0.0
 10
26.46571448957689
 20
-7.79250137029346
 30
0.0
 10
26.65127670155256
 20
-7.85854161723632
 30
0.0
 10
26.92778367668674
 20
-7.876469960230618
 30
0.0
 10
27.01713317533313
 20
-7.868851348581523
 30
0.0
 10
27.19079721457425
 20
-7.827389215149419
 30
0.0
 10
27.27460760754495
 20
-7.793267961245394
 30
0.0
 10
27.35170620991768
 20
-7.746623272531104
 30
0.0
  0
SPLINE
  5
242
330
1F
100
AcDbEntity
  8
외형선
  6
Continuous
 62
     1
370
    15
100
AcDbSpline
210
0.0
220
0.0
230
1.0
 70
     8
 71
     3
 72
     8
 73
     4
 74
     0
 42
0.000000001
 43
0.00000001
 40
0.0
 40
0.0
 40
0.0
 40
0.0
 40
1.0
 40
1.0
 40
1.0
 40
1.0
 10
27.35170620991767
 20
-7.746623272531106
 30
0.0
 10
27.43036531861368
 20
-7.699034476797423
 30
0.0
 10
27.53567132723355
 20
-7.700246155814308
 30
0.0
 10
27.62046199158433
 20
-7.759934404739017
 30
0.0
  0
SPLINE
  5
243
330
1F
100
AcDbEntity
  8
외형선
  6
Continuous
 62
     1
370
    15
100
AcDbSpline
210
0.0
220
0.0
230
1.0
 70
     8
 71
     3
 72
     8
 73
     4
 74
     0
 42
0.000000001
 43
0.00000001
 40
0.0
 40
0.0
 40
0.0
 40
0.0
 40
1.0
 40
1.0
 40
1.0
 40
1.0
 10
27.62046199158434
 20
-7.759934404739018
 30
0.0
 10
27.75094998304523
 20
-7.851791212037754
 30
0.0
 10
27.89528913271191
 20
-7.908296639623681
 30
0.0
 10
28.04087573251205
 20
-7.929632172915738
 30
0.0
  0
SPLINE
  5
244
330
1F
100
AcDbEntity
  8
외형선
  6
Continuous
 62
     1
370
    15
100
AcDbSpline
210
0.0
220
0.0
230
1.0
 70
     8
 71
     3
 72
    11
 73
     7
 74
     0
 42
0.000000001
 43
0.00000001
 40
0.0
 40
0.0
 40
0.0
 40
0.0
 40
0.3285377805405563
 40
0.6593590141478805
 40
0.9150654932248694
 40
1.0
 40
1.0
 40
1.0
 40
1.0
 10
28.04087573251191
 20
-7.929632172915717
 30
0.0
 10
28.069683177677
 20
-7.925991978325742
 30
0.0
 10
28.12749828987785
 20
-7.918686288513742
 30
0.0
 10
28.20560786800024
 20
-7.898385392286676
 30
0.0
 10
28.26195794040542
 20
-7.88009250317462
 30
0.0
 10
28.28952181418862
 20
-7.86798582994978
 30
0.0
 10
28.29639451630558
 20
-7.864967184625975
 30
0.0
  0
SPLINE
  5
245
330
1F
100
AcDbEntity
  8
외형선
  6
Continuous
 62
     1
370
    15
100
AcDbSpline
210
0.0
220
0.0
230
1.0
 70
     8
 71
     3
 72
    10
 73
     6
 74
     0
 42
0.000000001
 43
0.00000001
 40
0.0
 40
0.0
 40
0.0
 40
0.0
 40
0.3438865880727662
 40
0.6682258756818762
 40
1.0
 40
1.0
 40
1.0
 40
1.0
 10
28.61914950214727
 20
-7.738500942293653
 30
0.0
 10
28.63202807911418
 20
-7.740110725822875
 30
0.0
 10
28.65705318526759
 20
-7.743238789102407
 30
0.0
 10
28.69373290416255
 20
-7.756463989105797
 30
0.0
 10
28.71619928699521
 20
-7.769627661875785
 30
0.0
 10
28.72755976881954
 20
-7.776284081218357
 30
0.0
  0
LINE
  5
246
330
1F
100
AcDbEntity
  8
외형선
  6
Continuous
 62
     1
370
    15
100
AcDbLine
 10
28.72755976881953
 20
-7.776284081218365
 30
0.0
 11
28.7787125521314
 21
-7.79809447218322
 31
0.0
  0
SPLINE
  5
247
330
1F
100
AcDbEntity
  8
외형선
  6
Continuous
 62
     1
370
    15
100
AcDbSpline
210
0.0
220
0.0
230
1.0
 70
     8
 71
     3
 72
    13
 73
     9
 74
     0
 42
0.000000001
 43
0.00000001
 40
0.0
 40
0.0
 40
0.0
 40
0.0
 40
0.1113131526902697
 40
0.293216722308853
 40
0.4674136411808258
 40
0.6426217826162671
 40
0.8208285180913967
 40
1.0
 40
1.0
 40
1.0
 40
1.0
 10
20.71208485689548
 20
-6.65751803002106
 30
0.0
 10
20.69835687497881
 20
-6.668242824376335
 30
0.0
 10
20.66219516574465
 20
-6.696493655228648
 30
0.0
 10
20.60206940689045
 20
-6.737350079203504
 30
0.0
 10
20.53251354667949
 20
-6.780443526383928
 30
0.0
 10
20.4621720347138
 20
-6.818968196295473
 30
0.0
 10
20.39037557213889
 20
-6.853939071507574
 30
0.0
 10
20.34183565480182
 20
-6.873562726269946
 30
0.0
 10
20.3175001791126
 20
-6.883401040787201
 30
0.0
  0
SPLINE
  5
248
330
1F
100
AcDbEntity
  8
외형선
  6
Continuous
 62
     1
370
    15
100
AcDbSpline
210
0.0
220
0.0
230
1.0
 70
     8
 71
     3
 72
     8
 73
     4
 74
     0
 42
0.000000001
 43
0.00000001
 40
0.0
 40
0.0
 40
0.0
 40
0.0
 40
1.0
 40
1.0
 40
1.0
 40
1.0
 10
20.31750019325864
 20
-6.883401038114984
 30
0.0
 10
20.16828930628935
 20
-6.911587579120284
 30
0.0
 10
20.0251186921683
 20
-6.907934569792521
 30
0.0
 10
19.89967462639682
 20
-6.872513873331795
 30
0.0
  0
SPLINE
  5
249
330
1F
100
AcDbEntity
  8
외형선
  6
Continuous
 62
     1
370
    15
100
AcDbSpline
210
0.0
220
0.0
230
1.0
 70
     8
 71
     3
 72
     8
 73
     4
 74
     0
 42
0.000000001
 43
0.00000001
 40
0.0
 40
0.0
 40
0.0
 40
0.0
 40
1.0
 40
1.0
 40
1.0
 40
1.0
 10
19.89967462639681
 20
-6.872513873331802
 30
0.0
 10
19.82147374472859
 20
-6.850432879101454
 30
0.0
 10
19.71625931554678
 20
-6.873670030983257
 30
0.0
 10
19.63095923763214
 20
-6.941131359765424
 30
0.0
  0
SPLINE
  5
24A
330
1F
100
AcDbEntity
  8
외형선
  6
Continuous
 62
     1
370
    15
100
AcDbSpline
210
0.0
220
0.0
230
1.0
 70
     8
 71
     3
 72
    12
 73
     8
 74
     0
 42
0.000000001
 43
0.00000001
 40
0.0
 40
0.0
 40
0.0
 40
0.0
 40
0.4999999999999998
 40
0.4999999999999998
 40
0.7499999999999999
 40
0.7499999999999999
 40
1.0
 40
1.0
 40
1.0
 40
1.0
 10
19.63095923763219
 20
-6.941131359765377
 30
0.0
 10
19.46391196124488
 20
-7.073244149226221
 30
0.0
 10
19.27821728873818
 20
-7.163938900772306
 30
0.0
 10
19.00168738651564
 20
-7.228409115529206
 30
0.0
 10
18.91235206330032
 20
-7.237519104391303
 30
0.0
 10
18.73874794805218
 20
-7.231680323904261
 30
0.0
 10
18.65498499541166
 20
-7.216397429447722
 30
0.0
 10
18.57793316380477
 20
-7.188957817157092
 30
0.0
  0
SPLINE
  5
24B
330
1F
100
AcDbEntity
  8
외형선
  6
Continuous
 62
     1
370
    15
100
AcDbSpline
210
0.0
220
0.0
230
1.0
 70
     8
 71
     3
 72
    10
 73
     6
 74
     0
 42
0.000000001
 43
0.00000001
 40
0.0
 40
0.0
 40
0.0
 40
0.0
 40
0.5
 40
0.5
 40
1.0
 40
1.0
 40
1.0
 40
1.0
 10
18.57793316380479
 20
-7.188957817157085
 30
0.0
 10
18.5385708658843
 20
-7.17494015954556
 30
0.0
 10
18.4934456337373
 20
-7.172692076391375
 30
0.0
 10
18.39979152148113
 20
-7.191766664309234
 30
0.0
 10
18.35157638517187
 20
-7.213343633504303
 30
0.0
 10
18.30917129996677
 20
-7.246905333626998
 30
0.0
  0
SPLINE
  5
24C
330
1F
100
AcDbEntity
  8
외형선
  6
Continuous
 62
     1
370
    15
100
AcDbSpline
210
0.0
220
0.0
230
1.0
 70
     8
 71
     3
 72
     8
 73
     4
 74
     0
 42
0.000000001
 43
0.00000001
 40
0.0
 40
0.0
 40
0.0
 40
0.0
 40
1.0
 40
1.0
 40
1.0
 40
1.0
 10
18.30917129996676
 20
-7.246905333626992
 30
0.0
 10
18.1786576288507
 20
-7.35020098014493
 30
0.0
 10
18.03436533017758
 20
-7.42604850706916
 30
0.0
 10
17.88875057391955
 20
-7.470521097801051
 30
0.0
  0
SPLINE
  5
24D
330
1F
100
AcDbEntity
  8
외형선
  6
Continuous
 62
     1
370
    15
100
AcDbSpline
210
0.0
220
0.0
230
1.0
 70
     8
 71
     3
 72
     8
 73
     4
 74
     0
 42
0.000000001
 43
0.00000001
 40
0.0
 40
0.0
 40
0.0
 40
0.0
 40
1.0
 40
1.0
 40
1.0
 40
1.0
 10
17.88875058806937
 20
-7.470521096602539
 30
0.0
 10
17.73950467153531
 20
-7.48316236802548
 30
0.0
 10
17.59628265043455
 20
-7.461118070510054
 30
0.0
 10
17.47076737783806
 20
-7.405848636418305
 30
0.0
  0
SPLINE
  5
24E
330
1F
100
AcDbEntity
  8
외형선
  6
Continuous
 62
     1
370
    15
100
AcDbSpline
210
0.0
220
0.0
230
1.0
 70
     8
 71
     3
 72
    10
 73
     6
 74
     0
 42
0.000000001
 43
0.00000001
 40
0.0
 40
0.0
 40
0.0
 40
0.0
 40
0.5
 40
0.5
 40
1.0
 40
1.0
 40
1.0
 40
1.0
 10
17.47076737783804
 20
-7.405848636418308
 30
0.0
 10
17.43162184562069
 20
-7.388611280611981
 30
0.0
 10
17.38660484619215
 20
-7.383411480194341
 30
0.0
 10
17.29294101610487
 20
-7.397528601977206
 30
0.0
 10
17.24460413351762
 20
-7.417129676391342
 30
0.0
 10
17.2019212854498
 20
-7.449586580906438
 30
0.0
  0
SPLINE
  5
24F
330
1F
100
AcDbEntity
  8
외형선
  6
Continuous
 62
     1
370
    15
100
AcDbSpline
210
0.0
220
0.0
230
1.0
 70
     8
 71
     3
 72
    12
 73
     8
 74
     0
 42
0.000000001
 43
0.00000001
 40
0.0
 40
0.0
 40
0.0
 40
0.0
 40
0.5
 40
0.5
 40
0.75
 40
0.75
 40
1.0
 40
1.0
 40
1.0
 40
1.0
 10
17.2019212854498
 20
-7.449586580906433
 30
0.0
 10
17.03476747806376
 20
-7.576693730763031
 30
0.0
 10
16.84896100449601
 20
-7.65386077863363
 30
0.0
 10
16.57224135973221
 20
-7.6916036575402
 30
0.0
 10
16.4828378843016
 20
-7.690952654104871
 30
0.0
 10
16.3090887997755
 20
-7.664067317079674
 30
0.0
 10
16.22524216461074
 20
-7.637527793399995
 30
0.0
 10
16.14810254418837
 20
-7.598491377432424
 30
0.0
  0
SPLINE
  5
250
330
1F
100
AcDbEntity
  8
외형선
  6
Continuous
 62
     1
370
    15
100
AcDbSpline
210
0.0
220
0.0
230
1.0
 70
     8
 71
     3
 72
    10
 73
     6
 74
     0
 42
0.000000001
 43
0.00000001
 40
0.0
 40
0.0
 40
0.0
 40
0.0
 40
0.5
 40
0.5
 40
1.0
 40
1.0
 40
1.0
 40
1.0
 10
16.14810254418835
 20
-7.598491377432428
 30
0.0
 10
16.10869400928784
 20
-7.578548733786717
 30
0.0
 10
16.06352018628246
 20
-7.570864057846413
 30
0.0
 10
15.96977944683735
 20
-7.580958296937554
 30
0.0
 10
15.92151729835789
 20
-7.599049594231477
 30
0.0
 10
15.87906691868933
 20
-7.630811231126869
 30
0.0
  0
SPLINE
  5
251
330
1F
100
AcDbEntity
  8
외형선
  6
Continuous
 62
     1
370
    15
100
AcDbSpline
210
0.0
220
0.0
230
1.0
 70
     8
 71
     3
 72
     8
 73
     4
 74
     0
 42
0.000000001
 43
0.00000001
 40
0.0
 40
0.0
 40
0.0
 40
0.0
 40
1.0
 40
1.0
 40
1.0
 40
1.0
 10
15.87906691868933
 20
-7.630811231126862
 30
0.0
 10
15.74838611445935
 20
-7.728587417949163
 30
0.0
 10
15.60390918365995
 20
-7.793868012471699
 30
0.0
 10
15.45823378282395
 20
-7.825232373050865
 30
0.0
  0
SPLINE
  5
252
330
1F
100
AcDbEntity
  8
외형선
  6
Continuous
 62
     1
370
    15
100
AcDbSpline
210
0.0
220
0.0
230
1.0
 70
     8
 71
     3
 72
     8
 73
     4
 74
     0
 42
0.000000001
 43
0.00000001
 40
0.0
 40
0.0
 40
0.0
 40
0.0
 40
1.0
 40
1.0
 40
1.0
 40
1.0
 10
15.45823379698853
 20
-7.825232373366958
 30
0.0
 10
15.30888627643102
 20
-7.821899430500337
 30
0.0
 10
15.16553437376028
 20
-7.782135404566186
 30
0.0
 10
15.03988421545899
 20
-7.708676528699557
 30
0.0
  0
SPLINE
  5
253
330
1F
100
AcDbEntity
  8
외형선
  6
Continuous
 62
     1
370
    15
100
AcDbSpline
210
0.0
220
0.0
230
1.0
 70
     8
 71
     3
 72
    10
 73
     6
 74
     0
 42
0.000000001
 43
0.00000001
 40
0.0
 40
0.0
 40
0.0
 40
0.0
 40
0.4999999999999982
 40
0.4999999999999982
 40
1.0
 40
1.0
 40
1.0
 40
1.0
 10
15.039884215459
 20
-7.708676528699558
 30
0.0
 10
15.00071590992757
 20
-7.685777554811751
 30
0.0
 10
14.95567753089181
 20
-7.675216033733808
 30
0.0
 10
14.86198039432668
 20
-7.680131240263153
 30
0.0
 10
14.81362102470669
 20
-7.695946322153507
 30
0.0
 10
14.77091413001971
 20
-7.726108333542183
 30
0.0
  0
SPLINE
  5
254
330
1F
100
AcDbEntity
  8
외형선
  6
Continuous
 62
     1
370
    15
100
AcDbSpline
210
0.0
220
0.0
230
1.0
 70
     8
 71
     3
 72
    12
 73
     8
 74
     0
 42
0.000000001
 43
0.00000001
 40
0.0
 40
0.0
 40
0.0
 40
0.0
 40
0.5
 40
0.5
 40
0.75
 40
0.75
 40
1.0
 40
1.0
 40
1.0
 40
1.0
 10
14.77091413001971
 20
-7.72610833354217
 30
0.0
 10
14.60379195222288
 20
-7.844139416507931
 30
0.0
 10
14.41804564581148
 20
-7.905368033997712
 30
0.0
 10
14.14134950031104
 20
-7.915226258740692
 30
0.0
 10
14.05194886408991
 20
-7.904841383303076
 30
0.0
 10
13.87820186907454
 20
-7.857735349979709
 30
0.0
 10
13.79435771913595
 20
-7.820748254879157
 30
0.0
 10
13.71723078098309
 20
-7.771295249445838
 30
0.0
  0
SPLINE
  5
255
330
1F
100
AcDbEntity
  8
외형선
  6
Continuous
 62
     1
370
    15
100
AcDbSpline
210
0.0
220
0.0
230
1.0
 70
     8
 71
     3
 72
    10
 73
     6
 74
     0
 42
0.000000001
 43
0.00000001
 40
0.0
 40
0.0
 40
0.0
 40
0.0
 40
0.5
 40
0.5
 40
1.0
 40
1.0
 40
1.0
 40
1.0
 10
13.71723078098307
 20
-7.771295249445825
 30
0.0
 10
13.67785735338144
 20
-7.746049409590852
 30
0.0
 10
13.63272017161981
 20
-7.733160702671327
 30
0.0
 10
13.53903499708468
 20
-7.733962202463204
 30
0.0
 10
13.4908030312082
 20
-7.748016362144901
 30
0.0
 10
13.44838764952909
 20
-7.776980504684143
 30
0.0
  0
SPLINE
  5
256
330
1F
100
AcDbEntity
  8
외형선
  6
Continuous
 62
     1
370
    15
100
AcDbSpline
210
0.0
220
0.0
230
1.0
 70
     8
 71
     3
 72
     8
 73
     4
 74
     0
 42
0.000000001
 43
0.00000001
 40
0.0
 40
0.0
 40
0.0
 40
0.0
 40
1.0
 40
1.0
 40
1.0
 40
1.0
 10
13.44838764952906
 20
-7.77698050468416
 30
0.0
 10
13.31784927013818
 20
-7.866121096560109
 30
0.0
 10
13.17348950247042
 20
-7.918857485490177
 30
0.0
 10
13.02792488637495
 20
-7.936093073683235
 30
0.0
  0
SPLINE
  5
257
330
1F
100
AcDbEntity
  8
외형선
  6
Continuous
 62
     1
370
    15
100
AcDbSpline
210
0.0
220
0.0
230
1.0
 70
     8
 71
     3
 72
     8
 73
     4
 74
     0
 42
0.000000001
 43
0.00000001
 40
0.0
 40
0.0
 40
0.0
 40
0.0
 40
1.0
 40
1.0
 40
1.0
 40
1.0
 10
13.02792490052374
 20
-7.936093075511257
 30
0.0
 10
12.87864901949235
 20
-7.91680660442737
 30
0.0
 10
12.73552138571027
 20
-7.860474487828603
 30
0.0
 10
12.6100535331953
 20
-7.771130130663025
 30
0.0
  0
SPLINE
  5
258
330
1F
100
AcDbEntity
  8
외형선
  6
Continuous
 62
     1
370
    15
100
AcDbSpline
210
0.0
220
0.0
230
1.0
 70
     8
 71
     3
 72
    10
 73
     6
 74
     0
 42
0.000000001
 43
0.00000001
 40
0.0
 40
0.0
 40
0.0
 40
0.0
 40
0.5
 40
0.5
 40
1.0
 40
1.0
 40
1.0
 40
1.0
 10
12.61005353319533
 20
-7.771130130663048
 30
0.0
 10
12.57093094077086
 20
-7.743271338145664
 30
0.0
 10
12.52593865876446
 20
-7.727668180535071
 30
0.0
 10
12.43231960272034
 20
-7.723219657313503
 30
0.0
 10
12.38400009967695
 20
-7.734757632291926
 30
0.0
 10
12.34133045533478
 20
-7.761664504167782
 30
0.0
  0
SPLINE
  5
259
330
1F
100
AcDbEntity
  8
외형선
  6
Continuous
 62
     1
370
    15
100
AcDbSpline
210
0.0
220
0.0
230
1.0
 70
     8
 71
     3
 72
     8
 73
     4
 74
     0
 42
0.000000001
 43
0.00000001
 40
0.0
 40
0.0
 40
0.0
 40
0.0
 40
1.0
 40
1.0
 40
1.0
 40
1.0
 10
12.34133045533473
 20
-7.761664504167801
 30
0.0
 10
12.23346465091878
 20
-7.829683148896456
 30
0.0
 10
12.11868365739944
 20
-7.871407440677903
 30
0.0
 10
11.99999999999999
 20
-7.889703512483946
 30
0.0
  0
SPLINE
  5
25A
330
1F
100
AcDbEntity
  8
외형선
  6
Continuous
370
    15
100
AcDbSpline
210
0.0
220
0.0
230
1.0
 70
    24
 71
     3
 72
     9
 73
     5
 74
     0
 42
0.000000001
 43
0.00000001
 40
0.0
 40
0.0
 40
0.0
 40
0.0
 40
0.5
 40
1.0
 40
1.0
 40
1.0
 40
1.0
 10
12.0
 20
-7.844606259396522
 30
0.0
 10
12.0
 20
-7.852121470534073
 30
0.0
 10
12.0
 20
-7.867153015315794
 30
0.0
 10
12.0
 20
-7.882186430704513
 30
0.0
 10
12.0
 20
-7.88970351248055
 30
0.0
  0
SPLINE
  5
25B
330
1F
100
AcDbEntity
  8
외형선
  6
Continuous
370
    15
100
AcDbSpline
210
0.0
220
0.0
230
1.0
 70
     8
 71
     3
 72
     8
 73
     4
 74
     0
 42
0.000000001
 43
0.00000001
 40
0.0
 40
0.0
 40
0.0
 40
0.0
 40
1.0
 40
1.0
 40
1.0
 40
1.0
 10
12.0
 20
-7.844606259396525
 30
0.0
 10
11.85259414039921
 20
-7.846839296865049
 30
0.0
 10
11.70526070273489
 20
-7.847744473949444
 30
0.0
 10
11.55799972998941
 20
-7.847312113075584
 30
0.0
  0
SPLINE
  5
25C
330
1F
100
AcDbEntity
  8
외형선
  6
Continuous
370
    15
100
AcDbSpline
210
0.0
220
0.0
230
1.0
 70
     8
 71
     3
 72
     8
 73
     4
 74
     0
 42
0.000000001
 43
0.00000001
 40
0.0
 40
0.0
 40
0.0
 40
0.0
 40
1.0
 40
1.0
 40
1.0
 40
1.0
 10
11.55799972999039
 20
-7.847312113070647
 30
0.0
 10
11.46339679974471
 20
-7.814060974302298
 30
0.0
 10
11.37189659553801
 20
-7.765019330284626
 30
0.0
 10
11.28833121560043
 20
-7.701840958048405
 30
0.0
  0
SPLINE
  5
25D
330
1F
100
AcDbEntity
  8
외형선
  6
Continuous
370
    15
100
AcDbSpline
210
0.0
220
0.0
230
1.0
 70
     8
 71
     3
 72
     8
 73
     4
 74
     0
 42
0.000000001
 43
0.00000001
 40
0.0
 40
0.0
 40
0.0
 40
0.0
 40
1.0
 40
1.0
 40
1.0
 40
1.0
 10
11.28833121560045
 20
-7.701840958048425
 30
0.0
 10
11.20967228705231
 20
-7.642372035975335
 30
0.0
 10
11.10437212609821
 20
-7.630255293051373
 30
0.0
 10
11.01959061734101
 20
-7.68080723818429
 30
0.0
  0
SPLINE
  5
25E
330
1F
100
AcDbEntity
  8
외형선
  6
Continuous
370
    15
100
AcDbSpline
210
0.0
220
0.0
230
1.0
 70
     8
 71
     3
 72
     8
 73
     4
 74
     0
 42
0.000000001
 43
0.00000001
 40
0.0
 40
0.0
 40
0.0
 40
0.0
 40
1.0
 40
1.0
 40
1.0
 40
1.0
 10
11.01959061734099
 20
-7.680807238184326
 30
0.0
 10
10.88910045345599
 20
-7.758613492187129
 30
0.0
 10
10.74477245432826
 20
-7.797204867591855
 30
0.0
 10
10.59922064994526
 20
-7.799832488058935
 30
0.0
  0
SPLINE
  5
25F
330
1F
100
AcDbEntity
  8
외형선
  6
Continuous
 62
     1
370
    15
100
AcDbSpline
210
0.0
220
0.0
230
1.0
 70
     8
 71
     3
 72
     8
 73
     4
 74
     0
 42
0.000000001
 43
0.00000001
 40
0.0
 40
0.0
 40
0.0
 40
0.0
 40
1.0
 40
1.0
 40
1.0
 40
1.0
 10
48.86696508016141
 20
4.108663948372164
 30
0.0
 10
48.71768372119996
 20
4.175041496461258
 30
0.0
 10
48.57450448792279
 20
4.222829082673508
 30
0.0
 10
48.44906533411555
 20
4.248236765427576
 30
0.0
  0
SPLINE
  5
260
330
1F
100
AcDbEntity
  8
외형선
  6
Continuous
 62
     1
370
    15
100
AcDbSpline
210
0.0
220
0.0
230
1.0
 70
     8
 71
     3
 72
    10
 73
     6
 74
     0
 42
0.000000001
 43
0.00000001
 40
0.0
 40
0.0
 40
0.0
 40
0.0
 40
0.5
 40
0.5
 40
1.0
 40
1.0
 40
1.0
 40
1.0
 10
26.39263085078786
 20
4.534231320157997
 30
0.0
 10
26.36374857890749
 20
4.063427377533054
 30
0.0
 10
26.33413223613517
 20
3.552752022724777
 30
0.0
 10
26.27550555784189
 20
2.486622211612974
 30
0.0
 10
26.24651111678484
 20
1.931474304890436
 30
0.0
 10
26.21880269140204
 20
1.374276381207134
 30
0.0
  0
SPLINE
  5
262
330
1F
100
AcDbEntity
  8
외형선
  6
Continuous
 62
     1
370
    15
100
AcDbSpline
210
0.0
220
0.0
230
1.0
 70
     8
 71
     3
 72
     8
 73
     4
 74
     0
 42
0.000000001
 43
0.00000001
 40
0.0
 40
0.0
 40
0.0
 40
0.0
 40
1.0
 40
1.0
 40
1.0
 40
1.0
 10
53.23315352975593
 20
0.2708588025561705
 30
0.0
 10
53.22827447219544
 20
0.0298536327517751
 30
0.0
 10
53.22344962854877
 20
-0.2111380344731346
 30
0.0
 10
53.21868374559138
 20
-0.4521163256833119
 30
0.0
  0
SPLINE
  5
263
330
1F
100
AcDbEntity
  8
외형선
  6
Continuous
 62
     1
370
    15
100
AcDbSpline
210
0.0
220
0.0
230
1.0
 70
     8
 71
     3
 72
     8
 73
     4
 74
     0
 42
0.000000001
 43
0.00000001
 40
0.6969919319959527
 40
0.6969919319959527
 40
0.6969919319959527
 40
0.6969919319959527
 40
1.0
 40
1.0
 40
1.0
 40
1.0
 10
53.2419054481651
 20
0.72514727387868
 30
0.0
 10
53.23914217541389
 20
0.5742059460418305
 30
0.0
 10
53.23622798904617
 20
0.4227243163597917
 30
0.0
 10
53.23315352975593
 20
0.2708588025562196
 30
0.0
  0
SPLINE
  5
264
330
1F
100
AcDbEntity
  8
외형선
  6
Continuous
 62
     1
370
    15
100
AcDbSpline
210
0.0
220
0.0
230
1.0
 70
     8
 71
     3
 72
     8
 73
     4
 74
     0
 42
0.000000001
 43
0.00000001
 40
0.0002704062016141
 40
0.0002704062016141
 40
0.0002704062016141
 40
0.0002704062016141
 40
0.0002942850021662
 40
0.0002942850021662
 40
0.0002942850021662
 40
0.0002942850021662
 10
53.25869244479757
 20
1.756271958974665
 30
0.0
 10
53.26412606650079
 20
1.753014517877609
 30
0.0
 10
53.26956192841738
 20
1.74976985497763
 30
0.0
 10
53.27499999999984
 20
1.746538046928562
 30
0.0
  0
SPLINE
  5
265
330
1F
100
AcDbEntity
  8
외형선
  6
Continuous
 62
     1
370
    15
100
AcDbSpline
210
0.0
220
0.0
230
1.0
 70
    24
 71
     3
 72
     8
 73
     4
 74
     0
 42
0.000000001
 43
0.00000001
 40
0.0002439620841856
 40
0.0002439620841856
 40
0.0002439620841856
 40
0.0002439620841856
 40
0.0003219879711077
 40
0.0003219879711077
 40
0.0003219879711077
 40
0.0003219879711077
 10
53.21868374559205
 20
-0.4521163256840787
 30
0.0
 10
53.2339828074019
 20
-0.4368172638742238
 30
0.0
 10
53.24926877407328
 20
-0.4215312972028309
 30
0.0
 10
53.26454141535943
 20
-0.4062586559166772
 30
0.0
  0
SPLINE
  5
266
330
1F
100
AcDbEntity
  8
외형선
  6
Continuous
 62
     1
370
    15
100
AcDbSpline
210
0.0
220
0.0
230
1.0
 70
     8
 71
     3
 72
    10
 73
     6
 74
     0
 42
0.000000001
 43
0.00000001
 40
0.0
 40
0.0
 40
0.0
 40
0.0
 40
0.5
 40
0.5
 40
1.0
 40
1.0
 40
1.0
 40
1.0
 10
51.98481867661263
 20
2.451044850330163
 30
0.0
 10
51.94545620514379
 20
2.468297041980562
 30
0.0
 10
51.9003290946712
 20
2.49033198280992
 30
0.0
 10
51.8066544443856
 20
2.540017554460037
 30
0.0
 10
51.75842714019645
 20
2.567560742727329
 30
0.0
 10
51.71601851231588
 20
2.594911519974929
 30
0.0
  0
SPLINE
  5
268
330
1F
100
AcDbEntity
  8
외형선
  6
Continuous
 62
     1
370
    15
100
AcDbSpline
210
0.0
220
0.0
230
1.0
 70
    24
 71
     3
 72
    13
 73
     9
 74
     0
 42
0.000000001
 43
0.00000001
 40
0.0
 40
0.0
 40
0.0
 40
0.0
 40
0.1286081338561002
 40
0.3601730036238334
 40
0.5915234469082269
 40
0.828887567825174
 40
0.9142164172254029
 40
1.0
 40
1.0
 40
1.0
 40
1.0
 10
53.17017562799715
 20
-0.5006244432789445
 30
0.0
 10
53.1593312128395
 20
-0.5114688584365945
 30
0.0
 10
53.12896092860657
 20
-0.5418391426695102
 30
0.0
 10
53.07553227993057
 20
-0.5952677913454695
 30
0.0
 10
53.01180027966276
 20
-0.6589997916135018
 30
0.0
 10
52.96139736621149
 20
-0.7094027050641804
 30
0.0
 10
52.92518677269459
 20
-0.7456132985820543
 30
0.0
 10
52.91043260086075
 20
-0.7603674704155335
 30
0.0
 10
52.90303591024809
 20
-0.7677641610280238
 30
0.0
  0
SPLINE
  5
269
330
1F
100
AcDbEntity
  8
외형선
  6
Continuous
 62
     1
370
    15
100
AcDbSpline
210
0.0
220
0.0
230
1.0
 70
     8
 71
     3
 72
    12
 73
     8
 74
     0
 42
0.000000001
 43
0.00000001
 40
0.0
 40
0.0
 40
0.0
 40
0.0
 40
0.5000000000000002
 40
0.5000000000000002
 40
0.7500000000000003
 40
0.7500000000000003
 40
1.0
 40
1.0
 40
1.0
 40
1.0
 10
16.0654783502177
 20
-1.667658950016356
 30
0.0
 10
16.03590899396849
 20
-2.235312924951967
 30
0.0
 10
16.00653292119225
 20
-2.788059077702318
 30
0.0
 10
15.96426984638561
 20
-3.567166859346251
 30
0.0
 10
15.95068515341758
 20
-3.817463756858261
 30
0.0
 10
15.92262130855774
 20
-4.307671573390464
 30
0.0
 10
15.90828149110614
 20
-4.546651569698557
 30
0.0
 10
15.89375289428733
 20
-4.777128559590329
 30
0.0
  0
SPLINE
  5
26A
330
1F
100
AcDbEntity
  8
외형선
  6
Continuous
 62
     1
370
    15
100
AcDbSpline
210
0.0
220
0.0
230
1.0
 70
     8
 71
     3
 72
    12
 73
     8
 74
     0
 42
0.000000001
 43
0.00000001
 40
0.0199225293259462
 40
0.0199225293259462
 40
0.0199225293259462
 40
0.0199225293259462
 40
0.5000000000000002
 40
0.5000000000000002
 40
0.7500000000000001
 40
0.7500000000000001
 40
1.0
 40
1.0
 40
1.0
 40
1.0
 10
41.83560122788909
 20
6.85215892777043
 30
0.0
 10
43.08833166940906
 20
7.476740385786735
 30
0.0
 10
43.26664669847176
 20
7.566894657129009
 30
0.0
 10
43.5360542853042
 20
7.640226566637933
 30
0.0
 10
43.62548449322946
 20
7.653421298501548
 30
0.0
 10
43.79930734207128
 20
7.656595482199234
 30
0.0
 10
43.88320450338036
 20
7.64623016987444
 30
0.0
 10
43.96039592685486
 20
7.623950035239144
 30
0.0
  0
SPLINE
  5
26B
330
1F
100
AcDbEntity
  8
외형선
  6
Continuous
 62
     1
370
    15
100
AcDbSpline
210
0.0
220
0.0
230
1.0
 70
     8
 71
     3
 72
    10
 73
     6
 74
     0
 42
0.000000001
 43
0.00000001
 40
0.0
 40
0.0
 40
0.0
 40
0.0
 40
0.5
 40
0.5
 40
1.0
 40
1.0
 40
1.0
 40
1.0
 10
43.96039592685485
 20
7.623950035239133
 30
0.0
 10
43.99981183558427
 20
7.612573230488872
 30
0.0
 10
44.0449946598815
 20
7.612640244164183
 30
0.0
 10
44.13876131775643
 20
7.635299760804019
 30
0.0
 10
44.18703955557677
 20
7.658120499024095
 30
0.0
 10
44.22950065101604
 20
7.692113780678875
 30
0.0
  0
SPLINE
  5
26C
330
1F
100
AcDbEntity
  8
외형선
  6
Continuous
 62
     1
370
    15
100
AcDbSpline
210
0.0
220
0.0
230
1.0
 70
     8
 71
     3
 72
     8
 73
     4
 74
     0
 42
0.000000001
 43
0.00000001
 40
0.0
 40
0.0
 40
0.0
 40
0.0
 40
1.0
 40
1.0
 40
1.0
 40
1.0
 10
44.22950065101612
 20
7.692113780678921
 30
0.0
 10
44.3601442930658
 20
7.796703784178765
 30
0.0
 10
44.50462278465816
 20
7.876198463317567
 30
0.0
 10
44.65033073640306
 20
7.925789239865944
 30
0.0
  0
SPLINE
  5
26D
330
1F
100
AcDbEntity
  8
외형선
  6
Continuous
 62
     1
370
    15
100
AcDbSpline
210
0.0
220
0.0
230
1.0
 70
     8
 71
     3
 72
     8
 73
     4
 74
     0
 42
0.000000001
 43
0.00000001
 40
0.0
 40
0.0
 40
0.0
 40
0.0
 40
1.0
 40
1.0
 40
1.0
 40
1.0
 10
44.65033073637678
 20
7.925789239862443
 30
0.0
 10
44.799737293123
 20
7.945091223401641
 30
0.0
 10
44.94303931216739
 20
7.930837477613168
 30
0.0
 10
45.06859772817192
 20
7.883882707311606
 30
0.0
  0
SPLINE
  5
26E
330
1F
100
AcDbEntity
  8
외형선
  6
Continuous
 62
     1
370
    15
100
AcDbSpline
210
0.0
220
0.0
230
1.0
 70
     8
 71
     3
 72
    10
 73
     6
 74
     0
 42
0.000000001
 43
0.00000001
 40
0.0
 40
0.0
 40
0.0
 40
0.0
 40
0.5
 40
0.5
 40
1.0
 40
1.0
 40
1.0
 40
1.0
 10
45.06859772817214
 20
7.883882707311602
 30
0.0
 10
45.10776600181995
 20
7.869235044886667
 30
0.0
 10
45.15280128904754
 20
7.866392632125618
 30
0.0
 10
45.2464728035829
 20
7.884348051063183
 30
0.0
 10
45.29481018884658
 20
7.905403394415977
 30
0.0
 10
45.3375
 20
7.938574928723902
 30
0.0
  0
SPLINE
  5
27E
330
1F
100
AcDbEntity
  8
외형선
  6
Continuous
 62
     1
370
    15
100
AcDbSpline
210
0.0
220
0.0
230
1.0
 70
     8
 71
     3
 72
    10
 73
     6
 74
     0
 42
0.000000001
 43
0.00000001
 40
0.8641533433852175
 40
0.8641533433852175
 40
0.8641533433852175
 40
0.8641533433852175
 40
0.8750000000000011
 40
0.8750000000000011
 40
1.0
 40
1.0
 40
1.0
 40
1.0
 10
51.69993356919101
 20
4.746951594591994
 30
0.0
 10
51.69383715884896
 20
4.736906056711107
 30
0.0
 10
51.68770719394794
 20
4.726918211304778
 30
0.0
 10
51.61052959253234
 20
4.602585063193724
 30
0.0
 10
51.53493914919534
 20
4.495424614775255
 30
0.0
 10
51.45475028989701
 20
4.395546465760151
 30
0.0
  0
SPLINE
  5
27F
330
1F
100
AcDbEntity
  8
외형선
  6
Continuous
 62
     1
370
    15
100
AcDbSpline
210
0.0
220
0.0
230
1.0
 70
     8
 71
     3
 72
     8
 73
     4
 74
     0
 42
0.000000001
 43
0.00000001
 40
0.5489900389111494
 40
0.5489900389111494
 40
0.5489900389111494
 40
0.5489900389111494
 40
1.0
 40
1.0
 40
1.0
 40
1.0
 10
52.27480825964894
 20
3.858231959570148
 30
0.0
 10
52.00121373141614
 20
4.040872906079341
 30
0.0
 10
51.72786321863405
 20
4.219946399557063
 30
0.0
 10
51.45475028989703
 20
4.395546465760153
 30
0.0
  0
SPLINE
  5
281
330
1F
100
AcDbEntity
  8
외형선
  6
Continuous
 62
     1
370
    15
100
AcDbSpline
210
0.0
220
0.0
230
1.0
 70
     8
 71
     3
 72
    10
 73
     6
 74
     0
 42
0.000000001
 43
0.00000001
 40
0.0
 40
0.0
 40
0.0
 40
0.0
 40
0.5
 40
0.5
 40
1.0
 40
1.0
 40
1.0
 40
1.0
 10
50.87774924366359
 20
3.036824690433564
 30
0.0
 10
50.83861874894308
 20
3.051166652274502
 30
0.0
 10
50.79362122792442
 20
3.071267458801358
 30
0.0
 10
50.70001189706707
 20
3.119285746072527
 30
0.0
 10
50.65170926827696
 20
3.14713491121418
 30
0.0
 10
50.60905447281714
 20
3.176159283367385
 30
0.0
  0
SPLINE
  5
282
330
1F
100
AcDbEntity
  8
외형선
  6
Continuous
 62
     1
370
    15
100
AcDbSpline
210
0.0
220
0.0
230
1.0
 70
     8
 71
     3
 72
    10
 73
     6
 74
     0
 42
0.000000001
 43
0.00000001
 40
0.0
 40
0.0
 40
0.0
 40
0.0
 40
0.5
 40
0.5
 40
1.0
 40
1.0
 40
1.0
 40
1.0
 10
49.55612424898055
 20
3.710413148930006
 30
0.0
 10
49.51677249575086
 20
3.721523794763121
 30
0.0
 10
49.47165533558334
 20
3.739346216275746
 30
0.0
 10
49.37799524318105
 20
3.785136699768585
 30
0.0
 10
49.3297747447412
 20
3.8130735643606
 30
0.0
 10
49.28737237181528
 20
3.843628850517272
 30
0.0
  0
SPLINE
  5
283
330
1F
100
AcDbEntity
  8
외형선
  6
Continuous
 62
     1
370
    15
100
AcDbSpline
210
0.0
220
0.0
230
1.0
 70
     8
 71
     3
 72
    10
 73
     6
 74
     0
 42
0.000000001
 43
0.00000001
 40
0.0
 40
0.0
 40
0.0
 40
0.0
 40
0.5
 40
0.5
 40
1.0
 40
1.0
 40
1.0
 40
1.0
 10
48.44906533411549
 20
4.248236765427596
 30
0.0
 10
48.40992479341405
 20
4.256164676377098
 30
0.0
 10
48.36491539246997
 20
4.271680610389629
 30
0.0
 10
48.27127920184557
 20
4.314908298154076
 30
0.0
 10
48.22296303509096
 20
4.342628316937987
 30
0.0
 10
48.1802976123445
 20
4.374309725503934
 30
0.0
  0
SPLINE
  5
284
330
1F
100
AcDbEntity
  8
외형선
  6
Continuous
 62
     1
370
    15
100
AcDbSpline
210
0.0
220
0.0
230
1.0
 70
     8
 71
     3
 72
    10
 73
     6
 74
     0
 42
0.000000001
 43
0.00000001
 40
0.0
 40
0.0
 40
0.0
 40
0.0
 40
0.5
 40
0.5
 40
1.0
 40
1.0
 40
1.0
 40
1.0
 10
47.12689567167619
 20
4.854464846191288
 30
0.0
 10
47.08751223836658
 20
4.859112054043906
 30
0.0
 10
47.04236203173566
 20
4.872193236947906
 30
0.0
 10
46.94864716674293
 20
4.912706919418494
 30
0.0
 10
46.90039412901704
 20
4.940189986056479
 30
0.0
 10
46.85795664423308
 20
4.973028733090486
 30
0.0
  0
SPLINE
  5
285
330
1F
100
AcDbEntity
  8
외형선
  6
Continuous
 62
     1
370
    15
100
AcDbSpline
210
0.0
220
0.0
230
1.0
 70
     8
 71
     3
 72
     8
 73
     4
 74
     0
 42
0.000000001
 43
0.00000001
 40
0.0
 40
0.0
 40
0.0
 40
0.0
 40
1.0
 40
1.0
 40
1.0
 40
1.0
 10
46.85795664423284
 20
4.973028733090596
 30
0.0
 10
46.7273722941303
 20
5.074076815026791
 30
0.0
 10
46.58293341366284
 20
5.165957873971279
 30
0.0
 10
46.43723808265788
 20
5.238976955551983
 30
0.0
  0
SPLINE
  5
286
330
1F
100
AcDbEntity
  8
외형선
  6
Continuous
 62
     1
370
    15
100
AcDbSpline
210
0.0
220
0.0
230
1.0
 70
     8
 71
     3
 72
     8
 73
     4
 74
     0
 42
0.000000001
 43
0.00000001
 40
0.0
 40
0.0
 40
0.0
 40
0.0
 40
1.0
 40
1.0
 40
1.0
 40
1.0
 10
46.43723809681864
 20
5.238976950384404
 30
0.0
 10
46.28782104021019
 20
5.29350336012242
 30
0.0
 10
46.14448904271676
 20
5.324078261731841
 30
0.0
 10
46.01887826328345
 20
5.328213079710658
 30
0.0
  0
SPLINE
  5
287
330
1F
100
AcDbEntity
  8
외형선
  6
Continuous
 62
     1
370
    15
100
AcDbSpline
210
0.0
220
0.0
230
1.0
 70
     8
 71
     3
 72
    10
 73
     6
 74
     0
 42
0.000000001
 43
0.00000001
 40
0.0
 40
0.0
 40
0.0
 40
0.0
 40
0.5
 40
0.5
 40
1.0
 40
1.0
 40
1.0
 40
1.0
 10
46.01887826328338
 20
5.32821307971065
 30
0.0
 10
45.97968576252818
 20
5.329503206700455
 30
0.0
 10
45.93462221670335
 20
5.33997829336372
 30
0.0
 10
45.84089131036178
 20
5.377118369310849
 30
0.0
 10
45.79252300994753
 20
5.403871557874853
 30
0.0
 10
45.74980714713522
 20
5.437260426956474
 30
0.0
  0
SPLINE
  5
288
330
1F
100
AcDbEntity
  8
외형선
  6
Continuous
 62
     1
370
    15
100
AcDbSpline
210
0.0
220
0.0
230
1.0
 70
     8
 71
     3
 72
    12
 73
     8
 74
     0
 42
0.000000001
 43
0.00000001
 40
0.0
 40
0.0
 40
0.0
 40
0.0
 40
0.5
 40
0.5
 40
0.75
 40
0.75
 40
1.0
 40
1.0
 40
1.0
 40
1.0
 10
45.74980714713521
 20
5.43726042695649
 30
0.0
 10
45.58252629726123
 20
5.568015561667135
 30
0.0
 10
45.39668905063292
 20
5.676344847719211
 30
0.0
 10
45.120052661061
 20
5.785134429940521
 30
0.0
 10
45.03066713791707
 20
5.811590895532653
 30
0.0
 10
44.85688885222249
 20
5.84511353924162
 30
0.0
 10
44.7729990676447
 20
5.851828386817505
 30
0.0
 10
44.69581595240911
 20
5.847952643245662
 30
0.0
  0
SPLINE
  5
289
330
1F
100
AcDbEntity
  8
외형선
  6
Continuous
 62
     1
370
    15
100
AcDbSpline
210
0.0
220
0.0
230
1.0
 70
     8
 71
     3
 72
    10
 73
     6
 74
     0
 42
0.000000001
 43
0.00000001
 40
0.0
 40
0.0
 40
0.0
 40
0.0
 40
0.5
 40
0.5
 40
1.0
 40
1.0
 40
1.0
 40
1.0
 10
44.69581595240912
 20
5.847952643245654
 30
0.0
 10
44.656435835463
 20
5.84597517402008
 30
0.0
 10
44.61129066727406
 20
5.853887560252714
 30
0.0
 10
44.51758559424322
 20
5.887832752904063
 30
0.0
 10
44.46933399036207
 20
5.913993429990302
 30
0.0
 10
44.4268973184367
 20
5.948080091338507
 30
0.0
  0
SPLINE
  5
28A
330
1F
100
AcDbEntity
  8
외형선
  6
Continuous
 62
     1
370
    15
100
AcDbSpline
210
0.0
220
0.0
230
1.0
 70
     8
 71
     3
 72
     8
 73
     4
 74
     0
 42
0.000000001
 43
0.00000001
 40
0.0
 40
0.0
 40
0.0
 40
0.0
 40
1.0
 40
1.0
 40
1.0
 40
1.0
 10
44.42689731843646
 20
5.948080091338634
 30
0.0
 10
44.2963610037074
 20
6.052931554752989
 30
0.0
 10
44.15197496582987
 20
6.141702190122431
 30
0.0
 10
44.0063152229237
 20
6.206504746825286
 30
0.0
  0
SPLINE
  5
28B
330
1F
100
AcDbEntity
  8
외형선
  6
Continuous
 62
     1
370
    15
100
AcDbSpline
210
0.0
220
0.0
230
1.0
 70
     8
 71
     3
 72
     8
 73
     4
 74
     0
 42
0.000000001
 43
0.00000001
 40
0.0
 40
0.0
 40
0.0
 40
0.0
 40
1.0
 40
1.0
 40
1.0
 40
1.0
 10
44.00631523707675
 20
6.206504742949201
 30
0.0
 10
43.85701487519743
 20
6.247394478666642
 30
0.0
 10
43.71378426868701
 20
6.259723899272658
 30
0.0
 10
43.58829545049289
 20
6.242352669700257
 30
0.0
  0
SPLINE
  5
28C
330
1F
100
AcDbEntity
  8
외형선
  6
Continuous
 62
     1
370
    15
100
AcDbSpline
210
0.0
220
0.0
230
1.0
 70
     8
 71
     3
 72
    10
 73
     6
 74
     0
 42
0.000000001
 43
0.00000001
 40
0.0
 40
0.0
 40
0.0
 40
0.0
 40
0.5
 40
0.5
 40
1.0
 40
1.0
 40
1.0
 40
1.0
 10
43.58829545049281
 20
6.242352669700244
 30
0.0
 10
43.54915420383746
 20
6.236934405418332
 30
0.0
 10
43.50414371457717
 20
6.242006368882809
 30
0.0
 10
43.410495961256
 20
6.271855149015083
 30
0.0
 10
43.36217277251943
 20
6.296791760708321
 30
0.0
 10
43.31950575175203
 20
6.330811350580091
 30
0.0
  0
SPLINE
  5
28D
330
1F
100
AcDbEntity
  8
외형선
  6
Continuous
 62
     1
370
    15
100
AcDbSpline
210
0.0
220
0.0
230
1.0
 70
     8
 71
     3
 72
    12
 73
     8
 74
     0
 42
0.000000001
 43
0.00000001
 40
0.0
 40
0.0
 40
0.0
 40
0.0
 40
0.5000000000000067
 40
0.5000000000000067
 40
0.7500000000000033
 40
0.7500000000000033
 40
1.0
 40
1.0
 40
1.0
 40
1.0
 10
43.31950575175203
 20
6.330811350580092
 30
0.0
 10
43.15238561233035
 20
6.464060836955821
 30
0.0
 10
42.96665462075234
 20
6.564244984468018
 30
0.0
 10
42.69015601574422
 20
6.650351834020967
 30
0.0
 10
42.60084074030012
 20
6.667726355290716
 30
0.0
 10
42.42728932950028
 20
6.680351059637805
 30
0.0
 10
42.34353407688395
 20
6.675225799620985
 30
0.0
 10
42.26646335939822
 20
6.658482411895442
 30
0.0
  0
SPLINE
  5
28E
330
1F
100
AcDbEntity
  8
외형선
  6
Continuous
 62
     1
370
    15
100
AcDbSpline
210
0.0
220
0.0
230
1.0
 70
     8
 71
     3
 72
    10
 73
     6
 74
     0
 42
0.000000001
 43
0.00000001
 40
0.0
 40
0.0
 40
0.0
 40
0.0
 40
0.5
 40
0.5
 40
1.0
 40
1.0
 40
1.0
 40
1.0
 10
42.26646335939821
 20
6.658482411895434
 30
0.0
 10
42.22711869246143
 20
6.649934898197035
 30
0.0
 10
42.18200910684751
 20
6.652427455923669
 30
0.0
 10
42.08836464069773
 20
6.678740922901508
 30
0.0
 10
42.04014340988413
 20
6.702760678603902
 30
0.0
 10
41.99773422575477
 20
6.737020449401748
 30
0.0
  0
SPLINE
  5
28F
330
1F
100
AcDbEntity
  8
외형선
  6
Continuous
 62
     1
370
    15
100
AcDbSpline
210
0.0
220
0.0
230
1.0
 70
     8
 71
     3
 72
     8
 73
     4
 74
     0
 42
0.000000001
 43
0.00000001
 40
0.0
 40
0.0
 40
0.0
 40
0.0
 40
1.0
 40
1.0
 40
1.0
 40
1.0
 10
41.99773422575453
 20
6.737020449401884
 30
0.0
 10
41.86727658507071
 20
6.842409151410856
 30
0.0
 10
41.72296656689806
 20
6.925313184950968
 30
0.0
 10
41.57736889748028
 20
6.979897568225418
 30
0.0
  0
SPLINE
  5
290
330
1F
100
AcDbEntity
  8
외형선
  6
Continuous
 62
     1
370
    15
100
AcDbSpline
210
0.0
220
0.0
230
1.0
 70
     8
 71
     3
 72
     8
 73
     4
 74
     0
 42
0.000000001
 43
0.00000001
 40
0.0
 40
0.0
 40
0.0
 40
0.0
 40
1.0
 40
1.0
 40
1.0
 40
1.0
 10
41.57736891162611
 20
6.979897565757797
 30
0.0
 10
41.42813967330759
 20
7.005930346418535
 30
0.0
 10
41.28497028259117
 20
6.999683342484967
 30
0.0
 10
41.15953575746521
 20
6.961433553915519
 30
0.0
  0
SPLINE
  5
291
330
1F
100
AcDbEntity
  8
외형선
  6
Continuous
 62
     1
370
    15
100
AcDbSpline
210
0.0
220
0.0
230
1.0
 70
     8
 71
     3
 72
     8
 73
     4
 74
     0
 42
0.000000001
 43
0.00000001
 40
0.0
 40
0.0
 40
0.0
 40
0.0
 40
1.0
 40
1.0
 40
1.0
 40
1.0
 10
41.15953575746516
 20
6.961433553915487
 30
0.0
 10
41.08132956504747
 20
6.937585491974049
 30
0.0
 10
40.97611290731322
 20
6.959486584522478
 30
0.0
 10
40.89081511734619
 20
7.026715769092147
 30
0.0
  0
SPLINE
  5
292
330
1F
100
AcDbEntity
  8
외형선
  6
Continuous
 62
     1
370
    15
100
AcDbSpline
210
0.0
220
0.0
230
1.0
 70
     8
 71
     3
 72
    12
 73
     8
 74
     0
 42
0.000000001
 43
0.00000001
 40
0.0
 40
0.0
 40
0.0
 40
0.0
 40
0.5000000000000002
 40
0.5000000000000002
 40
0.7500000000000001
 40
0.7500000000000001
 40
1.0
 40
1.0
 40
1.0
 40
1.0
 10
40.89081511734619
 20
7.026715769092143
 30
0.0
 10
40.72372505027233
 20
7.15841119711448
 30
0.0
 10
40.53799611993657
 20
7.247420730978369
 30
0.0
 10
40.26147090718302
 20
7.308351185982301
 30
0.0
 10
40.17214289172993
 20
7.316143138830044
 30
0.0
 10
39.99856054376763
 20
7.307422002905164
 30
0.0
 10
39.91481004553508
 20
7.290578359486156
 30
0.0
 10
39.83776840855245
 20
7.261510839885385
 30
0.0
  0
SPLINE
  5
293
330
1F
100
AcDbEntity
  8
외형선
  6
Continuous
 62
     1
370
    15
100
AcDbSpline
210
0.0
220
0.0
230
1.0
 70
     8
 71
     3
 72
    10
 73
     6
 74
     0
 42
0.000000001
 43
0.00000001
 40
0.0
 40
0.0
 40
0.0
 40
0.0
 40
0.5
 40
0.5
 40
1.0
 40
1.0
 40
1.0
 40
1.0
 10
39.83776840855246
 20
7.261510839885401
 30
0.0
 10
39.79841017735241
 20
7.246661127422555
 30
0.0
 10
39.75329551332926
 20
7.24367163407465
 30
0.0
 10
39.65964378078512
 20
7.261547472866917
 30
0.0
 10
39.61141465948088
 20
7.282680920341821
 30
0.0
 10
39.56899237371179
 20
7.3160613845022
 30
0.0
  0
SPLINE
  5
294
330
1F
100
AcDbEntity
  8
외형선
  6
Continuous
 62
     1
370
    15
100
AcDbSpline
210
0.0
220
0.0
230
1.0
 70
     8
 71
     3
 72
     8
 73
     4
 74
     0
 42
0.000000001
 43
0.00000001
 40
0.0
 40
0.0
 40
0.0
 40
0.0
 40
1.0
 40
1.0
 40
1.0
 40
1.0
 10
39.56899237371158
 20
7.316061384502323
 30
0.0
 10
39.43849588478429
 20
7.418744049821202
 30
0.0
 10
39.29415169234367
 20
7.493214693246262
 30
0.0
 10
39.14851409343684
 20
7.535908341391116
 30
0.0
  0
SPLINE
  5
295
330
1F
100
AcDbEntity
  8
외형선
  6
Continuous
 62
     1
370
    15
100
AcDbSpline
210
0.0
220
0.0
230
1.0
 70
     8
 71
     3
 72
     8
 73
     4
 74
     0
 42
0.000000001
 43
0.00000001
 40
0.0
 40
0.0
 40
0.0
 40
0.0
 40
1.0
 40
1.0
 40
1.0
 40
1.0
 10
39.14851410758822
 20
7.535908340405189
 30
0.0
 10
38.99922858825335
 20
7.546310264134968
 30
0.0
 10
38.85598678035201
 20
7.521727720876499
 30
0.0
 10
38.73046099475377
 20
7.463825798560259
 30
0.0
  0
SPLINE
  5
296
330
1F
100
AcDbEntity
  8
외형선
  6
Continuous
 62
     1
370
    15
100
AcDbSpline
210
0.0
220
0.0
230
1.0
 70
     8
 71
     3
 72
    10
 73
     6
 74
     0
 42
0.000000001
 43
0.00000001
 40
0.0
 40
0.0
 40
0.0
 40
0.0
 40
0.5
 40
0.5
 40
1.0
 40
1.0
 40
1.0
 40
1.0
 10
38.73046099475371
 20
7.46382579856022
 30
0.0
 10
38.69130649805292
 20
7.445764803239657
 30
0.0
 10
38.64628041838593
 20
7.439807715549474
 30
0.0
 10
38.55260191824381
 20
7.452669270899477
 30
0.0
 10
38.50425988302786
 20
7.471779867074546
 30
0.0
 10
38.46157312944563
 20
7.503974917420607
 30
0.0
  0
SPLINE
  5
297
330
1F
100
AcDbEntity
  8
외형선
  6
Continuous
 62
     1
370
    15
100
AcDbSpline
210
0.0
220
0.0
230
1.0
 70
     8
 71
     3
 72
    12
 73
     8
 74
     0
 42
0.000000001
 43
0.00000001
 40
0.0
 40
0.0
 40
0.0
 40
0.0
 40
0.4999999999999967
 40
0.4999999999999967
 40
0.7499999999999983
 40
0.7499999999999983
 40
1.0
 40
1.0
 40
1.0
 40
1.0
 10
38.46157312944563
 20
7.503974917420594
 30
0.0
 10
38.29435719585842
 20
7.630091919739209
 30
0.0
 10
38.10849223482725
 20
7.705188085657253
 30
0.0
 10
37.83173983187348
 20
7.739133914503
 30
0.0
 10
37.74233116843632
 20
7.737134146316701
 30
0.0
 10
37.56857908857445
 20
7.707412812843236
 30
0.0
 10
37.48473229252246
 20
7.679390627290722
 30
0.0
 10
37.40759067760342
 20
7.638858769805265
 30
0.0
  0
SPLINE
  5
298
330
1F
100
AcDbEntity
  8
외형선
  6
Continuous
 62
     1
370
    15
100
AcDbSpline
210
0.0
220
0.0
230
1.0
 70
     8
 71
     3
 72
    10
 73
     6
 74
     0
 42
0.000000001
 43
0.00000001
 40
0.0
 40
0.0
 40
0.0
 40
0.0
 40
0.5
 40
0.5
 40
1.0
 40
1.0
 40
1.0
 40
1.0
 10
37.40759067760342
 20
7.638858769805262
 30
0.0
 10
37.36817206314435
 20
7.618147385097986
 30
0.0
 10
37.32298913969907
 20
7.609735513169295
 30
0.0
 10
37.22924176851661
 20
7.618573504058206
 30
0.0
 10
37.18097453948181
 20
7.636141270268096
 30
0.0
 10
37.13851502145581
 20
7.66758703379472
 30
0.0
  0
SPLINE
  5
299
330
1F
100
AcDbEntity
  8
외형선
  6
Continuous
 62
     1
370
    15
100
AcDbSpline
210
0.0
220
0.0
230
1.0
 70
     8
 71
     3
 72
     8
 73
     4
 74
     0
 42
0.000000001
 43
0.00000001
 40
0.0
 40
0.0
 40
0.0
 40
0.0
 40
1.0
 40
1.0
 40
1.0
 40
1.0
 10
37.13851502145555
 20
7.667587033794875
 30
0.0
 10
37.00788078297482
 20
7.764335502989148
 30
0.0
 10
36.86345276579411
 20
7.828013972896517
 30
0.0
 10
36.71771318752265
 20
7.857458514447588
 30
0.0
  0
SPLINE
  5
29A
330
1F
100
AcDbEntity
  8
외형선
  6
Continuous
 62
     1
370
    15
100
AcDbSpline
210
0.0
220
0.0
230
1.0
 70
     8
 71
     3
 72
     8
 73
     4
 74
     0
 42
0.000000001
 43
0.00000001
 40
0.0
 40
0.0
 40
0.0
 40
0.0
 40
1.0
 40
1.0
 40
1.0
 40
1.0
 10
36.7177132016842
 20
7.857458514977614
 30
0.0
 10
36.56836855175411
 20
7.851870256145157
 30
0.0
 10
36.42504240307526
 20
7.809701018882825
 30
0.0
 10
36.29943317341185
 20
7.733893012916629
 30
0.0
  0
SPLINE
  5
29B
330
1F
100
AcDbEntity
  8
외형선
  6
Continuous
 62
     1
370
    15
100
AcDbSpline
210
0.0
220
0.0
230
1.0
 70
     8
 71
     3
 72
    10
 73
     6
 74
     0
 42
0.000000001
 43
0.00000001
 40
0.0
 40
0.0
 40
0.0
 40
0.0
 40
0.5
 40
0.5
 40
1.0
 40
1.0
 40
1.0
 40
1.0
 10
36.29943317341178
 20
7.733893012916591
 30
0.0
 10
36.26027065176074
 20
7.710257546932697
 30
0.0
 10
36.215237992293
 20
7.698972209097926
 30
0.0
 10
36.12154885051611
 20
7.702591790169288
 30
0.0
 10
36.07319769528794
 20
7.71784224991875
 30
0.0
 10
36.03050190862986
 20
7.747602762134121
 30
0.0
  0
SPLINE
  5
29C
330
1F
100
AcDbEntity
  8
외형선
  6
Continuous
 62
     1
370
    15
100
AcDbSpline
210
0.0
220
0.0
230
1.0
 70
     8
 71
     3
 72
    11
 73
     7
 74
     0
 42
0.000000001
 43
0.00000001
 40
0.0
 40
0.0
 40
0.0
 40
0.0
 40
0.3301082388827922
 40
0.5650959698765466
 40
0.9372743494976639
 40
1.0
 40
1.0
 40
1.0
 40
1.0
 10
36.03050190862985
 20
7.747602762134126
 30
0.0
 10
35.93064600815484
 20
7.804000045635754
 30
0.0
 10
35.75970763013131
 20
7.90054376634571
 30
0.0
 10
35.45853759901053
 20
7.939119235635451
 30
0.0
 10
35.24177515156805
 20
7.916605671986711
 30
0.0
 10
35.12039224189101
 20
7.851831502002335
 30
0.0
 10
35.1028853405013
 20
7.842489206538054
 30
0.0
  0
SPLINE
  5
29D
330
1F
100
AcDbEntity
  8
외형선
  6
Continuous
 62
     1
370
    15
100
AcDbSpline
210
0.0
220
0.0
230
1.0
 70
     8
 71
     3
 72
    11
 73
     7
 74
     0
 42
0.000000001
 43
0.00000001
 40
0.0
 40
0.0
 40
0.0
 40
0.0
 40
0.2097727512402026
 40
0.5248758140677136
 40
0.7597403745701292
 40
1.0
 40
1.0
 40
1.0
 40
1.0
 10
34.85841026274157
 20
7.739937921345905
 30
0.0
 10
34.84769242723988
 20
7.739329484709129
 30
0.0
 10
34.82087515664235
 20
7.73780710550045
 30
0.0
 10
34.78155270791564
 20
7.745740335129098
 30
0.0
 10
34.74174099001937
 20
7.75987641471418
 30
0.0
 10
34.71944169862466
 20
7.773421720451805
 30
0.0
 10
34.70816544800119
 20
7.780271277218676
 30
0.0
  0
SPLINE
  5
29E
330
1F
100
AcDbEntity
  8
외형선
  6
Continuous
 62
     1
370
    15
100
AcDbSpline
210
0.0
220
0.0
230
1.0
 70
     8
 71
     3
 72
    10
 73
     6
 74
     0
 42
0.000000001
 43
0.00000001
 40
0.0
 40
0.0
 40
0.0
 40
0.0
 40
0.3424824866799643
 40
0.6874518032964545
 40
1.0
 40
1.0
 40
1.0
 40
1.0
 10
34.70816544800119
 20
7.780271277218676
 30
0.0
 10
34.68594986030321
 20
7.794415629620471
 30
0.0
 10
34.64135737333459
 20
7.822807039234831
 30
0.0
 10
34.57385481897748
 20
7.856911339468822
 30
0.0
 10
34.5283504320076
 20
7.87462898032735
 30
0.0
 10
34.50672011220407
 20
7.883050986719565
 30
0.0
  0
SPLINE
  5
29F
330
1F
100
AcDbEntity
  8
외형선
  6
Continuous
 62
     1
370
    15
100
AcDbSpline
210
0.0
220
0.0
230
1.0
 70
    24
 71
     3
 72
     8
 73
     4
 74
     0
 42
0.000000001
 43
0.00000001
 40
0.0000866088257201
 40
0.0000866088257201
 40
0.0000866088257201
 40
0.0000866088257201
 40
0.0001239134187892
 40
0.0001239134187892
 40
0.0001239134187892
 40
0.0001239134187892
 10
53.21868374559278
 20
-0.4521163256833228
 30
0.0
 10
53.2106873559131
 20
-0.4601127153630043
 30
0.0
 10
53.20273142032482
 20
-0.4680686509513955
 30
0.0
 10
53.19481961142916
 20
-0.4759804598470617
 30
0.0
  0
SPLINE
  5
2A0
330
1F
100
AcDbEntity
  8
외형선
  6
Continuous
 62
     1
370
    15
100
AcDbSpline
210
0.0
220
0.0
230
1.0
 70
     8
 71
     3
 72
    10
 73
     6
 74
     0
 42
0.000000001
 43
0.00000001
 40
0.0
 40
0.0
 40
0.0
 40
0.0
 40
0.4999999999999998
 40
0.4999999999999998
 40
1.0
 40
1.0
 40
1.0
 40
1.0
 10
38.53972074906088
 20
-2.159327486649131
 30
0.0
 10
38.51033314611641
 20
-2.717066597125597
 30
0.0
 10
38.48155473076313
 20
-3.253375596613671
 30
0.0
 10
38.42649898506549
 20
-4.252937501606364
 30
0.0
 10
38.39754389595546
 20
-4.732156242796465
 30
0.0
 10
38.36812146887691
 20
-5.171949195607134
 30
0.0
  0
SPLINE
  5
2A2
330
1F
100
AcDbEntity
  8
외형선
  6
Continuous
 62
     1
370
    15
100
AcDbSpline
210
0.0
220
0.0
230
1.0
 70
     8
 71
     3
 72
    12
 73
     8
 74
     0
 42
0.000000001
 43
0.00000001
 40
0.0
 40
0.0
 40
0.0
 40
0.0
 40
0.2500000000000001
 40
0.2500000000000001
 40
0.5000000000000001
 40
0.5000000000000001
 40
1.0
 40
1.0
 40
1.0
 40
1.0
 10
23.9619872808948
 20
5.60935952694717
 30
0.0
 10
23.94820815183803
 20
5.409231443895203
 30
0.0
 10
23.93444817887337
 20
5.198570899702984
 30
0.0
 10
23.90606820624128
 20
4.753561312100178
 30
0.0
 10
23.89161707674026
 20
4.520014008703718
 30
0.0
 10
23.84784787616471
 20
3.79161393842484
 30
0.0
 10
23.81811499012105
 20
3.268767995597956
 30
0.0
 10
23.78887829643333
 20
2.727080111911773
 30
0.0
  0
SPLINE
  5
2A3
330
1F
100
AcDbEntity
  8
외형선
  6
Continuous
 62
     1
370
    15
100
AcDbSpline
210
0.0
220
0.0
230
1.0
 70
     8
 71
     3
 72
    10
 73
     6
 74
     0
 42
0.000000001
 43
0.00000001
 40
0.0
 40
0.0
 40
0.0
 40
0.0
 40
0.5
 40
0.5
 40
1.0
 40
1.0
 40
1.0
 40
1.0
 10
18.49466480588885
 20
-3.005620637014772
 30
0.0
 10
18.46610435882365
 20
-3.536389853559233
 30
0.0
 10
18.4391546822835
 20
-4.034250191910903
 30
0.0
 10
18.38176288085775
 20
-4.979794859256128
 30
0.0
 10
18.3521180504119
 20
-5.421896921115264
 30
0.0
 10
18.32256275553389
 20
-5.816519956909088
 30
0.0
  0
SPLINE
  5
2A4
330
1F
100
AcDbEntity
  8
외형선
  6
Continuous
 62
     1
370
    15
100
AcDbSpline
210
0.0
220
0.0
230
1.0
 70
     8
 71
     3
 72
    12
 73
     8
 74
     0
 42
0.000000001
 43
0.00000001
 40
0.0
 40
0.0
 40
0.0
 40
0.0
 40
0.2499999999999997
 40
0.2499999999999997
 40
0.4999999999999994
 40
0.4999999999999994
 40
1.0
 40
1.0
 40
1.0
 40
1.0
 10
40.96958635351293
 20
-3.468798673440193
 30
0.0
 10
40.95567427906197
 20
-3.72411865793038
 30
0.0
 10
40.94208706470668
 20
-3.970908443399147
 30
0.0
 10
40.91387688673416
 20
-4.454256096894151
 30
0.0
 10
40.89948912839646
 20
-4.689349715146912
 30
0.0
 10
40.85583985459569
 20
-5.36792570985878
 30
0.0
 10
40.82609188111033
 20
-5.784293178789857
 30
0.0
 10
40.79674647099589
 20
-6.149557773247457
 30
0.0
  0
SPLINE
  5
2A5
330
1F
100
AcDbEntity
  8
외형선
  6
Continuous
 62
     1
370
    15
100
AcDbSpline
210
0.0
220
0.0
230
1.0
 70
     8
 71
     3
 72
    12
 73
     8
 74
     0
 42
0.000000001
 43
0.00000001
 40
0.0
 40
0.0
 40
0.0
 40
0.0
 40
0.25
 40
0.25
 40
0.5
 40
0.5
 40
1.0
 40
1.0
 40
1.0
 40
1.0
 10
44.00631522292323
 20
6.206504746825549
 30
0.0
 10
43.99189623144441
 20
6.027031415212383
 30
0.0
 10
43.97769752599229
 20
5.836199514365036
 30
0.0
 10
43.94997094199593
 20
5.436002895579107
 30
0.0
 10
43.93621365855017
 20
5.22565433123245
 30
0.0
 10
43.89354043144398
 20
4.558217502795268
 30
0.0
 10
43.864010737768
 20
4.068089366829767
 30
0.0
 10
43.83442519749154
 20
3.54873398440146
 30
0.0
  0
SPLINE
  5
2A6
330
1F
100
AcDbEntity
  8
외형선
  6
Continuous
 62
     1
370
    15
100
AcDbSpline
210
0.0
220
0.0
230
1.0
 70
     8
 71
     3
 72
    12
 73
     8
 74
     0
 42
0.000000001
 43
0.00000001
 40
0.0
 40
0.0
 40
0.0
 40
0.0
 40
0.2500000000000002
 40
0.2500000000000002
 40
0.5000000000000003
 40
0.5000000000000003
 40
1.0
 40
1.0
 40
1.0
 40
1.0
 10
21.53183850242287
 20
6.509665266534325
 30
0.0
 10
21.5171942975435
 20
6.343978321858421
 30
0.0
 10
21.50269664843962
 20
6.165826047696455
 30
0.0
 10
21.47424174670173
 20
5.788434701540708
 30
0.0
 10
21.46049242034811
 20
5.590253086203475
 30
0.0
 10
21.4188376310154
 20
4.962911305331177
 30
0.0
 10
21.3897178426934
 20
4.496039457601863
 30
0.0
 10
21.36022647818304
 20
3.994568396319685
 30
0.0
  0
SPLINE
  5
2A7
330
1F
100
AcDbEntity
  8
외형선
  6
Continuous
 62
     1
370
    15
100
AcDbSpline
210
0.0
220
0.0
230
1.0
 70
     8
 71
     3
 72
    10
 73
     6
 74
     0
 42
0.000000001
 43
0.00000001
 40
0.0
 40
0.0
 40
0.0
 40
0.0
 40
0.5
 40
0.5
 40
1.0
 40
1.0
 40
1.0
 40
1.0
 10
20.92575162316488
 20
-4.250701894275499
 30
0.0
 10
20.89760271046393
 20
-4.730608622415755
 30
0.0
 10
20.86834728200464
 20
-5.18367094134589
 30
0.0
 10
20.80961661052309
 20
-6.001500901106791
 30
0.0
 10
20.78015748794728
 20
-6.366034675238116
 30
0.0
 10
20.75162413065491
 20
-6.674842475908036
 30
0.0
  0
SPLINE
  5
2A8
330
1F
100
AcDbEntity
  8
외형선
  6
Continuous
 62
     1
370
    15
100
AcDbSpline
210
0.0
220
0.0
230
1.0
 70
     8
 71
     3
 72
    10
 73
     6
 74
     0
 42
0.000000001
 43
0.00000001
 40
0.0
 40
0.0
 40
0.0
 40
0.0
 40
0.5
 40
0.5
 40
1.0
 40
1.0
 40
1.0
 40
1.0
 10
43.40042059863142
 20
-4.670547073578825
 30
0.0
 10
43.37169028546134
 20
-5.13328120262944
 30
0.0
 10
43.34213657699367
 20
-5.563525623714116
 30
0.0
 10
43.28344257270358
 20
-6.327160761987114
 30
0.0
 10
43.25431831242702
 20
-6.66036266750825
 30
0.0
 10
43.22639854011027
 20
-6.935919644852397
 30
0.0
  0
SPLINE
  5
2A9
330
1F
100
AcDbEntity
  8
외형선
  6
Continuous
 62
     1
370
    15
100
AcDbSpline
210
0.0
220
0.0
230
1.0
 70
     8
 71
     3
 72
    12
 73
     8
 74
     0
 42
0.000000001
 43
0.00000001
 40
0.0
 40
0.0
 40
0.0
 40
0.0
 40
0.5
 40
0.5
 40
0.75
 40
0.75
 40
1.0
 40
1.0
 40
1.0
 40
1.0
 10
41.57736889747979
 20
6.979897568225614
 30
0.0
 10
41.54778401184662
 20
6.703316254452856
 30
0.0
 10
41.51824657017495
 20
6.370289244385948
 30
0.0
 10
41.47555046635211
 20
5.8066180745414
 30
0.0
 10
41.46177436766925
 20
5.60909774970296
 30
0.0
 10
41.4340698552165
 20
5.192736405680324
 30
0.0
 10
41.41988055102526
 20
4.972486689130633
 30
0.0
 10
41.40546906330928
 20
4.741678538500416
 30
0.0
  0
SPLINE
  5
2AA
330
1F
100
AcDbEntity
  8
외형선
  6
Continuous
 62
     1
370
    15
100
AcDbSpline
210
0.0
220
0.0
230
1.0
 70
     8
 71
     3
 72
    12
 73
     8
 74
     0
 42
0.000000001
 43
0.00000001
 40
0.0
 40
0.0
 40
0.0
 40
0.0
 40
0.5000000000000006
 40
0.5000000000000006
 40
0.7500000000000002
 40
0.7500000000000002
 40
1.0
 40
1.0
 40
1.0
 40
1.0
 10
19.10317218529652
 20
7.206858237606445
 30
0.0
 10
19.0737094122556
 20
6.964025401709105
 30
0.0
 10
19.04397892004664
 20
6.662291617571493
 30
0.0
 10
19.0005545818198
 20
6.138750918060929
 30
0.0
 10
18.98627440232726
 20
5.952535919548566
 30
0.0
 10
18.95833832739889
 20
5.560754510275379
 30
0.0
 10
18.94477014646991
 20
5.355768237647904
 30
0.0
 10
18.93068630070322
 20
5.138328236421064
 30
0.0
  0
SPLINE
  5
2AB
330
1F
100
AcDbEntity
  8
외형선
  6
Continuous
 62
     1
370
    15
100
AcDbSpline
210
0.0
220
0.0
230
1.0
 70
     8
 71
     3
 72
    12
 73
     8
 74
     0
 42
0.000000001
 43
0.00000001
 40
0.0
 40
0.0
 40
0.0
 40
0.0
 40
0.4999999999999999
 40
0.4999999999999999
 40
0.75
 40
0.75
 40
1.0
 40
1.0
 40
1.0
 40
1.0
 10
23.35517770157919
 20
-5.362473376445461
 30
0.0
 10
23.3257349412722
 20
-5.789151231220544
 30
0.0
 10
23.29600021821993
 20
-6.173892898985887
 30
0.0
 10
23.25253401974626
 20
-6.66880555150281
 30
0.0
 10
23.23823406092987
 20
-6.820187922649367
 30
0.0
 10
23.21024792715294
 20
-7.094059291050958
 30
0.0
 10
23.19669674458957
 20
-7.216339369263379
 30
0.0
 10
23.18264340512054
 20
-7.325942094938156
 30
0.0
  0
SPLINE
  5
2AD
330
1F
100
AcDbEntity
  8
외형선
  6
Continuous
 62
     1
370
    15
100
AcDbSpline
210
0.0
220
0.0
230
1.0
 70
     8
 71
     3
 72
    10
 73
     6
 74
     0
 42
0.000000001
 43
0.00000001
 40
0.0
 40
0.0
 40
0.0
 40
0.0
 40
0.5
 40
0.5
 40
1.0
 40
1.0
 40
1.0
 40
1.0
 10
39.14851409343635
 20
7.535908341391268
 30
0.0
 10
39.11974513779125
 20
7.355828775492863
 30
0.0
 10
39.09017453956027
 20
7.114562542682112
 30
0.0
 10
39.03149402657547
 20
6.524357468537135
 30
0.0
 10
39.00240011853073
 20
6.175606629896186
 30
0.0
 10
38.97453087816479
 20
5.78772397518884
 30
0.0
  0
SPLINE
  5
2AE
330
1F
100
AcDbEntity
  8
외형선
  6
Continuous
 62
     1
370
    15
100
AcDbSpline
210
0.0
220
0.0
230
1.0
 70
     8
 71
     3
 72
    10
 73
     6
 74
     0
 42
0.000000001
 43
0.00000001
 40
0.0
 40
0.0
 40
0.0
 40
0.0
 40
0.5
 40
0.5
 40
1.0
 40
1.0
 40
1.0
 40
1.0
 10
16.67382595182101
 20
7.679853197965856
 30
0.0
 10
16.64562560091909
 20
7.535842304306059
 30
0.0
 10
16.6163396411469
 20
7.330174200296191
 30
0.0
 10
16.55759652207789
 20
6.805154569582347
 30
0.0
 10
16.52815550443851
 20
6.485938535891339
 30
0.0
 10
16.4996625083973
 20
6.122697324684586
 30
0.0
  0
SPLINE
  5
2AF
330
1F
100
AcDbEntity
  8
외형선
  6
Continuous
 62
     1
370
    15
100
AcDbSpline
210
0.0
220
0.0
230
1.0
 70
     8
 71
     3
 72
    12
 73
     8
 74
     0
 42
0.000000001
 43
0.00000001
 40
0.0
 40
0.0
 40
0.0
 40
0.0
 40
0.2500000000000004
 40
0.2500000000000004
 40
0.5000000000000004
 40
0.5000000000000004
 40
1.0
 40
1.0
 40
1.0
 40
1.0
 10
25.78384712258011
 20
-6.307174470540401
 30
0.0
 10
25.76918948644457
 20
-6.482921309397788
 30
0.0
 10
25.75467248053268
 20
-6.645474813636397
 30
0.0
 10
25.72616813485741
 20
-6.942051184861955
 30
0.0
 10
25.71236147809156
 20
-7.075572286123985
 30
0.0
 10
25.67079740240781
 20
-7.435286647006546
 30
0.0
 10
25.64171813853779
 20
-7.622987902341454
 30
0.0
 10
25.61224279059399
 20
-7.74848820743107
 30
0.0
  0
SPLINE
  5
2B1
330
1F
100
AcDbEntity
  8
외형선
  6
Continuous
 62
     1
370
    15
100
AcDbSpline
210
0.0
220
0.0
230
1.0
 70
     8
 71
     3
 72
    12
 73
     8
 74
     0
 42
0.000000001
 43
0.00000001
 40
0.0
 40
0.0
 40
0.0
 40
0.0
 40
0.2500000000000002
 40
0.2500000000000002
 40
0.5000000000000001
 40
0.5000000000000001
 40
1.0
 40
1.0
 40
1.0
 40
1.0
 10
36.71771318752217
 20
7.857458514447691
 30
0.0
 10
36.70383352897878
 20
7.817015664696412
 30
0.0
 10
36.69021668791876
 20
7.761946304571526
 30
0.0
 10
36.66196417565742
 20
7.620649438633221
 30
0.0
 10
36.64756051136506
 20
7.53459974239823
 30
0.0
 10
36.6038807126377
 20
7.231163831709618
 30
0.0
 10
36.5741356713077
 20
6.967979335968604
 30
0.0
 10
36.54481622726566
 20
6.652824029430215
 30
0.0
  0
SPLINE
  5
2B3
330
1F
100
AcDbEntity
  8
외형선
  6
Continuous
 62
     1
370
    15
100
AcDbSpline
210
0.0
220
0.0
230
1.0
 70
     8
 71
     3
 72
    10
 73
     6
 74
     0
 42
0.000000001
 43
0.00000001
 40
0.0
 40
0.0
 40
0.0
 40
0.0
 40
0.5
 40
0.5
 40
1.0
 40
1.0
 40
1.0
 40
1.0
 10
14.24275828097039
 20
7.913717401235272
 30
0.0
 10
14.21424429323784
 20
7.868390700825132
 30
0.0
 10
14.18727993219428
 20
7.763330295178426
 30
0.0
 10
14.12980813869759
 20
7.429533407987609
 30
0.0
 10
14.10014530142257
 20
7.200421163449004
 30
0.0
 10
14.07059606559135
 20
6.915597488231452
 30
0.0
  0
SPLINE
  5
2B4
330
1F
100
AcDbEntity
  8
외형선
  6
Continuous
 62
     1
370
    15
100
AcDbSpline
210
0.0
220
0.0
230
1.0
 70
     8
 71
     3
 72
    12
 73
     8
 74
     0
 42
0.000000001
 43
0.00000001
 40
0.0
 40
0.0
 40
0.0
 40
0.0
 40
0.2499999999999999
 40
0.2499999999999999
 40
0.4999999999999999
 40
0.4999999999999999
 40
1.0
 40
1.0
 40
1.0
 40
1.0
 10
28.21392114717399
 20
-7.056029126455818
 30
0.0
 10
28.20010668960721
 20
-7.185615804992193
 30
0.0
 10
28.18640282925458
 20
-7.301511940818744
 30
0.0
 10
28.15806316237953
 20
-7.507047092770434
 30
0.0
 10
28.1436266268719
 20
-7.59604465779665
 30
0.0
 10
28.09988322654699
 20
-7.818138406324445
 30
0.0
 10
28.0701431958824
 20
-7.905762392183036
 30
0.0
 10
28.04087573251193
 20
-7.929632172915701
 30
0.0
  0
LINE
  5
2B5
330
1F
100
AcDbEntity
  8
외형선
  6
Continuous
 62
     1
370
    15
100
AcDbLine
 10
12.46773785402714
 20
7.764959602364391
 30
0.0
 11
12.46226165848963
 21
7.764329202685015
 31
0.0
  0
SPLINE
  5
2B7
330
1F
100
AcDbEntity
  8
외형선
  6
Continuous
 62
     1
370
    15
100
AcDbSpline
210
0.0
220
0.0
230
1.0
 70
     8
 71
     3
 72
    11
 73
     7
 74
     0
 42
0.000000001
 43
0.00000001
 40
0.0
 40
0.0
 40
0.0
 40
0.0
 40
0.1898922061327398
 40
0.4443905122632666
 40
0.7206016082104388
 40
1.0
 40
1.0
 40
1.0
 40
1.0
 10
34.27680868325913
 20
7.930019177982597
 30
0.0
 10
34.26648108024241
 20
7.930130485937576
 30
0.0
 10
34.24231216415826
 20
7.930390971610682
 30
0.0
 10
34.20443344163688
 20
7.826102020520278
 30
0.0
 10
34.16171639669659
 20
7.634110474656934
 30
0.0
 10
34.13141294632165
 20
7.418700046649425
 30
0.0
 10
34.11617430211685
 20
7.310376973540717
 30
0.0
  0
LINE
  5
2B9
330
1F
100
AcDbEntity
  8
외형선
  6
Continuous
 62
     1
370
    15
100
AcDbLine
 10
33.83035658584866
 20
7.767787726969388
 30
0.0
 11
33.82749153486626
 21
7.768148144842505
 31
0.0
  0
LINE
  5
2BA
330
1F
100
AcDbEntity
  8
외형선
  6
Continuous
370
    15
100
AcDbLine
 10
12.23392675267559
 20
7.76124023599561
 30
0.0
 11
12.20806130020572
 21
7.765596908127525
 31
0.0
  0
SPLINE
  5
2BC
330
1F
100
AcDbEntity
  8
외형선
  6
Continuous
370
    15
100
AcDbSpline
210
0.0
220
0.0
230
1.0
 70
     8
 71
     3
 72
    10
 73
     6
 74
     0
 42
0.000000001
 43
0.00000001
 40
0.0
 40
0.0
 40
0.0
 40
0.0
 40
0.5000000000000001
 40
0.5000000000000001
 40
1.0
 40
1.0
 40
1.0
 40
1.0
 10
11.99999999999999
 20
7.861644434850075
 30
0.0
 10
11.97676395235764
 20
7.840258001731047
 30
0.0
 10
11.95415246271572
 20
7.790223105033102
 30
0.0
 10
11.90843107660709
 20
7.634370642501357
 30
0.0
 10
11.88512261907306
 20
7.529090562770172
 30
0.0
 10
11.86134717251939
 20
7.39638900118369
 30
0.0
  0
LINE
  5
2BD
330
1F
100
AcDbEntity
  8
외형선
  6
Continuous
370
    15
100
AcDbLine
 10
11.99999999999999
 20
7.861644434850075
 30
0.0
 11
11.99999999999999
 21
7.864120711958415
 31
0.0
  0
LINE
  5
2BF
330
1F
100
AcDbEntity
  8
외형선
  6
Continuous
 62
     1
370
    15
100
AcDbLine
 10
33.57919136569768
 20
7.758646090061966
 30
0.0
 11
33.56851485860253
 21
7.763013038080556
 31
0.0
  0
LINE
  5
2C0
330
1F
100
AcDbEntity
  8
외형선
  6
Continuous
 62
     1
370
    15
100
AcDbLine
 10
30.08619694272987
 20
-7.757624856536302
 30
0.0
 11
30.08173525454633
 21
-7.75457865228007
 31
0.0
  0
SPLINE
  5
2C1
330
1F
100
AcDbEntity
  8
외형선
  6
Continuous
 62
     1
370
    15
100
AcDbSpline
210
0.0
220
0.0
230
1.0
 70
     8
 71
     3
 72
    10
 73
     6
 74
     0
 42
0.000000001
 43
0.00000001
 40
0.0
 40
0.0
 40
0.0
 40
0.0
 40
0.4693716423647861
 40
0.9392202884244658
 40
1.0
 40
1.0
 40
1.0
 40
1.0
 10
30.64460512864363
 20
-7.585103744838992
 30
0.0
 10
30.62519622863272
 20
-7.679609720322715
 30
0.0
 10
30.5863587041193
 20
-7.868717713946823
 30
0.0
 10
30.54428218539807
 20
-7.960720223560661
 30
0.0
 10
30.52267412256852
 20
-7.930190928221657
 30
0.0
 10
30.52019907236136
 20
-7.926694014160036
 30
0.0
  0
LINE
  5
2C5
330
1F
100
AcDbEntity
  8
외형선
  6
Continuous
 62
     1
370
    15
100
AcDbLine
 10
53.27499999999999
 20
1.746538046928509
 30
0.0
 11
53.27499999999999
 21
1.762397282427324
 31
0.0
  0
LINE
  5
2C7
330
1F
100
AcDbEntity
  8
외형선
  6
Continuous
 62
     1
370
    15
100
AcDbLine
 10
30.97079321509897
 20
-7.752397753426801
 30
0.0
 11
30.96875590090336
 21
-7.754371096780245
 31
0.0
  0
LINE
  5
2C8
330
1F
100
AcDbEntity
  8
외형선
  6
Continuous
 62
     1
370
    15
100
AcDbLine
 10
32.22148080072483
 20
7.754337855143105
 30
0.0
 11
32.21870868558491
 21
7.759292385083898
 31
0.0
  0
LINE
  5
2CB
330
1F
100
AcDbEntity
  8
외형선
  6
Continuous
 62
     1
370
    15
100
AcDbLine
 10
31.21883660133681
 20
-7.772414771269143
 30
0.0
 11
31.21662725427966
 21
-7.767865363922603
 31
0.0
  0
SPLINE
  5
2CC
330
1F
100
AcDbEntity
  8
외형선
  6
Continuous
 62
     1
370
    15
100
AcDbSpline
210
0.0
220
0.0
230
1.0
 70
     8
 71
     3
 72
    10
 73
     6
 74
     0
 42
0.000000001
 43
0.00000001
 40
0.0
 40
0.0
 40
0.0
 40
0.0
 40
0.2002721826276037
 40
0.776358672523068
 40
0.9999999999999999
 40
0.9999999999999999
 40
0.9999999999999999
 40
0.9999999999999999
 10
31.77303887905111
 20
7.923736336294287
 30
0.0
 10
31.76711392586243
 20
7.927376328763006
 30
0.0
 10
31.74414573960724
 20
7.94148682420941
 30
0.0
 10
31.71558662373615
 20
7.862487793686422
 30
0.0
 10
31.69281182918272
 20
7.767201331619774
 30
0.0
 10
31.68644293069463
 20
7.740554777124294
 30
0.0
  0
LINE
  5
2CD
330
1F
100
AcDbEntity
  8
외형선
  6
Continuous
 62
     1
370
    15
100
AcDbLine
 10
32.33150689294806
 20
-7.750672288761918
 30
0.0
 11
32.32676378236819
 21
-7.758620691665385
 31
0.0
  0
SPLINE
  5
2D0
330
1F
100
AcDbEntity
  8
외형선
  6
Continuous
 62
     1
370
    15
100
AcDbSpline
210
0.0
220
0.0
230
1.0
 70
     8
 71
     3
 72
     9
 73
     5
 74
     0
 42
0.000000001
 43
0.00000001
 40
0.0
 40
0.0
 40
0.0
 40
0.0
 40
0.7924819659459587
 40
1.0
 40
1.0
 40
1.0
 40
1.0
 10
31.33163785488452
 20
7.773150703647707
 30
0.0
 10
31.33052851639748
 20
7.775035524594741
 30
0.0
 10
31.32912868834498
 20
7.777413901678418
 30
0.0
 10
31.32777947768697
 20
7.77420584885395
 30
0.0
 10
31.32749949214371
 20
7.773540120038675
 30
0.0
  0
LINE
  5
2D2
330
1F
100
AcDbEntity
  8
외형선
  6
Continuous
 62
     1
370
    15
100
AcDbLine
 10
33.07340233411043
 20
-7.877483781535664
 30
0.0
 11
33.02673043949682
 21
-7.921029780292392
 31
0.0
  0
SPLINE
  5
2D4
330
1F
100
AcDbEntity
  8
외형선
  6
Continuous
370
    15
100
AcDbSpline
210
0.0
220
0.0
230
1.0
 70
     8
 71
     3
 72
    10
 73
     6
 74
     0
 42
0.000000001
 43
0.00000001
 40
0.0
 40
0.0
 40
0.0
 40
0.0
 40
0.1488326123973039
 40
0.756878093450727
 40
1.0
 40
1.0
 40
1.0
 40
1.0
 10
11.51995860828079
 20
-7.900314704519936
 30
0.0
 10
11.52182068539679
 20
-7.901136833896238
 30
0.0
 10
11.53129015149508
 20
-7.905317716734242
 30
0.0
 10
11.54402993308183
 20
-7.883915194450315
 30
0.0
 10
11.55489601357467
 20
-7.855444341890207
 30
0.0
 10
11.55799973000532
 20
-7.847312113075626
 30
0.0
  0
LINE
  5
2D5
330
1F
100
AcDbEntity
  8
외형선
  6
Continuous
 62
     1
370
    15
100
AcDbLine
 10
29.71921286020495
 20
7.761722989358508
 30
0.0
 11
29.7168479434844
 21
7.761379463076271
 31
0.0
  0
LINE
  5
2D6
330
1F
100
AcDbEntity
  8
외형선
  6
Continuous
 62
     1
370
    15
100
AcDbLine
 10
29.2718325790569
 20
7.921613589687876
 30
0.0
 11
29.25547654336044
 21
7.929786542753682
 31
0.0
  0
LINE
  5
2D8
330
1F
100
AcDbEntity
  8
외형선
  6
Continuous
 62
     1
370
    15
100
AcDbLine
 10
13.02792488637498
 20
-7.936093073683233
 30
0.0
 11
13.01856402549739
 21
-7.929189086953045
 31
0.0
  0
LINE
  5
2D9
330
1F
100
AcDbEntity
  8
중심선
 62
     1
100
AcDbLine
 10
-44.975
 20
0.0010749287238888
 30
0.0
 11
56.27500000000001
 21
0.0010749287239012
 31
0.0
  0
LINE
  5
2DA
330
1F
100
AcDbEntity
  8
참조1
100
AcDbLine
 10
5.650000000000002
 20
0.0010749287238892
 30
0.0
 11
5.650000000000007
 21
-39.99892507127611
 31
0.0
  0
LINE
  5
2DB
330
1F
100
AcDbEntity
  8
참조1
100
AcDbLine
 10
5.650000000000007
 20
-39.99892507127611
 30
0.0
 11
-10.55707599297551
 21
-39.9989250712761
 31
0.0
  0
CIRCLE
  5
2DC
330
1F
100
AcDbEntity
  8
해칭선
100
AcDbCircle
 10
0.0000000000000104
 20
0.0
 30
0.0
 40
3.000000000000002
  0
INSERT
  5
2DD
330
1F
100
AcDbEntity
  8
0
  6
Continuous
 62
     7
100
AcDbBlockReference
 66
     1
  2
블럭10
 10
-8.290272932125204
 20
-52.04609937292004
 30
0.0
  0
ATTRIB
  5
2DE
330
2DD
100
AcDbEntity
  8
FORMAT
 62
     2
100
AcDbText
 10
-19.33737427891569
 20
-49.97073246008785
 30
0.0
 40
4.233333333333333
  1
E2193040 [ 4 FLUTE ]
 41
0.75
  7
SLDTEXTSTYLE0
 11
-19.33737427891569
 21
-52.08739912675452
 31
0.0
100
AcDbAttribute
  2
AUTOATTR0
 70
     0
 74
     1
  0
SEQEND
  5
2DF
330
2DD
100
AcDbEntity
  8
0
  6
Continuous
 62
     7
  0
HATCH
  5
2E0
330
1F
100
AcDbEntity
  8
중심선
100
AcDbHatch
 10
0.0
 20
0.0
 30
0.0
210
0.0
220
0.0
230
1.0
  2
SOLID
 70
     1
 71
     0
 91
        1
 92
        0
 93
        4
 72
     1
 10
-2.575363627744354
 20
-35.7989250712761
 11
-6.021638871581636
 21
-35.7989250712761
 72
     1
 10
-6.021638871581636
 20
-35.7989250712761
 11
-8.14986873078566
 21
-38.3352506518487
 72
     1
 10
-8.14986873078566
 20
-38.3352506518487
 11
-4.703560401835228
 21
-38.33521122254621
 72
     1
 10
-4.703560401835228
 20
-38.33521122254621
 11
-2.575363627744354
 21
-35.7989250712761
 97
        0
 75
     0
 76
     1
 98
        1
 10
0.0
 20
0.0
  0
HATCH
  5
2E1
330
1F
100
AcDbEntity
  8
중심선
100
AcDbHatch
 10
0.0
 20
0.0
 30
0.0
210
0.0
220
0.0
230
1.0
  2
SOLID
 70
     1
 71
     0
 91
        1
 92
        0
 93
        4
 72
     1
 10
2.437400363291625
 20
-35.79892507127608
 11
-1.008874880545629
 21
-35.7989250712761
 72
     1
 10
-1.008874880545629
 20
-35.7989250712761
 11
-5.540012888903073
 21
-41.19892507127612
 72
     1
 10
-5.540012888903073
 20
-41.19892507127612
 11
-2.093737645065791
 21
-41.19892507127612
 72
     1
 10
-2.093737645065791
 20
-41.19892507127612
 11
2.437400363291625
 21
-35.79892507127608
 97
        0
 75
     0
 76
     1
 98
        1
 10
0.0
 20
0.0
  0
HATCH
  5
2E2
330
1F
100
AcDbEntity
  8
중심선
100
AcDbHatch
 10
0.0
 20
0.0
 30
0.0
210
0.0
220
0.0
230
1.0
  2
SOLID
 70
     1
 71
     0
 91
        1
 92
        0
 93
        4
 72
     1
 10
7.450164354327493
 20
-35.7989250712761
 11
4.003889110490377
 21
-35.79892507127613
 72
     1
 10
4.003889110490377
 20
-35.79892507127613
 11
-3.044547791398871
 21
-44.19892507127612
 72
     1
 10
-3.044547791398871
 20
-44.19892507127612
 11
0.4017274524384105
 21
-44.19892507127612
 72
     1
 10
0.4017274524384107
 20
-44.19892507127612
 11
7.450164354327493
 21
-35.7989250712761
 97
        0
 75
     0
 76
     1
 98
        1
 10
0.0
 20
0.0
  0
HATCH
  5
2E3
330
1F
100
AcDbEntity
  8
중심선
100
AcDbHatch
 10
0.0
 20
0.0
 30
0.0
210
0.0
220
0.0
230
1.0
  2
SOLID
 70
     1
 71
     0
 91
        1
 92
        0
 93
        6
 72
     3
 10
12.25005478533969
 20
-39.99892507132738
 11
3.960054785062284
 21
1.540850780301639E-10
 40
0.3939339440162633
 50
17.09539180608434
 51
320.0019657685081
 73
     0
 72
     1
 10
13.93305444104026
 20
-38.58681907591443
 11
16.23835631474132
 21
-36.65249236586649
 72
     3
 10
12.25005478528685
 20
-39.99892507127625
 11
6.600054785286829
 21
-1.249000902703301E-13
 40
0.6363583540795982
 50
39.99873849337411
 51
368.4976242363724
 73
     1
 72
     1
 10
18.67538727718745
 20
-39.03892507120613
 11
10.9301220921228
 21
-39.03892507120613
 72
     1
 10
10.9301220921228
 20
-39.03892507120613
 11
10.93009704767683
 21
-40.95892507120602
 72
     1
 10
10.93009704767683
 20
-40.95892507120602
 11
15.37147681714887
 21
-40.95892507120599
 97
        0
 75
     0
 76
     1
 98
        1
 10
0.0
 20
0.0
  0
DIMENSION
  5
2E4
330
1F
100
AcDbEntity
  8
치수문자_일반주서
100
AcDbDimension
  2
_D
 10
-55.38750000000002
 20
-7.936425071276173
 30
0.0
 11
-55.38750000000005
 21
-1.769213943387217
 31
0.0
 70
   160
  1
%%c<>
 71
     2
 42
15.875
  3
SLDDIMSTYLE0
100
AcDbAlignedDimension
 13
-40.38750000000001
 23
7.938574928723877
 33
0.0
 14
-40.38750000000001
 24
-7.936425071276123
 34
0.0
 50
90.0000000000002
100
AcDbRotatedDimension
1001
ACAD
1000
DSTYLE
1002
{
1070
   171
1070
     6
1070
   273
1070
     7
1002
}
  0
DIMENSION
  5
2F9
330
1F
100
AcDbEntity
  8
치수문자_일반주서
100
AcDbDimension
  2
_D_1
 10
69.4202808730799
 20
-7.936425071275906
 30
0.0
 11
69.42028087307979
 21
25.24057492872409
 31
0.0
 70
   160
  1
%%c<>
 71
     2
 42
15.875
  3
SLDDIMSTYLE1
100
AcDbAlignedDimension
 13
11.0
 23
7.938574928723892
 33
0.0
 14
10.52428301214955
 24
-7.936425071276108
 34
0.0
 50
90.0000000000002
100
AcDbRotatedDimension
1001
ACAD
1000
DSTYLE
1002
{
1070
   171
1070
     6
1070
   273
1070
     7
1002
}
  0
DIMENSION
  5
30D
330
1F
100
AcDbEntity
  8
치수문자_일반주서
100
AcDbDimension
  2
_D_2
 10
12.0
 20
17.20147524595327
 30
0.0
 11
32.6375
 21
17.20147524595327
 31
0.0
 70
   160
  1
<>
 71
     2
 42
41.27499999999999
  3
SLDDIMSTYLE1
100
AcDbAlignedDimension
 13
53.27499999999999
 23
7.728389888292647
 33
0.0
 14
12.0
 24
-7.936425071276104
 34
0.0
 50
0.0000000000000099
100
AcDbRotatedDimension
1001
ACAD
1000
DSTYLE
1002
{
1070
   171
1070
     6
1070
   273
1070
     7
1002
}
  0
DIMENSION
  5
320
330
1F
100
AcDbEntity
  8
치수문자_일반주서
100
AcDbDimension
  2
_D_3
 10
-41.97500000000002
 20
29.06456448679851
 30
0.0
 11
5.649999999999991
 21
29.06456448679851
 31
0.0
 70
   160
  1
<>
 71
     2
 42
95.25
  3
SLDDIMSTYLE1
100
AcDbAlignedDimension
 13
53.27499999999999
 23
7.728389888292647
 33
0.0
 14
-41.97500000000002
 24
6.351074928723884
 34
0.0
 50
-0.0000000000000064
100
AcDbRotatedDimension
1001
ACAD
1000
DSTYLE
1002
{
1070
   171
1070
     6
1070
   273
1070
     7
1002
}
  0
LINE
  5
333
330
1F
100
AcDbEntity
  8
참조1
100
AcDbLine
 10
87.41526463667876
 20
7.441074928723896
 30
0.0
 11
87.41526463667876
 21
-7.438925071276109
 31
0.0
  0
LINE
  5
334
330
1F
100
AcDbEntity
  8
참조1
100
AcDbLine
 10
100.1152646366788
 20
5.441074928723896
 30
0.0
 11
87.41526463667876
 21
5.441074928723896
 31
0.0
  0
SOLID
  5
335
330
1F
100
AcDbEntity
  8
참조1
100
AcDbTrace
 10
87.41526463667876
 20
5.441074928723896
 30
0.0
 11
93.76526463667875
 21
4.425074928723896
 31
0.0
 12
93.76526463667875
 22
6.457074928723896
 32
0.0
 13
93.76526463667875
 23
6.457074928723896
 33
0.0
  0
LINE
  5
336
330
1F
100
AcDbEntity
  8
참조1
100
AcDbLine
 10
100.1152646366788
 20
-5.438925071276109
 30
0.0
 11
87.41526463667876
 21
-5.438925071276109
 31
0.0
  0
SOLID
  5
337
330
1F
100
AcDbEntity
  8
참조1
100
AcDbTrace
 10
87.41526463667876
 20
-5.438925071276109
 30
0.0
 11
93.76526463667875
 21
-6.454925071276109
 31
0.0
 12
93.76526463667875
 22
-4.422925071276109
 32
0.0
 13
93.76526463667875
 23
-4.422925071276109
 33
0.0
  0
MTEXT
  5
338
330
1F
100
AcDbEntity
  8
참조1
100
AcDbMText
 10
97.01537944724133
 20
11.06679249473997
 30
0.0
 40
3.5
 41
0.0
 71
     1
 72
     1
  1
A
  7
SLDTEXTSTYLE0
 73
     1
 44
1.0
  0
MTEXT
  5
339
330
1F
100
AcDbEntity
  8
참조1
100
AcDbMText
 10
97.01537944724133
 20
0.1867924947399659
 30
0.0
 40
3.5
 41
0.0
 71
     1
 72
     1
  1
A
  7
SLDTEXTSTYLE0
 73
     1
 44
1.0
  0
INSERT
  5
340
330
1F
100
AcDbEntity
  8
해칭선
100
AcDbBlockReference
  2
SW_DOWELSYMBOL_0
 10
0.0000000000000104
 20
0.0
 30
0.0
  0
LINE
  5
39F
330
1F
100
AcDbEntity
  8
외형선
  6
Continuous
370
    15
100
AcDbLine
 10
-22.85832500000004
 20
6.287574928723849
 30
0.0
 11
-12.67292500000002
 21
6.287574928723849
 31
0.0
  0
LINE
  5
3A0
330
1F
100
AcDbEntity
  8
외형선
  6
Continuous
370
    15
100
AcDbLine
 10
-22.85832500000004
 20
6.287574928723949
 30
0.0
 11
-24.50932499999999
 21
7.93857492872386
 31
0.0
  0
LINE
  5
3A1
330
1F
100
AcDbEntity
  8
외형선
  6
Continuous
370
    15
100
AcDbLine
 10
-12.67292500000013
 20
6.287574928723949
 30
0.0
 11
-11.02192500000012
 21
7.93857492872386
 31
0.0
  0
LINE
  5
3A2
330
1F
100
AcDbEntity
  8
외형선
  6
Continuous
370
    15
100
AcDbLine
 10
-24.50932500000002
 20
7.938574928723886
 30
0.0
 11
-40.3875
 21
7.938574928723884
 31
0.0
  0
ARC
  5
40E
330
1F
100
AcDbEntity
  8
외형선
  6
Continuous
 62
     1
370
    15
100
AcDbCircle
 10
45.3375
 20
0.0010749287239022
 30
0.0
 40
7.9375
100
AcDbArc
 50
286.4856726303296
 51
90.0
  0
ENDSEC
  0
SECTION
  2
OBJECTS
  0
DICTIONARY
  5
C
330
0
100
AcDbDictionary
281
     1
  3
ACAD_GROUP
350
D
  3
ACAD_IMAGE_VARS
350
364
  3
ACAD_LAYOUT
350
1A
  3
ACAD_MLINESTYLE
350
17
  3
ACAD_PLOTSETTINGS
350
19
  3
ACAD_PLOTSTYLENAME
350
E
  3
ACAD_SCALELIST
350
47
  3
APPDATA
350
362
  3
DWGPROPS
350
40F
  0
DICTIONARY
  5
391
330
2
100
AcDbDictionary
280
     1
281
     1
  3
ACAD_LAYERSTATES
360
392
  0
DICTIONARY
  5
D
102
{ACAD_REACTORS
330
C
102
}
330
C
100
AcDbDictionary
281
     1
  0
RASTERVARIABLES
  5
364
102
{ACAD_REACTORS
330
C
102
}
330
C
100
AcDbRasterVariables
 90
        0
 70
     1
 71
     1
 72
     1
  0
DICTIONARY
  5
1A
102
{ACAD_REACTORS
330
C
102
}
330
C
100
AcDbDictionary
281
     1
  3
Layout1
350
1E
  3
Layout2
350
26
  3
Model
350
22
  0
DICTIONARY
  5
17
102
{ACAD_REACTORS
330
C
102
}
330
C
100
AcDbDictionary
281
     1
  3
Standard
350
18
  0
DICTIONARY
  5
19
102
{ACAD_REACTORS
330
C
102
}
330
C
100
AcDbDictionary
281
     1
  0
ACDBDICTIONARYWDFLT
  5
E
102
{ACAD_REACTORS
330
C
102
}
330
C
100
AcDbDictionary
281
     1
  3
Normal
350
F
100
AcDbDictionaryWithDefault
340
F
  0
DICTIONARY
  5
47
102
{ACAD_REACTORS
330
C
102
}
330
C
100
AcDbDictionary
281
     1
  3
A0
350
48
  3
A1
350
49
  3
A2
350
4A
  3
A3
350
4B
  3
A4
350
4C
  3
A5
350
4D
  3
A6
350
4E
  3
A7
350
4F
  3
A8
350
50
  3
A9
350
51
  3
B0
350
52
  3
B1
350
53
  3
B2
350
54
  3
B3
350
55
  3
B4
350
56
  3
B5
350
57
  3
B6
350
58
  3
B7
350
59
  3
B8
350
5A
  3
B9
350
5B
  3
C0
350
5C
  3
C1
350
5D
  3
C2
350
5E
  3
C3
350
5F
  3
C4
350
60
  3
C5
350
61
  3
C6
350
62
  3
C7
350
63
  3
C8
350
64
  3
C9
350
65
  3
D0
350
66
  3
D1
350
67
  3
D2
350
68
  0
DICTIONARY
  5
362
102
{ACAD_REACTORS
330
C
102
}
330
C
100
AcDbDictionary
281
     1
  0
XRECORD
  5
40F
102
{ACAD_REACTORS
330
C
102
}
330
C
100
AcDbXrecord
280
     1
  1
DWGPROPS COOKIE
  2

  3

  4

  6

  7

  8
12016016
  9

300
=
301
=
302
=
303
=
304
=
305
=
306
=
307
=
308
=
309
=
 40
0.0
 41
2458324.194290359
 42
2458332.977471516
  1

 90
        0
  0
DICTIONARY
  5
392
102
{ACAD_REACTORS
330
391
102
}
330
391
100
AcDbDictionary
281
     1
  0
LAYOUT
  5
1E
102
{ACAD_REACTORS
330
1A
102
}
330
1A
100
AcDbPlotSettings
  1

  2
none_device
  4

  6

 40
0.0
 41
0.0
 42
0.0
 43
0.0
 44
0.0
 45
0.0
 46
0.0
 47
0.0
 48
0.0
 49
0.0
140
0.0
141
0.0
142
1.0
143
1.0
 70
   688
 72
     1
 73
     0
 74
     5
  7

 75
    16
147
1.0
148
0.0
149
0.0
100
AcDbLayout
  1
Layout1
 70
     1
 71
     1
 10
0.0
 20
0.0
 11
420.0
 21
297.0
 12
0.0
 22
0.0
 32
0.0
 14
1.000000000000000E+20
 24
1.000000000000000E+20
 34
1.000000000000000E+20
 15
-1.000000000000000E+20
 25
-1.000000000000000E+20
 35
-1.000000000000000E+20
146
0.0
 13
0.0
 23
0.0
 33
0.0
 16
1.0
 26
0.0
 36
0.0
 17
0.0
 27
1.0
 37
0.0
 76
     0
330
1B
  0
LAYOUT
  5
26
102
{ACAD_REACTORS
330
1A
102
}
330
1A
100
AcDbPlotSettings
  1

  2
none_device
  4

  6

 40
0.0
 41
0.0
 42
0.0
 43
0.0
 44
0.0
 45
0.0
 46
0.0
 47
0.0
 48
0.0
 49
0.0
140
0.0
141
0.0
142
1.0
143
1.0
 70
   688
 72
     1
 73
     0
 74
     5
  7

 75
    16
147
1.0
148
0.0
149
0.0
100
AcDbLayout
  1
Layout2
 70
     1
 71
     2
 10
0.0
 20
0.0
 11
0.0
 21
0.0
 12
0.0
 22
0.0
 32
0.0
 14
0.0
 24
0.0
 34
0.0
 15
0.0
 25
0.0
 35
0.0
146
0.0
 13
0.0
 23
0.0
 33
0.0
 16
1.0
 26
0.0
 36
0.0
 17
0.0
 27
1.0
 37
0.0
 76
     0
330
23
  0
LAYOUT
  5
22
102
{ACAD_REACTORS
330
1A
102
}
330
1A
100
AcDbPlotSettings
  1

  2
none_device
  4
ANSI_A_(11.00_x_8.50_Inches)
  6

 40
6.35
 41
19.05
 42
6.35000508
 43
19.05000254
 44
279.4
 45
215.9
 46
105.1273938290066
 47
97.92964295469741
 48
0.0
 49
0.0
140
0.0
141
0.0
142
0.0654857793264278
143
1.0
 70
  1696
 72
     0
 73
     0
 74
     0
  7

 75
     0
147
0.0235690232323232
148
0.0
149
0.0
100
AcDbLayout
  1
Model
 70
     1
 71
     0
 10
0.0
 20
0.0
 11
420.0
 21
297.0
 12
0.0
 22
0.0
 32
0.0
 14
-59.7625000000001
 24
-49.97073246008785
 34
0.0
 15
100.1152646366788
 25
39.24057492872409
 35
0.0
146
0.0
 13
0.0
 23
0.0
 33
0.0
 16
1.0
 26
0.0
 36
0.0
 17
0.0
 27
1.0
 37
0.0
 76
     0
330
1F
331
29
  0
MLINESTYLE
  5
18
102
{ACAD_REACTORS
330
17
102
}
330
17
100
AcDbMlineStyle
  2
Standard
 70
     0
  3

 62
   256
 51
90.0
 52
90.0
 71
     2
 49
0.5
 62
   256
  6
BYLAYER
 49
-0.5
 62
   256
  6
BYLAYER
  0
ACDBPLACEHOLDER
  5
F
102
{ACAD_REACTORS
330
E
102
}
330
E
  0
SCALE
  5
48
102
{ACAD_REACTORS
330
47
102
}
330
47
100
AcDbScale
 70
     0
300
1:1
140
1.0
141
1.0
290
     1
  0
SCALE
  5
49
102
{ACAD_REACTORS
330
47
102
}
330
47
100
AcDbScale
 70
     0
300
1:2
140
1.0
141
2.0
290
     0
  0
SCALE
  5
4A
102
{ACAD_REACTORS
330
47
102
}
330
47
100
AcDbScale
 70
     0
300
1:4
140
1.0
141
4.0
290
     0
  0
SCALE
  5
4B
102
{ACAD_REACTORS
330
47
102
}
330
47
100
AcDbScale
 70
     0
300
1:5
140
1.0
141
5.0
290
     0
  0
SCALE
  5
4C
102
{ACAD_REACTORS
330
47
102
}
330
47
100
AcDbScale
 70
     0
300
1:8
140
1.0
141
8.0
290
     0
  0
SCALE
  5
4D
102
{ACAD_REACTORS
330
47
102
}
330
47
100
AcDbScale
 70
     0
300
1:10
140
1.0
141
10.0
290
     0
  0
SCALE
  5
4E
102
{ACAD_REACTORS
330
47
102
}
330
47
100
AcDbScale
 70
     0
300
1:16
140
1.0
141
16.0
290
     0
  0
SCALE
  5
4F
102
{ACAD_REACTORS
330
47
102
}
330
47
100
AcDbScale
 70
     0
300
1:20
140
1.0
141
20.0
290
     0
  0
SCALE
  5
50
102
{ACAD_REACTORS
330
47
102
}
330
47
100
AcDbScale
 70
     0
300
1:30
140
1.0
141
30.0
290
     0
  0
SCALE
  5
51
102
{ACAD_REACTORS
330
47
102
}
330
47
100
AcDbScale
 70
     0
300
1:40
140
1.0
141
40.0
290
     0
  0
SCALE
  5
52
102
{ACAD_REACTORS
330
47
102
}
330
47
100
AcDbScale
 70
     0
300
1:50
140
1.0
141
50.0
290
     0
  0
SCALE
  5
53
102
{ACAD_REACTORS
330
47
102
}
330
47
100
AcDbScale
 70
     0
300
1:100
140
1.0
141
100.0
290
     0
  0
SCALE
  5
54
102
{ACAD_REACTORS
330
47
102
}
330
47
100
AcDbScale
 70
     0
300
2:1
140
2.0
141
1.0
290
     0
  0
SCALE
  5
55
102
{ACAD_REACTORS
330
47
102
}
330
47
100
AcDbScale
 70
     0
300
4:1
140
4.0
141
1.0
290
     0
  0
SCALE
  5
56
102
{ACAD_REACTORS
330
47
102
}
330
47
100
AcDbScale
 70
     0
300
8:1
140
8.0
141
1.0
290
     0
  0
SCALE
  5
57
102
{ACAD_REACTORS
330
47
102
}
330
47
100
AcDbScale
 70
     0
300
10:1
140
10.0
141
1.0
290
     0
  0
SCALE
  5
58
102
{ACAD_REACTORS
330
47
102
}
330
47
100
AcDbScale
 70
     0
300
100:1
140
100.0
141
1.0
290
     0
  0
SCALE
  5
59
102
{ACAD_REACTORS
330
47
102
}
330
47
100
AcDbScale
 70
     0
300
1/128" = 1'-0"
140
0.0078125
141
12.0
290
     0
  0
SCALE
  5
5A
102
{ACAD_REACTORS
330
47
102
}
330
47
100
AcDbScale
 70
     0
300
1/64" = 1'-0"
140
0.015625
141
12.0
290
     0
  0
SCALE
  5
5B
102
{ACAD_REACTORS
330
47
102
}
330
47
100
AcDbScale
 70
     0
300
1/32" = 1'-0"
140
0.03125
141
12.0
290
     0
  0
SCALE
  5
5C
102
{ACAD_REACTORS
330
47
102
}
330
47
100
AcDbScale
 70
     0
300
1/16" = 1'-0"
140
0.0625
141
12.0
290
     0
  0
SCALE
  5
5D
102
{ACAD_REACTORS
330
47
102
}
330
47
100
AcDbScale
 70
     0
300
3/32" = 1'-0"
140
0.09375
141
12.0
290
     0
  0
SCALE
  5
5E
102
{ACAD_REACTORS
330
47
102
}
330
47
100
AcDbScale
 70
     0
300
1/8" = 1'-0"
140
0.125
141
12.0
290
     0
  0
SCALE
  5
5F
102
{ACAD_REACTORS
330
47
102
}
330
47
100
AcDbScale
 70
     0
300
3/16" = 1'-0"
140
0.1875
141
12.0
290
     0
  0
SCALE
  5
60
102
{ACAD_REACTORS
330
47
102
}
330
47
100
AcDbScale
 70
     0
300
1/4" = 1'-0"
140
0.25
141
12.0
290
     0
  0
SCALE
  5
61
102
{ACAD_REACTORS
330
47
102
}
330
47
100
AcDbScale
 70
     0
300
3/8" = 1'-0"
140
0.375
141
12.0
290
     0
  0
SCALE
  5
62
102
{ACAD_REACTORS
330
47
102
}
330
47
100
AcDbScale
 70
     0
300
1/2" = 1'-0"
140
0.5
141
12.0
290
     0
  0
SCALE
  5
63
102
{ACAD_REACTORS
330
47
102
}
330
47
100
AcDbScale
 70
     0
300
3/4" = 1'-0"
140
0.75
141
12.0
290
     0
  0
SCALE
  5
64
102
{ACAD_REACTORS
330
47
102
}
330
47
100
AcDbScale
 70
     0
300
1" = 1'-0"
140
1.0
141
12.0
290
     0
  0
SCALE
  5
65
102
{ACAD_REACTORS
330
47
102
}
330
47
100
AcDbScale
 70
     0
300
1-1/2" = 1'-0"
140
1.5
141
12.0
290
     0
  0
SCALE
  5
66
102
{ACAD_REACTORS
330
47
102
}
330
47
100
AcDbScale
 70
     0
300
3" = 1'-0"
140
3.0
141
12.0
290
     0
  0
SCALE
  5
67
102
{ACAD_REACTORS
330
47
102
}
330
47
100
AcDbScale
 70
     0
300
6" = 1'-0"
140
6.0
141
12.0
290
     0
  0
SCALE
  5
68
102
{ACAD_REACTORS
330
47
102
}
330
47
100
AcDbScale
 70
     0
300
1'-0" = 1'-0"
140
12.0
141
12.0
290
     0
  0
ENDSEC
  0
EOF
