  0
SECTION
  2
HEADER
  9
$ACADVER
  1
AC1015
  9
$ACADMAINTVER
 70
     6
  9
$DWGCODEPAGE
  3
ANSI_949
  9
$INSBASE
 10
0.0
 20
0.0
 30
0.0
  9
$EXTMIN
 10
-51.87250000000014
 20
-49.97073246008785
 30
0.0
  9
$EXTMAX
 10
98.11526463667876
 20
40.06001761835116
 30
0.0
  9
$LIMMIN
 10
0.0
 20
0.0
  9
$LIMMAX
 10
420.0
 20
297.0
  9
$ORTHOMODE
 70
     0
  9
$REGENMODE
 70
     1
  9
$FILLMODE
 70
     1
  9
$QTEXTMODE
 70
     0
  9
$MIRRTEXT
 70
     1
  9
$LTSCALE
 40
1.0
  9
$ATTMODE
 70
     1
  9
$TEXTSIZE
 40
3.5
  9
$TRACEWID
 40
1.0
  9
$TEXTSTYLE
  7
Standard
  9
$CLAYER
  8
0
  9
$CELTYPE
  6
ByLayer
  9
$CECOLOR
 62
   256
  9
$CELTSCALE
 40
1.0
  9
$DISPSILH
 70
     0
  9
$DIMSCALE
 40
1.0
  9
$DIMASZ
 40
3.302
  9
$DIMEXO
 40
1.0
  9
$DIMDLI
 40
3.75
  9
$DIMRND
 40
0.0
  9
$DIMDLE
 40
0.0
  9
$DIMEXE
 40
1.0
  9
$DIMTP
 40
0.0
  9
$DIMTM
 40
0.0
  9
$DIMTXT
 40
3.5
  9
$DIMCEN
 40
2.5
  9
$DIMTSZ
 40
0.0
  9
$DIMTOL
 70
     0
  9
$DIMLIM
 70
     0
  9
$DIMTIH
 70
     1
  9
$DIMTOH
 70
     1
  9
$DIMSE1
 70
     0
  9
$DIMSE2
 70
     0
  9
$DIMTAD
 70
     1
  9
$DIMZIN
 70
     0
  9
$DIMBLK
  1

  9
$DIMASO
 70
     1
  9
$DIMSHO
 70
     1
  9
$DIMPOST
  1

  9
$DIMAPOST
  1

  9
$DIMALT
 70
     0
  9
$DIMALTD
 70
     3
  9
$DIMALTF
 40
0.0393700787401575
  9
$DIMLFAC
 40
1.0
  9
$DIMTOFL
 70
     1
  9
$DIMTVP
 40
0.0
  9
$DIMTIX
 70
     0
  9
$DIMSOXD
 70
     0
  9
$DIMSAH
 70
     0
  9
$DIMBLK1
  1

  9
$DIMBLK2
  1

  9
$DIMSTYLE
  2
ISO-25
  9
$DIMCLRD
 70
     0
  9
$DIMCLRE
 70
     0
  9
$DIMCLRT
 70
     0
  9
$DIMTFAC
 40
1.0
  9
$DIMGAP
 40
1.524
  9
$DIMJUST
 70
     0
  9
$DIMSD1
 70
     0
  9
$DIMSD2
 70
     0
  9
$DIMTOLJ
 70
     0
  9
$DIMTZIN
 70
     0
  9
$DIMALTZ
 70
     0
  9
$DIMALTTZ
 70
     0
  9
$DIMUPT
 70
     0
  9
$DIMDEC
 70
     2
  9
$DIMTDEC
 70
     2
  9
$DIMALTU
 70
     2
  9
$DIMALTTD
 70
     3
  9
$DIMTXSTY
  7
Standard
  9
$DIMAUNIT
 70
     0
  9
$DIMADEC
 70
     2
  9
$DIMALTRND
 40
0.0
  9
$DIMAZIN
 70
     0
  9
$DIMDSEP
 70
    44
  9
$DIMATFIT
 70
     3
  9
$DIMFRAC
 70
     0
  9
$DIMLDRBLK
  1

  9
$DIMLUNIT
 70
     2
  9
$DIMLWD
 70
    -2
  9
$DIMLWE
 70
    -2
  9
$DIMTMOVE
 70
     0
  9
$LUNITS
 70
     2
  9
$LUPREC
 70
     2
  9
$SKETCHINC
 40
1.0
  9
$FILLETRAD
 40
10.0
  9
$AUNITS
 70
     0
  9
$AUPREC
 70
     2
  9
$MENU
  1
.
  9
$ELEVATION
 40
0.0
  9
$PELEVATION
 40
0.0
  9
$THICKNESS
 40
0.0
  9
$LIMCHECK
 70
     0
  9
$CHAMFERA
 40
0.0
  9
$CHAMFERB
 40
0.0
  9
$CHAMFERC
 40
0.0
  9
$CHAMFERD
 40
0.0
  9
$SKPOLY
 70
     0
  9
$TDCREATE
 40
2458324.568696482
  9
$TDUCREATE
 40
2458324.193696482
  9
$TDUPDATE
 40
2458332.726909283
  9
$TDUUPDATE
 40
2458332.351909283
  9
$TDINDWG
 40
0.0031821991
  9
$TDUSRTIMER
 40
2458332.350339039
  9
$USRTIMER
 70
     1
  9
$ANGBASE
 50
0.0
  9
$ANGDIR
 70
     0
  9
$PDMODE
 70
     0
  9
$PDSIZE
 40
-1.0
  9
$PLINEWID
 40
0.0
  9
$SPLFRAME
 70
     0
  9
$SPLINETYPE
 70
     6
  9
$SPLINESEGS
 70
     8
  9
$HANDSEED
  5
346
  9
$SURFTAB1
 70
     6
  9
$SURFTAB2
 70
     6
  9
$SURFTYPE
 70
     6
  9
$SURFU
 70
     6
  9
$SURFV
 70
     6
  9
$UCSBASE
  2

  9
$UCSNAME
  2

  9
$UCSORG
 10
0.0
 20
0.0
 30
0.0
  9
$UCSXDIR
 10
1.0
 20
0.0
 30
0.0
  9
$UCSYDIR
 10
0.0
 20
1.0
 30
0.0
  9
$UCSORTHOREF
  2

  9
$UCSORTHOVIEW
 70
     0
  9
$UCSORGTOP
 10
0.0
 20
0.0
 30
0.0
  9
$UCSORGBOTTOM
 10
0.0
 20
0.0
 30
0.0
  9
$UCSORGLEFT
 10
0.0
 20
0.0
 30
0.0
  9
$UCSORGRIGHT
 10
0.0
 20
0.0
 30
0.0
  9
$UCSORGFRONT
 10
0.0
 20
0.0
 30
0.0
  9
$UCSORGBACK
 10
0.0
 20
0.0
 30
0.0
  9
$PUCSBASE
  2

  9
$PUCSNAME
  2

  9
$PUCSORG
 10
0.0
 20
0.0
 30
0.0
  9
$PUCSXDIR
 10
1.0
 20
0.0
 30
0.0
  9
$PUCSYDIR
 10
0.0
 20
1.0
 30
0.0
  9
$PUCSORTHOREF
  2

  9
$PUCSORTHOVIEW
 70
     0
  9
$PUCSORGTOP
 10
0.0
 20
0.0
 30
0.0
  9
$PUCSORGBOTTOM
 10
0.0
 20
0.0
 30
0.0
  9
$PUCSORGLEFT
 10
0.0
 20
0.0
 30
0.0
  9
$PUCSORGRIGHT
 10
0.0
 20
0.0
 30
0.0
  9
$PUCSORGFRONT
 10
0.0
 20
0.0
 30
0.0
  9
$PUCSORGBACK
 10
0.0
 20
0.0
 30
0.0
  9
$USERI1
 70
     0
  9
$USERI2
 70
     0
  9
$USERI3
 70
     0
  9
$USERI4
 70
     0
  9
$USERI5
 70
     0
  9
$USERR1
 40
0.0
  9
$USERR2
 40
0.0
  9
$USERR3
 40
0.0
  9
$USERR4
 40
0.0
  9
$USERR5
 40
0.0
  9
$WORLDVIEW
 70
     1
  9
$SHADEDGE
 70
     3
  9
$SHADEDIF
 70
    70
  9
$TILEMODE
 70
     1
  9
$MAXACTVP
 70
    64
  9
$PINSBASE
 10
0.0
 20
0.0
 30
0.0
  9
$PLIMCHECK
 70
     0
  9
$PEXTMIN
 10
1.000000000000000E+20
 20
1.000000000000000E+20
 30
1.000000000000000E+20
  9
$PEXTMAX
 10
-1.000000000000000E+20
 20
-1.000000000000000E+20
 30
-1.000000000000000E+20
  9
$PLIMMIN
 10
0.0
 20
0.0
  9
$PLIMMAX
 10
0.0
 20
0.0
  9
$UNITMODE
 70
     0
  9
$VISRETAIN
 70
     1
  9
$PLINEGEN
 70
     0
  9
$PSLTSCALE
 70
     1
  9
$TREEDEPTH
 70
  3020
  9
$CMLSTYLE
  2
Standard
  9
$CMLJUST
 70
     0
  9
$CMLSCALE
 40
20.0
  9
$PROXYGRAPHICS
 70
     1
  9
$MEASUREMENT
 70
     1
  9
$CELWEIGHT
370
    -1
  9
$ENDCAPS
280
     0
  9
$JOINSTYLE
280
     0
  9
$LWDISPLAY
290
     1
  9
$INSUNITS
 70
     4
  9
$HYPERLINKBASE
  1

  9
$STYLESHEET
  1

  9
$XEDIT
290
     1
  9
$CEPSNTYPE
380
     0
  9
$PSTYLEMODE
290
     1
  9
$FINGERPRINTGUID
  2
{FB10AF77-2222-4D22-B3BF-56AAD65FFC14}
  9
$VERSIONGUID
  2
{FAEB1C32-E019-11D5-929B-00C0DF256EC4}
  9
$EXTNAMES
290
     1
  9
$PSVPSCALE
 40
0.0
  9
$OLESTARTUP
290
     0
  0
ENDSEC
  0
SECTION
  2
CLASSES
  0
CLASS
  1
ACDBDICTIONARYWDFLT
  2
AcDbDictionaryWithDefault
  3
ObjectDBX Classes
 90
        0
280
     0
281
     0
  0
CLASS
  1
VISUALSTYLE
  2
AcDbVisualStyle
  3
ObjectDBX Classes
 90
     4095
280
     0
281
     0
  0
CLASS
  1
MATERIAL
  2
AcDbMaterial
  3
ObjectDBX Classes
 90
     1153
280
     0
281
     0
  0
CLASS
  1
SCALE
  2
AcDbScale
  3
ObjectDBX Classes
 90
     1153
280
     0
281
     0
  0
CLASS
  1
SUN
  2
AcDbSun
  3
SCENEOE
 90
     1153
280
     0
281
     0
  0
CLASS
  1
ACDBPLACEHOLDER
  2
AcDbPlaceHolder
  3
ObjectDBX Classes
 90
        0
280
     0
281
     0
  0
CLASS
  1
LAYOUT
  2
AcDbLayout
  3
ObjectDBX Classes
 90
        0
280
     0
281
     0
  0
CLASS
  1
TABLESTYLE
  2
AcDbTableStyle
  3
ObjectDBX Classes
 90
     4095
280
     0
281
     0
  0
CLASS
  1
MLEADERSTYLE
  2
AcDbMLeaderStyle
  3
ACDB_MLEADERSTYLE_CLASS
 90
     4095
280
     0
281
     0
  0
CLASS
  1
RASTERVARIABLES
  2
AcDbRasterVariables
  3
ISM
 90
        0
280
     0
281
     0
  0
ENDSEC
  0
SECTION
  2
TABLES
  0
TABLE
  2
VPORT
  5
8
330
0
100
AcDbSymbolTable
 70
     1
  0
VPORT
  5
29
330
8
100
AcDbSymbolTableRecord
100
AcDbViewportTableRecord
  2
*Active
 70
     0
 10
0.0
 20
0.0
 11
1.0
 21
1.0
 12
-10.3413158919049
 22
-19.64294046520523
 13
0.0
 23
0.0
 14
10.0
 24
10.0
 15
10.0
 25
10.0
 16
0.0
 26
0.0
 36
1.0
 17
0.0
 27
0.0
 37
0.0
 40
114.4142916308684
 41
1.672916666666667
 42
50.0
 43
0.0
 44
0.0
 50
0.0
 51
0.0
 71
    16
 72
  2000
 73
     1
 74
     3
 75
     0
 76
     0
 77
     0
 78
     0
281
     0
 65
     1
110
0.0
120
0.0
130
0.0
111
1.0
121
0.0
131
0.0
112
0.0
122
1.0
132
0.0
 79
     0
146
0.0
  0
ENDTAB
  0
TABLE
  2
LTYPE
  5
5
330
0
100
AcDbSymbolTable
 70
     6
  0
LTYPE
  5
14
330
5
100
AcDbSymbolTableRecord
100
AcDbLinetypeTableRecord
  2
ByBlock
 70
     0
  3

 72
    65
 73
     0
 40
0.0
  0
LTYPE
  5
15
330
5
100
AcDbSymbolTableRecord
100
AcDbLinetypeTableRecord
  2
ByLayer
 70
     0
  3

 72
    65
 73
     0
 40
0.0
  0
LTYPE
  5
16
330
5
100
AcDbSymbolTableRecord
100
AcDbLinetypeTableRecord
  2
Continuous
 70
     0
  3
Solid line
 72
    65
 73
     0
 40
0.0
  0
LTYPE
  5
6A
330
5
100
AcDbSymbolTableRecord
100
AcDbLinetypeTableRecord
  2
HIDDEN
 70
     0
  3
Hidden __ __ __ __ __ __ __ __ __ __ __ __ __ __
 72
    65
 73
     2
 40
1.905
 49
1.27
 74
     0
 49
-0.635
 74
     0
  0
LTYPE
  5
6B
330
5
100
AcDbSymbolTableRecord
100
AcDbLinetypeTableRecord
  2
PHANTOM
 70
     0
  3
Phantom ______  __  __  ______  __  __  ______
 72
    65
 73
     6
 40
12.7
 49
6.35
 74
     0
 49
-1.27
 74
     0
 49
1.27
 74
     0
 49
-1.27
 74
     0
 49
1.27
 74
     0
 49
-1.27
 74
     0
  0
LTYPE
  5
6C
330
5
100
AcDbSymbolTableRecord
100
AcDbLinetypeTableRecord
  2
CENTER
 70
     0
  3
Center ____ _ ____ _ ____ _ ____ _ ____ _ ____
 72
    65
 73
     4
 40
10.16
 49
6.35
 74
     0
 49
-1.27
 74
     0
 49
1.27
 74
     0
 49
-1.27
 74
     0
  0
LTYPE
  5
6D
330
5
100
AcDbSymbolTableRecord
100
AcDbLinetypeTableRecord
  2
CENTERX2
 70
     0
  3
Center (2x) ________  __  ________  __  _____
 72
    65
 73
     4
 40
20.32
 49
12.7
 74
     0
 49
-2.54
 74
     0
 49
2.54
 74
     0
 49
-2.54
 74
     0
  0
LTYPE
  5
6E
330
5
100
AcDbSymbolTableRecord
100
AcDbLinetypeTableRecord
  2
DOT2
 70
     0
  3
Dot (.5x) ........................................
 72
    65
 73
     2
 40
0.635
 49
0.0
 74
     0
 49
-0.635
 74
     0
  0
ENDTAB
  0
TABLE
  2
LAYER
  5
2
102
{ACAD_XDICTIONARY
360
270
102
}
330
0
100
AcDbSymbolTable
 70
    18
  0
LAYER
  5
10
330
2
100
AcDbSymbolTableRecord
100
AcDbLayerTableRecord
  2
0
 70
     0
 62
     7
  6
Continuous
370
    -3
390
F
  0
LAYER
  5
6F
330
2
100
AcDbSymbolTableRecord
100
AcDbLayerTableRecord
  2
FORMAT
 70
     0
 62
     2
  6
Continuous
370
    -3
390
F
  0
LAYER
  5
70
330
2
100
AcDbSymbolTableRecord
100
AcDbLayerTableRecord
  2
외형선
 70
     0
 62
     4
  6
Continuous
370
    30
390
F
  0
LAYER
  5
71
330
2
100
AcDbSymbolTableRecord
100
AcDbLayerTableRecord
  2
숨은선
 70
     0
 62
     2
  6
HIDDEN
370
    15
390
F
  0
LAYER
  5
72
330
2
100
AcDbSymbolTableRecord
100
AcDbLayerTableRecord
  2
중심선
 70
     0
 62
     1
  6
CENTERX2
370
    -3
390
F
  0
LAYER
  5
73
330
2
100
AcDbSymbolTableRecord
100
AcDbLayerTableRecord
  2
파단선
 70
     0
 62
     4
  6
Continuous
370
    -3
390
F
  0
LAYER
  5
74
330
2
100
AcDbSymbolTableRecord
100
AcDbLayerTableRecord
  2
해칭선
 70
     0
 62
   100
  6
Continuous
370
    -3
390
F
  0
LAYER
  5
75
330
2
100
AcDbSymbolTableRecord
100
AcDbLayerTableRecord
  2
가는실선
 70
     0
 62
     4
  6
Continuous
370
    -3
390
F
  0
LAYER
  5
76
330
2
100
AcDbSymbolTableRecord
100
AcDbLayerTableRecord
  2
치수_보조선
 70
     0
 62
     4
  6
Continuous
370
    -3
390
F
  0
LAYER
  5
77
330
2
100
AcDbSymbolTableRecord
100
AcDbLayerTableRecord
  2
치수문자_일반주서
 70
     0
 62
     7
  6
Continuous
370
    15
390
F
  0
LAYER
  5
78
330
2
100
AcDbSymbolTableRecord
100
AcDbLayerTableRecord
  2
개별주서
 70
     0
 62
   100
  6
Continuous
370
    30
390
F
  0
LAYER
  5
79
330
2
100
AcDbSymbolTableRecord
100
AcDbLayerTableRecord
  2
중간선
 70
     0
 62
     2
  6
Continuous
370
    15
390
F
  0
LAYER
  5
7A
330
2
100
AcDbSymbolTableRecord
100
AcDbLayerTableRecord
  2
윤곽선
 70
     0
 62
     3
  6
Continuous
370
    40
390
F
  0
LAYER
  5
7B
330
2
100
AcDbSymbolTableRecord
100
AcDbLayerTableRecord
  2
중심마크
 70
     0
 62
   100
  6
Continuous
370
    30
390
F
  0
LAYER
  5
7C
330
2
100
AcDbSymbolTableRecord
100
AcDbLayerTableRecord
  2
가상선
 70
     0
 62
     4
  6
PHANTOM
370
    -3
390
F
  0
LAYER
  5
7D
330
2
100
AcDbSymbolTableRecord
100
AcDbLayerTableRecord
  2
특수지정선
 70
     0
 62
     5
  6
CENTERX2
370
    60
390
F
  0
LAYER
  5
7E
330
2
100
AcDbSymbolTableRecord
100
AcDbLayerTableRecord
  2
참조1
 70
     0
 62
    -4
  6
Continuous
370
    -3
390
F
  0
LAYER
  5
2D4
330
2
100
AcDbSymbolTableRecord
100
AcDbLayerTableRecord
  2
Defpoints
 70
     0
 62
     7
  6
Continuous
290
     0
370
    -3
390
F
  0
ENDTAB
  0
TABLE
  2
STYLE
  5
3
330
0
100
AcDbSymbolTable
 70
     2
  0
STYLE
  5
11
330
3
100
AcDbSymbolTableRecord
100
AcDbTextStyleTableRecord
  2
Standard
 70
     0
 40
0.0
 41
1.0
 50
0.0
 71
     0
 42
3.5
  3
txt
  4

  0
STYLE
  5
94
330
3
100
AcDbSymbolTableRecord
100
AcDbTextStyleTableRecord
  2
SLDTEXTSTYLE0
 70
     0
 40
0.0
 41
0.75
 50
0.0
 71
     0
 42
3.5
  3
TXT
  4

  0
ENDTAB
  0
TABLE
  2
VIEW
  5
6
330
0
100
AcDbSymbolTable
 70
     0
  0
ENDTAB
  0
TABLE
  2
UCS
  5
7
330
0
100
AcDbSymbolTable
 70
     0
  0
ENDTAB
  0
TABLE
  2
APPID
  5
9
330
0
100
AcDbSymbolTable
 70
     2
  0
APPID
  5
12
330
9
100
AcDbSymbolTableRecord
100
AcDbRegAppTableRecord
  2
ACAD
 70
     0
  0
APPID
  5
285
330
9
100
AcDbSymbolTableRecord
100
AcDbRegAppTableRecord
  2
PE_URL
 70
     0
  0
ENDTAB
  0
TABLE
  2
DIMSTYLE
  5
A
330
0
100
AcDbSymbolTable
 70
     3
100
AcDbDimStyleTable
  0
DIMSTYLE
105
27
330
A
100
AcDbSymbolTableRecord
100
AcDbDimStyleTableRecord
  2
ISO-25
 70
     0
 41
2.5
 42
0.625
 43
3.75
 44
1.25
 73
     0
 74
     0
 77
     1
 78
     8
140
2.5
141
2.5
143
0.03937007874016
147
0.625
171
     3
172
     1
178
     0
271
     2
272
     2
274
     3
278
    44
283
     0
284
     8
340
11
  0
DIMSTYLE
105
1C2
102
{ACAD_REACTORS
330
1C1
330
1EA
102
}
330
A
100
AcDbSymbolTableRecord
100
AcDbDimStyleTableRecord
  2
SLDDIMSTYLE0
 70
     0
 41
3.302
 44
0.0
 45
0.000000001
 73
     0
 74
     0
 77
     1
 78
    12
 79
     3
140
3.5
143
0.0393700787401575
147
0.875
148
0.000000001
170
     1
172
     1
173
     1
178
     0
271
     2
272
     2
276
     2
284
    12
289
     0
340
94
  0
DIMSTYLE
105
1D7
102
{ACAD_REACTORS
330
1D6
330
1FF
102
}
330
A
100
AcDbSymbolTableRecord
100
AcDbDimStyleTableRecord
  2
SLDDIMSTYLE1
 70
     0
 41
3.302
 44
0.0
 45
0.000000001
 73
     0
 74
     0
 77
     1
 78
    12
 79
     3
140
3.5
143
0.0393700787401575
147
0.875
148
0.000000001
170
     1
173
     1
178
     0
271
     2
272
     2
276
     2
284
    12
340
94
  0
ENDTAB
  0
TABLE
  2
BLOCK_RECORD
  5
1
330
0
100
AcDbSymbolTable
 70
     7
  0
BLOCK_RECORD
  5
1F
330
1
100
AcDbSymbolTableRecord
100
AcDbBlockTableRecord
  2
*Model_Space
340
22
  0
BLOCK_RECORD
  5
1B
330
1
100
AcDbSymbolTableRecord
100
AcDbBlockTableRecord
  2
*Paper_Space
340
1E
  0
BLOCK_RECORD
  5
23
330
1
100
AcDbSymbolTableRecord
100
AcDbBlockTableRecord
  2
*Paper_Space0
340
26
  0
BLOCK_RECORD
  5
7F
330
1
100
AcDbSymbolTableRecord
100
AcDbBlockTableRecord
  2
블럭10
340
0
102
{BLKREFS
331
1BA
102
}
  0
BLOCK_RECORD
  5
1C3
330
1
100
AcDbSymbolTableRecord
100
AcDbBlockTableRecord
  2
_D
340
0
  0
BLOCK_RECORD
  5
1D8
330
1
100
AcDbSymbolTableRecord
100
AcDbBlockTableRecord
  2
_D_1
340
0
  0
BLOCK_RECORD
  5
1EB
330
1
100
AcDbSymbolTableRecord
100
AcDbBlockTableRecord
  2
_D_2
340
0
  0
BLOCK_RECORD
  5
200
330
1
100
AcDbSymbolTableRecord
100
AcDbBlockTableRecord
  2
_D_3
340
0
  0
BLOCK_RECORD
  5
219
330
1
100
AcDbSymbolTableRecord
100
AcDbBlockTableRecord
  2
SW_DOWELSYMBOL_0
340
0
102
{BLKREFS
331
2CE
102
}
  0
ENDTAB
  0
ENDSEC
  0
SECTION
  2
BLOCKS
  0
BLOCK
  5
20
330
1F
100
AcDbEntity
  8
0
100
AcDbBlockBegin
  2
*Model_Space
 70
     0
 10
0.0
 20
0.0
 30
0.0
  3
*Model_Space
  1
*Model_Space
  0
ENDBLK
  5
21
330
1F
100
AcDbEntity
  8
0
100
AcDbBlockEnd
  0
BLOCK
  5
1C
330
1B
100
AcDbEntity
 67
     1
  8
0
100
AcDbBlockBegin
  2
*Paper_Space
 70
     0
 10
0.0
 20
0.0
 30
0.0
  3
*Paper_Space
  1
*Paper_Space
  0
ENDBLK
  5
1D
330
1B
100
AcDbEntity
 67
     1
  8
0
100
AcDbBlockEnd
  0
BLOCK
  5
24
330
23
100
AcDbEntity
  8
0
100
AcDbBlockBegin
  2
*Paper_Space0
 70
     0
 10
0.0
 20
0.0
 30
0.0
  3
*Paper_Space0
  1
*Paper_Space0
  0
ENDBLK
  5
25
330
23
100
AcDbEntity
  8
0
100
AcDbBlockEnd
  0
BLOCK
  5
80
330
7F
100
AcDbEntity
  8
0
100
AcDbBlockBegin
  2
블럭10
 70
     2
 10
0.0
 20
0.0
 30
0.0
  3
블럭10
  1
블럭10
  0
ELLIPSE
  5
82
330
7F
100
AcDbEntity
  8
중심선
100
AcDbEllipse
 10
20.54032771741204
 20
12.0471743016438
 30
0.0
 11
6.600054785286829
 21
-1.261213355974178E-13
 31
0.0
210
0.0
220
0.0
230
1.0
 40
0.636358354079598
 41
0.9219305317359503
 42
6.513795318482858
  0
ELLIPSE
  5
83
330
7F
100
AcDbEntity
  8
중심선
100
AcDbEllipse
 10
20.54032771746488
 20
12.04717430159265
 30
0.0
 11
3.960054785062283
 21
1.540847449632565E-10
 31
0.0
210
0.0
220
0.0
230
1.0
 40
0.3939339440162632
 41
1.131841032648279
 42
5.62031148352944
  0
LINE
  5
84
330
7F
100
AcDbEntity
  8
중심선
100
AcDbLine
 10
2.268634060543552
 20
16.24717430164393
 30
0.0
 11
5.714909304380834
 21
16.24717430164393
 31
0.0
  0
LINE
  5
85
330
7F
100
AcDbEntity
  8
중심선
100
AcDbLine
 10
5.245725140726316
 20
7.84717430164391
 30
0.0
 11
8.692000384563599
 21
7.84717430164391
 31
0.0
  0
LINE
  5
86
330
7F
100
AcDbEntity
  8
중심선
100
AcDbLine
 10
15.74043728645272
 20
16.24717430164393
 30
0.0
 11
8.692000384563599
 21
7.84717430164391
 31
0.0
  0
LINE
  5
87
330
7F
100
AcDbEntity
  8
중심선
100
AcDbLine
 10
0.1404042013395286
 20
13.71084872107135
 30
0.0
 11
3.58671253028996
 21
13.71088815037384
 31
0.0
  0
LINE
  5
88
330
7F
100
AcDbEntity
  8
중심선
100
AcDbLine
 10
2.750260043222114
 20
10.84717430164391
 30
0.0
 11
6.196535287059397
 21
10.84717430164391
 31
0.0
  0
LINE
  5
89
330
7F
100
AcDbEntity
  8
중심선
100
AcDbLine
 10
12.29416204261559
 20
16.24717430164393
 30
0.0
 11
5.245725140726316
 21
7.84717430164391
 31
0.0
  0
LINE
  5
8A
330
7F
100
AcDbEntity
  8
중심선
100
AcDbLine
 10
10.72767329541681
 20
16.24717430164393
 30
0.0
 11
6.196535287059397
 21
10.84717430164391
 31
0.0
  0
LINE
  5
8B
330
7F
100
AcDbEntity
  8
중심선
100
AcDbLine
 10
7.28139805157953
 20
16.24717430164393
 30
0.0
 11
2.750260043222114
 21
10.84717430164391
 31
0.0
  0
LINE
  5
8C
330
7F
100
AcDbEntity
  8
중심선
100
AcDbLine
 10
5.714909304380834
 20
16.24717430164393
 30
0.0
 11
3.58671253028996
 21
13.71088815037384
 31
0.0
  0
LINE
  5
8D
330
7F
100
AcDbEntity
  8
중심선
100
AcDbLine
 10
2.268634060543552
 20
16.24717430164393
 30
0.0
 11
0.1404042013395286
 21
13.71084872107135
 31
0.0
  0
LINE
  5
8E
330
7F
100
AcDbEntity
  8
중심선
100
AcDbLine
 10
7.28139805157953
 20
16.24717430164393
 30
0.0
 11
10.72767329541681
 21
16.24717430164393
 31
0.0
  0
LINE
  5
8F
330
7F
100
AcDbEntity
  8
중심선
100
AcDbLine
 10
12.29416204261559
 20
16.24717430164393
 30
0.0
 11
15.74043728645272
 21
16.24717430164393
 31
0.0
  0
LINE
  5
90
330
7F
100
AcDbEntity
  8
중심선
100
AcDbLine
 10
19.22036997980202
 20
11.08717430171403
 30
0.0
 11
23.66174974927406
 21
11.08717430171406
 31
0.0
  0
LINE
  5
91
330
7F
100
AcDbEntity
  8
중심선
100
AcDbLine
 10
19.22039502424796
 20
13.00717430171391
 30
0.0
 11
19.22036997980202
 21
11.08717430171403
 31
0.0
  0
LINE
  5
92
330
7F
100
AcDbEntity
  8
중심선
100
AcDbLine
 10
19.22039502424796
 20
13.00717430171391
 30
0.0
 11
26.96566020931264
 21
13.00717430171391
 31
0.0
  0
LINE
  5
93
330
7F
100
AcDbEntity
  8
중심선
100
AcDbLine
 10
22.22332737316547
 20
13.45928029700563
 30
0.0
 11
24.52862924686651
 21
15.39360700705356
 31
0.0
  0
ATTDEF
  5
95
330
7F
100
AcDbEntity
  8
FORMAT
 62
     2
100
AcDbText
 10
2.542683156192612
 20
2.075366912832191
 30
0.0
 40
4.233333333333333
  1
GYG68024
 41
0.75
  7
SLDTEXTSTYLE0
 11
2.542683156192612
 21
-0.0412997538344756
 31
0.0
100
AcDbAttributeDefinition
  3

  2
AUTOATTR0
 70
     0
 74
     1
  0
ENDBLK
  5
81
330
7F
100
AcDbEntity
  8
0
100
AcDbBlockEnd
  0
BLOCK
  5
1C4
330
1C3
100
AcDbEntity
  8
0
100
AcDbBlockBegin
  2
_D
 70
     0
 10
0.0
 20
0.0
 30
0.0
  3
_D
  1
_D
  0
LINE
  5
1C6
330
1C3
100
AcDbEntity
  8
치수문자_일반주서
 62
     0
370
    -2
100
AcDbLine
 10
-32.56
 20
4.763574928723891
 30
0.0
 11
-47.49750000000011
 21
4.763574928723835
 31
0.0
  0
LINE
  5
1C7
330
1C3
100
AcDbEntity
  8
치수문자_일반주서
 62
     0
370
    -2
100
AcDbLine
 10
-33.56
 20
-4.761425071276108
 30
0.0
 11
-47.49750000000007
 21
-4.76142507127616
 31
0.0
  0
LINE
  5
1C8
330
1C3
100
AcDbEntity
  8
치수문자_일반주서
 62
     0
370
    -2
100
AcDbLine
 10
-47.49750000000009
 20
1.461574928723835
 30
0.0
 11
-47.49750000000009
 21
-1.459425071276161
 31
0.0
  0
SOLID
  5
1C9
330
1C3
100
AcDbEntity
  8
치수문자_일반주서
 62
     0
100
AcDbTrace
 10
-46.94716666666676
 20
1.461574928723837
 30
0.0
 11
-48.04783333333343
 21
1.461574928723833
 31
0.0
 12
-47.49750000000011
 22
4.763574928723835
 32
0.0
 13
-47.49750000000011
 23
4.763574928723835
 33
0.0
  0
SOLID
  5
1CA
330
1C3
100
AcDbEntity
  8
치수문자_일반주서
 62
     0
100
AcDbTrace
 10
-48.04783333333342
 20
-1.459425071276162
 30
0.0
 11
-46.94716666666675
 21
-1.459425071276159
 31
0.0
 12
-47.49750000000007
 22
-4.76142507127616
 32
0.0
 13
-47.49750000000007
 23
-4.76142507127616
 33
0.0
  0
MTEXT
  5
1CB
330
1C3
100
AcDbEntity
  8
치수문자_일반주서
 62
     0
100
AcDbMText
 10
-51.87250000000009
 20
0.0010749287238185
 30
0.0
 40
3.5
 41
0.0
 71
     2
 72
     1
  1
\A1;%%c9.53 [3/8]
  7
SLDTEXTSTYLE0
 11
-3.729883127349610E-15
 21
1.0
 31
0.0
 73
     1
 44
1.0
  0
POINT
  5
1CC
330
1C3
100
AcDbEntity
  8
Defpoints
 62
     0
100
AcDbPoint
 10
-32.4975
 20
4.763574928723891
 30
0.0
  0
POINT
  5
1CD
330
1C3
100
AcDbEntity
  8
Defpoints
 62
     0
100
AcDbPoint
 10
-33.4975
 20
-4.761425071276108
 30
0.0
  0
POINT
  5
1CE
330
1C3
100
AcDbEntity
  8
Defpoints
 62
     0
100
AcDbPoint
 10
-47.49750000000007
 20
-4.76142507127616
 30
0.0
  0
ENDBLK
  5
1C5
330
1C3
100
AcDbEntity
  8
0
100
AcDbBlockEnd
  0
BLOCK
  5
1D9
330
1D8
100
AcDbEntity
  8
0
100
AcDbBlockBegin
  2
_D_1
 70
     0
 10
0.0
 20
0.0
 30
0.0
  3
_D_1
  1
_D_1
  0
LINE
  5
1DB
330
1D8
100
AcDbEntity
  8
치수문자_일반주서
 62
     0
370
    -2
100
AcDbLine
 10
29.1125
 20
4.763574928723898
 30
0.0
 11
48.79780527335529
 21
4.763574928723973
 31
0.0
  0
LINE
  5
1DC
330
1D8
100
AcDbEntity
  8
치수문자_일반주서
 62
     0
370
    -2
100
AcDbLine
 10
29.1125
 20
-4.761425071276101
 30
0.0
 11
48.79780527335532
 21
-4.761425071276026
 31
0.0
  0
LINE
  5
1DD
330
1D8
100
AcDbEntity
  8
치수문자_일반주서
 62
     0
370
    -2
100
AcDbLine
 10
48.79780527335529
 20
4.763574928723973
 30
0.0
 11
48.79780527335515
 21
40.06001761835116
 31
0.0
  0
LINE
  5
1DE
330
1D8
100
AcDbEntity
  8
치수문자_일반주서
 62
     0
370
    -2
100
AcDbLine
 10
48.7978052733553
 20
1.461574928723973
 30
0.0
 11
48.79780527335531
 21
-1.459425071276026
 31
0.0
  0
SOLID
  5
1DF
330
1D8
100
AcDbEntity
  8
치수문자_일반주서
 62
     0
100
AcDbTrace
 10
49.34813860668864
 20
1.461574928723975
 30
0.0
 11
48.24747194002197
 21
1.461574928723971
 31
0.0
 12
48.79780527335529
 22
4.763574928723973
 32
0.0
 13
48.79780527335529
 23
4.763574928723973
 33
0.0
  0
SOLID
  5
1E0
330
1D8
100
AcDbEntity
  8
치수문자_일반주서
 62
     0
100
AcDbTrace
 10
48.24747194002197
 20
-1.459425071276028
 30
0.0
 11
49.34813860668864
 21
-1.459425071276024
 31
0.0
 12
48.79780527335532
 22
-4.761425071276026
 32
0.0
 13
48.79780527335532
 23
-4.761425071276026
 33
0.0
  0
MTEXT
  5
1E1
330
1D8
100
AcDbEntity
  8
치수문자_일반주서
 62
     0
100
AcDbMText
 10
44.4228052733552
 20
26.93501761835114
 30
0.0
 40
3.5
 41
0.0
 71
     2
 72
     1
  1
\A1;%%c9.53 [3/8]
  7
SLDTEXTSTYLE0
 11
-3.729883127349608E-15
 21
1.0
 31
0.0
 73
     1
 44
1.0
  0
POINT
  5
1E2
330
1D8
100
AcDbEntity
  8
Defpoints
 62
     0
100
AcDbPoint
 10
29.05
 20
4.763574928723898
 30
0.0
  0
POINT
  5
1E3
330
1D8
100
AcDbEntity
  8
Defpoints
 62
     0
100
AcDbPoint
 10
29.05
 20
-4.761425071276101
 30
0.0
  0
POINT
  5
1E4
330
1D8
100
AcDbEntity
  8
Defpoints
 62
     0
100
AcDbPoint
 10
48.79780527335532
 20
-4.761425071276027
 30
0.0
  0
ENDBLK
  5
1DA
330
1D8
100
AcDbEntity
  8
0
100
AcDbBlockEnd
  0
BLOCK
  5
1EC
330
1EB
100
AcDbEntity
  8
0
100
AcDbBlockBegin
  2
_D_2
 70
     0
 10
0.0
 20
0.0
 30
0.0
  3
_D_2
  1
_D_2
  0
LINE
  5
1EE
330
1EB
100
AcDbEntity
  8
치수문자_일반주서
 62
     0
370
    -2
100
AcDbLine
 10
29.05
 20
4.619856607283178
 30
0.0
 11
29.05
 21
14.0304419649438
 31
0.0
  0
LINE
  5
1EF
330
1EB
100
AcDbEntity
  8
치수문자_일반주서
 62
     0
370
    -2
100
AcDbLine
 10
9.999999999999996
 20
4.207505119352366
 30
0.0
 11
9.999999999999996
 21
14.0304419649438
 31
0.0
  0
LINE
  5
1F0
330
1EB
100
AcDbEntity
  8
치수문자_일반주서
 62
     0
370
    -2
100
AcDbLine
 10
25.748
 20
14.0304419649438
 30
0.0
 11
13.302
 21
14.0304419649438
 31
0.0
  0
SOLID
  5
1F1
330
1EB
100
AcDbEntity
  8
치수문자_일반주서
 62
     0
100
AcDbTrace
 10
25.748
 20
13.48010863161046
 30
0.0
 11
25.748
 21
14.58077529827713
 31
0.0
 12
29.05
 22
14.0304419649438
 32
0.0
 13
29.05
 23
14.0304419649438
 33
0.0
  0
SOLID
  5
1F2
330
1EB
100
AcDbEntity
  8
치수문자_일반주서
 62
     0
100
AcDbTrace
 10
13.302
 20
14.58077529827713
 30
0.0
 11
13.302
 21
13.48010863161046
 31
0.0
 12
9.999999999999996
 22
14.0304419649438
 32
0.0
 13
9.999999999999996
 23
14.0304419649438
 33
0.0
  0
MTEXT
  5
1F3
330
1EB
100
AcDbEntity
  8
치수문자_일반주서
 62
     0
100
AcDbMText
 10
19.525
 20
18.4054419649438
 30
0.0
 40
3.5
 41
0.0
 71
     2
 72
     1
  1
\A1;19.05 [3/4]
  7
SLDTEXTSTYLE0
 73
     1
 44
1.0
  0
POINT
  5
1F4
330
1EB
100
AcDbEntity
  8
Defpoints
 62
     0
100
AcDbPoint
 10
29.05
 20
4.557356607283178
 30
0.0
  0
POINT
  5
1F5
330
1EB
100
AcDbEntity
  8
Defpoints
 62
     0
100
AcDbPoint
 10
9.999999999999996
 20
4.145005119352366
 30
0.0
  0
POINT
  5
1F6
330
1EB
100
AcDbEntity
  8
Defpoints
 62
     0
100
AcDbPoint
 10
9.999999999999996
 20
14.0304419649438
 30
0.0
  0
ENDBLK
  5
1ED
330
1EB
100
AcDbEntity
  8
0
100
AcDbBlockEnd
  0
BLOCK
  5
201
330
200
100
AcDbEntity
  8
0
100
AcDbBlockBegin
  2
_D_3
 70
     0
 10
0.0
 20
0.0
 30
0.0
  3
_D_3
  1
_D_3
  0
LINE
  5
203
330
200
100
AcDbEntity
  8
치수문자_일반주서
 62
     0
370
    -2
100
AcDbLine
 10
29.05
 20
4.826074928723898
 30
0.0
 11
29.04999999999999
 21
31.12448611372341
 31
0.0
  0
LINE
  5
204
330
200
100
AcDbEntity
  8
치수문자_일반주서
 62
     0
370
    -2
100
AcDbLine
 10
-34.45
 20
3.873574928723897
 30
0.0
 11
-34.45
 21
31.12448611372341
 31
0.0
  0
LINE
  5
205
330
200
100
AcDbEntity
  8
치수문자_일반주서
 62
     0
370
    -2
100
AcDbLine
 10
25.74799999999999
 20
31.12448611372341
 30
0.0
 11
-31.148
 21
31.12448611372341
 31
0.0
  0
SOLID
  5
206
330
200
100
AcDbEntity
  8
치수문자_일반주서
 62
     0
100
AcDbTrace
 10
25.74799999999999
 20
30.57415278039008
 30
0.0
 11
25.74799999999999
 21
31.67481944705675
 31
0.0
 12
29.04999999999999
 22
31.12448611372341
 32
0.0
 13
29.04999999999999
 23
31.12448611372341
 33
0.0
  0
SOLID
  5
207
330
200
100
AcDbEntity
  8
치수문자_일반주서
 62
     0
100
AcDbTrace
 10
-31.148
 20
31.67481944705675
 30
0.0
 11
-31.148
 21
30.57415278039008
 31
0.0
 12
-34.45
 22
31.12448611372341
 32
0.0
 13
-34.45
 23
31.12448611372341
 33
0.0
  0
MTEXT
  5
208
330
200
100
AcDbEntity
  8
치수문자_일반주서
 62
     0
100
AcDbMText
 10
-3.820603582335909
 20
35.49948611372341
 30
0.0
 40
3.5
 41
0.0
 71
     2
 72
     1
  1
\A1;63.5 [2 1/2]
  7
SLDTEXTSTYLE0
 73
     1
 44
1.0
  0
POINT
  5
209
330
200
100
AcDbEntity
  8
Defpoints
 62
     0
100
AcDbPoint
 10
29.05
 20
4.763574928723898
 30
0.0
  0
POINT
  5
20A
330
200
100
AcDbEntity
  8
Defpoints
 62
     0
100
AcDbPoint
 10
-34.45
 20
3.811074928723897
 30
0.0
  0
POINT
  5
20B
330
200
100
AcDbEntity
  8
Defpoints
 62
     0
100
AcDbPoint
 10
-34.45
 20
31.12448611372341
 30
0.0
  0
ENDBLK
  5
202
330
200
100
AcDbEntity
  8
0
100
AcDbBlockEnd
  0
BLOCK
  5
21A
330
219
100
AcDbEntity
  8
0
100
AcDbBlockBegin
  2
SW_DOWELSYMBOL_0
 70
     0
 10
0.0
 20
0.0
 30
0.0
  3
SW_DOWELSYMBOL_0
  1
SW_DOWELSYMBOL_0
  0
CIRCLE
  5
21C
330
219
100
AcDbEntity
  8
해칭선
 62
     0
100
AcDbCircle
 10
0.0
 20
0.0
 30
0.0
 40
3.000000000000002
  0
HATCH
  5
21D
330
219
100
AcDbEntity
  8
0
  6
Continuous
 62
     0
370
     0
100
AcDbHatch
 10
0.0
 20
0.0
 30
0.0
210
0.0
220
0.0
230
1.0
  2
SOLID
 70
     1
 71
     0
 91
        1
 92
        0
 93
        3
 72
     2
 10
0.0000000000000104
 20
0.0
 40
3.000000000000002
 50
0.0
 51
90.0
 73
     1
 72
     1
 10
0.0000000000000104
 20
3.000000000000002
 11
0.0000000000000104
 21
0.0
 72
     1
 10
0.0000000000000104
 20
0.0
 11
3.000000000000012
 21
0.0
 97
        0
 75
     0
 76
     1
 98
        1
 10
0.0
 20
0.0
  0
HATCH
  5
21E
330
219
100
AcDbEntity
  8
0
  6
Continuous
 62
     0
370
     0
100
AcDbHatch
 10
0.0
 20
0.0
 30
0.0
210
0.0
220
0.0
230
1.0
  2
SOLID
 70
     1
 71
     0
 91
        1
 92
        0
 93
        3
 72
     2
 10
0.0000000000000104
 20
0.0
 40
3.000000000000002
 50
180.0
 51
270.0000000000007
 73
     1
 72
     1
 10
0.0000000000000104
 20
-3.000000000000002
 11
0.0000000000000104
 21
0.0
 72
     1
 10
0.0000000000000104
 20
0.0
 11
-2.999999999999992
 21
0.0
 97
        0
 75
     0
 76
     1
 98
        1
 10
0.0
 20
0.0
  0
ENDBLK
  5
21B
330
219
100
AcDbEntity
  8
0
100
AcDbBlockEnd
  0
ENDSEC
  0
SECTION
  2
ENTITIES
  0
SPLINE
  5
96
330
1F
100
AcDbEntity
  8
외형선
  6
Continuous
 62
     1
370
    15
100
AcDbSpline
210
0.0
220
0.0
230
1.0
 70
     8
 71
     3
 72
     9
 73
     5
 74
     0
 42
0.000000001
 43
0.00000001
 40
0.0
 40
0.0
 40
0.0
 40
0.0
 40
0.2937781325182808
 40
1.0
 40
1.0
 40
1.0
 40
1.0
 10
18.39090361746235
 20
4.675977335249132
 30
0.0
 10
18.37266596754973
 20
4.668671043170839
 30
0.0
 10
18.31058629621309
 20
4.643800941316547
 30
0.0
 10
18.25365781546371
 20
4.603997009976597
 30
0.0
 10
18.21345367747599
 20
4.575886603252584
 30
0.0
  0
SPLINE
  5
98
330
1F
100
AcDbEntity
  8
외형선
  6
Continuous
 62
     1
370
    15
100
AcDbSpline
210
0.0
220
0.0
230
1.0
 70
     8
 71
     3
 72
     9
 73
     5
 74
     0
 42
0.000000001
 43
0.00000001
 40
0.0
 40
0.0
 40
0.0
 40
0.0
 40
0.5005205416180899
 40
1.0
 40
1.0
 40
1.0
 40
1.0
 10
13.82404626475568
 20
-4.752376841903724
 30
0.0
 10
13.90195931380957
 20
-4.737529294059796
 30
0.0
 10
14.05762335269598
 20
-4.707865081286571
 30
0.0
 10
14.195336355425
 20
-4.627514480410184
 30
0.0
 10
14.26412117144024
 20
-4.587381005803785
 30
0.0
  0
SPLINE
  5
9C
330
1F
100
AcDbEntity
  8
외형선
  6
Continuous
 62
     1
370
    15
100
AcDbSpline
210
0.0
220
0.0
230
1.0
 70
     8
 71
     3
 72
     9
 73
     5
 74
     0
 42
0.000000001
 43
0.00000001
 40
0.0
 40
0.0
 40
0.0
 40
0.0
 40
0.891303201473285
 40
1.0
 40
1.0
 40
1.0
 40
1.0
 10
18.2351492927342
 20
4.596881736672164
 30
0.0
 10
18.2186227705354
 20
4.586011883603445
 30
0.0
 10
18.20008079495236
 20
4.573816423011862
 30
0.0
 10
18.17323240088125
 20
4.570964550091053
 30
0.0
 10
18.17031406640014
 20
4.570654560634755
 30
0.0
  0
LINE
  5
9D
330
1F
100
AcDbEntity
  8
외형선
  6
Continuous
 62
     1
370
    15
100
AcDbLine
 10
17.73110843305783
 20
4.724487529125559
 30
0.0
 11
17.55331457558634
 21
4.763331161200456
 31
0.0
  0
SPLINE
  5
9E
330
1F
100
AcDbEntity
  8
외형선
  6
Continuous
 62
     1
370
    15
100
AcDbSpline
210
0.0
220
0.0
230
1.0
 70
     8
 71
     3
 72
     9
 73
     5
 74
     0
 42
0.000000001
 43
0.00000001
 40
0.0
 40
0.0
 40
0.0
 40
0.0
 40
0.5502913900072164
 40
1.0
 40
1.0
 40
1.0
 40
1.0
 10
14.25739515691045
 20
-4.59311230964773
 30
0.0
 10
14.28615348104883
 20
-4.579089991575691
 30
0.0
 10
14.3384136556774
 20
-4.553608367972865
 30
0.0
 10
14.39942995876535
 20
-4.566574481827905
 30
0.0
 10
14.42686951561393
 20
-4.572405454866663
 30
0.0
  0
SPLINE
  5
9F
330
1F
100
AcDbEntity
  8
외형선
  6
Continuous
 62
     1
370
    15
100
AcDbSpline
210
0.0
220
0.0
230
1.0
 70
     8
 71
     3
 72
    16
 73
    12
 74
     0
 42
0.000000001
 43
0.00000001
 40
0.0
 40
0.0
 40
0.0
 40
0.0
 40
0.1371694250650409
 40
0.2805233279157123
 40
0.3533651914915701
 40
0.4103524227008938
 40
0.4718123688020875
 40
0.5791105098348761
 40
0.7039800124184604
 40
0.8450180825206705
 40
1.0
 40
1.0
 40
1.0
 40
1.0
 10
14.53510677044643
 20
-4.620247459360513
 30
0.0
 10
14.58259884953641
 20
-4.646584419992339
 30
0.0
 10
14.67972425535945
 20
-4.700445780423947
 30
0.0
 10
14.81523637886938
 20
-4.737082661700945
 30
0.0
 10
14.92114067309819
 20
-4.754432263726784
 30
0.0
 10
14.99599885985912
 20
-4.760767150690867
 30
0.0
 10
15.08282267018474
 20
-4.762367313861447
 30
0.0
 10
15.193476760456
 20
-4.754090135784629
 30
0.0
 10
15.32889818165086
 20
-4.726269335676491
 30
0.0
 10
15.47461159764099
 20
-4.675756539831128
 30
0.0
 10
15.56672623720505
 20
-4.62196964220108
 30
0.0
 10
15.61495305994155
 20
-4.593809393300073
 30
0.0
  0
SPLINE
  5
A0
330
1F
100
AcDbEntity
  8
외형선
  6
Continuous
 62
     1
370
    15
100
AcDbSpline
210
0.0
220
0.0
230
1.0
 70
     8
 71
     3
 72
     9
 73
     5
 74
     0
 42
0.000000001
 43
0.00000001
 40
0.0
 40
0.0
 40
0.0
 40
0.0
 40
0.501052787723126
 40
1.0
 40
1.0
 40
1.0
 40
1.0
 10
17.54383257751434
 20
4.763137109088989
 30
0.0
 10
17.46501638208433
 20
4.748867641458206
 30
0.0
 10
17.30771520072943
 20
4.720388670817958
 30
0.0
 10
17.16792247588487
 20
4.639959070315133
 30
0.0
 10
17.0981732855271
 20
4.599828945359706
 30
0.0
  0
SPLINE
  5
A1
330
1F
100
AcDbEntity
  8
외형선
  6
Continuous
 62
     1
370
    15
100
AcDbSpline
210
0.0
220
0.0
230
1.0
 70
     8
 71
     3
 72
    11
 73
     7
 74
     0
 42
0.000000001
 43
0.00000001
 40
0.0
 40
0.0
 40
0.0
 40
0.0
 40
0.2485827560591329
 40
0.4974184862950651
 40
0.7482150803211908
 40
1.0
 40
1.0
 40
1.0
 40
1.0
 10
17.09375369799794
 20
4.597017529060777
 30
0.0
 10
17.08129321217216
 20
4.589820441959205
 30
0.0
 10
17.05635955990995
 20
4.575418943526443
 30
0.0
 10
16.99694544105383
 20
4.561281073056856
 30
0.0
 10
16.92496122451407
 20
4.564580620926161
 30
0.0
 10
16.87968410624211
 20
4.588461192286976
 30
0.0
 10
16.85700102841986
 20
4.600424958517935
 30
0.0
  0
SPLINE
  5
A3
330
1F
100
AcDbEntity
  8
외형선
  6
Continuous
 62
     1
370
    15
100
AcDbSpline
210
0.0
220
0.0
230
1.0
 70
     8
 71
     3
 72
    16
 73
    12
 74
     0
 42
0.000000001
 43
0.00000001
 40
0.0
 40
0.0
 40
0.0
 40
0.0
 40
0.1781335063950909
 40
0.3234428329790288
 40
0.3727570520446326
 40
0.4477269610120182
 40
0.549376839018827
 40
0.6427811831996479
 40
0.750055933114076
 40
0.869817170924587
 40
1.0
 40
1.0
 40
1.0
 40
1.0
 10
16.86642704102637
 20
4.594935807534025
 30
0.0
 10
16.80976180942783
 20
4.627720802438991
 30
0.0
 10
16.70687289531757
 20
4.687249589840425
 30
0.0
 10
16.56806684679124
 20
4.730401563319403
 30
0.0
 10
16.46109828089367
 20
4.751752709498917
 30
0.0
 10
16.36992118953784
 20
4.762988217587381
 30
0.0
 10
16.25972135232243
 20
4.765048067392837
 30
0.0
 10
16.1367042632836
 20
4.753163668989258
 30
0.0
 10
16.00860722596187
 20
4.724868382390723
 30
0.0
 10
15.87011033940642
 20
4.675685560870868
 30
0.0
 10
15.78134333321081
 20
4.623852864686314
 30
0.0
 10
15.73510922916075
 20
4.596855916481132
 30
0.0
  0
SPLINE
  5
A5
330
1F
100
AcDbEntity
  8
외형선
  6
Continuous
 62
     1
370
    15
100
AcDbSpline
210
0.0
220
0.0
230
1.0
 70
     8
 71
     3
 72
    11
 73
     7
 74
     0
 42
0.000000001
 43
0.00000001
 40
0.0
 40
0.0
 40
0.0
 40
0.0
 40
0.2807202682241119
 40
0.5412785323914718
 40
0.7809769695225385
 40
1.0
 40
1.0
 40
1.0
 40
1.0
 10
15.61390378739243
 20
-4.594500709900898
 30
0.0
 10
15.63484870898145
 20
-4.583772409002711
 30
0.0
 10
15.67523423757361
 20
-4.563086339550154
 30
0.0
 10
15.7448698241055
 20
-4.559081920952156
 30
0.0
 10
15.80309001310194
 20
-4.571975844540955
 30
0.0
 10
15.83008306401164
 20
-4.587092270709231
 30
0.0
 10
15.84297127664075
 20
-4.594309821452224
 30
0.0
  0
SPLINE
  5
A6
330
1F
100
AcDbEntity
  8
외형선
  6
Continuous
 62
     1
370
    15
100
AcDbSpline
210
0.0
220
0.0
230
1.0
 70
     8
 71
     3
 72
     9
 73
     5
 74
     0
 42
0.000000001
 43
0.00000001
 40
0.0
 40
0.0
 40
0.0
 40
0.0
 40
0.498455733395163
 40
1.0
 40
1.0
 40
1.0
 40
1.0
 10
15.84553548589727
 20
-4.596070460824365
 30
0.0
 10
15.91616189057626
 20
-4.636827718577909
 30
0.0
 10
16.05785231551715
 20
-4.71859477435221
 30
0.0
 10
16.21662522902592
 20
-4.747029776820114
 30
0.0
 10
16.29625687348839
 20
-4.761291189278785
 30
0.0
  0
SPLINE
  5
A8
330
1F
100
AcDbEntity
  8
외형선
  6
Continuous
 62
     1
370
    15
100
AcDbSpline
210
0.0
220
0.0
230
1.0
 70
     8
 71
     3
 72
     9
 73
     5
 74
     0
 42
0.000000001
 43
0.00000001
 40
0.0
 40
0.0
 40
0.0
 40
0.0
 40
0.5013371276583758
 40
1.0
 40
1.0
 40
1.0
 40
1.0
 10
16.30408811416326
 20
-4.761079539816027
 30
0.0
 10
16.38378089163996
 20
-4.746626130323963
 30
0.0
 10
16.54274134575378
 20
-4.717796409374363
 30
0.0
 10
16.6845318111233
 20
-4.635646837175795
 30
0.0
 10
16.75523745185512
 20
-4.594681895541623
 30
0.0
  0
SPLINE
  5
A9
330
1F
100
AcDbEntity
  8
외형선
  6
Continuous
 62
     1
370
    15
100
AcDbSpline
210
0.0
220
0.0
230
1.0
 70
     8
 71
     3
 72
    11
 73
     7
 74
     0
 42
0.000000001
 43
0.00000001
 40
0.0
 40
0.0
 40
0.0
 40
0.0
 40
0.2303606027133803
 40
0.4740859995309795
 40
0.7308498119331092
 40
1.0
 40
1.0
 40
1.0
 40
1.0
 10
15.73397976896447
 20
4.596108502306975
 30
0.0
 10
15.71876808772155
 20
4.587895529456202
 30
0.0
 10
15.6874621915672
 20
4.570993093027331
 30
0.0
 10
15.62593836606925
 20
4.560693221355137
 30
0.0
 10
15.55909540315408
 20
4.567990581317027
 30
0.0
 10
15.522567962469
 20
4.587679627187281
 30
0.0
 10
15.50387409327893
 20
4.597756009246154
 30
0.0
  0
SPLINE
  5
AB
330
1F
100
AcDbEntity
  8
외형선
  6
Continuous
 62
     1
370
    15
100
AcDbSpline
210
0.0
220
0.0
230
1.0
 70
     8
 71
     3
 72
     9
 73
     5
 74
     0
 42
0.000000001
 43
0.00000001
 40
0.0
 40
0.0
 40
0.0
 40
0.0
 40
0.5026560692671491
 40
1.0
 40
1.0
 40
1.0
 40
1.0
 10
15.5058401883812
 20
4.59640647530712
 30
0.0
 10
15.43439470511938
 20
4.637927450302676
 30
0.0
 10
15.29225878429785
 20
4.720530600914371
 30
0.0
 10
15.13068768543627
 20
4.749266327721557
 30
0.0
 10
15.05033128003562
 20
4.763557867044307
 30
0.0
  0
SPLINE
  5
AC
330
1F
100
AcDbEntity
  8
외형선
  6
Continuous
 62
     1
370
    15
100
AcDbSpline
210
0.0
220
0.0
230
1.0
 70
     8
 71
     3
 72
    11
 73
     7
 74
     0
 42
0.000000001
 43
0.00000001
 40
0.0
 40
0.0
 40
0.0
 40
0.0
 40
0.2563137117165356
 40
0.5086498118321612
 40
0.7561054600758605
 40
1.0
 40
1.0
 40
1.0
 40
1.0
 10
16.74909279323828
 20
-4.598433738770129
 30
0.0
 10
16.77124556384174
 20
-4.586557161730934
 30
0.0
 10
16.81520732665011
 20
-4.562988314649989
 30
0.0
 10
16.88648850095274
 20
-4.558999719846316
 30
0.0
 10
16.94556434023387
 20
-4.572386319007591
 30
0.0
 10
16.9707877946451
 20
-4.586493727177573
 30
0.0
 10
16.98330811713009
 20
-4.593496308855561
 30
0.0
  0
SPLINE
  5
AF
330
1F
100
AcDbEntity
  8
외형선
  6
Continuous
 62
     1
370
    15
100
AcDbSpline
210
0.0
220
0.0
230
1.0
 70
     8
 71
     3
 72
    13
 73
     9
 74
     0
 42
0.000000001
 43
0.00000001
 40
0.0
 40
0.0
 40
0.0
 40
0.0
 40
0.264009282767635
 40
0.4968583020327009
 40
0.6927806898073063
 40
0.8486498604809316
 40
0.9887157857945441
 40
0.9999999999999999
 40
0.9999999999999999
 40
0.9999999999999999
 40
0.9999999999999999
 10
16.98804948623631
 20
-4.596475373433051
 30
0.0
 10
17.04352418066684
 20
-4.62810587326273
 30
0.0
 10
17.14792604938747
 20
-4.687633615140096
 30
0.0
 10
17.30911289104624
 20
-4.736753805747433
 30
0.0
 10
17.44943230347177
 20
-4.759530842227472
 30
0.0
 10
17.56930408844686
 20
-4.761915506262627
 30
0.0
 10
17.64515504526781
 20
-4.759183147792228
 30
0.0
 10
17.68168244971334
 20
-4.752097877538807
 30
0.0
 10
17.68440582385387
 20
-4.751569620957762
 30
0.0
  0
LINE
  5
B0
330
1F
100
AcDbEntity
  8
외형선
  6
Continuous
 62
     1
370
    15
100
AcDbLine
 10
17.84769078272653
 20
-4.713883573453051
 30
0.0
 11
17.89188359625055
 21
-4.699041400019378
 31
0.0
  0
SPLINE
  5
B2
330
1F
100
AcDbEntity
  8
외형선
  6
Continuous
 62
     1
370
    15
100
AcDbSpline
210
0.0
220
0.0
230
1.0
 70
     8
 71
     3
 72
     9
 73
     5
 74
     0
 42
0.000000001
 43
0.00000001
 40
0.0
 40
0.0
 40
0.0
 40
0.0
 40
0.9215434155438165
 40
1.0
 40
1.0
 40
1.0
 40
1.0
 10
15.05104718073003
 20
4.763527496760876
 30
0.0
 10
14.9717939586352
 20
4.753362753088761
 30
0.0
 10
14.88579342870026
 20
4.742332623090909
 30
0.0
 10
14.80951886021063
 20
4.703589629140779
 30
0.0
 10
14.80353461808607
 20
4.700549986163846
 30
0.0
  0
SPLINE
  5
B4
330
1F
100
AcDbEntity
  8
외형선
  6
Continuous
 62
     1
370
    15
100
AcDbSpline
210
0.0
220
0.0
230
1.0
 70
     8
 71
     3
 72
     9
 73
     5
 74
     0
 42
0.000000001
 43
0.00000001
 40
0.0
 40
0.0
 40
0.0
 40
0.0
 40
0.4619048185704265
 40
1.0
 40
1.0
 40
1.0
 40
1.0
 10
14.5478535905171
 20
4.577785401664755
 30
0.0
 10
14.51808402586477
 20
4.570202549075951
 30
0.0
 10
14.45363446081269
 20
4.553786066103823
 30
0.0
 10
14.39635781088799
 20
4.580946075175598
 30
0.0
 10
14.36553752155507
 20
4.595560745184703
 30
0.0
  0
SPLINE
  5
B6
330
1F
100
AcDbEntity
  8
외형선
  6
Continuous
 62
     1
370
    15
100
AcDbSpline
210
0.0
220
0.0
230
1.0
 70
     8
 71
     3
 72
     9
 73
     5
 74
     0
 42
0.000000001
 43
0.00000001
 40
0.0
 40
0.0
 40
0.0
 40
0.0
 40
0.6976826654961814
 40
1.0
 40
1.0
 40
1.0
 40
1.0
 10
14.37561512901115
 20
4.587181370949503
 30
0.0
 10
14.33197245297417
 20
4.613994613742926
 30
0.0
 10
14.26941869007404
 20
4.652426474127982
 30
0.0
 10
14.20247087665416
 20
4.676549149461995
 30
0.0
 10
14.18223139215021
 20
4.683841852370075
 30
0.0
  0
LINE
  5
B7
330
1F
100
AcDbEntity
  8
외형선
  6
Continuous
 62
     1
370
    15
100
AcDbLine
 10
13.9296475568112
 20
4.749620153142334
 30
0.0
 11
13.87454279217194
 21
4.756760077564854
 31
0.0
  0
LINE
  5
BA
330
1F
100
AcDbEntity
  8
외형선
  6
Continuous
 62
     1
370
    15
100
AcDbLine
 10
18.34519820173102
 20
-4.595849977670424
 30
0.0
 11
18.39115548257631
 21
-4.624077213961256
 31
0.0
  0
SPLINE
  5
BB
330
1F
100
AcDbEntity
  8
외형선
  6
Continuous
 62
     1
370
    15
100
AcDbSpline
210
0.0
220
0.0
230
1.0
 70
     8
 71
     3
 72
    12
 73
     8
 74
     0
 42
0.000000001
 43
0.00000001
 40
0.0
 40
0.0
 40
0.0
 40
0.0
 40
0.4999999999999992
 40
0.4999999999999992
 40
0.7499999999999996
 40
0.7499999999999996
 40
1.0
 40
1.0
 40
1.0
 40
1.0
 10
16.29763213944396
 20
0.9348272580730851
 30
0.0
 10
16.13290309635065
 20
1.025717104675786
 30
0.0
 10
15.9508388936872
 20
1.136395157237092
 30
0.0
 10
15.67902418167666
 20
1.287722607250397
 30
0.0
 10
15.59125152005806
 20
1.334594946148992
 30
0.0
 10
15.42057113561282
 20
1.420414138755045
 30
0.0
 10
15.33863737093744
 20
1.458793917742791
 30
0.0
 10
15.26354525938987
 20
1.49146732370744
 30
0.0
  0
SPLINE
  5
BC
330
1F
100
AcDbEntity
  8
외형선
  6
Continuous
 62
     1
370
    15
100
AcDbSpline
210
0.0
220
0.0
230
1.0
 70
     8
 71
     3
 72
    10
 73
     6
 74
     0
 42
0.000000001
 43
0.00000001
 40
0.0
 40
0.0
 40
0.0
 40
0.0
 40
0.5
 40
0.5
 40
1.0
 40
1.0
 40
1.0
 40
1.0
 10
15.09059448579745
 20
-0.4938744326169588
 30
0.0
 10
15.25523812793719
 20
-0.5749252678918534
 30
0.0
 10
15.43750922523257
 20
-0.6817773688006202
 30
0.0
 10
15.79970354078013
 20
-0.8878151064590852
 30
0.0
 10
15.97402220817872
 20
-0.9837231121427007
 30
0.0
 10
16.12387966102292
 20
-1.06171266664475
 30
0.0
  0
SPLINE
  5
BD
330
1F
100
AcDbEntity
  8
외형선
  6
Continuous
 62
     1
370
    15
100
AcDbSpline
210
0.0
220
0.0
230
1.0
 70
    24
 71
     3
 72
     8
 73
     4
 74
     0
 42
0.000000001
 43
0.00000001
 40
0.0
 40
0.0
 40
0.0
 40
0.0
 40
1.0
 40
1.0
 40
1.0
 40
1.0
 10
28.66300531943374
 20
-0.6240447518451014
 30
0.0
 10
28.61885224390957
 20
-0.668197827369272
 30
0.0
 10
28.5742126921393
 20
-0.7128373791298137
 30
0.0
 10
28.52914705998361
 20
-0.7579030112855
 30
0.0
  0
SPLINE
  5
BE
330
1F
100
AcDbEntity
  8
외형선
  6
Continuous
 62
     1
370
    15
100
AcDbSpline
210
0.0
220
0.0
230
1.0
 70
     8
 71
     3
 72
    10
 73
     6
 74
     0
 42
0.000000001
 43
0.00000001
 40
0.0
 40
0.0
 40
0.0
 40
0.0
 40
0.5
 40
0.5
 40
1.0
 40
1.0
 40
1.0
 40
1.0
 10
27.61185449862504
 20
-0.2517057606540798
 30
0.0
 10
27.75597451849412
 20
-0.317995810563775
 30
0.0
 10
27.913678628702
 20
-0.4068276845857222
 30
0.0
 10
28.23069281641423
 20
-0.5875908834599743
 30
0.0
 10
28.38762896397343
 20
-0.6781276870012697
 30
0.0
 10
28.52914705998696
 20
-0.7579030112891642
 30
0.0
  0
SPLINE
  5
BF
330
1F
100
AcDbEntity
  8
외형선
  6
Continuous
 62
     1
370
    15
100
AcDbSpline
210
0.0
220
0.0
230
1.0
 70
     8
 71
     3
 72
    12
 73
     8
 74
     0
 42
0.000000001
 43
0.00000001
 40
0.0
 40
0.0
 40
0.0
 40
0.0
 40
0.5000000000000038
 40
0.5000000000000038
 40
0.7500000000000019
 40
0.7500000000000019
 40
1.0
 40
1.0
 40
1.0
 40
1.0
 10
28.81855923096009
 20
1.172526931180412
 30
0.0
 10
28.6539656176859
 20
1.268150995820949
 30
0.0
 10
28.47177249704595
 20
1.379567950118904
 30
0.0
 10
28.19998982845042
 20
1.528003026950526
 30
0.0
 10
28.11224954943007
 20
1.573233049883169
 30
0.0
 10
27.94166723842983
 20
1.65446854450598
 30
0.0
 10
27.85980541583876
 20
1.689910478809857
 30
0.0
 10
27.78478589723092
 20
1.719084460200465
 30
0.0
  0
SPLINE
  5
C0
330
1F
100
AcDbEntity
  8
외형선
  6
Continuous
 62
     1
370
    15
100
AcDbSpline
210
0.0
220
0.0
230
1.0
 70
     8
 71
     3
 72
    12
 73
     8
 74
     0
 42
0.000000001
 43
0.00000001
 40
0.0
 40
0.0
 40
0.0
 40
0.0
 40
0.4999999999999982
 40
0.4999999999999982
 40
0.7499999999999991
 40
0.7499999999999991
 40
1.0
 40
1.0
 40
1.0
 40
1.0
 10
18.68370295193396
 20
-0.3894857888255931
 30
0.0
 10
18.51894563440481
 20
-0.3294035456269718
 30
0.0
 10
18.33657537850129
 20
-0.231617125280266
 30
0.0
 10
18.06490222543277
 20
-0.0740970169312024
 30
0.0
 10
17.97725851278366
 20
-0.0209943197782346
 30
0.0
 10
17.80681506496664
 20
0.0850463453122317
 30
0.0
 10
17.72496512229725
 20
0.1373807477777408
 30
0.0
 10
17.64991063683731
 20
0.1874562363378703
 30
0.0
  0
SPLINE
  5
C1
330
1F
100
AcDbEntity
  8
외형선
  6
Continuous
 62
     1
370
    15
100
AcDbSpline
210
0.0
220
0.0
230
1.0
 70
     8
 71
     3
 72
    12
 73
     8
 74
     0
 42
0.000000001
 43
0.00000001
 40
0.0
 40
0.0
 40
0.0
 40
0.0
 40
0.5
 40
0.5
 40
0.75
 40
0.75
 40
1.0
 40
1.0
 40
1.0
 40
1.0
 10
17.47449328168204
 20
-1.777070674494173
 30
0.0
 10
17.63943614217335
 20
-1.884121534099375
 30
0.0
 10
17.82186090563219
 20
-1.997896955511514
 30
0.0
 10
18.09372548750087
 20
-2.138535767519953
 30
0.0
 10
18.18153195772013
 20
-2.179290199234186
 30
0.0
 10
18.35231839314707
 20
-2.248014512832614
 30
0.0
 10
18.43433765284507
 20
-2.275440891018937
 30
0.0
 10
18.50953039311479
 20
-2.295072809078184
 30
0.0
  0
SPLINE
  5
C2
330
1F
100
AcDbEntity
  8
외형선
  6
Continuous
 62
     1
370
    15
100
AcDbSpline
210
0.0
220
0.0
230
1.0
 70
     8
 71
     3
 72
     8
 73
     4
 74
     0
 42
0.000000001
 43
0.00000001
 40
0.0
 40
0.0
 40
0.0
 40
0.0
 40
1.0
 40
1.0
 40
1.0
 40
1.0
 10
16.80121551090891
 20
-1.448483861933666
 30
0.0
 10
16.94785777751983
 20
-1.525902499777141
 30
0.0
 10
17.0884400930669
 20
-1.591699229672591
 30
0.0
 10
17.21054774411111
 20
-1.640756417023812
 30
0.0
  0
SPLINE
  5
C3
330
1F
100
AcDbEntity
  8
외형선
  6
Continuous
 62
     1
370
    15
100
AcDbSpline
210
0.0
220
0.0
230
1.0
 70
     8
 71
     3
 72
    10
 73
     6
 74
     0
 42
0.000000001
 43
0.00000001
 40
0.0
 40
0.0
 40
0.0
 40
0.0
 40
0.5
 40
0.5
 40
1.0
 40
1.0
 40
1.0
 40
1.0
 10
16.97172305750964
 20
0.5558367627553862
 30
0.0
 10
16.94464623912842
 20
0.2252931816566052
 30
0.0
 10
16.91628526359023
 20
-0.1145314293435893
 30
0.0
 10
16.85880485733792
 20
-0.7903209302707083
 30
0.0
 10
16.82969979153441
 20
-1.126112210484799
 30
0.0
 10
16.80121551101052
 20
-1.448483861987062
 30
0.0
  0
SPLINE
  5
C4
330
1F
100
AcDbEntity
  8
외형선
  6
Continuous
 62
     1
370
    15
100
AcDbSpline
210
0.0
220
0.0
230
1.0
 70
     8
 71
     3
 72
     8
 73
     4
 74
     0
 42
0.000000001
 43
0.00000001
 40
0.0
 40
0.0
 40
0.0
 40
0.0
 40
1.0
 40
1.0
 40
1.0
 40
1.0
 10
17.3858639357649
 20
0.3343369557206833
 30
0.0
 10
17.25705311670898
 20
0.3947890814317369
 30
0.0
 10
17.11503237862206
 20
0.4743149556881364
 30
0.0
 10
16.97172305750963
 20
0.5558367627553766
 30
0.0
  0
SPLINE
  5
C5
330
1F
100
AcDbEntity
  8
외형선
  6
Continuous
 62
     1
370
    15
100
AcDbSpline
210
0.0
220
0.0
230
1.0
 70
     8
 71
     3
 72
     8
 73
     4
 74
     0
 42
0.000000001
 43
0.00000001
 40
0.0
 40
0.0
 40
0.0
 40
0.0
 40
1.0
 40
1.0
 40
1.0
 40
1.0
 10
16.38760324763018
 20
-1.204741575929976
 30
0.0
 10
16.51622417404997
 20
-1.280154281293023
 30
0.0
 10
16.65805335260098
 20
-1.366883834462888
 30
0.0
 10
16.80121551101049
 20
-1.448483861987309
 30
0.0
  0
SPLINE
  5
C6
330
1F
100
AcDbEntity
  8
외형선
  6
Continuous
 62
     1
370
    15
100
AcDbSpline
210
0.0
220
0.0
230
1.0
 70
     8
 71
     3
 72
     8
 73
     4
 74
     0
 42
0.000000001
 43
0.00000001
 40
0.0
 40
0.0
 40
0.0
 40
0.0
 40
1.0
 40
1.0
 40
1.0
 40
1.0
 10
16.97172305755009
 20
0.5558367627323715
 30
0.0
 10
16.82484281612981
 20
0.6403825900836279
 30
0.0
 10
16.68403368577344
 20
0.7205555320795765
 30
0.0
 10
16.56172836142484
 20
0.7899633884797315
 30
0.0
  0
SPLINE
  5
C7
330
1F
100
AcDbEntity
  8
외형선
  6
Continuous
 62
     1
370
    15
100
AcDbSpline
210
0.0
220
0.0
230
1.0
 70
     8
 71
     3
 72
    12
 73
     8
 74
     0
 42
0.000000001
 43
0.00000001
 40
0.0
 40
0.0
 40
0.0
 40
0.0
 40
0.5
 40
0.5
 40
0.7499999999999998
 40
0.7499999999999998
 40
1.0
 40
1.0
 40
1.0
 40
1.0
 10
13.91355915629198
 20
2.181351416401469
 30
0.0
 10
13.748996831941
 20
2.294975480414117
 30
0.0
 10
13.56679136495431
 20
2.408322543504623
 30
0.0
 10
13.29505904601217
 20
2.540596221997342
 30
0.0
 10
13.20734064395719
 20
2.577425408816518
 30
0.0
 10
13.03680531215731
 20
2.636142750826144
 30
0.0
 10
12.95496676280534
 20
2.657509148626692
 30
0.0
 10
12.87995681597307
 20
2.67021953252763
 30
0.0
  0
SPLINE
  5
C8
330
1F
100
AcDbEntity
  8
외형선
  6
Continuous
 62
     1
370
    15
100
AcDbSpline
210
0.0
220
0.0
230
1.0
 70
     8
 71
     3
 72
    12
 73
     8
 74
     0
 42
0.000000001
 43
0.00000001
 40
0.0
 40
0.0
 40
0.0
 40
0.0
 40
0.5
 40
0.5
 40
0.75
 40
0.75
 40
1.0
 40
1.0
 40
1.0
 40
1.0
 10
12.70477923368537
 20
0.8315695679617021
 30
0.0
 10
12.869624967282
 20
0.7826154768867988
 30
0.0
 10
13.05208699497362
 20
0.6908191946554766
 30
0.0
 10
13.32421033209551
 20
0.5345190775395943
 30
0.0
 10
13.41206272587947
 20
0.4805617968473223
 30
0.0
 10
13.58286576314713
 20
0.3700957289043207
 30
0.0
 10
13.66484812017719
 20
0.3141343668370756
 30
0.0
 10
13.73998328637314
 20
0.2591574184703311
 30
0.0
  0
SPLINE
  5
C9
330
1F
100
AcDbEntity
  8
외형선
  6
Continuous
370
    15
100
AcDbSpline
210
0.0
220
0.0
230
1.0
 70
    24
 71
     3
 72
     9
 73
     5
 74
     0
 42
0.000000001
 43
0.00000001
 40
0.0
 40
0.0
 40
0.0
 40
0.0
 40
0.8943727507828487
 40
1.0
 40
1.0
 40
1.0
 40
1.0
 10
9.999999999999996
 20
4.145005119362477
 30
0.0
 10
9.999999999999996
 20
4.066636032253816
 30
0.0
 10
9.999999999999996
 20
3.979011395836767
 30
0.0
 10
9.999999999999996
 20
3.901155289962337
 30
0.0
 10
9.999999999999996
 20
3.892931563664061
 30
0.0
  0
SPLINE
  5
CA
330
1F
100
AcDbEntity
  8
외형선
  6
Continuous
 62
     1
370
    15
100
AcDbSpline
210
0.0
220
0.0
230
1.0
 70
     8
 71
     3
 72
     8
 73
     4
 74
     0
 42
0.000000001
 43
0.00000001
 40
0.0
 40
0.0
 40
0.0
 40
0.0
 40
1.0
 40
1.0
 40
1.0
 40
1.0
 10
10.24277655408351
 20
4.212269849074115
 30
0.0
 10
10.16196955731553
 20
4.190463475591981
 30
0.0
 10
10.08102660389293
 20
4.168037595023008
 30
0.0
 10
9.999999999998927
 20
4.145005119352049
 30
0.0
  0
SPLINE
  5
CB
330
1F
100
AcDbEntity
  8
외형선
  6
Continuous
 62
     1
370
    15
100
AcDbSpline
210
0.0
220
0.0
230
1.0
 70
     8
 71
     3
 72
     8
 73
     4
 74
     0
 42
0.000000001
 43
0.00000001
 40
0.0
 40
0.0
 40
0.0
 40
0.0
 40
1.0
 40
1.0
 40
1.0
 40
1.0
 10
10.24297542103936
 20
4.212323513646052
 30
0.0
 10
10.38986692439979
 20
4.236846088782437
 30
0.0
 10
10.53056924483868
 20
4.227726746969048
 30
0.0
 10
10.65289279301229
 20
4.185746446138232
 30
0.0
  0
SPLINE
  5
CC
330
1F
100
AcDbEntity
  8
외형선
  6
Continuous
 62
     1
370
    15
100
AcDbSpline
210
0.0
220
0.0
230
1.0
 70
     8
 71
     3
 72
     8
 73
     4
 74
     0
 42
0.000000001
 43
0.00000001
 40
0.0
 40
0.0
 40
0.0
 40
0.0
 40
1.0
 40
1.0
 40
1.0
 40
1.0
 10
10.6528927930123
 20
4.185746446138227
 30
0.0
 10
10.72892343824046
 20
4.159653437827926
 30
0.0
 10
10.83297989887489
 20
4.17837488854633
 30
0.0
 10
10.9170086722123
 20
4.243943346405481
 30
0.0
  0
SPLINE
  5
CD
330
1F
100
AcDbEntity
  8
외형선
  6
Continuous
 62
     1
370
    15
100
AcDbSpline
210
0.0
220
0.0
230
1.0
 70
     8
 71
     3
 72
    12
 73
     8
 74
     0
 42
0.000000001
 43
0.00000001
 40
0.0
 40
0.0
 40
0.0
 40
0.0
 40
0.5
 40
0.5
 40
0.75
 40
0.75
 40
1.0
 40
1.0
 40
1.0
 40
1.0
 10
10.91700867221258
 20
4.243943346405833
 30
0.0
 10
11.08172369584975
 20
4.372472059335558
 30
0.0
 10
11.26403241334141
 20
4.45754306496909
 30
0.0
 10
11.53593672496853
 20
4.507445274477213
 30
0.0
 10
11.62371108795871
 20
4.510860732078354
 30
0.0
 10
11.79435151319645
 20
4.491744302834512
 30
0.0
 10
11.87624057993593
 20
4.468952420224419
 30
0.0
 10
11.95128427390438
 20
4.43358589747315
 30
0.0
  0
SPLINE
  5
CE
330
1F
100
AcDbEntity
  8
외형선
  6
Continuous
 62
     1
370
    15
100
AcDbSpline
210
0.0
220
0.0
230
1.0
 70
     8
 71
     3
 72
     8
 73
     4
 74
     0
 42
0.000000001
 43
0.00000001
 40
0.0
 40
0.0
 40
0.0
 40
0.0
 40
1.0
 40
1.0
 40
1.0
 40
1.0
 10
11.95128427390438
 20
4.43358589747315
 30
0.0
 10
12.02767679711022
 20
4.397583699725239
 30
0.0
 10
12.13173334292388
 20
4.408576519887637
 30
0.0
 10
12.21507652392517
 20
4.472350330561246
 30
0.0
  0
SPLINE
  5
CF
330
1F
100
AcDbEntity
  8
외형선
  6
Continuous
 62
     1
370
    15
100
AcDbSpline
210
0.0
220
0.0
230
1.0
 70
     8
 71
     3
 72
     8
 73
     4
 74
     0
 42
0.000000001
 43
0.00000001
 40
0.0
 40
0.0
 40
0.0
 40
0.0
 40
1.0
 40
1.0
 40
1.0
 40
1.0
 10
12.21507652392516
 20
4.47235033056124
 30
0.0
 10
12.34373454741715
 20
4.570798845883596
 30
0.0
 10
12.48544710367323
 20
4.638573454023836
 30
0.0
 10
12.62856558353392
 20
4.671886840506569
 30
0.0
  0
SPLINE
  5
D0
330
1F
100
AcDbEntity
  8
외형선
  6
Continuous
 62
     1
370
    15
100
AcDbSpline
210
0.0
220
0.0
230
1.0
 70
     8
 71
     3
 72
     8
 73
     4
 74
     0
 42
0.000000001
 43
0.00000001
 40
0.0
 40
0.0
 40
0.0
 40
0.0
 40
1.0
 40
1.0
 40
1.0
 40
1.0
 10
12.62856558343349
 20
4.671886840507304
 30
0.0
 10
12.77505600317187
 20
4.670814002490631
 30
0.0
 10
12.9155606464474
 20
4.632243868754029
 30
0.0
 10
13.03759350916037
 20
4.559623084824789
 30
0.0
  0
SPLINE
  5
D1
330
1F
100
AcDbEntity
  8
외형선
  6
Continuous
 62
     1
370
    15
100
AcDbSpline
210
0.0
220
0.0
230
1.0
 70
     8
 71
     3
 72
     8
 73
     4
 74
     0
 42
0.000000001
 43
0.00000001
 40
0.0
 40
0.0
 40
0.0
 40
0.0
 40
1.0
 40
1.0
 40
1.0
 40
1.0
 10
13.03759350916037
 20
4.559623084824788
 30
0.0
 10
13.11347804448538
 20
4.514464802695731
 30
0.0
 10
13.21743083919895
 20
4.51695155917739
 30
0.0
 10
13.30128660884722
 20
4.57656627206474
 30
0.0
  0
SPLINE
  5
D2
330
1F
100
AcDbEntity
  8
외형선
  6
Continuous
 62
     1
370
    15
100
AcDbSpline
210
0.0
220
0.0
230
1.0
 70
     8
 71
     3
 72
    10
 73
     6
 74
     0
 42
0.000000001
 43
0.00000001
 40
0.0
 40
0.0
 40
0.0
 40
0.0
 40
0.5
 40
0.5
 40
1.0
 40
1.0
 40
1.0
 40
1.0
 10
13.30128660884723
 20
4.576566272064746
 30
0.0
 10
13.46597048667098
 20
4.693643273859832
 30
0.0
 10
13.64829027372802
 20
4.753769461273791
 30
0.0
 10
14.01052670034883
 20
4.760839342175313
 30
0.0
 10
14.18481914990255
 20
4.707598256100066
 30
0.0
 10
14.33476472352163
 20
4.60338031042252
 30
0.0
  0
SPLINE
  5
D3
330
1F
100
AcDbEntity
  8
외형선
  6
Continuous
 62
     1
370
    15
100
AcDbSpline
210
0.0
220
0.0
230
1.0
 70
     8
 71
     3
 72
     8
 73
     4
 74
     0
 42
0.000000001
 43
0.00000001
 40
0.0
 40
0.0
 40
0.0
 40
0.0
 40
1.0
 40
1.0
 40
1.0
 40
1.0
 10
14.33476472352163
 20
4.603380310422521
 30
0.0
 10
14.41114435292008
 20
4.550293527829389
 30
0.0
 10
14.51522637897752
 20
4.544814790428095
 30
0.0
 10
14.59864380055959
 20
4.600094355799871
 30
0.0
  0
SPLINE
  5
D4
330
1F
100
AcDbEntity
  8
외형선
  6
Continuous
 62
     1
370
    15
100
AcDbSpline
210
0.0
220
0.0
230
1.0
 70
     8
 71
     3
 72
     8
 73
     4
 74
     0
 42
0.000000001
 43
0.00000001
 40
0.0
 40
0.0
 40
0.0
 40
0.0
 40
1.0
 40
1.0
 40
1.0
 40
1.0
 10
14.59864380055958
 20
4.600094355799873
 30
0.0
 10
14.72735949063796
 20
4.685392453836403
 30
0.0
 10
14.86928533155517
 20
4.732701442341297
 30
0.0
 10
15.01252984315851
 20
4.743248823773039
 30
0.0
  0
SPLINE
  5
D5
330
1F
100
AcDbEntity
  8
외형선
  6
Continuous
 62
     1
370
    15
100
AcDbSpline
210
0.0
220
0.0
230
1.0
 70
     8
 71
     3
 72
     8
 73
     4
 74
     0
 42
0.000000001
 43
0.00000001
 40
0.0
 40
0.0
 40
0.0
 40
0.0
 40
1.0
 40
1.0
 40
1.0
 40
1.0
 10
15.01252984305686
 20
4.743248823791301
 30
0.0
 10
15.15931530951111
 20
4.716774595282942
 30
0.0
 10
15.30003431042638
 20
4.652232130780398
 30
0.0
 10
15.42229734441806
 20
4.555216900973996
 30
0.0
  0
SPLINE
  5
D6
330
1F
100
AcDbEntity
  8
외형선
  6
Continuous
 62
     1
370
    15
100
AcDbSpline
210
0.0
220
0.0
230
1.0
 70
     8
 71
     3
 72
     8
 73
     4
 74
     0
 42
0.000000001
 43
0.00000001
 40
0.0
 40
0.0
 40
0.0
 40
0.0
 40
1.0
 40
1.0
 40
1.0
 40
1.0
 10
15.42229734441806
 20
4.555216900973995
 30
0.0
 10
15.49839240709614
 20
4.494835772256465
 30
0.0
 10
15.60250462055841
 20
4.480882314010475
 30
0.0
 10
15.68653915885023
 20
4.529717380927186
 30
0.0
  0
SPLINE
  5
D7
330
1F
100
AcDbEntity
  8
외형선
  6
Continuous
 62
     1
370
    15
100
AcDbSpline
210
0.0
220
0.0
230
1.0
 70
     8
 71
     3
 72
    12
 73
     8
 74
     0
 42
0.000000001
 43
0.00000001
 40
0.0
 40
0.0
 40
0.0
 40
0.0
 40
0.5
 40
0.5
 40
0.75
 40
0.75
 40
1.0
 40
1.0
 40
1.0
 40
1.0
 10
15.68653915885024
 20
4.529717380927194
 30
0.0
 10
15.85144412833717
 20
4.625548754354006
 30
0.0
 10
16.03370043711026
 20
4.655553752645893
 30
0.0
 10
16.30554879330818
 20
4.615812948432225
 30
0.0
 10
16.39334492638489
 20
4.588883438604983
 30
0.0
 10
16.56409139944972
 20
4.508736622164276
 30
0.0
 10
16.6460742888011
 20
4.455574559070113
 30
0.0
 10
16.72121873381708
 20
4.390898600053481
 30
0.0
  0
SPLINE
  5
D8
330
1F
100
AcDbEntity
  8
외형선
  6
Continuous
 62
     1
370
    15
100
AcDbSpline
210
0.0
220
0.0
230
1.0
 70
     8
 71
     3
 72
     8
 73
     4
 74
     0
 42
0.000000001
 43
0.00000001
 40
0.0
 40
0.0
 40
0.0
 40
0.0
 40
1.0
 40
1.0
 40
1.0
 40
1.0
 10
16.72121873381709
 20
4.390898600053473
 30
0.0
 10
16.79762939446048
 20
4.325132823818717
 30
0.0
 10
16.90173827638579
 20
4.303708604679761
 30
0.0
 10
16.98512996211182
 20
4.345919218671938
 30
0.0
  0
SPLINE
  5
D9
330
1F
100
AcDbEntity
  8
외형선
  6
Continuous
 62
     1
370
    15
100
AcDbSpline
210
0.0
220
0.0
230
1.0
 70
     8
 71
     3
 72
     8
 73
     4
 74
     0
 42
0.000000001
 43
0.00000001
 40
0.0
 40
0.0
 40
0.0
 40
0.0
 40
1.0
 40
1.0
 40
1.0
 40
1.0
 10
16.98512996211192
 20
4.345919218671741
 30
0.0
 10
17.11380667311254
 20
4.411051886641472
 30
0.0
 10
17.25567196307594
 20
4.434092483689866
 30
0.0
 10
17.39879749694418
 20
4.421030258543117
 30
0.0
  0
SPLINE
  5
DA
330
1F
100
AcDbEntity
  8
외형선
  6
Continuous
 62
     1
370
    15
100
AcDbSpline
210
0.0
220
0.0
230
1.0
 70
     8
 71
     3
 72
     8
 73
     4
 74
     0
 42
0.000000001
 43
0.00000001
 40
0.0
 40
0.0
 40
0.0
 40
0.0
 40
1.0
 40
1.0
 40
1.0
 40
1.0
 10
17.39879749684371
 20
4.421030258577138
 30
0.0
 10
17.54541761798912
 20
4.371376476731032
 30
0.0
 10
17.68590301770055
 20
4.28619485709048
 30
0.0
 10
17.80786827808634
 20
4.172706421863392
 30
0.0
  0
SPLINE
  5
DB
330
1F
100
AcDbEntity
  8
외형선
  6
Continuous
 62
     1
370
    15
100
AcDbSpline
210
0.0
220
0.0
230
1.0
 70
     8
 71
     3
 72
     8
 73
     4
 74
     0
 42
0.000000001
 43
0.00000001
 40
0.0
 40
0.0
 40
0.0
 40
0.0
 40
1.0
 40
1.0
 40
1.0
 40
1.0
 10
17.80786827808635
 20
4.172706421863383
 30
0.0
 10
17.8837584121226
 20
4.102090801204642
 30
0.0
 10
17.98763305744328
 20
4.072749653839649
 30
0.0
 10
18.07150323893515
 20
4.106665601470521
 30
0.0
  0
SPLINE
  5
DC
330
1F
100
AcDbEntity
  8
외형선
  6
Continuous
 62
     1
370
    15
100
AcDbSpline
210
0.0
220
0.0
230
1.0
 70
     8
 71
     3
 72
    12
 73
     8
 74
     0
 42
0.000000001
 43
0.00000001
 40
0.0
 40
0.0
 40
0.0
 40
0.0
 40
0.5000000000000018
 40
0.5000000000000018
 40
0.7500000000000009
 40
0.7500000000000009
 40
1.0
 40
1.0
 40
1.0
 40
1.0
 10
18.07150323893515
 20
4.106665601470527
 30
0.0
 10
18.23599355764087
 20
4.173183223535645
 30
0.0
 10
18.41810591282113
 20
4.170924683659174
 30
0.0
 10
18.68978376002112
 20
4.089651755388269
 30
0.0
 10
18.77749342021255
 20
4.050343627520252
 30
0.0
 10
18.9480239560411
 20
3.94861244474543
 30
0.0
 10
19.02986439954446
 20
3.886412160965224
 30
0.0
 10
19.10487276378079
 20
3.814749436851069
 30
0.0
  0
SPLINE
  5
DD
330
1F
100
AcDbEntity
  8
외형선
  6
Continuous
 62
     1
370
    15
100
AcDbSpline
210
0.0
220
0.0
230
1.0
 70
     8
 71
     3
 72
     8
 73
     4
 74
     0
 42
0.000000001
 43
0.00000001
 40
0.0
 40
0.0
 40
0.0
 40
0.0
 40
1.0
 40
1.0
 40
1.0
 40
1.0
 10
19.10487276378024
 20
3.814749436851582
 30
0.0
 10
19.18126194139201
 20
3.741767488555099
 30
0.0
 10
19.28534011894134
 20
3.706202960503184
 30
0.0
 10
19.36869341816543
 20
3.731813410626993
 30
0.0
  0
SPLINE
  5
DE
330
1F
100
AcDbEntity
  8
외형선
  6
Continuous
 62
     1
370
    15
100
AcDbSpline
210
0.0
220
0.0
230
1.0
 70
     8
 71
     3
 72
     8
 73
     4
 74
     0
 42
0.000000001
 43
0.00000001
 40
0.0
 40
0.0
 40
0.0
 40
0.0
 40
1.0
 40
1.0
 40
1.0
 40
1.0
 10
19.36869341816542
 20
3.731813410626995
 30
0.0
 10
19.49742853746961
 20
3.771367506059488
 30
0.0
 10
19.63931478896276
 20
3.768023130642232
 30
0.0
 10
19.7823700859118
 20
3.732195707226947
 30
0.0
  0
SPLINE
  5
DF
330
1F
100
AcDbEntity
  8
외형선
  6
Continuous
 62
     1
370
    15
100
AcDbSpline
210
0.0
220
0.0
230
1.0
 70
     8
 71
     3
 72
     8
 73
     4
 74
     0
 42
0.000000001
 43
0.00000001
 40
0.0
 40
0.0
 40
0.0
 40
0.0
 40
1.0
 40
1.0
 40
1.0
 40
1.0
 10
19.7823700858113
 20
3.732195707274216
 30
0.0
 10
19.92896689805719
 20
3.663237830103732
 30
0.0
 10
20.06959175676971
 20
3.564408114738522
 30
0.0
 10
20.19181519430671
 20
3.44388262453088
 30
0.0
  0
SPLINE
  5
E0
330
1F
100
AcDbEntity
  8
외형선
  6
Continuous
 62
     1
370
    15
100
AcDbSpline
210
0.0
220
0.0
230
1.0
 70
     8
 71
     3
 72
     8
 73
     4
 74
     0
 42
0.000000001
 43
0.00000001
 40
0.0
 40
0.0
 40
0.0
 40
0.0
 40
1.0
 40
1.0
 40
1.0
 40
1.0
 10
20.19181519430671
 20
3.443882624530882
 30
0.0
 10
20.26782702629881
 20
3.368926760933475
 30
0.0
 10
20.37188876039147
 20
3.326811687674899
 30
0.0
 10
20.45588968232184
 20
3.34310695078175
 30
0.0
  0
SPLINE
  5
E1
330
1F
100
AcDbEntity
  8
외형선
  6
Continuous
 62
     1
370
    15
100
AcDbSpline
210
0.0
220
0.0
230
1.0
 70
     8
 71
     3
 72
    12
 73
     8
 74
     0
 42
0.000000001
 43
0.00000001
 40
0.0
 40
0.0
 40
0.0
 40
0.0
 40
0.4999999999999986
 40
0.4999999999999986
 40
0.7499999999999992
 40
0.7499999999999992
 40
1.0
 40
1.0
 40
1.0
 40
1.0
 10
20.45588968232184
 20
3.343106950781749
 30
0.0
 10
20.62081180829388
 20
3.375100045299018
 30
0.0
 10
20.80335887770989
 20
3.340488706299876
 30
0.0
 10
21.07547281583004
 20
3.224081065938417
 30
0.0
 10
21.16330615426212
 20
3.175535250497605
 30
0.0
 10
21.33404870385717
 20
3.060350842848891
 30
0.0
 10
21.41598975102545
 20
2.99406764562041
 30
0.0
 10
21.49108520784251
 20
2.921102133498932
 30
0.0
  0
SPLINE
  5
E2
330
1F
100
AcDbEntity
  8
외형선
  6
Continuous
 62
     1
370
    15
100
AcDbSpline
210
0.0
220
0.0
230
1.0
 70
     8
 71
     3
 72
     8
 73
     4
 74
     0
 42
0.000000001
 43
0.00000001
 40
0.0
 40
0.0
 40
0.0
 40
0.0
 40
1.0
 40
1.0
 40
1.0
 40
1.0
 10
21.49108520784252
 20
2.921102133498926
 30
0.0
 10
21.56754526760339
 20
2.846810722889611
 30
0.0
 10
21.6716109106667
 20
2.799713061950088
 30
0.0
 10
21.75505175412005
 20
2.806484789888009
 30
0.0
  0
SPLINE
  5
E3
330
1F
100
AcDbEntity
  8
외형선
  6
Continuous
 62
     1
370
    15
100
AcDbSpline
210
0.0
220
0.0
230
1.0
 70
     8
 71
     3
 72
     8
 73
     4
 74
     0
 42
0.000000001
 43
0.00000001
 40
0.0
 40
0.0
 40
0.0
 40
0.0
 40
1.0
 40
1.0
 40
1.0
 40
1.0
 10
21.75505175412008
 20
2.8064847898879
 30
0.0
 10
21.88372515606233
 20
2.816927412885675
 30
0.0
 10
22.02558743200139
 20
2.78763476306827
 30
0.0
 10
22.1688026256745
 20
2.732420268950136
 30
0.0
  0
SPLINE
  5
E4
330
1F
100
AcDbEntity
  8
외형선
  6
Continuous
 62
     1
370
    15
100
AcDbSpline
210
0.0
220
0.0
230
1.0
 70
     8
 71
     3
 72
     8
 73
     4
 74
     0
 42
0.000000001
 43
0.00000001
 40
0.0
 40
0.0
 40
0.0
 40
0.0
 40
1.0
 40
1.0
 40
1.0
 40
1.0
 10
22.16880262557316
 20
2.732420269006829
 30
0.0
 10
22.31539184380505
 20
2.650361910876774
 30
0.0
 10
22.45595758876695
 20
2.546412724903433
 30
0.0
 10
22.57802682218957
 20
2.429074907301461
 30
0.0
  0
SPLINE
  5
E5
330
1F
100
AcDbEntity
  8
외형선
  6
Continuous
 62
     1
370
    15
100
AcDbSpline
210
0.0
220
0.0
230
1.0
 70
     8
 71
     3
 72
     8
 73
     4
 74
     0
 42
0.000000001
 43
0.00000001
 40
0.0
 40
0.0
 40
0.0
 40
0.0
 40
1.0
 40
1.0
 40
1.0
 40
1.0
 10
22.57802682218957
 20
2.429074907301454
 30
0.0
 10
22.65393762326856
 20
2.356106416541887
 30
0.0
 10
22.75790248098894
 20
2.304739835957682
 30
0.0
 10
22.84176406919331
 20
2.302047759798747
 30
0.0
  0
SPLINE
  5
E6
330
1F
100
AcDbEntity
  8
외형선
  6
Continuous
 62
     1
370
    15
100
AcDbSpline
210
0.0
220
0.0
230
1.0
 70
     8
 71
     3
 72
    12
 73
     8
 74
     0
 42
0.000000001
 43
0.00000001
 40
0.0
 40
0.0
 40
0.0
 40
0.0
 40
0.4999999999999984
 40
0.4999999999999984
 40
0.7499999999999994
 40
0.7499999999999994
 40
1.0
 40
1.0
 40
1.0
 40
1.0
 10
22.84176406919348
 20
2.302047759797901
 30
0.0
 10
23.00643416209938
 20
2.296761615799271
 30
0.0
 10
23.18867873423448
 20
2.232776472608017
 30
0.0
 10
23.4601723863565
 20
2.090780442140733
 30
0.0
 10
23.54775950110872
 20
2.036947688716224
 30
0.0
 10
23.71816688642903
 20
1.917986430997386
 30
0.0
 10
23.79998393995122
 20
1.853298814476458
 30
0.0
 10
23.87498929993017
 20
1.785339271132224
 30
0.0
  0
SPLINE
  5
E7
330
1F
100
AcDbEntity
  8
외형선
  6
Continuous
 62
     1
370
    15
100
AcDbSpline
210
0.0
220
0.0
230
1.0
 70
     8
 71
     3
 72
     8
 73
     4
 74
     0
 42
0.000000001
 43
0.00000001
 40
0.0
 40
0.0
 40
0.0
 40
0.0
 40
1.0
 40
1.0
 40
1.0
 40
1.0
 10
23.87498929993016
 20
1.78533927113223
 30
0.0
 10
23.95133365273253
 20
1.716166516614209
 30
0.0
 10
24.05539279973205
 20
1.66199430252517
 30
0.0
 10
24.13874738786
 20
1.649674817200945
 30
0.0
  0
SPLINE
  5
E8
330
1F
100
AcDbEntity
  8
외형선
  6
Continuous
 62
     1
370
    15
100
AcDbSpline
210
0.0
220
0.0
230
1.0
 70
     8
 71
     3
 72
     8
 73
     4
 74
     0
 42
0.000000001
 43
0.00000001
 40
0.0
 40
0.0
 40
0.0
 40
0.0
 40
1.0
 40
1.0
 40
1.0
 40
1.0
 10
24.13874738786005
 20
1.6496748172007
 30
0.0
 10
24.26738854204952
 20
1.630662152790483
 30
0.0
 10
24.40923767944316
 20
1.578061264312426
 30
0.0
 10
24.55237866095643
 20
1.507981328578847
 30
0.0
  0
SPLINE
  5
E9
330
1F
100
AcDbEntity
  8
외형선
  6
Continuous
 62
     1
370
    15
100
AcDbSpline
210
0.0
220
0.0
230
1.0
 70
     8
 71
     3
 72
     8
 73
     4
 74
     0
 42
0.000000001
 43
0.00000001
 40
0.0
 40
0.0
 40
0.0
 40
0.0
 40
1.0
 40
1.0
 40
1.0
 40
1.0
 10
24.55237866085455
 20
1.507981328640329
 30
0.0
 10
24.69904867182176
 20
1.419423005528543
 30
0.0
 10
24.83961071084675
 20
1.318686032333286
 30
0.0
 10
24.96168556677055
 20
1.213990310957704
 30
0.0
  0
SPLINE
  5
EA
330
1F
100
AcDbEntity
  8
외형선
  6
Continuous
 62
     1
370
    15
100
AcDbSpline
210
0.0
220
0.0
230
1.0
 70
     8
 71
     3
 72
     8
 73
     4
 74
     0
 42
0.000000001
 43
0.00000001
 40
0.0
 40
0.0
 40
0.0
 40
0.0
 40
1.0
 40
1.0
 40
1.0
 40
1.0
 10
24.96168556677055
 20
1.213990310957703
 30
0.0
 10
25.03767189289348
 20
1.148821745589203
 30
0.0
 10
25.14166940772272
 20
1.092194585153386
 30
0.0
 10
25.22559330754108
 20
1.07049405391618
 30
0.0
  0
SPLINE
  5
EB
330
1F
100
AcDbEntity
  8
외형선
  6
Continuous
 62
     1
370
    15
100
AcDbSpline
210
0.0
220
0.0
230
1.0
 70
     8
 71
     3
 72
    12
 73
     8
 74
     0
 42
0.000000001
 43
0.00000001
 40
0.0
 40
0.0
 40
0.0
 40
0.0
 40
0.5000000000000036
 40
0.5000000000000036
 40
0.7500000000000018
 40
0.7500000000000018
 40
1.0
 40
1.0
 40
1.0
 40
1.0
 10
25.22559330754108
 20
1.070494053916183
 30
0.0
 10
25.39041978026327
 20
1.027874227766924
 30
0.0
 10
25.57269944656711
 20
0.9392495013333407
 30
0.0
 10
25.84475156234546
 20
0.7837820608259075
 30
0.0
 10
25.93260001778131
 20
0.7294043641917607
 30
0.0
 10
26.10343744813741
 20
0.616735165538868
 30
0.0
 10
26.18546459469473
 20
0.5589772726788981
 30
0.0
 10
26.26065546230063
 20
0.5015499122612787
 30
0.0
  0
SPLINE
  5
EC
330
1F
100
AcDbEntity
  8
외형선
  6
Continuous
 62
     1
370
    15
100
AcDbSpline
210
0.0
220
0.0
230
1.0
 70
     8
 71
     3
 72
     8
 73
     4
 74
     0
 42
0.000000001
 43
0.00000001
 40
0.0
 40
0.0
 40
0.0
 40
0.0
 40
1.0
 40
1.0
 40
1.0
 40
1.0
 10
26.26065546230062
 20
0.5015499122612811
 30
0.0
 10
26.33717290561722
 20
0.4431093737292767
 30
0.0
 10
26.44136033967986
 20
0.3860850771532822
 30
0.0
 10
26.52483387863434
 20
0.3554654392100078
 30
0.0
  0
SPLINE
  5
ED
330
1F
100
AcDbEntity
  8
외형선
  6
Continuous
 62
     1
370
    15
100
AcDbSpline
210
0.0
220
0.0
230
1.0
 70
     8
 71
     3
 72
     8
 73
     4
 74
     0
 42
0.000000001
 43
0.00000001
 40
0.0
 40
0.0
 40
0.0
 40
0.0
 40
1.0
 40
1.0
 40
1.0
 40
1.0
 10
26.52483387863435
 20
0.3554654392099993
 30
0.0
 10
26.65363906946811
 20
0.3082173129421681
 30
0.0
 10
26.79560472851709
 20
0.236277684277973
 30
0.0
 10
26.9387816445658
 20
0.1567487021487774
 30
0.0
  0
SPLINE
  5
EE
330
1F
100
AcDbEntity
  8
외형선
  6
Continuous
 62
     1
370
    15
100
AcDbSpline
210
0.0
220
0.0
230
1.0
 70
     8
 71
     3
 72
     8
 73
     4
 74
     0
 42
0.000000001
 43
0.00000001
 40
0.0
 40
0.0
 40
0.0
 40
0.0
 40
1.0
 40
1.0
 40
1.0
 40
1.0
 10
26.9387816444653
 20
0.1567487022090857
 30
0.0
 10
27.08547375670615
 20
0.0687309165107131
 30
0.0
 10
27.22596823362077
 20
-0.0208098672640741
 30
0.0
 10
27.34808477260608
 20
-0.1042376758890304
 30
0.0
  0
SPLINE
  5
EF
330
1F
100
AcDbEntity
  8
외형선
  6
Continuous
 62
     1
370
    15
100
AcDbSpline
210
0.0
220
0.0
230
1.0
 70
     8
 71
     3
 72
     8
 73
     4
 74
     0
 42
0.000000001
 43
0.00000001
 40
0.0
 40
0.0
 40
0.0
 40
0.0
 40
1.0
 40
1.0
 40
1.0
 40
1.0
 10
27.34808477260608
 20
-0.1042376758890312
 30
0.0
 10
27.42398816524302
 20
-0.1560934995761201
 30
0.0
 10
27.52794532979942
 20
-0.2131105467872857
 30
0.0
 10
27.61185449862569
 20
-0.2517057606543789
 30
0.0
  0
SPLINE
  5
F0
330
1F
100
AcDbEntity
  8
외형선
  6
Continuous
 62
     1
370
    15
100
AcDbSpline
210
0.0
220
0.0
230
1.0
 70
    24
 71
     3
 72
    14
 73
    10
 74
     0
 42
0.000000001
 43
0.00000001
 40
0.0
 40
0.0
 40
0.0
 40
0.0
 40
0.25
 40
0.25
 40
0.5
 40
0.5
 40
0.75
 40
0.75
 40
1.0
 40
1.0
 40
1.0
 40
1.0
 10
28.52914705998749
 20
-0.7579030112895218
 30
0.0
 10
28.52782691742284
 20
-0.7592231538541654
 30
0.0
 10
28.51680831465553
 20
-0.7702417566206001
 30
0.0
 10
28.47246801425593
 20
-0.8145820570201953
 30
0.0
 10
28.43873712094683
 20
-0.8483129503292982
 30
0.0
 10
28.34528869210787
 20
-0.9417613791682617
 30
0.0
 10
28.28643389288763
 20
-1.000616178388848
 30
0.0
 10
28.14093734028797
 20
-1.146112730988513
 30
0.0
 10
28.0544389312456
 20
-1.232611140030525
 30
0.0
 10
27.9578531315505
 20
-1.329196939725624
 30
0.0
  0
SPLINE
  5
F1
330
1F
100
AcDbEntity
  8
외형선
  6
Continuous
 62
     1
370
    15
100
AcDbSpline
210
0.0
220
0.0
230
1.0
 70
     8
 71
     3
 72
     8
 73
     4
 74
     0
 42
0.000000001
 43
0.00000001
 40
0.3482755570433009
 40
0.3482755570433009
 40
0.3482755570433009
 40
0.3482755570433009
 40
1.0
 40
1.0
 40
1.0
 40
1.0
 10
28.66912972228222
 20
-1.865131712249439
 30
0.0
 10
28.43172679645546
 20
-1.690509584159322
 30
0.0
 10
28.19463934636413
 20
-1.511803206142381
 30
0.0
 10
27.95785313155049
 20
-1.329196939725623
 30
0.0
  0
SPLINE
  5
F8
330
1F
100
AcDbEntity
  8
외형선
  6
Continuous
 62
     1
370
    15
100
AcDbSpline
210
0.0
220
0.0
230
1.0
 70
     8
 71
     3
 72
     8
 73
     4
 74
     0
 42
0.000000001
 43
0.00000001
 40
0.6080763501052333
 40
0.6080763501052333
 40
0.6080763501052333
 40
0.6080763501052333
 40
1.0
 40
1.0
 40
1.0
 40
1.0
 10
26.6778596691121
 20
-4.118098156044727
 30
0.0
 10
26.62281687265785
 20
-4.119398509458882
 30
0.0
 10
26.56685590381519
 20
-4.114898305555487
 30
0.0
 10
26.51069064360976
 20
-4.105100647412597
 30
0.0
  0
SPLINE
  5
F9
330
1F
100
AcDbEntity
  8
외형선
  6
Continuous
 62
     1
370
    15
100
AcDbSpline
210
0.0
220
0.0
230
1.0
 70
     8
 71
     3
 72
     8
 73
     4
 74
     0
 42
0.000000001
 43
0.00000001
 40
0.0
 40
0.0
 40
0.0
 40
0.0
 40
1.0
 40
1.0
 40
1.0
 40
1.0
 10
26.51069064360975
 20
-4.105100647412588
 30
0.0
 10
26.36398974722484
 20
-4.044973302212772
 30
0.0
 10
26.22332960123318
 20
-3.951900093095285
 30
0.0
 10
26.1011746188867
 20
-3.833614390612288
 30
0.0
  0
SPLINE
  5
FA
330
1F
100
AcDbEntity
  8
외형선
  6
Continuous
 62
     1
370
    15
100
AcDbSpline
210
0.0
220
0.0
230
1.0
 70
     8
 71
     3
 72
     8
 73
     4
 74
     0
 42
0.000000001
 43
0.00000001
 40
0.0
 40
0.0
 40
0.0
 40
0.0
 40
1.0
 40
1.0
 40
1.0
 40
1.0
 10
26.10117461888669
 20
-3.833614390612284
 30
0.0
 10
26.02521463328975
 20
-3.760060450491795
 30
0.0
 10
25.92121937461344
 20
-3.723829323996766
 30
0.0
 10
25.83732084172545
 20
-3.748922285022121
 30
0.0
  0
SPLINE
  5
FB
330
1F
100
AcDbEntity
  8
외형선
  6
Continuous
 62
     1
370
    15
100
AcDbSpline
210
0.0
220
0.0
230
1.0
 70
     8
 71
     3
 72
    12
 73
     8
 74
     0
 42
0.000000001
 43
0.00000001
 40
0.0
 40
0.0
 40
0.0
 40
0.0
 40
0.5000000000000036
 40
0.5000000000000036
 40
0.7500000000000018
 40
0.7500000000000018
 40
1.0
 40
1.0
 40
1.0
 40
1.0
 10
25.83732084172546
 20
-3.748922285022123
 30
0.0
 10
25.67263414530514
 20
-3.7981779360141
 30
0.0
 10
25.49047559136785
 20
-3.778845866408406
 30
0.0
 10
25.2190039902524
 20
-3.678029514680977
 30
0.0
 10
25.13132906305287
 20
-3.633426297876433
 30
0.0
 10
24.96081639678549
 20
-3.523550235181514
 30
0.0
 10
24.87895510868445
 20
-3.458575569332087
 30
0.0
 10
24.80392058705611
 20
-3.385505649480059
 30
0.0
  0
SPLINE
  5
FC
330
1F
100
AcDbEntity
  8
외형선
  6
Continuous
 62
     1
370
    15
100
AcDbSpline
210
0.0
220
0.0
230
1.0
 70
     8
 71
     3
 72
     8
 73
     4
 74
     0
 42
0.000000001
 43
0.00000001
 40
0.0
 40
0.0
 40
0.0
 40
0.0
 40
1.0
 40
1.0
 40
1.0
 40
1.0
 10
24.80392058705611
 20
-3.385505649480053
 30
0.0
 10
24.72757817234788
 20
-3.311162080640233
 30
0.0
 10
24.62352127819094
 20
-3.269356038415384
 30
0.0
 10
24.54018370559329
 20
-3.285519442749337
 30
0.0
  0
SPLINE
  5
FD
330
1F
100
AcDbEntity
  8
외형선
  6
Continuous
 62
     1
370
    15
100
AcDbSpline
210
0.0
220
0.0
230
1.0
 70
     8
 71
     3
 72
     8
 73
     4
 74
     0
 42
0.000000001
 43
0.00000001
 40
0.0
 40
0.0
 40
0.0
 40
0.0
 40
1.0
 40
1.0
 40
1.0
 40
1.0
 10
24.54018370559329
 20
-3.285519442749333
 30
0.0
 10
24.41156296541811
 20
-3.310465562061213
 30
0.0
 10
24.2697418079811
 20
-3.293757364571093
 30
0.0
 10
24.12664760328816
 20
-3.247617139518339
 30
0.0
  0
SPLINE
  5
FE
330
1F
100
AcDbEntity
  8
외형선
  6
Continuous
 62
     1
370
    15
100
AcDbSpline
210
0.0
220
0.0
230
1.0
 70
     8
 71
     3
 72
     8
 73
     4
 74
     0
 42
0.000000001
 43
0.00000001
 40
0.0
 40
0.0
 40
0.0
 40
0.0
 40
1.0
 40
1.0
 40
1.0
 40
1.0
 10
24.12664760328844
 20
-3.247617139518581
 30
0.0
 10
23.98003182595112
 20
-3.171236670953206
 30
0.0
 10
23.83954570202932
 20
-3.068689588424437
 30
0.0
 10
23.71756310975425
 20
-2.948516985932372
 30
0.0
  0
SPLINE
  5
FF
330
1F
100
AcDbEntity
  8
외형선
  6
Continuous
 62
     1
370
    15
100
AcDbSpline
210
0.0
220
0.0
230
1.0
 70
     8
 71
     3
 72
     8
 73
     4
 74
     0
 42
0.000000001
 43
0.00000001
 40
0.0
 40
0.0
 40
0.0
 40
0.0
 40
1.0
 40
1.0
 40
1.0
 40
1.0
 10
23.71756310975425
 20
-2.948516985932382
 30
0.0
 10
23.64163541028729
 20
-2.873715909188533
 30
0.0
 10
23.53771829184767
 20
-2.826155103931054
 30
0.0
 10
23.4538371446571
 20
-2.832530868308756
 30
0.0
  0
SPLINE
  5
100
330
1F
100
AcDbEntity
  8
외형선
  6
Continuous
 62
     1
370
    15
100
AcDbSpline
210
0.0
220
0.0
230
1.0
 70
     8
 71
     3
 72
    12
 73
     8
 74
     0
 42
0.000000001
 43
0.00000001
 40
0.0
 40
0.0
 40
0.0
 40
0.0
 40
0.5000000000000017
 40
0.5000000000000017
 40
0.7500000000000008
 40
0.7500000000000008
 40
1.0
 40
1.0
 40
1.0
 40
1.0
 10
23.45383714465709
 20
-2.832530868308751
 30
0.0
 10
23.28921219461923
 20
-2.845043929077316
 30
0.0
 10
23.10695694329894
 20
-2.794636444789665
 30
0.0
 10
22.83507047635391
 20
-2.663835034951742
 30
0.0
 10
22.74728712484791
 20
-2.612145405516503
 30
0.0
 10
22.57659860535013
 20
-2.493981693372933
 30
0.0
 10
22.49466166535853
 20
-2.427924881129868
 30
0.0
 10
22.41954621822347
 20
-2.356893599883116
 30
0.0
  0
SPLINE
  5
101
330
1F
100
AcDbEntity
  8
외형선
  6
Continuous
 62
     1
370
    15
100
AcDbSpline
210
0.0
220
0.0
230
1.0
 70
     8
 71
     3
 72
     8
 73
     4
 74
     0
 42
0.000000001
 43
0.00000001
 40
0.0
 40
0.0
 40
0.0
 40
0.0
 40
1.0
 40
1.0
 40
1.0
 40
1.0
 10
22.41954621822347
 20
-2.35689359988311
 30
0.0
 10
22.34301931720875
 20
-2.284527608116521
 30
0.0
 10
22.23881977119161
 20
-2.233347600750065
 30
0.0
 10
22.15532868571852
 20
-2.230226817138946
 30
0.0
  0
SPLINE
  5
102
330
1F
100
AcDbEntity
  8
외형선
  6
Continuous
 62
     1
370
    15
100
AcDbSpline
210
0.0
220
0.0
230
1.0
 70
     8
 71
     3
 72
     8
 73
     4
 74
     0
 42
0.000000001
 43
0.00000001
 40
0.0
 40
0.0
 40
0.0
 40
0.0
 40
1.0
 40
1.0
 40
1.0
 40
1.0
 10
22.15532868571853
 20
-2.230226817138949
 30
0.0
 10
22.02640367635128
 20
-2.225407775033828
 30
0.0
 10
21.88432543264045
 20
-2.183393357946132
 30
0.0
 10
21.74107701974093
 20
-2.119457452386148
 30
0.0
  0
SPLINE
  5
103
330
1F
100
AcDbEntity
  8
외형선
  6
Continuous
 62
     1
370
    15
100
AcDbSpline
210
0.0
220
0.0
230
1.0
 70
     8
 71
     3
 72
     8
 73
     4
 74
     0
 42
0.000000001
 43
0.00000001
 40
0.0
 40
0.0
 40
0.0
 40
0.0
 40
1.0
 40
1.0
 40
1.0
 40
1.0
 10
21.74107701974087
 20
-2.119457452386125
 30
0.0
 10
21.59434071642686
 20
-2.032754797741394
 30
0.0
 10
21.4536812146118
 20
-1.928962464116532
 30
0.0
 10
21.33139775186372
 20
-1.816756299164468
 30
0.0
  0
SPLINE
  5
104
330
1F
100
AcDbEntity
  8
외형선
  6
Continuous
 62
     1
370
    15
100
AcDbSpline
210
0.0
220
0.0
230
1.0
 70
     8
 71
     3
 72
     8
 73
     4
 74
     0
 42
0.000000001
 43
0.00000001
 40
0.0
 40
0.0
 40
0.0
 40
0.0
 40
1.0
 40
1.0
 40
1.0
 40
1.0
 10
21.33139775186372
 20
-1.816756299164465
 30
0.0
 10
21.25542101896575
 20
-1.747040757647365
 30
0.0
 10
21.15140043000567
 20
-1.692336475387383
 30
0.0
 10
21.0674393943134
 20
-1.679737916581681
 30
0.0
  0
SPLINE
  5
105
330
1F
100
AcDbEntity
  8
외형선
  6
Continuous
 62
     1
370
    15
100
AcDbSpline
210
0.0
220
0.0
230
1.0
 70
     8
 71
     3
 72
    12
 73
     8
 74
     0
 42
0.000000001
 43
0.00000001
 40
0.0
 40
0.0
 40
0.0
 40
0.0
 40
0.5
 40
0.5
 40
0.75
 40
0.75
 40
1.0
 40
1.0
 40
1.0
 40
1.0
 10
21.06743939431341
 20
-1.679737916581679
 30
0.0
 10
20.90276843786158
 20
-1.655028636719371
 30
0.0
 10
20.72048677363319
 20
-1.577952364730115
 30
0.0
 10
20.44870270312471
 20
-1.427885742068815
 30
0.0
 10
20.36097808997448
 20
-1.373352807286653
 30
0.0
 10
20.19045024993249
 20
-1.256563749111725
 30
0.0
 10
20.10862767585652
 20
-1.19482568147071
 30
0.0
 10
20.03364677504229
 20
-1.131626727752131
 30
0.0
  0
SPLINE
  5
106
330
1F
100
AcDbEntity
  8
외형선
  6
Continuous
 62
     1
370
    15
100
AcDbSpline
210
0.0
220
0.0
230
1.0
 70
     8
 71
     3
 72
     8
 73
     4
 74
     0
 42
0.000000001
 43
0.00000001
 40
0.0
 40
0.0
 40
0.0
 40
0.0
 40
1.0
 40
1.0
 40
1.0
 40
1.0
 10
20.03364677504228
 20
-1.131626727752121
 30
0.0
 10
19.95728010478656
 20
-1.067259754206556
 30
0.0
 10
19.85327221300691
 20
-1.010846846110845
 30
0.0
 10
19.76994421660966
 20
-0.9886337897085692
 30
0.0
  0
SPLINE
  5
107
330
1F
100
AcDbEntity
  8
외형선
  6
Continuous
 62
     1
370
    15
100
AcDbSpline
210
0.0
220
0.0
230
1.0
 70
     8
 71
     3
 72
     8
 73
     4
 74
     0
 42
0.000000001
 43
0.00000001
 40
0.0
 40
0.0
 40
0.0
 40
0.0
 40
1.0
 40
1.0
 40
1.0
 40
1.0
 10
19.76994421660967
 20
-0.9886337897085772
 30
0.0
 10
19.64137363990121
 20
-0.9543602490550451
 30
0.0
 10
19.49960922677746
 20
-0.8909427376639604
 30
0.0
 10
19.35647968530239
 20
-0.8152071947402572
 30
0.0
  0
SPLINE
  5
108
330
1F
100
AcDbEntity
  8
외형선
  6
Continuous
 62
     1
370
    15
100
AcDbSpline
210
0.0
220
0.0
230
1.0
 70
     8
 71
     3
 72
     8
 73
     4
 74
     0
 42
0.000000001
 43
0.00000001
 40
0.0
 40
0.0
 40
0.0
 40
0.0
 40
1.0
 40
1.0
 40
1.0
 40
1.0
 10
19.35647968530217
 20
-0.8152071947402383
 30
0.0
 10
19.20995696306334
 20
-0.7260947715526384
 30
0.0
 10
19.06945326852321
 20
-0.6304805109342401
 30
0.0
 10
18.94742981047951
 20
-0.536048518252146
 30
0.0
  0
SPLINE
  5
109
330
1F
100
AcDbEntity
  8
외형선
  6
Continuous
 62
     1
370
    15
100
AcDbSpline
210
0.0
220
0.0
230
1.0
 70
     8
 71
     3
 72
     8
 73
     4
 74
     0
 42
0.000000001
 43
0.00000001
 40
0.0
 40
0.0
 40
0.0
 40
0.0
 40
1.0
 40
1.0
 40
1.0
 40
1.0
 10
18.94742981047952
 20
-0.5360485182521616
 30
0.0
 10
18.87152842200614
 20
-0.4773096538092947
 30
0.0
 10
18.76756458061529
 20
-0.4200677067945702
 30
0.0
 10
18.68370295193397
 20
-0.3894857888256026
 30
0.0
  0
SPLINE
  5
10A
330
1F
100
AcDbEntity
  8
외형선
  6
Continuous
 62
     1
370
    15
100
AcDbSpline
210
0.0
220
0.0
230
1.0
 70
     8
 71
     3
 72
     8
 73
     4
 74
     0
 42
0.000000001
 43
0.00000001
 40
0.0
 40
0.0
 40
0.0
 40
0.0
 40
1.0
 40
1.0
 40
1.0
 40
1.0
 10
17.64991063683731
 20
0.1874562363378615
 30
0.0
 10
17.57346694770311
 20
0.2384585855948832
 30
0.0
 10
17.4693243904871
 20
0.295168181406962
 30
0.0
 10
17.38586393576491
 20
0.3343369557206909
 30
0.0
  0
SPLINE
  5
10B
330
1F
100
AcDbEntity
  8
외형선
  6
Continuous
 62
     1
370
    15
100
AcDbSpline
210
0.0
220
0.0
230
1.0
 70
     8
 71
     3
 72
     8
 73
     4
 74
     0
 42
0.000000001
 43
0.00000001
 40
0.0
 40
0.0
 40
0.0
 40
0.0
 40
1.0
 40
1.0
 40
1.0
 40
1.0
 10
16.56172836142485
 20
0.789963388479714
 30
0.0
 10
16.48566818107185
 20
0.8331272826423547
 30
0.0
 10
16.38161368238551
 20
0.8884901373560588
 30
0.0
 10
16.29763213944396
 20
0.9348272580730875
 30
0.0
  0
SPLINE
  5
10C
330
1F
100
AcDbEntity
  8
외형선
  6
Continuous
 62
     1
370
    15
100
AcDbSpline
210
0.0
220
0.0
230
1.0
 70
     8
 71
     3
 72
     8
 73
     4
 74
     0
 42
0.000000001
 43
0.00000001
 40
0.0
 40
0.0
 40
0.0
 40
0.0
 40
1.0
 40
1.0
 40
1.0
 40
1.0
 10
15.26354525938988
 20
1.491467323707423
 30
0.0
 10
15.18716512886803
 20
1.524701160934019
 30
0.0
 10
15.08308399032148
 20
1.576974401395331
 30
0.0
 10
14.99973153443302
 20
1.629918374188569
 30
0.0
  0
SPLINE
  5
10D
330
1F
100
AcDbEntity
  8
외형선
  6
Continuous
 62
     1
370
    15
100
AcDbSpline
210
0.0
220
0.0
230
1.0
 70
     8
 71
     3
 72
     8
 73
     4
 74
     0
 42
0.000000001
 43
0.00000001
 40
0.0
 40
0.0
 40
0.0
 40
0.0
 40
1.0
 40
1.0
 40
1.0
 40
1.0
 10
14.99973153443302
 20
1.629918374188585
 30
0.0
 10
14.87107718498029
 20
1.711637290620664
 30
0.0
 10
14.72924446592255
 20
1.800751631897303
 30
0.0
 10
14.58617994107705
 20
1.881388664334137
 30
0.0
  0
SPLINE
  5
10E
330
1F
100
AcDbEntity
  8
외형선
  6
Continuous
 62
     1
370
    15
100
AcDbSpline
210
0.0
220
0.0
230
1.0
 70
     8
 71
     3
 72
     8
 73
     4
 74
     0
 42
0.000000001
 43
0.00000001
 40
0.0
 40
0.0
 40
0.0
 40
0.0
 40
1.0
 40
1.0
 40
1.0
 40
1.0
 10
14.58617994107705
 20
1.881388664334131
 30
0.0
 10
14.43957981328268
 20
1.954330194355723
 30
0.0
 10
14.29917562585081
 20
2.012403645246918
 30
0.0
 10
14.17720819749527
 20
2.050833512345749
 30
0.0
  0
SPLINE
  5
10F
330
1F
100
AcDbEntity
  8
외형선
  6
Continuous
 62
     1
370
    15
100
AcDbSpline
210
0.0
220
0.0
230
1.0
 70
     8
 71
     3
 72
     8
 73
     4
 74
     0
 42
0.000000001
 43
0.00000001
 40
0.0
 40
0.0
 40
0.0
 40
0.0
 40
1.0
 40
1.0
 40
1.0
 40
1.0
 10
14.17720819749527
 20
2.050833512345742
 30
0.0
 10
14.10135320804141
 20
2.07473413239487
 30
0.0
 10
13.99743571189374
 20
2.123437825544981
 30
0.0
 10
13.91355915629199
 20
2.181351416401459
 30
0.0
  0
SPLINE
  5
110
330
1F
100
AcDbEntity
  8
외형선
  6
Continuous
 62
     1
370
    15
100
AcDbSpline
210
0.0
220
0.0
230
1.0
 70
     8
 71
     3
 72
     8
 73
     4
 74
     0
 42
0.000000001
 43
0.00000001
 40
0.0
 40
0.0
 40
0.0
 40
0.0
 40
1.0
 40
1.0
 40
1.0
 40
1.0
 10
12.87995681597307
 20
2.670219532527631
 30
0.0
 10
12.80352783496888
 20
2.683170370793029
 30
0.0
 10
12.6994304657769
 20
2.726935696070699
 30
0.0
 10
12.61604320132418
 20
2.789489747932761
 30
0.0
  0
SPLINE
  5
111
330
1F
100
AcDbEntity
  8
외형선
  6
Continuous
 62
     1
370
    15
100
AcDbSpline
210
0.0
220
0.0
230
1.0
 70
     8
 71
     3
 72
     8
 73
     4
 74
     0
 42
0.000000001
 43
0.00000001
 40
0.0
 40
0.0
 40
0.0
 40
0.0
 40
1.0
 40
1.0
 40
1.0
 40
1.0
 10
12.61604320132418
 20
2.789489747932758
 30
0.0
 10
12.48725501711015
 20
2.886101896171688
 30
0.0
 10
12.345413679034
 20
2.977873380437873
 30
0.0
 10
12.20219829979608
 20
3.051030882681267
 30
0.0
  0
SPLINE
  5
112
330
1F
100
AcDbEntity
  8
외형선
  6
Continuous
 62
     1
370
    15
100
AcDbSpline
210
0.0
220
0.0
230
1.0
 70
     8
 71
     3
 72
     8
 73
     4
 74
     0
 42
0.000000001
 43
0.00000001
 40
0.0
 40
0.0
 40
0.0
 40
0.0
 40
1.0
 40
1.0
 40
1.0
 40
1.0
 10
12.20219829979608
 20
3.051030882681265
 30
0.0
 10
12.05547987529742
 20
3.106419423501836
 30
0.0
 10
11.9147397294454
 20
3.137240293503746
 30
0.0
 10
11.79241718704291
 20
3.141333821422851
 30
0.0
  0
SPLINE
  5
113
330
1F
100
AcDbEntity
  8
외형선
  6
Continuous
 62
     1
370
    15
100
AcDbSpline
210
0.0
220
0.0
230
1.0
 70
     8
 71
     3
 72
     8
 73
     4
 74
     0
 42
0.000000001
 43
0.00000001
 40
0.0
 40
0.0
 40
0.0
 40
0.0
 40
1.0
 40
1.0
 40
1.0
 40
1.0
 10
11.79241718704289
 20
3.141333821422861
 30
0.0
 10
11.71632989565727
 20
3.143880085140558
 30
0.0
 10
11.61220487491849
 20
3.181793835458356
 30
0.0
 10
11.52815293703678
 20
3.246582409460316
 30
0.0
  0
SPLINE
  5
114
330
1F
100
AcDbEntity
  8
외형선
  6
Continuous
 62
     1
370
    15
100
AcDbSpline
210
0.0
220
0.0
230
1.0
 70
     8
 71
     3
 72
    12
 73
     8
 74
     0
 42
0.000000001
 43
0.00000001
 40
0.0
 40
0.0
 40
0.0
 40
0.0
 40
0.4999999999999998
 40
0.4999999999999998
 40
0.7499999999999999
 40
0.7499999999999999
 40
1.0
 40
1.0
 40
1.0
 40
1.0
 10
11.52815293703676
 20
3.246582409460343
 30
0.0
 10
11.36325092801804
 20
3.373691507520855
 30
0.0
 10
11.18076944196567
 20
3.480952752509267
 30
0.0
 10
10.90879742341799
 20
3.583889392983874
 30
0.0
 10
10.82102271985095
 20
3.60783127208684
 30
0.0
 10
10.65041192078816
 20
3.634931380407996
 30
0.0
 10
10.56856234559943
 20
3.63767904135929
 30
0.0
 10
10.49352275367783
 20
3.629417702314885
 30
0.0
  0
SPLINE
  5
115
330
1F
100
AcDbEntity
  8
외형선
  6
Continuous
 62
     1
370
    15
100
AcDbSpline
210
0.0
220
0.0
230
1.0
 70
     8
 71
     3
 72
     8
 73
     4
 74
     0
 42
0.000000001
 43
0.00000001
 40
0.0
 40
0.0
 40
0.0
 40
0.0
 40
1.0
 40
1.0
 40
1.0
 40
1.0
 10
10.49352275367781
 20
3.629417702314886
 30
0.0
 10
10.41715022425515
 20
3.621009616088902
 30
0.0
 10
10.31308350744792
 20
3.652492911337937
 30
0.0
 10
10.22967743510708
 20
3.719311401305936
 30
0.0
  0
SPLINE
  5
116
330
1F
100
AcDbEntity
  8
외형선
  6
Continuous
 62
     1
370
    15
100
AcDbSpline
210
0.0
220
0.0
230
1.0
 70
     8
 71
     3
 72
     8
 73
     4
 74
     0
 42
0.000000001
 43
0.00000001
 40
0.0
 40
0.0
 40
0.0
 40
0.0
 40
1.0
 40
1.0
 40
1.0
 40
1.0
 10
10.22967743510707
 20
3.719311401305952
 30
0.0
 10
10.15672990523753
 20
3.777751316482145
 30
0.0
 10
10.07950769363286
 20
3.830830416290573
 30
0.0
 10
9.999999999998927
 20
3.876652859888392
 30
0.0
  0
SPLINE
  5
117
330
1F
100
AcDbEntity
  8
외형선
  6
Continuous
 62
     1
370
    15
100
AcDbSpline
210
0.0
220
0.0
230
1.0
 70
     8
 71
     3
 72
    12
 73
     8
 74
     0
 42
0.000000001
 43
0.00000001
 40
0.0
 40
0.0
 40
0.0
 40
0.0
 40
0.5000000000000002
 40
0.5000000000000002
 40
0.7500000000000001
 40
0.7500000000000001
 40
1.0
 40
1.0
 40
1.0
 40
1.0
 10
26.4348716014815
 20
2.39228697059291
 30
0.0
 10
26.27015966647681
 20
2.509030848493156
 30
0.0
 10
26.08779658241249
 20
2.621947371003639
 30
0.0
 10
25.81601015393211
 20
2.749695632775528
 30
0.0
 10
25.72829391331634
 20
2.784416324734724
 30
0.0
 10
25.55778937833278
 20
2.83778920268093
 30
0.0
 10
25.47597516007117
 20
2.855934040263342
 30
0.0
 10
25.40098394779497
 20
2.864961072233499
 30
0.0
  0
SPLINE
  5
118
330
1F
100
AcDbEntity
  8
외형선
  6
Continuous
 62
     1
370
    15
100
AcDbSpline
210
0.0
220
0.0
230
1.0
 70
     8
 71
     3
 72
     8
 73
     4
 74
     0
 42
0.000000001
 43
0.00000001
 40
0.0
 40
0.0
 40
0.0
 40
0.0
 40
1.0
 40
1.0
 40
1.0
 40
1.0
 10
14.41768185505369
 20
-0.0957779112789857
 30
0.0
 10
14.56421267119705
 20
-0.1828233437758574
 30
0.0
 10
14.70477351261723
 20
-0.2689800303698436
 30
0.0
 10
14.82686242009884
 20
-0.3474127200928834
 30
0.0
  0
SPLINE
  5
119
330
1F
100
AcDbEntity
  8
외형선
  6
Continuous
 62
     1
370
    15
100
AcDbSpline
210
0.0
220
0.0
230
1.0
 70
     8
 71
     3
 72
    12
 73
     8
 74
     0
 42
0.000000001
 43
0.00000001
 40
0.0
 40
0.0
 40
0.0
 40
0.0
 40
0.5
 40
0.5
 40
0.75
 40
0.75
 40
1.0
 40
1.0
 40
1.0
 40
1.0
 10
14.58617994107702
 20
1.881388664333754
 30
0.0
 10
14.55716536251486
 20
1.567175407814944
 30
0.0
 10
14.52838727014439
 20
1.23917848324766
 30
0.0
 10
14.48699625487426
 20
0.7438978688745441
 30
0.0
 10
14.47365937545077
 20
0.5789462945058352
 30
0.0
 10
14.44605229557525
 20
0.2437887945084823
 30
0.0
 10
14.43195656042946
 20
0.0742687120103972
 30
0.0
 10
14.4176818551542
 20
-0.0957779113391942
 30
0.0
  0
SPLINE
  5
11A
330
1F
100
AcDbEntity
  8
외형선
  6
Continuous
 62
     1
370
    15
100
AcDbSpline
210
0.0
220
0.0
230
1.0
 70
     8
 71
     3
 72
    10
 73
     6
 74
     0
 42
0.000000001
 43
0.00000001
 40
0.0
 40
0.0
 40
0.0
 40
0.0
 40
0.5
 40
0.5
 40
1.0
 40
1.0
 40
1.0
 40
1.0
 10
27.10760099388021
 20
2.110435800209364
 30
0.0
 10
27.07856973710827
 20
1.803984882053771
 30
0.0
 10
27.04952196963979
 20
1.48104763905229
 30
0.0
 10
26.99334858764216
 20
0.8249823027140974
 30
0.0
 10
26.96688843545852
 20
0.4947190927650323
 30
0.0
 10
26.93878164456571
 20
0.1567487021476376
 30
0.0
  0
SPLINE
  5
11B
330
1F
100
AcDbEntity
  8
외형선
  6
Continuous
 62
     1
370
    15
100
AcDbSpline
210
0.0
220
0.0
230
1.0
 70
     8
 71
     3
 72
     8
 73
     4
 74
     0
 42
0.000000001
 43
0.00000001
 40
0.0
 40
0.0
 40
0.0
 40
0.0
 40
1.0
 40
1.0
 40
1.0
 40
1.0
 10
27.52104503903409
 20
1.854974954804928
 30
0.0
 10
27.39238009231282
 20
1.94008839389996
 30
0.0
 10
27.25064263189355
 20
2.030524986098908
 30
0.0
 10
27.10760099388022
 20
2.110435800209634
 30
0.0
  0
SPLINE
  5
11C
330
1F
100
AcDbEntity
  8
외형선
  6
Continuous
 62
     1
370
    15
100
AcDbSpline
210
0.0
220
0.0
230
1.0
 70
     8
 71
     3
 72
     8
 73
     4
 74
     0
 42
0.000000001
 43
0.00000001
 40
0.0
 40
0.0
 40
0.0
 40
0.0
 40
1.0
 40
1.0
 40
1.0
 40
1.0
 10
14.00398018466668
 20
0.1122634826200324
 30
0.0
 10
14.13272922896274
 20
0.0600384580757692
 30
0.0
 10
14.27451765257698
 20
-0.0152037879415182
 30
0.0
 10
14.41768185515425
 20
-0.0957779113387138
 30
0.0
  0
SPLINE
  5
11D
330
1F
100
AcDbEntity
  8
외형선
  6
Continuous
370
    15
100
AcDbSpline
210
0.0
220
0.0
230
1.0
 70
     8
 71
     3
 72
     8
 73
     4
 74
     0
 42
0.000000001
 43
0.00000001
 40
0.0
 40
0.0
 40
0.0
 40
0.0
 40
0.0000779558506663
 40
0.0000779558506663
 40
0.0000779558506663
 40
0.0000779558506663
 10
9.999999999998927
 20
2.271119579216237
 30
0.0
 10
10.01932289394561
 20
2.254139640722797
 30
0.0
 10
10.03826090413321
 20
2.236857944426506
 30
0.0
 10
10.05674152750126
 20
2.219324353596113
 30
0.0
  0
SPLINE
  5
11E
330
1F
100
AcDbEntity
  8
외형선
  6
Continuous
 62
     1
370
    15
100
AcDbSpline
210
0.0
220
0.0
230
1.0
 70
     8
 71
     3
 72
     8
 73
     4
 74
     0
 42
0.000000001
 43
0.00000001
 40
0.0
 40
0.0
 40
0.0
 40
0.0
 40
1.0
 40
1.0
 40
1.0
 40
1.0
 10
10.05674152750117
 20
2.219324353596064
 30
0.0
 10
10.13264254678625
 20
2.147312853266748
 30
0.0
 10
10.23657359616728
 20
2.094596422856562
 30
0.0
 10
10.32041211974968
 20
2.088285018055582
 30
0.0
  0
SPLINE
  5
11F
330
1F
100
AcDbEntity
  8
외형선
  6
Continuous
 62
     1
370
    15
100
AcDbSpline
210
0.0
220
0.0
230
1.0
 70
     8
 71
     3
 72
    12
 73
     8
 74
     0
 42
0.000000001
 43
0.00000001
 40
0.0
 40
0.0
 40
0.0
 40
0.0
 40
0.5
 40
0.5
 40
0.75
 40
0.75
 40
1.0
 40
1.0
 40
1.0
 40
1.0
 10
10.32041211974968
 20
2.088285018055587
 30
0.0
 10
10.48498851204846
 20
2.075895627258864
 30
0.0
 10
10.6669370934174
 20
2.006621748430382
 30
0.0
 10
10.93854927587848
 20
1.861456695193807
 30
0.0
 10
11.02625431452478
 20
1.80735259581594
 30
0.0
 10
11.19680286139176
 20
1.689030713929105
 30
0.0
 10
11.27866881520781
 20
1.625303721800848
 30
0.0
 10
11.35370632721617
 20
1.55893269103441
 30
0.0
  0
SPLINE
  5
120
330
1F
100
AcDbEntity
  8
외형선
  6
Continuous
 62
     1
370
    15
100
AcDbSpline
210
0.0
220
0.0
230
1.0
 70
     8
 71
     3
 72
     8
 73
     4
 74
     0
 42
0.000000001
 43
0.00000001
 40
0.0
 40
0.0
 40
0.0
 40
0.0
 40
1.0
 40
1.0
 40
1.0
 40
1.0
 10
11.35370632721617
 20
1.558932691034418
 30
0.0
 10
11.43009016359219
 20
1.491370830060055
 30
0.0
 10
11.53417991085253
 20
1.436394717182483
 30
0.0
 10
11.61754339568231
 20
1.420632680025626
 30
0.0
  0
SPLINE
  5
121
330
1F
100
AcDbEntity
  8
외형선
  6
Continuous
 62
     1
370
    15
100
AcDbSpline
210
0.0
220
0.0
230
1.0
 70
     8
 71
     3
 72
     8
 73
     4
 74
     0
 42
0.000000001
 43
0.00000001
 40
0.0
 40
0.0
 40
0.0
 40
0.0
 40
1.0
 40
1.0
 40
1.0
 40
1.0
 10
11.61754339568235
 20
1.420632680025646
 30
0.0
 10
11.74625556738167
 20
1.396296292973125
 30
0.0
 10
11.88815431864994
 20
1.339723823118509
 30
0.0
 10
12.03127972401256
 20
1.267333837489024
 30
0.0
  0
SPLINE
  5
122
330
1F
100
AcDbEntity
  8
외형선
  6
Continuous
 62
     1
370
    15
100
AcDbSpline
210
0.0
220
0.0
230
1.0
 70
     8
 71
     3
 72
     8
 73
     4
 74
     0
 42
0.000000001
 43
0.00000001
 40
0.0
 40
0.0
 40
0.0
 40
0.0
 40
1.0
 40
1.0
 40
1.0
 40
1.0
 10
12.03127972391205
 20
1.267333837550109
 30
0.0
 10
12.17802985016496
 20
1.178141054637268
 30
0.0
 10
12.3185883199704
 20
1.078563553781145
 30
0.0
 10
12.44073080262806
 20
0.9769176811597752
 30
0.0
  0
SPLINE
  5
123
330
1F
100
AcDbEntity
  8
외형선
  6
Continuous
 62
     1
370
    15
100
AcDbSpline
210
0.0
220
0.0
230
1.0
 70
     8
 71
     3
 72
     8
 73
     4
 74
     0
 42
0.000000001
 43
0.00000001
 40
0.0
 40
0.0
 40
0.0
 40
0.0
 40
1.0
 40
1.0
 40
1.0
 40
1.0
 10
12.44073080262805
 20
0.9769176811597882
 30
0.0
 10
12.51672573094292
 20
0.9136753871169098
 30
0.0
 10
12.62076231777636
 20
0.8565199968475763
 30
0.0
 10
12.70477923368536
 20
0.8315695679617054
 30
0.0
  0
SPLINE
  5
124
330
1F
100
AcDbEntity
  8
외형선
  6
Continuous
 62
     1
370
    15
100
AcDbSpline
210
0.0
220
0.0
230
1.0
 70
     8
 71
     3
 72
     8
 73
     4
 74
     0
 42
0.000000001
 43
0.00000001
 40
0.0
 40
0.0
 40
0.0
 40
0.0
 40
1.0
 40
1.0
 40
1.0
 40
1.0
 10
13.73998328637338
 20
0.2591574184692378
 30
0.0
 10
13.81644919735606
 20
0.2032067544493036
 30
0.0
 10
13.92056914594327
 20
0.1460978583888804
 30
0.0
 10
14.00398018466667
 20
0.1122634826200376
 30
0.0
  0
SPLINE
  5
125
330
1F
100
AcDbEntity
  8
외형선
  6
Continuous
 62
     1
370
    15
100
AcDbSpline
210
0.0
220
0.0
230
1.0
 70
     8
 71
     3
 72
     8
 73
     4
 74
     0
 42
0.000000001
 43
0.00000001
 40
0.0
 40
0.0
 40
0.0
 40
0.0
 40
1.0
 40
1.0
 40
1.0
 40
1.0
 10
14.82686242009792
 20
-0.3474127200922789
 30
0.0
 10
14.90276127030764
 20
-0.3961718669437766
 30
0.0
 10
15.00672394013003
 20
-0.4525866082408638
 30
0.0
 10
15.09059448579745
 20
-0.4938744326169565
 30
0.0
  0
SPLINE
  5
126
330
1F
100
AcDbEntity
  8
외형선
  6
Continuous
 62
     1
370
    15
100
AcDbSpline
210
0.0
220
0.0
230
1.0
 70
     8
 71
     3
 72
     8
 73
     4
 74
     0
 42
0.000000001
 43
0.00000001
 40
0.0
 40
0.0
 40
0.0
 40
0.0
 40
1.0
 40
1.0
 40
1.0
 40
1.0
 10
16.12387966102292
 20
-1.061712666644751
 30
0.0
 10
16.20020358747343
 20
-1.101433540773789
 30
0.0
 10
16.30423485963696
 20
-1.155861227643529
 30
0.0
 10
16.38760324763015
 20
-1.204741575929964
 30
0.0
  0
SPLINE
  5
127
330
1F
100
AcDbEntity
  8
외형선
  6
Continuous
 62
     1
370
    15
100
AcDbSpline
210
0.0
220
0.0
230
1.0
 70
     8
 71
     3
 72
     8
 73
     4
 74
     0
 42
0.000000001
 43
0.00000001
 40
0.0
 40
0.0
 40
0.0
 40
0.0
 40
1.0
 40
1.0
 40
1.0
 40
1.0
 10
17.21054774411111
 20
-1.640756417023812
 30
0.0
 10
17.2865346340718
 20
-1.67128442296906
 30
0.0
 10
17.39055931949142
 20
-1.722596035362703
 30
0.0
 10
17.47449328168204
 20
-1.777070674494172
 30
0.0
  0
SPLINE
  5
128
330
1F
100
AcDbEntity
  8
외형선
  6
Continuous
 62
     1
370
    15
100
AcDbSpline
210
0.0
220
0.0
230
1.0
 70
     8
 71
     3
 72
     8
 73
     4
 74
     0
 42
0.000000001
 43
0.00000001
 40
0.0
 40
0.0
 40
0.0
 40
0.0
 40
1.0
 40
1.0
 40
1.0
 40
1.0
 10
18.50953039311479
 20
-2.29507280907819
 30
0.0
 10
18.58603310212865
 20
-2.315046744185263
 30
0.0
 10
18.6902158104913
 20
-2.362065345517755
 30
0.0
 10
18.77369613641575
 20
-2.42193174433716
 30
0.0
  0
SPLINE
  5
129
330
1F
100
AcDbEntity
  8
외형선
  6
Continuous
 62
     1
370
    15
100
AcDbSpline
210
0.0
220
0.0
230
1.0
 70
     8
 71
     3
 72
     8
 73
     4
 74
     0
 42
0.000000001
 43
0.00000001
 40
0.0
 40
0.0
 40
0.0
 40
0.0
 40
1.0
 40
1.0
 40
1.0
 40
1.0
 10
18.77369613641515
 20
-2.42193174433672
 30
0.0
 10
18.90247306989486
 20
-2.514281782181702
 30
0.0
 10
19.04443478577453
 20
-2.605745095761568
 30
0.0
 10
19.1876601460156
 20
-2.681968884717689
 30
0.0
  0
SPLINE
  5
12A
330
1F
100
AcDbEntity
  8
외형선
  6
Continuous
 62
     1
370
    15
100
AcDbSpline
210
0.0
220
0.0
230
1.0
 70
     8
 71
     3
 72
     8
 73
     4
 74
     0
 42
0.000000001
 43
0.00000001
 40
0.0
 40
0.0
 40
0.0
 40
0.0
 40
1.0
 40
1.0
 40
1.0
 40
1.0
 10
19.18766014591508
 20
-2.68196888467543
 30
0.0
 10
19.33436239530104
 20
-2.743638205935424
 30
0.0
 10
19.47494512038062
 20
-2.78388297067161
 30
0.0
 10
19.59700598369651
 20
-2.799651464939574
 30
0.0
  0
SPLINE
  5
12B
330
1F
100
AcDbEntity
  8
외형선
  6
Continuous
 62
     1
370
    15
100
AcDbSpline
210
0.0
220
0.0
230
1.0
 70
     8
 71
     3
 72
     8
 73
     4
 74
     0
 42
0.000000001
 43
0.00000001
 40
0.0
 40
0.0
 40
0.0
 40
0.0
 40
1.0
 40
1.0
 40
1.0
 40
1.0
 10
19.59700598369621
 20
-2.79965146493962
 30
0.0
 10
19.67294245965619
 20
-2.809461356934282
 30
0.0
 10
19.77685500010001
 20
-2.851532626282286
 30
0.0
 10
19.86074470682412
 20
-2.914716441357391
 30
0.0
  0
SPLINE
  5
12C
330
1F
100
AcDbEntity
  8
외형선
  6
Continuous
 62
     1
370
    15
100
AcDbSpline
210
0.0
220
0.0
230
1.0
 70
     8
 71
     3
 72
    12
 73
     8
 74
     0
 42
0.000000001
 43
0.00000001
 40
0.0
 40
0.0
 40
0.0
 40
0.0
 40
0.4999999999999982
 40
0.4999999999999982
 40
0.7499999999999991
 40
0.7499999999999991
 40
1.0
 40
1.0
 40
1.0
 40
1.0
 10
19.86074470682412
 20
-2.914716441357384
 30
0.0
 10
20.02523560742224
 20
-3.038607238581291
 30
0.0
 10
20.20732741689188
 20
-3.149011200646043
 30
0.0
 10
20.47901098738791
 20
-3.262759202360008
 30
0.0
 10
20.56672569247384
 20
-3.291223837529013
 30
0.0
 10
20.73726930659634
 20
-3.329084922883099
 30
0.0
 10
20.81911683572786
 20
-3.338012552111998
 30
0.0
 10
20.89412679707984
 20
-3.336647837363496
 30
0.0
  0
SPLINE
  5
12D
330
1F
100
AcDbEntity
  8
외형선
  6
Continuous
 62
     1
370
    15
100
AcDbSpline
210
0.0
220
0.0
230
1.0
 70
     8
 71
     3
 72
     8
 73
     4
 74
     0
 42
0.000000001
 43
0.00000001
 40
0.0
 40
0.0
 40
0.0
 40
0.0
 40
1.0
 40
1.0
 40
1.0
 40
1.0
 10
20.89412679707984
 20
-3.336647837363495
 30
0.0
 10
20.97048551304995
 20
-3.335258583669945
 30
0.0
 10
21.07454027774115
 20
-3.371114816329084
 30
0.0
 10
21.15786411028743
 20
-3.437015215870657
 30
0.0
  0
SPLINE
  5
12E
330
1F
100
AcDbEntity
  8
외형선
  6
Continuous
 62
     1
370
    15
100
AcDbSpline
210
0.0
220
0.0
230
1.0
 70
     8
 71
     3
 72
     8
 73
     4
 74
     0
 42
0.000000001
 43
0.00000001
 40
0.0
 40
0.0
 40
0.0
 40
0.0
 40
1.0
 40
1.0
 40
1.0
 40
1.0
 10
21.15786411028711
 20
-3.437015215870394
 30
0.0
 10
21.28653227995699
 20
-3.538778223288673
 30
0.0
 10
21.4283573508873
 20
-3.627513753949964
 30
0.0
 10
21.5713680550059
 20
-3.692129109155947
 30
0.0
  0
SPLINE
  5
12F
330
1F
100
AcDbEntity
  8
외형선
  6
Continuous
 62
     1
370
    15
100
AcDbSpline
210
0.0
220
0.0
230
1.0
 70
     8
 71
     3
 72
     8
 73
     4
 74
     0
 42
0.000000001
 43
0.00000001
 40
0.0
 40
0.0
 40
0.0
 40
0.0
 40
1.0
 40
1.0
 40
1.0
 40
1.0
 10
21.57136805490546
 20
-3.69212910912789
 30
0.0
 10
21.71790524558689
 20
-3.73306206037661
 30
0.0
 10
21.85837103329958
 20
-3.744387903194162
 30
0.0
 10
21.98046914240208
 20
-3.725315501770742
 30
0.0
  0
SPLINE
  5
130
330
1F
100
AcDbEntity
  8
외형선
  6
Continuous
 62
     1
370
    15
100
AcDbSpline
210
0.0
220
0.0
230
1.0
 70
     8
 71
     3
 72
     8
 73
     4
 74
     0
 42
0.000000001
 43
0.00000001
 40
0.0
 40
0.0
 40
0.0
 40
0.0
 40
1.0
 40
1.0
 40
1.0
 40
1.0
 10
21.98046914240208
 20
-3.725315501770742
 30
0.0
 10
22.0563909890416
 20
-3.713456088495956
 30
0.0
 10
22.16037580534843
 20
-3.742449372555848
 30
0.0
 10
22.24429416324592
 20
-3.808817456732681
 30
0.0
  0
SPLINE
  5
131
330
1F
100
AcDbEntity
  8
외형선
  6
Continuous
 62
     1
370
    15
100
AcDbSpline
210
0.0
220
0.0
230
1.0
 70
     8
 71
     3
 72
    12
 73
     8
 74
     0
 42
0.000000001
 43
0.00000001
 40
0.0
 40
0.0
 40
0.0
 40
0.0
 40
0.5000000000000002
 40
0.5000000000000002
 40
0.7500000000000001
 40
0.7500000000000001
 40
1.0
 40
1.0
 40
1.0
 40
1.0
 10
22.24429416324592
 20
-3.808817456732684
 30
0.0
 10
22.40909191119202
 20
-3.939150212066137
 30
0.0
 10
22.59155005416712
 20
-4.037297968835564
 30
0.0
 10
22.86352339756465
 20
-4.115417766672625
 30
0.0
 10
22.95130979488143
 20
-4.129450768599772
 30
0.0
 10
23.12196756488128
 20
-4.133773562405048
 30
0.0
 10
23.20387278810841
 20
-4.123709595995987
 30
0.0
 10
23.2789591765016
 20
-4.101706285901712
 30
0.0
  0
SPLINE
  5
132
330
1F
100
AcDbEntity
  8
외형선
  6
Continuous
 62
     1
370
    15
100
AcDbSpline
210
0.0
220
0.0
230
1.0
 70
     8
 71
     3
 72
     8
 73
     4
 74
     0
 42
0.000000001
 43
0.00000001
 40
0.0
 40
0.0
 40
0.0
 40
0.0
 40
1.0
 40
1.0
 40
1.0
 40
1.0
 10
23.2789591765016
 20
-4.101706285901716
 30
0.0
 10
23.3555211250982
 20
-4.079270577746841
 30
0.0
 10
23.4596892484954
 20
-4.101119708500574
 30
0.0
 10
23.5432131140618
 20
-4.167806969316824
 30
0.0
  0
SPLINE
  5
133
330
1F
100
AcDbEntity
  8
외형선
  6
Continuous
 62
     1
370
    15
100
AcDbSpline
210
0.0
220
0.0
230
1.0
 70
     8
 71
     3
 72
     8
 73
     4
 74
     0
 42
0.000000001
 43
0.00000001
 40
0.0
 40
0.0
 40
0.0
 40
0.0
 40
1.0
 40
1.0
 40
1.0
 40
1.0
 10
23.54321311406182
 20
-4.167806969316842
 30
0.0
 10
23.67201611774111
 20
-4.270646073350496
 30
0.0
 10
23.81399695190578
 20
-4.349219701331545
 30
0.0
 10
23.95732990327802
 20
-4.396600865870792
 30
0.0
  0
SPLINE
  5
134
330
1F
100
AcDbEntity
  8
외형선
  6
Continuous
 62
     1
370
    15
100
AcDbSpline
210
0.0
220
0.0
230
1.0
 70
     8
 71
     3
 72
     8
 73
     4
 74
     0
 42
0.000000001
 43
0.00000001
 40
0.0
 40
0.0
 40
0.0
 40
0.0
 40
1.0
 40
1.0
 40
1.0
 40
1.0
 10
23.95732990317643
 20
-4.396600865859343
 30
0.0
 10
24.10402694821486
 20
-4.413048932260399
 30
0.0
 10
24.24471853445928
 20
-4.394207011293948
 30
0.0
 10
24.36691805054854
 20
-4.3418819597215
 30
0.0
  0
SPLINE
  5
135
330
1F
100
AcDbEntity
  8
외형선
  6
Continuous
 62
     1
370
    15
100
AcDbSpline
210
0.0
220
0.0
230
1.0
 70
     8
 71
     3
 72
     8
 73
     4
 74
     0
 42
0.000000001
 43
0.00000001
 40
0.0
 40
0.0
 40
0.0
 40
0.0
 40
1.0
 40
1.0
 40
1.0
 40
1.0
 10
24.36691805054854
 20
-4.341881959721504
 30
0.0
 10
24.44288739703567
 20
-4.309352371224924
 30
0.0
 10
24.54690008981803
 20
-4.323001217176558
 30
0.0
 10
24.63081714444434
 20
-4.387199238161829
 30
0.0
  0
SPLINE
  5
136
330
1F
100
AcDbEntity
  8
외형선
  6
Continuous
 62
     1
370
    15
100
AcDbSpline
210
0.0
220
0.0
230
1.0
 70
     8
 71
     3
 72
    12
 73
     8
 74
     0
 42
0.000000001
 43
0.00000001
 40
0.0
 40
0.0
 40
0.0
 40
0.0
 40
0.5000000000000034
 40
0.5000000000000034
 40
0.7500000000000017
 40
0.7500000000000017
 40
1.0
 40
1.0
 40
1.0
 40
1.0
 10
24.63081714444434
 20
-4.387199238161823
 30
0.0
 10
24.79554371126667
 20
-4.513217955582083
 30
0.0
 10
24.97784143863912
 20
-4.591064318247271
 30
0.0
 10
25.24944212098152
 20
-4.627190197956812
 30
0.0
 10
25.33705809261184
 20
-4.625660048442463
 30
0.0
 10
25.50747276450064
 20
-4.595974575973054
 30
0.0
 10
25.5892974208475
 20
-4.567597248340331
 30
0.0
 10
25.66430944591507
 20
-4.526508597566099
 30
0.0
  0
SPLINE
  5
137
330
1F
100
AcDbEntity
  8
외형선
  6
Continuous
 62
     1
370
    15
100
AcDbSpline
210
0.0
220
0.0
230
1.0
 70
     8
 71
     3
 72
     8
 73
     4
 74
     0
 42
0.000000001
 43
0.00000001
 40
0.0
 40
0.0
 40
0.0
 40
0.0
 40
0.6216185236152698
 40
0.6216185236152698
 40
0.6216185236152698
 40
0.6216185236152698
 10
25.66430944591507
 20
-4.526508597566099
 30
0.0
 10
25.71175938680276
 20
-4.500517377509905
 30
0.0
 10
25.76991812333148
 20
-4.492916845050707
 30
0.0
 10
25.82715667375356
 20
-4.505682617113914
 30
0.0
  0
SPLINE
  5
13C
330
1F
100
AcDbEntity
  8
외형선
  6
Continuous
 62
     1
370
    15
100
AcDbSpline
210
0.0
220
0.0
230
1.0
 70
     8
 71
     3
 72
    12
 73
     8
 74
     0
 42
0.000000001
 43
0.00000001
 40
0.0
 40
0.0
 40
0.0
 40
0.0
 40
0.1422524968588939
 40
0.2926157994393826
 40
0.5087395216907813
 40
0.7248815780420809
 40
0.9999999999999999
 40
0.9999999999999999
 40
0.9999999999999999
 40
0.9999999999999999
 10
22.56447261852214
 20
-4.008493666188086
 30
0.0
 10
22.52777823146381
 20
-4.025898339575136
 30
0.0
 10
22.45229725474209
 20
-4.06170004801323
 30
0.0
 10
22.32004867589638
 20
-4.106921159935978
 30
0.0
 10
22.1703773431693
 20
-4.138801084505821
 30
0.0
 10
21.99388018143386
 20
-4.149470344829277
 30
0.0
 10
21.88431745639911
 20
-4.125440380956592
 30
0.0
 10
21.82295953051687
 20
-4.111982987104939
 30
0.0
  0
SPLINE
  5
13D
330
1F
100
AcDbEntity
  8
외형선
  6
Continuous
 62
     1
370
    15
100
AcDbSpline
210
0.0
220
0.0
230
1.0
 70
     8
 71
     3
 72
     8
 73
     4
 74
     0
 42
0.000000001
 43
0.00000001
 40
0.0
 40
0.0
 40
0.0
 40
0.0
 40
1.0
 40
1.0
 40
1.0
 40
1.0
 10
21.82295953051687
 20
-4.11198298710494
 30
0.0
 10
21.74660285364575
 20
-4.089157154679607
 30
0.0
 10
21.64261563443743
 20
-4.110747223419569
 30
0.0
 10
21.55927350167915
 20
-4.177310634940418
 30
0.0
  0
SPLINE
  5
13E
330
1F
100
AcDbEntity
  8
외형선
  6
Continuous
 62
     1
370
    15
100
AcDbSpline
210
0.0
220
0.0
230
1.0
 70
     8
 71
     3
 72
     8
 73
     4
 74
     0
 42
0.000000001
 43
0.00000001
 40
0.0
 40
0.0
 40
0.0
 40
0.0
 40
1.0
 40
1.0
 40
1.0
 40
1.0
 10
21.55927350167915
 20
-4.177310634940421
 30
0.0
 10
21.43068459598453
 20
-4.280011585389966
 30
0.0
 10
21.28889538084583
 20
-4.358310054504765
 30
0.0
 10
21.14574954701386
 20
-4.405318599583623
 30
0.0
  0
SPLINE
  5
13F
330
1F
100
AcDbEntity
  8
외형선
  6
Continuous
 62
     1
370
    15
100
AcDbSpline
210
0.0
220
0.0
230
1.0
 70
     8
 71
     3
 72
     8
 73
     4
 74
     0
 42
0.000000001
 43
0.00000001
 40
0.0
 40
0.0
 40
0.0
 40
0.0
 40
1.0
 40
1.0
 40
1.0
 40
1.0
 10
21.14574954701384
 20
-4.40531859958363
 30
0.0
 10
20.99916740605857
 20
-4.421303908825887
 30
0.0
 10
20.8586149496869
 20
-4.401913043953474
 30
0.0
 10
20.7365325159259
 20
-4.349089053464335
 30
0.0
  0
SPLINE
  5
140
330
1F
100
AcDbEntity
  8
외형선
  6
Continuous
 62
     1
370
    15
100
AcDbSpline
210
0.0
220
0.0
230
1.0
 70
     8
 71
     3
 72
     8
 73
     4
 74
     0
 42
0.000000001
 43
0.00000001
 40
0.0
 40
0.0
 40
0.0
 40
0.0
 40
1.0
 40
1.0
 40
1.0
 40
1.0
 10
20.73653251592589
 20
-4.349089053464326
 30
0.0
 10
20.66057841779963
 20
-4.316224386260139
 30
0.0
 10
20.55657136188841
 20
-4.329630575798124
 30
0.0
 10
20.47266035967262
 20
-4.393738915618119
 30
0.0
  0
SPLINE
  5
141
330
1F
100
AcDbEntity
  8
외형선
  6
Continuous
 62
     1
370
    15
100
AcDbSpline
210
0.0
220
0.0
230
1.0
 70
     8
 71
     3
 72
    12
 73
     8
 74
     0
 42
0.000000001
 43
0.00000001
 40
0.0
 40
0.0
 40
0.0
 40
0.0
 40
0.5000000000000002
 40
0.5000000000000002
 40
0.7500000000000001
 40
0.7500000000000001
 40
1.0
 40
1.0
 40
1.0
 40
1.0
 10
20.47266035967261
 20
-4.393738915618124
 30
0.0
 10
20.30774796066588
 20
-4.519732645127712
 30
0.0
 10
20.1252290626594
 20
-4.597175633182421
 30
0.0
 10
19.85337746413437
 20
-4.632536431483042
 30
0.0
 10
19.76567645733758
 20
-4.630736748830016
 30
0.0
 10
19.59504528390441
 20
-4.600500620978617
 30
0.0
 10
19.51309292579887
 20
-4.571852989674666
 30
0.0
 10
19.43793406439805
 20
-4.530520248173555
 30
0.0
  0
SPLINE
  5
142
330
1F
100
AcDbEntity
  8
외형선
  6
Continuous
 62
     1
370
    15
100
AcDbSpline
210
0.0
220
0.0
230
1.0
 70
     8
 71
     3
 72
     8
 73
     4
 74
     0
 42
0.000000001
 43
0.00000001
 40
0.0
 40
0.0
 40
0.0
 40
0.0
 40
1.0
 40
1.0
 40
1.0
 40
1.0
 10
19.43793406439805
 20
-4.530520248173556
 30
0.0
 10
19.36139780651489
 20
-4.488430023500286
 30
0.0
 10
19.25718792026745
 20
-4.493894229414381
 30
0.0
 10
19.1736595505061
 20
-4.555418935006049
 30
0.0
  0
SPLINE
  5
143
330
1F
100
AcDbEntity
  8
외형선
  6
Continuous
 62
     1
370
    15
100
AcDbSpline
210
0.0
220
0.0
230
1.0
 70
     8
 71
     3
 72
     8
 73
     4
 74
     0
 42
0.000000001
 43
0.00000001
 40
0.0
 40
0.0
 40
0.0
 40
0.0
 40
1.0
 40
1.0
 40
1.0
 40
1.0
 10
19.1736595505061
 20
-4.555418935006052
 30
0.0
 10
19.0448449344823
 20
-4.650300247180724
 30
0.0
 10
18.90284152551223
 20
-4.711732031652021
 30
0.0
 10
18.75954943304781
 20
-4.737632136613501
 30
0.0
  0
SPLINE
  5
144
330
1F
100
AcDbEntity
  8
외형선
  6
Continuous
 62
     1
370
    15
100
AcDbSpline
210
0.0
220
0.0
230
1.0
 70
     8
 71
     3
 72
     8
 73
     4
 74
     0
 42
0.000000001
 43
0.00000001
 40
0.0
 40
0.0
 40
0.0
 40
0.0
 40
1.0
 40
1.0
 40
1.0
 40
1.0
 10
18.75954943304765
 20
-4.737632136613526
 30
0.0
 10
18.61281263199491
 20
-4.72793918034995
 30
0.0
 10
18.47216449453156
 20
-4.680236192838971
 30
0.0
 10
18.35003393205215
 20
-4.598690661257704
 30
0.0
  0
SPLINE
  5
145
330
1F
100
AcDbEntity
  8
외형선
  6
Continuous
 62
     1
370
    15
100
AcDbSpline
210
0.0
220
0.0
230
1.0
 70
     8
 71
     3
 72
     8
 73
     4
 74
     0
 42
0.000000001
 43
0.00000001
 40
0.0
 40
0.0
 40
0.0
 40
0.0
 40
1.0
 40
1.0
 40
1.0
 40
1.0
 10
18.35003393205212
 20
-4.598690661257685
 30
0.0
 10
18.27406954550243
 20
-4.547969890332846
 30
0.0
 10
18.17009669325148
 20
-4.544925687583177
 30
0.0
 10
18.08620397537162
 20
-4.601467957709628
 30
0.0
  0
SPLINE
  5
146
330
1F
100
AcDbEntity
  8
외형선
  6
Continuous
 62
     1
370
    15
100
AcDbSpline
210
0.0
220
0.0
230
1.0
 70
     8
 71
     3
 72
    12
 73
     8
 74
     0
 42
0.000000001
 43
0.00000001
 40
0.0
 40
0.0
 40
0.0
 40
0.0
 40
0.5
 40
0.5
 40
0.75
 40
0.75
 40
1.0
 40
1.0
 40
1.0
 40
1.0
 10
18.08620397537161
 20
-4.601467957709632
 30
0.0
 10
17.92162208909483
 20
-4.712393359901392
 30
0.0
 10
17.73964249288957
 20
-4.762925366761111
 30
0.0
 10
17.46796404402941
 20
-4.753148681312073
 30
0.0
 10
17.38024064887517
 20
-4.73582864552723
 30
0.0
 10
17.20966380555102
 20
-4.674000208976564
 30
0.0
 10
17.12778944709254
 20
-4.629443140777378
 30
0.0
 10
17.05275277946471
 20
-4.572567492329884
 30
0.0
  0
SPLINE
  5
147
330
1F
100
AcDbEntity
  8
외형선
  6
Continuous
 62
     1
370
    15
100
AcDbSpline
210
0.0
220
0.0
230
1.0
 70
     8
 71
     3
 72
     8
 73
     4
 74
     0
 42
0.000000001
 43
0.00000001
 40
0.0
 40
0.0
 40
0.0
 40
0.0
 40
1.0
 40
1.0
 40
1.0
 40
1.0
 10
17.05275277946471
 20
-4.572567492329886
 30
0.0
 10
16.97639848449557
 20
-4.514693120034198
 30
0.0
 10
16.8723384310742
 20
-4.503816262229468
 30
0.0
 10
16.78901079814502
 20
-4.555175519891054
 30
0.0
  0
SPLINE
  5
148
330
1F
100
AcDbEntity
  8
외형선
  6
Continuous
 62
     1
370
    15
100
AcDbSpline
210
0.0
220
0.0
230
1.0
 70
     8
 71
     3
 72
     8
 73
     4
 74
     0
 42
0.000000001
 43
0.00000001
 40
0.0
 40
0.0
 40
0.0
 40
0.0
 40
1.0
 40
1.0
 40
1.0
 40
1.0
 10
16.78901079814502
 20
-4.55517551989106
 30
0.0
 10
16.66036652981678
 20
-4.634465833218118
 30
0.0
 10
16.51854496869835
 20
-4.674015340892106
 30
0.0
 10
16.37550186906296
 20
-4.676656369779796
 30
0.0
  0
SPLINE
  5
149
330
1F
100
AcDbEntity
  8
외형선
  6
Continuous
 62
     1
370
    15
100
AcDbSpline
210
0.0
220
0.0
230
1.0
 70
     8
 71
     3
 72
     8
 73
     4
 74
     0
 42
0.000000001
 43
0.00000001
 40
0.0
 40
0.0
 40
0.0
 40
0.0
 40
1.0
 40
1.0
 40
1.0
 40
1.0
 10
16.37550186906296
 20
-4.676656369779793
 30
0.0
 10
16.22889436598761
 20
-4.642067009366458
 30
0.0
 10
16.08849914761011
 20
-4.569892568376114
 30
0.0
 10
15.96647760454719
 20
-4.466346634604824
 30
0.0
  0
SPLINE
  5
14A
330
1F
100
AcDbEntity
  8
외형선
  6
Continuous
 62
     1
370
    15
100
AcDbSpline
210
0.0
220
0.0
230
1.0
 70
     8
 71
     3
 72
     8
 73
     4
 74
     0
 42
0.000000001
 43
0.00000001
 40
0.0
 40
0.0
 40
0.0
 40
0.0
 40
1.0
 40
1.0
 40
1.0
 40
1.0
 10
15.96647760454717
 20
-4.4663466346048
 30
0.0
 10
15.89058898610733
 20
-4.401948515537295
 30
0.0
 10
15.78663886915836
 20
-4.38265929522577
 30
0.0
 10
15.70273389502814
 20
-4.426919562802436
 30
0.0
  0
SPLINE
  5
14B
330
1F
100
AcDbEntity
  8
외형선
  6
Continuous
 62
     1
370
    15
100
AcDbSpline
210
0.0
220
0.0
230
1.0
 70
     8
 71
     3
 72
    12
 73
     8
 74
     0
 42
0.000000001
 43
0.00000001
 40
0.0
 40
0.0
 40
0.0
 40
0.0
 40
0.5000000000000009
 40
0.5000000000000009
 40
0.7500000000000004
 40
0.7500000000000004
 40
1.0
 40
1.0
 40
1.0
 40
1.0
 10
15.70273389502815
 20
-4.426919562802444
 30
0.0
 10
15.53804314324779
 20
-4.513794707175744
 30
0.0
 10
15.35569767252435
 20
-4.533279060567558
 30
0.0
 10
15.08380259654468
 20
-4.479141630537706
 30
0.0
 10
14.99603269366472
 20
-4.447763509333887
 30
0.0
 10
14.82539561625553
 20
-4.359580207457868
 30
0.0
 10
14.74349862945504
 20
-4.302886986453066
 30
0.0
 10
14.66842374990348
 20
-4.235305003687434
 30
0.0
  0
SPLINE
  5
14C
330
1F
100
AcDbEntity
  8
외형선
  6
Continuous
 62
     1
370
    15
100
AcDbSpline
210
0.0
220
0.0
230
1.0
 70
     8
 71
     3
 72
     8
 73
     4
 74
     0
 42
0.000000001
 43
0.00000001
 40
0.0
 40
0.0
 40
0.0
 40
0.0
 40
1.0
 40
1.0
 40
1.0
 40
1.0
 10
14.66842374990349
 20
-4.235305003687444
 30
0.0
 10
14.59189777138912
 20
-4.166416749827128
 30
0.0
 10
14.48772420437166
 20
-4.139956439260675
 30
0.0
 10
14.40424359684375
 20
-4.176873448117592
 30
0.0
  0
SPLINE
  5
14D
330
1F
100
AcDbEntity
  8
외형선
  6
Continuous
 62
     1
370
    15
100
AcDbSpline
210
0.0
220
0.0
230
1.0
 70
     8
 71
     3
 72
     8
 73
     4
 74
     0
 42
0.000000001
 43
0.00000001
 40
0.0
 40
0.0
 40
0.0
 40
0.0
 40
1.0
 40
1.0
 40
1.0
 40
1.0
 10
14.40424359684376
 20
-4.176873448117596
 30
0.0
 10
14.27534085381208
 20
-4.233877150499502
 30
0.0
 10
14.13337802246664
 20
-4.24791044325171
 30
0.0
 10
13.99002672641127
 20
-4.226950660583944
 30
0.0
  0
SPLINE
  5
14E
330
1F
100
AcDbEntity
  8
외형선
  6
Continuous
 62
     1
370
    15
100
AcDbSpline
210
0.0
220
0.0
230
1.0
 70
     8
 71
     3
 72
     8
 73
     4
 74
     0
 42
0.000000001
 43
0.00000001
 40
0.0
 40
0.0
 40
0.0
 40
0.0
 40
1.0
 40
1.0
 40
1.0
 40
1.0
 10
13.99002672641125
 20
-4.226950660583936
 30
0.0
 10
13.84330528639811
 20
-4.170276956381065
 30
0.0
 10
13.70255314849705
 20
-4.079730742575966
 30
0.0
 10
13.58027681336533
 20
-3.962781024093832
 30
0.0
  0
SPLINE
  5
14F
330
1F
100
AcDbEntity
  8
외형선
  6
Continuous
 62
     1
370
    15
100
AcDbSpline
210
0.0
220
0.0
230
1.0
 70
     8
 71
     3
 72
     8
 73
     4
 74
     0
 42
0.000000001
 43
0.00000001
 40
0.0
 40
0.0
 40
0.0
 40
0.0
 40
1.0
 40
1.0
 40
1.0
 40
1.0
 10
13.5802768133653
 20
-3.962781024093803
 30
0.0
 10
13.50428183327571
 20
-3.890096546611224
 30
0.0
 10
13.40024433400199
 20
-3.856239374028472
 30
0.0
 10
13.3162920821337
 20
-3.884574666184907
 30
0.0
  0
SPLINE
  5
150
330
1F
100
AcDbEntity
  8
외형선
  6
Continuous
 62
     1
370
    15
100
AcDbSpline
210
0.0
220
0.0
230
1.0
 70
     8
 71
     3
 72
    10
 73
     6
 74
     0
 42
0.000000001
 43
0.00000001
 40
0.0
 40
0.0
 40
0.0
 40
0.0
 40
0.4999999999999993
 40
0.4999999999999993
 40
1.0
 40
1.0
 40
1.0
 40
1.0
 10
13.3162920821337
 20
-3.884574666184902
 30
0.0
 10
13.15154088024799
 20
-3.940180958269584
 30
0.0
 10
12.96919331551175
 20
-3.926992025882499
 30
0.0
 10
12.60686673934064
 20
-3.801583702560063
 30
0.0
 10
12.43252363856173
 20
-3.691223726652057
 30
0.0
 10
12.28255730550497
 20
-3.545557919589756
 30
0.0
  0
SPLINE
  5
151
330
1F
100
AcDbEntity
  8
외형선
  6
Continuous
 62
     1
370
    15
100
AcDbSpline
210
0.0
220
0.0
230
1.0
 70
     8
 71
     3
 72
     8
 73
     4
 74
     0
 42
0.000000001
 43
0.00000001
 40
0.0
 40
0.0
 40
0.0
 40
0.0
 40
1.0
 40
1.0
 40
1.0
 40
1.0
 10
12.28255730550495
 20
-3.545557919589736
 30
0.0
 10
12.20622968081933
 20
-3.471419112403117
 30
0.0
 10
12.10219486630749
 20
-3.431587523552231
 30
0.0
 10
12.01883496079061
 20
-3.451097158494274
 30
0.0
  0
SPLINE
  5
152
330
1F
100
AcDbEntity
  8
외형선
  6
Continuous
 62
     1
370
    15
100
AcDbSpline
210
0.0
220
0.0
230
1.0
 70
     8
 71
     3
 72
     8
 73
     4
 74
     0
 42
0.000000001
 43
0.00000001
 40
0.0
 40
0.0
 40
0.0
 40
0.0
 40
1.0
 40
1.0
 40
1.0
 40
1.0
 10
12.0188349607906
 20
-3.451097158494277
 30
0.0
 10
11.89024246022638
 20
-3.481193074831233
 30
0.0
 10
11.74844457062295
 20
-3.469211182958875
 30
0.0
 10
11.60531806723522
 20
-3.426722476993561
 30
0.0
  0
SPLINE
  5
153
330
1F
100
AcDbEntity
  8
외형선
  6
Continuous
 62
     1
370
    15
100
AcDbSpline
210
0.0
220
0.0
230
1.0
 70
     8
 71
     3
 72
     8
 73
     4
 74
     0
 42
0.000000001
 43
0.00000001
 40
0.0
 40
0.0
 40
0.0
 40
0.0
 40
1.0
 40
1.0
 40
1.0
 40
1.0
 10
11.60531806723523
 20
-3.426722476993562
 30
0.0
 10
11.4587525396796
 20
-3.352924962090286
 30
0.0
 10
11.31825652763553
 20
-3.251598976945512
 30
0.0
 10
11.19625935046949
 20
-3.131149685036999
 30
0.0
  0
SPLINE
  5
154
330
1F
100
AcDbEntity
  8
외형선
  6
Continuous
 62
     1
370
    15
100
AcDbSpline
210
0.0
220
0.0
230
1.0
 70
     8
 71
     3
 72
     8
 73
     4
 74
     0
 42
0.000000001
 43
0.00000001
 40
0.0
 40
0.0
 40
0.0
 40
0.0
 40
1.0
 40
1.0
 40
1.0
 40
1.0
 10
11.19625935046949
 20
-3.13114968503699
 30
0.0
 10
11.12035251191164
 20
-3.056205943159554
 30
0.0
 10
11.01640112721667
 20
-3.01061179163919
 30
0.0
 10
10.93254923868236
 20
-3.020611682653754
 30
0.0
  0
SPLINE
  5
155
330
1F
100
AcDbEntity
  8
외형선
  6
Continuous
 62
     1
370
    15
100
AcDbSpline
210
0.0
220
0.0
230
1.0
 70
     8
 71
     3
 72
    10
 73
     6
 74
     0
 42
0.000000001
 43
0.00000001
 40
0.0
 40
0.0
 40
0.0
 40
0.0
 40
0.5
 40
0.5
 40
1.0
 40
1.0
 40
1.0
 40
1.0
 10
10.93254923868237
 20
-3.020611682653767
 30
0.0
 10
10.78577298305696
 20
-3.038115719658006
 30
0.0
 10
10.62510950550269
 20
-3.003839795194341
 30
0.0
 10
10.30255075710286
 20
-2.869906563376885
 30
0.0
 10
10.14369706312636
 20
-2.771668891674533
 30
0.0
 10
9.999999999998144
 20
-2.652463929253168
 30
0.0
  0
SPLINE
  5
156
330
1F
100
AcDbEntity
  8
외형선
  6
Continuous
370
    15
100
AcDbSpline
210
0.0
220
0.0
230
1.0
 70
    24
 71
     3
 72
    22
 73
    18
 74
     0
 42
0.000000001
 43
0.00000001
 40
0.0
 40
0.0
 40
0.0
 40
0.0
 40
0.0624999999999999
 40
0.0624999999999999
 40
0.1249999999999998
 40
0.1249999999999998
 40
0.2499999999999998
 40
0.2499999999999998
 40
0.4999999999999999
 40
0.4999999999999999
 40
0.6249999999999999
 40
0.6249999999999999
 40
0.7499999999999999
 40
0.7499999999999999
 40
0.8749999999999999
 40
0.8749999999999999
 40
1.0
 40
1.0
 40
1.0
 40
1.0
 10
9.999999999999996
 20
2.271119579215851
 30
0.0
 10
9.999999999999995
 20
2.22158159262012
 30
0.0
 10
9.999999999999996
 20
2.17279696243136
 30
0.0
 10
9.999999999999996
 20
2.067763589750996
 30
0.0
 10
9.999999999999996
 20
2.011620627313528
 30
0.0
 10
9.999999999999996
 20
1.83122541767558
 30
0.0
 10
9.999999999999996
 20
1.694950515354444
 30
0.0
 10
9.999999999999996
 20
1.230524536300603
 30
0.0
 10
9.999999999999996
 20
0.8434705796041414
 30
0.0
 10
9.999999999999996
 20
0.1513762967408194
 30
0.0
 10
9.999999999999996
 20
-0.0972014523924705
 30
0.0
 10
9.999999999999996
 20
-0.6167740355597344
 30
0.0
 10
9.999999999999996
 20
-0.8877256997808313
 30
0.0
 10
9.999999999999996
 20
-1.42841150088347
 30
0.0
 10
9.999999999999996
 20
-1.697904921445319
 30
0.0
 10
9.999999999999996
 20
-2.205682573362894
 30
0.0
 10
9.999999999999996
 20
-2.443618300543447
 30
0.0
 10
9.999999999999996
 20
-2.652463929253079
 30
0.0
  0
SPLINE
  5
157
330
1F
100
AcDbEntity
  8
외형선
  6
Continuous
 62
     1
370
    15
100
AcDbSpline
210
0.0
220
0.0
230
1.0
 70
     8
 71
     3
 72
     8
 73
     4
 74
     0
 42
0.000000001
 43
0.00000001
 40
0.0
 40
0.0
 40
0.0
 40
0.0
 40
1.0
 40
1.0
 40
1.0
 40
1.0
 10
27.10760099388023
 20
2.11043580020963
 30
0.0
 10
26.96113790131568
 20
2.180683087820152
 30
0.0
 10
26.82063913815731
 20
2.23388040395259
 30
0.0
 10
26.69859365914974
 20
2.265985439909854
 30
0.0
  0
SPLINE
  5
158
330
1F
100
AcDbEntity
  8
외형선
  6
Continuous
 62
     1
370
    15
100
AcDbSpline
210
0.0
220
0.0
230
1.0
 70
     8
 71
     3
 72
    10
 73
     6
 74
     0
 42
0.000000001
 43
0.00000001
 40
0.0
 40
0.0
 40
0.0
 40
0.0
 40
0.5000000000000002
 40
0.5000000000000002
 40
1.0
 40
1.0
 40
1.0
 40
1.0
 10
19.35647968530238
 20
-0.8152071947402645
 30
0.0
 10
19.32744188993355
 20
-1.152026792392286
 30
0.0
 10
19.29840082244739
 20
-1.482420251745763
 30
0.0
 10
19.24226569854864
 20
-2.108555269939132
 30
0.0
 10
19.21579769432661
 20
-2.402446169674624
 30
0.0
 10
19.1876601460156
 20
-2.681968884717677
 30
0.0
  0
SPLINE
  5
159
330
1F
100
AcDbEntity
  8
외형선
  6
Continuous
 62
     1
370
    15
100
AcDbSpline
210
0.0
220
0.0
230
1.0
 70
     8
 71
     3
 72
    10
 73
     6
 74
     0
 42
0.000000001
 43
0.00000001
 40
0.0
 40
0.0
 40
0.0
 40
0.0
 40
0.4999999999999999
 40
0.4999999999999999
 40
1.0
 40
1.0
 40
1.0
 40
1.0
 10
12.20219829979608
 20
3.051030882681263
 30
0.0
 10
12.17460927610955
 20
2.794118133888013
 30
0.0
 10
12.14593966379439
 20
2.511051548430225
 30
0.0
 10
12.0883166117506
 20
1.909796675061844
 30
0.0
 10
12.05937783324597
 20
1.591757070367895
 30
0.0
 10
12.03127972401258
 20
1.26733383748921
 30
0.0
  0
SPLINE
  5
15A
330
1F
100
AcDbEntity
  8
외형선
  6
Continuous
 62
     1
370
    15
100
AcDbSpline
210
0.0
220
0.0
230
1.0
 70
     8
 71
     3
 72
     8
 73
     4
 74
     0
 42
0.000000001
 43
0.00000001
 40
0.5861630519991409
 40
0.5861630519991409
 40
0.5861630519991409
 40
0.5861630519991409
 40
1.0
 40
1.0
 40
1.0
 40
1.0
 10
29.0200886978022
 20
0.5340012533081332
 30
0.0
 10
29.01640075445174
 20
0.4102099401985075
 30
0.0
 10
29.01242912690832
 20
0.2856912240510319
 30
0.0
 10
29.00815352975595
 20
0.1607512645568396
 30
0.0
  0
SPLINE
  5
15B
330
1F
100
AcDbEntity
  8
외형선
  6
Continuous
 62
     1
370
    15
100
AcDbSpline
210
0.0
220
0.0
230
1.0
 70
    24
 71
     3
 72
    10
 73
     6
 74
     0
 42
0.000000001
 43
0.00000001
 40
0.0
 40
0.0
 40
0.0
 40
0.0
 40
0.4999999999999999
 40
0.4999999999999999
 40
1.0
 40
1.0
 40
1.0
 40
1.0
 10
28.96637123610234
 20
-0.3206788351737842
 30
0.0
 10
28.91910587892629
 20
-0.3679441923498338
 30
0.0
 10
28.86843757690438
 20
-0.4186124943717556
 30
0.0
 10
28.76497179223234
 20
-0.5220782790437848
 30
0.0
 10
28.7127857562239
 20
-0.5742643150639378
 30
0.0
 10
28.66300531944068
 20
-0.624044751847161
 30
0.0
  0
SPLINE
  5
15C
330
1F
100
AcDbEntity
  8
외형선
  6
Continuous
 62
     1
370
    15
100
AcDbSpline
210
0.0
220
0.0
230
1.0
 70
     8
 71
     3
 72
     8
 73
     4
 74
     0
 42
0.000000001
 43
0.00000001
 40
0.5393317593210856
 40
0.5393317593210856
 40
0.5393317593210856
 40
0.5393317593210856
 40
1.0
 40
1.0
 40
1.0
 40
1.0
 10
28.91734466632639
 20
1.117293821096312
 30
0.0
 10
28.88322256946092
 20
1.135841859500235
 30
0.0
 10
28.8493990540837
 20
1.15460989794193
 30
0.0
 10
28.81855923096008
 20
1.172526931180412
 30
0.0
  0
SPLINE
  5
15D
330
1F
100
AcDbEntity
  8
외형선
  6
Continuous
 62
     1
370
    15
100
AcDbSpline
210
0.0
220
0.0
230
1.0
 70
     8
 71
     3
 72
    10
 73
     6
 74
     0
 42
0.000000001
 43
0.00000001
 40
0.0
 40
0.0
 40
0.0
 40
0.0
 40
0.281578751398291
 40
0.6396835620293573
 40
0.9999999999999999
 40
0.9999999999999999
 40
0.9999999999999999
 40
0.9999999999999999
 10
21.6988069429242
 20
4.137349740579408
 30
0.0
 10
21.71755511493652
 20
4.148102726615843
 30
0.0
 10
21.76014674301507
 20
4.172531091242369
 30
0.0
 10
21.82781962277811
 20
4.205908092330031
 30
0.0
 10
21.87672005637109
 20
4.226191188653717
 30
0.0
 10
21.90124554205477
 20
4.236363957113155
 30
0.0
  0
SPLINE
  5
15E
330
1F
100
AcDbEntity
  8
외형선
  6
Continuous
 62
     1
370
    15
100
AcDbSpline
210
0.0
220
0.0
230
1.0
 70
     8
 71
     3
 72
     8
 73
     4
 74
     0
 42
0.000000001
 43
0.00000001
 40
0.0
 40
0.0
 40
0.0
 40
0.0
 40
1.0
 40
1.0
 40
1.0
 40
1.0
 10
21.9012455419529
 20
4.236363957094637
 30
0.0
 10
22.0480542575413
 20
4.26526338711766
 30
0.0
 10
22.18874884130451
 20
4.261394944590126
 30
0.0
 10
22.31097623667784
 20
4.225449680339253
 30
0.0
  0
SPLINE
  5
15F
330
1F
100
AcDbEntity
  8
외형선
  6
Continuous
 62
     1
370
    15
100
AcDbSpline
210
0.0
220
0.0
230
1.0
 70
     8
 71
     3
 72
     8
 73
     4
 74
     0
 42
0.000000001
 43
0.00000001
 40
0.0
 40
0.0
 40
0.0
 40
0.0
 40
1.0
 40
1.0
 40
1.0
 40
1.0
 10
22.31097623667784
 20
4.225449680339247
 30
0.0
 10
22.38706942802549
 20
4.203071801285789
 30
0.0
 10
22.491150809356
 20
4.224723794688249
 30
0.0
 10
22.57517646796298
 20
4.290836045161936
 30
0.0
  0
SPLINE
  5
160
330
1F
100
AcDbEntity
  8
외형선
  6
Continuous
 62
     1
370
    15
100
AcDbSpline
210
0.0
220
0.0
230
1.0
 70
     8
 71
     3
 72
    12
 73
     8
 74
     0
 42
0.000000001
 43
0.00000001
 40
0.0
 40
0.0
 40
0.0
 40
0.0
 40
0.5000000000000019
 40
0.5000000000000019
 40
0.7500000000000009
 40
0.7500000000000009
 40
1.0
 40
1.0
 40
1.0
 40
1.0
 10
22.57517646796298
 20
4.290836045161939
 30
0.0
 10
22.73995538281029
 20
4.420485786345449
 30
0.0
 10
22.922191113938
 20
4.509568227005051
 30
0.0
 10
23.19420325419592
 20
4.567425794108644
 30
0.0
 10
23.28203461127758
 20
4.573750928991513
 30
0.0
 10
23.45282066470016
 20
4.560883786398277
 30
0.0
 10
23.53480537616277
 20
4.541402644355698
 30
0.0
 10
23.60994330557297
 20
4.509428901643358
 30
0.0
  0
SPLINE
  5
161
330
1F
100
AcDbEntity
  8
외형선
  6
Continuous
 62
     1
370
    15
100
AcDbSpline
210
0.0
220
0.0
230
1.0
 70
     8
 71
     3
 72
     8
 73
     4
 74
     0
 42
0.000000001
 43
0.00000001
 40
0.0
 40
0.0
 40
0.0
 40
0.0
 40
1.0
 40
1.0
 40
1.0
 40
1.0
 10
23.60994330557297
 20
4.50942890164337
 30
0.0
 10
23.68636636087027
 20
4.476908294187887
 30
0.0
 10
23.7904758953988
 20
4.490798586159412
 30
0.0
 10
23.87385999574814
 20
4.55553699679936
 30
0.0
  0
SPLINE
  5
162
330
1F
100
AcDbEntity
  8
외형선
  6
Continuous
 62
     1
370
    15
100
AcDbSpline
210
0.0
220
0.0
230
1.0
 70
     8
 71
     3
 72
     8
 73
     4
 74
     0
 42
0.000000001
 43
0.00000001
 40
0.0
 40
0.0
 40
0.0
 40
0.0
 40
1.0
 40
1.0
 40
1.0
 40
1.0
 10
23.87385999574814
 20
4.55553699679936
 30
0.0
 10
24.0025634499928
 20
4.655460807654948
 30
0.0
 10
24.14442840088352
 20
4.72633738710975
 30
0.0
 10
24.2875
 20
4.763574928723902
 30
0.0
  0
SPLINE
  5
16B
330
1F
100
AcDbEntity
  8
외형선
  6
Continuous
 62
     1
370
    15
100
AcDbSpline
210
0.0
220
0.0
230
1.0
 70
     8
 71
     3
 72
     8
 73
     4
 74
     0
 42
0.000000001
 43
0.00000001
 40
0.8692395648134201
 40
0.8692395648134201
 40
0.8692395648134201
 40
0.8692395648134201
 40
1.0
 40
1.0
 40
1.0
 40
1.0
 10
28.10491722089618
 20
2.848658467727671
 30
0.0
 10
28.059221634042
 20
2.773414193319326
 30
0.0
 10
28.01000635467027
 20
2.702699248013436
 30
0.0
 10
27.95785313155049
 20
2.637750710637991
 30
0.0
  0
SPLINE
  5
16C
330
1F
100
AcDbEntity
  8
외형선
  6
Continuous
 62
     1
370
    15
100
AcDbSpline
210
0.0
220
0.0
230
1.0
 70
     8
 71
     3
 72
     8
 73
     4
 74
     0
 42
0.000000001
 43
0.00000001
 40
0.5489746153324777
 40
0.5489746153324777
 40
0.5489746153324777
 40
0.5489746153324777
 40
1.0
 40
1.0
 40
1.0
 40
1.0
 10
28.44989380258541
 20
2.315353235712613
 30
0.0
 10
28.28573282771261
 20
2.42493605987921
 30
0.0
 10
28.12172084400851
 20
2.532379291318216
 30
0.0
 10
27.9578531315505
 20
2.637750710637991
 30
0.0
  0
SPLINE
  5
16F
330
1F
100
AcDbEntity
  8
외형선
  6
Continuous
 62
     1
370
    15
100
AcDbSpline
210
0.0
220
0.0
230
1.0
 70
     8
 71
     3
 72
     8
 73
     4
 74
     0
 42
0.000000001
 43
0.00000001
 40
0.0
 40
0.0
 40
0.0
 40
0.0
 40
1.0
 40
1.0
 40
1.0
 40
1.0
 10
27.78478589723092
 20
1.719084460200463
 30
0.0
 10
27.70841860237463
 20
1.748782571843051
 30
0.0
 10
27.60436942176708
 20
1.79985485445437
 30
0.0
 10
27.52104503903409
 20
1.854974954804931
 30
0.0
  0
SPLINE
  5
170
330
1F
100
AcDbEntity
  8
외형선
  6
Continuous
 62
     1
370
    15
100
AcDbSpline
210
0.0
220
0.0
230
1.0
 70
     8
 71
     3
 72
     8
 73
     4
 74
     0
 42
0.000000001
 43
0.00000001
 40
0.0
 40
0.0
 40
0.0
 40
0.0
 40
1.0
 40
1.0
 40
1.0
 40
1.0
 10
26.69859365914974
 20
2.265985439909851
 30
0.0
 10
26.62270363980177
 20
2.285948914343943
 30
0.0
 10
26.51874451245614
 20
2.332839858410779
 30
0.0
 10
26.4348716014815
 20
2.392286970592914
 30
0.0
  0
SPLINE
  5
171
330
1F
100
AcDbEntity
  8
외형선
  6
Continuous
 62
     1
370
    15
100
AcDbSpline
210
0.0
220
0.0
230
1.0
 70
     8
 71
     3
 72
     8
 73
     4
 74
     0
 42
0.000000001
 43
0.00000001
 40
0.0
 40
0.0
 40
0.0
 40
0.0
 40
1.0
 40
1.0
 40
1.0
 40
1.0
 10
25.40098394779498
 20
2.864961072233502
 30
0.0
 10
25.32453800916047
 20
2.874163216206063
 30
0.0
 10
25.2204436752456
 20
2.916063972833856
 30
0.0
 10
25.136969065585
 20
2.979865645936436
 30
0.0
  0
SPLINE
  5
172
330
1F
100
AcDbEntity
  8
외형선
  6
Continuous
 62
     1
370
    15
100
AcDbSpline
210
0.0
220
0.0
230
1.0
 70
     8
 71
     3
 72
     8
 73
     4
 74
     0
 42
0.000000001
 43
0.00000001
 40
0.0
 40
0.0
 40
0.0
 40
0.0
 40
1.0
 40
1.0
 40
1.0
 40
1.0
 10
25.136969065585
 20
2.979865645936438
 30
0.0
 10
25.00817529495506
 20
3.078305855298187
 30
0.0
 10
24.86617513923697
 20
3.169387869019832
 30
0.0
 10
24.72284684331992
 20
3.240301037337841
 30
0.0
  0
SPLINE
  5
173
330
1F
100
AcDbEntity
  8
외형선
  6
Continuous
 62
     1
370
    15
100
AcDbSpline
210
0.0
220
0.0
230
1.0
 70
     8
 71
     3
 72
     8
 73
     4
 74
     0
 42
0.000000001
 43
0.00000001
 40
0.0
 40
0.0
 40
0.0
 40
0.0
 40
1.0
 40
1.0
 40
1.0
 40
1.0
 10
24.72284684335481
 20
3.240301037324482
 30
0.0
 10
24.57600228945795
 20
3.29174020470444
 30
0.0
 10
24.43517956018489
 20
3.317206392080645
 30
0.0
 10
24.31284882319666
 20
3.314873836185534
 30
0.0
  0
SPLINE
  5
174
330
1F
100
AcDbEntity
  8
외형선
  6
Continuous
 62
     1
370
    15
100
AcDbSpline
210
0.0
220
0.0
230
1.0
 70
     8
 71
     3
 72
     8
 73
     4
 74
     0
 42
0.000000001
 43
0.00000001
 40
0.0
 40
0.0
 40
0.0
 40
0.0
 40
1.0
 40
1.0
 40
1.0
 40
1.0
 10
24.31284882319666
 20
3.314873836185534
 30
0.0
 10
24.2367954920958
 20
3.313423680238062
 30
0.0
 10
24.13272286565139
 20
3.348996900383438
 30
0.0
 10
24.0487365919755
 20
3.41447202283452
 30
0.0
  0
SPLINE
  5
175
330
1F
100
AcDbEntity
  8
외형선
  6
Continuous
 62
     1
370
    15
100
AcDbSpline
210
0.0
220
0.0
230
1.0
 70
     8
 71
     3
 72
    12
 73
     8
 74
     0
 42
0.000000001
 43
0.00000001
 40
0.0
 40
0.0
 40
0.0
 40
0.0
 40
0.4999999999999982
 40
0.4999999999999982
 40
0.7499999999999991
 40
0.7499999999999991
 40
1.0
 40
1.0
 40
1.0
 40
1.0
 10
24.04873659197549
 20
3.414472022834519
 30
0.0
 10
23.88392052714893
 20
3.542961495627048
 30
0.0
 10
23.70159196074247
 20
3.648209353810966
 30
0.0
 10
23.4299806382853
 20
3.745031157238859
 30
0.0
 10
23.34228254054155
 20
3.766410733520639
 30
0.0
 10
23.17169039390098
 20
3.787307933247448
 30
0.0
 10
23.0897818057135
 20
3.786423271185955
 30
0.0
 10
23.01470157994953
 20
3.774203029844886
 30
0.0
  0
SPLINE
  5
176
330
1F
100
AcDbEntity
  8
외형선
  6
Continuous
 62
     1
370
    15
100
AcDbSpline
210
0.0
220
0.0
230
1.0
 70
     8
 71
     3
 72
     8
 73
     4
 74
     0
 42
0.000000001
 43
0.00000001
 40
0.0
 40
0.0
 40
0.0
 40
0.0
 40
1.0
 40
1.0
 40
1.0
 40
1.0
 10
23.01470157994953
 20
3.774203029844884
 30
0.0
 10
22.93833569165163
 20
3.761773530922504
 30
0.0
 10
22.83426178018829
 20
3.790606695234492
 30
0.0
 10
22.750900225306
 20
3.85751186070073
 30
0.0
  0
SPLINE
  5
177
330
1F
100
AcDbEntity
  8
외형선
  6
Continuous
 62
     1
370
    15
100
AcDbSpline
210
0.0
220
0.0
230
1.0
 70
     8
 71
     3
 72
     8
 73
     4
 74
     0
 42
0.000000001
 43
0.00000001
 40
0.0
 40
0.0
 40
0.0
 40
0.0
 40
1.0
 40
1.0
 40
1.0
 40
1.0
 10
22.75090022530601
 20
3.85751186070073
 30
0.0
 10
22.62227080400996
 20
3.960748571289819
 30
0.0
 10
22.48044261743313
 20
4.044972068145498
 30
0.0
 10
22.33733233551885
 20
4.101117599699577
 30
0.0
  0
SPLINE
  5
178
330
1F
100
AcDbEntity
  8
외형선
  6
Continuous
 62
     1
370
    15
100
AcDbSpline
210
0.0
220
0.0
230
1.0
 70
     8
 71
     3
 72
     8
 73
     4
 74
     0
 42
0.000000001
 43
0.00000001
 40
0.0
 40
0.0
 40
0.0
 40
0.0
 40
1.0
 40
1.0
 40
1.0
 40
1.0
 10
22.33733233551887
 20
4.101117599699568
 30
0.0
 10
22.1907391943743
 20
4.129537157354971
 30
0.0
 10
22.05026484028258
 20
4.125104747262059
 30
0.0
 10
21.92830454418673
 20
4.08851804247998
 30
0.0
  0
SPLINE
  5
179
330
1F
100
AcDbEntity
  8
외형선
  6
Continuous
 62
     1
370
    15
100
AcDbSpline
210
0.0
220
0.0
230
1.0
 70
     8
 71
     3
 72
     8
 73
     4
 74
     0
 42
0.000000001
 43
0.00000001
 40
0.0
 40
0.0
 40
0.0
 40
0.0
 40
1.0
 40
1.0
 40
1.0
 40
1.0
 10
21.92830454418673
 20
4.088518042479977
 30
0.0
 10
21.85240620218959
 20
4.065749401200883
 30
0.0
 10
21.74849513058586
 20
4.087126366457341
 30
0.0
 10
21.66466090762346
 20
4.153138212094586
 30
0.0
  0
SPLINE
  5
17A
330
1F
100
AcDbEntity
  8
외형선
  6
Continuous
 62
     1
370
    15
100
AcDbSpline
210
0.0
220
0.0
230
1.0
 70
     8
 71
     3
 72
    12
 73
     8
 74
     0
 42
0.000000001
 43
0.00000001
 40
0.0
 40
0.0
 40
0.0
 40
0.0
 40
0.5
 40
0.5
 40
0.75
 40
0.75
 40
1.0
 40
1.0
 40
1.0
 40
1.0
 10
21.66466090762345
 20
4.153138212094596
 30
0.0
 10
21.5001498648998
 20
4.282675734769161
 30
0.0
 10
21.31805458546677
 20
4.371353511994744
 30
0.0
 10
21.0463405278815
 20
4.428367593152077
 30
0.0
 10
20.95861184619001
 20
4.434385307866081
 30
0.0
 10
20.78803099419181
 20
4.420895514455069
 30
0.0
 10
20.70615501887958
 20
4.401103917794124
 30
0.0
 10
20.6311066091453
 20
4.368848742224464
 30
0.0
  0
SPLINE
  5
17B
330
1F
100
AcDbEntity
  8
외형선
  6
Continuous
 62
     1
370
    15
100
AcDbSpline
210
0.0
220
0.0
230
1.0
 70
     8
 71
     3
 72
     8
 73
     4
 74
     0
 42
0.000000001
 43
0.00000001
 40
0.0
 40
0.0
 40
0.0
 40
0.0
 40
1.0
 40
1.0
 40
1.0
 40
1.0
 10
20.6311066091453
 20
4.368848742224464
 30
0.0
 10
20.55467878135125
 20
4.336000704369524
 30
0.0
 10
20.45055936255331
 20
4.349649763087823
 30
0.0
 10
20.36716224540094
 20
4.414305069831111
 30
0.0
  0
SPLINE
  5
17C
330
1F
100
AcDbEntity
  8
외형선
  6
Continuous
 62
     1
370
    15
100
AcDbSpline
210
0.0
220
0.0
230
1.0
 70
     8
 71
     3
 72
     8
 73
     4
 74
     0
 42
0.000000001
 43
0.00000001
 40
0.0
 40
0.0
 40
0.0
 40
0.0
 40
1.0
 40
1.0
 40
1.0
 40
1.0
 10
20.36716224540094
 20
4.414305069831109
 30
0.0
 10
20.23836931715323
 20
4.514154399958532
 30
0.0
 10
20.09640818900069
 20
4.584750270606307
 30
0.0
 10
19.95325814995529
 20
4.621647460947441
 30
0.0
  0
SPLINE
  5
17D
330
1F
100
AcDbEntity
  8
외형선
  6
Continuous
 62
     1
370
    15
100
AcDbSpline
210
0.0
220
0.0
230
1.0
 70
     8
 71
     3
 72
     8
 73
     4
 74
     0
 42
0.000000001
 43
0.00000001
 40
0.0
 40
0.0
 40
0.0
 40
0.0
 40
1.0
 40
1.0
 40
1.0
 40
1.0
 10
19.95325814995486
 20
4.621647460947552
 30
0.0
 10
19.80646880461871
 20
4.624925259499332
 30
0.0
 10
19.66583998098624
 20
4.591173479997566
 30
0.0
 10
19.54351248675464
 20
4.523323385170423
 30
0.0
  0
SPLINE
  5
17E
330
1F
100
AcDbEntity
  8
외형선
  6
Continuous
 62
     1
370
    15
100
AcDbSpline
210
0.0
220
0.0
230
1.0
 70
     8
 71
     3
 72
     8
 73
     4
 74
     0
 42
0.000000001
 43
0.00000001
 40
0.0
 40
0.0
 40
0.0
 40
0.0
 40
1.0
 40
1.0
 40
1.0
 40
1.0
 10
19.54351248675464
 20
4.523323385170422
 30
0.0
 10
19.46744062664765
 20
4.481129412716744
 30
0.0
 10
19.36333366633163
 20
4.486330414176784
 30
0.0
 10
19.27927044597152
 20
4.547350108026135
 30
0.0
  0
SPLINE
  5
17F
330
1F
100
AcDbEntity
  8
외형선
  6
Continuous
 62
     1
370
    15
100
AcDbSpline
210
0.0
220
0.0
230
1.0
 70
     8
 71
     3
 72
    14
 73
    10
 74
     0
 42
0.000000001
 43
0.00000001
 40
0.0
 40
0.0
 40
0.0
 40
0.0
 40
0.1632959729505308
 40
0.3267229694685186
 40
0.4542341682283627
 40
0.5817645891488226
 40
0.7653678303558468
 40
0.9489854238714833
 40
1.0
 40
1.0
 40
1.0
 40
1.0
 10
19.27927044597152
 20
4.547350108026139
 30
0.0
 10
19.23313603865563
 20
4.577797013373822
 30
0.0
 10
19.14083020722228
 20
4.638715253711172
 30
0.0
 10
19.00409617857057
 20
4.694671093393841
 30
0.0
 10
18.8765733691726
 20
4.727772191682829
 30
0.0
 10
18.74209575645472
 20
4.744901588466968
 30
0.0
 10
18.59290788845427
 20
4.736491290284872
 30
0.0
 10
18.46774917238566
 20
4.714248275443717
 30
0.0
 10
18.40522375400462
 20
4.681552816061417
 30
0.0
 10
18.39162925108201
 20
4.674444050864195
 30
0.0
  0
SPLINE
  5
180
330
1F
100
AcDbEntity
  8
외형선
  6
Continuous
 62
     1
370
    15
100
AcDbSpline
210
0.0
220
0.0
230
1.0
 70
     8
 71
     3
 72
    12
 73
     8
 74
     0
 42
0.000000001
 43
0.00000001
 40
0.0
 40
0.0
 40
0.0
 40
0.0
 40
0.0522553587013881
 40
0.2878205095298972
 40
0.5308366178722447
 40
0.7611237240583414
 40
1.0
 40
1.0
 40
1.0
 40
1.0
 10
18.17045967834981
 20
4.570279152859416
 30
0.0
 10
18.16730088018928
 20
4.569275118692839
 30
0.0
 10
18.14990234119425
 20
4.563744937050396
 30
0.0
 10
18.11532351774625
 20
4.562008566271228
 30
0.0
 10
18.06917928333846
 20
4.566291686880226
 30
0.0
 10
18.02298063602798
 20
4.580094686219154
 30
0.0
 10
17.99500887038287
 20
4.596876670363002
 30
0.0
 10
17.98076694216905
 20
4.605421279827222
 30
0.0
  0
SPLINE
  5
181
330
1F
100
AcDbEntity
  8
외형선
  6
Continuous
 62
     1
370
    15
100
AcDbSpline
210
0.0
220
0.0
230
1.0
 70
     8
 71
     3
 72
    11
 73
     7
 74
     0
 42
0.000000001
 43
0.00000001
 40
0.0
 40
0.0
 40
0.0
 40
0.0
 40
0.2629133540920927
 40
0.5277535353141847
 40
0.7983197051382094
 40
1.0
 40
1.0
 40
1.0
 40
1.0
 10
17.98076694216905
 20
4.605421279827222
 30
0.0
 10
17.95982216526877
 20
4.61906721038233
 30
0.0
 10
17.91777911236389
 20
4.646459079152104
 30
0.0
 10
17.85163071770829
 20
4.680376357168353
 30
0.0
 10
17.78941212469417
 20
4.707282084706914
 30
0.0
 10
17.74869806153898
 20
4.719870384205079
 30
0.0
 10
17.73131047925688
 20
4.725246415884399
 30
0.0
  0
SPLINE
  5
183
330
1F
100
AcDbEntity
  8
외형선
  6
Continuous
 62
     1
370
    15
100
AcDbSpline
210
0.0
220
0.0
230
1.0
 70
    24
 71
     3
 72
     8
 73
     4
 74
     0
 42
0.000000001
 43
0.00000001
 40
0.0002416145475071
 40
0.0002416145475071
 40
0.0002416145475071
 40
0.0002416145475071
 40
0.0003281841610103
 40
0.0003281841610103
 40
0.0003281841610103
 40
0.0003281841610103
 10
28.99279215832345
 20
-0.2942579129526718
 30
0.0
 10
29.00979692195979
 20
-0.277253149316331
 30
0.0
 10
29.02677478377634
 20
-0.2602752874997781
 30
0.0
 10
29.04372484921566
 20
-0.2433252220604583
 30
0.0
  0
SPLINE
  5
184
330
1F
100
AcDbEntity
  8
외형선
  6
Continuous
 62
     1
370
    15
100
AcDbSpline
210
0.0
220
0.0
230
1.0
 70
     8
 71
     3
 72
     8
 73
     4
 74
     0
 42
0.000000001
 43
0.00000001
 40
0.0
 40
0.0
 40
0.0
 40
0.0
 40
1.0
 40
1.0
 40
1.0
 40
1.0
 10
29.00815352975595
 20
0.1607512645568685
 30
0.0
 10
29.002964273209
 20
0.0091126794245818
 30
0.0
 10
28.99784218194117
 20
-0.1425570269224185
 30
0.0
 10
28.99279215832298
 20
-0.2942579129521078
 30
0.0
  0
SPLINE
  5
185
330
1F
100
AcDbEntity
  8
외형선
  6
Continuous
 62
     1
370
    15
100
AcDbSpline
210
0.0
220
0.0
230
1.0
 70
    24
 71
     3
 72
     8
 73
     4
 74
     0
 42
0.000000001
 43
0.00000001
 40
0.0000875556490647
 40
0.0000875556490647
 40
0.0000875556490647
 40
0.0000875556490647
 40
0.0001286617243574
 40
0.0001286617243574
 40
0.0001286617243574
 40
0.0001286617243574
 10
28.99279215832399
 20
-0.2942579129521419
 30
0.0
 10
28.98393604472591
 20
-0.303114026550222
 30
0.0
 10
28.97512752634211
 20
-0.3119225449340899
 30
0.0
 10
28.96637123610237
 20
-0.3206788351738253
 30
0.0
  0
SPLINE
  5
186
330
1F
100
AcDbEntity
  8
외형선
  6
Continuous
 62
     1
370
    15
100
AcDbSpline
210
0.0
220
0.0
230
1.0
 70
     8
 71
     3
 72
    10
 73
     6
 74
     0
 42
0.000000001
 43
0.00000001
 40
0.0
 40
0.0
 40
0.0
 40
0.0
 40
0.5000000000000001
 40
0.5000000000000001
 40
1.0
 40
1.0
 40
1.0
 40
1.0
 10
24.72284684331993
 20
3.240301037337853
 30
0.0
 10
24.69580207344935
 20
2.996403932482945
 30
0.0
 10
24.66746165553576
 20
2.724672799038033
 30
0.0
 10
24.60999490251302
 20
2.140965392622708
 30
0.0
 10
24.58088290502472
 20
1.829122382928259
 30
0.0
 10
24.55237866095644
 20
1.507981328579019
 30
0.0
  0
SPLINE
  5
187
330
1F
100
AcDbEntity
  8
외형선
  6
Continuous
 62
     1
370
    15
100
AcDbSpline
210
0.0
220
0.0
230
1.0
 70
     8
 71
     3
 72
    10
 73
     6
 74
     0
 42
0.000000001
 43
0.00000001
 40
0.0
 40
0.0
 40
0.0
 40
0.0
 40
0.4999999999999998
 40
0.4999999999999998
 40
1.0
 40
1.0
 40
1.0
 40
1.0
 10
21.74107701974089
 20
-2.119457452386388
 30
0.0
 10
21.71388556274759
 20
-2.41833049450112
 30
0.0
 10
21.68648998161851
 20
-2.702441226968193
 30
0.0
 10
21.62933403520719
 20
-3.23308132613533
 30
0.0
 10
21.60015502119285
 20
-3.477371368502707
 30
0.0
 10
21.57136805500589
 20
-3.692129109155951
 30
0.0
  0
SPLINE
  5
188
330
1F
100
AcDbEntity
  8
외형선
  6
Continuous
370
    15
100
AcDbSpline
210
0.0
220
0.0
230
1.0
 70
    24
 71
     3
 72
    10
 73
     6
 74
     0
 42
0.000000001
 43
0.00000001
 40
0.0
 40
0.0
 40
0.0
 40
0.0
 40
0.5
 40
0.5
 40
1.0
 40
1.0
 40
1.0
 40
1.0
 10
9.999999999999996
 20
2.271119579215966
 30
0.0
 10
9.999999999999996
 20
2.588212728361869
 30
0.0
 10
9.99999999999993
 20
2.887881007834117
 30
0.0
 10
9.99999999999993
 20
3.425007489548149
 30
0.0
 10
9.999999999999995
 20
3.665350534122129
 30
0.0
 10
9.999999999999995
 20
3.876652859887772
 30
0.0
  0
SPLINE
  5
189
330
1F
100
AcDbEntity
  8
외형선
  6
Continuous
 62
     1
370
    15
100
AcDbSpline
210
0.0
220
0.0
230
1.0
 70
     8
 71
     3
 72
    12
 73
     8
 74
     0
 42
0.000000001
 43
0.00000001
 40
0.0
 40
0.0
 40
0.0
 40
0.0
 40
0.5
 40
0.5
 40
0.75
 40
0.75
 40
1.0
 40
1.0
 40
1.0
 40
1.0
 10
22.33733233551886
 20
4.101117599699567
 30
0.0
 10
22.30830983642258
 20
3.927094668425975
 30
0.0
 10
22.27951028904846
 20
3.721482469866483
 30
0.0
 10
22.23807026579973
 20
3.378207043477556
 30
0.0
 10
22.22473163083534
 20
3.258634012608155
 30
0.0
 10
22.19715322303279
 20
3.005209274253083
 30
0.0
 10
22.18306898807039
 20
2.871730775539357
 30
0.0
 10
22.16880262567451
 20
2.732420268950141
 30
0.0
  0
SPLINE
  5
18A
330
1F
100
AcDbEntity
  8
외형선
  6
Continuous
 62
     1
370
    15
100
AcDbSpline
210
0.0
220
0.0
230
1.0
 70
     8
 71
     3
 72
     8
 73
     4
 74
     0
 42
0.000000001
 43
0.00000001
 40
0.0
 40
0.0
 40
0.0
 40
0.0
 40
1.0
 40
1.0
 40
1.0
 40
1.0
 10
9.999999999998929
 20
-4.116719904641274
 30
0.0
 10
10.07939403669971
 20
-4.156379492310327
 30
0.0
 10
10.15883916869896
 20
-4.187146445645078
 30
0.0
 10
10.23884755965429
 20
-4.209051636226976
 30
0.0
  0
SPLINE
  5
18B
330
1F
100
AcDbEntity
  8
외형선
  6
Continuous
 62
     1
370
    15
100
AcDbSpline
210
0.0
220
0.0
230
1.0
 70
     8
 71
     3
 72
    10
 73
     6
 74
     0
 42
0.000000001
 43
0.00000001
 40
0.0
 40
0.0
 40
0.0
 40
0.0
 40
0.5
 40
0.5
 40
1.0
 40
1.0
 40
1.0
 40
1.0
 10
10.24297542114011
 20
-4.210173656219868
 30
0.0
 10
10.33540270563475
 20
-4.235114757915465
 30
0.0
 10
10.42480817574863
 20
-4.247223537667709
 30
0.0
 10
10.59852898290936
 20
-4.246292447086749
 30
0.0
 10
10.68200699355648
 20
-4.232825155568724
 30
0.0
 10
10.75843302012403
 20
-4.206675844956591
 30
0.0
  0
LWPOLYLINE
  5
18C
330
1F
100
AcDbEntity
  8
외형선
  6
Continuous
 62
     1
370
    15
100
AcDbPolyline
 90
        3
 70
   128
 43
0.0
 10
10.23884808959209
 20
-4.209059407012006
 10
10.24115942429789
 20
-4.209683519251866
 10
10.24297542113996
 20
-4.210173656215064
  0
SPLINE
  5
18D
330
1F
100
AcDbEntity
  8
외형선
  6
Continuous
370
    15
100
AcDbSpline
210
0.0
220
0.0
230
1.0
 70
    24
 71
     3
 72
    12
 73
     8
 74
     0
 42
0.000000001
 43
0.00000001
 40
0.0
 40
0.0
 40
0.0
 40
0.0
 40
0.5000000000000004
 40
0.5000000000000004
 40
0.7500000000000002
 40
0.7500000000000002
 40
1.0
 40
1.0
 40
1.0
 40
1.0
 10
9.999999999999998
 20
-4.116719904641489
 30
0.0
 10
9.999999999999998
 20
-3.935274019429498
 30
0.0
 10
10.0
 20
-3.721318311168454
 30
0.0
 10
10.0
 20
-3.35187003781155
 30
0.0
 10
9.999999999999996
 20
-3.219607472005539
 30
0.0
 10
9.999999999999996
 20
-2.944368104082065
 30
0.0
 10
9.999999999999996
 20
-2.801154574462895
 30
0.0
 10
9.999999999999996
 20
-2.65246392925309
 30
0.0
  0
SPLINE
  5
18E
330
1F
100
AcDbEntity
  8
외형선
  6
Continuous
 62
     1
370
    15
100
AcDbSpline
210
0.0
220
0.0
230
1.0
 70
     8
 71
     3
 72
    12
 73
     8
 74
     0
 42
0.000000001
 43
0.00000001
 40
0.0
 40
0.0
 40
0.0
 40
0.0
 40
0.5000000000000008
 40
0.5000000000000008
 40
0.7500000000000003
 40
0.7500000000000003
 40
1.0
 40
1.0
 40
1.0
 40
1.0
 10
24.12664760328817
 20
-3.247617139518343
 30
0.0
 10
24.0977167635411
 20
-3.497024054687041
 30
0.0
 10
24.06854557943194
 20
-3.721808976445187
 30
0.0
 10
24.02591583408305
 20
-4.011282594410451
 30
0.0
 10
24.01189313454593
 20
-4.099886182005962
 30
0.0
 10
23.98444486388826
 20
-4.260364414106734
 30
0.0
 10
23.97113296963347
 20
-4.332148074878891
 30
0.0
 10
23.95732990327803
 20
-4.396600865870795
 30
0.0
  0
SPLINE
  5
18F
330
1F
100
AcDbEntity
  8
외형선
  6
Continuous
 62
     1
370
    15
100
AcDbSpline
210
0.0
220
0.0
230
1.0
 70
     8
 71
     3
 72
    10
 73
     6
 74
     0
 42
0.000000001
 43
0.00000001
 40
0.0
 40
0.0
 40
0.0
 40
0.0
 40
0.5
 40
0.5
 40
1.0
 40
1.0
 40
1.0
 40
1.0
 10
11.60531806723507
 20
-3.426722476994825
 30
0.0
 10
11.57627642233516
 20
-3.664097885838172
 30
0.0
 10
11.54724522755663
 20
-3.874603391607085
 30
0.0
 10
11.49115502928433
 20
-4.22953720565269
 30
0.0
 10
11.46467853169166
 20
-4.373775847275533
 30
0.0
 10
11.43651226627619
 20
-4.487007664795265
 30
0.0
  0
SPLINE
  5
190
330
1F
100
AcDbEntity
  8
외형선
  6
Continuous
 62
     1
370
    15
100
AcDbSpline
210
0.0
220
0.0
230
1.0
 70
     8
 71
     3
 72
     8
 73
     4
 74
     0
 42
0.000000001
 43
0.00000001
 40
0.0
 40
0.0
 40
0.0
 40
0.0
 40
1.0
 40
1.0
 40
1.0
 40
1.0
 10
11.02256523145213
 20
-4.265503438026457
 30
0.0
 10
11.15131563365958
 20
-4.367426650402749
 30
0.0
 10
11.29325953868905
 20
-4.443294836697755
 30
0.0
 10
11.43651226627619
 20
-4.487007664795268
 30
0.0
  0
SPLINE
  5
191
330
1F
100
AcDbEntity
  8
외형선
  6
Continuous
 62
     1
370
    15
100
AcDbSpline
210
0.0
220
0.0
230
1.0
 70
     8
 71
     3
 72
     8
 73
     4
 74
     0
 42
0.000000001
 43
0.00000001
 40
0.0
 40
0.0
 40
0.0
 40
0.0
 40
1.0
 40
1.0
 40
1.0
 40
1.0
 10
10.75843302012401
 20
-4.206675844956591
 30
0.0
 10
10.83491490734884
 20
-4.180507421514132
 30
0.0
 10
10.93907592758914
 20
-4.199410455768693
 30
0.0
 10
11.02256523145213
 20
-4.265503438026456
 30
0.0
  0
SPLINE
  5
192
330
1F
100
AcDbEntity
  8
외형선
  6
Continuous
 62
     1
370
    15
100
AcDbSpline
210
0.0
220
0.0
230
1.0
 70
     8
 71
     3
 72
     8
 73
     4
 74
     0
 42
0.000000001
 43
0.00000001
 40
0.0
 40
0.0
 40
0.0
 40
0.0
 40
1.0
 40
1.0
 40
1.0
 40
1.0
 10
11.43651226617564
 20
-4.487007664787219
 30
0.0
 10
11.58318878495617
 20
-4.498745110989045
 30
0.0
 10
11.72379196141033
 20
-4.474494759560478
 30
0.0
 10
11.84588100234078
 20
-4.416534107864971
 30
0.0
  0
SPLINE
  5
193
330
1F
100
AcDbEntity
  8
외형선
  6
Continuous
 62
     1
370
    15
100
AcDbSpline
210
0.0
220
0.0
230
1.0
 70
     8
 71
     3
 72
    10
 73
     6
 74
     0
 42
0.000000001
 43
0.00000001
 40
0.0
 40
0.0
 40
0.0
 40
0.0
 40
0.4999999999999998
 40
0.4999999999999998
 40
1.0
 40
1.0
 40
1.0
 40
1.0
 10
19.95325814995486
 20
4.621647460947553
 30
0.0
 10
19.92569825299979
 20
4.540624502273757
 30
0.0
 10
19.89704681307035
 20
4.423986120533208
 30
0.0
 10
19.8394343115051
 20
4.12433233456336
 30
0.0
 10
19.81048789426742
 20
3.94138361786025
 30
0.0
 10
19.78237008591179
 20
3.73219570722695
 30
0.0
  0
SPLINE
  5
194
330
1F
100
AcDbEntity
  8
외형선
  6
Continuous
 62
     1
370
    15
100
AcDbSpline
210
0.0
220
0.0
230
1.0
 70
     8
 71
     3
 72
    12
 73
     8
 74
     0
 42
0.000000001
 43
0.00000001
 40
0.0
 40
0.0
 40
0.0
 40
0.0
 40
0.5
 40
0.5
 40
0.75
 40
0.75
 40
1.0
 40
1.0
 40
1.0
 40
1.0
 10
12.10965545469294
 20
-4.454445622131558
 30
0.0
 10
12.27426104743656
 20
-4.578546132613389
 30
0.0
 10
12.45621273508202
 20
-4.652000677656053
 30
0.0
 10
12.72780535562005
 20
-4.680016331596084
 30
0.0
 10
12.81550750259514
 20
-4.675567874118014
 30
0.0
 10
12.9860542044219
 20
-4.639761474861784
 30
0.0
 10
13.06792024832892
 20
-4.60821950009253
 30
0.0
 10
13.14295355253955
 20
-4.563968957317538
 30
0.0
  0
SPLINE
  5
195
330
1F
100
AcDbEntity
  8
외형선
  6
Continuous
 62
     1
370
    15
100
AcDbSpline
210
0.0
220
0.0
230
1.0
 70
     8
 71
     3
 72
     8
 73
     4
 74
     0
 42
0.000000001
 43
0.00000001
 40
0.0
 40
0.0
 40
0.0
 40
0.0
 40
1.0
 40
1.0
 40
1.0
 40
1.0
 10
11.84588100234039
 20
-4.416534107865159
 30
0.0
 10
11.92181911829179
 20
-4.380483184248035
 30
0.0
 10
12.02578326406036
 20
-4.391212159044161
 30
0.0
 10
12.10965545469295
 20
-4.454445622131561
 30
0.0
  0
LINE
  5
196
330
1F
100
AcDbEntity
  8
외형선
  6
Continuous
 62
     1
370
    15
100
AcDbLine
 10
18.24460580728297
 20
4.601657407547735
 30
0.0
 11
18.23536969114362
 21
4.594401825616556
 31
0.0
  0
SPLINE
  5
199
330
1F
100
AcDbEntity
  8
외형선
  6
Continuous
 62
     1
370
    15
100
AcDbSpline
210
0.0
220
0.0
230
1.0
 70
     8
 71
     3
 72
     8
 73
     4
 74
     0
 42
0.000000001
 43
0.00000001
 40
0.0
 40
0.0
 40
0.0
 40
0.0
 40
1.0
 40
1.0
 40
1.0
 40
1.0
 10
13.14295355253954
 20
-4.563968957317543
 30
0.0
 10
13.21930460688745
 20
-4.518941277517467
 30
0.0
 10
13.32336688426261
 20
-4.521732410629069
 30
0.0
 10
13.40670004913039
 20
-4.581848619580501
 30
0.0
  0
SPLINE
  5
19A
330
1F
100
AcDbEntity
  8
외형선
  6
Continuous
 62
     1
370
    15
100
AcDbSpline
210
0.0
220
0.0
230
1.0
 70
     8
 71
     3
 72
    10
 73
     6
 74
     0
 42
0.000000001
 43
0.00000001
 40
0.0
 40
0.0
 40
0.0
 40
0.0
 40
0.5
 40
0.5
 40
1.0
 40
1.0
 40
1.0
 40
1.0
 10
13.99002672641126
 20
-4.226950660583942
 30
0.0
 10
13.96286741826901
 20
-4.380526925939559
 30
0.0
 10
13.93539966606481
 20
-4.503660498585739
 30
0.0
 10
13.87821248079918
 20
-4.682526690360609
 30
0.0
 10
13.84903044648981
 20
-4.737167000135103
 30
0.0
 10
13.82025338908934
 20
-4.754927217809589
 30
0.0
  0
SPLINE
  5
19B
330
1F
100
AcDbEntity
  8
외형선
  6
Continuous
 62
     1
370
    15
100
AcDbSpline
210
0.0
220
0.0
230
1.0
 70
     8
 71
     3
 72
     8
 73
     4
 74
     0
 42
0.000000001
 43
0.00000001
 40
0.0
 40
0.0
 40
0.0
 40
0.0
 40
1.0
 40
1.0
 40
1.0
 40
1.0
 10
13.40670004913039
 20
-4.581848619580502
 30
0.0
 10
13.53534420304391
 20
-4.674651993235115
 30
0.0
 10
13.67717788153272
 20
-4.732773579188849
 30
0.0
 10
13.82025338908934
 20
-4.754927217809596
 30
0.0
  0
SPLINE
  5
19D
330
1F
100
AcDbEntity
  8
외형선
  6
Continuous
 62
     1
370
    15
100
AcDbSpline
210
0.0
220
0.0
230
1.0
 70
     8
 71
     3
 72
     9
 73
     5
 74
     0
 42
0.000000001
 43
0.00000001
 40
0.0
 40
0.0
 40
0.0
 40
0.0
 40
0.3238569506155438
 40
1.0
 40
1.0
 40
1.0
 40
1.0
 10
14.42755627610699
 20
-4.570282920691668
 30
0.0
 10
14.43496401766081
 20
-4.57210634594432
 30
0.0
 10
14.4578375164069
 20
-4.577736687516999
 30
0.0
 10
14.47891537972574
 20
-4.590392549730875
 30
0.0
 10
14.49316703050464
 20
-4.598949723000755
 30
0.0
  0
LINE
  5
19E
330
1F
100
AcDbEntity
  8
외형선
  6
Continuous
 62
     1
370
    15
100
AcDbLine
 10
14.49316703050465
 20
-4.598949723000756
 30
0.0
 11
14.53465848902409
 21
-4.621116184126407
 31
0.0
  0
LINE
  5
19F
330
1F
100
AcDbEntity
  8
외형선
  6
Continuous
 62
     1
370
    15
100
AcDbLine
 10
14.26398880161677
 20
-4.582864528894198
 30
0.0
 11
14.25703672953098
 21
-4.586958452859005
 31
0.0
  0
SPLINE
  5
1A1
330
1F
100
AcDbEntity
  8
외형선
  6
Continuous
 62
     1
370
    15
100
AcDbSpline
210
0.0
220
0.0
230
1.0
 70
     8
 71
     3
 72
    11
 73
     7
 74
     0
 42
0.000000001
 43
0.00000001
 40
0.0
 40
0.0
 40
0.0
 40
0.0
 40
0.1409152264066647
 40
0.4371325359305526
 40
0.7170036084441683
 40
0.9999999999999999
 40
0.9999999999999999
 40
0.9999999999999999
 40
0.9999999999999999
 10
17.54386259413375
 20
4.755923334464891
 30
0.0
 10
17.53692990977816
 20
4.756343508942692
 30
0.0
 10
17.51542405856222
 20
4.757646930437287
 30
0.0
 10
17.48135155333881
 20
4.699216485813773
 30
0.0
 10
17.44042399910953
 20
4.591639231857823
 30
0.0
 10
17.41272426521488
 20
4.478110039756011
 30
0.0
 10
17.39879749694412
 20
4.421030258542901
 30
0.0
  0
LINE
  5
1A2
330
1F
100
AcDbEntity
  8
외형선
  6
Continuous
 62
     1
370
    15
100
AcDbLine
 10
17.09850285758237
 20
4.595407040734945
 30
0.0
 11
17.09408595266705
 21
4.593466200822266
 31
0.0
  0
LINE
  5
1A3
330
1F
100
AcDbEntity
  8
외형선
  6
Continuous
 62
     1
370
    15
100
AcDbLine
 10
16.86598821821493
 20
4.590017629531554
 30
0.0
 11
16.85691329051339
 21
4.598337013873159
 31
0.0
  0
LINE
  5
1AB
330
1F
100
AcDbEntity
  8
외형선
  6
Continuous
 62
     1
370
    15
100
AcDbLine
 10
15.84592809768896
 20
-4.593048850805658
 30
0.0
 11
15.84313026249142
 21
-4.592450528633738
 31
0.0
  0
SPLINE
  5
1AC
330
1F
100
AcDbEntity
  8
외형선
  6
Continuous
 62
     1
370
    15
100
AcDbSpline
210
0.0
220
0.0
230
1.0
 70
     8
 71
     3
 72
     9
 73
     5
 74
     0
 42
0.000000001
 43
0.00000001
 40
0.0
 40
0.0
 40
0.0
 40
0.0
 40
0.5173665653926047
 40
0.9999999999999999
 40
0.9999999999999999
 40
0.9999999999999999
 40
0.9999999999999999
 10
16.37550186906295
 20
-4.676656369779843
 30
0.0
 10
16.36315514444858
 20
-4.700798205957492
 30
0.0
 10
16.3392905860479
 20
-4.747461128907158
 30
0.0
 10
16.31556272711121
 20
-4.755828127534897
 30
0.0
 10
16.30411086905671
 20
-4.759866320819958
 30
0.0
  0
LINE
  5
1AD
330
1F
100
AcDbEntity
  8
외형선
  6
Continuous
 62
     1
370
    15
100
AcDbLine
 10
16.30170808300867
 20
-4.76133612319151
 30
0.0
 11
16.2962687338706
 21
-4.758780576653002
 31
0.0
  0
LINE
  5
1B1
330
1F
100
AcDbEntity
  8
외형선
  6
Continuous
 62
     1
370
    15
100
AcDbLine
 10
15.05040655350589
 20
4.761103933743414
 30
0.0
 11
15.01252984315851
 21
4.743248823773039
 31
0.0
  0
LINE
  5
1B5
330
1F
100
AcDbEntity
  8
외형선
  6
Continuous
 62
     1
370
    15
100
AcDbLine
 10
18.35003393205212
 20
-4.598690661257685
 30
0.0
 11
18.34545581694213
 21
-4.594574097267918
 31
0.0
  0
LINE
  5
1B6
330
1F
100
AcDbEntity
  8
중심선
 62
     1
100
AcDbLine
 10
-37.45
 20
0.0010749287238949
 30
0.0
 11
32.05000000000001
 21
0.0010749287239007
 31
0.0
  0
LINE
  5
1B7
330
1F
100
AcDbEntity
  8
참조1
100
AcDbLine
 10
-12.97500000000001
 20
0.0010749287238892
 30
0.0
 11
-12.97500000000001
 21
-39.99892507127611
 31
0.0
  0
LINE
  5
1B8
330
1F
100
AcDbEntity
  8
참조1
100
AcDbLine
 10
-12.97500000000001
 20
-39.99892507127611
 30
0.0
 11
-12.55707599297551
 21
-39.9989250712761
 31
0.0
  0
INSERT
  5
1BA
330
1F
100
AcDbEntity
  8
0
  6
Continuous
 62
     7
100
AcDbBlockReference
 66
     1
  2
블럭10
 10
-26.91527293212522
 20
-52.04609937292004
 30
0.0
  0
ATTRIB
  5
1BB
330
1BA
100
AcDbEntity
  8
FORMAT
 62
     2
100
AcDbText
 10
-37.9623742789157
 20
-49.97073246008785
 30
0.0
 40
4.233333333333333
  1
E2193024 [ 4 FLUTE ]
 41
0.75
  7
SLDTEXTSTYLE0
 11
-37.9623742789157
 21
-52.08739912675452
 31
0.0
100
AcDbAttribute
  2
AUTOATTR0
 70
     0
 74
     1
  0
SEQEND
  5
1BC
330
1BA
100
AcDbEntity
  8
0
  6
Continuous
 62
     7
  0
HATCH
  5
1BD
330
1F
100
AcDbEntity
  8
중심선
100
AcDbHatch
 10
0.0
 20
0.0
 30
0.0
210
0.0
220
0.0
230
1.0
  2
SOLID
 70
     1
 71
     0
 91
        1
 92
        0
 93
        4
 72
     1
 10
-21.20036362774438
 20
-35.7989250712761
 11
-24.64663887158166
 21
-35.7989250712761
 72
     1
 10
-24.64663887158166
 20
-35.7989250712761
 11
-26.77486873078569
 21
-38.33525065184867
 72
     1
 10
-26.77486873078569
 20
-38.33525065184867
 11
-23.32856040183525
 21
-38.33521122254619
 72
     1
 10
-23.32856040183525
 20
-38.33521122254619
 11
-21.20036362774438
 21
-35.7989250712761
 97
        0
 75
     0
 76
     1
 98
        1
 10
-2.0
 20
0.0
  0
HATCH
  5
1BE
330
1F
100
AcDbEntity
  8
중심선
100
AcDbHatch
 10
0.0
 20
0.0
 30
0.0
210
0.0
220
0.0
230
1.0
  2
SOLID
 70
     1
 71
     0
 91
        1
 92
        0
 93
        4
 72
     1
 10
-16.18759963670841
 20
-35.7989250712761
 11
-19.63387488054569
 21
-35.7989250712761
 72
     1
 10
-19.63387488054569
 20
-35.7989250712761
 11
-24.1650128889031
 21
-41.19892507127612
 72
     1
 10
-24.1650128889031
 20
-41.19892507127612
 11
-20.71873764506582
 21
-41.19892507127612
 72
     1
 10
-20.71873764506582
 20
-41.19892507127612
 11
-16.18759963670841
 21
-35.7989250712761
 97
        0
 75
     0
 76
     1
 98
        1
 10
-2.0
 20
0.0
  0
HATCH
  5
1BF
330
1F
100
AcDbEntity
  8
중심선
100
AcDbHatch
 10
0.0
 20
0.0
 30
0.0
210
0.0
220
0.0
230
1.0
  2
SOLID
 70
     1
 71
     0
 91
        1
 92
        0
 93
        4
 72
     1
 10
-11.17483564567254
 20
-35.79892507127608
 11
-14.62111088950962
 21
-35.7989250712761
 72
     1
 10
-14.62111088950962
 20
-35.7989250712761
 11
-21.6695477913989
 21
-44.19892507127612
 72
     1
 10
-21.6695477913989
 20
-44.19892507127612
 11
-18.22327254756162
 21
-44.19892507127612
 72
     1
 10
-18.22327254756162
 20
-44.19892507127612
 11
-11.17483564567254
 21
-35.79892507127608
 97
        0
 75
     0
 76
     1
 98
        1
 10
-2.0
 20
0.0
  0
HATCH
  5
1C0
330
1F
100
AcDbEntity
  8
중심선
100
AcDbHatch
 10
0.0
 20
0.0
 30
0.0
210
0.0
220
0.0
230
1.0
  2
SOLID
 70
     1
 71
     0
 91
        1
 92
        0
 93
        6
 72
     3
 10
-6.374945214660336
 20
-39.99892507132738
 11
3.960054785062284
 21
1.540882976769353E-10
 40
0.3939339440162627
 50
17.09539180608436
 51
320.0019657685086
 73
     0
 72
     1
 10
-4.691945558959741
 20
-38.58681907591443
 11
-2.386643685258676
 21
-36.65249236586649
 72
     3
 10
-6.374945214713183
 20
-39.99892507127625
 11
6.600054785286829
 21
-1.278976924368180E-13
 40
0.636358354079598
 50
39.99873849337385
 51
368.4976242363724
 73
     1
 72
     1
 10
0.0503872771874265
 20
-39.03892507120613
 11
-7.69487790787726
 21
-39.03892507120613
 72
     1
 10
-7.69487790787726
 20
-39.03892507120613
 11
-7.694902952323194
 21
-40.95892507120602
 72
     1
 10
-7.694902952323194
 20
-40.95892507120602
 11
-3.253523182851157
 21
-40.95892507120599
 97
        0
 75
     0
 76
     1
 98
        1
 10
-2.0
 20
0.0
  0
DIMENSION
  5
1C1
330
1F
100
AcDbEntity
  8
치수문자_일반주서
100
AcDbDimension
  2
_D
 10
-47.49750000000007
 20
-4.76142507127616
 30
0.0
 11
-47.49750000000009
 21
0.0010749287238347
 31
0.0
 70
   160
  1
%%c<>
 71
     2
 42
9.524999999999995
 52
-270.0
  3
SLDDIMSTYLE0
100
AcDbAlignedDimension
 13
-32.4975
 23
4.763574928723891
 33
0.0
 14
-33.4975
 24
-4.761425071276108
 34
0.0
 50
90.0000000000002
100
AcDbRotatedDimension
1001
ACAD
1000
DSTYLE
1002
{
1070
   171
1070
     6
1070
   273
1070
     7
1002
}
  0
DIMENSION
  5
1D6
330
1F
100
AcDbEntity
  8
치수문자_일반주서
100
AcDbDimension
  2
_D_1
 10
48.79780527335532
 20
-4.761425071276026
 30
0.0
 11
48.7978052733552
 21
26.93501761835116
 31
0.0
 70
   160
  1
%%c<>
 71
     2
 42
9.524999999999999
 52
-270.0
  3
SLDDIMSTYLE1
100
AcDbAlignedDimension
 13
29.05
 23
4.763574928723898
 33
0.0
 14
29.05
 24
-4.761425071276101
 34
0.0
 50
90.0000000000002
100
AcDbRotatedDimension
1001
ACAD
1000
DSTYLE
1002
{
1070
   171
1070
     6
1070
   273
1070
     7
1002
}
  0
DIMENSION
  5
1EA
330
1F
100
AcDbEntity
  8
치수문자_일반주서
100
AcDbDimension
  2
_D_2
 10
9.999999999999996
 20
14.0304419649438
 30
0.0
 11
19.525
 21
14.0304419649438
 31
0.0
 70
   160
  1
<>
 71
     2
 42
19.05
  3
SLDDIMSTYLE0
100
AcDbAlignedDimension
 13
29.05
 23
4.557356607283178
 33
0.0
 14
9.999999999999996
 24
4.145005119352366
 34
0.0
100
AcDbRotatedDimension
1001
ACAD
1000
DSTYLE
1002
{
1070
   171
1070
     6
1070
   273
1070
     7
1002
}
  0
DIMENSION
  5
1FF
330
1F
100
AcDbEntity
  8
치수문자_일반주서
100
AcDbDimension
  2
_D_3
 10
-34.45
 20
31.12448611372341
 30
0.0
 11
-3.820603582335909
 21
31.12448611372341
 31
0.0
 70
   160
  1
<>
 71
     2
 42
63.5
  3
SLDDIMSTYLE1
100
AcDbAlignedDimension
 13
29.05
 23
4.763574928723898
 33
0.0
 14
-34.45
 24
3.811074928723897
 34
0.0
 50
-0.0000000000000087
100
AcDbRotatedDimension
1001
ACAD
1000
DSTYLE
1002
{
1070
   171
1070
     6
1070
   273
1070
     7
1002
}
  0
LINE
  5
212
330
1F
100
AcDbEntity
  8
참조1
100
AcDbLine
 10
85.41526463667876
 20
7.441074928723896
 30
0.0
 11
85.41526463667876
 21
-7.438925071276109
 31
0.0
  0
LINE
  5
213
330
1F
100
AcDbEntity
  8
참조1
100
AcDbLine
 10
98.11526463667876
 20
5.441074928723896
 30
0.0
 11
85.41526463667876
 21
5.441074928723896
 31
0.0
  0
SOLID
  5
214
330
1F
100
AcDbEntity
  8
참조1
100
AcDbTrace
 10
85.41526463667876
 20
5.441074928723896
 30
0.0
 11
91.76526463667875
 21
4.425074928723896
 31
0.0
 12
91.76526463667875
 22
6.457074928723896
 32
0.0
 13
91.76526463667875
 23
6.457074928723896
 33
0.0
  0
LINE
  5
215
330
1F
100
AcDbEntity
  8
참조1
100
AcDbLine
 10
98.11526463667876
 20
-5.438925071276109
 30
0.0
 11
85.41526463667876
 21
-5.438925071276109
 31
0.0
  0
SOLID
  5
216
330
1F
100
AcDbEntity
  8
참조1
100
AcDbTrace
 10
85.41526463667876
 20
-5.438925071276109
 30
0.0
 11
91.76526463667875
 21
-6.454925071276109
 31
0.0
 12
91.76526463667875
 22
-4.422925071276109
 32
0.0
 13
91.76526463667875
 23
-4.422925071276109
 33
0.0
  0
MTEXT
  5
217
330
1F
100
AcDbEntity
  8
참조1
100
AcDbMText
 10
95.01537944724133
 20
11.06679249473997
 30
0.0
 40
3.5
 41
0.0
 71
     1
 72
     1
  1
A
  7
SLDTEXTSTYLE0
 73
     1
 44
1.0
  0
MTEXT
  5
218
330
1F
100
AcDbEntity
  8
참조1
100
AcDbMText
 10
95.01537944724133
 20
0.1867924947399659
 30
0.0
 40
3.5
 41
0.0
 71
     1
 72
     1
  1
A
  7
SLDTEXTSTYLE0
 73
     1
 44
1.0
  0
LINE
  5
2C0
330
1F
100
AcDbEntity
  8
외형선
  6
Continuous
370
    15
100
AcDbLine
 10
-33.4975
 20
4.763574928723898
 30
0.0
 11
-34.45
 21
3.811074928723897
 31
0.0
  0
LINE
  5
2C1
330
1F
100
AcDbEntity
  8
외형선
  6
Continuous
370
    15
100
AcDbLine
 10
-34.45
 20
-3.808925071276114
 30
0.0
 11
-33.4975
 21
-4.761425071276108
 31
0.0
  0
LINE
  5
2C2
330
1F
100
AcDbEntity
  8
외형선
  6
Continuous
370
    15
100
AcDbLine
 10
-33.4975
 20
-4.761425071276108
 30
0.0
 11
10.00000000000001
 21
-4.761425071276108
 31
0.0
  0
LINE
  5
2C3
330
1F
100
AcDbEntity
  8
외형선
  6
Continuous
370
    15
100
AcDbLine
 10
10.00000000000001
 20
4.763574928723891
 30
0.0
 11
-9.767549999999886
 21
4.763574928723891
 31
0.0
1001
PE_URL
1000

  0
LINE
  5
2C4
330
1F
100
AcDbEntity
  8
외형선
  6
Continuous
370
    15
100
AcDbLine
 10
10.00000000000001
 20
0.4091323545544441
 30
0.0
 11
10.00000000000001
 21
2.020180002828603
 31
0.0
  0
LINE
  5
2C6
330
1F
100
AcDbEntity
  8
외형선
  6
Continuous
370
    15
100
AcDbLine
 10
10.00000000000001
 20
-4.743911413429743
 30
0.0
 11
10.00000000000001
 21
-4.312232497106592
 31
0.0
  0
LINE
  5
2C7
330
1F
100
AcDbEntity
  8
외형선
  6
Continuous
370
    15
100
AcDbLine
 10
-33.4975
 20
0.0010749287238951
 30
0.0
 11
-33.4975
 21
4.763574928723898
 31
0.0
  0
LINE
  5
2C8
330
1F
100
AcDbEntity
  8
외형선
  6
Continuous
370
    15
100
AcDbLine
 10
-33.4975
 20
-4.761425071276108
 30
0.0
 11
-33.4975
 21
0.0010749287238951
 31
0.0
  0
LINE
  5
2C9
330
1F
100
AcDbEntity
  8
외형선
  6
Continuous
370
    15
100
AcDbLine
 10
-34.45
 20
0.0010749287238951
 30
0.0
 11
-34.45
 21
3.811074928723897
 31
0.0
  0
LINE
  5
2CA
330
1F
100
AcDbEntity
  8
외형선
  6
Continuous
370
    15
100
AcDbLine
 10
-34.45
 20
-3.808925071276114
 30
0.0
 11
-34.45
 21
0.0010749287238951
 31
0.0
  0
LINE
  5
2CB
330
1F
100
AcDbEntity
  8
외형선
  6
Continuous
370
    15
100
AcDbLine
 10
10.00000000000001
 20
0.0010749287238951
 30
0.0
 11
10.00000000000001
 21
4.763574928723891
 31
0.0
  0
LINE
  5
2CC
330
1F
100
AcDbEntity
  8
외형선
  6
Continuous
370
    15
100
AcDbLine
 10
10.00000000000001
 20
-4.761425071276108
 30
0.0
 11
10.00000000000001
 21
0.0010749287238951
 31
0.0
  0
CIRCLE
  5
2CD
330
1F
100
AcDbEntity
  8
해칭선
100
AcDbCircle
 10
0.0
 20
0.0
 30
0.0
 40
3.000000000000008
  0
INSERT
  5
2CE
330
1F
100
AcDbEntity
  8
해칭선
100
AcDbBlockReference
  2
SW_DOWELSYMBOL_0
 10
0.0
 20
0.0
 30
0.0
  0
LINE
  5
2CF
330
1F
100
AcDbEntity
  8
외형선
  6
Continuous
370
    15
100
AcDbLine
 10
-18.17495000000012
 20
3.493574928723902
 30
0.0
 11
-11.03755
 21
3.493574928723902
 31
0.0
1001
PE_URL
1000

  0
LINE
  5
2D0
330
1F
100
AcDbEntity
  8
외형선
  6
Continuous
370
    15
100
AcDbLine
 10
-18.17495000000012
 20
3.493574928723902
 30
0.0
 11
-19.44495000000011
 21
4.763574928723884
 31
0.0
1001
PE_URL
1000

  0
LINE
  5
2D1
330
1F
100
AcDbEntity
  8
외형선
  6
Continuous
370
    15
100
AcDbLine
 10
-11.03755
 20
3.493574928723902
 30
0.0
 11
-9.7675499999999
 21
4.763574928723884
 31
0.0
1001
PE_URL
1000

  0
LINE
  5
2D2
330
1F
100
AcDbEntity
  8
외형선
  6
Continuous
370
    15
100
AcDbLine
 10
-19.44495000000012
 20
4.763574928723891
 30
0.0
 11
-33.4975
 21
4.763574928723891
 31
0.0
  0
ARC
  5
342
330
1F
100
AcDbEntity
  8
외형선
  6
Continuous
 62
     1
370
    15
100
AcDbCircle
 10
24.2875
 20
0.0010749287239022
 30
0.0
 40
4.762499999999999
100
AcDbArc
 50
288.8618553601417
 51
90.0
  0
ENDSEC
  0
SECTION
  2
OBJECTS
  0
DICTIONARY
  5
C
330
0
100
AcDbDictionary
281
     1
  3
ACAD_GROUP
350
D
  3
ACAD_IMAGE_VARS
350
243
  3
ACAD_LAYOUT
350
1A
  3
ACAD_MLINESTYLE
350
17
  3
ACAD_PLOTSETTINGS
350
19
  3
ACAD_PLOTSTYLENAME
350
E
  3
ACAD_SCALELIST
350
47
  3
APPDATA
350
241
  3
DWGPROPS
350
345
  0
DICTIONARY
  5
270
330
2
100
AcDbDictionary
280
     1
281
     1
  3
ACAD_LAYERSTATES
360
271
  0
DICTIONARY
  5
D
102
{ACAD_REACTORS
330
C
102
}
330
C
100
AcDbDictionary
281
     1
  0
RASTERVARIABLES
  5
243
102
{ACAD_REACTORS
330
C
102
}
330
C
100
AcDbRasterVariables
 90
        0
 70
     1
 71
     1
 72
     1
  0
DICTIONARY
  5
1A
102
{ACAD_REACTORS
330
C
102
}
330
C
100
AcDbDictionary
281
     1
  3
Layout1
350
1E
  3
Layout2
350
26
  3
Model
350
22
  0
DICTIONARY
  5
17
102
{ACAD_REACTORS
330
C
102
}
330
C
100
AcDbDictionary
281
     1
  3
Standard
350
18
  0
DICTIONARY
  5
19
102
{ACAD_REACTORS
330
C
102
}
330
C
100
AcDbDictionary
281
     1
  0
ACDBDICTIONARYWDFLT
  5
E
102
{ACAD_REACTORS
330
C
102
}
330
C
100
AcDbDictionary
281
     1
  3
Normal
350
F
100
AcDbDictionaryWithDefault
340
F
  0
DICTIONARY
  5
47
102
{ACAD_REACTORS
330
C
102
}
330
C
100
AcDbDictionary
281
     1
  3
A0
350
48
  3
A1
350
49
  3
A2
350
4A
  3
A3
350
4B
  3
A4
350
4C
  3
A5
350
4D
  3
A6
350
4E
  3
A7
350
4F
  3
A8
350
50
  3
A9
350
51
  3
B0
350
52
  3
B1
350
53
  3
B2
350
54
  3
B3
350
55
  3
B4
350
56
  3
B5
350
57
  3
B6
350
58
  3
B7
350
59
  3
B8
350
5A
  3
B9
350
5B
  3
C0
350
5C
  3
C1
350
5D
  3
C2
350
5E
  3
C3
350
5F
  3
C4
350
60
  3
C5
350
61
  3
C6
350
62
  3
C7
350
63
  3
C8
350
64
  3
C9
350
65
  3
D0
350
66
  3
D1
350
67
  3
D2
350
68
  0
DICTIONARY
  5
241
102
{ACAD_REACTORS
330
C
102
}
330
C
100
AcDbDictionary
281
     1
  0
XRECORD
  5
345
102
{ACAD_REACTORS
330
C
102
}
330
C
100
AcDbXrecord
280
     1
  1
DWGPROPS COOKIE
  2

  3

  4

  6

  7

  8
12016016
  9

300
=
301
=
302
=
303
=
304
=
305
=
306
=
307
=
308
=
309
=
 40
0.0
 41
2458324.193696482
 42
2458332.351909283
  1

 90
        0
  0
DICTIONARY
  5
271
102
{ACAD_REACTORS
330
270
102
}
330
270
100
AcDbDictionary
281
     1
  0
LAYOUT
  5
1E
102
{ACAD_REACTORS
330
1A
102
}
330
1A
100
AcDbPlotSettings
  1

  2
none_device
  4

  6

 40
0.0
 41
0.0
 42
0.0
 43
0.0
 44
0.0
 45
0.0
 46
0.0
 47
0.0
 48
0.0
 49
0.0
140
0.0
141
0.0
142
1.0
143
1.0
 70
   688
 72
     1
 73
     0
 74
     5
  7

 75
    16
147
1.0
148
0.0
149
0.0
100
AcDbLayout
  1
Layout1
 70
     1
 71
     1
 10
0.0
 20
0.0
 11
420.0
 21
297.0
 12
0.0
 22
0.0
 32
0.0
 14
1.000000000000000E+20
 24
1.000000000000000E+20
 34
1.000000000000000E+20
 15
-1.000000000000000E+20
 25
-1.000000000000000E+20
 35
-1.000000000000000E+20
146
0.0
 13
0.0
 23
0.0
 33
0.0
 16
1.0
 26
0.0
 36
0.0
 17
0.0
 27
1.0
 37
0.0
 76
     0
330
1B
  0
LAYOUT
  5
26
102
{ACAD_REACTORS
330
1A
102
}
330
1A
100
AcDbPlotSettings
  1

  2
none_device
  4

  6

 40
0.0
 41
0.0
 42
0.0
 43
0.0
 44
0.0
 45
0.0
 46
0.0
 47
0.0
 48
0.0
 49
0.0
140
0.0
141
0.0
142
1.0
143
1.0
 70
   688
 72
     1
 73
     0
 74
     5
  7

 75
    16
147
1.0
148
0.0
149
0.0
100
AcDbLayout
  1
Layout2
 70
     1
 71
     2
 10
0.0
 20
0.0
 11
0.0
 21
0.0
 12
0.0
 22
0.0
 32
0.0
 14
0.0
 24
0.0
 34
0.0
 15
0.0
 25
0.0
 35
0.0
146
0.0
 13
0.0
 23
0.0
 33
0.0
 16
1.0
 26
0.0
 36
0.0
 17
0.0
 27
1.0
 37
0.0
 76
     0
330
23
  0
LAYOUT
  5
22
102
{ACAD_REACTORS
330
1A
102
}
330
1A
100
AcDbPlotSettings
  1

  2
none_device
  4
ANSI_A_(11.00_x_8.50_Inches)
  6

 40
6.35
 41
19.05
 42
6.35000508
 43
19.05000254
 44
279.4
 45
215.9
 46
115.1170579850616
 47
95.77756320058529
 48
0.0
 49
0.0
140
0.0
141
0.0
142
0.0615573687504892
143
1.0
 70
  1696
 72
     0
 73
     0
 74
     0
  7

 75
     0
147
0.0235690232323232
148
0.0
149
0.0
100
AcDbLayout
  1
Model
 70
     1
 71
     0
 10
0.0
 20
0.0
 11
420.0
 21
297.0
 12
0.0
 22
0.0
 32
0.0
 14
-51.87250000000014
 24
-49.97073246008785
 34
0.0
 15
98.11526463667876
 25
40.06001761835116
 35
0.0
146
0.0
 13
0.0
 23
0.0
 33
0.0
 16
1.0
 26
0.0
 36
0.0
 17
0.0
 27
1.0
 37
0.0
 76
     0
330
1F
331
29
  0
MLINESTYLE
  5
18
102
{ACAD_REACTORS
330
17
102
}
330
17
100
AcDbMlineStyle
  2
Standard
 70
     0
  3

 62
   256
 51
90.0
 52
90.0
 71
     2
 49
0.5
 62
   256
  6
BYLAYER
 49
-0.5
 62
   256
  6
BYLAYER
  0
ACDBPLACEHOLDER
  5
F
102
{ACAD_REACTORS
330
E
102
}
330
E
  0
SCALE
  5
48
102
{ACAD_REACTORS
330
47
102
}
330
47
100
AcDbScale
 70
     0
300
1:1
140
1.0
141
1.0
290
     1
  0
SCALE
  5
49
102
{ACAD_REACTORS
330
47
102
}
330
47
100
AcDbScale
 70
     0
300
1:2
140
1.0
141
2.0
290
     0
  0
SCALE
  5
4A
102
{ACAD_REACTORS
330
47
102
}
330
47
100
AcDbScale
 70
     0
300
1:4
140
1.0
141
4.0
290
     0
  0
SCALE
  5
4B
102
{ACAD_REACTORS
330
47
102
}
330
47
100
AcDbScale
 70
     0
300
1:5
140
1.0
141
5.0
290
     0
  0
SCALE
  5
4C
102
{ACAD_REACTORS
330
47
102
}
330
47
100
AcDbScale
 70
     0
300
1:8
140
1.0
141
8.0
290
     0
  0
SCALE
  5
4D
102
{ACAD_REACTORS
330
47
102
}
330
47
100
AcDbScale
 70
     0
300
1:10
140
1.0
141
10.0
290
     0
  0
SCALE
  5
4E
102
{ACAD_REACTORS
330
47
102
}
330
47
100
AcDbScale
 70
     0
300
1:16
140
1.0
141
16.0
290
     0
  0
SCALE
  5
4F
102
{ACAD_REACTORS
330
47
102
}
330
47
100
AcDbScale
 70
     0
300
1:20
140
1.0
141
20.0
290
     0
  0
SCALE
  5
50
102
{ACAD_REACTORS
330
47
102
}
330
47
100
AcDbScale
 70
     0
300
1:30
140
1.0
141
30.0
290
     0
  0
SCALE
  5
51
102
{ACAD_REACTORS
330
47
102
}
330
47
100
AcDbScale
 70
     0
300
1:40
140
1.0
141
40.0
290
     0
  0
SCALE
  5
52
102
{ACAD_REACTORS
330
47
102
}
330
47
100
AcDbScale
 70
     0
300
1:50
140
1.0
141
50.0
290
     0
  0
SCALE
  5
53
102
{ACAD_REACTORS
330
47
102
}
330
47
100
AcDbScale
 70
     0
300
1:100
140
1.0
141
100.0
290
     0
  0
SCALE
  5
54
102
{ACAD_REACTORS
330
47
102
}
330
47
100
AcDbScale
 70
     0
300
2:1
140
2.0
141
1.0
290
     0
  0
SCALE
  5
55
102
{ACAD_REACTORS
330
47
102
}
330
47
100
AcDbScale
 70
     0
300
4:1
140
4.0
141
1.0
290
     0
  0
SCALE
  5
56
102
{ACAD_REACTORS
330
47
102
}
330
47
100
AcDbScale
 70
     0
300
8:1
140
8.0
141
1.0
290
     0
  0
SCALE
  5
57
102
{ACAD_REACTORS
330
47
102
}
330
47
100
AcDbScale
 70
     0
300
10:1
140
10.0
141
1.0
290
     0
  0
SCALE
  5
58
102
{ACAD_REACTORS
330
47
102
}
330
47
100
AcDbScale
 70
     0
300
100:1
140
100.0
141
1.0
290
     0
  0
SCALE
  5
59
102
{ACAD_REACTORS
330
47
102
}
330
47
100
AcDbScale
 70
     0
300
1/128" = 1'-0"
140
0.0078125
141
12.0
290
     0
  0
SCALE
  5
5A
102
{ACAD_REACTORS
330
47
102
}
330
47
100
AcDbScale
 70
     0
300
1/64" = 1'-0"
140
0.015625
141
12.0
290
     0
  0
SCALE
  5
5B
102
{ACAD_REACTORS
330
47
102
}
330
47
100
AcDbScale
 70
     0
300
1/32" = 1'-0"
140
0.03125
141
12.0
290
     0
  0
SCALE
  5
5C
102
{ACAD_REACTORS
330
47
102
}
330
47
100
AcDbScale
 70
     0
300
1/16" = 1'-0"
140
0.0625
141
12.0
290
     0
  0
SCALE
  5
5D
102
{ACAD_REACTORS
330
47
102
}
330
47
100
AcDbScale
 70
     0
300
3/32" = 1'-0"
140
0.09375
141
12.0
290
     0
  0
SCALE
  5
5E
102
{ACAD_REACTORS
330
47
102
}
330
47
100
AcDbScale
 70
     0
300
1/8" = 1'-0"
140
0.125
141
12.0
290
     0
  0
SCALE
  5
5F
102
{ACAD_REACTORS
330
47
102
}
330
47
100
AcDbScale
 70
     0
300
3/16" = 1'-0"
140
0.1875
141
12.0
290
     0
  0
SCALE
  5
60
102
{ACAD_REACTORS
330
47
102
}
330
47
100
AcDbScale
 70
     0
300
1/4" = 1'-0"
140
0.25
141
12.0
290
     0
  0
SCALE
  5
61
102
{ACAD_REACTORS
330
47
102
}
330
47
100
AcDbScale
 70
     0
300
3/8" = 1'-0"
140
0.375
141
12.0
290
     0
  0
SCALE
  5
62
102
{ACAD_REACTORS
330
47
102
}
330
47
100
AcDbScale
 70
     0
300
1/2" = 1'-0"
140
0.5
141
12.0
290
     0
  0
SCALE
  5
63
102
{ACAD_REACTORS
330
47
102
}
330
47
100
AcDbScale
 70
     0
300
3/4" = 1'-0"
140
0.75
141
12.0
290
     0
  0
SCALE
  5
64
102
{ACAD_REACTORS
330
47
102
}
330
47
100
AcDbScale
 70
     0
300
1" = 1'-0"
140
1.0
141
12.0
290
     0
  0
SCALE
  5
65
102
{ACAD_REACTORS
330
47
102
}
330
47
100
AcDbScale
 70
     0
300
1-1/2" = 1'-0"
140
1.5
141
12.0
290
     0
  0
SCALE
  5
66
102
{ACAD_REACTORS
330
47
102
}
330
47
100
AcDbScale
 70
     0
300
3" = 1'-0"
140
3.0
141
12.0
290
     0
  0
SCALE
  5
67
102
{ACAD_REACTORS
330
47
102
}
330
47
100
AcDbScale
 70
     0
300
6" = 1'-0"
140
6.0
141
12.0
290
     0
  0
SCALE
  5
68
102
{ACAD_REACTORS
330
47
102
}
330
47
100
AcDbScale
 70
     0
300
1'-0" = 1'-0"
140
12.0
141
12.0
290
     0
  0
ENDSEC
  0
EOF
