  0
SECTION
  2
HEADER
  9
$ACADVER
  1
AC1015
  9
$ACADMAINTVER
 70
     6
  9
$DWGCODEPAGE
  3
ANSI_949
  9
$INSBASE
 10
0.0
 20
0.0
 30
0.0
  9
$EXTMIN
 10
1.000000000000000E+20
 20
1.000000000000000E+20
 30
1.000000000000000E+20
  9
$EXTMAX
 10
-1.000000000000000E+20
 20
-1.000000000000000E+20
 30
-1.000000000000000E+20
  9
$LIMMIN
 10
0.0
 20
0.0
  9
$LIMMAX
 10
420.0
 20
297.0
  9
$ORTHOMODE
 70
     0
  9
$REGENMODE
 70
     1
  9
$FILLMODE
 70
     1
  9
$QTEXTMODE
 70
     0
  9
$MIRRTEXT
 70
     1
  9
$LTSCALE
 40
1.0
  9
$ATTMODE
 70
     1
  9
$TEXTSIZE
 40
3.5
  9
$TRACEWID
 40
1.0
  9
$TEXTSTYLE
  7
Standard
  9
$CLAYER
  8
0
  9
$CELTYPE
  6
ByLayer
  9
$CECOLOR
 62
   256
  9
$CELTSCALE
 40
1.0
  9
$DISPSILH
 70
     0
  9
$DIMSCALE
 40
1.0
  9
$DIMASZ
 40
3.302
  9
$DIMEXO
 40
1.0
  9
$DIMDLI
 40
3.75
  9
$DIMRND
 40
0.0
  9
$DIMDLE
 40
0.0
  9
$DIMEXE
 40
1.0
  9
$DIMTP
 40
0.0
  9
$DIMTM
 40
0.0
  9
$DIMTXT
 40
3.5
  9
$DIMCEN
 40
2.5
  9
$DIMTSZ
 40
0.0
  9
$DIMTOL
 70
     0
  9
$DIMLIM
 70
     0
  9
$DIMTIH
 70
     1
  9
$DIMTOH
 70
     1
  9
$DIMSE1
 70
     0
  9
$DIMSE2
 70
     0
  9
$DIMTAD
 70
     1
  9
$DIMZIN
 70
     0
  9
$DIMBLK
  1

  9
$DIMASO
 70
     1
  9
$DIMSHO
 70
     1
  9
$DIMPOST
  1

  9
$DIMAPOST
  1

  9
$DIMALT
 70
     0
  9
$DIMALTD
 70
     3
  9
$DIMALTF
 40
0.0393700787401575
  9
$DIMLFAC
 40
1.0
  9
$DIMTOFL
 70
     1
  9
$DIMTVP
 40
0.0
  9
$DIMTIX
 70
     0
  9
$DIMSOXD
 70
     0
  9
$DIMSAH
 70
     0
  9
$DIMBLK1
  1

  9
$DIMBLK2
  1

  9
$DIMSTYLE
  2
ISO-25
  9
$DIMCLRD
 70
     0
  9
$DIMCLRE
 70
     0
  9
$DIMCLRT
 70
     0
  9
$DIMTFAC
 40
1.0
  9
$DIMGAP
 40
1.524
  9
$DIMJUST
 70
     0
  9
$DIMSD1
 70
     0
  9
$DIMSD2
 70
     0
  9
$DIMTOLJ
 70
     0
  9
$DIMTZIN
 70
     0
  9
$DIMALTZ
 70
     0
  9
$DIMALTTZ
 70
     0
  9
$DIMUPT
 70
     0
  9
$DIMDEC
 70
     2
  9
$DIMTDEC
 70
     2
  9
$DIMALTU
 70
     2
  9
$DIMALTTD
 70
     3
  9
$DIMTXSTY
  7
Standard
  9
$DIMAUNIT
 70
     0
  9
$DIMADEC
 70
     2
  9
$DIMALTRND
 40
0.0
  9
$DIMAZIN
 70
     0
  9
$DIMDSEP
 70
    44
  9
$DIMATFIT
 70
     3
  9
$DIMFRAC
 70
     0
  9
$DIMLDRBLK
  1

  9
$DIMLUNIT
 70
     2
  9
$DIMLWD
 70
    -2
  9
$DIMLWE
 70
    -2
  9
$DIMTMOVE
 70
     0
  9
$LUNITS
 70
     2
  9
$LUPREC
 70
     2
  9
$SKETCHINC
 40
1.0
  9
$FILLETRAD
 40
10.0
  9
$AUNITS
 70
     0
  9
$AUPREC
 70
     2
  9
$MENU
  1
.
  9
$ELEVATION
 40
0.0
  9
$PELEVATION
 40
0.0
  9
$THICKNESS
 40
0.0
  9
$LIMCHECK
 70
     0
  9
$CHAMFERA
 40
0.0
  9
$CHAMFERB
 40
0.0
  9
$CHAMFERC
 40
0.0
  9
$CHAMFERD
 40
0.0
  9
$SKPOLY
 70
     0
  9
$TDCREATE
 40
2458319.415966157
  9
$TDUCREATE
 40
2458319.040966157
  9
$TDUPDATE
 40
2458331.603798275
  9
$TDUUPDATE
 40
2458331.228798275
  9
$TDINDWG
 40
0.0009991204
  9
$TDUSRTIMER
 40
2458331.227799456
  9
$USRTIMER
 70
     1
  9
$ANGBASE
 50
0.0
  9
$ANGDIR
 70
     0
  9
$PDMODE
 70
     0
  9
$PDSIZE
 40
-1.0
  9
$PLINEWID
 40
0.0
  9
$SPLFRAME
 70
     0
  9
$SPLINETYPE
 70
     6
  9
$SPLINESEGS
 70
     8
  9
$HANDSEED
  5
2A3
  9
$SURFTAB1
 70
     6
  9
$SURFTAB2
 70
     6
  9
$SURFTYPE
 70
     6
  9
$SURFU
 70
     6
  9
$SURFV
 70
     6
  9
$UCSBASE
  2

  9
$UCSNAME
  2

  9
$UCSORG
 10
0.0
 20
0.0
 30
0.0
  9
$UCSXDIR
 10
1.0
 20
0.0
 30
0.0
  9
$UCSYDIR
 10
0.0
 20
1.0
 30
0.0
  9
$UCSORTHOREF
  2

  9
$UCSORTHOVIEW
 70
     0
  9
$UCSORGTOP
 10
0.0
 20
0.0
 30
0.0
  9
$UCSORGBOTTOM
 10
0.0
 20
0.0
 30
0.0
  9
$UCSORGLEFT
 10
0.0
 20
0.0
 30
0.0
  9
$UCSORGRIGHT
 10
0.0
 20
0.0
 30
0.0
  9
$UCSORGFRONT
 10
0.0
 20
0.0
 30
0.0
  9
$UCSORGBACK
 10
0.0
 20
0.0
 30
0.0
  9
$PUCSBASE
  2

  9
$PUCSNAME
  2

  9
$PUCSORG
 10
0.0
 20
0.0
 30
0.0
  9
$PUCSXDIR
 10
1.0
 20
0.0
 30
0.0
  9
$PUCSYDIR
 10
0.0
 20
1.0
 30
0.0
  9
$PUCSORTHOREF
  2

  9
$PUCSORTHOVIEW
 70
     0
  9
$PUCSORGTOP
 10
0.0
 20
0.0
 30
0.0
  9
$PUCSORGBOTTOM
 10
0.0
 20
0.0
 30
0.0
  9
$PUCSORGLEFT
 10
0.0
 20
0.0
 30
0.0
  9
$PUCSORGRIGHT
 10
0.0
 20
0.0
 30
0.0
  9
$PUCSORGFRONT
 10
0.0
 20
0.0
 30
0.0
  9
$PUCSORGBACK
 10
0.0
 20
0.0
 30
0.0
  9
$USERI1
 70
     0
  9
$USERI2
 70
     0
  9
$USERI3
 70
     0
  9
$USERI4
 70
     0
  9
$USERI5
 70
     0
  9
$USERR1
 40
0.0
  9
$USERR2
 40
0.0
  9
$USERR3
 40
0.0
  9
$USERR4
 40
0.0
  9
$USERR5
 40
0.0
  9
$WORLDVIEW
 70
     1
  9
$SHADEDGE
 70
     3
  9
$SHADEDIF
 70
    70
  9
$TILEMODE
 70
     1
  9
$MAXACTVP
 70
    64
  9
$PINSBASE
 10
0.0
 20
0.0
 30
0.0
  9
$PLIMCHECK
 70
     0
  9
$PEXTMIN
 10
1.000000000000000E+20
 20
1.000000000000000E+20
 30
1.000000000000000E+20
  9
$PEXTMAX
 10
-1.000000000000000E+20
 20
-1.000000000000000E+20
 30
-1.000000000000000E+20
  9
$PLIMMIN
 10
0.0
 20
0.0
  9
$PLIMMAX
 10
0.0
 20
0.0
  9
$UNITMODE
 70
     0
  9
$VISRETAIN
 70
     1
  9
$PLINEGEN
 70
     0
  9
$PSLTSCALE
 70
     1
  9
$TREEDEPTH
 70
  3020
  9
$CMLSTYLE
  2
Standard
  9
$CMLJUST
 70
     0
  9
$CMLSCALE
 40
20.0
  9
$PROXYGRAPHICS
 70
     1
  9
$MEASUREMENT
 70
     1
  9
$CELWEIGHT
370
    -1
  9
$ENDCAPS
280
     0
  9
$JOINSTYLE
280
     0
  9
$LWDISPLAY
290
     1
  9
$INSUNITS
 70
     4
  9
$HYPERLINKBASE
  1

  9
$STYLESHEET
  1

  9
$XEDIT
290
     1
  9
$CEPSNTYPE
380
     0
  9
$PSTYLEMODE
290
     1
  9
$FINGERPRINTGUID
  2
{EE903B68-BA2A-4BFF-875D-0A8F921AFF29}
  9
$VERSIONGUID
  2
{FAEB1C32-E019-11D5-929B-00C0DF256EC4}
  9
$EXTNAMES
290
     1
  9
$PSVPSCALE
 40
0.0
  9
$OLESTARTUP
290
     0
  0
ENDSEC
  0
SECTION
  2
CLASSES
  0
CLASS
  1
ACDBDICTIONARYWDFLT
  2
AcDbDictionaryWithDefault
  3
ObjectDBX Classes
 90
        0
280
     0
281
     0
  0
CLASS
  1
VISUALSTYLE
  2
AcDbVisualStyle
  3
ObjectDBX Classes
 90
     4095
280
     0
281
     0
  0
CLASS
  1
MATERIAL
  2
AcDbMaterial
  3
ObjectDBX Classes
 90
     1153
280
     0
281
     0
  0
CLASS
  1
SCALE
  2
AcDbScale
  3
ObjectDBX Classes
 90
     1153
280
     0
281
     0
  0
CLASS
  1
SUN
  2
AcDbSun
  3
SCENEOE
 90
     1153
280
     0
281
     0
  0
CLASS
  1
ACDBPLACEHOLDER
  2
AcDbPlaceHolder
  3
ObjectDBX Classes
 90
        0
280
     0
281
     0
  0
CLASS
  1
LAYOUT
  2
AcDbLayout
  3
ObjectDBX Classes
 90
        0
280
     0
281
     0
  0
CLASS
  1
TABLESTYLE
  2
AcDbTableStyle
  3
ObjectDBX Classes
 90
     4095
280
     0
281
     0
  0
CLASS
  1
MLEADERSTYLE
  2
AcDbMLeaderStyle
  3
ACDB_MLEADERSTYLE_CLASS
 90
     4095
280
     0
281
     0
  0
CLASS
  1
RASTERVARIABLES
  2
AcDbRasterVariables
  3
ISM
 90
        0
280
     0
281
     0
  0
ENDSEC
  0
SECTION
  2
TABLES
  0
TABLE
  2
VPORT
  5
8
330
0
100
AcDbSymbolTable
 70
     1
  0
VPORT
  5
29
330
8
100
AcDbSymbolTableRecord
100
AcDbViewportTableRecord
  2
*Active
 70
     0
 10
0.0
 20
0.0
 11
1.0
 21
1.0
 12
-18.66387513634355
 22
-21.72763179841346
 13
0.0
 23
0.0
 14
10.0
 24
10.0
 15
10.0
 25
10.0
 16
0.0
 26
0.0
 36
1.0
 17
0.0
 27
0.0
 37
0.0
 40
110.4383238282923
 41
1.516441005802708
 42
50.0
 43
0.0
 44
0.0
 50
0.0
 51
0.0
 71
    16
 72
  2000
 73
     1
 74
     3
 75
     0
 76
     0
 77
     0
 78
     0
281
     0
 65
     1
110
0.0
120
0.0
130
0.0
111
1.0
121
0.0
131
0.0
112
0.0
122
1.0
132
0.0
 79
     0
146
0.0
  0
ENDTAB
  0
TABLE
  2
LTYPE
  5
5
330
0
100
AcDbSymbolTable
 70
     6
  0
LTYPE
  5
14
330
5
100
AcDbSymbolTableRecord
100
AcDbLinetypeTableRecord
  2
ByBlock
 70
     0
  3

 72
    65
 73
     0
 40
0.0
  0
LTYPE
  5
15
330
5
100
AcDbSymbolTableRecord
100
AcDbLinetypeTableRecord
  2
ByLayer
 70
     0
  3

 72
    65
 73
     0
 40
0.0
  0
LTYPE
  5
16
330
5
100
AcDbSymbolTableRecord
100
AcDbLinetypeTableRecord
  2
Continuous
 70
     0
  3
Solid line
 72
    65
 73
     0
 40
0.0
  0
LTYPE
  5
6A
330
5
100
AcDbSymbolTableRecord
100
AcDbLinetypeTableRecord
  2
HIDDEN
 70
     0
  3
Hidden __ __ __ __ __ __ __ __ __ __ __ __ __ __
 72
    65
 73
     2
 40
1.905
 49
1.27
 74
     0
 49
-0.635
 74
     0
  0
LTYPE
  5
6B
330
5
100
AcDbSymbolTableRecord
100
AcDbLinetypeTableRecord
  2
PHANTOM
 70
     0
  3
Phantom ______  __  __  ______  __  __  ______
 72
    65
 73
     6
 40
12.7
 49
6.35
 74
     0
 49
-1.27
 74
     0
 49
1.27
 74
     0
 49
-1.27
 74
     0
 49
1.27
 74
     0
 49
-1.27
 74
     0
  0
LTYPE
  5
6C
330
5
100
AcDbSymbolTableRecord
100
AcDbLinetypeTableRecord
  2
CENTER
 70
     0
  3
Center ____ _ ____ _ ____ _ ____ _ ____ _ ____
 72
    65
 73
     4
 40
10.16
 49
6.35
 74
     0
 49
-1.27
 74
     0
 49
1.27
 74
     0
 49
-1.27
 74
     0
  0
LTYPE
  5
6D
330
5
100
AcDbSymbolTableRecord
100
AcDbLinetypeTableRecord
  2
CENTERX2
 70
     0
  3
Center (2x) ________  __  ________  __  _____
 72
    65
 73
     4
 40
20.32
 49
12.7
 74
     0
 49
-2.54
 74
     0
 49
2.54
 74
     0
 49
-2.54
 74
     0
  0
LTYPE
  5
6E
330
5
100
AcDbSymbolTableRecord
100
AcDbLinetypeTableRecord
  2
DOT2
 70
     0
  3
Dot (.5x) ........................................
 72
    65
 73
     2
 40
0.635
 49
0.0
 74
     0
 49
-0.635
 74
     0
  0
ENDTAB
  0
TABLE
  2
LAYER
  5
2
102
{ACAD_XDICTIONARY
360
28F
102
}
330
0
100
AcDbSymbolTable
 70
    18
  0
LAYER
  5
10
330
2
100
AcDbSymbolTableRecord
100
AcDbLayerTableRecord
  2
0
 70
     0
 62
     7
  6
Continuous
370
    -3
390
F
  0
LAYER
  5
6F
330
2
100
AcDbSymbolTableRecord
100
AcDbLayerTableRecord
  2
FORMAT
 70
     0
 62
     2
  6
Continuous
370
    -3
390
F
  0
LAYER
  5
70
330
2
100
AcDbSymbolTableRecord
100
AcDbLayerTableRecord
  2
외형선
 70
     0
 62
     4
  6
Continuous
370
    30
390
F
  0
LAYER
  5
71
330
2
100
AcDbSymbolTableRecord
100
AcDbLayerTableRecord
  2
숨은선
 70
     0
 62
     2
  6
HIDDEN
370
    15
390
F
  0
LAYER
  5
72
330
2
100
AcDbSymbolTableRecord
100
AcDbLayerTableRecord
  2
중심선
 70
     0
 62
     1
  6
CENTERX2
370
    -3
390
F
  0
LAYER
  5
73
330
2
100
AcDbSymbolTableRecord
100
AcDbLayerTableRecord
  2
파단선
 70
     0
 62
     4
  6
Continuous
370
    -3
390
F
  0
LAYER
  5
74
330
2
100
AcDbSymbolTableRecord
100
AcDbLayerTableRecord
  2
해칭선
 70
     0
 62
   100
  6
Continuous
370
    -3
390
F
  0
LAYER
  5
75
330
2
100
AcDbSymbolTableRecord
100
AcDbLayerTableRecord
  2
가는실선
 70
     0
 62
     4
  6
Continuous
370
    -3
390
F
  0
LAYER
  5
76
330
2
100
AcDbSymbolTableRecord
100
AcDbLayerTableRecord
  2
치수_보조선
 70
     0
 62
     4
  6
Continuous
370
    -3
390
F
  0
LAYER
  5
77
330
2
100
AcDbSymbolTableRecord
100
AcDbLayerTableRecord
  2
치수문자_일반주서
 70
     0
 62
     7
  6
Continuous
370
    15
390
F
  0
LAYER
  5
78
330
2
100
AcDbSymbolTableRecord
100
AcDbLayerTableRecord
  2
개별주서
 70
     0
 62
   100
  6
Continuous
370
    30
390
F
  0
LAYER
  5
79
330
2
100
AcDbSymbolTableRecord
100
AcDbLayerTableRecord
  2
중간선
 70
     0
 62
     2
  6
Continuous
370
    15
390
F
  0
LAYER
  5
7A
330
2
100
AcDbSymbolTableRecord
100
AcDbLayerTableRecord
  2
윤곽선
 70
     0
 62
     3
  6
Continuous
370
    40
390
F
  0
LAYER
  5
7B
330
2
100
AcDbSymbolTableRecord
100
AcDbLayerTableRecord
  2
중심마크
 70
     0
 62
   100
  6
Continuous
370
    30
390
F
  0
LAYER
  5
7C
330
2
100
AcDbSymbolTableRecord
100
AcDbLayerTableRecord
  2
가상선
 70
     0
 62
     4
  6
PHANTOM
370
    -3
390
F
  0
LAYER
  5
7D
330
2
100
AcDbSymbolTableRecord
100
AcDbLayerTableRecord
  2
특수지정선
 70
     0
 62
     5
  6
CENTERX2
370
    60
390
F
  0
LAYER
  5
7E
330
2
100
AcDbSymbolTableRecord
100
AcDbLayerTableRecord
  2
참조1
 70
     0
 62
    -4
  6
Continuous
370
    -3
390
F
  0
LAYER
  5
261
330
2
100
AcDbSymbolTableRecord
100
AcDbLayerTableRecord
  2
Defpoints
 70
     0
 62
     7
  6
Continuous
290
     0
370
    -3
390
F
  0
ENDTAB
  0
TABLE
  2
STYLE
  5
3
330
0
100
AcDbSymbolTable
 70
     2
  0
STYLE
  5
11
330
3
100
AcDbSymbolTableRecord
100
AcDbTextStyleTableRecord
  2
Standard
 70
     0
 40
0.0
 41
1.0
 50
0.0
 71
     0
 42
3.5
  3
txt
  4

  0
STYLE
  5
94
330
3
100
AcDbSymbolTableRecord
100
AcDbTextStyleTableRecord
  2
SLDTEXTSTYLE0
 70
     0
 40
0.0
 41
0.75
 50
0.0
 71
     0
 42
3.5
  3
TXT
  4

  0
ENDTAB
  0
TABLE
  2
VIEW
  5
6
330
0
100
AcDbSymbolTable
 70
     0
  0
ENDTAB
  0
TABLE
  2
UCS
  5
7
330
0
100
AcDbSymbolTable
 70
     0
  0
ENDTAB
  0
TABLE
  2
APPID
  5
9
330
0
100
AcDbSymbolTable
 70
     1
  0
APPID
  5
12
330
9
100
AcDbSymbolTableRecord
100
AcDbRegAppTableRecord
  2
ACAD
 70
     0
  0
ENDTAB
  0
TABLE
  2
DIMSTYLE
  5
A
330
0
100
AcDbSymbolTable
 70
     4
100
AcDbDimStyleTable
  0
DIMSTYLE
105
27
330
A
100
AcDbSymbolTableRecord
100
AcDbDimStyleTableRecord
  2
ISO-25
 70
     0
 41
2.5
 42
0.625
 43
3.75
 44
1.25
 73
     0
 74
     0
 77
     1
 78
     8
140
2.5
141
2.5
143
0.03937007874016
147
0.625
171
     3
172
     1
178
     0
271
     2
272
     2
274
     3
278
    44
283
     0
284
     8
340
11
  0
DIMSTYLE
105
1DF
102
{ACAD_REACTORS
330
1DE
102
}
330
A
100
AcDbSymbolTableRecord
100
AcDbDimStyleTableRecord
  2
SLDDIMSTYLE0
 70
     0
 41
3.302
 44
0.0
 45
0.000000001
 73
     0
 74
     0
 77
     1
 78
    12
 79
     3
140
3.5
143
0.0393700787401575
147
0.875
148
0.000000001
170
     1
172
     1
173
     1
178
     0
271
     2
272
     2
276
     2
284
    12
289
     0
340
94
  0
DIMSTYLE
105
1F4
102
{ACAD_REACTORS
330
1F3
330
207
102
}
330
A
100
AcDbSymbolTableRecord
100
AcDbDimStyleTableRecord
  2
SLDDIMSTYLE1
 70
     0
 41
3.302
 44
0.0
 45
0.000000001
 73
     0
 74
     0
 77
     1
 78
    12
 79
     3
140
3.5
143
0.0393700787401575
147
0.875
148
0.000000001
170
     1
173
     1
178
     0
271
     2
272
     2
276
     2
284
    12
340
94
  0
DIMSTYLE
105
21C
102
{ACAD_REACTORS
330
21B
102
}
330
A
100
AcDbSymbolTableRecord
100
AcDbDimStyleTableRecord
  2
SLDDIMSTYLE2
 70
     0
 41
3.302
 44
0.0
 45
0.000000001
 73
     0
 74
     0
 77
     1
 78
     4
 79
     1
140
3.5
143
0.0393700787401575
147
0.875
148
0.000000001
170
     1
173
     1
178
     0
271
     2
272
     2
276
     2
284
    12
340
94
  0
ENDTAB
  0
TABLE
  2
BLOCK_RECORD
  5
1
330
0
100
AcDbSymbolTable
 70
     8
  0
BLOCK_RECORD
  5
1F
330
1
100
AcDbSymbolTableRecord
100
AcDbBlockTableRecord
  2
*Model_Space
340
22
  0
BLOCK_RECORD
  5
1B
330
1
100
AcDbSymbolTableRecord
100
AcDbBlockTableRecord
  2
*Paper_Space
340
1E
  0
BLOCK_RECORD
  5
23
330
1
100
AcDbSymbolTableRecord
100
AcDbBlockTableRecord
  2
*Paper_Space0
340
26
  0
BLOCK_RECORD
  5
7F
330
1
100
AcDbSymbolTableRecord
100
AcDbBlockTableRecord
  2
블럭10
340
0
102
{BLKREFS
331
1D7
102
}
  0
BLOCK_RECORD
  5
1E0
330
1
100
AcDbSymbolTableRecord
100
AcDbBlockTableRecord
  2
_D
340
0
  0
BLOCK_RECORD
  5
1F5
330
1
100
AcDbSymbolTableRecord
100
AcDbBlockTableRecord
  2
_D_1
340
0
  0
BLOCK_RECORD
  5
208
330
1
100
AcDbSymbolTableRecord
100
AcDbBlockTableRecord
  2
_D_2
340
0
  0
BLOCK_RECORD
  5
21D
330
1
100
AcDbSymbolTableRecord
100
AcDbBlockTableRecord
  2
_D_3
340
0
  0
BLOCK_RECORD
  5
236
330
1
100
AcDbSymbolTableRecord
100
AcDbBlockTableRecord
  2
SW_DOWELSYMBOL_0
340
0
102
{BLKREFS
331
23C
102
}
  0
ENDTAB
  0
ENDSEC
  0
SECTION
  2
BLOCKS
  0
BLOCK
  5
20
330
1F
100
AcDbEntity
  8
0
100
AcDbBlockBegin
  2
*Model_Space
 70
     0
 10
0.0
 20
0.0
 30
0.0
  3
*Model_Space
  1
*Model_Space
  0
ENDBLK
  5
21
330
1F
100
AcDbEntity
  8
0
100
AcDbBlockEnd
  0
BLOCK
  5
1C
330
1B
100
AcDbEntity
 67
     1
  8
0
100
AcDbBlockBegin
  2
*Paper_Space
 70
     0
 10
0.0
 20
0.0
 30
0.0
  3
*Paper_Space
  1
*Paper_Space
  0
ENDBLK
  5
1D
330
1B
100
AcDbEntity
 67
     1
  8
0
100
AcDbBlockEnd
  0
BLOCK
  5
24
330
23
100
AcDbEntity
  8
0
100
AcDbBlockBegin
  2
*Paper_Space0
 70
     0
 10
0.0
 20
0.0
 30
0.0
  3
*Paper_Space0
  1
*Paper_Space0
  0
ENDBLK
  5
25
330
23
100
AcDbEntity
  8
0
100
AcDbBlockEnd
  0
BLOCK
  5
80
330
7F
100
AcDbEntity
  8
0
100
AcDbBlockBegin
  2
블럭10
 70
     2
 10
0.0
 20
0.0
 30
0.0
  3
블럭10
  1
블럭10
  0
ELLIPSE
  5
82
330
7F
100
AcDbEntity
  8
중심선
100
AcDbEllipse
 10
20.54032771741204
 20
12.0471743016438
 30
0.0
 11
6.600054785286829
 21
-1.261213355974178E-13
 31
0.0
210
0.0
220
0.0
230
1.0
 40
0.636358354079598
 41
0.9219305317359503
 42
6.513795318482858
  0
ELLIPSE
  5
83
330
7F
100
AcDbEntity
  8
중심선
100
AcDbEllipse
 10
20.54032771746488
 20
12.04717430159265
 30
0.0
 11
3.960054785062283
 21
1.540847449632565E-10
 31
0.0
210
0.0
220
0.0
230
1.0
 40
0.3939339440162632
 41
1.131841032648279
 42
5.62031148352944
  0
LINE
  5
84
330
7F
100
AcDbEntity
  8
중심선
100
AcDbLine
 10
2.268634060543552
 20
16.24717430164393
 30
0.0
 11
5.714909304380834
 21
16.24717430164393
 31
0.0
  0
LINE
  5
85
330
7F
100
AcDbEntity
  8
중심선
100
AcDbLine
 10
5.245725140726316
 20
7.84717430164391
 30
0.0
 11
8.692000384563599
 21
7.84717430164391
 31
0.0
  0
LINE
  5
86
330
7F
100
AcDbEntity
  8
중심선
100
AcDbLine
 10
15.74043728645272
 20
16.24717430164393
 30
0.0
 11
8.692000384563599
 21
7.84717430164391
 31
0.0
  0
LINE
  5
87
330
7F
100
AcDbEntity
  8
중심선
100
AcDbLine
 10
0.1404042013395286
 20
13.71084872107135
 30
0.0
 11
3.58671253028996
 21
13.71088815037384
 31
0.0
  0
LINE
  5
88
330
7F
100
AcDbEntity
  8
중심선
100
AcDbLine
 10
2.750260043222114
 20
10.84717430164391
 30
0.0
 11
6.196535287059397
 21
10.84717430164391
 31
0.0
  0
LINE
  5
89
330
7F
100
AcDbEntity
  8
중심선
100
AcDbLine
 10
12.29416204261559
 20
16.24717430164393
 30
0.0
 11
5.245725140726316
 21
7.84717430164391
 31
0.0
  0
LINE
  5
8A
330
7F
100
AcDbEntity
  8
중심선
100
AcDbLine
 10
10.72767329541681
 20
16.24717430164393
 30
0.0
 11
6.196535287059397
 21
10.84717430164391
 31
0.0
  0
LINE
  5
8B
330
7F
100
AcDbEntity
  8
중심선
100
AcDbLine
 10
7.28139805157953
 20
16.24717430164393
 30
0.0
 11
2.750260043222114
 21
10.84717430164391
 31
0.0
  0
LINE
  5
8C
330
7F
100
AcDbEntity
  8
중심선
100
AcDbLine
 10
5.714909304380834
 20
16.24717430164393
 30
0.0
 11
3.58671253028996
 21
13.71088815037384
 31
0.0
  0
LINE
  5
8D
330
7F
100
AcDbEntity
  8
중심선
100
AcDbLine
 10
2.268634060543552
 20
16.24717430164393
 30
0.0
 11
0.1404042013395286
 21
13.71084872107135
 31
0.0
  0
LINE
  5
8E
330
7F
100
AcDbEntity
  8
중심선
100
AcDbLine
 10
7.28139805157953
 20
16.24717430164393
 30
0.0
 11
10.72767329541681
 21
16.24717430164393
 31
0.0
  0
LINE
  5
8F
330
7F
100
AcDbEntity
  8
중심선
100
AcDbLine
 10
12.29416204261559
 20
16.24717430164393
 30
0.0
 11
15.74043728645272
 21
16.24717430164393
 31
0.0
  0
LINE
  5
90
330
7F
100
AcDbEntity
  8
중심선
100
AcDbLine
 10
19.22036997980202
 20
11.08717430171403
 30
0.0
 11
23.66174974927406
 21
11.08717430171406
 31
0.0
  0
LINE
  5
91
330
7F
100
AcDbEntity
  8
중심선
100
AcDbLine
 10
19.22039502424796
 20
13.00717430171391
 30
0.0
 11
19.22036997980202
 21
11.08717430171403
 31
0.0
  0
LINE
  5
92
330
7F
100
AcDbEntity
  8
중심선
100
AcDbLine
 10
19.22039502424796
 20
13.00717430171391
 30
0.0
 11
26.96566020931264
 21
13.00717430171391
 31
0.0
  0
LINE
  5
93
330
7F
100
AcDbEntity
  8
중심선
100
AcDbLine
 10
22.22332737316547
 20
13.45928029700563
 30
0.0
 11
24.52862924686651
 21
15.39360700705356
 31
0.0
  0
ATTDEF
  5
95
330
7F
100
AcDbEntity
  8
FORMAT
 62
     2
100
AcDbText
 10
-9.18129528874128
 20
2.075366912832191
 30
0.0
 40
4.233333333333333
  1
E2170024 [ 4 FLUTE ]
 41
0.75
  7
SLDTEXTSTYLE0
 11
-9.18129528874128
 21
-0.0412997538344756
 31
0.0
100
AcDbAttributeDefinition
  3

  2
AUTOATTR0
 70
     0
 74
     1
  0
ENDBLK
  5
81
330
7F
100
AcDbEntity
  8
0
100
AcDbBlockEnd
  0
BLOCK
  5
1E1
330
1E0
100
AcDbEntity
  8
0
100
AcDbBlockBegin
  2
_D
 70
     0
 10
0.0
 20
0.0
 30
0.0
  3
_D
  1
_D
  0
LINE
  5
1E3
330
1E0
100
AcDbEntity
  8
치수문자_일반주서
 62
     0
370
    -2
100
AcDbLine
 10
-33.56000000000002
 20
4.792028729720479
 30
0.0
 11
-47.76750000000006
 21
4.792028729720429
 31
0.0
  0
LINE
  5
1E4
330
1E0
100
AcDbEntity
  8
치수문자_일반주서
 62
     0
370
    -2
100
AcDbLine
 10
-33.56000000000002
 20
-4.732971270279527
 30
0.0
 11
-47.76750000000002
 21
-4.732971270279577
 31
0.0
  0
LINE
  5
1E5
330
1E0
100
AcDbEntity
  8
치수문자_일반주서
 62
     0
370
    -2
100
AcDbLine
 10
-47.76750000000004
 20
1.49002872972043
 30
0.0
 11
-47.76750000000003
 21
-1.430971270279577
 31
0.0
  0
SOLID
  5
1E6
330
1E0
100
AcDbEntity
  8
치수문자_일반주서
 62
     0
100
AcDbTrace
 10
-47.21716666666671
 20
1.490028729720432
 30
0.0
 11
-48.31783333333338
 21
1.490028729720428
 31
0.0
 12
-47.76750000000006
 22
4.792028729720429
 32
0.0
 13
-47.76750000000006
 23
4.792028729720429
 33
0.0
  0
SOLID
  5
1E7
330
1E0
100
AcDbEntity
  8
치수문자_일반주서
 62
     0
100
AcDbTrace
 10
-48.31783333333337
 20
-1.430971270279579
 30
0.0
 11
-47.2171666666667
 21
-1.430971270279575
 31
0.0
 12
-47.76750000000002
 22
-4.732971270279577
 32
0.0
 13
-47.76750000000002
 23
-4.732971270279577
 33
0.0
  0
MTEXT
  5
1E8
330
1E0
100
AcDbEntity
  8
치수문자_일반주서
 62
     0
100
AcDbMText
 10
-52.14250000000004
 20
0.0295287297204605
 30
0.0
 40
3.5
 41
0.0
 71
     2
 72
     1
  1
\A1;%%c9.53 [3/8]
  7
SLDTEXTSTYLE0
 11
-3.729883127349605E-15
 21
1.0
 31
0.0
 73
     1
 44
1.0
  0
POINT
  5
1E9
330
1E0
100
AcDbEntity
  8
Defpoints
 62
     0
100
AcDbPoint
 10
-33.49750000000002
 20
4.792028729720479
 30
0.0
  0
POINT
  5
1EA
330
1E0
100
AcDbEntity
  8
Defpoints
 62
     0
100
AcDbPoint
 10
-33.49750000000002
 20
-4.732971270279527
 30
0.0
  0
POINT
  5
1EB
330
1E0
100
AcDbEntity
  8
Defpoints
 62
     0
100
AcDbPoint
 10
-47.76750000000002
 20
-4.732971270279577
 30
0.0
  0
ENDBLK
  5
1E2
330
1E0
100
AcDbEntity
  8
0
100
AcDbBlockEnd
  0
BLOCK
  5
1F6
330
1F5
100
AcDbEntity
  8
0
100
AcDbBlockBegin
  2
_D_1
 70
     0
 10
0.0
 20
0.0
 30
0.0
  3
_D_1
  1
_D_1
  0
LINE
  5
1F8
330
1F5
100
AcDbEntity
  8
치수문자_일반주서
 62
     0
370
    -2
100
AcDbLine
 10
8.542122660062471
 20
4.792028729720476
 30
0.0
 11
41.9051105790768
 21
4.792028729720595
 31
0.0
  0
LINE
  5
1F9
330
1F5
100
AcDbEntity
  8
치수문자_일반주서
 62
     0
370
    -2
100
AcDbLine
 10
8.542122660062473
 20
-4.732971270279524
 30
0.0
 11
41.90511057907684
 21
-4.732971270279407
 31
0.0
  0
LINE
  5
1FA
330
1F5
100
AcDbEntity
  8
치수문자_일반주서
 62
     0
370
    -2
100
AcDbLine
 10
41.9051105790768
 20
4.792028729720595
 30
0.0
 11
41.90511057907669
 21
34.34402872972059
 31
0.0
  0
LINE
  5
1FB
330
1F5
100
AcDbEntity
  8
치수문자_일반주서
 62
     0
370
    -2
100
AcDbLine
 10
41.90511057907682
 20
1.490028729720596
 30
0.0
 11
41.90511057907683
 21
-1.430971270279407
 31
0.0
  0
SOLID
  5
1FC
330
1F5
100
AcDbEntity
  8
치수문자_일반주서
 62
     0
100
AcDbTrace
 10
42.45544391241015
 20
1.490028729720598
 30
0.0
 11
41.35477724574348
 21
1.490028729720594
 31
0.0
 12
41.9051105790768
 22
4.792028729720595
 32
0.0
 13
41.9051105790768
 23
4.792028729720595
 33
0.0
  0
SOLID
  5
1FD
330
1F5
100
AcDbEntity
  8
치수문자_일반주서
 62
     0
100
AcDbTrace
 10
41.35477724574349
 20
-1.430971270279409
 30
0.0
 11
42.45544391241016
 21
-1.430971270279405
 31
0.0
 12
41.90511057907684
 22
-4.732971270279407
 32
0.0
 13
41.90511057907684
 23
-4.732971270279407
 33
0.0
  0
MTEXT
  5
1FE
330
1F5
100
AcDbEntity
  8
치수문자_일반주서
 62
     0
100
AcDbMText
 10
37.53011057907674
 20
21.21902872972058
 30
0.0
 40
3.5
 41
0.0
 71
     2
 72
     1
  1
\A1;%%c9.53 [3/8]
  7
SLDTEXTSTYLE0
 11
-3.729883127349606E-15
 21
1.0
 31
0.0
 73
     1
 44
1.0
  0
POINT
  5
1FF
330
1F5
100
AcDbEntity
  8
Defpoints
 62
     0
100
AcDbPoint
 10
8.479622660062471
 20
4.792028729720476
 30
0.0
  0
POINT
  5
200
330
1F5
100
AcDbEntity
  8
Defpoints
 62
     0
100
AcDbPoint
 10
8.479622660062473
 20
-4.732971270279524
 30
0.0
  0
POINT
  5
201
330
1F5
100
AcDbEntity
  8
Defpoints
 62
     0
100
AcDbPoint
 10
41.90511057907684
 20
-4.732971270279408
 30
0.0
  0
ENDBLK
  5
1F7
330
1F5
100
AcDbEntity
  8
0
100
AcDbBlockEnd
  0
BLOCK
  5
209
330
208
100
AcDbEntity
  8
0
100
AcDbBlockBegin
  2
_D_2
 70
     0
 10
0.0
 20
0.0
 30
0.0
  3
_D_2
  1
_D_2
  0
LINE
  5
20B
330
208
100
AcDbEntity
  8
치수문자_일반주서
 62
     0
370
    -2
100
AcDbLine
 10
29.05000000000001
 20
4.64831040827976
 30
0.0
 11
29.05000000000001
 21
31.85030104737541
 31
0.0
  0
LINE
  5
20C
330
208
100
AcDbEntity
  8
치수문자_일반주서
 62
     0
370
    -2
100
AcDbLine
 10
10.00000000000001
 20
-2.425558760267819
 30
0.0
 11
10.00000000000001
 21
31.85030104737541
 31
0.0
  0
LINE
  5
20D
330
208
100
AcDbEntity
  8
치수문자_일반주서
 62
     0
370
    -2
100
AcDbLine
 10
25.74800000000001
 20
31.85030104737541
 30
0.0
 11
13.30200000000001
 21
31.85030104737541
 31
0.0
  0
SOLID
  5
20E
330
208
100
AcDbEntity
  8
치수문자_일반주서
 62
     0
100
AcDbTrace
 10
25.74800000000001
 20
31.29996771404207
 30
0.0
 11
25.74800000000001
 21
32.40063438070874
 31
0.0
 12
29.05000000000001
 22
31.85030104737541
 32
0.0
 13
29.05000000000001
 23
31.85030104737541
 33
0.0
  0
SOLID
  5
20F
330
208
100
AcDbEntity
  8
치수문자_일반주서
 62
     0
100
AcDbTrace
 10
13.30200000000001
 20
32.40063438070874
 30
0.0
 11
13.30200000000001
 21
31.29996771404207
 31
0.0
 12
10.00000000000001
 22
31.85030104737541
 32
0.0
 13
10.00000000000001
 23
31.85030104737541
 33
0.0
  0
MTEXT
  5
210
330
208
100
AcDbEntity
  8
치수문자_일반주서
 62
     0
100
AcDbMText
 10
19.52500000000001
 20
36.22530104737541
 30
0.0
 40
3.5
 41
0.0
 71
     2
 72
     1
  1
\A1;19.05 [3/4]
  7
SLDTEXTSTYLE0
 73
     1
 44
1.0
  0
POINT
  5
211
330
208
100
AcDbEntity
  8
Defpoints
 62
     0
100
AcDbPoint
 10
29.05000000000001
 20
4.58581040827976
 30
0.0
  0
POINT
  5
212
330
208
100
AcDbEntity
  8
Defpoints
 62
     0
100
AcDbPoint
 10
10.00000000000001
 20
-2.488058760267819
 30
0.0
  0
POINT
  5
213
330
208
100
AcDbEntity
  8
Defpoints
 62
     0
100
AcDbPoint
 10
10.00000000000001
 20
31.85030104737541
 30
0.0
  0
ENDBLK
  5
20A
330
208
100
AcDbEntity
  8
0
100
AcDbBlockEnd
  0
BLOCK
  5
21E
330
21D
100
AcDbEntity
  8
0
100
AcDbBlockBegin
  2
_D_3
 70
     0
 10
0.0
 20
0.0
 30
0.0
  3
_D_3
  1
_D_3
  0
LINE
  5
220
330
21D
100
AcDbEntity
  8
치수문자_일반주서
 62
     0
370
    -2
100
AcDbLine
 10
29.05000000000001
 20
4.64831040827976
 30
0.0
 11
29.05000000000001
 21
45.03192290336246
 31
0.0
  0
LINE
  5
221
330
21D
100
AcDbEntity
  8
치수문자_일반주서
 62
     0
370
    -2
100
AcDbLine
 10
-34.45
 20
3.902028729720472
 30
0.0
 11
-34.45
 21
45.03192290336246
 31
0.0
  0
LINE
  5
222
330
21D
100
AcDbEntity
  8
치수문자_일반주서
 62
     0
370
    -2
100
AcDbLine
 10
25.74800000000001
 20
45.03192290336246
 30
0.0
 11
-31.148
 21
45.03192290336246
 31
0.0
  0
SOLID
  5
223
330
21D
100
AcDbEntity
  8
치수문자_일반주서
 62
     0
100
AcDbTrace
 10
25.74800000000001
 20
44.48158957002912
 30
0.0
 11
25.74800000000001
 21
45.58225623669579
 31
0.0
 12
29.05000000000001
 22
45.03192290336246
 32
0.0
 13
29.05000000000001
 23
45.03192290336246
 33
0.0
  0
SOLID
  5
224
330
21D
100
AcDbEntity
  8
치수문자_일반주서
 62
     0
100
AcDbTrace
 10
-31.148
 20
45.58225623669579
 30
0.0
 11
-31.148
 21
44.48158957002912
 31
0.0
 12
-34.45
 22
45.03192290336246
 32
0.0
 13
-34.45
 23
45.03192290336246
 33
0.0
  0
MTEXT
  5
225
330
21D
100
AcDbEntity
  8
치수문자_일반주서
 62
     0
100
AcDbMText
 10
-2.69999999999998
 20
49.40692290336246
 30
0.0
 40
3.5
 41
0.0
 71
     2
 72
     1
  1
\A1;63.50 [2 1/2]
  7
SLDTEXTSTYLE0
 73
     1
 44
1.0
  0
POINT
  5
226
330
21D
100
AcDbEntity
  8
Defpoints
 62
     0
100
AcDbPoint
 10
29.05000000000001
 20
4.58581040827976
 30
0.0
  0
POINT
  5
227
330
21D
100
AcDbEntity
  8
Defpoints
 62
     0
100
AcDbPoint
 10
-34.45
 20
3.839528729720472
 30
0.0
  0
POINT
  5
228
330
21D
100
AcDbEntity
  8
Defpoints
 62
     0
100
AcDbPoint
 10
-34.45
 20
45.03192290336246
 30
0.0
  0
ENDBLK
  5
21F
330
21D
100
AcDbEntity
  8
0
100
AcDbBlockEnd
  0
BLOCK
  5
237
330
236
100
AcDbEntity
  8
0
100
AcDbBlockBegin
  2
SW_DOWELSYMBOL_0
 70
     0
 10
0.0
 20
0.0
 30
0.0
  3
SW_DOWELSYMBOL_0
  1
SW_DOWELSYMBOL_0
  0
CIRCLE
  5
239
330
236
100
AcDbEntity
  8
해칭선
 62
     0
100
AcDbCircle
 10
0.0
 20
0.0
 30
0.0
 40
2.999999999999908
  0
HATCH
  5
23A
330
236
100
AcDbEntity
  8
0
  6
Continuous
 62
     0
370
     0
100
AcDbHatch
 10
0.0
 20
0.0
 30
0.0
210
0.0
220
0.0
230
1.0
  2
SOLID
 70
     1
 71
     0
 91
        1
 92
        0
 93
        3
 72
     2
 10
0.0000000000000069
 20
0.0
 40
2.999999999999908
 50
0.0
 51
90.0
 73
     1
 72
     1
 10
0.0000000000000069
 20
2.999999999999908
 11
0.0000000000000069
 21
0.0
 72
     1
 10
0.0000000000000069
 20
0.0
 11
2.999999999999915
 21
0.0
 97
        0
 75
     0
 76
     1
 98
        1
 10
0.0
 20
0.0
  0
HATCH
  5
23B
330
236
100
AcDbEntity
  8
0
  6
Continuous
 62
     0
370
     0
100
AcDbHatch
 10
0.0
 20
0.0
 30
0.0
210
0.0
220
0.0
230
1.0
  2
SOLID
 70
     1
 71
     0
 91
        1
 92
        0
 93
        3
 72
     2
 10
0.0000000000000069
 20
0.0
 40
2.999999999999908
 50
180.0
 51
270.0000000000008
 73
     1
 72
     1
 10
0.0000000000000069
 20
-2.999999999999908
 11
0.0000000000000069
 21
0.0
 72
     1
 10
0.0000000000000069
 20
0.0
 11
-2.999999999999901
 21
0.0
 97
        0
 75
     0
 76
     1
 98
        1
 10
0.0
 20
0.0
  0
ENDBLK
  5
238
330
236
100
AcDbEntity
  8
0
100
AcDbBlockEnd
  0
ENDSEC
  0
SECTION
  2
ENTITIES
  0
LINE
  5
96
330
1F
100
AcDbEntity
  8
외형선
  6
Continuous
 62
     1
370
    15
100
AcDbLine
 10
14.05027552295167
 20
0.8635956298576145
 30
0.0
 11
14.09067200502625
 21
0.8250840912036396
 31
0.0
  0
SPLINE
  5
97
330
1F
100
AcDbEntity
  8
외형선
  6
Continuous
 62
     1
370
    15
100
AcDbSpline
210
0.0
220
0.0
230
1.0
 70
     8
 71
     3
 72
     9
 73
     5
 74
     0
 42
0.000000001
 43
0.00000001
 40
0.0
 40
0.0
 40
0.0
 40
0.0
 40
0.189495755800598
 40
1.0
 40
1.0
 40
1.0
 40
1.0
 10
13.79300865980158
 20
1.105480576748435
 30
0.0
 10
13.80632382864093
 20
1.094019236136911
 30
0.0
 10
13.87659014559927
 20
1.033535872997185
 30
0.0
 10
13.93116464424982
 20
0.9791001452089253
 30
0.0
 10
13.97539750703115
 20
0.9349797568004572
 30
0.0
  0
LINE
  5
98
330
1F
100
AcDbEntity
  8
외형선
  6
Continuous
 62
     1
370
    15
100
AcDbLine
 10
21.27030996902841
 20
-0.8580494972144203
 30
0.0
 11
21.25339789159162
 21
-0.8422254472114946
 31
0.0
  0
LINE
  5
99
330
1F
100
AcDbEntity
  8
외형선
  6
Continuous
 62
     1
370
    15
100
AcDbLine
 10
13.65870923236781
 20
-0.8571144278117337
 30
0.0
 11
13.6023701366156
 21
-0.8044720428288987
 31
0.0
  0
LINE
  5
9A
330
1F
100
AcDbEntity
  8
외형선
  6
Continuous
370
    15
100
AcDbLine
 10
8.479622660062473
 20
4.792028729720476
 30
0.0
 11
-9.767549999999881
 21
4.792028729720474
 31
0.0
  0
LINE
  5
9B
330
1F
100
AcDbEntity
  8
외형선
  6
Continuous
370
    15
100
AcDbLine
 10
-33.4975
 20
-4.732971270279529
 30
0.0
 11
8.479622660062473
 21
-4.732971270279524
 31
0.0
  0
LINE
  5
9C
330
1F
100
AcDbEntity
  8
외형선
  6
Continuous
370
    15
100
AcDbLine
 10
-33.4975
 20
4.792028729720471
 30
0.0
 11
-34.45
 21
3.839528729720472
 31
0.0
  0
LINE
  5
9D
330
1F
100
AcDbEntity
  8
외형선
  6
Continuous
370
    15
100
AcDbLine
 10
-34.45
 20
-3.780471270279532
 30
0.0
 11
-33.4975
 21
-4.732971270279531
 31
0.0
  0
SPLINE
  5
9E
330
1F
100
AcDbEntity
  8
외형선
  6
Continuous
 62
     1
370
    15
100
AcDbSpline
210
0.0
220
0.0
230
1.0
 70
     8
 71
     3
 72
     9
 73
     5
 74
     0
 42
0.000000001
 43
0.00000001
 40
0.0
 40
0.0
 40
0.0
 40
0.0
 40
0.3846791111455601
 40
1.0
 40
1.0
 40
1.0
 40
1.0
 10
27.77553658541302
 20
-4.700049591053637
 30
0.0
 10
27.82345724865777
 20
-4.69003112774256
 30
0.0
 10
27.9480303327071
 20
-4.663987438286063
 30
0.0
 10
28.05829772930349
 20
-4.597170015453012
 30
0.0
 10
28.12614756178883
 20
-4.556055859444415
 30
0.0
  0
SPLINE
  5
9F
330
1F
100
AcDbEntity
  8
외형선
  6
Continuous
 62
     1
370
    15
100
AcDbSpline
210
0.0
220
0.0
230
1.0
 70
     8
 71
     3
 72
     9
 73
     5
 74
     0
 42
0.000000001
 43
0.00000001
 40
0.0
 40
0.0
 40
0.0
 40
0.0
 40
0.3820645032121554
 40
1.0
 40
1.0
 40
1.0
 40
1.0
 10
20.23484237183083
 20
-4.707561486048136
 30
0.0
 10
20.28748978274381
 20
-4.699020043967465
 30
0.0
 10
20.42528696220003
 20
-4.676664022905942
 30
0.0
 10
20.54684289056178
 20
-4.604525741415378
 30
0.0
 10
20.6219566135415
 20
-4.559948936605084
 30
0.0
  0
SPLINE
  5
A0
330
1F
100
AcDbEntity
  8
외형선
  6
Continuous
 62
     1
370
    15
100
AcDbSpline
210
0.0
220
0.0
230
1.0
 70
     8
 71
     3
 72
    10
 73
     6
 74
     0
 42
0.000000001
 43
0.00000001
 40
0.0
 40
0.0
 40
0.0
 40
0.0
 40
0.0213067087055129
 40
0.5207115089991905
 40
1.0
 40
1.0
 40
1.0
 40
1.0
 10
12.55261420815639
 20
-4.72752537916871
 30
0.0
 10
12.55678944075842
 20
-4.728120149781644
 30
0.0
 10
12.65882733401883
 20
-4.742655660997822
 30
0.0
 10
12.86164826246795
 20
-4.696228014320247
 30
0.0
 10
13.03379227795432
 20
-4.606863914294841
 30
0.0
 10
13.118095139894
 20
-4.563100270432348
 30
0.0
  0
SPLINE
  5
A1
330
1F
100
AcDbEntity
  8
외형선
  6
Continuous
 62
     1
370
    15
100
AcDbSpline
210
0.0
220
0.0
230
1.0
 70
     8
 71
     3
 72
     9
 73
     5
 74
     0
 42
0.000000001
 43
0.00000001
 40
0.0
 40
0.0
 40
0.0
 40
0.0
 40
0.5007088438268027
 40
1.0
 40
1.0
 40
1.0
 40
1.0
 10
15.03609368828829
 20
4.789443922841625
 30
0.0
 10
14.95789285607995
 20
4.774924603781245
 30
0.0
 10
14.80171260647488
 20
4.745927075098884
 30
0.0
 10
14.66333906579834
 20
4.665815200538032
 30
0.0
 10
14.59425038069018
 20
4.625816050065342
 30
0.0
  0
SPLINE
  5
A2
330
1F
100
AcDbEntity
  8
외형선
  6
Continuous
 62
     1
370
    15
100
AcDbSpline
210
0.0
220
0.0
230
1.0
 70
     8
 71
     3
 72
     9
 73
     5
 74
     0
 42
0.000000001
 43
0.00000001
 40
0.0
 40
0.0
 40
0.0
 40
0.0
 40
0.5008302519930414
 40
1.0
 40
1.0
 40
1.0
 40
1.0
 10
22.54008861915207
 20
4.790776561424737
 30
0.0
 10
22.46166365156168
 20
4.77638463101389
 30
0.0
 10
22.30507373456225
 20
4.747648486674414
 30
0.0
 10
22.16618525008957
 20
4.667508630557854
 30
0.0
 10
22.09685632029428
 20
4.627505238774837
 30
0.0
  0
SPLINE
  5
A3
330
1F
100
AcDbEntity
  8
외형선
  6
Continuous
 62
     1
370
    15
100
AcDbSpline
210
0.0
220
0.0
230
1.0
 70
     8
 71
     3
 72
    11
 73
     7
 74
     0
 42
0.000000001
 43
0.00000001
 40
0.0
 40
0.0
 40
0.0
 40
0.0
 40
0.2482788814447474
 40
0.5001492934116754
 40
0.7519513513392342
 40
0.9999999999999999
 40
0.9999999999999999
 40
0.9999999999999999
 40
0.9999999999999999
 10
28.11164565149814
 20
-4.56742955043598
 30
0.0
 10
28.13045254310082
 20
-4.557301736791694
 30
0.0
 10
28.16833838136306
 20
-4.536899603478869
 30
0.0
 10
28.23732214318396
 20
-4.528893903718703
 30
0.0
 10
28.30621006161872
 20
-4.540399047991183
 30
0.0
 10
28.34391889860289
 20
-4.563141633206889
 30
0.0
 10
28.36263173812318
 20
-4.574427538088993
 30
0.0
  0
SPLINE
  5
A4
330
1F
100
AcDbEntity
  8
외형선
  6
Continuous
 62
     1
370
    15
100
AcDbSpline
210
0.0
220
0.0
230
1.0
 70
     8
 71
     3
 72
     9
 73
     5
 74
     0
 42
0.000000001
 43
0.00000001
 40
0.0
 40
0.0
 40
0.0
 40
0.0
 40
0.5002427236521236
 40
1.0
 40
1.0
 40
1.0
 40
1.0
 10
20.61099751388702
 20
-4.567799861173309
 30
0.0
 10
20.65221030642322
 20
-4.549749629259444
 30
0.0
 10
20.73459589763247
 20
-4.513666681801285
 30
0.0
 10
20.81677863659151
 20
-4.553482045634105
 30
0.0
 10
20.85785005837649
 20
-4.573380063419992
 30
0.0
  0
SPLINE
  5
A5
330
1F
100
AcDbEntity
  8
외형선
  6
Continuous
 62
     1
370
    15
100
AcDbSpline
210
0.0
220
0.0
230
1.0
 70
     8
 71
     3
 72
     9
 73
     5
 74
     0
 42
0.000000001
 43
0.00000001
 40
0.0
 40
0.0
 40
0.0
 40
0.0
 40
0.499638700864081
 40
0.9999999999999999
 40
0.9999999999999999
 40
0.9999999999999999
 40
0.9999999999999999
 10
14.59734101336861
 20
4.627797328587615
 30
0.0
 10
14.55665696595085
 20
4.609557115498533
 30
0.0
 10
14.4752300321537
 20
4.57305030956549
 30
0.0
 10
14.39369829901343
 20
4.611329201710912
 30
0.0
 10
14.35290297509857
 20
4.630482477914277
 30
0.0
  0
SPLINE
  5
A6
330
1F
100
AcDbEntity
  8
외형선
  6
Continuous
 62
     1
370
    15
100
AcDbSpline
210
0.0
220
0.0
230
1.0
 70
     8
 71
     3
 72
     9
 73
     5
 74
     0
 42
0.000000001
 43
0.00000001
 40
0.0
 40
0.0
 40
0.0
 40
0.0
 40
0.4991980305003441
 40
1.0
 40
1.0
 40
1.0
 40
1.0
 10
28.35100303139804
 20
-4.570723496062226
 30
0.0
 10
28.42028492706768
 20
-4.610484559282051
 30
0.0
 10
28.55907132332048
 20
-4.690134439270505
 30
0.0
 10
28.7155822571814
 20
-4.718399236153449
 30
0.0
 10
28.79396324110718
 20
-4.732554302099937
 30
0.0
  0
SPLINE
  5
A7
330
1F
100
AcDbEntity
  8
외형선
  6
Continuous
 62
     1
370
    15
100
AcDbSpline
210
0.0
220
0.0
230
1.0
 70
     8
 71
     3
 72
     9
 73
     5
 74
     0
 42
0.000000001
 43
0.00000001
 40
0.0
 40
0.0
 40
0.0
 40
0.0
 40
0.4963513208178682
 40
1.0
 40
1.0
 40
1.0
 40
1.0
 10
13.11444681180461
 20
-4.565693003231498
 30
0.0
 10
13.14476417851086
 20
-4.54912096097498
 30
0.0
 10
13.20584463792475
 20
-4.515733234255098
 30
0.0
 10
13.30400149312984
 20
-4.553036965854345
 30
0.0
 10
13.35343806360656
 20
-4.57182494100287
 30
0.0
  0
SPLINE
  5
A8
330
1F
100
AcDbEntity
  8
외형선
  6
Continuous
 62
     1
370
    15
100
AcDbSpline
210
0.0
220
0.0
230
1.0
 70
     8
 71
     3
 72
     9
 73
     5
 74
     0
 42
0.000000001
 43
0.00000001
 40
0.0
 40
0.0
 40
0.0
 40
0.0
 40
0.4976988618859517
 40
1.0
 40
1.0
 40
1.0
 40
1.0
 10
22.0937341458568
 20
4.625457610641877
 30
0.0
 10
22.0640337986704
 20
4.608838946336036
 30
0.0
 10
22.00435846191386
 20
4.575447943103949
 30
0.0
 10
21.90641768872713
 20
4.61094739466812
 30
0.0
 10
21.85722192688766
 20
4.628778809591227
 30
0.0
  0
SPLINE
  5
A9
330
1F
100
AcDbEntity
  8
외형선
  6
Continuous
 62
     1
370
    15
100
AcDbSpline
210
0.0
220
0.0
230
1.0
 70
     8
 71
     3
 72
     9
 73
     5
 74
     0
 42
0.000000001
 43
0.00000001
 40
0.0
 40
0.0
 40
0.0
 40
0.0
 40
0.4987804450174195
 40
1.0
 40
1.0
 40
1.0
 40
1.0
 10
20.84503067867677
 20
-4.567285417805989
 30
0.0
 10
20.91507411522921
 20
-4.607781622315529
 30
0.0
 10
21.05550351107288
 20
-4.688972063749387
 30
0.0
 10
21.21329836921412
 20
-4.71781322648866
 30
0.0
 10
21.29238823779021
 20
-4.732268981242019
 30
0.0
  0
SPLINE
  5
AA
330
1F
100
AcDbEntity
  8
외형선
  6
Continuous
 62
     1
370
    15
100
AcDbSpline
210
0.0
220
0.0
230
1.0
 70
     8
 71
     3
 72
    11
 73
     7
 74
     0
 42
0.000000001
 43
0.00000001
 40
0.0
 40
0.0
 40
0.0
 40
0.0
 40
0.2452711820624485
 40
0.5002167352452987
 40
0.7550515926026337
 40
1.0
 40
1.0
 40
1.0
 40
1.0
 10
14.36388576184339
 20
4.625115973831957
 30
0.0
 10
14.27761449815739
 20
4.671379568747589
 30
0.0
 10
14.10166912412847
 20
4.765731559938776
 30
0.0
 10
13.80053765310423
 20
4.805195715654805
 30
0.0
 10
13.49945632409981
 20
4.766536835311137
 30
0.0
 10
13.32353102119173
 20
4.672664678081567
 30
0.0
 10
13.23730840069366
 20
4.626657064313981
 30
0.0
  0
SPLINE
  5
AB
330
1F
100
AcDbEntity
  8
외형선
  6
Continuous
 62
     1
370
    15
100
AcDbSpline
210
0.0
220
0.0
230
1.0
 70
     8
 71
     3
 72
     9
 73
     5
 74
     0
 42
0.000000001
 43
0.00000001
 40
0.0
 40
0.0
 40
0.0
 40
0.0
 40
0.5480336043730208
 40
1.0
 40
1.0
 40
1.0
 40
1.0
 10
13.34283482943396
 20
-4.56575687913808
 30
0.0
 10
13.42389110574772
 20
-4.611528695148933
 30
0.0
 10
13.57179494899196
 20
-4.695048785241252
 30
0.0
 10
13.72628805289415
 20
-4.721065588840527
 30
0.0
 10
13.79611374421404
 20
-4.732824309789025
 30
0.0
  0
SPLINE
  5
AC
330
1F
100
AcDbEntity
  8
외형선
  6
Continuous
 62
     1
370
    15
100
AcDbSpline
210
0.0
220
0.0
230
1.0
 70
     8
 71
     3
 72
    11
 73
     7
 74
     0
 42
0.000000001
 43
0.00000001
 40
0.0
 40
0.0
 40
0.0
 40
0.0
 40
0.2877268447330448
 40
0.5577241898047653
 40
0.7970063866524156
 40
1.0
 40
1.0
 40
1.0
 40
1.0
 10
21.86391869576999
 20
4.625094762893787
 30
0.0
 10
21.75998661800196
 20
4.678760915247913
 30
0.0
 10
21.55852667455567
 20
4.782786354269475
 30
0.0
 10
21.23501940125965
 20
4.803346532819055
 30
0.0
 10
20.95546880421755
 20
4.747875655739457
 30
0.0
 10
20.80440791983445
 20
4.663852146560477
 30
0.0
 10
20.73507472536725
 20
4.625287442497517
 30
0.0
  0
LINE
  5
AD
330
1F
100
AcDbEntity
  8
외형선
  6
Continuous
 62
     1
370
    15
100
AcDbLine
 10
28.85
 20
-4.732971270279523
 30
0.0
 11
29.05000000000001
 21
-4.532971270279525
 31
0.0
  0
SPLINE
  5
AE
330
1F
100
AcDbEntity
  8
외형선
  6
Continuous
 62
     1
370
    15
100
AcDbSpline
210
0.0
220
0.0
230
1.0
 70
     8
 71
     3
 72
     9
 73
     5
 74
     0
 42
0.000000001
 43
0.00000001
 40
0.0
 40
0.0
 40
0.0
 40
0.0
 40
0.5464137208984587
 40
0.9999999999999999
 40
0.9999999999999999
 40
0.9999999999999999
 40
0.9999999999999999
 10
21.30136597765256
 20
-4.732905427335321
 30
0.0
 10
21.39241434966143
 20
-4.715426668998805
 30
0.0
 10
21.55904334986143
 20
-4.683438529484707
 30
0.0
 10
21.6949531831704
 20
-4.60213177289164
 30
0.0
 10
21.75660001875433
 20
-4.565252143702776
 30
0.0
  0
SPLINE
  5
AF
330
1F
100
AcDbEntity
  8
외형선
  6
Continuous
 62
     1
370
    15
100
AcDbSpline
210
0.0
220
0.0
230
1.0
 70
     8
 71
     3
 72
     9
 73
     5
 74
     0
 42
0.000000001
 43
0.00000001
 40
0.0
 40
0.0
 40
0.0
 40
0.0
 40
0.4437789011937366
 40
1.0
 40
1.0
 40
1.0
 40
1.0
 10
13.80173368200837
 20
-4.732880453933991
 30
0.0
 10
13.87193561062515
 20
-4.720960956049832
 30
0.0
 10
14.03012683699472
 20
-4.694101865065342
 30
0.0
 10
14.17572596728005
 20
-4.611252638367282
 30
0.0
 10
14.25671127551259
 20
-4.56517015045804
 30
0.0
  0
SPLINE
  5
B0
330
1F
100
AcDbEntity
  8
외형선
  6
Continuous
 62
     1
370
    15
100
AcDbSpline
210
0.0
220
0.0
230
1.0
 70
     8
 71
     3
 72
     9
 73
     5
 74
     0
 42
0.000000001
 43
0.00000001
 40
0.0
 40
0.0
 40
0.0
 40
0.0
 40
0.5194166921071961
 40
1.0
 40
1.0
 40
1.0
 40
1.0
 10
21.75073128903873
 20
-4.56908355183952
 30
0.0
 10
21.79802095041711
 20
-4.551185691841514
 30
0.0
 10
21.88906473491033
 20
-4.516728077617766
 30
0.0
 10
21.952751002408
 20
-4.549383395909432
 30
0.0
 10
21.98335755950938
 20
-4.565076996794334
 30
0.0
  0
SPLINE
  5
B1
330
1F
100
AcDbEntity
  8
외형선
  6
Continuous
 62
     1
370
    15
100
AcDbSpline
210
0.0
220
0.0
230
1.0
 70
     8
 71
     3
 72
     9
 73
     5
 74
     0
 42
0.000000001
 43
0.00000001
 40
0.0
 40
0.0
 40
0.0
 40
0.0
 40
0.696433170884427
 40
1.0
 40
1.0
 40
1.0
 40
1.0
 10
28.85167976862073
 20
4.784167421944604
 30
0.0
 10
28.74798382463709
 20
4.787827321899216
 30
0.0
 10
28.59908806791723
 20
4.793082528152479
 30
0.0
 10
28.46711447511767
 20
4.72841041661998
 30
0.0
 10
28.42705167002451
 20
4.708778108789849
 30
0.0
  0
SPLINE
  5
B2
330
1F
100
AcDbEntity
  8
외형선
  6
Continuous
 62
     1
370
    15
100
AcDbSpline
210
0.0
220
0.0
230
1.0
 70
     8
 71
     3
 72
     9
 73
     5
 74
     0
 42
0.000000001
 43
0.00000001
 40
0.0
 40
0.0
 40
0.0
 40
0.0
 40
0.5035516344917117
 40
1.0
 40
1.0
 40
1.0
 40
1.0
 10
14.24680962304754
 20
-4.571102581116571
 30
0.0
 10
14.29582159175242
 20
-4.552668644681569
 30
0.0
 10
14.39315414982136
 20
-4.51606080712861
 30
0.0
 10
14.45374689858746
 20
-4.54903272974107
 30
0.0
 10
14.48382806967404
 20
-4.565401586829692
 30
0.0
  0
SPLINE
  5
B3
330
1F
100
AcDbEntity
  8
외형선
  6
Continuous
 62
     1
370
    15
100
AcDbSpline
210
0.0
220
0.0
230
1.0
 70
     8
 71
     3
 72
     9
 73
     5
 74
     0
 42
0.000000001
 43
0.00000001
 40
0.0
 40
0.0
 40
0.0
 40
0.0
 40
0.9829645807914048
 40
1.0
 40
1.0
 40
1.0
 40
1.0
 10
28.80296894097448
 20
-4.73276725690606
 30
0.0
 10
28.8210646802323
 20
-4.730591602801582
 30
0.0
 10
28.8394740304891
 20
-4.72837824318823
 30
0.0
 10
28.85766121390825
 20
-4.72470910340005
 30
0.0
 10
28.85797104020202
 20
-4.724646598065623
 30
0.0
  0
SPLINE
  5
B4
330
1F
100
AcDbEntity
  8
외형선
  6
Continuous
 62
     1
370
    15
100
AcDbSpline
210
0.0
220
0.0
230
1.0
 70
     8
 71
     3
 72
    10
 73
     6
 74
     0
 42
0.000000001
 43
0.00000001
 40
0.0
 40
0.0
 40
0.0
 40
0.0
 40
0.4291263220158912
 40
0.8762798088960596
 40
1.0
 40
1.0
 40
1.0
 40
1.0
 10
21.98544185855728
 20
-4.566465195693634
 30
0.0
 10
22.06994992502505
 20
-4.61066689598814
 30
0.0
 10
22.24251615677397
 20
-4.700927165516693
 30
0.0
 10
22.46879316468553
 20
-4.745513141308092
 30
0.0
 10
22.59368272168138
 20
-4.724635331977858
 30
0.0
 10
22.62074888439705
 20
-4.720110676769916
 30
0.0
  0
SPLINE
  5
B5
330
1F
100
AcDbEntity
  8
외형선
  6
Continuous
 62
     1
370
    15
100
AcDbSpline
210
0.0
220
0.0
230
1.0
 70
     8
 71
     3
 72
     9
 73
     5
 74
     0
 42
0.000000001
 43
0.00000001
 40
0.0
 40
0.0
 40
0.0
 40
0.0
 40
0.4996312392488066
 40
1.0
 40
1.0
 40
1.0
 40
1.0
 10
13.24746475806869
 20
4.631040872961203
 30
0.0
 10
13.20624539069156
 20
4.61160944411535
 30
0.0
 10
13.12374581072315
 20
4.572717903075867
 30
0.0
 10
13.0419651565437
 20
4.609537540953088
 30
0.0
 10
13.0010446719585
 20
4.627960937529022
 30
0.0
  0
LINE
  5
B6
330
1F
100
AcDbEntity
  8
외형선
  6
Continuous
 62
     1
370
    15
100
AcDbLine
 10
29.05000000000001
 20
4.592028729720477
 30
0.0
 11
28.85
 21
4.792028729720475
 31
0.0
  0
SPLINE
  5
B7
330
1F
100
AcDbEntity
  8
외형선
  6
Continuous
 62
     1
370
    15
100
AcDbSpline
210
0.0
220
0.0
230
1.0
 70
     8
 71
     3
 72
    10
 73
     6
 74
     0
 42
0.000000001
 43
0.00000001
 40
0.0
 40
0.0
 40
0.0
 40
0.0
 40
0.46289824361792
 40
0.9452968253864423
 40
1.0
 40
1.0
 40
1.0
 40
1.0
 10
14.48241176773226
 20
-4.564404704903746
 30
0.0
 10
14.56673715718388
 20
-4.608307792326321
 30
0.0
 10
14.7389402796781
 20
-4.697963455827775
 30
0.0
 10
14.9487447592593
 20
-4.743641061942222
 30
0.0
 10
15.05763510115685
 20
-4.727185573755337
 30
0.0
 10
15.06872545287469
 20
-4.725509601869298
 30
0.0
  0
SPLINE
  5
B8
330
1F
100
AcDbEntity
  8
외형선
  6
Continuous
 62
     1
370
    15
100
AcDbSpline
210
0.0
220
0.0
230
1.0
 70
     8
 71
     3
 72
    11
 73
     7
 74
     0
 42
0.000000001
 43
0.00000001
 40
0.0
 40
0.0
 40
0.0
 40
0.0
 40
0.2479929648630593
 40
0.4997321205604031
 40
0.7516011643697228
 40
1.0
 40
1.0
 40
1.0
 40
1.0
 10
20.75221699393019
 20
4.632061901779092
 30
0.0
 10
20.73340765039961
 20
4.620986945794676
 30
0.0
 10
20.69550482870432
 20
4.598669735134036
 30
0.0
 10
20.62656497687097
 20
4.587896864943954
 30
0.0
 10
20.55774486058854
 20
4.596624291108389
 30
0.0
 10
20.52015712110254
 20
4.617388202578704
 30
0.0
 10
20.50149361879503
 20
4.627698141801933
 30
0.0
  0
SPLINE
  5
B9
330
1F
100
AcDbEntity
  8
외형선
  6
Continuous
 62
     1
370
    15
100
AcDbSpline
210
0.0
220
0.0
230
1.0
 70
     8
 71
     3
 72
     9
 73
     5
 74
     0
 42
0.000000001
 43
0.00000001
 40
0.0
 40
0.0
 40
0.0
 40
0.0
 40
0.8942596491216598
 40
1.0
 40
1.0
 40
1.0
 40
1.0
 10
13.00608278922341
 20
4.624686219376279
 30
0.0
 10
12.93817565852202
 20
4.668091528755081
 30
0.0
 10
12.86223895404466
 20
4.716629231894692
 30
0.0
 10
12.77634230426512
 20
4.736660347889801
 30
0.0
 10
12.76725956237816
 20
4.738778445123608
 30
0.0
  0
LINE
  5
BA
330
1F
100
AcDbEntity
  8
외형선
  6
Continuous
 62
     1
370
    15
100
AcDbLine
 10
20.50987253275406
 20
4.621752572402156
 30
0.0
 11
20.40528242108774
 21
4.675028259643716
 31
0.0
  0
LINE
  5
BB
330
1F
100
AcDbEntity
  8
외형선
  6
Continuous
 62
     1
370
    15
100
AcDbLine
 10
28.0140377658603
 20
4.618063499172663
 30
0.0
 11
27.95819101552456
 21
4.646608082622717
 31
0.0
  0
SPLINE
  5
BC
330
1F
100
AcDbEntity
  8
외형선
  6
Continuous
 62
     1
370
    15
100
AcDbSpline
210
0.0
220
0.0
230
1.0
 70
     8
 71
     3
 72
    14
 73
    10
 74
     0
 42
0.000000001
 43
0.00000001
 40
0.0
 40
0.0
 40
0.0
 40
0.0
 40
0.25
 40
0.25
 40
0.5
 40
0.5
 40
0.75
 40
0.75
 40
1.0
 40
1.0
 40
1.0
 40
1.0
 10
13.80874004461563
 20
1.09017472115318
 30
0.0
 10
13.72564328988381
 20
1.16949325202425
 30
0.0
 10
13.64159270839697
 20
1.252568859386088
 30
0.0
 10
13.46877169484328
 20
1.42112386365548
 30
0.0
 10
13.38157191641259
 20
1.505135955405785
 30
0.0
 10
13.20874326357237
 20
1.664791830411032
 30
0.0
 10
13.12504670218664
 20
1.738722744025591
 30
0.0
 10
12.96153890589224
 20
1.873698889715344
 30
0.0
 10
12.88159607817641
 20
1.934680393560504
 30
0.0
 10
12.80757465213848
 20
1.985508129712805
 30
0.0
  0
SPLINE
  5
BD
330
1F
100
AcDbEntity
  8
외형선
  6
Continuous
 62
     1
370
    15
100
AcDbSpline
210
0.0
220
0.0
230
1.0
 70
     8
 71
     3
 72
    14
 73
    10
 74
     0
 42
0.000000001
 43
0.00000001
 40
0.0
 40
0.0
 40
0.0
 40
0.0
 40
0.2500000000000001
 40
0.2500000000000001
 40
0.5000000000000001
 40
0.5000000000000001
 40
0.7500000000000001
 40
0.7500000000000001
 40
1.0
 40
1.0
 40
1.0
 40
1.0
 10
12.63985181449305
 20
0.0991120852628902
 30
0.0
 10
12.72305156759756
 20
0.0323362675915748
 30
0.0
 10
12.80719706021882
 20
-0.0433336866060744
 30
0.0
 10
12.98017142033495
 20
-0.2050573462027388
 30
0.0
 10
13.06739342966712
 20
-0.2898195607134152
 30
0.0
 10
13.24017357713366
 20
-0.4585563582409117
 30
0.0
 10
13.32380521984217
 20
-0.5406539571212221
 30
0.0
 10
13.48712171506423
 20
-0.6989781251495175
 30
0.0
 10
13.56693015322351
 20
-0.7752797880391608
 30
0.0
 10
13.64081975997423
 20
-0.8446819771031489
 30
0.0
  0
SPLINE
  5
BE
330
1F
100
AcDbEntity
  8
외형선
  6
Continuous
 62
     1
370
    15
100
AcDbSpline
210
0.0
220
0.0
230
1.0
 70
     8
 71
     3
 72
    14
 73
    10
 74
     0
 42
0.000000001
 43
0.00000001
 40
0.0
 40
0.0
 40
0.0
 40
0.0
 40
0.25
 40
0.25
 40
0.5
 40
0.5
 40
0.75
 40
0.75
 40
1.0
 40
1.0
 40
1.0
 40
1.0
 10
21.31720201085014
 20
1.185740486526932
 30
0.0
 10
21.23374547429249
 20
1.26551881421838
 30
0.0
 10
21.14943388034427
 20
1.348825857218484
 30
0.0
 10
20.97635270370351
 20
1.517575930187515
 30
0.0
 10
20.8892758569539
 20
1.601429349786918
 30
0.0
 10
20.71702586264713
 20
1.760537865277953
 30
0.0
 10
20.63368761886261
 20
1.834012462950383
 30
0.0
 10
20.4704258266588
 20
1.967076306783396
 30
0.0
 10
20.39048038144881
 20
2.02666282563515
 30
0.0
 10
20.31637694182759
 20
2.075708334099044
 30
0.0
  0
SPLINE
  5
BF
330
1F
100
AcDbEntity
  8
외형선
  6
Continuous
 62
     1
370
    15
100
AcDbSpline
210
0.0
220
0.0
230
1.0
 70
     8
 71
     3
 72
    14
 73
    10
 74
     0
 42
0.000000001
 43
0.00000001
 40
0.0
 40
0.0
 40
0.0
 40
0.0
 40
0.25
 40
0.25
 40
0.5
 40
0.5
 40
0.75
 40
0.75
 40
1.0
 40
1.0
 40
1.0
 40
1.0
 10
20.1484547684722
 20
0.1989726273452634
 30
0.0
 10
20.2319228635709
 20
0.133653853413975
 30
0.0
 10
20.31625035781034
 20
0.0588194929898345
 30
0.0
 10
20.48937413089132
 20
-0.1022423694314264
 30
0.0
 10
20.57648188172972
 20
-0.1871280914612704
 30
0.0
 10
20.74879874436666
 20
-0.3570693633475794
 30
0.0
 10
20.83210321119251
 20
-0.4402137818473938
 30
0.0
 10
20.99533601614116
 20
-0.6006905955978972
 30
0.0
 10
21.07527277558811
 20
-0.6782002903782485
 30
0.0
 10
21.14937270103942
 20
-0.7489376719685845
 30
0.0
  0
SPLINE
  5
C0
330
1F
100
AcDbEntity
  8
외형선
  6
Continuous
 62
     1
370
    15
100
AcDbSpline
210
0.0
220
0.0
230
1.0
 70
     8
 71
     3
 72
     8
 73
     4
 74
     0
 42
0.000000001
 43
0.00000001
 40
0.0
 40
0.0
 40
0.0
 40
0.0
 40
1.0
 40
1.0
 40
1.0
 40
1.0
 10
21.80531107924699
 20
-1.373634353740304
 30
0.0
 10
21.9456507169768
 20
-1.502489594308765
 30
0.0
 10
22.08097484934473
 20
-1.617965261029071
 30
0.0
 10
22.20169819404531
 20
-1.707934652210915
 30
0.0
  0
SPLINE
  5
C1
330
1F
100
AcDbEntity
  8
외형선
  6
Continuous
 62
     1
370
    15
100
AcDbSpline
210
0.0
220
0.0
230
1.0
 70
     8
 71
     3
 72
    10
 73
     6
 74
     0
 42
0.000000001
 43
0.00000001
 40
0.0
 40
0.0
 40
0.0
 40
0.0
 40
0.5
 40
0.5
 40
1.0
 40
1.0
 40
1.0
 40
1.0
 10
21.97045611827167
 20
0.5688288583888872
 30
0.0
 10
21.9442004602267
 20
0.2485007038036984
 30
0.0
 10
21.91675351618517
 20
-0.0803698803338286
 30
0.0
 10
21.86112046572936
 20
-0.7348355059665788
 30
0.0
 10
21.83294656618649
 20
-1.060282744048644
 30
0.0
 10
21.80531111963143
 20
-1.373634390819845
 30
0.0
  0
SPLINE
  5
C2
330
1F
100
AcDbEntity
  8
외형선
  6
Continuous
 62
     1
370
    15
100
AcDbSpline
210
0.0
220
0.0
230
1.0
 70
     8
 71
     3
 72
     8
 73
     4
 74
     0
 42
0.000000001
 43
0.00000001
 40
0.0
 40
0.0
 40
0.0
 40
0.0
 40
1.0
 40
1.0
 40
1.0
 40
1.0
 10
22.37158088544841
 20
0.1961070636578475
 30
0.0
 10
22.24222837399607
 20
0.3040981760962751
 30
0.0
 10
22.10626161037002
 20
0.4364114658787977
 30
0.0
 10
21.97045611827166
 20
0.5688288583889053
 30
0.0
  0
SPLINE
  5
C3
330
1F
100
AcDbEntity
  8
외형선
  6
Continuous
 62
     1
370
    15
100
AcDbSpline
210
0.0
220
0.0
230
1.0
 70
     8
 71
     3
 72
    10
 73
     6
 74
     0
 42
0.000000001
 43
0.00000001
 40
0.0
 40
0.0
 40
0.0
 40
0.0
 40
0.5000000000000001
 40
0.5000000000000001
 40
1.0
 40
1.0
 40
1.0
 40
1.0
 10
14.46201693943405
 20
0.4660708428437247
 30
0.0
 10
14.43553450345893
 20
0.1442454143100862
 30
0.0
 10
14.40794215904476
 20
-0.1850839466521459
 30
0.0
 10
14.35221074677455
 20
-0.8381914740196585
 30
0.0
 10
14.32408405212906
 20
-1.161821556165959
 30
0.0
 10
14.29658748632553
 20
-1.472352147405336
 30
0.0
  0
SPLINE
  5
C4
330
1F
100
AcDbEntity
  8
외형선
  6
Continuous
 62
     1
370
    15
100
AcDbSpline
210
0.0
220
0.0
230
1.0
 70
     8
 71
     3
 72
     8
 73
     4
 74
     0
 42
0.000000001
 43
0.00000001
 40
0.0
 40
0.0
 40
0.0
 40
0.0
 40
1.0
 40
1.0
 40
1.0
 40
1.0
 10
13.89608305740791
 20
-1.082574638287678
 30
0.0
 10
14.02481909867804
 20
-1.206160283270253
 30
0.0
 10
14.16086425843822
 20
-1.342939592746585
 30
0.0
 10
14.29658748632549
 20
-1.472352147405706
 30
0.0
  0
SPLINE
  5
C5
330
1F
100
AcDbEntity
  8
외형선
  6
Continuous
 62
     1
370
    15
100
AcDbSpline
210
0.0
220
0.0
230
1.0
 70
     8
 71
     3
 72
     8
 73
     4
 74
     0
 42
0.000000001
 43
0.00000001
 40
0.0
 40
0.0
 40
0.0
 40
0.0
 40
1.0
 40
1.0
 40
1.0
 40
1.0
 10
14.46201693952361
 20
0.4660708427557704
 30
0.0
 10
14.32146040596193
 20
0.6041066978146816
 30
0.0
 10
14.18552749342418
 20
0.7366528589212566
 30
0.0
 10
14.06456060161524
 20
0.8514252915208161
 30
0.0
  0
SPLINE
  5
C6
330
1F
100
AcDbEntity
  8
외형선
  6
Continuous
 62
     1
370
    15
100
AcDbSpline
210
0.0
220
0.0
230
1.0
 70
    24
 71
     3
 72
     8
 73
     4
 74
     0
 42
0.000000001
 43
0.00000001
 40
0.0
 40
0.0
 40
0.0
 40
0.0
 40
1.0
 40
1.0
 40
1.0
 40
1.0
 10
28.66300531943375
 20
-0.5955909508485119
 30
0.0
 10
28.65304463127253
 20
-0.6055516390097323
 30
0.0
 10
28.6430590020342
 20
-0.6155372682453487
 30
0.0
 10
28.63304933362095
 20
-0.6255469366585888
 30
0.0
  0
SPLINE
  5
C7
330
1F
100
AcDbEntity
  8
외형선
  6
Continuous
 62
     1
370
    15
100
AcDbSpline
210
0.0
220
0.0
230
1.0
 70
     8
 71
     3
 72
    14
 73
    10
 74
     0
 42
0.000000001
 43
0.00000001
 40
0.0
 40
0.0
 40
0.0
 40
0.0
 40
0.25
 40
0.25
 40
0.5
 40
0.5
 40
0.75
 40
0.75
 40
1.0
 40
1.0
 40
1.0
 40
1.0
 10
27.65691539768451
 20
0.2975583576855834
 30
0.0
 10
27.73769186591978
 20
0.2348620590458542
 30
0.0
 10
27.81933379192993
 20
0.162987073322481
 30
0.0
 10
27.98704178788575
 20
0.0082410050884078
 30
0.0
 10
28.07169418851172
 20
-0.0735791897713089
 30
0.0
 10
28.2401248067372
 20
-0.2384676125237249
 30
0.0
 10
28.32188255415905
 20
-0.3195499778073249
 30
0.0
 10
28.48150931667702
 20
-0.4771753611577187
 30
0.0
 10
28.5599763516264
 20
-0.55429285176949
 30
0.0
 10
28.63304933362095
 20
-0.6255469366586038
 30
0.0
  0
SPLINE
  5
C8
330
1F
100
AcDbEntity
  8
외형선
  6
Continuous
 62
     1
370
    15
100
AcDbSpline
210
0.0
220
0.0
230
1.0
 70
     8
 71
     3
 72
    14
 73
    10
 74
     0
 42
0.000000001
 43
0.00000001
 40
0.0
 40
0.0
 40
0.0
 40
0.0
 40
0.2499999999999999
 40
0.2499999999999999
 40
0.4999999999999999
 40
0.4999999999999999
 40
0.7499999999999998
 40
0.7499999999999998
 40
1.0
 40
1.0
 40
1.0
 40
1.0
 10
28.82583179237125
 20
1.282235431299
 30
0.0
 10
28.74262215055015
 20
1.36293142330165
 30
0.0
 10
28.65846773527768
 20
1.446541992043365
 30
0.0
 10
28.48547988632678
 20
1.614894209193835
 30
0.0
 10
28.39825907373764
 20
1.698106817164774
 30
0.0
 10
28.22549416055668
 20
1.854989273438763
 30
0.0
 10
28.14187542642335
 20
1.9269930898468
 30
0.0
 10
27.97859235169787
 20
2.057091467302812
 30
0.0
 10
27.89880596404426
 20
2.11509482084848
 30
0.0
 10
27.82493677862504
 20
2.162507525306476
 30
0.0
  0
SPLINE
  5
C9
330
1F
100
AcDbEntity
  8
외형선
  6
Continuous
 62
     1
370
    15
100
AcDbSpline
210
0.0
220
0.0
230
1.0
 70
     8
 71
     3
 72
     8
 73
     4
 74
     0
 42
0.000000001
 43
0.00000001
 40
0.0
 40
0.0
 40
0.0
 40
0.0
 40
1.0
 40
1.0
 40
1.0
 40
1.0
 10
21.40476973560218
 20
-0.9862083375825441
 30
0.0
 10
21.53374125536928
 20
-1.1076528246046
 30
0.0
 10
21.6698739110262
 20
-1.243759194378161
 30
0.0
 10
21.80531111963142
 20
-1.373634390819985
 30
0.0
  0
SPLINE
  5
CA
330
1F
100
AcDbEntity
  8
외형선
  6
Continuous
 62
     1
370
    15
100
AcDbSpline
210
0.0
220
0.0
230
1.0
 70
     8
 71
     3
 72
     8
 73
     4
 74
     0
 42
0.000000001
 43
0.00000001
 40
0.0
 40
0.0
 40
0.0
 40
0.0
 40
1.0
 40
1.0
 40
1.0
 40
1.0
 10
21.97045611836118
 20
0.568828858300911
 30
0.0
 10
21.83025945501924
 20
0.7066256997914663
 30
0.0
 10
21.69424729060408
 20
0.8376882127345403
 30
0.0
 10
21.5730594895726
 20
0.949811595114977
 30
0.0
  0
SPLINE
  5
CB
330
1F
100
AcDbEntity
  8
외형선
  6
Continuous
 62
     1
370
    15
100
AcDbSpline
210
0.0
220
0.0
230
1.0
 70
     8
 71
     3
 72
     8
 73
     4
 74
     0
 42
0.000000001
 43
0.00000001
 40
0.0
 40
0.0
 40
0.0
 40
0.0
 40
1.0
 40
1.0
 40
1.0
 40
1.0
 10
14.29658744592691
 20
-1.472352110759665
 30
0.0
 10
14.43675406422226
 20
-1.599499035924347
 30
0.0
 10
14.57245110743979
 20
-1.71190423942268
 30
0.0
 10
14.69329375561841
 20
-1.798377377557131
 30
0.0
  0
SPLINE
  5
CC
330
1F
100
AcDbEntity
  8
외형선
  6
Continuous
 62
     1
370
    15
100
AcDbSpline
210
0.0
220
0.0
230
1.0
 70
     8
 71
     3
 72
     8
 73
     4
 74
     0
 42
0.000000001
 43
0.00000001
 40
0.0
 40
0.0
 40
0.0
 40
0.0
 40
1.0
 40
1.0
 40
1.0
 40
1.0
 10
14.863197731873
 20
0.0987735569532783
 30
0.0
 10
14.73414171769683
 20
0.2044311117096023
 30
0.0
 10
14.59782815365522
 20
0.3345305891983698
 30
0.0
 10
14.46201693943405
 20
0.4660708428437127
 30
0.0
  0
SPLINE
  5
CD
330
1F
100
AcDbEntity
  8
외형선
  6
Continuous
 62
     1
370
    15
100
AcDbSpline
210
0.0
220
0.0
230
1.0
 70
     8
 71
     3
 72
    14
 73
    10
 74
     0
 42
0.000000001
 43
0.00000001
 40
0.0
 40
0.0
 40
0.0
 40
0.0
 40
0.25
 40
0.25
 40
0.5
 40
0.5
 40
0.75
 40
0.75
 40
1.0
 40
1.0
 40
1.0
 40
1.0
 10
23.62794584127335
 20
-0.9881224102295323
 30
0.0
 10
23.54477369414203
 20
-0.9347372716743437
 30
0.0
 10
23.46093191576563
 20
-0.8682244109312025
 30
0.0
 10
23.28830758627141
 20
-0.7190951330524168
 30
0.0
 10
23.20121886661536
 20
-0.637439652990883
 30
0.0
 10
23.02851040934764
 20
-0.4686819728534032
 30
0.0
 10
22.94484017979284
 20
-0.3835327714160338
 30
0.0
 10
22.7813265797384
 20
-0.2131403526994051
 30
0.0
 10
22.70135409855678
 20
-0.127706425867606
 30
0.0
 10
22.62727398625413
 20
-0.0462018221575548
 30
0.0
  0
SPLINE
  5
CE
330
1F
100
AcDbEntity
  8
외형선
  6
Continuous
 62
     1
370
    15
100
AcDbSpline
210
0.0
220
0.0
230
1.0
 70
     8
 71
     3
 72
    14
 73
    10
 74
     0
 42
0.000000001
 43
0.00000001
 40
0.0
 40
0.0
 40
0.0
 40
0.0
 40
0.25
 40
0.25
 40
0.5
 40
0.5
 40
0.75
 40
0.75
 40
1.0
 40
1.0
 40
1.0
 40
1.0
 10
22.45751453611058
 20
-1.930540572707467
 30
0.0
 10
22.54097854718735
 20
-2.016287670187048
 30
0.0
 10
22.62537408116794
 20
-2.101429664601635
 30
0.0
 10
22.79880528434985
 20
-2.267536646157165
 30
0.0
 10
22.88620788370082
 20
-2.346893122841549
 30
0.0
 10
23.05929846408882
 20
-2.491470612860619
 30
0.0
 10
23.14306443161841
 20
-2.55520772519988
 30
0.0
 10
23.3066158019471
 20
-2.664713936272374
 30
0.0
 10
23.3865072385339
 20
-2.71029251531027
 30
0.0
 10
23.46047105964189
 20
-2.743544576886297
 30
0.0
  0
SPLINE
  5
CF
330
1F
100
AcDbEntity
  8
외형선
  6
Continuous
 62
     1
370
    15
100
AcDbSpline
210
0.0
220
0.0
230
1.0
 70
     8
 71
     3
 72
    14
 73
    10
 74
     0
 42
0.000000001
 43
0.00000001
 40
0.0
 40
0.0
 40
0.0
 40
0.0
 40
0.25
 40
0.25
 40
0.5
 40
0.5
 40
0.75
 40
0.75
 40
1.0
 40
1.0
 40
1.0
 40
1.0
 10
16.11938022304957
 20
-1.083110056522226
 30
0.0
 10
16.03603064370857
 20
-1.031587628804983
 30
0.0
 10
15.95175578105541
 20
-0.9668170699273181
 30
0.0
 10
15.77858389918269
 20
-0.8199539056889712
 30
0.0
 10
15.6913526002985
 20
-0.7389380583336016
 30
0.0
 10
15.5186946673563
 20
-0.5706040924210647
 30
0.0
 10
15.43517852666414
 20
-0.4852059800089092
 30
0.0
 10
15.27216745306891
 20
-0.3134517660965918
 30
0.0
 10
15.19263181720021
 20
-0.226834982274917
 30
0.0
 10
15.11876850112571
 20
-0.1440116051242024
 30
0.0
  0
SPLINE
  5
D0
330
1F
100
AcDbEntity
  8
외형선
  6
Continuous
 62
     1
370
    15
100
AcDbSpline
210
0.0
220
0.0
230
1.0
 70
     8
 71
     3
 72
    14
 73
    10
 74
     0
 42
0.000000001
 43
0.00000001
 40
0.0
 40
0.0
 40
0.0
 40
0.0
 40
0.2499999999999999
 40
0.2499999999999999
 40
0.4999999999999998
 40
0.4999999999999998
 40
0.7499999999999997
 40
0.7499999999999997
 40
1.0
 40
1.0
 40
1.0
 40
1.0
 10
14.94927475529131
 20
-2.018266504548773
 30
0.0
 10
15.03275881916135
 20
-2.104584735655115
 30
0.0
 10
15.11700635167736
 20
-2.18996646435339
 30
0.0
 10
15.28973283795443
 20
-2.356235624811427
 30
0.0
 10
15.37684697804513
 20
-2.435215465584419
 30
0.0
 10
15.54975991389327
 20
-2.578276709997172
 30
0.0
 10
15.63357445355539
 20
-2.640864154442277
 30
0.0
 10
15.79743388550329
 20
-2.747286177673653
 30
0.0
 10
15.87760640154627
 20
-2.790921083310423
 30
0.0
 10
15.95186729304611
 20
-2.821874489216175
 30
0.0
  0
SPLINE
  5
D1
330
1F
100
AcDbEntity
  8
외형선
  6
Continuous
 62
     1
370
    15
100
AcDbSpline
210
0.0
220
0.0
230
1.0
 70
     8
 71
     3
 72
    10
 73
     6
 74
     0
 42
0.000000001
 43
0.00000001
 40
0.0
 40
0.0
 40
0.0
 40
0.0
 40
0.1180399442801148
 40
0.557835099094987
 40
1.0
 40
1.0
 40
1.0
 40
1.0
 10
17.60394388133826
 20
4.016808926678202
 30
0.0
 10
17.61014771404102
 20
4.021733214967366
 30
0.0
 10
17.63946588808473
 20
4.045004497095718
 30
0.0
 10
17.69233595921068
 20
4.082199750703772
 30
0.0
 10
17.73890072821616
 20
4.11146438324183
 30
0.0
 10
17.76224567035888
 20
4.126136015207805
 30
0.0
  0
SPLINE
  5
D2
330
1F
100
AcDbEntity
  8
외형선
  6
Continuous
 62
     1
370
    15
100
AcDbSpline
210
0.0
220
0.0
230
1.0
 70
     8
 71
     3
 72
     8
 73
     4
 74
     0
 42
0.000000001
 43
0.00000001
 40
0.0
 40
0.0
 40
0.0
 40
0.0
 40
1.0
 40
1.0
 40
1.0
 40
1.0
 10
17.76224562991939
 20
4.126135999049679
 30
0.0
 10
17.9027444769844
 20
4.182273943041285
 30
0.0
 10
18.03821995249318
 20
4.20261329796184
 30
0.0
 10
18.15938956345401
 20
4.181331940470915
 30
0.0
  0
SPLINE
  5
D3
330
1F
100
AcDbEntity
  8
외형선
  6
Continuous
 62
     1
370
    15
100
AcDbSpline
210
0.0
220
0.0
230
1.0
 70
     8
 71
     3
 72
    10
 73
     6
 74
     0
 42
0.000000001
 43
0.00000001
 40
0.0
 40
0.0
 40
0.0
 40
0.0
 40
0.5
 40
0.5
 40
1.0
 40
1.0
 40
1.0
 40
1.0
 10
18.15938956345409
 20
4.181331940470897
 30
0.0
 10
18.19660950763227
 20
4.174794897630139
 30
0.0
 10
18.23918461180472
 20
4.180158004139906
 30
0.0
 10
18.32709837862011
 20
4.212309592510219
 30
0.0
 10
18.37330651372571
 20
4.239493904416837
 30
0.0
 10
18.41545957001078
 20
4.27942939394455
 30
0.0
  0
SPLINE
  5
D4
330
1F
100
AcDbEntity
  8
외형선
  6
Continuous
 62
     1
370
    15
100
AcDbSpline
210
0.0
220
0.0
230
1.0
 70
     8
 71
     3
 72
    14
 73
    10
 74
     0
 42
0.000000001
 43
0.00000001
 40
0.0
 40
0.0
 40
0.0
 40
0.0
 40
0.25
 40
0.25
 40
0.5
 40
0.5
 40
0.75
 40
0.75
 40
1.0
 40
1.0
 40
1.0
 40
1.0
 10
18.41545957001078
 20
4.27942939394455
 30
0.0
 10
18.4988808008722
 20
4.358462042702585
 30
0.0
 10
18.58321663589339
 20
4.422564567151227
 30
0.0
 10
18.75649306859829
 20
4.525987393401682
 30
0.0
 10
18.84379712285087
 20
4.563884804677606
 30
0.0
 10
19.01662260373445
 20
4.610905692962779
 30
0.0
 10
19.10022827019599
 20
4.619761205238367
 30
0.0
 10
19.26342059197599
 20
4.60845231669975
 30
0.0
 10
19.34305130791336
 20
4.587847858042445
 30
0.0
 10
19.416925983859
 20
4.551647813018774
 30
0.0
  0
SPLINE
  5
D5
330
1F
100
AcDbEntity
  8
외형선
  6
Continuous
 62
     1
370
    15
100
AcDbSpline
210
0.0
220
0.0
230
1.0
 70
     8
 71
     3
 72
    10
 73
     6
 74
     0
 42
0.000000001
 43
0.00000001
 40
0.0
 40
0.0
 40
0.0
 40
0.0
 40
0.5
 40
0.5
 40
1.0
 40
1.0
 40
1.0
 40
1.0
 10
19.41692598385901
 20
4.551647813018773
 30
0.0
 10
19.45417028876161
 20
4.533397370670413
 30
0.0
 10
19.49669231399072
 20
4.527471124918558
 30
0.0
 10
19.5843735061699
 20
4.539769423747468
 30
0.0
 10
19.63040009195263
 20
4.558212210914696
 30
0.0
 10
19.67222547528807
 20
4.592045652773752
 30
0.0
  0
SPLINE
  5
D6
330
1F
100
AcDbEntity
  8
외형선
  6
Continuous
 62
     1
370
    15
100
AcDbSpline
210
0.0
220
0.0
230
1.0
 70
     8
 71
     3
 72
     8
 73
     4
 74
     0
 42
0.000000001
 43
0.00000001
 40
0.0
 40
0.0
 40
0.0
 40
0.0
 40
1.0
 40
1.0
 40
1.0
 40
1.0
 10
19.67222547528806
 20
4.592045652773744
 30
0.0
 10
19.80102162422669
 20
4.696231596076108
 30
0.0
 10
19.93708622744122
 20
4.758773537958741
 30
0.0
 10
20.07268410129094
 20
4.783944639173384
 30
0.0
  0
SPLINE
  5
D7
330
1F
100
AcDbEntity
  8
외형선
  6
Continuous
 62
     1
370
    15
100
AcDbSpline
210
0.0
220
0.0
230
1.0
 70
     8
 71
     3
 72
    13
 73
     9
 74
     0
 42
0.000000001
 43
0.00000001
 40
0.0
 40
0.0
 40
0.0
 40
0.0
 40
0.1275789294369133
 40
0.3458218123533949
 40
0.5076784977553385
 40
0.6701819871991543
 40
0.8347311630400204
 40
1.0
 40
1.0
 40
1.0
 40
1.0
 10
20.10680571367682
 20
4.779475905286242
 30
0.0
 10
20.12312398487783
 20
4.777649375948615
 30
0.0
 10
20.16735710508123
 20
4.772698294381753
 30
0.0
 10
20.23086818892013
 20
4.755565866420565
 30
0.0
 10
20.2974779056074
 20
4.73159161206847
 30
0.0
 10
20.3560837734959
 20
4.704199414119333
 30
0.0
 10
20.41365601264926
 20
4.671621512813853
 30
0.0
 10
20.45054364869511
 20
4.645173165389794
 30
0.0
 10
20.46902771102915
 20
4.631920136602287
 30
0.0
  0
SPLINE
  5
D8
330
1F
100
AcDbEntity
  8
외형선
  6
Continuous
 62
     1
370
    15
100
AcDbSpline
210
0.0
220
0.0
230
1.0
 70
     8
 71
     3
 72
    10
 73
     6
 74
     0
 42
0.000000001
 43
0.00000001
 40
0.0
 40
0.0
 40
0.0
 40
0.0
 40
0.5
 40
0.5
 40
1.0
 40
1.0
 40
1.0
 40
1.0
 10
20.46902771102915
 20
4.631920136602284
 30
0.0
 10
20.50623762062098
 20
4.603868187610793
 30
0.0
 10
20.54879786151154
 20
4.588033092000155
 30
0.0
 10
20.63657687431881
 20
4.581510099646798
 30
0.0
 10
20.68263548227801
 20
4.590856572035136
 30
0.0
 10
20.72463590086218
 20
4.616926548564687
 30
0.0
  0
SPLINE
  5
D9
330
1F
100
AcDbEntity
  8
외형선
  6
Continuous
 62
     1
370
    15
100
AcDbSpline
210
0.0
220
0.0
230
1.0
 70
     8
 71
     3
 72
    14
 73
    10
 74
     0
 42
0.000000001
 43
0.00000001
 40
0.0
 40
0.0
 40
0.0
 40
0.0
 40
0.25
 40
0.25
 40
0.5
 40
0.5
 40
0.75
 40
0.75
 40
1.0
 40
1.0
 40
1.0
 40
1.0
 10
20.72463590086288
 20
4.616926548564237
 30
0.0
 10
20.80790615451581
 20
4.668613022926114
 30
0.0
 10
20.89205789490065
 20
4.699827461609162
 30
0.0
 10
21.06518444648028
 20
4.730632463834002
 30
0.0
 10
21.15252331553439
 20
4.729331617087519
 30
0.0
 10
21.32566198138371
 20
4.696330863333733
 30
0.0
 10
21.40953598533231
 20
4.665256386253055
 30
0.0
 10
21.57342805008409
 20
4.574787626993297
 30
0.0
 10
21.65356270464031
 20
4.51482798954749
 30
0.0
 10
21.72777493369874
 20
4.441606878780445
 30
0.0
  0
SPLINE
  5
DA
330
1F
100
AcDbEntity
  8
외형선
  6
Continuous
 62
     1
370
    15
100
AcDbSpline
210
0.0
220
0.0
230
1.0
 70
     8
 71
     3
 72
    10
 73
     6
 74
     0
 42
0.000000001
 43
0.00000001
 40
0.0
 40
0.0
 40
0.0
 40
0.0
 40
0.5
 40
0.5
 40
1.0
 40
1.0
 40
1.0
 40
1.0
 10
21.72777493369874
 20
4.441606878780447
 30
0.0
 10
21.76515094644274
 20
4.404730029723609
 30
0.0
 10
21.80779009290395
 20
4.378974585182266
 30
0.0
 10
21.89559150665157
 20
4.352335498159654
 30
0.0
 10
21.94160870167449
 20
4.351297002332747
 30
0.0
 10
21.98340005570838
 20
4.367742053016907
 30
0.0
  0
SPLINE
  5
DB
330
1F
100
AcDbEntity
  8
외형선
  6
Continuous
 62
     1
370
    15
100
AcDbSpline
210
0.0
220
0.0
230
1.0
 70
     8
 71
     3
 72
     8
 73
     4
 74
     0
 42
0.000000001
 43
0.00000001
 40
0.0
 40
0.0
 40
0.0
 40
0.0
 40
1.0
 40
1.0
 40
1.0
 40
1.0
 10
21.98340005570838
 20
4.367742053016909
 30
0.0
 10
22.11240341581573
 20
4.418505347110498
 30
0.0
 10
22.24811016204174
 20
4.417556322105319
 30
0.0
 10
22.38380363966197
 20
4.380437823334033
 30
0.0
  0
SPLINE
  5
DC
330
1F
100
AcDbEntity
  8
외형선
  6
Continuous
 62
     1
370
    15
100
AcDbSpline
210
0.0
220
0.0
230
1.0
 70
     8
 71
     3
 72
     8
 73
     4
 74
     0
 42
0.000000001
 43
0.00000001
 40
0.0
 40
0.0
 40
0.0
 40
0.0
 40
1.0
 40
1.0
 40
1.0
 40
1.0
 10
22.3838035992988
 20
4.380437844589974
 30
0.0
 10
22.5236471689209
 20
4.306793772579148
 30
0.0
 10
22.65919346455943
 20
4.19668940924406
 30
0.0
 10
22.77989706888157
 20
4.05649372622787
 30
0.0
  0
SPLINE
  5
DD
330
1F
100
AcDbEntity
  8
외형선
  6
Continuous
 62
     1
370
    15
100
AcDbSpline
210
0.0
220
0.0
230
1.0
 70
     8
 71
     3
 72
    10
 73
     6
 74
     0
 42
0.000000001
 43
0.00000001
 40
0.0
 40
0.0
 40
0.0
 40
0.0
 40
0.5
 40
0.5
 40
1.0
 40
1.0
 40
1.0
 40
1.0
 10
22.77989706888172
 20
4.056493726227622
 30
0.0
 10
22.81702002866271
 20
4.01337588619867
 30
0.0
 10
22.85950909902455
 20
3.979927245639665
 30
0.0
 10
22.94722553088259
 20
3.936278875084548
 30
0.0
 10
22.99328657859822
 20
3.925774864279348
 30
0.0
 10
23.03526910903843
 20
3.932352058418474
 30
0.0
  0
SPLINE
  5
DE
330
1F
100
AcDbEntity
  8
외형선
  6
Continuous
 62
     1
370
    15
100
AcDbSpline
210
0.0
220
0.0
230
1.0
 70
     8
 71
     3
 72
    14
 73
    10
 74
     0
 42
0.000000001
 43
0.00000001
 40
0.0
 40
0.0
 40
0.0
 40
0.0
 40
0.2500000000000002
 40
0.2500000000000002
 40
0.5000000000000001
 40
0.5000000000000001
 40
0.75
 40
0.75
 40
1.0
 40
1.0
 40
1.0
 40
1.0
 10
23.03526910903749
 20
3.932352058417647
 30
0.0
 10
23.11875298020167
 20
3.945431061097468
 30
0.0
 10
23.20308204038751
 20
3.936914176946647
 30
0.0
 10
23.37617490903883
 20
3.8879892206427
 30
0.0
 10
23.46314017803028
 20
3.847439770119847
 30
0.0
 10
23.63545564320964
 20
3.741103019823989
 30
0.0
 10
23.71904727748871
 20
3.676800260433688
 30
0.0
 10
23.88259089046261
 20
3.527212448309482
 30
0.0
 10
23.96265109398495
 20
3.441436485933125
 30
0.0
 10
24.03689171994721
 20
3.347755232705294
 30
0.0
  0
SPLINE
  5
DF
330
1F
100
AcDbEntity
  8
외형선
  6
Continuous
 62
     1
370
    15
100
AcDbSpline
210
0.0
220
0.0
230
1.0
 70
     8
 71
     3
 72
    10
 73
     6
 74
     0
 42
0.000000001
 43
0.00000001
 40
0.0
 40
0.0
 40
0.0
 40
0.0
 40
0.5
 40
0.5
 40
1.0
 40
1.0
 40
1.0
 40
1.0
 10
24.03689171994722
 20
3.347755232705278
 30
0.0
 10
24.07432912957168
 20
3.300514474619472
 30
0.0
 10
24.11705125068262
 20
3.260674000375578
 30
0.0
 10
24.20506778019506
 20
3.201052135546083
 30
0.0
 10
24.25122687896301
 20
3.180775628863374
 30
0.0
 10
24.2931638778938
 20
3.176283544384668
 30
0.0
  0
SPLINE
  5
E0
330
1F
100
AcDbEntity
  8
외형선
  6
Continuous
 62
     1
370
    15
100
AcDbSpline
210
0.0
220
0.0
230
1.0
 70
     8
 71
     3
 72
     8
 73
     4
 74
     0
 42
0.000000001
 43
0.00000001
 40
0.0
 40
0.0
 40
0.0
 40
0.0
 40
1.0
 40
1.0
 40
1.0
 40
1.0
 10
24.29316387789379
 20
3.176283544384673
 30
0.0
 10
24.42250873938762
 20
3.162428760791886
 30
0.0
 10
24.55890772683811
 20
3.098855478709629
 30
0.0
 10
24.69452946165242
 20
3.007663566169879
 30
0.0
  0
SPLINE
  5
E1
330
1F
100
AcDbEntity
  8
외형선
  6
Continuous
 62
     1
370
    15
100
AcDbSpline
210
0.0
220
0.0
230
1.0
 70
     8
 71
     3
 72
     8
 73
     4
 74
     0
 42
0.000000001
 43
0.00000001
 40
0.0
 40
0.0
 40
0.0
 40
0.0
 40
1.0
 40
1.0
 40
1.0
 40
1.0
 10
24.69452942122241
 20
3.007663601108293
 30
0.0
 10
24.83478788727403
 20
2.886456399314127
 30
0.0
 10
24.97005668675363
 20
2.740789822748108
 30
0.0
 10
25.09094388018177
 20
2.582053403838913
 30
0.0
  0
SPLINE
  5
E2
330
1F
100
AcDbEntity
  8
외형선
  6
Continuous
 62
     1
370
    15
100
AcDbSpline
210
0.0
220
0.0
230
1.0
 70
     8
 71
     3
 72
    10
 73
     6
 74
     0
 42
0.000000001
 43
0.00000001
 40
0.0
 40
0.0
 40
0.0
 40
0.0
 40
0.5
 40
0.5
 40
1.0
 40
1.0
 40
1.0
 40
1.0
 10
25.09094388018185
 20
2.582053403838804
 30
0.0
 10
25.1280458929478
 20
2.53333492114616
 30
0.0
 10
25.17051030367191
 20
2.489620947344935
 30
0.0
 10
25.25822067788168
 20
2.418358769644803
 30
0.0
 10
25.30431855833265
 20
2.39021108710713
 30
0.0
 10
25.34635636262691
 20
2.375738527056769
 30
0.0
  0
SPLINE
  5
E3
330
1F
100
AcDbEntity
  8
외형선
  6
Continuous
 62
     1
370
    15
100
AcDbSpline
210
0.0
220
0.0
230
1.0
 70
     8
 71
     3
 72
    14
 73
    10
 74
     0
 42
0.000000001
 43
0.00000001
 40
0.0
 40
0.0
 40
0.0
 40
0.0
 40
0.25
 40
0.25
 40
0.5
 40
0.5
 40
0.75
 40
0.75
 40
1.0
 40
1.0
 40
1.0
 40
1.0
 10
25.34635636262691
 20
2.375738527056767
 30
0.0
 10
25.42969110012678
 20
2.347048470261561
 30
0.0
 10
25.5139538532585
 20
2.300772543088015
 30
0.0
 10
25.6871084645874
 20
2.183701367991347
 30
0.0
 10
25.77433954541995
 20
2.113563816565003
 30
0.0
 10
25.94700891343463
 20
1.958647649137413
 30
0.0
 10
26.03053529225232
 20
1.875715124530631
 30
0.0
 10
26.19357254109925
 20
1.700503490131672
 30
0.0
 10
26.27312202836954
 20
1.607832702485725
 30
0.0
 10
26.34695667312704
 20
1.514400731739305
 30
0.0
  0
SPLINE
  5
E4
330
1F
100
AcDbEntity
  8
외형선
  6
Continuous
 62
     1
370
    15
100
AcDbSpline
210
0.0
220
0.0
230
1.0
 70
     8
 71
     3
 72
    10
 73
     6
 74
     0
 42
0.000000001
 43
0.00000001
 40
0.0
 40
0.0
 40
0.0
 40
0.0
 40
0.5
 40
0.5
 40
1.0
 40
1.0
 40
1.0
 40
1.0
 10
26.34695667312704
 20
1.514400731739306
 30
0.0
 10
26.38423733484132
 20
1.467224968841874
 30
0.0
 10
26.42679928805085
 20
1.422058537022718
 30
0.0
 10
26.51455447442238
 20
1.342532134211393
 30
0.0
 10
26.56061649096259
 20
1.307454674940326
 30
0.0
 10
26.60248182459748
 20
1.282928887359523
 30
0.0
  0
SPLINE
  5
E5
330
1F
100
AcDbEntity
  8
외형선
  6
Continuous
 62
     1
370
    15
100
AcDbSpline
210
0.0
220
0.0
230
1.0
 70
     8
 71
     3
 72
     8
 73
     4
 74
     0
 42
0.000000001
 43
0.00000001
 40
0.0
 40
0.0
 40
0.0
 40
0.0
 40
1.0
 40
1.0
 40
1.0
 40
1.0
 10
26.60248182459747
 20
1.282928887359514
 30
0.0
 10
26.73150178062519
 20
1.207345683775927
 30
0.0
 10
26.86778605589832
 20
1.095200397778596
 30
0.0
 10
27.00358491334548
 20
0.9707947732249853
 30
0.0
  0
SPLINE
  5
E6
330
1F
100
AcDbEntity
  8
외형선
  6
Continuous
 62
     1
370
    15
100
AcDbSpline
210
0.0
220
0.0
230
1.0
 70
     8
 71
     3
 72
     8
 73
     4
 74
     0
 42
0.000000001
 43
0.00000001
 40
0.0
 40
0.0
 40
0.0
 40
0.0
 40
1.0
 40
1.0
 40
1.0
 40
1.0
 10
27.0035848728719
 20
0.9707948138660215
 30
0.0
 10
27.14412267665667
 20
0.829674608123148
 30
0.0
 10
27.28004703627667
 20
0.6822179313781506
 30
0.0
 10
27.40102640293717
 20
0.5409349269890597
 30
0.0
  0
SPLINE
  5
E7
330
1F
100
AcDbEntity
  8
외형선
  6
Continuous
 62
     1
370
    15
100
AcDbSpline
210
0.0
220
0.0
230
1.0
 70
     8
 71
     3
 72
    10
 73
     6
 74
     0
 42
0.000000001
 43
0.00000001
 40
0.0
 40
0.0
 40
0.0
 40
0.0
 40
0.5
 40
0.5
 40
1.0
 40
1.0
 40
1.0
 40
1.0
 10
27.40102640293725
 20
0.540934926988953
 30
0.0
 10
27.43829631691657
 20
0.497410104817433
 30
0.0
 10
27.48090320580308
 20
0.4531133281177623
 30
0.0
 10
27.56876349804105
 20
0.3698873091153943
 30
0.0
 10
27.61487066123897
 20
0.3301922349769307
 30
0.0
 10
27.6569153976845
 20
0.2975583576855952
 30
0.0
  0
SPLINE
  5
E8
330
1F
100
AcDbEntity
  8
외형선
  6
Continuous
 62
     1
370
    15
100
AcDbSpline
210
0.0
220
0.0
230
1.0
 70
    24
 71
     3
 72
    13
 73
     9
 74
     0
 42
0.000000001
 43
0.00000001
 40
0.0
 40
0.0
 40
0.0
 40
0.0
 40
0.0218557391553803
 40
0.2891537890363123
 40
0.5650927495486519
 40
0.7163183476376683
 40
0.8711881416534467
 40
1.0
 40
1.0
 40
1.0
 40
1.0
 10
28.60164741847539
 20
-0.6569488518041592
 30
0.0
 10
28.60077357620292
 20
-0.6578226940766327
 30
0.0
 10
28.5892125485795
 20
-0.6693837217000619
 30
0.0
 10
28.52274428504454
 20
-0.7358519852349705
 30
0.0
 10
28.40460239505212
 20
-0.8539938752274878
 30
0.0
 10
28.26034874166157
 20
-0.9982475286179576
 30
0.0
 10
28.13111274708417
 20
-1.127483523195359
 30
0.0
 10
28.0305991867061
 20
-1.227997083573485
 30
0.0
 10
27.98495880639418
 20
-1.27363746388542
 30
0.0
  0
SPLINE
  5
E9
330
1F
100
AcDbEntity
  8
외형선
  6
Continuous
 62
     1
370
    15
100
AcDbSpline
210
0.0
220
0.0
230
1.0
 70
     8
 71
     3
 72
     8
 73
     4
 74
     0
 42
0.000000001
 43
0.00000001
 40
0.0
 40
0.0
 40
0.0
 40
0.0
 40
1.0
 40
1.0
 40
1.0
 40
1.0
 10
29.05000000000001
 20
-2.113100099743977
 30
0.0
 10
28.69024789161137
 20
-1.862399613858982
 30
0.0
 10
28.33533597043893
 20
-1.58195304675399
 30
0.0
 10
27.98495880639392
 20
-1.273637463885611
 30
0.0
  0
LINE
  5
EA
330
1F
100
AcDbEntity
  8
외형선
  6
Continuous
 62
     1
370
    15
100
AcDbLine
 10
29.05000000000001
 20
-4.411749240456397
 30
0.0
 11
29.05000000000001
 21
-2.113100099743976
 31
0.0
  0
SPLINE
  5
EB
330
1F
100
AcDbEntity
  8
외형선
  6
Continuous
 62
     1
370
    15
100
AcDbSpline
210
0.0
220
0.0
230
1.0
 70
     8
 71
     3
 72
     8
 73
     4
 74
     0
 42
0.000000001
 43
0.00000001
 40
0.0
 40
0.0
 40
0.0
 40
0.0
 40
1.0
 40
1.0
 40
1.0
 40
1.0
 10
28.85703757963572
 20
-4.56176058571452
 30
0.0
 10
28.9203929464518
 20
-4.514395334766645
 30
0.0
 10
28.98463355566281
 20
-4.464413091923487
 30
0.0
 10
29.05000000000001
 20
-4.411749240456394
 30
0.0
  0
SPLINE
  5
EC
330
1F
100
AcDbEntity
  8
외형선
  6
Continuous
 62
     1
370
    15
100
AcDbSpline
210
0.0
220
0.0
230
1.0
 70
     8
 71
     3
 72
     8
 73
     4
 74
     0
 42
0.000000001
 43
0.00000001
 40
0.0
 40
0.0
 40
0.0
 40
0.0
 40
1.0
 40
1.0
 40
1.0
 40
1.0
 10
28.8570375796357
 20
-4.56176058571452
 30
0.0
 10
28.73334581729018
 20
-4.507152817476678
 30
0.0
 10
28.6132550677511
 20
-4.421626511819889
 30
0.0
 10
28.50529594728507
 20
-4.308732771280837
 30
0.0
  0
SPLINE
  5
ED
330
1F
100
AcDbEntity
  8
외형선
  6
Continuous
 62
     1
370
    15
100
AcDbSpline
210
0.0
220
0.0
230
1.0
 70
     8
 71
     3
 72
    10
 73
     6
 74
     0
 42
0.000000001
 43
0.00000001
 40
0.0
 40
0.0
 40
0.0
 40
0.0
 40
0.5
 40
0.5
 40
1.0
 40
1.0
 40
1.0
 40
1.0
 10
28.50529594728507
 20
-4.308732771280836
 30
0.0
 10
28.46809869165539
 20
-4.26983529501672
 30
0.0
 10
28.42553110178748
 20
-4.241764474052212
 30
0.0
 10
28.33765789518616
 20
-4.210165720222571
 30
0.0
 10
28.29150932651908
 20
-4.20644377664124
 30
0.0
 10
28.24942915748432
 20
-4.22014835719777
 30
0.0
  0
SPLINE
  5
EE
330
1F
100
AcDbEntity
  8
외형선
  6
Continuous
 62
     1
370
    15
100
AcDbSpline
210
0.0
220
0.0
230
1.0
 70
     8
 71
     3
 72
    14
 73
    10
 74
     0
 42
0.000000001
 43
0.00000001
 40
0.0
 40
0.0
 40
0.0
 40
0.0
 40
0.2499999999999998
 40
0.2499999999999998
 40
0.4999999999999999
 40
0.4999999999999999
 40
0.7499999999999999
 40
0.7499999999999999
 40
1.0
 40
1.0
 40
1.0
 40
1.0
 10
28.24942915748431
 20
-4.22014835719777
 30
0.0
 10
28.16580012251925
 20
-4.247384484638157
 30
0.0
 10
28.0813137725715
 20
-4.25281477053437
 30
0.0
 10
27.90788031659412
 20
-4.23101379548931
 30
0.0
 10
27.82063495934021
 20
-4.203414985094677
 30
0.0
 10
27.64803340242823
 20
-4.120353732563618
 30
0.0
 10
27.56454230910764
 20
-4.066087939036648
 30
0.0
 10
27.40094324398714
 20
-3.933478329790519
 30
0.0
 10
27.32083264512975
 20
-3.854554593032778
 30
0.0
 10
27.24657015941447
 20
-3.765557849078672
 30
0.0
  0
SPLINE
  5
EF
330
1F
100
AcDbEntity
  8
외형선
  6
Continuous
 62
     1
370
    15
100
AcDbSpline
210
0.0
220
0.0
230
1.0
 70
     8
 71
     3
 72
    10
 73
     6
 74
     0
 42
0.000000001
 43
0.00000001
 40
0.0
 40
0.0
 40
0.0
 40
0.0
 40
0.5
 40
0.5
 40
1.0
 40
1.0
 40
1.0
 40
1.0
 10
27.24657015941446
 20
-3.765557849078671
 30
0.0
 10
27.20925270778037
 20
-3.720836323046908
 30
0.0
 10
27.16665655430325
 20
-3.685004661036726
 30
0.0
 10
27.07886372383692
 20
-3.635664681538698
 30
0.0
 10
27.03280940948255
 20
-3.621782868318506
 30
0.0
 10
26.99098333067259
 20
-3.624722052903305
 30
0.0
  0
SPLINE
  5
F0
330
1F
100
AcDbEntity
  8
외형선
  6
Continuous
 62
     1
370
    15
100
AcDbSpline
210
0.0
220
0.0
230
1.0
 70
     8
 71
     3
 72
     8
 73
     4
 74
     0
 42
0.000000001
 43
0.00000001
 40
0.0
 40
0.0
 40
0.0
 40
0.0
 40
1.0
 40
1.0
 40
1.0
 40
1.0
 10
26.99098333067244
 20
-3.624722052903401
 30
0.0
 10
26.8620062814872
 20
-3.633785473753306
 30
0.0
 10
26.72588796906748
 20
-3.591302727576717
 30
0.0
 10
26.59046997916802
 20
-3.517322559809946
 30
0.0
  0
SPLINE
  5
F1
330
1F
100
AcDbEntity
  8
외형선
  6
Continuous
 62
     1
370
    15
100
AcDbSpline
210
0.0
220
0.0
230
1.0
 70
     8
 71
     3
 72
     8
 73
     4
 74
     0
 42
0.000000001
 43
0.00000001
 40
0.0
 40
0.0
 40
0.0
 40
0.0
 40
1.0
 40
1.0
 40
1.0
 40
1.0
 10
26.59046997925725
 20
-3.517322559878236
 30
0.0
 10
26.45028197729651
 20
-3.410044665535569
 30
0.0
 10
26.31512339639032
 20
-3.273256316999265
 30
0.0
 10
26.19455230806291
 20
-3.116929338854298
 30
0.0
  0
SPLINE
  5
F2
330
1F
100
AcDbEntity
  8
외형선
  6
Continuous
 62
     1
370
    15
100
AcDbSpline
210
0.0
220
0.0
230
1.0
 70
     8
 71
     3
 72
    10
 73
     6
 74
     0
 42
0.000000001
 43
0.00000001
 40
0.0
 40
0.0
 40
0.0
 40
0.0
 40
0.5
 40
0.5
 40
1.0
 40
1.0
 40
1.0
 40
1.0
 10
26.19455230806291
 20
-3.116929338854305
 30
0.0
 10
26.15747534621913
 20
-3.068857039895732
 30
0.0
 10
26.11503351321322
 20
-3.027581043084655
 30
0.0
 10
26.02735811158534
 20
-2.96415724577505
 30
0.0
 10
25.98127162946484
 20
-2.941494310341867
 30
0.0
 10
25.93923287587666
 20
-2.934113127739413
 30
0.0
  0
SPLINE
  5
F3
330
1F
100
AcDbEntity
  8
외형선
  6
Continuous
 62
     1
370
    15
100
AcDbSpline
210
0.0
220
0.0
230
1.0
 70
     8
 71
     3
 72
    14
 73
    10
 74
     0
 42
0.000000001
 43
0.00000001
 40
0.0
 40
0.0
 40
0.0
 40
0.0
 40
0.25
 40
0.25
 40
0.5
 40
0.5
 40
0.75
 40
0.75
 40
1.0
 40
1.0
 40
1.0
 40
1.0
 10
25.93923287587666
 20
-2.934113127739409
 30
0.0
 10
25.85584034895792
 20
-2.919471031665457
 30
0.0
 10
25.77150432924578
 20
-2.885400409600476
 30
0.0
 10
25.59815932959344
 20
-2.789553279606588
 30
0.0
 10
25.5108065696723
 20
-2.728169547546886
 30
0.0
 10
25.33785993467033
 20
-2.586592191554297
 30
0.0
 10
25.25416516442104
 20
-2.508120309672133
 30
0.0
 10
25.09073719688802
 20
-2.337413256923779
 30
0.0
 10
25.01091203099324
 20
-2.244796339983181
 30
0.0
 10
24.93695271584677
 20
-2.148727219122736
 30
0.0
  0
SPLINE
  5
F4
330
1F
100
AcDbEntity
  8
외형선
  6
Continuous
 62
     1
370
    15
100
AcDbSpline
210
0.0
220
0.0
230
1.0
 70
     8
 71
     3
 72
    10
 73
     6
 74
     0
 42
0.000000001
 43
0.00000001
 40
0.0
 40
0.0
 40
0.0
 40
0.0
 40
0.5
 40
0.5
 40
1.0
 40
1.0
 40
1.0
 40
1.0
 10
24.93695271584676
 20
-2.148727219122732
 30
0.0
 10
24.89953779296793
 20
-2.100127272775034
 30
0.0
 10
24.85690873494381
 20
-2.055460137561148
 30
0.0
 10
24.76899725040781
 20
-1.980551586089208
 30
0.0
 10
24.72283771888614
 20
-1.949622990316428
 30
0.0
 10
24.68086396922369
 20
-1.931449027182363
 30
0.0
  0
SPLINE
  5
F5
330
1F
100
AcDbEntity
  8
외형선
  6
Continuous
 62
     1
370
    15
100
AcDbSpline
210
0.0
220
0.0
230
1.0
 70
     8
 71
     3
 72
     8
 73
     4
 74
     0
 42
0.000000001
 43
0.00000001
 40
0.0
 40
0.0
 40
0.0
 40
0.0
 40
1.0
 40
1.0
 40
1.0
 40
1.0
 10
24.68086396922354
 20
-1.931449027182422
 30
0.0
 10
24.55184490396116
 20
-1.875585832816202
 30
0.0
 10
24.41558110733004
 20
-1.777804203123928
 30
0.0
 10
24.27972391083994
 20
-1.662052630665165
 30
0.0
  0
SPLINE
  5
F6
330
1F
100
AcDbEntity
  8
외형선
  6
Continuous
 62
     1
370
    15
100
AcDbSpline
210
0.0
220
0.0
230
1.0
 70
     8
 71
     3
 72
     8
 73
     4
 74
     0
 42
0.000000001
 43
0.00000001
 40
0.0
 40
0.0
 40
0.0
 40
0.0
 40
1.0
 40
1.0
 40
1.0
 40
1.0
 10
24.27972391092947
 20
-1.662052630752839
 30
0.0
 10
24.13955205326299
 20
-1.524769548575089
 30
0.0
 10
24.00393218633483
 20
-1.374699109858449
 30
0.0
 10
23.883272712792
 20
-1.224008830579257
 30
0.0
  0
SPLINE
  5
F7
330
1F
100
AcDbEntity
  8
외형선
  6
Continuous
 62
     1
370
    15
100
AcDbSpline
210
0.0
220
0.0
230
1.0
 70
     8
 71
     3
 72
    10
 73
     6
 74
     0
 42
0.000000001
 43
0.00000001
 40
0.0
 40
0.0
 40
0.0
 40
0.0
 40
0.5
 40
0.5
 40
1.0
 40
1.0
 40
1.0
 40
1.0
 10
23.883272712792
 20
-1.224008830579256
 30
0.0
 10
23.84611818364358
 20
-1.177606950896981
 30
0.0
 10
23.80361358374043
 20
-1.132476922901673
 30
0.0
 10
23.71592145042296
 20
-1.051554560893936
 30
0.0
 10
23.66989765654381
 20
-1.015049735639559
 30
0.0
 10
23.62794584127284
 20
-0.9881224102291956
 30
0.0
  0
SPLINE
  5
F8
330
1F
100
AcDbEntity
  8
외형선
  6
Continuous
 62
     1
370
    15
100
AcDbSpline
210
0.0
220
0.0
230
1.0
 70
     8
 71
     3
 72
    10
 73
     6
 74
     0
 42
0.000000001
 43
0.00000001
 40
0.0
 40
0.0
 40
0.0
 40
0.0
 40
0.5
 40
0.5
 40
1.0
 40
1.0
 40
1.0
 40
1.0
 10
22.62727398625412
 20
-0.0462018221575448
 30
0.0
 10
22.589903759535
 20
-0.0050862592267964
 30
0.0
 10
22.54725749689437
 20
0.0378780577943788
 30
0.0
 10
22.4594261933907
 20
0.120638472940086
 30
0.0
 10
22.41339207934386
 20
0.1612006108148819
 30
0.0
 10
22.37158088544856
 20
0.196107063657855
 30
0.0
  0
SPLINE
  5
F9
330
1F
100
AcDbEntity
  8
외형선
  6
Continuous
 62
     1
370
    15
100
AcDbSpline
210
0.0
220
0.0
230
1.0
 70
     8
 71
     3
 72
    10
 73
     6
 74
     0
 42
0.000000001
 43
0.00000001
 40
0.0
 40
0.0
 40
0.0
 40
0.0
 40
0.5
 40
0.5
 40
1.0
 40
1.0
 40
1.0
 40
1.0
 10
21.5730594895726
 20
0.9498115951149676
 30
0.0
 10
21.53585376566729
 20
0.9842344625378362
 30
0.0
 10
21.49328912776932
 20
1.023168734813423
 30
0.0
 10
21.4054248690314
 20
1.103431406974546
 30
0.0
 10
21.35927505323021
 20
1.145521743928442
 30
0.0
 10
21.31720201085013
 20
1.185740486526937
 30
0.0
  0
SPLINE
  5
FA
330
1F
100
AcDbEntity
  8
외형선
  6
Continuous
 62
     1
370
    15
100
AcDbSpline
210
0.0
220
0.0
230
1.0
 70
     8
 71
     3
 72
    10
 73
     6
 74
     0
 42
0.000000001
 43
0.00000001
 40
0.0
 40
0.0
 40
0.0
 40
0.0
 40
0.5
 40
0.5
 40
1.0
 40
1.0
 40
1.0
 40
1.0
 10
20.31637694182759
 20
2.075708334099045
 30
0.0
 10
20.2790938151793
 20
2.100384245405398
 30
0.0
 10
20.236527030557
 20
2.132295736191048
 30
0.0
 10
20.14878820659716
 20
2.204781783478756
 30
0.0
 10
20.10276575446958
 20
2.246073657729556
 30
0.0
 10
20.06097070248223
 20
2.289901760032141
 30
0.0
  0
SPLINE
  5
FB
330
1F
100
AcDbEntity
  8
외형선
  6
Continuous
 62
     1
370
    15
100
AcDbSpline
210
0.0
220
0.0
230
1.0
 70
     8
 71
     3
 72
     8
 73
     4
 74
     0
 42
0.000000001
 43
0.00000001
 40
0.0
 40
0.0
 40
0.0
 40
0.0
 40
1.0
 40
1.0
 40
1.0
 40
1.0
 10
20.06097070248208
 20
2.289901760032191
 30
0.0
 10
19.9319784641585
 20
2.425168609782637
 30
0.0
 10
19.79583521746667
 20
2.560144960600371
 30
0.0
 10
19.66040501136578
 20
2.67840626435922
 30
0.0
  0
SPLINE
  5
FC
330
1F
100
AcDbEntity
  8
외형선
  6
Continuous
 62
     1
370
    15
100
AcDbSpline
210
0.0
220
0.0
230
1.0
 70
     8
 71
     3
 72
     8
 73
     4
 74
     0
 42
0.000000001
 43
0.00000001
 40
0.0
 40
0.0
 40
0.0
 40
0.0
 40
1.0
 40
1.0
 40
1.0
 40
1.0
 10
19.66040501145461
 20
2.678406264291319
 30
0.0
 10
19.52005558984546
 20
2.785035996763254
 30
0.0
 10
19.3847546199513
 20
2.867812471302269
 30
0.0
 10
19.26396158420236
 20
2.916491988561504
 30
0.0
  0
SPLINE
  5
FD
330
1F
100
AcDbEntity
  8
외형선
  6
Continuous
 62
     1
370
    15
100
AcDbSpline
210
0.0
220
0.0
230
1.0
 70
     8
 71
     3
 72
    10
 73
     6
 74
     0
 42
0.000000001
 43
0.00000001
 40
0.0
 40
0.0
 40
0.0
 40
0.0
 40
0.5
 40
0.5
 40
1.0
 40
1.0
 40
1.0
 40
1.0
 10
19.26396158420235
 20
2.916491988561516
 30
0.0
 10
19.22678946490216
 20
2.931472329206289
 30
0.0
 10
19.1842501629422
 20
2.955757657714703
 30
0.0
 10
19.09639498143125
 20
3.017919322740431
 30
0.0
 10
19.05021777641772
 20
3.056439035384087
 30
0.0
 10
19.00808022329354
 20
3.101258759331855
 30
0.0
  0
SPLINE
  5
FE
330
1F
100
AcDbEntity
  8
외형선
  6
Continuous
 62
     1
370
    15
100
AcDbSpline
210
0.0
220
0.0
230
1.0
 70
     8
 71
     3
 72
    14
 73
    10
 74
     0
 42
0.000000001
 43
0.00000001
 40
0.0
 40
0.0
 40
0.0
 40
0.0
 40
0.25
 40
0.25
 40
0.5
 40
0.5
 40
0.75
 40
0.75
 40
1.0
 40
1.0
 40
1.0
 40
1.0
 10
19.00808022329355
 20
3.101258759331843
 30
0.0
 10
18.92460392593876
 20
3.19004855195689
 30
0.0
 10
18.84019890684645
 20
3.272054539349778
 30
0.0
 10
18.66676749573244
 20
3.422829003191594
 30
0.0
 10
18.5793691240711
 20
3.489958815434758
 30
0.0
 10
18.4063008517923
 20
3.602867600104235
 30
0.0
 10
18.32255252715494
 20
3.647578754988329
 30
0.0
 10
18.15904551562502
 20
3.713065955852519
 30
0.0
 10
18.07918117838016
 20
3.733509003784078
 30
0.0
 10
18.00524431453583
 20
3.739426151340211
 30
0.0
  0
SPLINE
  5
FF
330
1F
100
AcDbEntity
  8
외형선
  6
Continuous
 62
     1
370
    15
100
AcDbSpline
210
0.0
220
0.0
230
1.0
 70
     8
 71
     3
 72
    10
 73
     6
 74
     0
 42
0.000000001
 43
0.00000001
 40
0.0
 40
0.0
 40
0.0
 40
0.0
 40
0.5
 40
0.5
 40
1.0
 40
1.0
 40
1.0
 40
1.0
 10
18.00524431453583
 20
3.739426151340212
 30
0.0
 10
17.96796038943724
 20
3.742409973953309
 30
0.0
 10
17.92544656964867
 20
3.756437898757413
 30
0.0
 10
17.8377471205612
 20
3.8029935963925
 30
0.0
 10
17.79170202432998
 20
3.83606783672949
 30
0.0
 10
17.74984869816693
 20
3.87938642832493
 30
0.0
  0
SPLINE
  5
100
330
1F
100
AcDbEntity
  8
외형선
  6
Continuous
 62
     1
370
    15
100
AcDbSpline
210
0.0
220
0.0
230
1.0
 70
     8
 71
     3
 72
     8
 73
     4
 74
     0
 42
0.000000001
 43
0.00000001
 40
0.0
 40
0.0
 40
0.0
 40
0.0
 40
1.0
 40
1.0
 40
1.0
 40
1.0
 10
17.74984869816678
 20
3.879386428325017
 30
0.0
 10
17.62107953417781
 20
4.012663740698977
 30
0.0
 10
17.48503402622593
 20
4.121705205739269
 30
0.0
 10
17.34939990396973
 20
4.200055391113346
 30
0.0
  0
SPLINE
  5
101
330
1F
100
AcDbEntity
  8
외형선
  6
Continuous
 62
     1
370
    15
100
AcDbSpline
210
0.0
220
0.0
230
1.0
 70
     8
 71
     3
 72
     8
 73
     4
 74
     0
 42
0.000000001
 43
0.00000001
 40
0.0
 40
0.0
 40
0.0
 40
0.0
 40
1.0
 40
1.0
 40
1.0
 40
1.0
 10
17.34939990405893
 20
4.200055391080484
 30
0.0
 10
17.20933117030463
 20
4.25158545935136
 30
0.0
 10
17.07383720745904
 20
4.266439852688662
 30
0.0
 10
16.9532789475247
 20
4.240082845267343
 30
0.0
  0
SPLINE
  5
102
330
1F
100
AcDbEntity
  8
외형선
  6
Continuous
 62
     1
370
    15
100
AcDbSpline
210
0.0
220
0.0
230
1.0
 70
     8
 71
     3
 72
    10
 73
     6
 74
     0
 42
0.000000001
 43
0.00000001
 40
0.0
 40
0.0
 40
0.0
 40
0.0
 40
0.5000000000000027
 40
0.5000000000000027
 40
1.0
 40
1.0
 40
1.0
 40
1.0
 10
16.9532789475247
 20
4.240082845267336
 30
0.0
 10
16.91612036777812
 20
4.231959063763852
 30
0.0
 10
16.87360800829831
 20
4.235922514486917
 30
0.0
 10
16.78590237293649
 20
4.265746681927051
 30
0.0
 10
16.73987481080966
 20
4.291969816261188
 30
0.0
 10
16.69791521197295
 20
4.331223962206131
 30
0.0
  0
SPLINE
  5
103
330
1F
100
AcDbEntity
  8
외형선
  6
Continuous
 62
     1
370
    15
100
AcDbSpline
210
0.0
220
0.0
230
1.0
 70
     8
 71
     3
 72
    14
 73
    10
 74
     0
 42
0.000000001
 43
0.00000001
 40
0.0
 40
0.0
 40
0.0
 40
0.0
 40
0.25
 40
0.25
 40
0.5
 40
0.5
 40
0.75
 40
0.75
 40
1.0
 40
1.0
 40
1.0
 40
1.0
 10
16.69791521197296
 20
4.331223962206128
 30
0.0
 10
16.61460421299678
 20
4.409163270571713
 30
0.0
 10
16.53061181963208
 20
4.471651282157334
 30
0.0
 10
16.35766702321592
 20
4.571163051434476
 30
0.0
 10
16.27042262226508
 20
4.606781583309087
 30
0.0
 10
16.09742775397357
 20
4.648863104167885
 30
0.0
 10
16.01360720086162
 20
4.655110393270544
 30
0.0
 10
15.84977114051668
 20
4.638350513207676
 30
0.0
 10
15.76963781178381
 20
4.614863906171496
 30
0.0
 10
15.69538809998885
 20
4.575874108012711
 30
0.0
  0
SPLINE
  5
104
330
1F
100
AcDbEntity
  8
외형선
  6
Continuous
 62
     1
370
    15
100
AcDbSpline
210
0.0
220
0.0
230
1.0
 70
     8
 71
     3
 72
    10
 73
     6
 74
     0
 42
0.000000001
 43
0.00000001
 40
0.0
 40
0.0
 40
0.0
 40
0.0
 40
0.5
 40
0.5
 40
1.0
 40
1.0
 40
1.0
 40
1.0
 10
15.69538809998884
 20
4.575874108012711
 30
0.0
 10
15.65794154824649
 20
4.556210280923271
 30
0.0
 10
15.61523214955574
 20
4.548919027655879
 30
0.0
 10
15.52728863956898
 20
4.558719807330181
 30
0.0
 10
15.48118950379319
 20
4.576000516771309
 30
0.0
 10
15.43931715949086
 20
4.608901729755644
 30
0.0
  0
SPLINE
  5
105
330
1F
100
AcDbEntity
  8
외형선
  6
Continuous
 62
     1
370
    15
100
AcDbSpline
210
0.0
220
0.0
230
1.0
 70
     8
 71
     3
 72
     8
 73
     4
 74
     0
 42
0.000000001
 43
0.00000001
 40
0.0
 40
0.0
 40
0.0
 40
0.0
 40
1.0
 40
1.0
 40
1.0
 40
1.0
 10
15.43931715949071
 20
4.608901729755747
 30
0.0
 10
15.31005442332487
 20
4.7104699816506
 30
0.0
 10
15.1742099107448
 20
4.769143533479025
 30
0.0
 10
15.03848119172265
 20
4.790298040125774
 30
0.0
  0
SPLINE
  5
106
330
1F
100
AcDbEntity
  8
외형선
  6
Continuous
370
    15
100
AcDbSpline
210
0.0
220
0.0
230
1.0
 70
     8
 71
     3
 72
     8
 73
     4
 74
     0
 42
0.000000001
 43
0.00000001
 40
0.0
 40
0.0
 40
0.0
 40
0.0
 40
1.0
 40
1.0
 40
1.0
 40
1.0
 10
10.00000000000001
 20
3.987465633108102
 30
0.0
 10
9.663692009382517
 20
4.184516318170857
 30
0.0
 10
9.332464335002125
 20
4.356538342495903
 30
0.0
 10
9.000000000000009
 20
4.500152236200967
 30
0.0
  0
SPLINE
  5
107
330
1F
100
AcDbEntity
  8
외형선
  6
Continuous
370
    15
100
AcDbSpline
210
0.0
220
0.0
230
1.0
 70
     8
 71
     3
 72
     8
 73
     4
 74
     0
 42
0.000000001
 43
0.00000001
 40
0.0
 40
0.0
 40
0.0
 40
0.0
 40
1.0
 40
1.0
 40
1.0
 40
1.0
 10
9.000000000000009
 20
4.500152236200968
 30
0.0
 10
8.826098289500901
 20
4.558859121858593
 30
0.0
 10
8.652142547143345
 20
4.608970883934933
 30
0.0
 10
8.479622660062471
 20
4.650126492924187
 30
0.0
  0
SPLINE
  5
108
330
1F
100
AcDbEntity
  8
외형선
  6
Continuous
 62
     1
370
    15
100
AcDbSpline
210
0.0
220
0.0
230
1.0
 70
     8
 71
     3
 72
     8
 73
     4
 74
     0
 42
0.000000001
 43
0.00000001
 40
0.0
 40
0.0
 40
0.0
 40
0.0
 40
1.0
 40
1.0
 40
1.0
 40
1.0
 10
10.25365347226453
 20
4.177920759920561
 30
0.0
 10
10.1689690350447
 20
4.137172690232382
 30
0.0
 10
10.08436039077358
 20
4.094547454661476
 30
0.0
 10
9.999999999998188
 20
4.050139258000076
 30
0.0
  0
SPLINE
  5
109
330
1F
100
AcDbEntity
  8
외형선
  6
Continuous
 62
     1
370
    15
100
AcDbSpline
210
0.0
220
0.0
230
1.0
 70
     8
 71
     3
 72
     8
 73
     4
 74
     0
 42
0.000000001
 43
0.00000001
 40
0.0
 40
0.0
 40
0.0
 40
0.0
 40
1.0
 40
1.0
 40
1.0
 40
1.0
 10
10.25371427741093
 20
4.177950021743269
 30
0.0
 10
10.3941859178862
 20
4.230928721183005
 30
0.0
 10
10.53014187011241
 20
4.247420754482891
 30
0.0
 10
10.65118250110395
 20
4.22262968517149
 30
0.0
  0
SPLINE
  5
10A
330
1F
100
AcDbEntity
  8
외형선
  6
Continuous
 62
     1
370
    15
100
AcDbSpline
210
0.0
220
0.0
230
1.0
 70
     8
 71
     3
 72
    10
 73
     6
 74
     0
 42
0.000000001
 43
0.00000001
 40
0.0
 40
0.0
 40
0.0
 40
0.0
 40
0.5
 40
0.5
 40
1.0
 40
1.0
 40
1.0
 40
1.0
 10
10.65118250110396
 20
4.222629685171493
 30
0.0
 10
10.68844539559781
 20
4.214997644652762
 30
0.0
 10
10.73105295478109
 20
4.21939855061206
 30
0.0
 10
10.81893912805359
 20
4.249957254824907
 30
0.0
 10
10.86506961292897
 20
4.276488393228473
 30
0.0
 10
10.90712960826992
 20
4.31598476666771
 30
0.0
  0
SPLINE
  5
10B
330
1F
100
AcDbEntity
  8
외형선
  6
Continuous
 62
     1
370
    15
100
AcDbSpline
210
0.0
220
0.0
230
1.0
 70
     8
 71
     3
 72
    14
 73
    10
 74
     0
 42
0.000000001
 43
0.00000001
 40
0.0
 40
0.0
 40
0.0
 40
0.0
 40
0.2499999999999999
 40
0.2499999999999999
 40
0.4999999999999999
 40
0.4999999999999999
 40
0.7499999999999998
 40
0.7499999999999998
 40
1.0
 40
1.0
 40
1.0
 40
1.0
 10
10.90712960826991
 20
4.315984766667701
 30
0.0
 10
10.99040085793281
 20
4.394180504607687
 30
0.0
 10
11.07430606827173
 20
4.457135787207961
 30
0.0
 10
11.24695675651286
 20
4.55788280521474
 30
0.0
 10
11.33406555222763
 20
4.594265939153981
 30
0.0
 10
11.50685114719292
 20
4.637977704965594
 30
0.0
 10
11.59056721234519
 20
4.645061537180442
 30
0.0
 10
11.75417747050677
 20
4.629920199320635
 30
0.0
 10
11.8342061896743
 20
4.607184631127035
 30
0.0
 10
11.90832002381747
 20
4.568901141487208
 30
0.0
  0
SPLINE
  5
10C
330
1F
100
AcDbEntity
  8
외형선
  6
Continuous
 62
     1
370
    15
100
AcDbSpline
210
0.0
220
0.0
230
1.0
 70
     8
 71
     3
 72
    10
 73
     6
 74
     0
 42
0.000000001
 43
0.00000001
 40
0.0
 40
0.0
 40
0.0
 40
0.0
 40
0.5
 40
0.5
 40
1.0
 40
1.0
 40
1.0
 40
1.0
 10
11.90832002381744
 20
4.568901141487229
 30
0.0
 10
11.9456335281985
 20
4.549626856532027
 30
0.0
 10
11.98822134884735
 20
4.542734997623976
 30
0.0
 10
12.07594943788802
 20
4.553297376934637
 30
0.0
 10
12.12193452330894
 20
4.570949008686376
 30
0.0
 10
12.1636887586853
 20
4.604098379487705
 30
0.0
  0
SPLINE
  5
10D
330
1F
100
AcDbEntity
  8
외형선
  6
Continuous
 62
     1
370
    15
100
AcDbSpline
210
0.0
220
0.0
230
1.0
 70
     8
 71
     3
 72
     8
 73
     4
 74
     0
 42
0.000000001
 43
0.00000001
 40
0.0
 40
0.0
 40
0.0
 40
0.0
 40
1.0
 40
1.0
 40
1.0
 40
1.0
 10
12.16368875868507
 20
4.60409837948752
 30
0.0
 10
12.2927763729069
 20
4.706583149023523
 30
0.0
 10
12.42851157692843
 20
4.766424713480331
 30
0.0
 10
12.56398760734287
 20
4.788824774058511
 30
0.0
  0
SPLINE
  5
10E
330
1F
100
AcDbEntity
  8
외형선
  6
Continuous
 62
     1
370
    15
100
AcDbSpline
210
0.0
220
0.0
230
1.0
 70
     8
 71
     3
 72
     8
 73
     4
 74
     0
 42
0.000000001
 43
0.00000001
 40
0.0
 40
0.0
 40
0.0
 40
0.0
 40
1.0
 40
1.0
 40
1.0
 40
1.0
 10
12.56398756697871
 20
4.788824777828085
 30
0.0
 10
12.70383393679059
 20
4.775764474580052
 30
0.0
 10
12.83947782634032
 20
4.72178304254158
 30
0.0
 10
12.960369396504
 20
4.627912564338454
 30
0.0
  0
SPLINE
  5
10F
330
1F
100
AcDbEntity
  8
외형선
  6
Continuous
 62
     1
370
    15
100
AcDbSpline
210
0.0
220
0.0
230
1.0
 70
     8
 71
     3
 72
    10
 73
     6
 74
     0
 42
0.000000001
 43
0.00000001
 40
0.0
 40
0.0
 40
0.0
 40
0.0
 40
0.5
 40
0.5
 40
1.0
 40
1.0
 40
1.0
 40
1.0
 10
12.96036939650401
 20
4.627912564338449
 30
0.0
 10
12.99755610893455
 20
4.599037643829678
 30
0.0
 10
13.0401133331278
 20
4.582279706090857
 30
0.0
 10
13.12796998702334
 20
4.573965401141731
 30
0.0
 10
13.17411203659421
 20
4.582434707901061
 30
0.0
 10
13.21618559389797
 20
4.60776576826257
 30
0.0
  0
SPLINE
  5
110
330
1F
100
AcDbEntity
  8
외형선
  6
Continuous
 62
     1
370
    15
100
AcDbSpline
210
0.0
220
0.0
230
1.0
 70
     8
 71
     3
 72
    14
 73
    10
 74
     0
 42
0.000000001
 43
0.00000001
 40
0.0
 40
0.0
 40
0.0
 40
0.0
 40
0.25
 40
0.25
 40
0.5
 40
0.5
 40
0.75
 40
0.75
 40
1.0
 40
1.0
 40
1.0
 40
1.0
 10
13.21618559389798
 20
4.607765768262575
 30
0.0
 10
13.29981948946698
 20
4.658118897227429
 30
0.0
 10
13.38431793065183
 20
4.687717436527164
 30
0.0
 10
13.55779370931358
 20
4.714896512290356
 30
0.0
 10
13.64506620272647
 20
4.711639114804798
 30
0.0
 10
13.81772642320034
 20
4.674826690277549
 30
0.0
 10
13.90118875651162
 20
4.641946851871666
 30
0.0
 10
14.06475619734901
 20
4.548132269918907
 30
0.0
 10
14.14485631223566
 20
4.486614894488451
 30
0.0
 10
14.21911632606669
 20
4.411977627916191
 30
0.0
  0
SPLINE
  5
111
330
1F
100
AcDbEntity
  8
외형선
  6
Continuous
 62
     1
370
    15
100
AcDbSpline
210
0.0
220
0.0
230
1.0
 70
     8
 71
     3
 72
    10
 73
     6
 74
     0
 42
0.000000001
 43
0.00000001
 40
0.0
 40
0.0
 40
0.0
 40
0.0
 40
0.5
 40
0.5
 40
1.0
 40
1.0
 40
1.0
 40
1.0
 10
14.2191163260667
 20
4.41197762791618
 30
0.0
 10
14.25643745860671
 20
4.374466898056835
 30
0.0
 10
14.29903690366504
 20
4.347925078490475
 30
0.0
 10
14.38683789401472
 20
4.319640130790527
 30
0.0
 10
14.43289876765187
 20
4.317732631271833
 30
0.0
 10
14.47473266576904
 20
4.333365072354204
 30
0.0
  0
SPLINE
  5
112
330
1F
100
AcDbEntity
  8
외형선
  6
Continuous
 62
     1
370
    15
100
AcDbSpline
210
0.0
220
0.0
230
1.0
 70
     8
 71
     3
 72
     8
 73
     4
 74
     0
 42
0.000000001
 43
0.00000001
 40
0.0
 40
0.0
 40
0.0
 40
0.0
 40
1.0
 40
1.0
 40
1.0
 40
1.0
 10
14.47473266576903
 20
4.333365072354193
 30
0.0
 10
14.60370917896226
 20
4.381560861755781
 30
0.0
 10
14.73983541121197
 20
4.3782161410915
 30
0.0
 10
14.87527820598599
 20
4.338579426918512
 30
0.0
  0
SPLINE
  5
113
330
1F
100
AcDbEntity
  8
외형선
  6
Continuous
 62
     1
370
    15
100
AcDbSpline
210
0.0
220
0.0
230
1.0
 70
     8
 71
     3
 72
     8
 73
     4
 74
     0
 42
0.000000001
 43
0.00000001
 40
0.0
 40
0.0
 40
0.0
 40
0.0
 40
1.0
 40
1.0
 40
1.0
 40
1.0
 10
14.87527816562164
 20
4.338579448882627
 30
0.0
 10
15.01547515311037
 20
4.262291529505084
 30
0.0
 10
15.15068295899789
 20
4.149634018164794
 30
0.0
 10
15.27120553406212
 20
4.007580474730099
 30
0.0
  0
SPLINE
  5
114
330
1F
100
AcDbEntity
  8
외형선
  6
Continuous
 62
     1
370
    15
100
AcDbSpline
210
0.0
220
0.0
230
1.0
 70
     8
 71
     3
 72
    10
 73
     6
 74
     0
 42
0.000000001
 43
0.00000001
 40
0.0
 40
0.0
 40
0.0
 40
0.0
 40
0.5
 40
0.5
 40
1.0
 40
1.0
 40
1.0
 40
1.0
 10
15.27120553406215
 20
4.007580474729905
 30
0.0
 10
15.30827706405655
 20
3.963886235758951
 30
0.0
 10
15.35071254709786
 20
3.929668883175109
 30
0.0
 10
15.43837732644628
 20
3.88427567996701
 30
0.0
 10
15.48446075779957
 20
3.872769976028633
 30
0.0
 10
15.52649863255931
 20
3.87834942163317
 30
0.0
  0
SPLINE
  5
115
330
1F
100
AcDbEntity
  8
외형선
  6
Continuous
 62
     1
370
    15
100
AcDbSpline
210
0.0
220
0.0
230
1.0
 70
     8
 71
     3
 72
    14
 73
    10
 74
     0
 42
0.000000001
 43
0.00000001
 40
0.0
 40
0.0
 40
0.0
 40
0.0
 40
0.25
 40
0.25
 40
0.5
 40
0.5
 40
0.75
 40
0.75
 40
1.0
 40
1.0
 40
1.0
 40
1.0
 10
15.52649863255981
 20
3.878349421631947
 30
0.0
 10
15.60985916290455
 20
3.889413385908942
 30
0.0
 10
15.6941659495309
 20
3.879132901114037
 30
0.0
 10
15.86745919021474
 20
3.827079950855308
 30
0.0
 10
15.95479399985464
 20
3.785215799658143
 30
0.0
 10
16.12771873895141
 20
3.6765176739934
 30
0.0
 10
16.21140689608908
 20
3.611100546976826
 30
0.0
 10
16.37482708078561
 20
3.459622824866984
 30
0.0
 10
16.45465463171244
 20
3.373080717054089
 30
0.0
 10
16.52861302748727
 20
3.278918654410504
 30
0.0
  0
SPLINE
  5
116
330
1F
100
AcDbEntity
  8
외형선
  6
Continuous
 62
     1
370
    15
100
AcDbSpline
210
0.0
220
0.0
230
1.0
 70
     8
 71
     3
 72
    10
 73
     6
 74
     0
 42
0.000000001
 43
0.00000001
 40
0.0
 40
0.0
 40
0.0
 40
0.0
 40
0.5
 40
0.5
 40
1.0
 40
1.0
 40
1.0
 40
1.0
 10
16.52861302748727
 20
3.278918654410487
 30
0.0
 10
16.56604637784899
 20
3.23125940700806
 30
0.0
 10
16.60868588745815
 20
3.190739961873466
 30
0.0
 10
16.69659808426438
 20
3.129418809822084
 30
0.0
 10
16.74275690123158
 20
3.108104613903294
 30
0.0
 10
16.78473524193867
 20
3.102503467670379
 30
0.0
  0
SPLINE
  5
117
330
1F
100
AcDbEntity
  8
외형선
  6
Continuous
 62
     1
370
    15
100
AcDbSpline
210
0.0
220
0.0
230
1.0
 70
     8
 71
     3
 72
     8
 73
     4
 74
     0
 42
0.000000001
 43
0.00000001
 40
0.0
 40
0.0
 40
0.0
 40
0.0
 40
1.0
 40
1.0
 40
1.0
 40
1.0
 10
16.78473524193867
 20
3.102503467670375
 30
0.0
 10
16.91377080397089
 20
3.0852863256868
 30
0.0
 10
17.05005230635069
 20
3.019198348885353
 30
0.0
 10
17.18594233208015
 20
2.926283421428608
 30
0.0
  0
SPLINE
  5
118
330
1F
100
AcDbEntity
  8
외형선
  6
Continuous
 62
     1
370
    15
100
AcDbSpline
210
0.0
220
0.0
230
1.0
 70
     8
 71
     3
 72
     8
 73
     4
 74
     0
 42
0.000000001
 43
0.00000001
 40
0.0
 40
0.0
 40
0.0
 40
0.0
 40
1.0
 40
1.0
 40
1.0
 40
1.0
 10
17.18594229165037
 20
2.926283456666595
 30
0.0
 10
17.32611994859603
 20
2.804107293913417
 30
0.0
 10
17.4617645941988
 20
2.658561969901677
 30
0.0
 10
17.58245328518545
 20
2.500437831945677
 30
0.0
  0
SPLINE
  5
119
330
1F
100
AcDbEntity
  8
외형선
  6
Continuous
 62
     1
370
    15
100
AcDbSpline
210
0.0
220
0.0
230
1.0
 70
     8
 71
     3
 72
    10
 73
     6
 74
     0
 42
0.000000001
 43
0.00000001
 40
0.0
 40
0.0
 40
0.0
 40
0.0
 40
0.4999999999999993
 40
0.4999999999999993
 40
1.0
 40
1.0
 40
1.0
 40
1.0
 10
17.58245328518545
 20
2.500437831945677
 30
0.0
 10
17.61960991466879
 20
2.451755888688426
 30
0.0
 10
17.66211750115762
 20
2.407840207331731
 30
0.0
 10
17.749819247916
 20
2.335677840749616
 30
0.0
 10
17.79584997451724
 20
2.306825565542453
 30
0.0
 10
17.83780747100259
 20
2.29131647952403
 30
0.0
  0
SPLINE
  5
11A
330
1F
100
AcDbEntity
  8
외형선
  6
Continuous
 62
     1
370
    15
100
AcDbSpline
210
0.0
220
0.0
230
1.0
 70
     8
 71
     3
 72
    14
 73
    10
 74
     0
 42
0.000000001
 43
0.00000001
 40
0.0
 40
0.0
 40
0.0
 40
0.0
 40
0.25
 40
0.25
 40
0.5
 40
0.5
 40
0.75
 40
0.75
 40
1.0
 40
1.0
 40
1.0
 40
1.0
 10
17.8378074710026
 20
2.291316479524013
 30
0.0
 10
17.92100193626928
 20
2.260564641922646
 30
0.0
 10
18.00484690310426
 20
2.212211191187164
 30
0.0
 10
18.17742989684898
 20
2.092014302213684
 30
0.0
 10
18.26449700449075
 20
2.020765612672155
 30
0.0
 10
18.4371834587462
 20
1.864395582655016
 30
0.0
 10
18.52084884186419
 20
1.781164134705506
 30
0.0
 10
18.68436172829744
 20
1.606136343910405
 30
0.0
 10
18.76433930808773
 20
1.514001189438497
 30
0.0
 10
18.83842432144606
 20
1.421314470461174
 30
0.0
  0
SPLINE
  5
11B
330
1F
100
AcDbEntity
  8
외형선
  6
Continuous
 62
     1
370
    15
100
AcDbSpline
210
0.0
220
0.0
230
1.0
 70
     8
 71
     3
 72
    10
 73
     6
 74
     0
 42
0.000000001
 43
0.00000001
 40
0.0
 40
0.0
 40
0.0
 40
0.0
 40
0.5
 40
0.5
 40
1.0
 40
1.0
 40
1.0
 40
1.0
 10
18.83842432144773
 20
1.421314470454523
 30
0.0
 10
18.87578624958396
 20
1.374571487270265
 30
0.0
 10
18.91842509894236
 20
1.329572605475345
 30
0.0
 10
19.0062464098681
 20
1.249805430445086
 30
0.0
 10
19.05227719732336
 20
1.214327698712491
 30
0.0
 10
19.09408364258797
 20
1.189009820209078
 30
0.0
  0
SPLINE
  5
11C
330
1F
100
AcDbEntity
  8
외형선
  6
Continuous
 62
     1
370
    15
100
AcDbSpline
210
0.0
220
0.0
230
1.0
 70
     8
 71
     3
 72
     8
 73
     4
 74
     0
 42
0.000000001
 43
0.00000001
 40
0.0
 40
0.0
 40
0.0
 40
0.0
 40
1.0
 40
1.0
 40
1.0
 40
1.0
 10
19.09408364258797
 20
1.189009820209072
 30
0.0
 10
19.22342473557488
 20
1.11068117836893
 30
0.0
 10
19.35939582299039
 20
0.9955991341053243
 30
0.0
 10
19.49513243019996
 20
0.8694805322769259
 30
0.0
  0
SPLINE
  5
11D
330
1F
100
AcDbEntity
  8
외형선
  6
Continuous
 62
     1
370
    15
100
AcDbSpline
210
0.0
220
0.0
230
1.0
 70
     8
 71
     3
 72
     8
 73
     4
 74
     0
 42
0.000000001
 43
0.00000001
 40
0.0
 40
0.0
 40
0.0
 40
0.0
 40
1.0
 40
1.0
 40
1.0
 40
1.0
 10
19.49513238973161
 20
0.8694805732235072
 30
0.0
 10
19.63531631984407
 20
0.7276400190979282
 30
0.0
 10
19.77133387202947
 20
0.5807173075885108
 30
0.0
 10
19.8925456686917
 20
0.4411404800450137
 30
0.0
  0
SPLINE
  5
11E
330
1F
100
AcDbEntity
  8
외형선
  6
Continuous
 62
     1
370
    15
100
AcDbSpline
210
0.0
220
0.0
230
1.0
 70
     8
 71
     3
 72
    10
 73
     6
 74
     0
 42
0.000000001
 43
0.00000001
 40
0.0
 40
0.0
 40
0.0
 40
0.0
 40
0.5000000000000001
 40
0.5000000000000001
 40
1.0
 40
1.0
 40
1.0
 40
1.0
 10
19.8925456686917
 20
0.4411404800450185
 30
0.0
 10
19.92975872236466
 20
0.398289205516421
 30
0.0
 10
19.97233047055702
 20
0.3544265209408317
 30
0.0
 10
20.0602103235024
 20
0.271613302650885
 30
0.0
 10
20.10637045469733
 20
0.2319061185704213
 30
0.0
 10
20.14845476847219
 20
0.1989726273452648
 30
0.0
  0
SPLINE
  5
11F
330
1F
100
AcDbEntity
  8
외형선
  6
Continuous
 62
     1
370
    15
100
AcDbSpline
210
0.0
220
0.0
230
1.0
 70
     8
 71
     3
 72
    10
 73
     6
 74
     0
 42
0.000000001
 43
0.00000001
 40
0.0
 40
0.0
 40
0.0
 40
0.0
 40
0.5
 40
0.5
 40
1.0
 40
1.0
 40
1.0
 40
1.0
 10
21.14937270103943
 20
-0.748937671968596
 30
0.0
 10
21.18665273308536
 20
-0.7845259918821783
 30
0.0
 10
21.22921621665876
 20
-0.8241755012185723
 30
0.0
 10
21.31695109273054
 20
-0.9049554279378496
 30
0.0
 10
21.36297371145508
 20
-0.9468516119948073
 30
0.0
 10
21.40476973560219
 20
-0.9862083375825498
 30
0.0
  0
SPLINE
  5
120
330
1F
100
AcDbEntity
  8
외형선
  6
Continuous
 62
     1
370
    15
100
AcDbSpline
210
0.0
220
0.0
230
1.0
 70
     8
 71
     3
 72
    10
 73
     6
 74
     0
 42
0.000000001
 43
0.00000001
 40
0.0
 40
0.0
 40
0.0
 40
0.0
 40
0.5
 40
0.5
 40
1.0
 40
1.0
 40
1.0
 40
1.0
 10
22.20169819404531
 20
-1.707934652210914
 30
0.0
 10
22.23885808113835
 20
-1.735628156118044
 30
0.0
 10
22.28138441927877
 20
-1.769885477384936
 30
0.0
 10
22.36921686022448
 20
-1.845329139925824
 30
0.0
 10
22.41538466085237
 20
-1.887258270863072
 30
0.0
 10
22.45751453611057
 20
-1.930540572707451
 30
0.0
  0
SPLINE
  5
121
330
1F
100
AcDbEntity
  8
외형선
  6
Continuous
 62
     1
370
    15
100
AcDbSpline
210
0.0
220
0.0
230
1.0
 70
     8
 71
     3
 72
    10
 73
     6
 74
     0
 42
0.000000001
 43
0.00000001
 40
0.0
 40
0.0
 40
0.0
 40
0.0
 40
0.5
 40
0.5
 40
1.0
 40
1.0
 40
1.0
 40
1.0
 10
23.46047105964189
 20
-2.743544576886285
 30
0.0
 10
23.49777646033108
 20
-2.760316039775205
 30
0.0
 10
23.54029081693704
 20
-2.786113073063001
 30
0.0
 10
23.62798625530742
 20
-2.850494897531766
 30
0.0
 10
23.67403044266914
 20
-2.88977695127656
 30
0.0
 10
23.71588671558033
 20
-2.934771589672177
 30
0.0
  0
SPLINE
  5
122
330
1F
100
AcDbEntity
  8
외형선
  6
Continuous
 62
     1
370
    15
100
AcDbSpline
210
0.0
220
0.0
230
1.0
 70
     8
 71
     3
 72
     8
 73
     4
 74
     0
 42
0.000000001
 43
0.00000001
 40
0.0
 40
0.0
 40
0.0
 40
0.0
 40
1.0
 40
1.0
 40
1.0
 40
1.0
 10
23.71588671558033
 20
-2.934771589672171
 30
0.0
 10
23.84465231878745
 20
-3.073191982868456
 30
0.0
 10
23.98069703902136
 20
-3.201508126975551
 30
0.0
 10
24.11634596869807
 20
-3.306857450512063
 30
0.0
  0
SPLINE
  5
123
330
1F
100
AcDbEntity
  8
외형선
  6
Continuous
 62
     1
370
    15
100
AcDbSpline
210
0.0
220
0.0
230
1.0
 70
     8
 71
     3
 72
     8
 73
     4
 74
     0
 42
0.000000001
 43
0.00000001
 40
0.0
 40
0.0
 40
0.0
 40
0.0
 40
1.0
 40
1.0
 40
1.0
 40
1.0
 10
24.11634592832942
 20
-3.306857425438361
 30
0.0
 10
24.2564000390209
 20
-3.393847534589593
 30
0.0
 10
24.3918975856034
 20
-3.450885964609756
 30
0.0
 10
24.51246232876766
 20
-3.47027720912347
 30
0.0
  0
SPLINE
  5
124
330
1F
100
AcDbEntity
  8
외형선
  6
Continuous
 62
     1
370
    15
100
AcDbSpline
210
0.0
220
0.0
230
1.0
 70
     8
 71
     3
 72
    10
 73
     6
 74
     0
 42
0.000000001
 43
0.00000001
 40
0.0
 40
0.0
 40
0.0
 40
0.0
 40
0.5000000000000052
 40
0.5000000000000052
 40
1.0
 40
1.0
 40
1.0
 40
1.0
 10
24.51246232876664
 20
-3.470277209123308
 30
0.0
 10
24.5496161519393
 20
-3.476252910235035
 30
0.0
 10
24.5921248215369
 20
-3.492944962919436
 30
0.0
 10
24.67982785494902
 20
-3.543713911114606
 30
0.0
 10
24.72585596327405
 20
-3.578329200611158
 30
0.0
 10
24.76781439937919
 20
-3.622127129746495
 30
0.0
  0
SPLINE
  5
125
330
1F
100
AcDbEntity
  8
외형선
  6
Continuous
 62
     1
370
    15
100
AcDbSpline
210
0.0
220
0.0
230
1.0
 70
     8
 71
     3
 72
    14
 73
    10
 74
     0
 42
0.000000001
 43
0.00000001
 40
0.0
 40
0.0
 40
0.0
 40
0.0
 40
0.2499999999999997
 40
0.2499999999999997
 40
0.4999999999999998
 40
0.4999999999999998
 40
0.7499999999999999
 40
0.7499999999999999
 40
1.0
 40
1.0
 40
1.0
 40
1.0
 10
24.76781439937919
 20
-3.622127129746497
 30
0.0
 10
24.85113720589073
 20
-3.709102877979934
 30
0.0
 10
24.93511673189975
 20
-3.785722173909585
 30
0.0
 10
25.1080015365571
 20
-3.92029284702548
 30
0.0
 10
25.19521475487648
 20
-3.976660744537204
 30
0.0
 10
25.36816848826667
 20
-4.064219354103102
 30
0.0
 10
25.45197400383015
 20
-4.094648676576806
 30
0.0
 10
25.61578762953263
 20
-4.128686416650512
 30
0.0
 10
25.69591091029152
 20
-4.131893799494804
 30
0.0
 10
25.77016526272951
 20
-4.11977244255888
 30
0.0
  0
SPLINE
  5
126
330
1F
100
AcDbEntity
  8
외형선
  6
Continuous
 62
     1
370
    15
100
AcDbSpline
210
0.0
220
0.0
230
1.0
 70
     8
 71
     3
 72
    10
 73
     6
 74
     0
 42
0.000000001
 43
0.00000001
 40
0.0
 40
0.0
 40
0.0
 40
0.0
 40
0.5
 40
0.5
 40
1.0
 40
1.0
 40
1.0
 40
1.0
 10
25.77016526272951
 20
-4.11977244255888
 30
0.0
 10
25.80762134253924
 20
-4.113658073530166
 30
0.0
 10
25.85034075196095
 20
-4.119425735592599
 30
0.0
 10
25.93830637430096
 20
-4.152410429055571
 30
0.0
 10
25.98441905868829
 20
-4.18002681365889
 30
0.0
 10
26.02630455470688
 20
-4.220338372228771
 30
0.0
  0
SPLINE
  5
127
330
1F
100
AcDbEntity
  8
외형선
  6
Continuous
 62
     1
370
    15
100
AcDbSpline
210
0.0
220
0.0
230
1.0
 70
     8
 71
     3
 72
     8
 73
     4
 74
     0
 42
0.000000001
 43
0.00000001
 40
0.0
 40
0.0
 40
0.0
 40
0.0
 40
1.0
 40
1.0
 40
1.0
 40
1.0
 10
26.02630455470688
 20
-4.220338372228774
 30
0.0
 10
26.15561107211127
 20
-4.344785919597001
 30
0.0
 10
26.29150297458775
 20
-4.436887614486834
 30
0.0
 10
26.42721342971487
 20
-4.494617533514837
 30
0.0
  0
SPLINE
  5
128
330
1F
100
AcDbEntity
  8
외형선
  6
Continuous
 62
     1
370
    15
100
AcDbSpline
210
0.0
220
0.0
230
1.0
 70
     8
 71
     3
 72
     8
 73
     4
 74
     0
 42
0.000000001
 43
0.00000001
 40
0.0
 40
0.0
 40
0.0
 40
0.0
 40
1.0
 40
1.0
 40
1.0
 40
1.0
 10
26.42721338931641
 20
-4.494617525836381
 30
0.0
 10
26.56706449399822
 20
-4.521198749761731
 30
0.0
 10
26.70271523704386
 20
-4.508322906664294
 30
0.0
 10
26.82354851744006
 20
-4.453389276679577
 30
0.0
  0
SPLINE
  5
129
330
1F
100
AcDbEntity
  8
외형선
  6
Continuous
 62
     1
370
    15
100
AcDbSpline
210
0.0
220
0.0
230
1.0
 70
     8
 71
     3
 72
    10
 73
     6
 74
     0
 42
0.000000001
 43
0.00000001
 40
0.0
 40
0.0
 40
0.0
 40
0.0
 40
0.5
 40
0.5
 40
1.0
 40
1.0
 40
1.0
 40
1.0
 10
26.82354851744006
 20
-4.453389276679574
 30
0.0
 10
26.8606691137763
 20
-4.436513387046675
 30
0.0
 10
26.90315471103907
 20
-4.432017112787587
 30
0.0
 10
26.99087618001641
 20
-4.446863037621853
 30
0.0
 10
27.03694991063111
 20
-4.466444266209774
 30
0.0
 10
27.07894511154499
 20
-4.500989093844064
 30
0.0
  0
SPLINE
  5
12A
330
1F
100
AcDbEntity
  8
외형선
  6
Continuous
 62
     1
370
    15
100
AcDbSpline
210
0.0
220
0.0
230
1.0
 70
     8
 71
     3
 72
    11
 73
     7
 74
     0
 42
0.000000001
 43
0.00000001
 40
0.0
 40
0.0
 40
0.0
 40
0.0
 40
0.4063410559026569
 40
0.7169660525837797
 40
0.9699508642472359
 40
1.0
 40
1.0
 40
1.0
 40
1.0
 10
27.078945111545
 20
-4.500989093844061
 30
0.0
 10
27.17304785636291
 20
-4.565544469211154
 30
0.0
 10
27.33908688320827
 20
-4.679448816255761
 30
0.0
 10
27.56812724123261
 20
-4.721316688253608
 30
0.0
 10
27.70704421682486
 20
-4.72616300507606
 30
0.0
 10
27.77001389275789
 20
-4.706428169301546
 30
0.0
 10
27.77669925455881
 20
-4.704332962120004
 30
0.0
  0
SPLINE
  5
12B
330
1F
100
AcDbEntity
  8
외형선
  6
Continuous
 62
     1
370
    15
100
AcDbSpline
210
0.0
220
0.0
230
1.0
 70
     8
 71
     3
 72
    12
 73
     8
 74
     0
 42
0.000000001
 43
0.00000001
 40
0.0
 40
0.0
 40
0.0
 40
0.0
 40
0.1336009838869548
 40
0.3877277725605341
 40
0.5976136477379431
 40
0.8074695272568447
 40
1.0
 40
1.0
 40
1.0
 40
1.0
 10
25.19125834694901
 20
-3.964474461099143
 30
0.0
 10
25.153356745819
 20
-3.9985789127478
 30
0.0
 10
25.04336127306823
 20
-4.097554554149673
 30
0.0
 10
24.8699397732763
 20
-4.189781159184182
 30
0.0
 10
24.67912390850598
 20
-4.258760811877734
 30
0.0
 10
24.5101510938013
 20
-4.282259882228712
 30
0.0
 10
24.40858369171716
 20
-4.264231634138303
 30
0.0
 10
24.35998656651988
 20
-4.255605628042258
 30
0.0
  0
SPLINE
  5
12C
330
1F
100
AcDbEntity
  8
외형선
  6
Continuous
 62
     1
370
    15
100
AcDbSpline
210
0.0
220
0.0
230
1.0
 70
     8
 71
     3
 72
    10
 73
     6
 74
     0
 42
0.000000001
 43
0.00000001
 40
0.0
 40
0.0
 40
0.0
 40
0.0
 40
0.5
 40
0.5
 40
1.0
 40
1.0
 40
1.0
 40
1.0
 10
24.35998656651988
 20
-4.25560562804226
 30
0.0
 10
24.32266404258698
 20
-4.245902914226303
 30
0.0
 10
24.28005680939283
 20
-4.248300702724301
 30
0.0
 10
24.19225353189069
 20
-4.275485537249389
 30
0.0
 10
24.14620759404061
 20
-4.300619460843586
 30
0.0
 10
24.10438866551107
 20
-4.339267632770158
 30
0.0
  0
SPLINE
  5
12D
330
1F
100
AcDbEntity
  8
외형선
  6
Continuous
 62
     1
370
    15
100
AcDbSpline
210
0.0
220
0.0
230
1.0
 70
     8
 71
     3
 72
     8
 73
     4
 74
     0
 42
0.000000001
 43
0.00000001
 40
0.0
 40
0.0
 40
0.0
 40
0.0
 40
1.0
 40
1.0
 40
1.0
 40
1.0
 10
24.10438866551108
 20
-4.339267632770163
 30
0.0
 10
23.97518840599437
 20
-4.458671788216971
 30
0.0
 10
23.83888996737778
 20
-4.542705240916579
 30
0.0
 10
23.70338906649973
 20
-4.591428441209013
 30
0.0
  0
SPLINE
  5
12E
330
1F
100
AcDbEntity
  8
외형선
  6
Continuous
 62
     1
370
    15
100
AcDbSpline
210
0.0
220
0.0
230
1.0
 70
     8
 71
     3
 72
     8
 73
     4
 74
     0
 42
0.000000001
 43
0.00000001
 40
0.0
 40
0.0
 40
0.0
 40
0.0
 40
1.0
 40
1.0
 40
1.0
 40
1.0
 10
23.70338906658914
 20
-4.591428441198586
 30
0.0
 10
23.5629009090972
 20
-4.607810169603656
 30
0.0
 10
23.42738051749037
 20
-4.584281945136749
 30
0.0
 10
23.30617284314698
 20
-4.518689737435477
 30
0.0
  0
SPLINE
  5
12F
330
1F
100
AcDbEntity
  8
외형선
  6
Continuous
 62
     1
370
    15
100
AcDbSpline
210
0.0
220
0.0
230
1.0
 70
     8
 71
     3
 72
    10
 73
     6
 74
     0
 42
0.000000001
 43
0.00000001
 40
0.0
 40
0.0
 40
0.0
 40
0.0
 40
0.5
 40
0.5
 40
1.0
 40
1.0
 40
1.0
 40
1.0
 10
23.30617284314698
 20
-4.518689737435474
 30
0.0
 10
23.26896135283925
 20
-4.498552532309142
 30
0.0
 10
23.22639370889445
 20
-4.490785039443242
 30
0.0
 10
23.13849513205327
 20
-4.499592403585381
 30
0.0
 10
23.09229739122438
 20
-4.516352448655862
 30
0.0
 10
23.05015725174218
 20
-4.548770781779887
 30
0.0
  0
SPLINE
  5
130
330
1F
100
AcDbEntity
  8
외형선
  6
Continuous
 62
     1
370
    15
100
AcDbSpline
210
0.0
220
0.0
230
1.0
 70
     8
 71
     3
 72
    14
 73
    10
 74
     0
 42
0.000000001
 43
0.00000001
 40
0.0
 40
0.0
 40
0.0
 40
0.0
 40
0.25
 40
0.25
 40
0.5
 40
0.5
 40
0.75
 40
0.75
 40
1.0
 40
1.0
 40
1.0
 40
1.0
 10
23.05015725174218
 20
-4.548770781779888
 30
0.0
 10
22.96673425942026
 20
-4.612947938963656
 30
0.0
 10
22.88239860361704
 20
-4.658339925453401
 30
0.0
 10
22.70912837001288
 20
-4.719297236098133
 30
0.0
 10
22.62183598851198
 20
-4.733740788796227
 30
0.0
 10
22.44904526188381
 20
-4.731991216574908
 30
0.0
 10
22.36546203085915
 20
-4.716087609638387
 30
0.0
 10
22.20232144821325
 20
-4.654956219482314
 30
0.0
 10
22.12272303336351
 20
-4.609216560990117
 30
0.0
 10
22.04883266130406
 20
-4.548922992686912
 30
0.0
  0
SPLINE
  5
131
330
1F
100
AcDbEntity
  8
외형선
  6
Continuous
 62
     1
370
    15
100
AcDbSpline
210
0.0
220
0.0
230
1.0
 70
     8
 71
     3
 72
    10
 73
     6
 74
     0
 42
0.000000001
 43
0.00000001
 40
0.0
 40
0.0
 40
0.0
 40
0.0
 40
0.5
 40
0.5
 40
1.0
 40
1.0
 40
1.0
 40
1.0
 10
22.04883266130405
 20
-4.548922992686911
 30
0.0
 10
22.01158626835027
 20
-4.518530427660991
 30
0.0
 10
21.96906119218311
 20
-4.500026196873531
 30
0.0
 10
21.88137549402541
 20
-4.488304339148575
 30
0.0
 10
21.83534913410782
 20
-4.495080316099589
 30
0.0
 10
21.79352637074755
 20
-4.519027778568576
 30
0.0
  0
SPLINE
  5
132
330
1F
100
AcDbEntity
  8
외형선
  6
Continuous
 62
     1
370
    15
100
AcDbSpline
210
0.0
220
0.0
230
1.0
 70
     8
 71
     3
 72
     8
 73
     4
 74
     0
 42
0.000000001
 43
0.00000001
 40
0.0
 40
0.0
 40
0.0
 40
0.0
 40
1.0
 40
1.0
 40
1.0
 40
1.0
 10
21.79352637074755
 20
-4.51902777856858
 30
0.0
 10
21.6647142905303
 20
-4.592784800073408
 30
0.0
 10
21.52863882975621
 20
-4.61775882804078
 30
0.0
 10
21.39304629757
 20
-4.604892504877642
 30
0.0
  0
SPLINE
  5
133
330
1F
100
AcDbEntity
  8
외형선
  6
Continuous
 62
     1
370
    15
100
AcDbSpline
210
0.0
220
0.0
230
1.0
 70
     8
 71
     3
 72
     8
 73
     4
 74
     0
 42
0.000000001
 43
0.00000001
 40
0.0
 40
0.0
 40
0.0
 40
0.0
 40
1.0
 40
1.0
 40
1.0
 40
1.0
 10
21.39304629765927
 20
-4.604892504909492
 30
0.0
 10
21.25283822373897
 20
-4.554878450114357
 30
0.0
 10
21.1172850604757
 20
-4.465477359260566
 30
0.0
 10
20.99666116990795
 20
-4.341244146287015
 30
0.0
  0
SPLINE
  5
134
330
1F
100
AcDbEntity
  8
외형선
  6
Continuous
 62
     1
370
    15
100
AcDbSpline
210
0.0
220
0.0
230
1.0
 70
     8
 71
     3
 72
    10
 73
     6
 74
     0
 42
0.000000001
 43
0.00000001
 40
0.0
 40
0.0
 40
0.0
 40
0.0
 40
0.5
 40
0.5
 40
1.0
 40
1.0
 40
1.0
 40
1.0
 10
20.99666116990795
 20
-4.341244146287012
 30
0.0
 10
20.95944233215654
 20
-4.302911642043984
 30
0.0
 10
20.91687459357384
 20
-4.275566599537725
 30
0.0
 10
20.82908641558525
 20
-4.245497825323121
 30
0.0
 10
20.78302907741859
 20
-4.242581362638624
 30
0.0
 10
20.74101896717468
 20
-4.25705824104887
 30
0.0
  0
SPLINE
  5
135
330
1F
100
AcDbEntity
  8
외형선
  6
Continuous
 62
     1
370
    15
100
AcDbSpline
210
0.0
220
0.0
230
1.0
 70
     8
 71
     3
 72
    14
 73
    10
 74
     0
 42
0.000000001
 43
0.00000001
 40
0.0
 40
0.0
 40
0.0
 40
0.0
 40
0.25
 40
0.25
 40
0.5
 40
0.5
 40
0.75
 40
0.75
 40
1.0
 40
1.0
 40
1.0
 40
1.0
 10
20.74101896717468
 20
-4.257058241048872
 30
0.0
 10
20.65777359849021
 20
-4.285744980351969
 30
0.0
 10
20.57356862085619
 20
-4.292892558802988
 30
0.0
 10
20.40042533383262
 20
-4.274778044023277
 30
0.0
 10
20.31307684661174
 20
-4.249084313205812
 30
0.0
 10
20.13993608916008
 20
-4.169675098685929
 30
0.0
 10
20.05606929270589
 20
-4.11707636632162
 30
0.0
 10
19.89220354527709
 20
-3.987258377407372
 30
0.0
 10
19.81208667148383
 20
-3.909493467864026
 30
0.0
 10
19.73789494153925
 20
-3.821403425025072
 30
0.0
  0
SPLINE
  5
136
330
1F
100
AcDbEntity
  8
외형선
  6
Continuous
 62
     1
370
    15
100
AcDbSpline
210
0.0
220
0.0
230
1.0
 70
     8
 71
     3
 72
    10
 73
     6
 74
     0
 42
0.000000001
 43
0.00000001
 40
0.0
 40
0.0
 40
0.0
 40
0.0
 40
0.5
 40
0.5
 40
1.0
 40
1.0
 40
1.0
 40
1.0
 10
19.73789494153924
 20
-3.821403425025067
 30
0.0
 10
19.70052444010757
 20
-3.777032319586661
 30
0.0
 10
19.65789161984002
 20
-3.741754667209899
 30
0.0
 10
19.57010590742958
 20
-3.693724995782652
 30
0.0
 10
19.52409882118843
 20
-3.680606194961492
 30
0.0
 10
19.48231647838499
 20
-3.684353024434271
 30
0.0
  0
SPLINE
  5
137
330
1F
100
AcDbEntity
  8
외형선
  6
Continuous
 62
     1
370
    15
100
AcDbSpline
210
0.0
220
0.0
230
1.0
 70
     8
 71
     3
 72
     8
 73
     4
 74
     0
 42
0.000000001
 43
0.00000001
 40
0.0
 40
0.0
 40
0.0
 40
0.0
 40
1.0
 40
1.0
 40
1.0
 40
1.0
 10
19.48231647838499
 20
-3.684353024434273
 30
0.0
 10
19.35336516761084
 20
-3.695916726690877
 30
0.0
 10
19.21764422799173
 20
-3.65547370553735
 30
0.0
 10
19.08194146205824
 20
-3.583614558156744
 30
0.0
  0
SPLINE
  5
138
330
1F
100
AcDbEntity
  8
외형선
  6
Continuous
 62
     1
370
    15
100
AcDbSpline
210
0.0
220
0.0
230
1.0
 70
     8
 71
     3
 72
     8
 73
     4
 74
     0
 42
0.000000001
 43
0.00000001
 40
0.0
 40
0.0
 40
0.0
 40
0.0
 40
1.0
 40
1.0
 40
1.0
 40
1.0
 10
19.08194146214747
 20
-3.583614558223798
 30
0.0
 10
18.9420824909578
 20
-3.47851262471924
 30
0.0
 10
18.80654089782847
 20
-3.343774857911565
 30
0.0
 10
18.68584838502714
 20
-3.18858342807361
 30
0.0
  0
SPLINE
  5
139
330
1F
100
AcDbEntity
  8
외형선
  6
Continuous
 62
     1
370
    15
100
AcDbSpline
210
0.0
220
0.0
230
1.0
 70
     8
 71
     3
 72
    10
 73
     6
 74
     0
 42
0.000000001
 43
0.00000001
 40
0.0
 40
0.0
 40
0.0
 40
0.0
 40
0.5
 40
0.5
 40
1.0
 40
1.0
 40
1.0
 40
1.0
 10
18.68584838502715
 20
-3.188583428073609
 30
0.0
 10
18.64872189923715
 20
-3.140844655544338
 30
0.0
 10
18.60622958448844
 20
-3.100137795005583
 30
0.0
 10
18.51851010443734
 20
-3.038170258596419
 30
0.0
 10
18.47244951666498
 20
-3.01642029304046
 30
0.0
 10
18.43046723698331
 20
-3.010052304651937
 30
0.0
  0
SPLINE
  5
13A
330
1F
100
AcDbEntity
  8
외형선
  6
Continuous
 62
     1
370
    15
100
AcDbSpline
210
0.0
220
0.0
230
1.0
 70
     8
 71
     3
 72
    14
 73
    10
 74
     0
 42
0.000000001
 43
0.00000001
 40
0.0
 40
0.0
 40
0.0
 40
0.0
 40
0.25
 40
0.25
 40
0.5
 40
0.5
 40
0.75
 40
0.75
 40
1.0
 40
1.0
 40
1.0
 40
1.0
 10
18.4304672369833
 20
-3.010052304651922
 30
0.0
 10
18.34697802936504
 20
-2.997388430543341
 30
0.0
 10
18.26265003929829
 20
-2.964902996803096
 30
0.0
 10
18.08957351386562
 20
-2.871589466900587
 30
0.0
 10
18.00265268348054
 20
-2.811086153924915
 30
0.0
 10
17.83025325935334
 20
-2.670980448713632
 30
0.0
 10
17.74662776296876
 20
-2.593146975161173
 30
0.0
 10
17.58302790417889
 20
-2.423361587206136
 30
0.0
 10
17.50294553182472
 20
-2.331013667490793
 30
0.0
 10
17.42868541945712
 20
-2.234949762827797
 30
0.0
  0
SPLINE
  5
13B
330
1F
100
AcDbEntity
  8
외형선
  6
Continuous
 62
     1
370
    15
100
AcDbSpline
210
0.0
220
0.0
230
1.0
 70
     8
 71
     3
 72
    10
 73
     6
 74
     0
 42
0.000000001
 43
0.00000001
 40
0.0
 40
0.0
 40
0.0
 40
0.0
 40
0.5
 40
0.5
 40
1.0
 40
1.0
 40
1.0
 40
1.0
 10
17.42868541945711
 20
-2.234949762827781
 30
0.0
 10
17.391241840183
 20
-2.186512232706303
 30
0.0
 10
17.34851595997104
 20
-2.142318224928578
 30
0.0
 10
17.26049666675092
 20
-2.068728217662998
 30
0.0
 10
17.21433583558586
 20
-2.038689113596472
 30
0.0
 10
17.17240027691039
 20
-2.021580601172275
 30
0.0
  0
SPLINE
  5
13C
330
1F
100
AcDbEntity
  8
외형선
  6
Continuous
 62
     1
370
    15
100
AcDbSpline
210
0.0
220
0.0
230
1.0
 70
     8
 71
     3
 72
     8
 73
     4
 74
     0
 42
0.000000001
 43
0.00000001
 40
0.0
 40
0.0
 40
0.0
 40
0.0
 40
1.0
 40
1.0
 40
1.0
 40
1.0
 10
17.17240027691038
 20
-2.021580601172267
 30
0.0
 10
17.04307479134217
 20
-1.96881948992223
 30
0.0
 10
16.90670407218924
 20
-1.87297617019092
 30
0.0
 10
16.7711275613358
 20
-1.758172567897487
 30
0.0
  0
SPLINE
  5
13D
330
1F
100
AcDbEntity
  8
외형선
  6
Continuous
 62
     1
370
    15
100
AcDbSpline
210
0.0
220
0.0
230
1.0
 70
     8
 71
     3
 72
     8
 73
     4
 74
     0
 42
0.000000001
 43
0.00000001
 40
0.0
 40
0.0
 40
0.0
 40
0.0
 40
1.0
 40
1.0
 40
1.0
 40
1.0
 10
16.77112756142526
 20
-1.758172567985075
 30
0.0
 10
16.63092668232291
 20
-1.620898724211089
 30
0.0
 10
16.49566748220908
 20
-1.469598833435264
 30
0.0
 10
16.37477718964587
 20
-1.317356023863283
 30
0.0
  0
SPLINE
  5
13E
330
1F
100
AcDbEntity
  8
외형선
  6
Continuous
 62
     1
370
    15
100
AcDbSpline
210
0.0
220
0.0
230
1.0
 70
     8
 71
     3
 72
    10
 73
     6
 74
     0
 42
0.000000001
 43
0.00000001
 40
0.0
 40
0.0
 40
0.0
 40
0.0
 40
0.5
 40
0.5
 40
1.0
 40
1.0
 40
1.0
 40
1.0
 10
16.37477718964588
 20
-1.317356023863285
 30
0.0
 10
16.33767683230777
 20
-1.270633805581573
 30
0.0
 10
16.29521327333843
 20
-1.225461106871649
 30
0.0
 10
16.20750590999423
 20
-1.145045430055268
 30
0.0
 10
16.16141201111126
 20
-1.109091948444879
 30
0.0
 10
16.11938022304957
 20
-1.083110056522243
 30
0.0
  0
SPLINE
  5
13F
330
1F
100
AcDbEntity
  8
외형선
  6
Continuous
 62
     1
370
    15
100
AcDbSpline
210
0.0
220
0.0
230
1.0
 70
     8
 71
     3
 72
    10
 73
     6
 74
     0
 42
0.000000001
 43
0.00000001
 40
0.0
 40
0.0
 40
0.0
 40
0.0
 40
0.5
 40
0.5
 40
1.0
 40
1.0
 40
1.0
 40
1.0
 10
15.11876850112572
 20
-0.1440116051241969
 30
0.0
 10
15.08147895107198
 20
-0.1021986100947503
 30
0.0
 10
15.0389073344678
 20
-0.0588202685411297
 30
0.0
 10
14.95113549933881
 20
0.024137565374525
 30
0.0
 10
14.90506730065485
 20
0.0644951369630571
 30
0.0
 10
14.863197731873
 20
0.0987735569532499
 30
0.0
  0
SPLINE
  5
140
330
1F
100
AcDbEntity
  8
외형선
  6
Continuous
 62
     1
370
    15
100
AcDbSpline
210
0.0
220
0.0
230
1.0
 70
     8
 71
     3
 72
    10
 73
     6
 74
     0
 42
0.000000001
 43
0.00000001
 40
0.0
 40
0.0
 40
0.0
 40
0.0
 40
0.5
 40
0.5
 40
1.0
 40
1.0
 40
1.0
 40
1.0
 10
14.06456060161524
 20
0.8514252915208352
 30
0.0
 10
14.02730009835327
 20
0.8867777630550604
 30
0.0
 10
13.98470375284064
 20
0.9264337062086513
 30
0.0
 10
13.89686752338715
 20
1.007668081782425
 30
0.0
 10
13.85078791636406
 20
1.050038672229209
 30
0.0
 10
13.80874004461564
 20
1.090174721153185
 30
0.0
  0
SPLINE
  5
141
330
1F
100
AcDbEntity
  8
외형선
  6
Continuous
 62
     1
370
    15
100
AcDbSpline
210
0.0
220
0.0
230
1.0
 70
     8
 71
     3
 72
    10
 73
     6
 74
     0
 42
0.000000001
 43
0.00000001
 40
0.0
 40
0.0
 40
0.0
 40
0.0
 40
0.5
 40
0.5
 40
1.0
 40
1.0
 40
1.0
 40
1.0
 10
12.80757465213848
 20
1.985508129712789
 30
0.0
 10
12.77025192854667
 20
2.011136243743419
 30
0.0
 10
12.72766204036941
 20
2.043825811238149
 30
0.0
 10
12.63995602030461
 20
2.117416680212754
 30
0.0
 10
12.59399407076379
 20
2.159041157169477
 30
0.0
 10
12.55225585122578
 20
2.202857758642183
 30
0.0
  0
SPLINE
  5
142
330
1F
100
AcDbEntity
  8
외형선
  6
Continuous
 62
     1
370
    15
100
AcDbSpline
210
0.0
220
0.0
230
1.0
 70
     8
 71
     3
 72
     8
 73
     4
 74
     0
 42
0.000000001
 43
0.00000001
 40
0.0
 40
0.0
 40
0.0
 40
0.0
 40
1.0
 40
1.0
 40
1.0
 40
1.0
 10
12.55225585122578
 20
2.202857758642184
 30
0.0
 10
12.42334589408563
 20
2.338186871392917
 30
0.0
 10
12.28762305007912
 20
2.47452399018869
 30
0.0
 10
12.15192968075525
 20
2.594237107837081
 30
0.0
  0
SPLINE
  5
143
330
1F
100
AcDbEntity
  8
외형선
  6
Continuous
 62
     1
370
    15
100
AcDbSpline
210
0.0
220
0.0
230
1.0
 70
     8
 71
     3
 72
     8
 73
     4
 74
     0
 42
0.000000001
 43
0.00000001
 40
0.0
 40
0.0
 40
0.0
 40
0.0
 40
1.0
 40
1.0
 40
1.0
 40
1.0
 10
12.15192968084726
 20
2.594237107765774
 30
0.0
 10
12.01193747546728
 20
2.70255724391847
 30
0.0
 10
11.87627797740566
 20
2.787126972833824
 30
0.0
 10
11.75542778627746
 20
2.838401632333583
 30
0.0
  0
SPLINE
  5
144
330
1F
100
AcDbEntity
  8
외형선
  6
Continuous
 62
     1
370
    15
100
AcDbSpline
210
0.0
220
0.0
230
1.0
 70
     8
 71
     3
 72
    10
 73
     6
 74
     0
 42
0.000000001
 43
0.00000001
 40
0.0
 40
0.0
 40
0.0
 40
0.0
 40
0.5
 40
0.5
 40
1.0
 40
1.0
 40
1.0
 40
1.0
 10
11.75542778627746
 20
2.838401632333585
 30
0.0
 10
11.71821957924532
 20
2.854188435220355
 30
0.0
 10
11.6756434355698
 20
2.879132377288123
 30
0.0
 10
11.58777040401596
 20
2.942225256354791
 30
0.0
 10
11.54163278397048
 20
2.981012707152797
 30
0.0
 10
11.49956527281776
 20
3.025743108861373
 30
0.0
  0
SPLINE
  5
145
330
1F
100
AcDbEntity
  8
외형선
  6
Continuous
 62
     1
370
    15
100
AcDbSpline
210
0.0
220
0.0
230
1.0
 70
     8
 71
     3
 72
    14
 73
    10
 74
     0
 42
0.000000001
 43
0.00000001
 40
0.0
 40
0.0
 40
0.0
 40
0.0
 40
0.2500000000000002
 40
0.2500000000000002
 40
0.5000000000000003
 40
0.5000000000000003
 40
0.7500000000000001
 40
0.7500000000000001
 40
1.0
 40
1.0
 40
1.0
 40
1.0
 10
11.49956527281776
 20
3.025743108861373
 30
0.0
 10
11.41596808963472
 20
3.114632027721051
 30
0.0
 10
11.33154739827337
 20
3.197249263618384
 30
0.0
 10
11.15832366895974
 20
3.350080507357223
 30
0.0
 10
11.07133877977338
 20
3.418671558165375
 30
0.0
 10
10.89871345058686
 20
3.534930757470717
 30
0.0
 10
10.81497921107112
 20
3.581412030302572
 30
0.0
 10
10.65118493124818
 20
3.650485423624731
 30
0.0
 10
10.5710076351928
 20
3.672747413818301
 30
0.0
 10
10.49671072544484
 20
3.68040377240574
 30
0.0
  0
SPLINE
  5
146
330
1F
100
AcDbEntity
  8
외형선
  6
Continuous
 62
     1
370
    15
100
AcDbSpline
210
0.0
220
0.0
230
1.0
 70
     8
 71
     3
 72
    10
 73
     6
 74
     0
 42
0.000000001
 43
0.00000001
 40
0.0
 40
0.0
 40
0.0
 40
0.0
 40
0.5
 40
0.5
 40
1.0
 40
1.0
 40
1.0
 40
1.0
 10
10.49671072544484
 20
3.680403772405752
 30
0.0
 10
10.45938149736055
 20
3.684250580529738
 30
0.0
 10
10.41677465784299
 20
3.698997438073232
 30
0.0
 10
10.32897579098074
 20
3.746732696750441
 30
0.0
 10
10.28292967269432
 20
3.780247422820565
 30
0.0
 10
10.24111618773294
 20
3.823671586903861
 30
0.0
  0
SPLINE
  5
147
330
1F
100
AcDbEntity
  8
외형선
  6
Continuous
 62
     1
370
    15
100
AcDbSpline
210
0.0
220
0.0
230
1.0
 70
     8
 71
     3
 72
     8
 73
     4
 74
     0
 42
0.000000001
 43
0.00000001
 40
0.0
 40
0.0
 40
0.0
 40
0.0
 40
1.0
 40
1.0
 40
1.0
 40
1.0
 10
10.24111618773293
 20
3.823671586903875
 30
0.0
 10
10.16280562807715
 20
3.904998713669032
 30
0.0
 10
10.08181548085699
 20
3.977827741910154
 30
0.0
 10
9.999999999999265
 20
4.040596182496738
 30
0.0
  0
SPLINE
  5
148
330
1F
100
AcDbEntity
  8
외형선
  6
Continuous
370
    15
100
AcDbSpline
210
0.0
220
0.0
230
1.0
 70
     8
 71
     3
 72
     8
 73
     4
 74
     0
 42
0.000000001
 43
0.00000001
 40
0.0
 40
0.0
 40
0.0
 40
0.0
 40
1.0
 40
1.0
 40
1.0
 40
1.0
 10
9.457475838080123
 20
-1.9978563867319
 30
0.0
 10
9.304907335004053
 20
-1.87301160455451
 30
0.0
 10
9.152415376783516
 20
-1.74444816385116
 30
0.0
 10
9.00000000000001
 20
-1.612095987839621
 30
0.0
  0
SPLINE
  5
149
330
1F
100
AcDbEntity
  8
외형선
  6
Continuous
370
    15
100
AcDbSpline
210
0.0
220
0.0
230
1.0
 70
     8
 71
     3
 72
     8
 73
     4
 74
     0
 42
0.000000001
 43
0.00000001
 40
0.0
 40
0.0
 40
0.0
 40
0.0
 40
1.0
 40
1.0
 40
1.0
 40
1.0
 10
9.000000000000009
 20
-1.612095987839622
 30
0.0
 10
8.826098289500901
 20
-1.452219994133015
 30
0.0
 10
8.652142547143345
 20
-1.289170975077276
 30
0.0
 10
8.479622660062473
 20
-1.124370122292573
 30
0.0
  0
SPLINE
  5
14A
330
1F
100
AcDbEntity
  8
외형선
  6
Continuous
370
    15
100
AcDbSpline
210
0.0
220
0.0
230
1.0
 70
     8
 71
     3
 72
     8
 73
     4
 74
     0
 42
0.000000001
 43
0.00000001
 40
0.0
 40
0.0
 40
0.0
 40
0.0
 40
1.0
 40
1.0
 40
1.0
 40
1.0
 10
9.000000000000009
 20
3.352463264838053
 30
0.0
 10
8.826098289500901
 20
3.474469647721715
 30
0.0
 10
8.652142547143345
 20
3.590094717382634
 30
0.0
 10
8.479622660062473
 20
3.698398975148529
 30
0.0
  0
SPLINE
  5
14B
330
1F
100
AcDbEntity
  8
외형선
  6
Continuous
370
    15
100
AcDbSpline
210
0.0
220
0.0
230
1.0
 70
     8
 71
     3
 72
     8
 73
     4
 74
     0
 42
0.000000001
 43
0.00000001
 40
0.0
 40
0.0
 40
0.0
 40
0.0
 40
1.0
 40
1.0
 40
1.0
 40
1.0
 10
9.000000000000009
 20
3.352463264838075
 30
0.0
 10
9.33027850565972
 20
3.092653539006094
 30
0.0
 10
9.658569239303032
 20
2.812962202450889
 30
0.0
 10
9.991295699247052
 20
2.518553244474922
 30
0.0
  0
SPLINE
  5
14C
330
1F
100
AcDbEntity
  8
외형선
  6
Continuous
 62
     1
370
    15
100
AcDbSpline
210
0.0
220
0.0
230
1.0
 70
     8
 71
     3
 72
     8
 73
     4
 74
     0
 42
0.000000001
 43
0.00000001
 40
0.0
 40
0.0
 40
0.0
 40
0.0
 40
1.0
 40
1.0
 40
1.0
 40
1.0
 10
9.991295699247052
 20
2.51855324447492
 30
0.0
 10
10.01943812784425
 20
2.48474695237534
 30
0.0
 10
10.04691654700431
 20
2.450330624509775
 30
0.0
 10
10.07369209345504
 20
2.415270921579989
 30
0.0
  0
SPLINE
  5
14D
330
1F
100
AcDbEntity
  8
외형선
  6
Continuous
 62
     1
370
    15
100
AcDbSpline
210
0.0
220
0.0
230
1.0
 70
     8
 71
     3
 72
    10
 73
     6
 74
     0
 42
0.000000001
 43
0.00000001
 40
0.0
 40
0.0
 40
0.0
 40
0.0
 40
0.5
 40
0.5
 40
1.0
 40
1.0
 40
1.0
 40
1.0
 10
10.0736920934551
 20
2.415270921579916
 30
0.0
 10
10.11080081786693
 20
2.366681031682575
 30
0.0
 10
10.15327525219488
 20
2.322609116829438
 30
0.0
 10
10.24098937019783
 20
2.249770214081948
 30
0.0
 10
10.28707060277317
 20
2.220392834332719
 30
0.0
 10
10.32907831202208
 20
2.204179205445983
 30
0.0
  0
SPLINE
  5
14E
330
1F
100
AcDbEntity
  8
외형선
  6
Continuous
 62
     1
370
    15
100
AcDbSpline
210
0.0
220
0.0
230
1.0
 70
     8
 71
     3
 72
    14
 73
    10
 74
     0
 42
0.000000001
 43
0.00000001
 40
0.0
 40
0.0
 40
0.0
 40
0.0
 40
0.25
 40
0.25
 40
0.5
 40
0.5
 40
0.75
 40
0.75
 40
1.0
 40
1.0
 40
1.0
 40
1.0
 10
10.32907831202211
 20
2.20417920544594
 30
0.0
 10
10.41249912796784
 20
2.171981445192972
 30
0.0
 10
10.49681738511747
 20
2.122661576290265
 30
0.0
 10
10.67000828948024
 20
2.000315969013058
 30
0.0
 10
10.75718712282516
 20
1.92803740088167
 30
0.0
 10
10.92967088988634
 20
1.769929464015681
 30
0.0
 10
11.01299966925312
 20
1.685909831041798
 30
0.0
 10
11.17590271754749
 20
1.509956061115663
 30
0.0
 10
11.25570682403814
 20
1.417829505837518
 30
0.0
 10
11.32973647848457
 20
1.325578871814709
 30
0.0
  0
SPLINE
  5
14F
330
1F
100
AcDbEntity
  8
외형선
  6
Continuous
 62
     1
370
    15
100
AcDbSpline
210
0.0
220
0.0
230
1.0
 70
     8
 71
     3
 72
    10
 73
     6
 74
     0
 42
0.000000001
 43
0.00000001
 40
0.0
 40
0.0
 40
0.0
 40
0.0
 40
0.5
 40
0.5
 40
1.0
 40
1.0
 40
1.0
 40
1.0
 10
11.32973647848458
 20
1.325578871814693
 30
0.0
 10
11.36706452840869
 20
1.279063238342083
 30
0.0
 10
11.4096781091255
 20
1.234035870130477
 30
0.0
 10
11.49751628711344
 20
1.153777720465834
 30
0.0
 10
11.54360199161209
 20
1.117824620726808
 30
0.0
 10
11.58547549943321
 20
1.09178378336315
 30
0.0
  0
SPLINE
  5
150
330
1F
100
AcDbEntity
  8
외형선
  6
Continuous
 62
     1
370
    15
100
AcDbSpline
210
0.0
220
0.0
230
1.0
 70
     8
 71
     3
 72
     8
 73
     4
 74
     0
 42
0.000000001
 43
0.00000001
 40
0.0
 40
0.0
 40
0.0
 40
0.0
 40
1.0
 40
1.0
 40
1.0
 40
1.0
 10
11.58547549943321
 20
1.09178378336316
 30
0.0
 10
11.71468619191944
 20
1.011428570634064
 30
0.0
 10
11.85109844354118
 20
0.8959440507531412
 30
0.0
 10
11.9868866115606
 20
0.7696568112514933
 30
0.0
  0
SPLINE
  5
151
330
1F
100
AcDbEntity
  8
외형선
  6
Continuous
 62
     1
370
    15
100
AcDbSpline
210
0.0
220
0.0
230
1.0
 70
     8
 71
     3
 72
     8
 73
     4
 74
     0
 42
0.000000001
 43
0.00000001
 40
0.0
 40
0.0
 40
0.0
 40
0.0
 40
1.0
 40
1.0
 40
1.0
 40
1.0
 10
11.98688657105676
 20
0.7696568520522534
 30
0.0
 10
12.12748786261482
 20
0.6280249779549539
 30
0.0
 10
12.26334734532439
 20
0.4816584347441916
 30
0.0
 10
12.38418902761686
 20
0.3431884841835912
 30
0.0
  0
SPLINE
  5
152
330
1F
100
AcDbEntity
  8
외형선
  6
Continuous
 62
     1
370
    15
100
AcDbSpline
210
0.0
220
0.0
230
1.0
 70
     8
 71
     3
 72
    10
 73
     6
 74
     0
 42
0.000000001
 43
0.00000001
 40
0.0
 40
0.0
 40
0.0
 40
0.0
 40
0.5
 40
0.5
 40
1.0
 40
1.0
 40
1.0
 40
1.0
 10
12.38418902761693
 20
0.3431884841835126
 30
0.0
 10
12.42137142118654
 20
0.3005819588386562
 30
0.0
 10
12.46384242318888
 20
0.25662675837875
 30
0.0
 10
12.55159646860984
 20
0.1731886786478447
 30
0.0
 10
12.59773973544286
 20
0.1329110859508383
 30
0.0
 10
12.63985181449305
 20
0.0991120852628971
 30
0.0
  0
SPLINE
  5
153
330
1F
100
AcDbEntity
  8
외형선
  6
Continuous
 62
     1
370
    15
100
AcDbSpline
210
0.0
220
0.0
230
1.0
 70
     8
 71
     3
 72
    10
 73
     6
 74
     0
 42
0.000000001
 43
0.00000001
 40
0.0
 40
0.0
 40
0.0
 40
0.0
 40
0.5
 40
0.5
 40
1.0
 40
1.0
 40
1.0
 40
1.0
 10
13.64081975997424
 20
-0.8446819771031606
 30
0.0
 10
13.67814616671092
 20
-0.8797414996982413
 30
0.0
 10
13.72072733629107
 20
-0.9191649839543093
 30
0.0
 10
13.80838336137738
 20
-1.000131370463428
 30
0.0
 10
13.85430079293209
 20
-1.042463974224735
 30
0.0
 10
13.896083057408
 20
-1.082574638286974
 30
0.0
  0
SPLINE
  5
154
330
1F
100
AcDbEntity
  8
외형선
  6
Continuous
 62
     1
370
    15
100
AcDbSpline
210
0.0
220
0.0
230
1.0
 70
     8
 71
     3
 72
    10
 73
     6
 74
     0
 42
0.000000001
 43
0.00000001
 40
0.0
 40
0.0
 40
0.0
 40
0.0
 40
0.5
 40
0.5
 40
1.0
 40
1.0
 40
1.0
 40
1.0
 10
14.69329375561847
 20
-1.798377377557185
 30
0.0
 10
14.73053989667086
 20
-1.825030142526695
 30
0.0
 10
14.77314848801255
 20
-1.858511465666166
 30
0.0
 10
14.86105642447494
 20
-1.93301579705627
 30
0.0
 10
14.90719829822855
 20
-1.97476161060239
 30
0.0
 10
14.94927475529129
 20
-2.018266504548757
 30
0.0
  0
SPLINE
  5
155
330
1F
100
AcDbEntity
  8
외형선
  6
Continuous
 62
     1
370
    15
100
AcDbSpline
210
0.0
220
0.0
230
1.0
 70
     8
 71
     3
 72
    10
 73
     6
 74
     0
 42
0.000000001
 43
0.00000001
 40
0.0
 40
0.0
 40
0.0
 40
0.0
 40
0.5
 40
0.5
 40
1.0
 40
1.0
 40
1.0
 40
1.0
 10
15.95186729304611
 20
-2.821874489216173
 30
0.0
 10
15.9891961285831
 20
-2.837433884949638
 30
0.0
 10
16.03179977964771
 20
-2.862151201367744
 30
0.0
 10
16.11957137064267
 20
-2.924988615887643
 30
0.0
 10
16.16558877497233
 20
-2.963754427512221
 30
0.0
 10
16.20737247067697
 20
-3.008583290972785
 30
0.0
  0
SPLINE
  5
156
330
1F
100
AcDbEntity
  8
외형선
  6
Continuous
 62
     1
370
    15
100
AcDbSpline
210
0.0
220
0.0
230
1.0
 70
     8
 71
     3
 72
     8
 73
     4
 74
     0
 42
0.000000001
 43
0.00000001
 40
0.0
 40
0.0
 40
0.0
 40
0.0
 40
1.0
 40
1.0
 40
1.0
 40
1.0
 10
16.20737247067698
 20
-3.008583290972803
 30
0.0
 10
16.33646587978118
 20
-3.14708494126482
 30
0.0
 10
16.47248514750677
 20
-3.274660405101835
 30
0.0
 10
16.60768540879565
 20
-3.378860253683114
 30
0.0
  0
SPLINE
  5
157
330
1F
100
AcDbEntity
  8
외형선
  6
Continuous
 62
     1
370
    15
100
AcDbSpline
210
0.0
220
0.0
230
1.0
 70
     8
 71
     3
 72
     8
 73
     4
 74
     0
 42
0.000000001
 43
0.00000001
 40
0.0
 40
0.0
 40
0.0
 40
0.0
 40
1.0
 40
1.0
 40
1.0
 40
1.0
 10
16.60768536845782
 20
-3.378860229054264
 30
0.0
 10
16.74733453499138
 20
-3.464125229172075
 30
0.0
 10
16.88287479646246
 20
-3.518576855555205
 30
0.0
 10
17.00367998389592
 20
-3.534567951257175
 30
0.0
  0
SPLINE
  5
158
330
1F
100
AcDbEntity
  8
외형선
  6
Continuous
 62
     1
370
    15
100
AcDbSpline
210
0.0
220
0.0
230
1.0
 70
     8
 71
     3
 72
    10
 73
     6
 74
     0
 42
0.000000001
 43
0.00000001
 40
0.0
 40
0.0
 40
0.0
 40
0.0
 40
0.5
 40
0.5
 40
1.0
 40
1.0
 40
1.0
 40
1.0
 10
17.00367998389566
 20
-3.534567951257234
 30
0.0
 10
17.04079916899147
 20
-3.539481452522014
 30
0.0
 10
17.08328809692154
 20
-3.555195743918154
 30
0.0
 10
17.17102891891369
 20
-3.604357112212812
 30
0.0
 10
17.21712074607136
 20
-3.638334503409886
 30
0.0
 10
17.25914248618639
 20
-3.681811154387848
 30
0.0
  0
SPLINE
  5
159
330
1F
100
AcDbEntity
  8
외형선
  6
Continuous
 62
     1
370
    15
100
AcDbSpline
210
0.0
220
0.0
230
1.0
 70
     8
 71
     3
 72
    14
 73
    10
 74
     0
 42
0.000000001
 43
0.00000001
 40
0.0
 40
0.0
 40
0.0
 40
0.0
 40
0.2500000000000004
 40
0.2500000000000004
 40
0.5000000000000003
 40
0.5000000000000003
 40
0.7500000000000002
 40
0.7500000000000002
 40
1.0
 40
1.0
 40
1.0
 40
1.0
 10
17.2591424861864
 20
-3.681811154387849
 30
0.0
 10
17.3427225478658
 20
-3.768284992939148
 30
0.0
 10
17.42719834913216
 20
-3.843891736939285
 30
0.0
 10
17.60070670593181
 20
-3.976013385930834
 30
0.0
 10
17.68803480353394
 20
-4.030895908554998
 30
0.0
 10
17.86079783179061
 20
-4.115316860495362
 30
0.0
 10
17.94426229401203
 20
-4.144209346325889
 30
0.0
 10
18.10753408901001
 20
-4.17497972852592
 30
0.0
 10
18.18752154528441
 20
-4.176373897294729
 30
0.0
 10
18.26173117946685
 20
-4.162231368061619
 30
0.0
  0
SPLINE
  5
15A
330
1F
100
AcDbEntity
  8
외형선
  6
Continuous
 62
     1
370
    15
100
AcDbSpline
210
0.0
220
0.0
230
1.0
 70
     8
 71
     3
 72
    10
 73
     6
 74
     0
 42
0.000000001
 43
0.00000001
 40
0.0
 40
0.0
 40
0.0
 40
0.0
 40
0.5
 40
0.5
 40
1.0
 40
1.0
 40
1.0
 40
1.0
 10
18.26173117946684
 20
-4.162231368061616
 30
0.0
 10
18.29911992295634
 20
-4.155105994063824
 30
0.0
 10
18.34178202789179
 20
-4.159889545556533
 30
0.0
 10
18.42970651193427
 20
-4.191160347087064
 30
0.0
 10
18.47584353164538
 20
-4.218037549737901
 30
0.0
 10
18.51776241002819
 20
-4.257887733907788
 30
0.0
  0
SPLINE
  5
15B
330
1F
100
AcDbEntity
  8
외형선
  6
Continuous
 62
     1
370
    15
100
AcDbSpline
210
0.0
220
0.0
230
1.0
 70
     8
 71
     3
 72
     8
 73
     4
 74
     0
 42
0.000000001
 43
0.00000001
 40
0.0
 40
0.0
 40
0.0
 40
0.0
 40
1.0
 40
1.0
 40
1.0
 40
1.0
 10
18.51776241002819
 20
-4.257887733907793
 30
0.0
 10
18.64685227541495
 20
-4.380607021937177
 30
0.0
 10
18.78311132974194
 20
-4.470171953864517
 30
0.0
 10
18.91875811424501
 20
-4.525139225313349
 30
0.0
  0
SPLINE
  5
15C
330
1F
100
AcDbEntity
  8
외형선
  6
Continuous
 62
     1
370
    15
100
AcDbSpline
210
0.0
220
0.0
230
1.0
 70
     8
 71
     3
 72
     8
 73
     4
 74
     0
 42
0.000000001
 43
0.00000001
 40
0.0
 40
0.0
 40
0.0
 40
0.0
 40
1.0
 40
1.0
 40
1.0
 40
1.0
 10
18.91875807384193
 20
-4.525139218545815
 30
0.0
 10
19.05901110114057
 20
-4.548631922685932
 30
0.0
 10
19.19448845136727
 20
-4.532526335312296
 30
0.0
 10
19.31495633537975
 20
-4.474754335921932
 30
0.0
  0
SPLINE
  5
15D
330
1F
100
AcDbEntity
  8
외형선
  6
Continuous
 62
     1
370
    15
100
AcDbSpline
210
0.0
220
0.0
230
1.0
 70
     8
 71
     3
 72
    10
 73
     6
 74
     0
 42
0.000000001
 43
0.00000001
 40
0.0
 40
0.0
 40
0.0
 40
0.0
 40
0.5
 40
0.5
 40
1.0
 40
1.0
 40
1.0
 40
1.0
 10
19.31495633537982
 20
-4.474754335921897
 30
0.0
 10
19.35205151041547
 20
-4.456964844165541
 30
0.0
 10
19.39444700644166
 20
-4.451592644280892
 30
0.0
 10
19.48207022345644
 20
-4.464764326052543
 30
0.0
 10
19.52814195079669
 20
-4.483552595396231
 30
0.0
 10
19.57017913751923
 20
-4.517550433376042
 30
0.0
  0
SPLINE
  5
15E
330
1F
100
AcDbEntity
  8
외형선
  6
Continuous
 62
     1
370
    15
100
AcDbSpline
210
0.0
220
0.0
230
1.0
 70
     8
 71
     3
 72
    10
 73
     6
 74
     0
 42
0.000000001
 43
0.00000001
 40
0.0
 40
0.0
 40
0.0
 40
0.0
 40
0.4291163788476473
 40
0.7533599984284357
 40
1.0
 40
1.0
 40
1.0
 40
1.0
 10
19.57017913751923
 20
-4.517550433376034
 30
0.0
 10
19.66446274112957
 20
-4.579901773996563
 30
0.0
 10
19.82998775711349
 20
-4.689366264720582
 30
0.0
 10
20.05638051159752
 20
-4.734252941178974
 30
0.0
 10
20.1817020602155
 20
-4.720046569400441
 30
0.0
 10
20.23584498147448
 20
-4.713908961965302
 30
0.0
  0
SPLINE
  5
15F
330
1F
100
AcDbEntity
  8
외형선
  6
Continuous
 62
     1
370
    15
100
AcDbSpline
210
0.0
220
0.0
230
1.0
 70
     8
 71
     3
 72
    12
 73
     8
 74
     0
 42
0.000000001
 43
0.00000001
 40
0.0
 40
0.0
 40
0.0
 40
0.0
 40
0.056521747732388
 40
0.3314751369065783
 40
0.5609342492917316
 40
0.7903696406507428
 40
1.0
 40
1.0
 40
1.0
 40
1.0
 10
17.61121544885137
 20
-3.973779857892705
 30
0.0
 10
17.59653704854849
 20
-3.986825424789529
 30
0.0
 10
17.51045470068827
 20
-4.063331924440301
 30
0.0
 10
17.3604086250318
 20
-4.140315846211092
 30
0.0
 10
17.16979247811135
 20
-4.21379894904756
 30
0.0
 10
17.00084239044818
 20
-4.240527119348918
 30
0.0
 10
16.89958899635653
 20
-4.225337230692166
 30
0.0
 10
16.85124592847997
 20
-4.218084873129651
 30
0.0
  0
SPLINE
  5
160
330
1F
100
AcDbEntity
  8
외형선
  6
Continuous
 62
     1
370
    15
100
AcDbSpline
210
0.0
220
0.0
230
1.0
 70
     8
 71
     3
 72
    10
 73
     6
 74
     0
 42
0.000000001
 43
0.00000001
 40
0.0
 40
0.0
 40
0.0
 40
0.0
 40
0.5
 40
0.5
 40
1.0
 40
1.0
 40
1.0
 40
1.0
 10
16.85124592847996
 20
-4.218084873129658
 30
0.0
 10
16.81389571182163
 20
-4.209445962041551
 30
0.0
 10
16.77128247685092
 20
-4.212904171285675
 30
0.0
 10
16.68355227909295
 20
-4.24196286843511
 30
0.0
 10
16.63758650324021
 20
-4.267920548926848
 30
0.0
 10
16.59583403877478
 20
-4.307140586596231
 30
0.0
  0
SPLINE
  5
161
330
1F
100
AcDbEntity
  8
외형선
  6
Continuous
 62
     1
370
    15
100
AcDbSpline
210
0.0
220
0.0
230
1.0
 70
     8
 71
     3
 72
     8
 73
     4
 74
     0
 42
0.000000001
 43
0.00000001
 40
0.0
 40
0.0
 40
0.0
 40
0.0
 40
1.0
 40
1.0
 40
1.0
 40
1.0
 10
16.59583403877465
 20
-4.307140586596314
 30
0.0
 10
16.46701323830419
 20
-4.428147974105899
 30
0.0
 10
16.3308961606305
 20
-4.514658468930145
 30
0.0
 10
16.19505264956732
 20
-4.565978570862745
 30
0.0
  0
SPLINE
  5
162
330
1F
100
AcDbEntity
  8
외형선
  6
Continuous
 62
     1
370
    15
100
AcDbSpline
210
0.0
220
0.0
230
1.0
 70
     8
 71
     3
 72
     8
 73
     4
 74
     0
 42
0.000000001
 43
0.00000001
 40
0.0
 40
0.0
 40
0.0
 40
0.0
 40
1.0
 40
1.0
 40
1.0
 40
1.0
 10
16.19505264965713
 20
-4.565978570850421
 30
0.0
 10
16.05475068741709
 20
-4.585192234182393
 30
0.0
 10
15.91886343105877
 20
-4.564420188984514
 30
0.0
 10
15.79778241850754
 20
-4.502022279082017
 30
0.0
  0
SPLINE
  5
163
330
1F
100
AcDbEntity
  8
외형선
  6
Continuous
 62
     1
370
    15
100
AcDbSpline
210
0.0
220
0.0
230
1.0
 70
     8
 71
     3
 72
    10
 73
     6
 74
     0
 42
0.000000001
 43
0.00000001
 40
0.0
 40
0.0
 40
0.0
 40
0.0
 40
0.5
 40
0.5
 40
1.0
 40
1.0
 40
1.0
 40
1.0
 10
15.79778241850754
 20
-4.502022279082017
 30
0.0
 10
15.76050211635481
 20
-4.482810241737353
 30
0.0
 10
15.71786872698785
 20
-4.476017413413137
 30
0.0
 10
15.62990891054181
 20
-4.486640580433004
 30
0.0
 10
15.58372662713408
 20
-4.504257708797851
 30
0.0
 10
15.54161926750003
 20
-4.537318379351603
 30
0.0
  0
SPLINE
  5
164
330
1F
100
AcDbEntity
  8
외형선
  6
Continuous
 62
     1
370
    15
100
AcDbSpline
210
0.0
220
0.0
230
1.0
 70
     8
 71
     3
 72
    14
 73
    10
 74
     0
 42
0.000000001
 43
0.00000001
 40
0.0
 40
0.0
 40
0.0
 40
0.0
 40
0.25
 40
0.25
 40
0.5
 40
0.5
 40
0.75
 40
0.75
 40
1.0
 40
1.0
 40
1.0
 40
1.0
 10
15.54161926750004
 20
-4.537318379351597
 30
0.0
 10
15.45818284537158
 20
-4.602828639034141
 30
0.0
 10
15.3739613985758
 20
-4.649735645530052
 30
0.0
 10
15.20121735610072
 20
-4.714077058071024
 30
0.0
 10
15.11435490125723
 20
-4.730387246774194
 30
0.0
 10
14.94173068159885
 20
-4.732498810227137
 30
0.0
 10
14.85804113043875
 20
-4.718510969803132
 30
0.0
 10
14.69440123327454
 20
-4.660978073792117
 30
0.0
 10
14.61431977881627
 20
-4.61687293098299
 30
0.0
 10
14.54013539781743
 20
-4.558060713828582
 30
0.0
  0
SPLINE
  5
165
330
1F
100
AcDbEntity
  8
외형선
  6
Continuous
 62
     1
370
    15
100
AcDbSpline
210
0.0
220
0.0
230
1.0
 70
     8
 71
     3
 72
    10
 73
     6
 74
     0
 42
0.000000001
 43
0.00000001
 40
0.0
 40
0.0
 40
0.0
 40
0.0
 40
0.4999999999999998
 40
0.4999999999999998
 40
1.0
 40
1.0
 40
1.0
 40
1.0
 10
14.54013539781743
 20
-4.558060713828583
 30
0.0
 10
14.50283174189641
 20
-4.528486958772047
 30
0.0
 10
14.46024905006438
 20
-4.510902323624953
 30
0.0
 10
14.37250631790149
 20
-4.501028908013773
 30
0.0
 10
14.32649974267984
 20
-4.508752512833539
 30
0.0
 10
14.2847269070153
 20
-4.533495661115846
 30
0.0
  0
SPLINE
  5
166
330
1F
100
AcDbEntity
  8
외형선
  6
Continuous
 62
     1
370
    15
100
AcDbSpline
210
0.0
220
0.0
230
1.0
 70
     8
 71
     3
 72
     8
 73
     4
 74
     0
 42
0.000000001
 43
0.00000001
 40
0.0
 40
0.0
 40
0.0
 40
0.0
 40
1.0
 40
1.0
 40
1.0
 40
1.0
 10
14.28472690701517
 20
-4.533495661115933
 30
0.0
 10
14.15567259376149
 20
-4.609937922181177
 30
0.0
 10
14.019587396911
 20
-4.637648077588698
 30
0.0
 10
13.88438034376234
 20
-4.627402625101485
 30
0.0
  0
SPLINE
  5
167
330
1F
100
AcDbEntity
  8
외형선
  6
Continuous
 62
     1
370
    15
100
AcDbSpline
210
0.0
220
0.0
230
1.0
 70
     8
 71
     3
 72
     8
 73
     4
 74
     0
 42
0.000000001
 43
0.00000001
 40
0.0
 40
0.0
 40
0.0
 40
0.0
 40
1.0
 40
1.0
 40
1.0
 40
1.0
 10
13.88438034385195
 20
-4.627402625131765
 30
0.0
 10
13.74451141416217
 20
-4.580092165619655
 30
0.0
 10
13.60913064647427
 20
-4.493245690596633
 30
0.0
 10
13.48823487807424
 20
-4.370866466073401
 30
0.0
  0
SPLINE
  5
168
330
1F
100
AcDbEntity
  8
외형선
  6
Continuous
 62
     1
370
    15
100
AcDbSpline
210
0.0
220
0.0
230
1.0
 70
     8
 71
     3
 72
    10
 73
     6
 74
     0
 42
0.000000001
 43
0.00000001
 40
0.0
 40
0.0
 40
0.0
 40
0.0
 40
0.5
 40
0.5
 40
1.0
 40
1.0
 40
1.0
 40
1.0
 10
13.48823487807423
 20
-4.370866466073399
 30
0.0
 10
13.45108530902894
 20
-4.333261051828535
 30
0.0
 10
13.40856520733834
 20
-4.306718183980856
 30
0.0
 10
13.32076068759553
 20
-4.278409601832852
 30
0.0
 10
13.27463040950626
 20
-4.276482787649239
 30
0.0
 10
13.23256264286934
 20
-4.2920131995814
 30
0.0
  0
SPLINE
  5
169
330
1F
100
AcDbEntity
  8
외형선
  6
Continuous
 62
     1
370
    15
100
AcDbSpline
210
0.0
220
0.0
230
1.0
 70
     8
 71
     3
 72
    14
 73
    10
 74
     0
 42
0.000000001
 43
0.00000001
 40
0.0
 40
0.0
 40
0.0
 40
0.0
 40
0.2500000000000008
 40
0.2500000000000008
 40
0.5000000000000009
 40
0.5000000000000009
 40
0.7500000000000004
 40
0.7500000000000004
 40
1.0
 40
1.0
 40
1.0
 40
1.0
 10
13.23256264286932
 20
-4.292013199581405
 30
0.0
 10
13.14895080549627
 20
-4.322880687461526
 30
0.0
 10
13.06443580746461
 20
-4.332013976496114
 30
0.0
 10
12.89083236147669
 20
-4.317534622264888
 30
0.0
 10
12.80343396515575
 20
-4.293459032359208
 30
0.0
 10
12.63048301943588
 20
-4.216949531855459
 30
0.0
 10
12.54682830035895
 20
-4.16560155998846
 30
0.0
 10
12.38355930032257
 20
-4.037958519213006
 30
0.0
 10
12.30366702072599
 20
-3.961196513495419
 30
0.0
 10
12.22950437807651
 20
-3.873888230039904
 30
0.0
  0
SPLINE
  5
16A
330
1F
100
AcDbEntity
  8
외형선
  6
Continuous
 62
     1
370
    15
100
AcDbSpline
210
0.0
220
0.0
230
1.0
 70
     8
 71
     3
 72
    10
 73
     6
 74
     0
 42
0.000000001
 43
0.00000001
 40
0.0
 40
0.0
 40
0.0
 40
0.0
 40
0.5
 40
0.5
 40
1.0
 40
1.0
 40
1.0
 40
1.0
 10
12.22950437807649
 20
-3.873888230039903
 30
0.0
 10
12.1921827565555
 20
-3.82995119389389
 30
0.0
 10
12.1495853888947
 20
-3.795254064169463
 30
0.0
 10
12.06177473536556
 20
-3.748674642596281
 30
0.0
 10
12.01569219943627
 20
-3.736441177866686
 30
0.0
 10
11.97382463752544
 20
-3.741263735187809
 30
0.0
  0
SPLINE
  5
16B
330
1F
100
AcDbEntity
  8
외형선
  6
Continuous
 62
     1
370
    15
100
AcDbSpline
210
0.0
220
0.0
230
1.0
 70
     8
 71
     3
 72
     8
 73
     4
 74
     0
 42
0.000000001
 43
0.00000001
 40
0.0
 40
0.0
 40
0.0
 40
0.0
 40
1.0
 40
1.0
 40
1.0
 40
1.0
 10
11.97382463752531
 20
-3.741263735187881
 30
0.0
 10
11.84489191659618
 20
-3.756114980611988
 30
0.0
 10
11.70875024181384
 20
-3.719315792375261
 30
0.0
 10
11.57317119023853
 20
-3.650189091384794
 30
0.0
  0
SPLINE
  5
16C
330
1F
100
AcDbEntity
  8
외형선
  6
Continuous
 62
     1
370
    15
100
AcDbSpline
210
0.0
220
0.0
230
1.0
 70
     8
 71
     3
 72
     8
 73
     4
 74
     0
 42
0.000000001
 43
0.00000001
 40
0.0
 40
0.0
 40
0.0
 40
0.0
 40
1.0
 40
1.0
 40
1.0
 40
1.0
 10
11.573171190328
 20
-3.650189091450515
 30
0.0
 10
11.43300208278983
 20
-3.547199762981878
 30
0.0
 10
11.29756657891911
 20
-3.413691734687223
 30
0.0
 10
11.17712047586275
 20
-3.258893049008417
 30
0.0
  0
SPLINE
  5
16D
330
1F
100
AcDbEntity
  8
외형선
  6
Continuous
 62
     1
370
    15
100
AcDbSpline
210
0.0
220
0.0
230
1.0
 70
     8
 71
     3
 72
    10
 73
     6
 74
     0
 42
0.000000001
 43
0.00000001
 40
0.0
 40
0.0
 40
0.0
 40
0.0
 40
0.5
 40
0.5
 40
1.0
 40
1.0
 40
1.0
 40
1.0
 10
11.17712047586275
 20
-3.258893049008417
 30
0.0
 10
11.13999134962551
 20
-3.211174278570174
 30
0.0
 10
11.09753536172647
 20
-3.170697879599403
 30
0.0
 10
11.00997336940087
 20
-3.109427744766077
 30
0.0
 10
10.96393534929546
 20
-3.088196075893222
 30
0.0
 10
10.92191668715131
 20
-3.082614774008529
 30
0.0
  0
SPLINE
  5
16E
330
1F
100
AcDbEntity
  8
외형선
  6
Continuous
 62
     1
370
    15
100
AcDbSpline
210
0.0
220
0.0
230
1.0
 70
     8
 71
     3
 72
    14
 73
    10
 74
     0
 42
0.000000001
 43
0.00000001
 40
0.0
 40
0.0
 40
0.0
 40
0.0
 40
0.25
 40
0.25
 40
0.5
 40
0.5
 40
0.75
 40
0.75
 40
1.0
 40
1.0
 40
1.0
 40
1.0
 10
10.92191668715131
 20
-3.082614774008541
 30
0.0
 10
10.8387189902412
 20
-3.071563697204304
 30
0.0
 10
10.75455955407276
 20
-3.040803590204091
 30
0.0
 10
10.58151529855645
 20
-2.95101247600286
 30
0.0
 10
10.494249632646
 20
-2.892288250018817
 30
0.0
 10
10.32136748470406
 20
-2.75506528028351
 30
0.0
 10
10.2376636963496
 20
-2.678261588416948
 30
0.0
 10
10.07415934802889
 20
-2.50983209068094
 30
0.0
 10
9.994248065811467
 20
-2.41778937879958
 30
0.0
 10
9.92021511332596
 20
-2.321661514861853
 30
0.0
  0
SPLINE
  5
16F
330
1F
100
AcDbEntity
  8
외형선
  6
Continuous
370
    15
100
AcDbSpline
210
0.0
220
0.0
230
1.0
 70
     8
 71
     3
 72
    10
 73
     6
 74
     0
 42
0.000000001
 43
0.00000001
 40
0.0
 40
0.0
 40
0.0
 40
0.0
 40
0.5
 40
0.5
 40
1.0
 40
1.0
 40
1.0
 40
1.0
 10
9.920215113325959
 20
-2.321661514861854
 30
0.0
 10
9.882745263371849
 20
-2.273008901164445
 30
0.0
 10
9.840012091670742
 20
-2.228844335923815
 30
0.0
 10
9.752062470646475
 20
-2.155682700596025
 30
0.0
 10
9.705991495843875
 20
-2.126024590269631
 30
0.0
 10
9.664108810318183
 20
-2.109493321304081
 30
0.0
  0
SPLINE
  5
170
330
1F
100
AcDbEntity
  8
외형선
  6
Continuous
370
    15
100
AcDbSpline
210
0.0
220
0.0
230
1.0
 70
     8
 71
     3
 72
     8
 73
     4
 74
     0
 42
0.000000001
 43
0.00000001
 40
0.0
 40
0.0
 40
0.0
 40
0.0
 40
1.0
 40
1.0
 40
1.0
 40
1.0
 10
9.664108810318048
 20
-2.109493321304133
 30
0.0
 10
9.596882323692459
 20
-2.082958749366631
 30
0.0
 10
9.52756641526038
 20
-2.04437309345729
 30
0.0
 10
9.457475838080104
 20
-1.997856386731952
 30
0.0
  0
LINE
  5
171
330
1F
100
AcDbEntity
  8
외형선
  6
Continuous
370
    15
100
AcDbLine
 10
-33.4975
 20
4.792028729720472
 30
0.0
 11
-33.4975
 21
-4.732971270279529
 31
0.0
  0
LINE
  5
172
330
1F
100
AcDbEntity
  8
외형선
  6
Continuous
370
    15
100
AcDbLine
 10
8.479622660062473
 20
4.792028729720476
 30
0.0
 11
8.479622660062473
 21
4.650125832724046
 31
0.0
  0
LINE
  5
174
330
1F
100
AcDbEntity
  8
외형선
  6
Continuous
370
    15
100
AcDbLine
 10
8.479622660062473
 20
3.698416603110117
 30
0.0
 11
8.479622660062473
 21
-1.124372765951979
 31
0.0
  0
SPLINE
  5
176
330
1F
100
AcDbEntity
  8
외형선
  6
Continuous
370
    15
100
AcDbSpline
210
0.0
220
0.0
230
1.0
 70
     8
 71
     3
 72
     8
 73
     4
 74
     0
 42
0.000000001
 43
0.00000001
 40
0.0
 40
0.0
 40
0.0
 40
0.0
 40
1.0
 40
1.0
 40
1.0
 40
1.0
 10
9.00000000000001
 20
-3.382144221387609
 30
0.0
 10
8.826098289500901
 20
-3.263311253222466
 30
0.0
 10
8.652142547143345
 20
-3.137903858786004
 30
0.0
 10
8.479622660062473
 20
-3.007047857855131
 30
0.0
  0
LINE
  5
177
330
1F
100
AcDbEntity
  8
외형선
  6
Continuous
370
    15
100
AcDbLine
 10
8.479622660062473
 20
-3.007026559170904
 30
0.0
 11
8.479622660062473
 21
-4.732971270279524
 31
0.0
  0
SPLINE
  5
178
330
1F
100
AcDbEntity
  8
외형선
  6
Continuous
370
    15
100
AcDbSpline
210
0.0
220
0.0
230
1.0
 70
     8
 71
     3
 72
     8
 73
     4
 74
     0
 42
0.000000001
 43
0.00000001
 40
0.0
 40
0.0
 40
0.0
 40
0.0
 40
1.0
 40
1.0
 40
1.0
 40
1.0
 10
8.685995410835556
 20
-4.537757000729979
 30
0.0
 10
8.61703983551331
 20
-4.556928924067547
 30
0.0
 10
8.548217994845206
 20
-4.574705222767999
 30
0.0
 10
8.479622660062473
 20
-4.591069033483235
 30
0.0
  0
LINE
  5
179
330
1F
100
AcDbEntity
  8
외형선
  6
Continuous
370
    15
100
AcDbLine
 10
-34.45
 20
3.839528729720472
 30
0.0
 11
-34.45
 21
-3.780471270279533
 31
0.0
  0
SPLINE
  5
17A
330
1F
100
AcDbEntity
  8
외형선
  6
Continuous
 62
     1
370
    15
100
AcDbSpline
210
0.0
220
0.0
230
1.0
 70
     8
 71
     3
 72
    10
 73
     6
 74
     0
 42
0.000000001
 43
0.00000001
 40
0.0
 40
0.0
 40
0.0
 40
0.0
 40
0.5000000000000002
 40
0.5000000000000002
 40
1.0
 40
1.0
 40
1.0
 40
1.0
 10
12.15192968075523
 20
2.594237107837098
 30
0.0
 10
12.12422810202767
 20
2.317598885961353
 30
0.0
 10
12.09602874442932
 20
2.020847536507931
 30
0.0
 10
12.04043102914145
 20
1.405921192749425
 30
0.0
 10
12.01304480766403
 20
1.087892314454482
 30
0.0
 10
11.9868866115606
 20
0.7696568112515065
 30
0.0
  0
SPLINE
  5
17B
330
1F
100
AcDbEntity
  8
외형선
  6
Continuous
 62
     1
370
    15
100
AcDbSpline
210
0.0
220
0.0
230
1.0
 70
     8
 71
     3
 72
    10
 73
     6
 74
     0
 42
0.000000001
 43
0.00000001
 40
0.0
 40
0.0
 40
0.0
 40
0.0
 40
0.5
 40
0.5
 40
1.0
 40
1.0
 40
1.0
 40
1.0
 10
19.66040501136571
 20
2.678406264358538
 30
0.0
 10
19.63284682436856
 20
2.406251661643094
 30
0.0
 10
19.60470193366174
 20
2.113197037276037
 30
0.0
 10
19.54902471065995
 20
1.503586629700204
 30
0.0
 10
19.52150466681391
 20
1.187174498565437
 30
0.0
 10
19.49513243019996
 20
0.869480532276903
 30
0.0
  0
SPLINE
  5
17C
330
1F
100
AcDbEntity
  8
외형선
  6
Continuous
 62
     1
370
    15
100
AcDbSpline
210
0.0
220
0.0
230
1.0
 70
     8
 71
     3
 72
    10
 73
     6
 74
     0
 42
0.000000001
 43
0.00000001
 40
0.0
 40
0.0
 40
0.0
 40
0.0
 40
0.4999999999999998
 40
0.4999999999999998
 40
1.0
 40
1.0
 40
1.0
 40
1.0
 10
27.16911142721886
 20
2.763888874288578
 30
0.0
 10
27.14169677702168
 20
2.496297940106698
 30
0.0
 10
27.11360435955659
 20
2.206997289857134
 30
0.0
 10
27.05783935437434
 20
1.602763314090873
 30
0.0
 10
27.03017920044618
 20
1.287971007046315
 30
0.0
 10
27.00358491334239
 20
0.9707947732285114
 30
0.0
  0
SPLINE
  5
17D
330
1F
100
AcDbEntity
  8
외형선
  6
Continuous
 62
     1
370
    15
100
AcDbSpline
210
0.0
220
0.0
230
1.0
 70
     8
 71
     3
 72
     8
 73
     4
 74
     0
 42
0.000000001
 43
0.00000001
 40
0.0
 40
0.0
 40
0.0
 40
0.0
 40
1.0
 40
1.0
 40
1.0
 40
1.0
 10
27.56966650897363
 20
2.375816686972255
 30
0.0
 10
27.44090647243804
 20
2.5122298540237
 30
0.0
 10
27.30483999471048
 20
2.646931829877421
 30
0.0
 10
27.16911142721887
 20
2.763888874288659
 30
0.0
  0
SPLINE
  5
17E
330
1F
100
AcDbEntity
  8
외형선
  6
Continuous
 62
     1
370
    15
100
AcDbSpline
210
0.0
220
0.0
230
1.0
 70
     8
 71
     3
 72
     8
 73
     4
 74
     0
 42
0.000000001
 43
0.00000001
 40
0.0
 40
0.0
 40
0.0
 40
0.0
 40
1.0
 40
1.0
 40
1.0
 40
1.0
 10
27.1691114273124
 20
2.763888874218981
 30
0.0
 10
27.02890740728731
 20
2.868079568306182
 30
0.0
 10
26.89319111919012
 20
2.947213341230671
 30
0.0
 10
26.77233190723262
 20
2.992144926641489
 30
0.0
  0
SPLINE
  5
17F
330
1F
100
AcDbEntity
  8
외형선
  6
Continuous
 62
     1
370
    15
100
AcDbSpline
210
0.0
220
0.0
230
1.0
 70
     8
 71
     3
 72
     8
 73
     4
 74
     0
 42
0.000000001
 43
0.00000001
 40
0.0
 40
0.0
 40
0.0
 40
0.0
 40
1.0
 40
1.0
 40
1.0
 40
1.0
 10
29.03425334033541
 20
1.089174594637126
 30
0.0
 10
29.02716260292022
 20
0.7946924770876969
 30
0.0
 10
29.01855681771344
 20
0.4932061979553176
 30
0.0
 10
29.00815352975594
 20
0.1892050655533747
 30
0.0
  0
SPLINE
  5
180
330
1F
100
AcDbEntity
  8
외형선
  6
Continuous
 62
     1
370
    15
100
AcDbSpline
210
0.0
220
0.0
230
1.0
 70
    24
 71
     3
 72
    10
 73
     6
 74
     0
 42
0.000000001
 43
0.00000001
 40
0.0
 40
0.0
 40
0.0
 40
0.0
 40
0.5
 40
0.5
 40
1.0
 40
1.0
 40
1.0
 40
1.0
 10
28.96637123610234
 20
-0.2922250341771938
 30
0.0
 10
28.9191058789263
 20
-0.3394903913532444
 30
0.0
 10
28.86843757690437
 20
-0.3901586933751729
 30
0.0
 10
28.76497179223233
 20
-0.4936244780472045
 30
0.0
 10
28.71278575622391
 20
-0.5458105140673595
 30
0.0
 10
28.66300531944069
 20
-0.5955909508505841
 30
0.0
  0
SPLINE
  5
181
330
1F
100
AcDbEntity
  8
외형선
  6
Continuous
 62
     1
370
    15
100
AcDbSpline
210
0.0
220
0.0
230
1.0
 70
     8
 71
     3
 72
     8
 73
     4
 74
     0
 42
0.000000001
 43
0.00000001
 40
0.0
 40
0.0
 40
0.0
 40
0.0
 40
1.0
 40
1.0
 40
1.0
 40
1.0
 10
29.03425334033856
 20
1.089174594634839
 30
0.0
 10
28.96910211218643
 20
1.148704808935523
 30
0.0
 10
28.89309644599329
 20
1.217002751143583
 30
0.0
 10
28.82583179237014
 20
1.282235431299652
 30
0.0
  0
SPLINE
  5
182
330
1F
100
AcDbEntity
  8
외형선
  6
Continuous
370
    15
100
AcDbSpline
210
0.0
220
0.0
230
1.0
 70
     8
 71
     3
 72
     8
 73
     4
 74
     0
 42
0.000000001
 43
0.00000001
 40
0.0
 40
0.0
 40
0.0
 40
0.0
 40
1.0
 40
1.0
 40
1.0
 40
1.0
 10
9.000000000000009
 20
-3.382144221387619
 30
0.0
 10
9.070573292892265
 20
-3.425756399400746
 30
0.0
 10
9.14112744519517
 20
-3.468040305993391
 30
0.0
 10
9.211665409399775
 20
-3.509006554630467
 30
0.0
  0
SPLINE
  5
183
330
1F
100
AcDbEntity
  8
외형선
  6
Continuous
370
    15
100
AcDbSpline
210
0.0
220
0.0
230
1.0
 70
     8
 71
     3
 72
     8
 73
     4
 74
     0
 42
0.000000001
 43
0.00000001
 40
0.0
 40
0.0
 40
0.0
 40
0.0
 40
1.0
 40
1.0
 40
1.0
 40
1.0
 10
9.21166540939937
 20
-3.50900655462867
 30
0.0
 10
9.311202633993808
 20
-3.556257918690876
 30
0.0
 10
9.407359658390144
 20
-3.58604119042363
 30
0.0
 10
9.495159040620512
 20
-3.595437506423242
 30
0.0
  0
SPLINE
  5
184
330
1F
100
AcDbEntity
  8
외형선
  6
Continuous
370
    15
100
AcDbSpline
210
0.0
220
0.0
230
1.0
 70
     8
 71
     3
 72
    10
 73
     6
 74
     0
 42
0.000000001
 43
0.00000001
 40
0.0
 40
0.0
 40
0.0
 40
0.0
 40
0.5
 40
0.5
 40
1.0
 40
1.0
 40
1.0
 40
1.0
 10
9.495159040620518
 20
-3.595437506423246
 30
0.0
 10
9.532329559715778
 20
-3.599415506432087
 30
0.0
 10
9.574840754848806
 20
-3.614396611760937
 30
0.0
 10
9.662509301912865
 20
-3.662507966792147
 30
0.0
 10
9.708504803422633
 20
-3.696148903026729
 30
0.0
 10
9.750523079250437
 20
-3.739583754781965
 30
0.0
  0
SPLINE
  5
185
330
1F
100
AcDbEntity
  8
외형선
  6
Continuous
370
    15
100
AcDbSpline
210
0.0
220
0.0
230
1.0
 70
     8
 71
     3
 72
     8
 73
     4
 74
     0
 42
0.000000001
 43
0.00000001
 40
0.0
 40
0.0
 40
0.0
 40
0.0
 40
1.0
 40
1.0
 40
1.0
 40
1.0
 10
9.750523079250453
 20
-3.739583754781986
 30
0.0
 10
9.788566874001056
 20
-3.77891013247466
 30
0.0
 10
9.82680858619998
 20
-3.815814892664856
 30
0.0
 10
9.865388713211683
 20
-3.850559887952069
 30
0.0
  0
SPLINE
  5
186
330
1F
100
AcDbEntity
  8
외형선
  6
Continuous
370
    15
100
AcDbSpline
210
0.0
220
0.0
230
1.0
 70
     8
 71
     3
 72
     8
 73
     4
 74
     0
 42
0.000000001
 43
0.00000001
 40
0.0
 40
0.0
 40
0.0
 40
0.0
 40
1.0
 40
1.0
 40
1.0
 40
1.0
 10
9.865388713211647
 20
-3.850559887952165
 30
0.0
 10
9.910176149951678
 20
-3.871148595588172
 30
0.0
 10
9.955046232685508
 20
-3.891154870163281
 30
0.0
 10
10.00000000000001
 20
-3.910579922550537
 30
0.0
  0
SPLINE
  5
187
330
1F
100
AcDbEntity
  8
외형선
  6
Continuous
 62
     1
370
    15
100
AcDbSpline
210
0.0
220
0.0
230
1.0
 70
     8
 71
     3
 72
    10
 73
     6
 74
     0
 42
0.000000001
 43
0.00000001
 40
0.0
 40
0.0
 40
0.0
 40
0.0
 40
0.5
 40
0.5
 40
1.0
 40
1.0
 40
1.0
 40
1.0
 10
10.00000000000007
 20
-3.961893152867419
 30
0.0
 10
10.13054175156928
 20
-4.060393827236335
 30
0.0
 10
10.26388701685866
 20
-4.133136485319059
 30
0.0
 10
10.51757246385548
 20
-4.215150841549435
 30
0.0
 10
10.64159808775511
 20
-4.225947161397178
 30
0.0
 10
10.75349218097902
 20
-4.201540249946884
 30
0.0
  0
SPLINE
  5
188
330
1F
100
AcDbEntity
  8
외형선
  6
Continuous
 62
     1
370
    15
100
AcDbSpline
210
0.0
220
0.0
230
1.0
 70
     8
 71
     3
 72
    10
 73
     6
 74
     0
 42
0.000000001
 43
0.00000001
 40
0.0
 40
0.0
 40
0.0
 40
0.0
 40
0.5
 40
0.5
 40
1.0
 40
1.0
 40
1.0
 40
1.0
 10
10.75349218097902
 20
-4.201540249946895
 30
0.0
 10
10.79092070547091
 20
-4.193376148905739
 30
0.0
 10
10.83360431355748
 20
-4.197255336695958
 30
0.0
 10
10.92147030879793
 20
-4.227026051414566
 30
0.0
 10
10.96751574867594
 20
-4.253285532734231
 30
0.0
 10
11.00934261241383
 20
-4.29273768375008
 30
0.0
  0
SPLINE
  5
189
330
1F
100
AcDbEntity
  8
외형선
  6
Continuous
 62
     1
370
    15
100
AcDbSpline
210
0.0
220
0.0
230
1.0
 70
     8
 71
     3
 72
     8
 73
     4
 74
     0
 42
0.000000001
 43
0.00000001
 40
0.0
 40
0.0
 40
0.0
 40
0.0
 40
1.0
 40
1.0
 40
1.0
 40
1.0
 10
11.00934261241307
 20
-4.292737683749245
 30
0.0
 10
11.13826613823625
 20
-4.414341599408565
 30
0.0
 10
11.27421852485842
 20
-4.501896777103894
 30
0.0
 10
11.41004323771579
 20
-4.554359919208474
 30
0.0
  0
SPLINE
  5
18A
330
1F
100
AcDbEntity
  8
외형선
  6
Continuous
 62
     1
370
    15
100
AcDbSpline
210
0.0
220
0.0
230
1.0
 70
     8
 71
     3
 72
     8
 73
     4
 74
     0
 42
0.000000001
 43
0.00000001
 40
0.0
 40
0.0
 40
0.0
 40
0.0
 40
1.0
 40
1.0
 40
1.0
 40
1.0
 10
11.4100431973259
 20
-4.554359913308419
 30
0.0
 10
11.5499969585904
 20
-4.57480386044215
 30
0.0
 10
11.68558412454323
 20
-4.555402854155568
 30
0.0
 10
11.80628604181782
 20
-4.494213030263385
 30
0.0
  0
SPLINE
  5
18B
330
1F
100
AcDbEntity
  8
외형선
  6
Continuous
 62
     1
370
    15
100
AcDbSpline
210
0.0
220
0.0
230
1.0
 70
     8
 71
     3
 72
    10
 73
     6
 74
     0
 42
0.000000001
 43
0.00000001
 40
0.0
 40
0.0
 40
0.0
 40
0.0
 40
0.5
 40
0.5
 40
1.0
 40
1.0
 40
1.0
 40
1.0
 10
11.80628604181781
 20
-4.49421303026339
 30
0.0
 10
11.84341480769977
 20
-4.47539060642001
 30
0.0
 10
11.88590570968255
 20
-4.468986275182818
 30
0.0
 10
11.9736128213014
 20
-4.480356725630471
 30
0.0
 10
12.01966254078411
 20
-4.498337588911833
 30
0.0
 10
12.06163257612255
 20
-4.531635294608312
 30
0.0
  0
SPLINE
  5
18C
330
1F
100
AcDbEntity
  8
외형선
  6
Continuous
 62
     1
370
    15
100
AcDbSpline
210
0.0
220
0.0
230
1.0
 70
     8
 71
     3
 72
     9
 73
     5
 74
     0
 42
0.000000001
 43
0.00000001
 40
0.0
 40
0.0
 40
0.0
 40
0.0
 40
0.5789518539654377
 40
0.9999999999999999
 40
0.9999999999999999
 40
0.9999999999999999
 40
0.9999999999999999
 10
12.06163257612257
 20
-4.53163529460832
 30
0.0
 10
12.15563512529953
 20
-4.59400221445967
 30
0.0
 10
12.3180019068084
 20
-4.701726059584579
 30
0.0
 10
12.48308836961792
 20
-4.719960306174432
 30
0.0
 10
12.55259771871927
 20
-4.727637801895428
 30
0.0
  0
SPLINE
  5
18D
330
1F
100
AcDbEntity
  8
외형선
  6
Continuous
 62
     1
370
    15
100
AcDbSpline
210
0.0
220
0.0
230
1.0
 70
     8
 71
     3
 72
     9
 73
     5
 74
     0
 42
0.000000001
 43
0.00000001
 40
0.0
 40
0.0
 40
0.0
 40
0.0
 40
0.2527048069073669
 40
1.0
 40
1.0
 40
1.0
 40
1.0
 10
25.17702891669081
 20
4.010744110812955
 30
0.0
 10
25.18489844917501
 20
4.0165528956887
 30
0.0
 10
25.21603965531393
 20
4.039539339622367
 30
0.0
 10
25.24726344521404
 20
4.059155090616496
 30
0.0
 10
25.27059683331652
 20
4.073813847043311
 30
0.0
  0
SPLINE
  5
18E
330
1F
100
AcDbEntity
  8
외형선
  6
Continuous
 62
     1
370
    15
100
AcDbSpline
210
0.0
220
0.0
230
1.0
 70
     8
 71
     3
 72
     8
 73
     4
 74
     0
 42
0.000000001
 43
0.00000001
 40
0.0
 40
0.0
 40
0.0
 40
0.0
 40
1.0
 40
1.0
 40
1.0
 40
1.0
 10
25.27059679288253
 20
4.073813830166689
 30
0.0
 10
25.41085192365106
 20
4.132402036539762
 30
0.0
 10
25.54671078362097
 20
4.155201748953832
 30
0.0
 10
25.66776648619469
 20
4.137096536177051
 30
0.0
  0
SPLINE
  5
18F
330
1F
100
AcDbEntity
  8
외형선
  6
Continuous
 62
     1
370
    15
100
AcDbSpline
210
0.0
220
0.0
230
1.0
 70
     8
 71
     3
 72
    10
 73
     6
 74
     0
 42
0.000000001
 43
0.00000001
 40
0.0
 40
0.0
 40
0.0
 40
0.0
 40
0.5000000000000006
 40
0.5000000000000006
 40
1.0
 40
1.0
 40
1.0
 40
1.0
 10
25.66776648619468
 20
4.137096536177048
 30
0.0
 10
25.70504824520926
 20
4.131520638757094
 30
0.0
 10
25.74768951956572
 20
4.137834964870092
 30
0.0
 10
25.83566691140609
 20
4.171622656145848
 30
0.0
 10
25.88185843300855
 20
4.199506009159039
 30
0.0
 10
25.92397590775105
 20
4.239850885788641
 30
0.0
  0
SPLINE
  5
190
330
1F
100
AcDbEntity
  8
외형선
  6
Continuous
 62
     1
370
    15
100
AcDbSpline
210
0.0
220
0.0
230
1.0
 70
     8
 71
     3
 72
    14
 73
    10
 74
     0
 42
0.000000001
 43
0.00000001
 40
0.0
 40
0.0
 40
0.0
 40
0.0
 40
0.25
 40
0.25
 40
0.5
 40
0.5
 40
0.75
 40
0.75
 40
1.0
 40
1.0
 40
1.0
 40
1.0
 10
25.92397590775106
 20
4.239850885788649
 30
0.0
 10
26.00744058067694
 20
4.319802781117429
 30
0.0
 10
26.09169722680377
 20
4.385154468748561
 30
0.0
 10
26.26452777747398
 20
4.491667310901569
 30
0.0
 10
26.35137574989059
 20
4.53139605495504
 30
0.0
 10
26.52397914470446
 20
4.582259445054363
 30
0.0
 10
26.60766668528954
 20
4.593063218417781
 30
0.0
 10
26.7713151938553
 20
4.585515809353786
 30
0.0
 10
26.85140588350432
 20
4.56666666747941
 30
0.0
 10
26.92560253310019
 20
4.532156882943844
 30
0.0
  0
SPLINE
  5
191
330
1F
100
AcDbEntity
  8
외형선
  6
Continuous
 62
     1
370
    15
100
AcDbSpline
210
0.0
220
0.0
230
1.0
 70
     8
 71
     3
 72
    10
 73
     6
 74
     0
 42
0.000000001
 43
0.00000001
 40
0.0
 40
0.0
 40
0.0
 40
0.0
 40
0.5
 40
0.5
 40
1.0
 40
1.0
 40
1.0
 40
1.0
 10
26.92560253310019
 20
4.532156882943841
 30
0.0
 10
26.9629060627062
 20
4.514806547367622
 30
0.0
 10
27.00548884899974
 20
4.509806982485167
 30
0.0
 10
27.09323463831876
 20
4.523834875158109
 30
0.0
 10
27.13924487405909
 20
4.543093678824551
 30
0.0
 10
27.18102134381458
 20
4.577502616572812
 30
0.0
  0
SPLINE
  5
192
330
1F
100
AcDbEntity
  8
외형선
  6
Continuous
 62
     1
370
    15
100
AcDbSpline
210
0.0
220
0.0
230
1.0
 70
     8
 71
     3
 72
     8
 73
     4
 74
     0
 42
0.000000001
 43
0.00000001
 40
0.0
 40
0.0
 40
0.0
 40
0.0
 40
1.0
 40
1.0
 40
1.0
 40
1.0
 10
27.18102134381461
 20
4.57750261657282
 30
0.0
 10
27.31006237872136
 20
4.683786487925884
 30
0.0
 10
27.44614733994218
 20
4.748907980640815
 30
0.0
 10
27.58137270958211
 20
4.776870062045376
 30
0.0
  0
SPLINE
  5
193
330
1F
100
AcDbEntity
  8
외형선
  6
Continuous
 62
     1
370
    15
100
AcDbSpline
210
0.0
220
0.0
230
1.0
 70
     8
 71
     3
 72
     8
 73
     4
 74
     0
 42
0.000000001
 43
0.00000001
 40
0.0
 40
0.0
 40
0.0
 40
0.0
 40
1.0
 40
1.0
 40
1.0
 40
1.0
 10
27.58137266923292
 20
4.776870064053579
 30
0.0
 10
27.72129185804847
 20
4.769906190259319
 30
0.0
 10
27.85659068954469
 20
4.722114415114268
 30
0.0
 10
27.97746686898217
 20
4.633727289607251
 30
0.0
  0
SPLINE
  5
194
330
1F
100
AcDbEntity
  8
외형선
  6
Continuous
 62
     1
370
    15
100
AcDbSpline
210
0.0
220
0.0
230
1.0
 70
     8
 71
     3
 72
    10
 73
     6
 74
     0
 42
0.000000001
 43
0.00000001
 40
0.0
 40
0.0
 40
0.0
 40
0.0
 40
0.5
 40
0.5
 40
1.0
 40
1.0
 40
1.0
 40
1.0
 10
27.97746686898217
 20
4.633727289607249
 30
0.0
 10
28.01460722202705
 20
4.606569506649269
 30
0.0
 10
28.05711781281847
 20
4.591617710710417
 30
0.0
 10
28.14490667154965
 20
4.586829390220833
 30
0.0
 10
28.19103104128002
 20
4.597052695785668
 30
0.0
 10
28.23309376097143
 20
4.623949604792783
 30
0.0
  0
SPLINE
  5
195
330
1F
100
AcDbEntity
  8
외형선
  6
Continuous
 62
     1
370
    15
100
AcDbSpline
210
0.0
220
0.0
230
1.0
 70
     8
 71
     3
 72
    10
 73
     6
 74
     0
 42
0.000000001
 43
0.00000001
 40
0.0
 40
0.0
 40
0.0
 40
0.0
 40
0.5
 40
0.5
 40
1.0
 40
1.0
 40
1.0
 40
1.0
 10
28.23309376097144
 20
4.623949604792784
 30
0.0
 10
28.29844036309233
 20
4.665735338669823
 30
0.0
 10
28.36433954775565
 20
4.694870505151097
 30
0.0
 10
28.49857896513168
 20
4.733114295848231
 30
0.0
 10
28.56722837045416
 20
4.74190765454287
 30
0.0
 10
28.6350722535201
 20
4.740946330373291
 30
0.0
  0
SPLINE
  5
196
330
1F
100
AcDbEntity
  8
외형선
  6
Continuous
 62
     1
370
    15
100
AcDbSpline
210
0.0
220
0.0
230
1.0
 70
     8
 71
     3
 72
    16
 73
    12
 74
     0
 42
0.000000001
 43
0.00000001
 40
0.0
 40
0.0
 40
0.0
 40
0.0
 40
0.5000000000000013
 40
0.5000000000000013
 40
0.625000000000001
 40
0.625000000000001
 40
0.7500000000000007
 40
0.7500000000000007
 40
0.8750000000000003
 40
0.8750000000000003
 40
1.0
 40
1.0
 40
1.0
 40
1.0
 10
28.63507225352009
 20
4.740946330373291
 30
0.0
 10
28.6334985214783
 20
4.334700934123981
 30
0.0
 10
28.5949595817115
 20
3.926493884441355
 30
0.0
 10
28.4716951579631
 20
3.456898906957068
 30
0.0
 10
28.44317634257259
 20
3.364875890932292
 30
0.0
 10
28.37669231941072
 20
3.185462680240196
 30
0.0
 10
28.33849973816653
 20
3.097873423902854
 30
0.0
 10
28.25359870025254
 20
2.934750538732945
 30
0.0
 10
28.2066560551214
 20
2.858418587696555
 30
0.0
 10
28.10229887169125
 20
2.717945500107229
 30
0.0
 10
28.04519776823919
 20
2.654571056183763
 30
0.0
 10
27.98495880639394
 20
2.600765623810253
 30
0.0
  0
SPLINE
  5
197
330
1F
100
AcDbEntity
  8
외형선
  6
Continuous
 62
     1
370
    15
100
AcDbSpline
210
0.0
220
0.0
230
1.0
 70
     8
 71
     3
 72
     8
 73
     4
 74
     0
 42
0.000000001
 43
0.00000001
 40
0.0
 40
0.0
 40
0.0
 40
0.0
 40
1.0
 40
1.0
 40
1.0
 40
1.0
 10
29.05000000000001
 20
1.934032559184917
 30
0.0
 10
28.69024789161138
 20
2.19209838407544
 30
0.0
 10
28.33533597043893
 20
2.413573069340409
 30
0.0
 10
27.98495880639393
 20
2.600765623810302
 30
0.0
  0
LINE
  5
198
330
1F
100
AcDbEntity
  8
외형선
  6
Continuous
 62
     1
370
    15
100
AcDbLine
 10
29.05000000000001
 20
1.088374028470335
 30
0.0
 11
29.05000000000001
 21
1.934032559184918
 31
0.0
  0
SPLINE
  5
199
330
1F
100
AcDbEntity
  8
외형선
  6
Continuous
 62
     1
370
    15
100
AcDbSpline
210
0.0
220
0.0
230
1.0
 70
     8
 71
     3
 72
     8
 73
     4
 74
     0
 42
0.000000001
 43
0.00000001
 40
0.0
 40
0.0
 40
0.0
 40
0.0
 40
1.0
 40
1.0
 40
1.0
 40
1.0
 10
29.0342533403363
 20
1.089174594636974
 30
0.0
 10
29.03949500590622
 20
1.084181388820889
 30
0.0
 10
29.04474384517798
 20
1.079208650435356
 30
0.0
 10
29.05000000000001
 20
1.074256561082132
 30
0.0
  0
SPLINE
  5
19A
330
1F
100
AcDbEntity
  8
외형선
  6
Continuous
 62
     1
370
    15
100
AcDbSpline
210
0.0
220
0.0
230
1.0
 70
     8
 71
     3
 72
    10
 73
     6
 74
     0
 42
0.000000001
 43
0.00000001
 40
0.0
 40
0.0
 40
0.0
 40
0.0
 40
0.5
 40
0.5
 40
1.0
 40
1.0
 40
1.0
 40
1.0
 10
27.82493677862503
 20
2.162507525306475
 30
0.0
 10
27.78761410696646
 20
2.186462964788962
 30
0.0
 10
27.7450399041584
 20
2.217932494193291
 30
0.0
 10
27.6574029505236
 20
2.290116431579509
 30
0.0
 10
27.61146560537349
 20
2.331533171114302
 30
0.0
 10
27.56966650897362
 20
2.375816686972264
 30
0.0
  0
SPLINE
  5
19B
330
1F
100
AcDbEntity
  8
외형선
  6
Continuous
 62
     1
370
    15
100
AcDbSpline
210
0.0
220
0.0
230
1.0
 70
     8
 71
     3
 72
    10
 73
     6
 74
     0
 42
0.000000001
 43
0.00000001
 40
0.0
 40
0.0
 40
0.0
 40
0.0
 40
0.5
 40
0.5
 40
1.0
 40
1.0
 40
1.0
 40
1.0
 10
26.77233190723262
 20
2.992144926641491
 30
0.0
 10
26.73507399001585
 20
3.005996227361895
 30
0.0
 10
26.69245458253151
 20
3.029378560202902
 30
0.0
 10
26.60453047958578
 20
3.090269251988157
 30
0.0
 10
26.55838212598127
 20
3.128399461108442
 30
0.0
 10
26.51629758507767
 20
3.173182776965442
 30
0.0
  0
SPLINE
  5
19C
330
1F
100
AcDbEntity
  8
외형선
  6
Continuous
 62
     1
370
    15
100
AcDbSpline
210
0.0
220
0.0
230
1.0
 70
     8
 71
     3
 72
    14
 73
    10
 74
     0
 42
0.000000001
 43
0.00000001
 40
0.0
 40
0.0
 40
0.0
 40
0.0
 40
0.25
 40
0.25
 40
0.5
 40
0.5
 40
0.75
 40
0.75
 40
1.0
 40
1.0
 40
1.0
 40
1.0
 10
26.51629758507767
 20
3.173182776965443
 30
0.0
 10
26.43283907335076
 20
3.26199327154072
 30
0.0
 10
26.34866786828396
 20
3.34369490126403
 30
0.0
 10
26.17594760144818
 20
3.493424231387902
 30
0.0
 10
26.088807736734
 20
3.559647688945794
 30
0.0
 10
25.91588860067442
 20
3.670151188786202
 30
0.0
 10
25.83207918295108
 20
3.713358879479101
 30
0.0
 10
25.66824238424956
 20
3.775210602799365
 30
0.0
 10
25.58808593067475
 20
3.793509759540576
 30
0.0
 10
25.51384385312681
 20
3.797016078976058
 30
0.0
  0
SPLINE
  5
19D
330
1F
100
AcDbEntity
  8
외형선
  6
Continuous
 62
     1
370
    15
100
AcDbSpline
210
0.0
220
0.0
230
1.0
 70
     8
 71
     3
 72
    10
 73
     6
 74
     0
 42
0.000000001
 43
0.00000001
 40
0.0
 40
0.0
 40
0.0
 40
0.0
 40
0.5
 40
0.5
 40
1.0
 40
1.0
 40
1.0
 40
1.0
 10
25.51384385312681
 20
3.797016078976056
 30
0.0
 10
25.47651761167748
 20
3.798778930046093
 30
0.0
 10
25.43391692007786
 20
3.81170050087849
 30
0.0
 10
25.34615398739736
 20
3.856537463544413
 30
0.0
 10
25.30014312366899
 20
3.888951841516762
 30
0.0
 10
25.25836569278627
 20
3.931877550191349
 30
0.0
  0
SPLINE
  5
19E
330
1F
100
AcDbEntity
  8
외형선
  6
Continuous
 62
     1
370
    15
100
AcDbSpline
210
0.0
220
0.0
230
1.0
 70
     8
 71
     3
 72
     8
 73
     4
 74
     0
 42
0.000000001
 43
0.00000001
 40
0.0
 40
0.0
 40
0.0
 40
0.0
 40
1.0
 40
1.0
 40
1.0
 40
1.0
 10
25.25836569278628
 20
3.931877550191342
 30
0.0
 10
25.12927187416878
 20
4.064519589986018
 30
0.0
 10
24.99334435350679
 20
4.172009117245526
 30
0.0
 10
24.85807925341936
 20
4.248434234069565
 30
0.0
  0
SPLINE
  5
19F
330
1F
100
AcDbEntity
  8
외형선
  6
Continuous
 62
     1
370
    15
100
AcDbSpline
210
0.0
220
0.0
230
1.0
 70
     8
 71
     3
 72
     8
 73
     4
 74
     0
 42
0.000000001
 43
0.00000001
 40
0.0
 40
0.0
 40
0.0
 40
0.0
 40
1.0
 40
1.0
 40
1.0
 40
1.0
 10
24.85807925350844
 20
4.248434234038168
 30
0.0
 10
24.71840245461424
 20
4.297563064849444
 30
0.0
 10
24.58285602762776
 20
4.30946158134198
 30
0.0
 10
24.4620528985001
 20
4.27963461307704
 30
0.0
  0
SPLINE
  5
1A0
330
1F
100
AcDbEntity
  8
외형선
  6
Continuous
 62
     1
370
    15
100
AcDbSpline
210
0.0
220
0.0
230
1.0
 70
     8
 71
     3
 72
    10
 73
     6
 74
     0
 42
0.000000001
 43
0.00000001
 40
0.0
 40
0.0
 40
0.0
 40
0.0
 40
0.5
 40
0.5
 40
1.0
 40
1.0
 40
1.0
 40
1.0
 10
24.4620528985001
 20
4.279634613077041
 30
0.0
 10
24.42492723981179
 20
4.270468080293429
 30
0.0
 10
24.3824316854813
 20
4.273400361025088
 30
0.0
 10
24.29468081219977
 20
4.301406338143574
 30
0.0
 10
24.24858593610596
 20
4.326832591319635
 30
0.0
 10
24.20656175328155
 20
4.365552759182212
 30
0.0
  0
SPLINE
  5
1A1
330
1F
100
AcDbEntity
  8
외형선
  6
Continuous
 62
     1
370
    15
100
AcDbSpline
210
0.0
220
0.0
230
1.0
 70
     8
 71
     3
 72
    14
 73
    10
 74
     0
 42
0.000000001
 43
0.00000001
 40
0.0
 40
0.0
 40
0.0
 40
0.0
 40
0.25
 40
0.25
 40
0.5
 40
0.5
 40
0.75
 40
0.75
 40
1.0
 40
1.0
 40
1.0
 40
1.0
 10
24.20656175328155
 20
4.365552759182211
 30
0.0
 10
24.122967144504
 20
4.44257501319719
 30
0.0
 10
24.03848205807273
 20
4.503765850590631
 30
0.0
 10
23.86496740909034
 20
4.600208148320736
 30
0.0
 10
23.77764519089973
 20
4.63404643178989
 30
0.0
 10
23.60489976965579
 20
4.672510347037354
 30
0.0
 10
23.52146146674682
 20
4.677015376245421
 30
0.0
 10
23.35810350608508
 20
4.656717475027882
 30
0.0
 10
23.27808300114112
 20
4.631385611886753
 30
0.0
 10
23.20385384506419
 20
4.590482451201242
 30
0.0
  0
SPLINE
  5
1A2
330
1F
100
AcDbEntity
  8
외형선
  6
Continuous
 62
     1
370
    15
100
AcDbSpline
210
0.0
220
0.0
230
1.0
 70
     8
 71
     3
 72
    10
 73
     6
 74
     0
 42
0.000000001
 43
0.00000001
 40
0.0
 40
0.0
 40
0.0
 40
0.0
 40
0.5
 40
0.5
 40
1.0
 40
1.0
 40
1.0
 40
1.0
 10
23.2038538450642
 20
4.59048245120125
 30
0.0
 10
23.16647280473512
 20
4.569884039741644
 30
0.0
 10
23.12381768370338
 20
4.561609762475717
 30
0.0
 10
23.03590786904021
 20
4.569574551563385
 30
0.0
 10
22.98978095274324
 20
4.585990870232532
 30
0.0
 10
22.94787416678899
 20
4.618230843399809
 30
0.0
  0
SPLINE
  5
1A3
330
1F
100
AcDbEntity
  8
외형선
  6
Continuous
 62
     1
370
    15
100
AcDbSpline
210
0.0
220
0.0
230
1.0
 70
     8
 71
     3
 72
     8
 73
     4
 74
     0
 42
0.000000001
 43
0.00000001
 40
0.0
 40
0.0
 40
0.0
 40
0.0
 40
1.0
 40
1.0
 40
1.0
 40
1.0
 10
22.947874166789
 20
4.618230843399804
 30
0.0
 10
22.81879619792686
 20
4.717533859793011
 30
0.0
 10
22.68255509961144
 20
4.773585356087096
 30
0.0
 10
22.54694239789172
 20
4.791949031804561
 30
0.0
  0
LINE
  5
1A4
330
1F
100
AcDbEntity
  8
외형선
  6
Continuous
370
    15
100
AcDbLine
 10
10.0369808955131
 20
-3.972182233877989
 30
0.0
 11
9.999999999999924
 21
-3.997881059770486
 31
0.0
  0
SPLINE
  5
1A5
330
1F
100
AcDbEntity
  8
외형선
  6
Continuous
370
    15
100
AcDbSpline
210
0.0
220
0.0
230
1.0
 70
     8
 71
     3
 72
     8
 73
     4
 74
     0
 42
0.000000001
 43
0.00000001
 40
0.0
 40
0.0
 40
0.0
 40
0.0
 40
1.0
 40
1.0
 40
1.0
 40
1.0
 10
10.00000000000001
 20
-3.928408173667151
 30
0.0
 10
9.843931658861802
 20
-4.019852249918284
 30
0.0
 10
9.689317573336595
 20
-4.106068135486955
 30
0.0
 10
9.534852779466345
 20
-4.186402001591125
 30
0.0
  0
SPLINE
  5
1A6
330
1F
100
AcDbEntity
  8
외형선
  6
Continuous
370
    15
100
AcDbSpline
210
0.0
220
0.0
230
1.0
 70
     8
 71
     3
 72
     8
 73
     4
 74
     0
 42
0.000000001
 43
0.00000001
 40
0.0
 40
0.0
 40
0.0
 40
0.0
 40
1.0
 40
1.0
 40
1.0
 40
1.0
 10
9.534852779466311
 20
-4.18640200159112
 30
0.0
 10
9.46837599680716
 20
-4.194177819177536
 30
0.0
 10
9.403616566500675
 20
-4.192161552099734
 30
0.0
 10
9.342733920552053
 20
-4.179697507533252
 30
0.0
  0
SPLINE
  5
1A7
330
1F
100
AcDbEntity
  8
외형선
  6
Continuous
370
    15
100
AcDbSpline
210
0.0
220
0.0
230
1.0
 70
     8
 71
     3
 72
    10
 73
     6
 74
     0
 42
0.000000001
 43
0.00000001
 40
0.0
 40
0.0
 40
0.0
 40
0.0
 40
0.5
 40
0.5
 40
1.0
 40
1.0
 40
1.0
 40
1.0
 10
9.342733920552073
 20
-4.17969750753326
 30
0.0
 10
9.305446644453093
 20
-4.17206396493965
 30
0.0
 10
9.26287458732211
 20
-4.176392817537757
 30
0.0
 10
9.175117486931525
 20
-4.20690079533601
 30
0.0
 10
9.12907798378253
 20
-4.233458458630575
 30
0.0
 10
9.08725887788072
 20
-4.273051882463463
 30
0.0
  0
SPLINE
  5
1A8
330
1F
100
AcDbEntity
  8
외형선
  6
Continuous
370
    15
100
AcDbSpline
210
0.0
220
0.0
230
1.0
 70
     8
 71
     3
 72
     8
 73
     4
 74
     0
 42
0.000000001
 43
0.00000001
 40
0.0
 40
0.0
 40
0.0
 40
0.0
 40
1.0
 40
1.0
 40
1.0
 40
1.0
 10
9.087258877880735
 20
-4.27305188246345
 30
0.0
 10
8.958225557290847
 20
-4.395217836051166
 30
0.0
 10
8.8220030660406
 20
-4.483781138936271
 30
0.0
 10
8.686431944073533
 20
-4.537635611958551
 30
0.0
  0
LINE
  5
1A9
330
1F
100
AcDbEntity
  8
외형선
  6
Continuous
 62
     1
370
    15
100
AcDbLine
 10
29.05000000000001
 20
-0.2085962702795375
 30
0.0
 11
29.05000000000001
 21
1.074256561082132
 31
0.0
  0
SPLINE
  5
1AA
330
1F
100
AcDbEntity
  8
외형선
  6
Continuous
 62
     1
370
    15
100
AcDbSpline
210
0.0
220
0.0
230
1.0
 70
    24
 71
     3
 72
     8
 73
     4
 74
     0
 42
0.000000001
 43
0.00000001
 40
0.0002416145475071
 40
0.0002416145475071
 40
0.0002416145475071
 40
0.0002416145475071
 40
0.0003388694197335
 40
0.0003388694197335
 40
0.0003388694197335
 40
0.0003388694197335
 10
28.99279215832345
 20
-0.2658041119560902
 30
0.0
 10
29.01189581430353
 20
-0.2467004559760158
 30
0.0
 10
29.03096551765232
 20
-0.2276307526272233
 30
0.0
 10
29.05000000000001
 20
-0.2085962702795385
 30
0.0
  0
SPLINE
  5
1AB
330
1F
100
AcDbEntity
  8
외형선
  6
Continuous
 62
     1
370
    15
100
AcDbSpline
210
0.0
220
0.0
230
1.0
 70
     8
 71
     3
 72
     8
 73
     4
 74
     0
 42
0.000000001
 43
0.00000001
 40
0.0
 40
0.0
 40
0.0
 40
0.0
 40
1.0
 40
1.0
 40
1.0
 40
1.0
 10
29.00815352975595
 20
0.1892050655534178
 30
0.0
 10
29.00296425978059
 20
0.037566088021248
 30
0.0
 10
28.99784216888916
 20
-0.1141036180031729
 30
0.0
 10
28.99279215832297
 20
-0.2658041119555227
 30
0.0
  0
SPLINE
  5
1AC
330
1F
100
AcDbEntity
  8
외형선
  6
Continuous
 62
     1
370
    15
100
AcDbSpline
210
0.0
220
0.0
230
1.0
 70
    24
 71
     3
 72
     8
 73
     4
 74
     0
 42
0.000000001
 43
0.00000001
 40
0.0000875556490647
 40
0.0000875556490647
 40
0.0000875556490647
 40
0.0000875556490647
 40
0.0001286617243574
 40
0.0001286617243574
 40
0.0001286617243574
 40
0.0001286617243574
 10
28.99279215832398
 20
-0.2658041119555536
 30
0.0
 10
28.9839360447259
 20
-0.274660225553631
 30
0.0
 10
28.97512752634212
 20
-0.283468743937509
 30
0.0
 10
28.96637123610239
 20
-0.2922250341772417
 30
0.0
  0
SPLINE
  5
1AD
330
1F
100
AcDbEntity
  8
외형선
  6
Continuous
 62
     1
370
    15
100
AcDbSpline
210
0.0
220
0.0
230
1.0
 70
     8
 71
     3
 72
    10
 73
     6
 74
     0
 42
0.000000001
 43
0.00000001
 40
0.0
 40
0.0
 40
0.0
 40
0.0
 40
0.5
 40
0.5
 40
1.0
 40
1.0
 40
1.0
 40
1.0
 10
24.27972391083995
 20
-1.662052630665227
 30
0.0
 10
24.2523068827124
 20
-1.969246779401807
 30
0.0
 10
24.22654551841818
 20
-2.258419349354683
 30
0.0
 10
24.17251278968479
 20
-2.809631766523579
 30
0.0
 10
24.14449247210588
 20
-3.070297571413741
 30
0.0
 10
24.11634596869806
 20
-3.306857450512153
 30
0.0
  0
SPLINE
  5
1AE
330
1F
100
AcDbEntity
  8
외형선
  6
Continuous
 62
     1
370
    15
100
AcDbSpline
210
0.0
220
0.0
230
1.0
 70
     8
 71
     3
 72
    10
 73
     6
 74
     0
 42
0.000000001
 43
0.00000001
 40
0.0
 40
0.0
 40
0.0
 40
0.0
 40
0.5
 40
0.5
 40
1.0
 40
1.0
 40
1.0
 40
1.0
 10
16.77112756133579
 20
-1.758172567897482
 30
0.0
 10
16.74392111987427
 20
-2.061751921613424
 30
0.0
 10
16.71827590012163
 20
-2.347154587163065
 30
0.0
 10
16.66391197348234
 20
-2.891388548330572
 30
0.0
 10
16.63581373120266
 20
-3.147555803754823
 30
0.0
 10
16.60768540879564
 20
-3.378860253683149
 30
0.0
  0
SPLINE
  5
1B0
330
1F
100
AcDbEntity
  8
외형선
  6
Continuous
370
    15
100
AcDbSpline
210
0.0
220
0.0
230
1.0
 70
    24
 71
     3
 72
    10
 73
     6
 74
     0
 42
0.000000001
 43
0.00000001
 40
0.0
 40
0.0
 40
0.0
 40
0.0
 40
0.5
 40
0.5
 40
1.0
 40
1.0
 40
1.0
 40
1.0
 10
10.00000000000001
 20
-3.961893152867345
 30
0.0
 10
10.00000000000001
 20
-3.771910097395099
 30
0.0
 10
10.00000000000001
 20
-3.553362880649229
 30
0.0
 10
10.00000000000001
 20
-3.06035367640046
 30
0.0
 10
10.00000000000001
 20
-2.783979877929382
 30
0.0
 10
10.00000000000001
 20
-2.488058760267824
 30
0.0
  0
SPLINE
  5
1B2
330
1F
100
AcDbEntity
  8
외형선
  6
Continuous
370
    15
100
AcDbSpline
210
0.0
220
0.0
230
1.0
 70
     8
 71
     3
 72
     8
 73
     4
 74
     0
 42
0.000000001
 43
0.00000001
 40
0.0
 40
0.0
 40
0.0
 40
0.0
 40
0.0000807935509707
 40
0.0000807935509707
 40
0.0000807935509707
 40
0.0000807935509707
 10
10.00000000000048
 20
2.585565485960021
 30
0.0
 10
9.997103129637068
 20
2.563355529684191
 30
0.0
 10
9.994201494525775
 20
2.541016473781649
 30
0.0
 10
9.991295699247027
 20
2.518553244474929
 30
0.0
  0
SPLINE
  5
1B3
330
1F
100
AcDbEntity
  8
외형선
  6
Continuous
370
    15
100
AcDbSpline
210
0.0
220
0.0
230
1.0
 70
    24
 71
     3
 72
    10
 73
     6
 74
     0
 42
0.000000001
 43
0.00000001
 40
0.0
 40
0.0
 40
0.0
 40
0.0
 40
0.5
 40
0.5
 40
1.0
 40
1.0
 40
1.0
 40
1.0
 10
10.00000000000001
 20
2.585565485960848
 30
0.0
 10
10.00000000000001
 20
2.877559984570327
 30
0.0
 10
10.00000000000001
 20
3.148340461018245
 30
0.0
 10
10.00000000000001
 20
3.637524710815095
 30
0.0
 10
10.00000000000001
 20
3.853476259386148
 30
0.0
 10
10.00000000000001
 20
4.040596182495473
 30
0.0
  0
SPLINE
  5
1B4
330
1F
100
AcDbEntity
  8
외형선
  6
Continuous
 62
     1
370
    15
100
AcDbSpline
210
0.0
220
0.0
230
1.0
 70
     8
 71
     3
 72
    10
 73
     6
 74
     0
 42
0.000000001
 43
0.00000001
 40
0.0
 40
0.0
 40
0.0
 40
0.0
 40
0.5
 40
0.5
 40
1.0
 40
1.0
 40
1.0
 40
1.0
 10
17.34939990396974
 20
4.200055391113336
 30
0.0
 10
17.32125164292018
 20
4.040016837921202
 30
0.0
 10
17.29317817333037
 20
3.849529882602998
 30
0.0
 10
17.23894754394186
 20
3.421885928772307
 30
0.0
 10
17.21325882597143
 20
3.186758481074348
 30
0.0
 10
17.18594233207993
 20
2.92628342141656
 30
0.0
  0
SPLINE
  5
1B5
330
1F
100
AcDbEntity
  8
외형선
  6
Continuous
 62
     1
370
    15
100
AcDbSpline
210
0.0
220
0.0
230
1.0
 70
     8
 71
     3
 72
    10
 73
     6
 74
     0
 42
0.000000001
 43
0.00000001
 40
0.0
 40
0.0
 40
0.0
 40
0.0
 40
0.5
 40
0.5
 40
1.0
 40
1.0
 40
1.0
 40
1.0
 10
24.85807925341937
 20
4.248434234069562
 30
0.0
 10
24.82996036348287
 20
4.094835142562211
 30
0.0
 10
24.80182007418134
 20
3.910316615254795
 30
0.0
 10
24.74727801824756
 20
3.492951501409972
 30
0.0
 10
24.72162464312668
 20
3.262852991098196
 30
0.0
 10
24.69452946165206
 20
3.007663566166576
 30
0.0
  0
SPLINE
  5
1B6
330
1F
100
AcDbEntity
  8
외형선
  6
Continuous
 62
     1
370
    15
100
AcDbSpline
210
0.0
220
0.0
230
1.0
 70
     8
 71
     3
 72
    10
 73
     6
 74
     0
 42
0.000000001
 43
0.00000001
 40
0.0
 40
0.0
 40
0.0
 40
0.0
 40
0.5
 40
0.5
 40
1.0
 40
1.0
 40
1.0
 40
1.0
 10
26.59046997916801
 20
-3.517322559810023
 30
0.0
 10
26.56234076694654
 20
-3.738489283812746
 30
0.0
 10
26.53438526406512
 20
-3.933130423958517
 30
0.0
 10
26.48056389178566
 20
-4.259390974195451
 30
0.0
 10
26.4547075349701
 20
-4.391868960395752
 30
0.0
 10
26.4272134297149
 20
-4.494617533514753
 30
0.0
  0
SPLINE
  5
1B7
330
1F
100
AcDbEntity
  8
외형선
  6
Continuous
 62
     1
370
    15
100
AcDbSpline
210
0.0
220
0.0
230
1.0
 70
     8
 71
     3
 72
    12
 73
     8
 74
     0
 42
0.000000001
 43
0.00000001
 40
0.0
 40
0.0
 40
0.0
 40
0.0
 40
0.5
 40
0.5
 40
0.75
 40
0.75
 40
1.0
 40
1.0
 40
1.0
 40
1.0
 10
19.08194146205822
 20
-3.583614558156744
 30
0.0
 10
19.05383948198576
 20
-3.799531696076237
 30
0.0
 10
19.02600565828384
 20
-3.98820378251137
 30
0.0
 10
18.98594476881601
 20
-4.223478353053195
 30
0.0
 10
18.97301165790703
 20
-4.293857631366849
 30
0.0
 10
18.94624430314916
 20
-4.420806801389757
 30
0.0
 10
18.93258667350299
 20
-4.476976144833004
 30
0.0
 10
18.918758114245
 20
-4.525139225313335
 30
0.0
  0
SPLINE
  5
1B8
330
1F
100
AcDbEntity
  8
외형선
  6
Continuous
 62
     1
370
    15
100
AcDbSpline
210
0.0
220
0.0
230
1.0
 70
     8
 71
     3
 72
    10
 73
     6
 74
     0
 42
0.000000001
 43
0.00000001
 40
0.0
 40
0.0
 40
0.0
 40
0.0
 40
0.5000000000000002
 40
0.5000000000000002
 40
1.0
 40
1.0
 40
1.0
 40
1.0
 10
11.57317119023853
 20
-3.650189091384788
 30
0.0
 10
11.54512376655375
 20
-3.860499364649637
 30
0.0
 10
11.51744118650205
 20
-4.042876255177326
 30
0.0
 10
11.46449135527933
 20
-4.343470898758554
 30
0.0
 10
11.43784212422931
 20
-4.464750793140374
 30
0.0
 10
11.41004323771581
 20
-4.554359919208361
 30
0.0
  0
LINE
  5
1B9
330
1F
100
AcDbEntity
  8
외형선
  6
Continuous
 62
     1
370
    15
100
AcDbLine
 10
28.12496702555276
 20
-4.549867989973726
 30
0.0
 11
28.11134093558232
 21
-4.55633903653989
 31
0.0
  0
LINE
  5
1BA
330
1F
100
AcDbEntity
  8
외형선
  6
Continuous
 62
     1
370
    15
100
AcDbLine
 10
20.62074159706893
 20
-4.556061583362754
 30
0.0
 11
20.61083942722501
 21
-4.558356084732575
 31
0.0
  0
LINE
  5
1BB
330
1F
100
AcDbEntity
  8
외형선
  6
Continuous
 62
     1
370
    15
100
AcDbLine
 10
29.05000000000001
 20
-0.2085962702795216
 30
0.0
 11
29.05000000000001
 21
-2.113100099743977
 31
0.0
  0
LINE
  5
1BC
330
1F
100
AcDbEntity
  8
외형선
  6
Continuous
 62
     1
370
    15
100
AcDbLine
 10
13.11798815260421
 20
-4.562428059253055
 30
0.0
 11
13.11435126553197
 21
-4.562364301454236
 31
0.0
  0
SPLINE
  5
1BD
330
1F
100
AcDbEntity
  8
외형선
  6
Continuous
 62
     1
370
    15
100
AcDbSpline
210
0.0
220
0.0
230
1.0
 70
     8
 71
     3
 72
    12
 73
     8
 74
     0
 42
0.000000001
 43
0.00000001
 40
0.0
 40
0.0
 40
0.0
 40
0.0
 40
0.2500000000000001
 40
0.2500000000000001
 40
0.5000000000000002
 40
0.5000000000000002
 40
1.0
 40
1.0
 40
1.0
 40
1.0
 10
15.03848119172266
 20
4.790298040125773
 30
0.0
 10
15.02468935679086
 20
4.785859385755839
 30
0.0
 10
15.01107847297085
 20
4.772882416012622
 30
0.0
 10
14.98442225786307
 20
4.730625406077036
 30
0.0
 10
14.9714862416589
 20
4.701533157779282
 30
0.0
 10
14.93128442775433
 20
4.588828080167887
 30
0.0
 10
14.9033938383563
 20
4.479716830284654
 30
0.0
 10
14.87527820598598
 20
4.338579426918519
 30
0.0
  0
SPLINE
  5
1BE
330
1F
100
AcDbEntity
  8
외형선
  6
Continuous
 62
     1
370
    15
100
AcDbSpline
210
0.0
220
0.0
230
1.0
 70
     8
 71
     3
 72
    10
 73
     6
 74
     0
 42
0.000000001
 43
0.00000001
 40
0.0
 40
0.0
 40
0.0
 40
0.0
 40
0.5
 40
0.5
 40
1.0
 40
1.0
 40
1.0
 40
1.0
 10
22.5469423978925
 20
4.791949031804611
 30
0.0
 10
22.51920945502883
 20
4.790039924413184
 30
0.0
 10
22.49280423037821
 20
4.754162980468742
 30
0.0
 10
22.43963310417903
 20
4.617479808965717
 30
0.0
 10
22.41187799525132
 20
4.515184152224055
 30
0.0
 10
22.38380363966197
 20
4.380437823334027
 30
0.0
  0
LINE
  5
1BF
330
1F
100
AcDbEntity
  8
외형선
  6
Continuous
 62
     1
370
    15
100
AcDbLine
 10
22.09765005889081
 20
4.626953137439637
 30
0.0
 11
22.09402789494098
 21
4.622247105601166
 31
0.0
  0
LINE
  5
1C0
330
1F
100
AcDbEntity
  8
외형선
  6
Continuous
 62
     1
370
    15
100
AcDbLine
 10
28.3517370983868
 20
-4.561596723874029
 30
0.0
 11
28.33534356061092
 21
-4.559463540054616
 31
0.0
  0
LINE
  5
1C1
330
1F
100
AcDbEntity
  8
외형선
  6
Continuous
 62
     1
370
    15
100
AcDbLine
 10
20.85833852045944
 20
-4.562299164804886
 30
0.0
 11
20.84598016589203
 21
-4.557586667820697
 31
0.0
  0
LINE
  5
1C2
330
1F
100
AcDbEntity
  8
외형선
  6
Continuous
 62
     1
370
    15
100
AcDbLine
 10
14.36310714884937
 20
4.614051632406272
 30
0.0
 11
14.35260960804487
 21
4.618944637266019
 31
0.0
  0
SPLINE
  5
1C3
330
1F
100
AcDbEntity
  8
외형선
  6
Continuous
 62
     1
370
    15
100
AcDbSpline
210
0.0
220
0.0
230
1.0
 70
     8
 71
     3
 72
     8
 73
     4
 74
     0
 42
0.000000001
 43
0.00000001
 40
0.0
 40
0.0
 40
0.0
 40
0.0
 40
1.0
 40
1.0
 40
1.0
 40
1.0
 10
28.85703757963571
 20
-4.561760585714516
 30
0.0
 10
28.85435297561611
 20
-4.621313789420666
 30
0.0
 10
28.85199240096478
 20
-4.665839666647924
 30
0.0
 10
28.84999999999938
 20
-4.695281229289606
 30
0.0
  0
SPLINE
  5
1C4
330
1F
100
AcDbEntity
  8
외형선
  6
Continuous
 62
     1
370
    15
100
AcDbSpline
210
0.0
220
0.0
230
1.0
 70
     8
 71
     3
 72
     9
 73
     5
 74
     0
 42
0.000000001
 43
0.00000001
 40
0.0
 40
0.0
 40
0.0
 40
0.0
 40
0.8587811375891325
 40
1.0
 40
1.0
 40
1.0
 40
1.0
 10
28.85
 20
-4.695281229289908
 30
0.0
 10
28.83382726609199
 20
-4.71750243277367
 30
0.0
 10
28.81499507101909
 20
-4.743377714042822
 30
0.0
 10
28.79660384358973
 20
-4.729836525674628
 30
0.0
 10
28.79400665537381
 20
-4.727924254457581
 30
0.0
  0
LINE
  5
1C5
330
1F
100
AcDbEntity
  8
외형선
  6
Continuous
 62
     1
370
    15
100
AcDbLine
 10
13.35392054088639
 20
-4.561474318029489
 30
0.0
 11
13.34399614647604
 21
-4.555215680029655
 31
0.0
  0
LINE
  5
1C6
330
1F
100
AcDbEntity
  8
외형선
  6
Continuous
 62
     1
370
    15
100
AcDbLine
 10
21.86317661235901
 20
4.611735943044914
 30
0.0
 11
21.8568745161408
 21
4.615836089845201
 31
0.0
  0
SPLINE
  5
1C7
330
1F
100
AcDbEntity
  8
외형선
  6
Continuous
 62
     1
370
    15
100
AcDbSpline
210
0.0
220
0.0
230
1.0
 70
     8
 71
     3
 72
     9
 73
     5
 74
     0
 42
0.000000001
 43
0.00000001
 40
0.0
 40
0.0
 40
0.0
 40
0.0
 40
0.6015548376069361
 40
1.0
 40
1.0
 40
1.0
 40
1.0
 10
21.39304629756998
 20
-4.604892504877645
 30
0.0
 10
21.37463167054831
 20
-4.649106606305455
 30
0.0
 10
21.34401995259599
 20
-4.722606308516641
 30
0.0
 10
21.31367818925826
 20
-4.722939337274108
 30
0.0
 10
21.30158866043786
 20
-4.723072030971457
 30
0.0
  0
SPLINE
  5
1C8
330
1F
100
AcDbEntity
  8
외형선
  6
Continuous
 62
     1
370
    15
100
AcDbSpline
210
0.0
220
0.0
230
1.0
 70
     8
 71
     3
 72
     8
 73
     4
 74
     0
 42
0.000000001
 43
0.00000001
 40
0.0
 40
0.0
 40
0.0
 40
0.0
 40
1.0
 40
1.0
 40
1.0
 40
1.0
 10
28.85416799275278
 20
4.768031109909619
 30
0.0
 10
28.78099380747267
 20
4.767504707784106
 30
0.0
 10
28.70796162461462
 20
4.758492569397182
 30
0.0
 10
28.63507225352011
 20
4.740946330373291
 30
0.0
  0
SPLINE
  5
1C9
330
1F
100
AcDbEntity
  8
외형선
  6
Continuous
 62
     1
370
    15
100
AcDbSpline
210
0.0
220
0.0
230
1.0
 70
     8
 71
     3
 72
     8
 73
     4
 74
     0
 42
0.000000001
 43
0.00000001
 40
0.0000073505961847
 40
0.0000073505961847
 40
0.0000073505961847
 40
0.0000073505961847
 40
0.0003388694197335
 40
0.0003388694197335
 40
0.0003388694197335
 40
0.0003388694197335
 10
28.85416799275266
 20
4.768031109909345
 30
0.0
 10
28.91982415506392
 20
4.708113050549115
 30
0.0
 10
28.98511736355519
 20
4.647390633290073
 30
0.0
 10
29.05000000000001
 20
4.58581040827976
 30
0.0
  0
LINE
  5
1CA
330
1F
100
AcDbEntity
  8
외형선
  6
Continuous
 62
     1
370
    15
100
AcDbLine
 10
29.05000000000001
 20
1.074256561082132
 30
0.0
 11
29.05000000000001
 21
1.088374028470335
 31
0.0
  0
LINE
  5
1CB
330
1F
100
AcDbEntity
  8
외형선
  6
Continuous
 62
     1
370
    15
100
AcDbLine
 10
29.05000000000001
 20
1.934032559184917
 30
0.0
 11
29.05000000000001
 21
4.58581040827976
 31
0.0
  0
SPLINE
  5
1CC
330
1F
100
AcDbEntity
  8
외형선
  6
Continuous
 62
     1
370
    15
100
AcDbSpline
210
0.0
220
0.0
230
1.0
 70
     8
 71
     3
 72
     9
 73
     5
 74
     0
 42
0.000000001
 43
0.00000001
 40
0.0
 40
0.0
 40
0.0
 40
0.0
 40
0.6325638712420053
 40
1.0
 40
1.0
 40
1.0
 40
1.0
 10
13.88438034376236
 20
-4.627402625101491
 30
0.0
 10
13.86691428069182
 20
-4.665649566707702
 30
0.0
 10
13.8393027400007
 20
-4.726112933879016
 30
0.0
 10
13.81199739848375
 20
-4.724030534920982
 30
0.0
 10
13.80196442950234
 20
-4.723265386309312
 30
0.0
  0
SPLINE
  5
1CD
330
1F
100
AcDbEntity
  8
외형선
  6
Continuous
 62
     1
370
    15
100
AcDbSpline
210
0.0
220
0.0
230
1.0
 70
     8
 71
     3
 72
    10
 73
     6
 74
     0
 42
0.000000001
 43
0.00000001
 40
0.0
 40
0.0
 40
0.0
 40
0.0
 40
0.4331299085327931
 40
0.8677049630207542
 40
1.0
 40
1.0
 40
1.0
 40
1.0
 10
28.85000000000001
 20
-4.695281229289908
 30
0.0
 10
28.85108549497401
 20
-4.703516858149236
 30
0.0
 10
28.85326010669611
 20
-4.720015594195985
 30
0.0
 10
28.85635393651821
 20
-4.727366657012276
 30
0.0
 10
28.85859339514039
 20
-4.723278008690754
 30
0.0
 10
28.85911603562839
 20
-4.722323807915245
 30
0.0
  0
LINE
  5
1CE
330
1F
100
AcDbEntity
  8
외형선
  6
Continuous
 62
     1
370
    15
100
AcDbLine
 10
29.05000000000001
 20
-4.532971270279525
 30
0.0
 11
29.05000000000001
 21
-4.411749240456397
 31
0.0
  0
LINE
  5
1CF
330
1F
100
AcDbEntity
  8
외형선
  6
Continuous
 62
     1
370
    15
100
AcDbLine
 10
21.9861866473408
 20
-4.562255614674362
 30
0.0
 11
21.98388151384756
 21
-4.55940718632722
 31
0.0
  0
LINE
  5
1D0
330
1F
100
AcDbEntity
  8
외형선
  6
Continuous
 62
     1
370
    15
100
AcDbLine
 10
28.85153299601669
 20
4.786474489176049
 30
0.0
 11
28.85416799275278
 21
4.768031109909618
 31
0.0
  0
LINE
  5
1D1
330
1F
100
AcDbEntity
  8
외형선
  6
Continuous
 62
     1
370
    15
100
AcDbLine
 10
13.00559182363902
 20
4.617728049678537
 30
0.0
 11
13.00088013305411
 21
4.618789166581702
 31
0.0
  0
LINE
  5
1D2
330
1F
100
AcDbEntity
  8
외형선
  6
Continuous
 62
     1
370
    15
100
AcDbLine
 10
29.05000000000001
 20
4.58581040827976
 30
0.0
 11
29.05000000000001
 21
4.592028729720477
 31
0.0
  0
LINE
  5
1D3
330
1F
100
AcDbEntity
  8
중심선
 62
     1
100
AcDbLine
 10
-37.45
 20
0.0010749287238892
 30
0.0
 11
32.05
 21
0.0010749287238985
 31
0.0
  0
LINE
  5
1D4
330
1F
100
AcDbEntity
  8
참조1
100
AcDbLine
 10
-2.700000000000001
 20
0.0010749287238892
 30
0.0
 11
-2.699999999999996
 21
-39.99892507127611
 31
0.0
  0
LINE
  5
1D5
330
1F
100
AcDbEntity
  8
참조1
100
AcDbLine
 10
-2.699999999999996
 20
-39.99892507127611
 30
0.0
 11
-5.043307771833651
 21
-39.9989250712761
 31
0.0
  0
CIRCLE
  5
1D6
330
1F
100
AcDbEntity
  8
해칭선
100
AcDbCircle
 10
0.0000000000000069
 20
0.0
 30
0.0
 40
2.999999999999908
  0
INSERT
  5
1D7
330
1F
100
AcDbEntity
  8
0
  6
Continuous
 62
     7
100
AcDbBlockReference
 66
     1
  2
블럭10
 10
-16.64027293212521
 20
-52.04609937292004
 30
0.0
  0
ATTRIB
  5
1D8
330
1D7
100
AcDbEntity
  8
FORMAT
 62
     2
100
AcDbText
 10
-25.82156822086649
 20
-49.97073246008785
 30
0.0
 40
4.233333333333333
  1
E2170024 [ 4 FLUTE ]
 41
0.75
  7
SLDTEXTSTYLE0
 11
-25.82156822086649
 21
-52.08739912675452
 31
0.0
100
AcDbAttribute
  2
AUTOATTR0
 70
     0
 74
     1
  0
SEQEND
  5
1D9
330
1D7
100
AcDbEntity
  8
0
  6
Continuous
 62
     7
  0
HATCH
  5
1DA
330
1F
100
AcDbEntity
  8
중심선
100
AcDbHatch
 10
0.0
 20
0.0
 30
0.0
210
0.0
220
0.0
230
1.0
  2
SOLID
 70
     1
 71
     0
 91
        1
 92
        0
 93
        4
 72
     1
 10
-10.92536362774438
 20
-35.7989250712761
 11
-14.37163887158166
 21
-35.7989250712761
 72
     1
 10
-14.37163887158166
 20
-35.7989250712761
 11
-16.49986873078568
 21
-38.33525065184867
 72
     1
 10
-16.49986873078568
 20
-38.33525065184867
 11
-13.05356040183525
 21
-38.33521122254619
 72
     1
 10
-13.05356040183525
 20
-38.33521122254619
 11
-10.92536362774438
 21
-35.7989250712761
 97
        0
 75
     0
 76
     1
 98
        1
 10
0.0
 20
0.0
  0
HATCH
  5
1DB
330
1F
100
AcDbEntity
  8
중심선
100
AcDbHatch
 10
0.0
 20
0.0
 30
0.0
210
0.0
220
0.0
230
1.0
  2
SOLID
 70
     1
 71
     0
 91
        1
 92
        0
 93
        4
 72
     1
 10
-5.912599636708427
 20
-35.7989250712761
 11
-9.35887488054571
 21
-35.7989250712761
 72
     1
 10
-9.35887488054571
 20
-35.7989250712761
 11
-13.8900128889031
 21
-41.19892507127612
 72
     1
 10
-13.8900128889031
 20
-41.19892507127612
 11
-10.44373764506581
 21
-41.19892507127612
 72
     1
 10
-10.44373764506581
 20
-41.19892507127612
 11
-5.912599636708427
 21
-35.7989250712761
 97
        0
 75
     0
 76
     1
 98
        1
 10
0.0
 20
0.0
  0
HATCH
  5
1DC
330
1F
100
AcDbEntity
  8
중심선
100
AcDbHatch
 10
0.0
 20
0.0
 30
0.0
210
0.0
220
0.0
230
1.0
  2
SOLID
 70
     1
 71
     0
 91
        1
 92
        0
 93
        4
 72
     1
 10
-0.8998356456725309
 20
-35.79892507127613
 11
-4.346110889509647
 21
-35.79892507127613
 72
     1
 10
-4.346110889509647
 20
-35.79892507127613
 11
-11.3945477913989
 21
-44.19892507127612
 72
     1
 10
-11.3945477913989
 20
-44.19892507127612
 11
-7.948272547561613
 21
-44.19892507127612
 72
     1
 10
-7.948272547561613
 20
-44.19892507127612
 11
-0.8998356456725309
 21
-35.79892507127613
 97
        0
 75
     0
 76
     1
 98
        1
 10
0.0
 20
0.0
  0
HATCH
  5
1DD
330
1F
100
AcDbEntity
  8
중심선
100
AcDbHatch
 10
0.0
 20
0.0
 30
0.0
210
0.0
220
0.0
230
1.0
  2
SOLID
 70
     1
 71
     0
 91
        1
 92
        0
 93
        6
 72
     3
 10
3.900054785339668
 20
-39.99892507132738
 11
3.960054785062284
 21
1.540850780301639E-10
 40
0.3939339440162633
 50
17.09539180608434
 51
320.0019657685086
 73
     0
 72
     1
 10
5.583054441040264
 20
-38.58681907591443
 11
7.888356314741301
 21
-36.65249236586651
 72
     3
 10
3.900054785286822
 20
-39.99892507127625
 11
6.600054785286829
 21
-1.249000902703301E-13
 40
0.6363583540795982
 50
39.99873849337384
 51
368.4976242363725
 73
     1
 72
     1
 10
10.32538727718743
 20
-39.03892507120613
 11
2.580122092122744
 21
-39.03892507120613
 72
     1
 10
2.580122092122744
 20
-39.03892507120613
 11
2.58009704767681
 21
-40.95892507120602
 72
     1
 10
2.58009704767681
 20
-40.95892507120602
 11
7.021476817148847
 21
-40.95892507120599
 97
        0
 75
     0
 76
     1
 98
        1
 10
0.0
 20
0.0
  0
DIMENSION
  5
1DE
330
1F
100
AcDbEntity
  8
치수문자_일반주서
100
AcDbDimension
  2
_D
 10
-47.76750000000002
 20
-4.732971270279577
 30
0.0
 11
-47.76750000000004
 21
0.0295287297204768
 31
0.0
 70
   160
  1
%%c<>
 71
     2
 42
9.525000000000006
  3
SLDDIMSTYLE0
100
AcDbAlignedDimension
 13
-33.49750000000002
 23
4.792028729720479
 33
0.0
 14
-33.49750000000002
 24
-4.732971270279527
 34
0.0
 50
90.0000000000002
100
AcDbRotatedDimension
1001
ACAD
1000
DSTYLE
1002
{
1070
   171
1070
     6
1070
   273
1070
     7
1002
}
  0
DIMENSION
  5
1F3
330
1F
100
AcDbEntity
  8
치수문자_일반주서
100
AcDbDimension
  2
_D_1
 10
41.90511057907684
 20
-4.732971270279407
 30
0.0
 11
41.90511057907674
 21
21.21902872972059
 31
0.0
 70
   160
  1
%%c<>
 71
     2
 42
9.525
  3
SLDDIMSTYLE1
100
AcDbAlignedDimension
 13
8.479622660062471
 23
4.792028729720476
 33
0.0
 14
8.479622660062473
 24
-4.732971270279524
 34
0.0
 50
90.0000000000002
100
AcDbRotatedDimension
1001
ACAD
1000
DSTYLE
1002
{
1070
   171
1070
     6
1070
   273
1070
     7
1002
}
  0
DIMENSION
  5
207
330
1F
100
AcDbEntity
  8
치수문자_일반주서
100
AcDbDimension
  2
_D_2
 10
10.00000000000001
 20
31.85030104737541
 30
0.0
 11
19.52500000000001
 21
31.85030104737541
 31
0.0
 70
   160
  1
<>
 71
     2
 42
19.05
  3
SLDDIMSTYLE1
100
AcDbAlignedDimension
 13
29.05000000000001
 23
4.58581040827976
 33
0.0
 14
10.00000000000001
 24
-2.488058760267819
 34
0.0
 50
0.0000000000000107
100
AcDbRotatedDimension
1001
ACAD
1000
DSTYLE
1002
{
1070
   171
1070
     6
1070
   273
1070
     7
1002
}
  0
DIMENSION
  5
21B
330
1F
100
AcDbEntity
  8
치수문자_일반주서
100
AcDbDimension
  2
_D_3
 10
-34.45
 20
45.03192290336246
 30
0.0
 11
-2.69999999999998
 21
45.03192290336246
 31
0.0
 70
   160
  1
<>
 71
     2
 42
63.50000000000001
  3
SLDDIMSTYLE2
100
AcDbAlignedDimension
 13
29.05000000000001
 23
4.58581040827976
 33
0.0
 14
-34.45
 24
3.839528729720472
 34
0.0
 50
-0.0000000000000128
100
AcDbRotatedDimension
1001
ACAD
1000
DSTYLE
1002
{
1070
   171
1070
     6
1070
   273
1070
     7
1002
}
  0
LINE
  5
22F
330
1F
100
AcDbEntity
  8
참조1
100
AcDbLine
 10
92.92903285782062
 20
7.441074928723896
 30
0.0
 11
92.92903285782062
 21
-7.438925071276109
 31
0.0
  0
LINE
  5
230
330
1F
100
AcDbEntity
  8
참조1
100
AcDbLine
 10
105.6290328578206
 20
5.441074928723896
 30
0.0
 11
92.92903285782062
 21
5.441074928723896
 31
0.0
  0
SOLID
  5
231
330
1F
100
AcDbEntity
  8
참조1
100
AcDbTrace
 10
92.92903285782062
 20
5.441074928723896
 30
0.0
 11
99.27903285782061
 21
4.425074928723896
 31
0.0
 12
99.27903285782061
 22
6.457074928723896
 32
0.0
 13
99.27903285782061
 23
6.457074928723896
 33
0.0
  0
LINE
  5
232
330
1F
100
AcDbEntity
  8
참조1
100
AcDbLine
 10
105.6290328578206
 20
-5.438925071276109
 30
0.0
 11
92.92903285782062
 21
-5.438925071276109
 31
0.0
  0
SOLID
  5
233
330
1F
100
AcDbEntity
  8
참조1
100
AcDbTrace
 10
92.92903285782062
 20
-5.438925071276109
 30
0.0
 11
99.27903285782061
 21
-6.454925071276109
 31
0.0
 12
99.27903285782061
 22
-4.422925071276109
 32
0.0
 13
99.27903285782061
 23
-4.422925071276109
 33
0.0
  0
MTEXT
  5
234
330
1F
100
AcDbEntity
  8
참조1
100
AcDbMText
 10
102.5291476683832
 20
11.06679249473997
 30
0.0
 40
3.5
 41
0.0
 71
     1
 72
     1
  1
A
  7
SLDTEXTSTYLE0
 73
     1
 44
1.0
  0
MTEXT
  5
235
330
1F
100
AcDbEntity
  8
참조1
100
AcDbMText
 10
102.5291476683832
 20
0.1867924947399641
 30
0.0
 40
3.5
 41
0.0
 71
     1
 72
     1
  1
A
  7
SLDTEXTSTYLE0
 73
     1
 44
1.0
  0
INSERT
  5
23C
330
1F
100
AcDbEntity
  8
해칭선
100
AcDbBlockReference
  2
SW_DOWELSYMBOL_0
 10
0.0000000000000069
 20
0.0
 30
0.0
  0
LINE
  5
29E
330
1F
100
AcDbEntity
  8
외형선
  6
Continuous
370
    15
100
AcDbLine
 10
-18.17495000000012
 20
3.522028729720475
 30
0.0
 11
-11.03755
 21
3.522028729720475
 31
0.0
  0
LINE
  5
29F
330
1F
100
AcDbEntity
  8
외형선
  6
Continuous
370
    15
100
AcDbLine
 10
-18.17495000000012
 20
3.522028729720475
 30
0.0
 11
-19.44495000000011
 21
4.792028729720457
 31
0.0
  0
LINE
  5
2A0
330
1F
100
AcDbEntity
  8
외형선
  6
Continuous
370
    15
100
AcDbLine
 10
-11.03755
 20
3.522028729720475
 30
0.0
 11
-9.7675499999999
 21
4.792028729720457
 31
0.0
  0
LINE
  5
2A1
330
1F
100
AcDbEntity
  8
외형선
  6
Continuous
370
    15
100
AcDbLine
 10
-19.44495000000012
 20
4.792028729720473
 30
0.0
 11
-33.4975
 21
4.792028729720471
 31
0.0
  0
ENDSEC
  0
SECTION
  2
OBJECTS
  0
DICTIONARY
  5
C
330
0
100
AcDbDictionary
281
     1
  3
ACAD_GROUP
350
D
  3
ACAD_IMAGE_VARS
350
260
  3
ACAD_LAYOUT
350
1A
  3
ACAD_MLINESTYLE
350
17
  3
ACAD_PLOTSETTINGS
350
19
  3
ACAD_PLOTSTYLENAME
350
E
  3
ACAD_SCALELIST
350
47
  3
APPDATA
350
25E
  3
DWGPROPS
350
2A2
  0
DICTIONARY
  5
28F
330
2
100
AcDbDictionary
280
     1
281
     1
  3
ACAD_LAYERSTATES
360
290
  0
DICTIONARY
  5
D
102
{ACAD_REACTORS
330
C
102
}
330
C
100
AcDbDictionary
281
     1
  0
RASTERVARIABLES
  5
260
102
{ACAD_REACTORS
330
C
102
}
330
C
100
AcDbRasterVariables
 90
        0
 70
     1
 71
     1
 72
     1
  0
DICTIONARY
  5
1A
102
{ACAD_REACTORS
330
C
102
}
330
C
100
AcDbDictionary
281
     1
  3
Layout1
350
1E
  3
Layout2
350
26
  3
Model
350
22
  0
DICTIONARY
  5
17
102
{ACAD_REACTORS
330
C
102
}
330
C
100
AcDbDictionary
281
     1
  3
Standard
350
18
  0
DICTIONARY
  5
19
102
{ACAD_REACTORS
330
C
102
}
330
C
100
AcDbDictionary
281
     1
  0
ACDBDICTIONARYWDFLT
  5
E
102
{ACAD_REACTORS
330
C
102
}
330
C
100
AcDbDictionary
281
     1
  3
Normal
350
F
100
AcDbDictionaryWithDefault
340
F
  0
DICTIONARY
  5
47
102
{ACAD_REACTORS
330
C
102
}
330
C
100
AcDbDictionary
281
     1
  3
A0
350
48
  3
A1
350
49
  3
A2
350
4A
  3
A3
350
4B
  3
A4
350
4C
  3
A5
350
4D
  3
A6
350
4E
  3
A7
350
4F
  3
A8
350
50
  3
A9
350
51
  3
B0
350
52
  3
B1
350
53
  3
B2
350
54
  3
B3
350
55
  3
B4
350
56
  3
B5
350
57
  3
B6
350
58
  3
B7
350
59
  3
B8
350
5A
  3
B9
350
5B
  3
C0
350
5C
  3
C1
350
5D
  3
C2
350
5E
  3
C3
350
5F
  3
C4
350
60
  3
C5
350
61
  3
C6
350
62
  3
C7
350
63
  3
C8
350
64
  3
C9
350
65
  3
D0
350
66
  3
D1
350
67
  3
D2
350
68
  0
DICTIONARY
  5
25E
102
{ACAD_REACTORS
330
C
102
}
330
C
100
AcDbDictionary
281
     1
  0
XRECORD
  5
2A2
102
{ACAD_REACTORS
330
C
102
}
330
C
100
AcDbXrecord
280
     1
  1
DWGPROPS COOKIE
  2

  3

  4

  6

  7

  8
12016016
  9

300
=
301
=
302
=
303
=
304
=
305
=
306
=
307
=
308
=
309
=
 40
0.0
 41
2458319.040966157
 42
2458331.228798275
  1

 90
        0
  0
DICTIONARY
  5
290
102
{ACAD_REACTORS
330
28F
102
}
330
28F
100
AcDbDictionary
281
     1
  0
LAYOUT
  5
1E
102
{ACAD_REACTORS
330
1A
102
}
330
1A
100
AcDbPlotSettings
  1

  2
none_device
  4

  6

 40
0.0
 41
0.0
 42
0.0
 43
0.0
 44
0.0
 45
0.0
 46
0.0
 47
0.0
 48
0.0
 49
0.0
140
0.0
141
0.0
142
1.0
143
1.0
 70
   688
 72
     1
 73
     0
 74
     5
  7

 75
    16
147
1.0
148
0.0
149
0.0
100
AcDbLayout
  1
Layout1
 70
     1
 71
     1
 10
0.0
 20
0.0
 11
420.0
 21
297.0
 12
0.0
 22
0.0
 32
0.0
 14
1.000000000000000E+20
 24
1.000000000000000E+20
 34
1.000000000000000E+20
 15
-1.000000000000000E+20
 25
-1.000000000000000E+20
 35
-1.000000000000000E+20
146
0.0
 13
0.0
 23
0.0
 33
0.0
 16
1.0
 26
0.0
 36
0.0
 17
0.0
 27
1.0
 37
0.0
 76
     0
330
1B
  0
LAYOUT
  5
26
102
{ACAD_REACTORS
330
1A
102
}
330
1A
100
AcDbPlotSettings
  1

  2
none_device
  4

  6

 40
0.0
 41
0.0
 42
0.0
 43
0.0
 44
0.0
 45
0.0
 46
0.0
 47
0.0
 48
0.0
 49
0.0
140
0.0
141
0.0
142
1.0
143
1.0
 70
   688
 72
     1
 73
     0
 74
     5
  7

 75
    16
147
1.0
148
0.0
149
0.0
100
AcDbLayout
  1
Layout2
 70
     1
 71
     2
 10
0.0
 20
0.0
 11
0.0
 21
0.0
 12
0.0
 22
0.0
 32
0.0
 14
0.0
 24
0.0
 34
0.0
 15
0.0
 25
0.0
 35
0.0
146
0.0
 13
0.0
 23
0.0
 33
0.0
 16
1.0
 26
0.0
 36
0.0
 17
0.0
 27
1.0
 37
0.0
 76
     0
330
23
  0
LAYOUT
  5
22
102
{ACAD_REACTORS
330
1A
102
}
330
1A
100
AcDbPlotSettings
  1

  2
none_device
  4
ANSI_A_(11.00_x_8.50_Inches)
  6

 40
6.35
 41
19.05
 42
6.35000508
 43
19.05000254
 44
279.4
 45
215.9
 46
93.70227914785038
 47
84.59556138098363
 48
0.0
 49
0.0
140
0.0
141
0.0
142
0.0663258348795741
143
1.0
 70
  1696
 72
     0
 73
     0
 74
     0
  7

 75
     0
147
0.0235690232323232
148
0.0
149
0.0
100
AcDbLayout
  1
Model
 70
     1
 71
     0
 10
0.0
 20
0.0
 11
420.0
 21
297.0
 12
0.0
 22
0.0
 32
0.0
 14
1.000000000000000E+20
 24
1.000000000000000E+20
 34
1.000000000000000E+20
 15
-1.000000000000000E+20
 25
-1.000000000000000E+20
 35
-1.000000000000000E+20
146
0.0
 13
0.0
 23
0.0
 33
0.0
 16
1.0
 26
0.0
 36
0.0
 17
0.0
 27
1.0
 37
0.0
 76
     0
330
1F
331
29
  0
MLINESTYLE
  5
18
102
{ACAD_REACTORS
330
17
102
}
330
17
100
AcDbMlineStyle
  2
Standard
 70
     0
  3

 62
   256
 51
90.0
 52
90.0
 71
     2
 49
0.5
 62
   256
  6
BYLAYER
 49
-0.5
 62
   256
  6
BYLAYER
  0
ACDBPLACEHOLDER
  5
F
102
{ACAD_REACTORS
330
E
102
}
330
E
  0
SCALE
  5
48
102
{ACAD_REACTORS
330
47
102
}
330
47
100
AcDbScale
 70
     0
300
1:1
140
1.0
141
1.0
290
     1
  0
SCALE
  5
49
102
{ACAD_REACTORS
330
47
102
}
330
47
100
AcDbScale
 70
     0
300
1:2
140
1.0
141
2.0
290
     0
  0
SCALE
  5
4A
102
{ACAD_REACTORS
330
47
102
}
330
47
100
AcDbScale
 70
     0
300
1:4
140
1.0
141
4.0
290
     0
  0
SCALE
  5
4B
102
{ACAD_REACTORS
330
47
102
}
330
47
100
AcDbScale
 70
     0
300
1:5
140
1.0
141
5.0
290
     0
  0
SCALE
  5
4C
102
{ACAD_REACTORS
330
47
102
}
330
47
100
AcDbScale
 70
     0
300
1:8
140
1.0
141
8.0
290
     0
  0
SCALE
  5
4D
102
{ACAD_REACTORS
330
47
102
}
330
47
100
AcDbScale
 70
     0
300
1:10
140
1.0
141
10.0
290
     0
  0
SCALE
  5
4E
102
{ACAD_REACTORS
330
47
102
}
330
47
100
AcDbScale
 70
     0
300
1:16
140
1.0
141
16.0
290
     0
  0
SCALE
  5
4F
102
{ACAD_REACTORS
330
47
102
}
330
47
100
AcDbScale
 70
     0
300
1:20
140
1.0
141
20.0
290
     0
  0
SCALE
  5
50
102
{ACAD_REACTORS
330
47
102
}
330
47
100
AcDbScale
 70
     0
300
1:30
140
1.0
141
30.0
290
     0
  0
SCALE
  5
51
102
{ACAD_REACTORS
330
47
102
}
330
47
100
AcDbScale
 70
     0
300
1:40
140
1.0
141
40.0
290
     0
  0
SCALE
  5
52
102
{ACAD_REACTORS
330
47
102
}
330
47
100
AcDbScale
 70
     0
300
1:50
140
1.0
141
50.0
290
     0
  0
SCALE
  5
53
102
{ACAD_REACTORS
330
47
102
}
330
47
100
AcDbScale
 70
     0
300
1:100
140
1.0
141
100.0
290
     0
  0
SCALE
  5
54
102
{ACAD_REACTORS
330
47
102
}
330
47
100
AcDbScale
 70
     0
300
2:1
140
2.0
141
1.0
290
     0
  0
SCALE
  5
55
102
{ACAD_REACTORS
330
47
102
}
330
47
100
AcDbScale
 70
     0
300
4:1
140
4.0
141
1.0
290
     0
  0
SCALE
  5
56
102
{ACAD_REACTORS
330
47
102
}
330
47
100
AcDbScale
 70
     0
300
8:1
140
8.0
141
1.0
290
     0
  0
SCALE
  5
57
102
{ACAD_REACTORS
330
47
102
}
330
47
100
AcDbScale
 70
     0
300
10:1
140
10.0
141
1.0
290
     0
  0
SCALE
  5
58
102
{ACAD_REACTORS
330
47
102
}
330
47
100
AcDbScale
 70
     0
300
100:1
140
100.0
141
1.0
290
     0
  0
SCALE
  5
59
102
{ACAD_REACTORS
330
47
102
}
330
47
100
AcDbScale
 70
     0
300
1/128" = 1'-0"
140
0.0078125
141
12.0
290
     0
  0
SCALE
  5
5A
102
{ACAD_REACTORS
330
47
102
}
330
47
100
AcDbScale
 70
     0
300
1/64" = 1'-0"
140
0.015625
141
12.0
290
     0
  0
SCALE
  5
5B
102
{ACAD_REACTORS
330
47
102
}
330
47
100
AcDbScale
 70
     0
300
1/32" = 1'-0"
140
0.03125
141
12.0
290
     0
  0
SCALE
  5
5C
102
{ACAD_REACTORS
330
47
102
}
330
47
100
AcDbScale
 70
     0
300
1/16" = 1'-0"
140
0.0625
141
12.0
290
     0
  0
SCALE
  5
5D
102
{ACAD_REACTORS
330
47
102
}
330
47
100
AcDbScale
 70
     0
300
3/32" = 1'-0"
140
0.09375
141
12.0
290
     0
  0
SCALE
  5
5E
102
{ACAD_REACTORS
330
47
102
}
330
47
100
AcDbScale
 70
     0
300
1/8" = 1'-0"
140
0.125
141
12.0
290
     0
  0
SCALE
  5
5F
102
{ACAD_REACTORS
330
47
102
}
330
47
100
AcDbScale
 70
     0
300
3/16" = 1'-0"
140
0.1875
141
12.0
290
     0
  0
SCALE
  5
60
102
{ACAD_REACTORS
330
47
102
}
330
47
100
AcDbScale
 70
     0
300
1/4" = 1'-0"
140
0.25
141
12.0
290
     0
  0
SCALE
  5
61
102
{ACAD_REACTORS
330
47
102
}
330
47
100
AcDbScale
 70
     0
300
3/8" = 1'-0"
140
0.375
141
12.0
290
     0
  0
SCALE
  5
62
102
{ACAD_REACTORS
330
47
102
}
330
47
100
AcDbScale
 70
     0
300
1/2" = 1'-0"
140
0.5
141
12.0
290
     0
  0
SCALE
  5
63
102
{ACAD_REACTORS
330
47
102
}
330
47
100
AcDbScale
 70
     0
300
3/4" = 1'-0"
140
0.75
141
12.0
290
     0
  0
SCALE
  5
64
102
{ACAD_REACTORS
330
47
102
}
330
47
100
AcDbScale
 70
     0
300
1" = 1'-0"
140
1.0
141
12.0
290
     0
  0
SCALE
  5
65
102
{ACAD_REACTORS
330
47
102
}
330
47
100
AcDbScale
 70
     0
300
1-1/2" = 1'-0"
140
1.5
141
12.0
290
     0
  0
SCALE
  5
66
102
{ACAD_REACTORS
330
47
102
}
330
47
100
AcDbScale
 70
     0
300
3" = 1'-0"
140
3.0
141
12.0
290
     0
  0
SCALE
  5
67
102
{ACAD_REACTORS
330
47
102
}
330
47
100
AcDbScale
 70
     0
300
6" = 1'-0"
140
6.0
141
12.0
290
     0
  0
SCALE
  5
68
102
{ACAD_REACTORS
330
47
102
}
330
47
100
AcDbScale
 70
     0
300
1'-0" = 1'-0"
140
12.0
141
12.0
290
     0
  0
ENDSEC
  0
EOF
