  0
SECTION
  2
HEADER
  9
$ACADVER
  1
AC1015
  9
$ACADMAINTVER
 70
     6
  9
$DWGCODEPAGE
  3
ANSI_949
  9
$INSBASE
 10
0.0
 20
0.0
 30
0.0
  9
$EXTMIN
 10
1.000000000000000E+20
 20
1.000000000000000E+20
 30
1.000000000000000E+20
  9
$EXTMAX
 10
-1.000000000000000E+20
 20
-1.000000000000000E+20
 30
-1.000000000000000E+20
  9
$LIMMIN
 10
0.0
 20
0.0
  9
$LIMMAX
 10
420.0
 20
297.0
  9
$ORTHOMODE
 70
     1
  9
$REGENMODE
 70
     1
  9
$FILLMODE
 70
     1
  9
$QTEXTMODE
 70
     0
  9
$MIRRTEXT
 70
     1
  9
$LTSCALE
 40
1.0
  9
$ATTMODE
 70
     1
  9
$TEXTSIZE
 40
3.5
  9
$TRACEWID
 40
1.0
  9
$TEXTSTYLE
  7
Standard
  9
$CLAYER
  8
0
  9
$CELTYPE
  6
ByLayer
  9
$CECOLOR
 62
   256
  9
$CELTSCALE
 40
1.0
  9
$DISPSILH
 70
     0
  9
$DIMSCALE
 40
1.0
  9
$DIMASZ
 40
3.302
  9
$DIMEXO
 40
1.0
  9
$DIMDLI
 40
3.75
  9
$DIMRND
 40
0.0
  9
$DIMDLE
 40
0.0
  9
$DIMEXE
 40
1.0
  9
$DIMTP
 40
0.0
  9
$DIMTM
 40
0.0
  9
$DIMTXT
 40
3.5
  9
$DIMCEN
 40
2.5
  9
$DIMTSZ
 40
0.0
  9
$DIMTOL
 70
     0
  9
$DIMLIM
 70
     0
  9
$DIMTIH
 70
     1
  9
$DIMTOH
 70
     1
  9
$DIMSE1
 70
     0
  9
$DIMSE2
 70
     0
  9
$DIMTAD
 70
     1
  9
$DIMZIN
 70
     0
  9
$DIMBLK
  1

  9
$DIMASO
 70
     1
  9
$DIMSHO
 70
     1
  9
$DIMPOST
  1

  9
$DIMAPOST
  1

  9
$DIMALT
 70
     0
  9
$DIMALTD
 70
     3
  9
$DIMALTF
 40
0.0393700787401575
  9
$DIMLFAC
 40
1.0
  9
$DIMTOFL
 70
     1
  9
$DIMTVP
 40
0.0
  9
$DIMTIX
 70
     0
  9
$DIMSOXD
 70
     0
  9
$DIMSAH
 70
     0
  9
$DIMBLK1
  1

  9
$DIMBLK2
  1

  9
$DIMSTYLE
  2
ISO-25
  9
$DIMCLRD
 70
     0
  9
$DIMCLRE
 70
     0
  9
$DIMCLRT
 70
     0
  9
$DIMTFAC
 40
1.0
  9
$DIMGAP
 40
1.524
  9
$DIMJUST
 70
     0
  9
$DIMSD1
 70
     0
  9
$DIMSD2
 70
     0
  9
$DIMTOLJ
 70
     0
  9
$DIMTZIN
 70
     0
  9
$DIMALTZ
 70
     0
  9
$DIMALTTZ
 70
     0
  9
$DIMUPT
 70
     0
  9
$DIMDEC
 70
     2
  9
$DIMTDEC
 70
     2
  9
$DIMALTU
 70
     2
  9
$DIMALTTD
 70
     3
  9
$DIMTXSTY
  7
Standard
  9
$DIMAUNIT
 70
     0
  9
$DIMADEC
 70
     2
  9
$DIMALTRND
 40
0.0
  9
$DIMAZIN
 70
     0
  9
$DIMDSEP
 70
    44
  9
$DIMATFIT
 70
     3
  9
$DIMFRAC
 70
     0
  9
$DIMLDRBLK
  1

  9
$DIMLUNIT
 70
     2
  9
$DIMLWD
 70
    -2
  9
$DIMLWE
 70
    -2
  9
$DIMTMOVE
 70
     0
  9
$LUNITS
 70
     2
  9
$LUPREC
 70
     2
  9
$SKETCHINC
 40
1.0
  9
$FILLETRAD
 40
10.0
  9
$AUNITS
 70
     0
  9
$AUPREC
 70
     2
  9
$MENU
  1
.
  9
$ELEVATION
 40
0.0
  9
$PELEVATION
 40
0.0
  9
$THICKNESS
 40
0.0
  9
$LIMCHECK
 70
     0
  9
$CHAMFERA
 40
0.0
  9
$CHAMFERB
 40
0.0
  9
$CHAMFERC
 40
0.0
  9
$CHAMFERD
 40
0.0
  9
$SKPOLY
 70
     0
  9
$TDCREATE
 40
2458319.364650498
  9
$TDUCREATE
 40
2458318.989650498
  9
$TDUPDATE
 40
2458331.602784086
  9
$TDUUPDATE
 40
2458331.227784086
  9
$TDINDWG
 40
0.0001103935
  9
$TDUSRTIMER
 40
2458331.22767397
  9
$USRTIMER
 70
     1
  9
$ANGBASE
 50
0.0
  9
$ANGDIR
 70
     0
  9
$PDMODE
 70
     0
  9
$PDSIZE
 40
-1.0
  9
$PLINEWID
 40
0.0
  9
$SPLFRAME
 70
     0
  9
$SPLINETYPE
 70
     6
  9
$SPLINESEGS
 70
     8
  9
$HANDSEED
  5
269
  9
$SURFTAB1
 70
     6
  9
$SURFTAB2
 70
     6
  9
$SURFTYPE
 70
     6
  9
$SURFU
 70
     6
  9
$SURFV
 70
     6
  9
$UCSBASE
  2

  9
$UCSNAME
  2

  9
$UCSORG
 10
0.0
 20
0.0
 30
0.0
  9
$UCSXDIR
 10
1.0
 20
0.0
 30
0.0
  9
$UCSYDIR
 10
0.0
 20
1.0
 30
0.0
  9
$UCSORTHOREF
  2

  9
$UCSORTHOVIEW
 70
     0
  9
$UCSORGTOP
 10
0.0
 20
0.0
 30
0.0
  9
$UCSORGBOTTOM
 10
0.0
 20
0.0
 30
0.0
  9
$UCSORGLEFT
 10
0.0
 20
0.0
 30
0.0
  9
$UCSORGRIGHT
 10
0.0
 20
0.0
 30
0.0
  9
$UCSORGFRONT
 10
0.0
 20
0.0
 30
0.0
  9
$UCSORGBACK
 10
0.0
 20
0.0
 30
0.0
  9
$PUCSBASE
  2

  9
$PUCSNAME
  2

  9
$PUCSORG
 10
0.0
 20
0.0
 30
0.0
  9
$PUCSXDIR
 10
1.0
 20
0.0
 30
0.0
  9
$PUCSYDIR
 10
0.0
 20
1.0
 30
0.0
  9
$PUCSORTHOREF
  2

  9
$PUCSORTHOVIEW
 70
     0
  9
$PUCSORGTOP
 10
0.0
 20
0.0
 30
0.0
  9
$PUCSORGBOTTOM
 10
0.0
 20
0.0
 30
0.0
  9
$PUCSORGLEFT
 10
0.0
 20
0.0
 30
0.0
  9
$PUCSORGRIGHT
 10
0.0
 20
0.0
 30
0.0
  9
$PUCSORGFRONT
 10
0.0
 20
0.0
 30
0.0
  9
$PUCSORGBACK
 10
0.0
 20
0.0
 30
0.0
  9
$USERI1
 70
     0
  9
$USERI2
 70
     0
  9
$USERI3
 70
     0
  9
$USERI4
 70
     0
  9
$USERI5
 70
     0
  9
$USERR1
 40
0.0
  9
$USERR2
 40
0.0
  9
$USERR3
 40
0.0
  9
$USERR4
 40
0.0
  9
$USERR5
 40
0.0
  9
$WORLDVIEW
 70
     1
  9
$SHADEDGE
 70
     3
  9
$SHADEDIF
 70
    70
  9
$TILEMODE
 70
     1
  9
$MAXACTVP
 70
    64
  9
$PINSBASE
 10
0.0
 20
0.0
 30
0.0
  9
$PLIMCHECK
 70
     0
  9
$PEXTMIN
 10
1.000000000000000E+20
 20
1.000000000000000E+20
 30
1.000000000000000E+20
  9
$PEXTMAX
 10
-1.000000000000000E+20
 20
-1.000000000000000E+20
 30
-1.000000000000000E+20
  9
$PLIMMIN
 10
0.0
 20
0.0
  9
$PLIMMAX
 10
0.0
 20
0.0
  9
$UNITMODE
 70
     0
  9
$VISRETAIN
 70
     1
  9
$PLINEGEN
 70
     0
  9
$PSLTSCALE
 70
     1
  9
$TREEDEPTH
 70
  3020
  9
$CMLSTYLE
  2
Standard
  9
$CMLJUST
 70
     0
  9
$CMLSCALE
 40
20.0
  9
$PROXYGRAPHICS
 70
     1
  9
$MEASUREMENT
 70
     1
  9
$CELWEIGHT
370
    -1
  9
$ENDCAPS
280
     0
  9
$JOINSTYLE
280
     0
  9
$LWDISPLAY
290
     1
  9
$INSUNITS
 70
     4
  9
$HYPERLINKBASE
  1

  9
$STYLESHEET
  1

  9
$XEDIT
290
     1
  9
$CEPSNTYPE
380
     0
  9
$PSTYLEMODE
290
     1
  9
$FINGERPRINTGUID
  2
{790951A6-300D-4A9B-98C8-E5A221270803}
  9
$VERSIONGUID
  2
{FAEB1C32-E019-11D5-929B-00C0DF256EC4}
  9
$EXTNAMES
290
     1
  9
$PSVPSCALE
 40
0.0
  9
$OLESTARTUP
290
     0
  0
ENDSEC
  0
SECTION
  2
CLASSES
  0
CLASS
  1
ACDBDICTIONARYWDFLT
  2
AcDbDictionaryWithDefault
  3
ObjectDBX Classes
 90
        0
280
     0
281
     0
  0
CLASS
  1
VISUALSTYLE
  2
AcDbVisualStyle
  3
ObjectDBX Classes
 90
     4095
280
     0
281
     0
  0
CLASS
  1
MATERIAL
  2
AcDbMaterial
  3
ObjectDBX Classes
 90
     1153
280
     0
281
     0
  0
CLASS
  1
SCALE
  2
AcDbScale
  3
ObjectDBX Classes
 90
     1153
280
     0
281
     0
  0
CLASS
  1
SUN
  2
AcDbSun
  3
SCENEOE
 90
     1153
280
     0
281
     0
  0
CLASS
  1
ACDBPLACEHOLDER
  2
AcDbPlaceHolder
  3
ObjectDBX Classes
 90
        0
280
     0
281
     0
  0
CLASS
  1
LAYOUT
  2
AcDbLayout
  3
ObjectDBX Classes
 90
        0
280
     0
281
     0
  0
CLASS
  1
TABLESTYLE
  2
AcDbTableStyle
  3
ObjectDBX Classes
 90
     4095
280
     0
281
     0
  0
CLASS
  1
MLEADERSTYLE
  2
AcDbMLeaderStyle
  3
ACDB_MLEADERSTYLE_CLASS
 90
     4095
280
     0
281
     0
  0
CLASS
  1
RASTERVARIABLES
  2
AcDbRasterVariables
  3
ISM
 90
        0
280
     0
281
     0
  0
ENDSEC
  0
SECTION
  2
TABLES
  0
TABLE
  2
VPORT
  5
8
330
0
100
AcDbSymbolTable
 70
     1
  0
VPORT
  5
29
330
8
100
AcDbSymbolTableRecord
100
AcDbViewportTableRecord
  2
*Active
 70
     0
 10
0.0
 20
0.0
 11
1.0
 21
1.0
 12
-44.19426597479359
 22
-42.00430532975978
 13
0.0
 23
0.0
 14
10.0
 24
10.0
 15
10.0
 25
10.0
 16
0.0
 26
0.0
 36
1.0
 17
0.0
 27
0.0
 37
0.0
 40
115.6443228324641
 41
1.516441005802708
 42
50.0
 43
0.0
 44
0.0
 50
0.0
 51
0.0
 71
    16
 72
  2000
 73
     1
 74
     3
 75
     0
 76
     0
 77
     0
 78
     0
281
     0
 65
     1
110
0.0
120
0.0
130
0.0
111
1.0
121
0.0
131
0.0
112
0.0
122
1.0
132
0.0
 79
     0
146
0.0
  0
ENDTAB
  0
TABLE
  2
LTYPE
  5
5
330
0
100
AcDbSymbolTable
 70
     6
  0
LTYPE
  5
14
330
5
100
AcDbSymbolTableRecord
100
AcDbLinetypeTableRecord
  2
ByBlock
 70
     0
  3

 72
    65
 73
     0
 40
0.0
  0
LTYPE
  5
15
330
5
100
AcDbSymbolTableRecord
100
AcDbLinetypeTableRecord
  2
ByLayer
 70
     0
  3

 72
    65
 73
     0
 40
0.0
  0
LTYPE
  5
16
330
5
100
AcDbSymbolTableRecord
100
AcDbLinetypeTableRecord
  2
Continuous
 70
     0
  3
Solid line
 72
    65
 73
     0
 40
0.0
  0
LTYPE
  5
6A
330
5
100
AcDbSymbolTableRecord
100
AcDbLinetypeTableRecord
  2
HIDDEN
 70
     0
  3
Hidden __ __ __ __ __ __ __ __ __ __ __ __ __ __
 72
    65
 73
     2
 40
1.905
 49
1.27
 74
     0
 49
-0.635
 74
     0
  0
LTYPE
  5
6B
330
5
100
AcDbSymbolTableRecord
100
AcDbLinetypeTableRecord
  2
PHANTOM
 70
     0
  3
Phantom ______  __  __  ______  __  __  ______
 72
    65
 73
     6
 40
12.7
 49
6.35
 74
     0
 49
-1.27
 74
     0
 49
1.27
 74
     0
 49
-1.27
 74
     0
 49
1.27
 74
     0
 49
-1.27
 74
     0
  0
LTYPE
  5
6C
330
5
100
AcDbSymbolTableRecord
100
AcDbLinetypeTableRecord
  2
CENTER
 70
     0
  3
Center ____ _ ____ _ ____ _ ____ _ ____ _ ____
 72
    65
 73
     4
 40
10.16
 49
6.35
 74
     0
 49
-1.27
 74
     0
 49
1.27
 74
     0
 49
-1.27
 74
     0
  0
LTYPE
  5
6D
330
5
100
AcDbSymbolTableRecord
100
AcDbLinetypeTableRecord
  2
CENTERX2
 70
     0
  3
Center (2x) ________  __  ________  __  _____
 72
    65
 73
     4
 40
20.32
 49
12.7
 74
     0
 49
-2.54
 74
     0
 49
2.54
 74
     0
 49
-2.54
 74
     0
  0
LTYPE
  5
6E
330
5
100
AcDbSymbolTableRecord
100
AcDbLinetypeTableRecord
  2
DOT2
 70
     0
  3
Dot (.5x) ........................................
 72
    65
 73
     2
 40
0.635
 49
0.0
 74
     0
 49
-0.635
 74
     0
  0
ENDTAB
  0
TABLE
  2
LAYER
  5
2
102
{ACAD_XDICTIONARY
360
255
102
}
330
0
100
AcDbSymbolTable
 70
    18
  0
LAYER
  5
10
330
2
100
AcDbSymbolTableRecord
100
AcDbLayerTableRecord
  2
0
 70
     0
 62
     7
  6
Continuous
370
    -3
390
F
  0
LAYER
  5
6F
330
2
100
AcDbSymbolTableRecord
100
AcDbLayerTableRecord
  2
FORMAT
 70
     0
 62
     2
  6
Continuous
370
    -3
390
F
  0
LAYER
  5
70
330
2
100
AcDbSymbolTableRecord
100
AcDbLayerTableRecord
  2
외형선
 70
     0
 62
     4
  6
Continuous
370
    30
390
F
  0
LAYER
  5
71
330
2
100
AcDbSymbolTableRecord
100
AcDbLayerTableRecord
  2
숨은선
 70
     0
 62
     2
  6
HIDDEN
370
    15
390
F
  0
LAYER
  5
72
330
2
100
AcDbSymbolTableRecord
100
AcDbLayerTableRecord
  2
중심선
 70
     0
 62
     1
  6
CENTERX2
370
    -3
390
F
  0
LAYER
  5
73
330
2
100
AcDbSymbolTableRecord
100
AcDbLayerTableRecord
  2
파단선
 70
     0
 62
     4
  6
Continuous
370
    -3
390
F
  0
LAYER
  5
74
330
2
100
AcDbSymbolTableRecord
100
AcDbLayerTableRecord
  2
해칭선
 70
     0
 62
   100
  6
Continuous
370
    -3
390
F
  0
LAYER
  5
75
330
2
100
AcDbSymbolTableRecord
100
AcDbLayerTableRecord
  2
가는실선
 70
     0
 62
     4
  6
Continuous
370
    -3
390
F
  0
LAYER
  5
76
330
2
100
AcDbSymbolTableRecord
100
AcDbLayerTableRecord
  2
치수_보조선
 70
     0
 62
     4
  6
Continuous
370
    -3
390
F
  0
LAYER
  5
77
330
2
100
AcDbSymbolTableRecord
100
AcDbLayerTableRecord
  2
치수문자_일반주서
 70
     0
 62
     7
  6
Continuous
370
    15
390
F
  0
LAYER
  5
78
330
2
100
AcDbSymbolTableRecord
100
AcDbLayerTableRecord
  2
개별주서
 70
     0
 62
   100
  6
Continuous
370
    30
390
F
  0
LAYER
  5
79
330
2
100
AcDbSymbolTableRecord
100
AcDbLayerTableRecord
  2
중간선
 70
     0
 62
     2
  6
Continuous
370
    15
390
F
  0
LAYER
  5
7A
330
2
100
AcDbSymbolTableRecord
100
AcDbLayerTableRecord
  2
윤곽선
 70
     0
 62
     3
  6
Continuous
370
    40
390
F
  0
LAYER
  5
7B
330
2
100
AcDbSymbolTableRecord
100
AcDbLayerTableRecord
  2
중심마크
 70
     0
 62
   100
  6
Continuous
370
    30
390
F
  0
LAYER
  5
7C
330
2
100
AcDbSymbolTableRecord
100
AcDbLayerTableRecord
  2
가상선
 70
     0
 62
     4
  6
PHANTOM
370
    -3
390
F
  0
LAYER
  5
7D
330
2
100
AcDbSymbolTableRecord
100
AcDbLayerTableRecord
  2
특수지정선
 70
     0
 62
     5
  6
CENTERX2
370
    60
390
F
  0
LAYER
  5
7E
330
2
100
AcDbSymbolTableRecord
100
AcDbLayerTableRecord
  2
참조1
 70
     0
 62
    -4
  6
Continuous
370
    -3
390
F
  0
LAYER
  5
226
330
2
100
AcDbSymbolTableRecord
100
AcDbLayerTableRecord
  2
Defpoints
 70
     0
 62
     7
  6
Continuous
290
     0
370
    -3
390
F
  0
ENDTAB
  0
TABLE
  2
STYLE
  5
3
330
0
100
AcDbSymbolTable
 70
     2
  0
STYLE
  5
11
330
3
100
AcDbSymbolTableRecord
100
AcDbTextStyleTableRecord
  2
Standard
 70
     0
 40
0.0
 41
1.0
 50
0.0
 71
     0
 42
3.5
  3
txt
  4

  0
STYLE
  5
94
330
3
100
AcDbSymbolTableRecord
100
AcDbTextStyleTableRecord
  2
SLDTEXTSTYLE0
 70
     0
 40
0.0
 41
0.75
 50
0.0
 71
     0
 42
3.5
  3
TXT
  4

  0
ENDTAB
  0
TABLE
  2
VIEW
  5
6
330
0
100
AcDbSymbolTable
 70
     0
  0
ENDTAB
  0
TABLE
  2
UCS
  5
7
330
0
100
AcDbSymbolTable
 70
     0
  0
ENDTAB
  0
TABLE
  2
APPID
  5
9
330
0
100
AcDbSymbolTable
 70
     1
  0
APPID
  5
12
330
9
100
AcDbSymbolTableRecord
100
AcDbRegAppTableRecord
  2
ACAD
 70
     0
  0
ENDTAB
  0
TABLE
  2
DIMSTYLE
  5
A
330
0
100
AcDbSymbolTable
 70
     3
100
AcDbDimStyleTable
  0
DIMSTYLE
105
27
330
A
100
AcDbSymbolTableRecord
100
AcDbDimStyleTableRecord
  2
ISO-25
 70
     0
 41
2.5
 42
0.625
 43
3.75
 44
1.25
 73
     0
 74
     0
 77
     1
 78
     8
140
2.5
141
2.5
143
0.03937007874016
147
0.625
171
     3
172
     1
178
     0
271
     2
272
     2
274
     3
278
    44
283
     0
284
     8
340
11
  0
DIMSTYLE
105
1A4
102
{ACAD_REACTORS
330
1A3
330
1B8
102
}
330
A
100
AcDbSymbolTableRecord
100
AcDbDimStyleTableRecord
  2
SLDDIMSTYLE0
 70
     0
 41
3.302
 44
0.0
 45
0.000000001
 73
     0
 74
     0
 77
     1
 78
    12
 79
     3
140
3.5
143
0.0393700787401575
147
0.875
148
0.000000001
170
     1
172
     1
173
     1
178
     0
271
     2
272
     2
276
     2
284
    12
289
     0
340
94
  0
DIMSTYLE
105
1CD
102
{ACAD_REACTORS
330
1CC
330
1E1
102
}
330
A
100
AcDbSymbolTableRecord
100
AcDbDimStyleTableRecord
  2
SLDDIMSTYLE1
 70
     0
 41
3.302
 44
0.0
 45
0.000000001
 73
     0
 74
     0
 77
     1
 78
    12
 79
     3
140
3.5
143
0.0393700787401575
147
0.875
148
0.000000001
170
     1
173
     1
178
     0
271
     2
272
     2
276
     2
284
    12
340
94
  0
ENDTAB
  0
TABLE
  2
BLOCK_RECORD
  5
1
330
0
100
AcDbSymbolTable
 70
     8
  0
BLOCK_RECORD
  5
1F
330
1
100
AcDbSymbolTableRecord
100
AcDbBlockTableRecord
  2
*Model_Space
340
22
  0
BLOCK_RECORD
  5
1B
330
1
100
AcDbSymbolTableRecord
100
AcDbBlockTableRecord
  2
*Paper_Space
340
1E
  0
BLOCK_RECORD
  5
23
330
1
100
AcDbSymbolTableRecord
100
AcDbBlockTableRecord
  2
*Paper_Space0
340
26
  0
BLOCK_RECORD
  5
7F
330
1
100
AcDbSymbolTableRecord
100
AcDbBlockTableRecord
  2
블럭10
340
0
102
{BLKREFS
331
19C
102
}
  0
BLOCK_RECORD
  5
1A5
330
1
100
AcDbSymbolTableRecord
100
AcDbBlockTableRecord
  2
_D
340
0
  0
BLOCK_RECORD
  5
1B9
330
1
100
AcDbSymbolTableRecord
100
AcDbBlockTableRecord
  2
_D_1
340
0
  0
BLOCK_RECORD
  5
1CE
330
1
100
AcDbSymbolTableRecord
100
AcDbBlockTableRecord
  2
_D_2
340
0
  0
BLOCK_RECORD
  5
1E2
330
1
100
AcDbSymbolTableRecord
100
AcDbBlockTableRecord
  2
_D_3
340
0
  0
BLOCK_RECORD
  5
1FB
330
1
100
AcDbSymbolTableRecord
100
AcDbBlockTableRecord
  2
SW_DOWELSYMBOL_0
340
0
102
{BLKREFS
331
201
102
}
  0
ENDTAB
  0
ENDSEC
  0
SECTION
  2
BLOCKS
  0
BLOCK
  5
20
330
1F
100
AcDbEntity
  8
0
100
AcDbBlockBegin
  2
*Model_Space
 70
     0
 10
0.0
 20
0.0
 30
0.0
  3
*Model_Space
  1
*Model_Space
  0
ENDBLK
  5
21
330
1F
100
AcDbEntity
  8
0
100
AcDbBlockEnd
  0
BLOCK
  5
1C
330
1B
100
AcDbEntity
 67
     1
  8
0
100
AcDbBlockBegin
  2
*Paper_Space
 70
     0
 10
0.0
 20
0.0
 30
0.0
  3
*Paper_Space
  1
*Paper_Space
  0
ENDBLK
  5
1D
330
1B
100
AcDbEntity
 67
     1
  8
0
100
AcDbBlockEnd
  0
BLOCK
  5
24
330
23
100
AcDbEntity
  8
0
100
AcDbBlockBegin
  2
*Paper_Space0
 70
     0
 10
0.0
 20
0.0
 30
0.0
  3
*Paper_Space0
  1
*Paper_Space0
  0
ENDBLK
  5
25
330
23
100
AcDbEntity
  8
0
100
AcDbBlockEnd
  0
BLOCK
  5
80
330
7F
100
AcDbEntity
  8
0
100
AcDbBlockBegin
  2
블럭10
 70
     2
 10
0.0
 20
0.0
 30
0.0
  3
블럭10
  1
블럭10
  0
ELLIPSE
  5
82
330
7F
100
AcDbEntity
  8
중심선
100
AcDbEllipse
 10
20.54032771741204
 20
12.0471743016438
 30
0.0
 11
6.600054785286829
 21
-1.261213355974178E-13
 31
0.0
210
0.0
220
0.0
230
1.0
 40
0.636358354079598
 41
0.9219305317359503
 42
6.513795318482858
  0
ELLIPSE
  5
83
330
7F
100
AcDbEntity
  8
중심선
100
AcDbEllipse
 10
20.54032771746488
 20
12.04717430159265
 30
0.0
 11
3.960054785062283
 21
1.540847449632565E-10
 31
0.0
210
0.0
220
0.0
230
1.0
 40
0.3939339440162632
 41
1.131841032648279
 42
5.62031148352944
  0
LINE
  5
84
330
7F
100
AcDbEntity
  8
중심선
100
AcDbLine
 10
2.268634060543552
 20
16.24717430164393
 30
0.0
 11
5.714909304380834
 21
16.24717430164393
 31
0.0
  0
LINE
  5
85
330
7F
100
AcDbEntity
  8
중심선
100
AcDbLine
 10
5.245725140726316
 20
7.84717430164391
 30
0.0
 11
8.692000384563599
 21
7.84717430164391
 31
0.0
  0
LINE
  5
86
330
7F
100
AcDbEntity
  8
중심선
100
AcDbLine
 10
15.74043728645272
 20
16.24717430164393
 30
0.0
 11
8.692000384563599
 21
7.84717430164391
 31
0.0
  0
LINE
  5
87
330
7F
100
AcDbEntity
  8
중심선
100
AcDbLine
 10
0.1404042013395286
 20
13.71084872107135
 30
0.0
 11
3.58671253028996
 21
13.71088815037384
 31
0.0
  0
LINE
  5
88
330
7F
100
AcDbEntity
  8
중심선
100
AcDbLine
 10
2.750260043222114
 20
10.84717430164391
 30
0.0
 11
6.196535287059397
 21
10.84717430164391
 31
0.0
  0
LINE
  5
89
330
7F
100
AcDbEntity
  8
중심선
100
AcDbLine
 10
12.29416204261559
 20
16.24717430164393
 30
0.0
 11
5.245725140726316
 21
7.84717430164391
 31
0.0
  0
LINE
  5
8A
330
7F
100
AcDbEntity
  8
중심선
100
AcDbLine
 10
10.72767329541681
 20
16.24717430164393
 30
0.0
 11
6.196535287059397
 21
10.84717430164391
 31
0.0
  0
LINE
  5
8B
330
7F
100
AcDbEntity
  8
중심선
100
AcDbLine
 10
7.28139805157953
 20
16.24717430164393
 30
0.0
 11
2.750260043222114
 21
10.84717430164391
 31
0.0
  0
LINE
  5
8C
330
7F
100
AcDbEntity
  8
중심선
100
AcDbLine
 10
5.714909304380834
 20
16.24717430164393
 30
0.0
 11
3.58671253028996
 21
13.71088815037384
 31
0.0
  0
LINE
  5
8D
330
7F
100
AcDbEntity
  8
중심선
100
AcDbLine
 10
2.268634060543552
 20
16.24717430164393
 30
0.0
 11
0.1404042013395286
 21
13.71084872107135
 31
0.0
  0
LINE
  5
8E
330
7F
100
AcDbEntity
  8
중심선
100
AcDbLine
 10
7.28139805157953
 20
16.24717430164393
 30
0.0
 11
10.72767329541681
 21
16.24717430164393
 31
0.0
  0
LINE
  5
8F
330
7F
100
AcDbEntity
  8
중심선
100
AcDbLine
 10
12.29416204261559
 20
16.24717430164393
 30
0.0
 11
15.74043728645272
 21
16.24717430164393
 31
0.0
  0
LINE
  5
90
330
7F
100
AcDbEntity
  8
중심선
100
AcDbLine
 10
19.22036997980202
 20
11.08717430171403
 30
0.0
 11
23.66174974927406
 21
11.08717430171406
 31
0.0
  0
LINE
  5
91
330
7F
100
AcDbEntity
  8
중심선
100
AcDbLine
 10
19.22039502424796
 20
13.00717430171391
 30
0.0
 11
19.22036997980202
 21
11.08717430171403
 31
0.0
  0
LINE
  5
92
330
7F
100
AcDbEntity
  8
중심선
100
AcDbLine
 10
19.22039502424796
 20
13.00717430171391
 30
0.0
 11
26.96566020931264
 21
13.00717430171391
 31
0.0
  0
LINE
  5
93
330
7F
100
AcDbEntity
  8
중심선
100
AcDbLine
 10
22.22332737316547
 20
13.45928029700563
 30
0.0
 11
24.52862924686651
 21
15.39360700705356
 31
0.0
  0
ATTDEF
  5
95
330
7F
100
AcDbEntity
  8
FORMAT
 62
     2
100
AcDbText
 10
-9.18129528874128
 20
2.075366912832191
 30
0.0
 40
4.233333333333333
  1
E2170016 [ 3 FLUTE ]
 41
0.75
  7
SLDTEXTSTYLE0
 11
-9.18129528874128
 21
-0.0412997538344756
 31
0.0
100
AcDbAttributeDefinition
  3

  2
AUTOATTR0
 70
     0
 74
     1
  0
ENDBLK
  5
81
330
7F
100
AcDbEntity
  8
0
100
AcDbBlockEnd
  0
BLOCK
  5
1A6
330
1A5
100
AcDbEntity
  8
0
100
AcDbBlockBegin
  2
_D
 70
     0
 10
0.0
 20
0.0
 30
0.0
  3
_D
  1
_D
  0
LINE
  5
1A8
330
1A5
100
AcDbEntity
  8
치수문자_일반주서
 62
     0
370
    -2
100
AcDbLine
 10
-36.67536934298444
 20
4.762500000000003
 30
0.0
 11
-50.11286934298451
 21
4.762499999999954
 31
0.0
  0
LINE
  5
1A9
330
1A5
100
AcDbEntity
  8
치수문자_일반주서
 62
     0
370
    -2
100
AcDbLine
 10
-36.67536934298444
 20
-4.762500000000003
 30
0.0
 11
-50.11286934298447
 21
-4.762500000000052
 31
0.0
  0
LINE
  5
1AA
330
1A5
100
AcDbEntity
  8
치수문자_일반주서
 62
     0
370
    -2
100
AcDbLine
 10
-50.1128693429845
 20
1.460499999999954
 30
0.0
 11
-50.11286934298449
 21
-1.460500000000052
 31
0.0
  0
SOLID
  5
1AB
330
1A5
100
AcDbEntity
  8
치수문자_일반주서
 62
     0
100
AcDbTrace
 10
-49.56253600965116
 20
1.460499999999956
 30
0.0
 11
-50.66320267631783
 21
1.460499999999952
 31
0.0
 12
-50.11286934298451
 22
4.762499999999954
 32
0.0
 13
-50.11286934298451
 23
4.762499999999954
 33
0.0
  0
SOLID
  5
1AC
330
1A5
100
AcDbEntity
  8
치수문자_일반주서
 62
     0
100
AcDbTrace
 10
-50.66320267631782
 20
-1.460500000000054
 30
0.0
 11
-49.56253600965115
 21
-1.46050000000005
 31
0.0
 12
-50.11286934298447
 22
-4.762500000000052
 32
0.0
 13
-50.11286934298447
 23
-4.762500000000052
 33
0.0
  0
MTEXT
  5
1AD
330
1A5
100
AcDbEntity
  8
치수문자_일반주서
 62
     0
100
AcDbMText
 10
-54.48786934298449
 20
-0.363037855143893
 30
0.0
 40
3.5
 41
0.0
 71
     2
 72
     1
  1
\A1;%%c9.53 [3/8]
  7
SLDTEXTSTYLE0
 11
-3.729883127349606E-15
 21
1.0
 31
0.0
 73
     1
 44
1.0
  0
POINT
  5
1AE
330
1A5
100
AcDbEntity
  8
Defpoints
 62
     0
100
AcDbPoint
 10
-36.61286934298444
 20
4.762500000000003
 30
0.0
  0
POINT
  5
1AF
330
1A5
100
AcDbEntity
  8
Defpoints
 62
     0
100
AcDbPoint
 10
-36.61286934298444
 20
-4.762500000000003
 30
0.0
  0
POINT
  5
1B0
330
1A5
100
AcDbEntity
  8
Defpoints
 62
     0
100
AcDbPoint
 10
-50.11286934298447
 20
-4.76250000000005
 30
0.0
  0
ENDBLK
  5
1A7
330
1A5
100
AcDbEntity
  8
0
100
AcDbBlockEnd
  0
BLOCK
  5
1BA
330
1B9
100
AcDbEntity
  8
0
100
AcDbBlockBegin
  2
_D_1
 70
     0
 10
0.0
 20
0.0
 30
0.0
  3
_D_1
  1
_D_1
  0
LINE
  5
1BC
330
1B9
100
AcDbEntity
  8
치수문자_일반주서
 62
     0
370
    -2
100
AcDbLine
 10
24.86213065701558
 20
-3.174999999999995
 30
0.0
 11
43.79963065701561
 21
-3.174999999999926
 31
0.0
  0
LINE
  5
1BD
330
1B9
100
AcDbEntity
  8
치수문자_일반주서
 62
     0
370
    -2
100
AcDbLine
 10
24.86213065701558
 20
3.175000000000004
 30
0.0
 11
43.79963065701559
 21
3.175000000000072
 31
0.0
  0
LINE
  5
1BE
330
1B9
100
AcDbEntity
  8
치수문자_일반주서
 62
     0
370
    -2
100
AcDbLine
 10
43.79963065701559
 20
3.175000000000072
 30
0.0
 11
43.79963065701548
 21
37.77900000000007
 31
0.0
  0
LINE
  5
1BF
330
1B9
100
AcDbEntity
  8
치수문자_일반주서
 62
     0
370
    -2
100
AcDbLine
 10
43.79963065701561
 20
-3.174999999999926
 30
0.0
 11
43.79963065701559
 21
3.175000000000072
 31
0.0
  0
LINE
  5
1C0
330
1B9
100
AcDbEntity
  8
치수문자_일반주서
 62
     0
370
    -2
100
AcDbLine
 10
43.79963065701563
 20
-6.476999999999926
 30
0.0
 11
43.79963065701564
 21
-9.778999999999925
 31
0.0
  0
LINE
  5
1C1
330
1B9
100
AcDbEntity
  8
치수문자_일반주서
 62
     0
370
    -2
100
AcDbLine
 10
43.79963065701558
 20
6.477000000000071
 30
0.0
 11
43.79963065701556
 21
9.779000000000071
 31
0.0
  0
SOLID
  5
1C2
330
1B9
100
AcDbEntity
  8
치수문자_일반주서
 62
     0
100
AcDbTrace
 10
44.34996399034896
 20
-6.476999999999924
 30
0.0
 11
43.24929732368229
 21
-6.476999999999927
 31
0.0
 12
43.79963065701561
 22
-3.174999999999926
 32
0.0
 13
43.79963065701561
 23
-3.174999999999926
 33
0.0
  0
SOLID
  5
1C3
330
1B9
100
AcDbEntity
  8
치수문자_일반주서
 62
     0
100
AcDbTrace
 10
43.24929732368224
 20
6.47700000000007
 30
0.0
 11
44.34996399034891
 21
6.477000000000073
 31
0.0
 12
43.79963065701559
 22
3.175000000000072
 32
0.0
 13
43.79963065701559
 23
3.175000000000072
 33
0.0
  0
MTEXT
  5
1C4
330
1B9
100
AcDbEntity
  8
치수문자_일반주서
 62
     0
100
AcDbMText
 10
39.42463065701552
 20
25.09150000000006
 30
0.0
 40
3.5
 41
0.0
 71
     2
 72
     1
  1
\A1;%%c6.35 [1/4]
  7
SLDTEXTSTYLE0
 11
-3.356894814614647E-15
 21
1.0
 31
0.0
 73
     1
 44
1.0
  0
POINT
  5
1C5
330
1B9
100
AcDbEntity
  8
Defpoints
 62
     0
100
AcDbPoint
 10
24.79963065701558
 20
-3.174999999999995
 30
0.0
  0
POINT
  5
1C6
330
1B9
100
AcDbEntity
  8
Defpoints
 62
     0
100
AcDbPoint
 10
24.79963065701558
 20
3.175000000000004
 30
0.0
  0
POINT
  5
1C7
330
1B9
100
AcDbEntity
  8
Defpoints
 62
     0
100
AcDbPoint
 10
43.79963065701559
 20
3.17500000000007
 30
0.0
  0
ENDBLK
  5
1BB
330
1B9
100
AcDbEntity
  8
0
100
AcDbBlockEnd
  0
BLOCK
  5
1CF
330
1CE
100
AcDbEntity
  8
0
100
AcDbBlockBegin
  2
_D_2
 70
     0
 10
0.0
 20
0.0
 30
0.0
  3
_D_2
  1
_D_2
  0
LINE
  5
1D1
330
1CE
100
AcDbEntity
  8
치수문자_일반주서
 62
     0
370
    -2
100
AcDbLine
 10
24.79963065701557
 20
3.033261423860895
 30
0.0
 11
24.79963065701557
 21
26.08723932355743
 31
0.0
  0
LINE
  5
1D2
330
1CE
100
AcDbEntity
  8
치수문자_일반주서
 62
     0
370
    -2
100
AcDbLine
 10
8.92463065701557
 20
-2.762278136019766
 30
0.0
 11
8.92463065701557
 21
26.08723932355743
 31
0.0
  0
LINE
  5
1D3
330
1CE
100
AcDbEntity
  8
치수문자_일반주서
 62
     0
370
    -2
100
AcDbLine
 10
8.92463065701557
 20
26.08723932355743
 30
0.0
 11
-19.75236934298443
 21
26.08723932355743
 31
0.0
  0
LINE
  5
1D4
330
1CE
100
AcDbEntity
  8
치수문자_일반주서
 62
     0
370
    -2
100
AcDbLine
 10
21.49763065701557
 20
26.08723932355743
 30
0.0
 11
12.22663065701557
 21
26.08723932355743
 31
0.0
  0
SOLID
  5
1D5
330
1CE
100
AcDbEntity
  8
치수문자_일반주서
 62
     0
100
AcDbTrace
 10
21.49763065701557
 20
25.53690599022409
 30
0.0
 11
21.49763065701557
 21
26.63757265689076
 31
0.0
 12
24.79963065701557
 22
26.08723932355743
 32
0.0
 13
24.79963065701557
 23
26.08723932355743
 33
0.0
  0
SOLID
  5
1D6
330
1CE
100
AcDbEntity
  8
치수문자_일반주서
 62
     0
100
AcDbTrace
 10
12.22663065701557
 20
26.63757265689076
 30
0.0
 11
12.22663065701557
 21
25.53690599022409
 31
0.0
 12
8.92463065701557
 22
26.08723932355743
 32
0.0
 13
8.92463065701557
 23
26.08723932355743
 33
0.0
  0
MTEXT
  5
1D7
330
1CE
100
AcDbEntity
  8
치수문자_일반주서
 62
     0
100
AcDbMText
 10
-7.06486934298443
 20
30.46223932355743
 30
0.0
 40
3.5
 41
0.0
 71
     2
 72
     1
  1
\A1;15.88 [5/8]
  7
SLDTEXTSTYLE0
 73
     1
 44
1.0
  0
POINT
  5
1D8
330
1CE
100
AcDbEntity
  8
Defpoints
 62
     0
100
AcDbPoint
 10
24.79963065701557
 20
2.970761423860895
 30
0.0
  0
POINT
  5
1D9
330
1CE
100
AcDbEntity
  8
Defpoints
 62
     0
100
AcDbPoint
 10
8.92463065701557
 20
-2.824778136019766
 30
0.0
  0
POINT
  5
1DA
330
1CE
100
AcDbEntity
  8
Defpoints
 62
     0
100
AcDbPoint
 10
8.92463065701557
 20
26.08723932355743
 30
0.0
  0
ENDBLK
  5
1D0
330
1CE
100
AcDbEntity
  8
0
100
AcDbBlockEnd
  0
BLOCK
  5
1E3
330
1E2
100
AcDbEntity
  8
0
100
AcDbBlockBegin
  2
_D_3
 70
     0
 10
0.0
 20
0.0
 30
0.0
  3
_D_3
  1
_D_3
  0
LINE
  5
1E5
330
1E2
100
AcDbEntity
  8
치수문자_일반주서
 62
     0
370
    -2
100
AcDbLine
 10
24.79963065701557
 20
3.033261423860895
 30
0.0
 11
24.79963065701557
 21
39.50824390759582
 31
0.0
  0
LINE
  5
1E6
330
1E2
100
AcDbEntity
  8
치수문자_일반주서
 62
     0
370
    -2
100
AcDbLine
 10
-37.11286934298445
 20
4.324999999999994
 30
0.0
 11
-37.11286934298445
 21
39.50824390759582
 31
0.0
  0
LINE
  5
1E7
330
1E2
100
AcDbEntity
  8
치수문자_일반주서
 62
     0
370
    -2
100
AcDbLine
 10
21.49763065701557
 20
39.50824390759582
 30
0.0
 11
-33.81086934298445
 21
39.50824390759582
 31
0.0
  0
SOLID
  5
1E8
330
1E2
100
AcDbEntity
  8
치수문자_일반주서
 62
     0
100
AcDbTrace
 10
21.49763065701557
 20
38.95791057426248
 30
0.0
 11
21.49763065701557
 21
40.05857724092915
 31
0.0
 12
24.79963065701557
 22
39.50824390759582
 32
0.0
 13
24.79963065701557
 23
39.50824390759582
 33
0.0
  0
SOLID
  5
1E9
330
1E2
100
AcDbEntity
  8
치수문자_일반주서
 62
     0
100
AcDbTrace
 10
-33.81086934298445
 20
40.05857724092915
 30
0.0
 11
-33.81086934298445
 21
38.95791057426248
 31
0.0
 12
-37.11286934298445
 22
39.50824390759582
 32
0.0
 13
-37.11286934298445
 23
39.50824390759582
 33
0.0
  0
MTEXT
  5
1EA
330
1E2
100
AcDbEntity
  8
치수문자_일반주서
 62
     0
100
AcDbMText
 10
-4.019989799230572
 20
43.88324390759582
 30
0.0
 40
3.5
 41
0.0
 71
     2
 72
     1
  1
\A1;61.91 [2 7/16]
  7
SLDTEXTSTYLE0
 73
     1
 44
1.0
  0
POINT
  5
1EB
330
1E2
100
AcDbEntity
  8
Defpoints
 62
     0
100
AcDbPoint
 10
24.79963065701557
 20
2.970761423860895
 30
0.0
  0
POINT
  5
1EC
330
1E2
100
AcDbEntity
  8
Defpoints
 62
     0
100
AcDbPoint
 10
-37.11286934298445
 20
4.262499999999994
 30
0.0
  0
POINT
  5
1ED
330
1E2
100
AcDbEntity
  8
Defpoints
 62
     0
100
AcDbPoint
 10
-37.11286934298445
 20
39.50824390759582
 30
0.0
  0
ENDBLK
  5
1E4
330
1E2
100
AcDbEntity
  8
0
100
AcDbBlockEnd
  0
BLOCK
  5
1FC
330
1FB
100
AcDbEntity
  8
0
100
AcDbBlockBegin
  2
SW_DOWELSYMBOL_0
 70
     0
 10
0.0
 20
0.0
 30
0.0
  3
SW_DOWELSYMBOL_0
  1
SW_DOWELSYMBOL_0
  0
CIRCLE
  5
1FE
330
1FB
100
AcDbEntity
  8
해칭선
 62
     0
100
AcDbCircle
 10
0.0
 20
0.0
 30
0.0
 40
3.000000000000001
  0
HATCH
  5
1FF
330
1FB
100
AcDbEntity
  8
0
  6
Continuous
 62
     0
370
     0
100
AcDbHatch
 10
0.0
 20
0.0
 30
0.0
210
0.0
220
0.0
230
1.0
  2
SOLID
 70
     1
 71
     0
 91
        1
 92
        0
 93
        3
 72
     2
 10
-0.0000000000000087
 20
-0.0000000000000052
 40
3.000000000000001
 50
0.0
 51
90.0
 73
     1
 72
     1
 10
-0.0000000000000087
 20
2.999999999999996
 11
-0.0000000000000087
 21
-0.0000000000000053
 72
     1
 10
-0.0000000000000087
 20
-0.0000000000000052
 11
2.999999999999993
 21
-0.0000000000000052
 97
        0
 75
     0
 76
     1
 98
        1
 10
0.0
 20
0.0
  0
HATCH
  5
200
330
1FB
100
AcDbEntity
  8
0
  6
Continuous
 62
     0
370
     0
100
AcDbHatch
 10
0.0
 20
0.0
 30
0.0
210
0.0
220
0.0
230
1.0
  2
SOLID
 70
     1
 71
     0
 91
        1
 92
        0
 93
        3
 72
     2
 10
-0.0000000000000087
 20
-0.0000000000000052
 40
3.000000000000001
 50
180.0
 51
270.0000000000008
 73
     1
 72
     1
 10
-0.0000000000000087
 20
-3.000000000000007
 11
-0.0000000000000087
 21
-0.0000000000000053
 72
     1
 10
-0.0000000000000087
 20
-0.0000000000000052
 11
-3.00000000000001
 21
-0.0000000000000052
 97
        0
 75
     0
 76
     1
 98
        1
 10
0.0
 20
0.0
  0
ENDBLK
  5
1FD
330
1FB
100
AcDbEntity
  8
0
100
AcDbBlockEnd
  0
ENDSEC
  0
SECTION
  2
ENTITIES
  0
LINE
  5
96
330
1F
100
AcDbEntity
  8
외형선
  6
Continuous
370
    15
100
AcDbLine
 10
-36.61286934298445
 20
4.762499999999995
 30
0.0
 11
-37.11286934298445
 21
4.262499999999993
 31
0.0
  0
LINE
  5
97
330
1F
100
AcDbEntity
  8
외형선
  6
Continuous
370
    15
100
AcDbLine
 10
-37.11286934298445
 20
-4.262500000000005
 30
0.0
 11
-36.61286934298445
 21
-4.762500000000007
 31
0.0
  0
LINE
  5
98
330
1F
100
AcDbEntity
  8
외형선
  6
Continuous
370
    15
100
AcDbLine
 10
1.999999999999991
 20
4.7625
 30
0.0
 11
-12.43041934298434
 21
4.762499999999998
 31
0.0
  0
LINE
  5
99
330
1F
100
AcDbEntity
  8
외형선
  6
Continuous
370
    15
100
AcDbLine
 10
-36.61286934298445
 20
-4.762500000000006
 30
0.0
 11
1.999999999999993
 21
-4.762500000000002
 31
0.0
  0
LINE
  5
9A
330
1F
100
AcDbEntity
  8
외형선
  6
Continuous
370
    15
100
AcDbLine
 10
1.999999999999991
 20
-4.762500000000001
 30
0.0
 11
7.05215575445408
 21
-3.408778945557775
 31
0.0
  0
LINE
  5
9B
330
1F
100
AcDbEntity
  8
외형선
  6
Continuous
370
    15
100
AcDbLine
 10
7.404746945980545
 20
3.31430242052988
 30
0.0
 11
1.999999999999991
 21
4.762499999999999
 31
0.0
  0
SPLINE
  5
9D
330
1F
100
AcDbEntity
  8
외형선
  6
Continuous
370
    15
100
AcDbSpline
210
0.0
220
0.0
230
1.0
 70
     8
 71
     3
 72
     9
 73
     5
 74
     0
 42
0.000000001
 43
0.00000001
 40
0.0
 40
0.0
 40
0.0
 40
0.0
 40
0.2905411727210556
 40
0.9999999999999999
 40
0.9999999999999999
 40
0.9999999999999999
 40
0.9999999999999999
 10
7.196700909091986
 20
-3.140478732967395
 30
0.0
 10
7.229498010180843
 20
-3.133751631185495
 30
0.0
 10
7.342380810169902
 20
-3.110597935897156
 30
0.0
 10
7.443647418023875
 20
-3.049017068003602
 30
0.0
 10
7.515491906874471
 20
-3.00532797768502
 30
0.0
  0
SPLINE
  5
A0
330
1F
100
AcDbEntity
  8
외형선
  6
Continuous
370
    15
100
AcDbSpline
210
0.0
220
0.0
230
1.0
 70
     8
 71
     3
 72
    10
 73
     6
 74
     0
 42
0.000000001
 43
0.00000001
 40
0.0
 40
0.0
 40
0.0
 40
0.0
 40
0.0453398986452384
 40
0.5323283058822964
 40
1.0
 40
1.0
 40
1.0
 40
1.0
 10
16.96200760096721
 20
3.168397522641111
 30
0.0
 10
16.95399567944877
 20
3.16861404449862
 30
0.0
 10
16.85992902433465
 20
3.17115619207808
 30
0.0
 10
16.68419555836631
 20
3.118907537943659
 30
0.0
 10
16.53397199713644
 20
3.03549442873796
 30
0.0
 10
16.46038003778142
 20
2.994631769830883
 30
0.0
  0
SPLINE
  5
A1
330
1F
100
AcDbEntity
  8
외형선
  6
Continuous
370
    15
100
AcDbSpline
210
0.0
220
0.0
230
1.0
 70
     8
 71
     3
 72
    10
 73
     6
 74
     0
 42
0.000000001
 43
0.00000001
 40
0.0
 40
0.0
 40
0.0
 40
0.0
 40
0.2960031248571314
 40
0.6553725973940905
 40
1.0
 40
1.0
 40
1.0
 40
1.0
 10
18.08194410244405
 20
-3.135865958163661
 30
0.0
 10
18.16289604204206
 20
-3.150866139035212
 30
0.0
 10
18.34212956514773
 20
-3.184077638082444
 30
0.0
 10
18.62449366074667
 20
-3.136983366172153
 30
0.0
 10
18.79875162369665
 20
-3.043726979765742
 30
0.0
 10
18.88405607784307
 20
-2.998075205789995
 30
0.0
  0
SPLINE
  5
A2
330
1F
100
AcDbEntity
  8
외형선
  6
Continuous
370
    15
100
AcDbSpline
210
0.0
220
0.0
230
1.0
 70
     8
 71
     3
 72
    11
 73
     7
 74
     0
 42
0.000000001
 43
0.00000001
 40
0.0
 40
0.0
 40
0.0
 40
0.0
 40
0.2479462287966079
 40
0.4995871954887731
 40
0.7514218418234896
 40
0.9999999999999999
 40
0.9999999999999999
 40
0.9999999999999999
 40
0.9999999999999999
 10
16.47335814355889
 20
3.004668417528815
 30
0.0
 10
16.45528166929559
 20
2.995140373345761
 30
0.0
 10
16.41885935658142
 20
2.975942304090955
 30
0.0
 10
16.35211955216441
 20
2.969311246506751
 30
0.0
 10
16.28552171045425
 20
2.982002765577944
 30
0.0
 10
16.24950835989502
 20
3.005271587375031
 30
0.0
 10
16.23161886491992
 20
3.016830286139559
 30
0.0
  0
SPLINE
  5
A3
330
1F
100
AcDbEntity
  8
외형선
  6
Continuous
370
    15
100
AcDbSpline
210
0.0
220
0.0
230
1.0
 70
     8
 71
     3
 72
     9
 73
     5
 74
     0
 42
0.000000001
 43
0.00000001
 40
0.0
 40
0.0
 40
0.0
 40
0.0
 40
0.4990912102009895
 40
1.0
 40
1.0
 40
1.0
 40
1.0
 10
16.24614793685507
 20
3.014499448492408
 30
0.0
 10
16.17623060510354
 20
3.054075728007227
 30
0.0
 10
16.03614131817064
 20
3.133372415077473
 30
0.0
 10
15.87847583221892
 20
3.161104880252023
 30
0.0
 10
15.79949980445778
 20
3.17499631582075
 30
0.0
  0
SPLINE
  5
A4
330
1F
100
AcDbEntity
  8
외형선
  6
Continuous
370
    15
100
AcDbSpline
210
0.0
220
0.0
230
1.0
 70
     8
 71
     3
 72
    11
 73
     7
 74
     0
 42
0.000000001
 43
0.00000001
 40
0.0
 40
0.0
 40
0.0
 40
0.0
 40
0.2487279472590428
 40
0.5001609164926402
 40
0.7515251302438395
 40
1.0
 40
1.0
 40
1.0
 40
1.0
 10
18.87255173086388
 20
-3.006050003991279
 30
0.0
 10
18.89023443904113
 20
-2.996546382397395
 30
0.0
 10
18.92579216235075
 20
-2.977435783291914
 30
0.0
 10
18.99164226575616
 20
-2.970406394050117
 30
0.0
 10
19.05740920686668
 20
-2.982555436593419
 30
0.0
 10
19.09283712177595
 20
-3.005149685107613
 30
0.0
 10
19.11044868284285
 20
-3.016381505791598
 30
0.0
  0
SPLINE
  5
A5
330
1F
100
AcDbEntity
  8
외형선
  6
Continuous
370
    15
100
AcDbSpline
210
0.0
220
0.0
230
1.0
 70
     8
 71
     3
 72
     9
 73
     5
 74
     0
 42
0.000000001
 43
0.00000001
 40
0.0
 40
0.0
 40
0.0
 40
0.0
 40
0.4989002202287006
 40
1.0
 40
1.0
 40
1.0
 40
1.0
 10
19.0964227352822
 20
-3.012647056939681
 30
0.0
 10
19.16650675412437
 20
-3.05252363405178
 30
0.0
 10
19.30698377939016
 20
-3.132452596788697
 30
0.0
 10
19.46493312071481
 20
-3.160644126652221
 30
0.0
 10
19.54408150086762
 20
-3.174770896058249
 30
0.0
  0
SPLINE
  5
A6
330
1F
100
AcDbEntity
  8
외형선
  6
Continuous
370
    15
100
AcDbSpline
210
0.0
220
0.0
230
1.0
 70
     8
 71
     3
 72
    11
 73
     7
 74
     0
 42
0.000000001
 43
0.00000001
 40
0.0
 40
0.0
 40
0.0
 40
0.0
 40
0.2493385323789993
 40
0.5004540511109251
 40
0.7513522869975424
 40
1.0
 40
1.0
 40
1.0
 40
1.0
 10
7.511101287966643
 20
-3.008013794644734
 30
0.0
 10
7.528244232105151
 20
-2.998424168563606
 30
0.0
 10
7.562652294750856
 20
-2.97917657303495
 30
0.0
 10
7.627318786758031
 20
-2.971097261654501
 30
0.0
 10
7.692132711014474
 20
-2.981940120784741
 30
0.0
 10
7.72694925288806
 20
-3.003274387458165
 30
0.0
 10
7.744279097181209
 20
-3.013893463898937
 30
0.0
  0
SPLINE
  5
A7
330
1F
100
AcDbEntity
  8
외형선
  6
Continuous
370
    15
100
AcDbSpline
210
0.0
220
0.0
230
1.0
 70
     8
 71
     3
 72
     9
 73
     5
 74
     0
 42
0.000000001
 43
0.00000001
 40
0.0
 40
0.0
 40
0.0
 40
0.0
 40
0.5431201493117072
 40
1.0
 40
1.0
 40
1.0
 40
1.0
 10
7.732981465656867
 20
-3.009964732787147
 30
0.0
 10
7.790771670950966
 20
-3.043342802682959
 30
0.0
 10
7.897175761035519
 20
-3.104798946297061
 30
0.0
 10
8.015987717322952
 20
-3.133529203923132
 30
0.0
 10
8.070270506171536
 20
-3.146655479737567
 30
0.0
  0
SPLINE
  5
A8
330
1F
100
AcDbEntity
  8
외형선
  6
Continuous
370
    15
100
AcDbSpline
210
0.0
220
0.0
230
1.0
 70
     8
 71
     3
 72
     9
 73
     5
 74
     0
 42
0.000000001
 43
0.00000001
 40
0.0
 40
0.0
 40
0.0
 40
0.0
 40
0.4918365108303104
 40
1.0
 40
1.0
 40
1.0
 40
1.0
 10
15.79750780808914
 20
3.174981103000315
 30
0.0
 10
15.71669657830922
 20
3.160900388837687
 30
0.0
 10
15.55239151351543
 20
3.132271537883013
 30
0.0
 10
15.40518989515077
 20
3.047032806979932
 30
0.0
 10
15.33038740715115
 20
3.003717596071827
 30
0.0
  0
SPLINE
  5
A9
330
1F
100
AcDbEntity
  8
외형선
  6
Continuous
370
    15
100
AcDbSpline
210
0.0
220
0.0
230
1.0
 70
     8
 71
     3
 72
     9
 73
     5
 74
     0
 42
0.000000001
 43
0.00000001
 40
0.0
 40
0.0
 40
0.0
 40
0.0
 40
0.4368205584200016
 40
1.0
 40
1.0
 40
1.0
 40
1.0
 10
19.5537513051604
 20
-3.174766534577127
 30
0.0
 10
19.62534977946867
 20
-3.16243129774868
 30
0.0
 10
19.78925798600374
 20
-3.134192615775779
 30
0.0
 10
19.93564154948425
 20
-3.050635571686694
 30
0.0
 10
20.01808176302168
 20
-3.003577962256526
 30
0.0
  0
LINE
  5
AA
330
1F
100
AcDbEntity
  8
외형선
  6
Continuous
370
    15
100
AcDbLine
 10
8.079856033360297
 20
-3.1499167495272
 30
0.0
 11
8.816583656635364
 21
-3.030867120271995
 31
0.0
  0
SPLINE
  5
AB
330
1F
100
AcDbEntity
  8
외형선
  6
Continuous
370
    15
100
AcDbSpline
210
0.0
220
0.0
230
1.0
 70
     8
 71
     3
 72
     9
 73
     5
 74
     0
 42
0.000000001
 43
0.00000001
 40
0.0
 40
0.0
 40
0.0
 40
0.0
 40
0.5206428096324259
 40
1.0
 40
1.0
 40
1.0
 40
1.0
 10
15.33311122774685
 20
3.005589885446602
 30
0.0
 10
15.29515054633183
 20
2.990193549397517
 30
0.0
 10
15.22223936670406
 20
2.960621766662336
 30
0.0
 10
15.15857979682898
 20
2.988951264242944
 30
0.0
 10
15.12806412427365
 20
3.002531212607709
 30
0.0
  0
SPLINE
  5
AC
330
1F
100
AcDbEntity
  8
외형선
  6
Continuous
370
    15
100
AcDbSpline
210
0.0
220
0.0
230
1.0
 70
     8
 71
     3
 72
    11
 73
     7
 74
     0
 42
0.000000001
 43
0.00000001
 40
0.0
 40
0.0
 40
0.0
 40
0.0
 40
0.2451980489244961
 40
0.5004423645532822
 40
0.7554580245326353
 40
1.0
 40
1.0
 40
1.0
 40
1.0
 10
15.12556523236223
 20
3.004195371723822
 30
0.0
 10
15.03703466678571
 20
3.051630518776212
 30
0.0
 10
14.85634625687915
 20
3.148444328094659
 30
0.0
 10
14.54915738725386
 20
3.1885001839185
 30
0.0
 10
14.2420913922325
 20
3.148639223297262
 30
0.0
 10
14.0615219645229
 20
3.051884185261935
 30
0.0
 10
13.97313015259187
 20
3.004520945349847
 30
0.0
  0
SPLINE
  5
AD
330
1F
100
AcDbEntity
  8
외형선
  6
Continuous
370
    15
100
AcDbSpline
210
0.0
220
0.0
230
1.0
 70
     8
 71
     3
 72
     9
 73
     5
 74
     0
 42
0.000000001
 43
0.00000001
 40
0.0
 40
0.0
 40
0.0
 40
0.0
 40
0.5353608802105587
 40
1.0
 40
1.0
 40
1.0
 40
1.0
 10
20.01582103897954
 20
-3.005112394805588
 30
0.0
 10
20.05682282480952
 20
-2.98988621118966
 30
0.0
 10
20.13341001551695
 20
-2.961445239540891
 30
0.0
 10
20.191995483195
 20
-2.989018113265403
 30
0.0
 10
20.21921658332938
 20
-3.001829549042828
 30
0.0
  0
SPLINE
  5
AE
330
1F
100
AcDbEntity
  8
외형선
  6
Continuous
370
    15
100
AcDbSpline
210
0.0
220
0.0
230
1.0
 70
     8
 71
     3
 72
    11
 73
     7
 74
     0
 42
0.000000001
 43
0.00000001
 40
0.0
 40
0.0
 40
0.0
 40
0.0
 40
0.2867431807776404
 40
0.5568273512957976
 40
0.7966034850977367
 40
1.0
 40
1.0
 40
1.0
 40
1.0
 10
20.22324093188572
 20
-3.004592728951208
 30
0.0
 10
20.3297659526861
 20
-3.059539604327265
 30
0.0
 10
20.53662717609217
 20
-3.166241088891447
 30
0.0
 10
20.86681592547424
 20
-3.186499755222236
 30
0.0
 10
21.15283422043036
 20
-3.128724777398156
 30
0.0
 10
21.30876266317365
 20
-3.04112847233652
 30
0.0
 10
21.38032687617473
 20
-3.000925668260169
 30
0.0
  0
SPLINE
  5
AF
330
1F
100
AcDbEntity
  8
외형선
  6
Continuous
370
    15
100
AcDbSpline
210
0.0
220
0.0
230
1.0
 70
     8
 71
     3
 72
     9
 73
     5
 74
     0
 42
0.000000001
 43
0.00000001
 40
0.0
 40
0.0
 40
0.0
 40
0.0
 40
0.500884889886769
 40
1.0
 40
1.0
 40
1.0
 40
1.0
 10
8.874185391877047
 20
-3.00506525126298
 30
0.0
 10
8.909237869365484
 20
-2.98987628808089
 30
0.0
 10
8.979218973200261
 20
-2.95955202897712
 30
0.0
 10
9.049714090008852
 20
-2.991028799762314
 30
0.0
 10
9.084899267997217
 20
-3.006739331678776
 30
0.0
  0
SPLINE
  5
B0
330
1F
100
AcDbEntity
  8
외형선
  6
Continuous
370
    15
100
AcDbSpline
210
0.0
220
0.0
230
1.0
 70
     8
 71
     3
 72
     9
 73
     5
 74
     0
 42
0.000000001
 43
0.00000001
 40
0.0
 40
0.0
 40
0.0
 40
0.0
 40
0.4977444398422322
 40
1.0
 40
1.0
 40
1.0
 40
1.0
 10
9.083113945337368
 20
-3.005591680258175
 30
0.0
 10
9.155286040839602
 20
-3.047238698422325
 30
0.0
 10
9.3002843366018
 20
-3.130910186902137
 30
0.0
 10
9.461768550684768
 20
-3.160020500168698
 30
0.0
 10
9.542874895085644
 20
-3.174641316864761
 30
0.0
  0
SPLINE
  5
B1
330
1F
100
AcDbEntity
  8
외형선
  6
Continuous
370
    15
100
AcDbSpline
210
0.0
220
0.0
230
1.0
 70
     8
 71
     3
 72
     9
 73
     5
 74
     0
 42
0.000000001
 43
0.00000001
 40
0.0
 40
0.0
 40
0.0
 40
0.0
 40
0.5013380264425635
 40
1.0
 40
1.0
 40
1.0
 40
1.0
 10
9.559449843293432
 20
-3.173900542162185
 30
0.0
 10
9.639361998714838
 20
-3.159249400027578
 30
0.0
 10
9.798759752738112
 20
-3.130025320939523
 30
0.0
 10
9.94099036885407
 20
-3.048297221254926
 30
0.0
 10
10.01191536858675
 20
-3.007542525771107
 30
0.0
  0
SPLINE
  5
B2
330
1F
100
AcDbEntity
  8
외형선
  6
Continuous
370
    15
100
AcDbSpline
210
0.0
220
0.0
230
1.0
 70
     8
 71
     3
 72
     9
 73
     5
 74
     0
 42
0.000000001
 43
0.00000001
 40
0.0
 40
0.0
 40
0.0
 40
0.0
 40
0.5080420506662606
 40
1.0
 40
1.0
 40
1.0
 40
1.0
 10
13.97810386267253
 20
3.007506339133373
 30
0.0
 10
13.93357784716442
 20
2.991778982765293
 30
0.0
 10
13.84593546510229
 20
2.960822182344039
 30
0.0
 10
13.79414860241527
 20
2.989201001874707
 30
0.0
 10
13.76867164364534
 20
3.003162187735526
 30
0.0
  0
SPLINE
  5
B3
330
1F
100
AcDbEntity
  8
외형선
  6
Continuous
370
    15
100
AcDbSpline
210
0.0
220
0.0
230
1.0
 70
     8
 71
     3
 72
     9
 73
     5
 74
     0
 42
0.000000001
 43
0.00000001
 40
0.0
 40
0.0
 40
0.0
 40
0.0
 40
0.5043275555256627
 40
1.0
 40
1.0
 40
1.0
 40
1.0
 10
21.36539235083234
 20
-3.009787461694488
 30
0.0
 10
21.41119240098136
 20
-2.99302660572833
 30
0.0
 10
21.50200649520879
 20
-2.959792538339947
 30
0.0
 10
21.55523110695149
 20
-2.989736067562457
 30
0.0
 10
21.58161308036019
 20
-3.004578249888368
 30
0.0
  0
SPLINE
  5
B4
330
1F
100
AcDbEntity
  8
외형선
  6
Continuous
370
    15
100
AcDbSpline
210
0.0
220
0.0
230
1.0
 70
     8
 71
     3
 72
     9
 73
     5
 74
     0
 42
0.000000001
 43
0.00000001
 40
0.0
 40
0.0
 40
0.0
 40
0.0
 40
0.4982052332745173
 40
1.0
 40
1.0
 40
1.0
 40
1.0
 10
13.76226097963531
 20
3.007338772847314
 30
0.0
 10
13.69020242862583
 20
3.048660330159181
 30
0.0
 10
13.54556614984599
 20
3.131601163679286
 30
0.0
 10
13.38423038412543
 20
3.160372753276648
 30
0.0
 10
13.30327294120121
 20
3.174810186366978
 30
0.0
  0
SPLINE
  5
B5
330
1F
100
AcDbEntity
  8
외형선
  6
Continuous
370
    15
100
AcDbSpline
210
0.0
220
0.0
230
1.0
 70
     8
 71
     3
 72
     9
 73
     5
 74
     0
 42
0.000000001
 43
0.00000001
 40
0.0
 40
0.0
 40
0.0
 40
0.0
 40
0.5007400084512399
 40
0.9999999999999999
 40
0.9999999999999999
 40
0.9999999999999999
 40
0.9999999999999999
 10
10.00000014995628
 20
-3.013223292392501
 30
0.0
 10
10.03754142870737
 20
-2.994503628904633
 30
0.0
 10
10.11251302697689
 20
-2.957119630877857
 30
0.0
 10
10.18861097593856
 20
-2.990160794429464
 30
0.0
 10
10.22660363729404
 20
-3.006656925465002
 30
0.0
  0
SPLINE
  5
B6
330
1F
100
AcDbEntity
  8
외형선
  6
Continuous
370
    15
100
AcDbSpline
210
0.0
220
0.0
230
1.0
 70
     8
 71
     3
 72
     9
 73
     5
 74
     0
 42
0.000000001
 43
0.00000001
 40
0.0
 40
0.0
 40
0.0
 40
0.0
 40
0.4983799318602884
 40
1.0
 40
1.0
 40
1.0
 40
1.0
 10
21.587798901011
 20
-3.008469807390919
 30
0.0
 10
21.65884789533153
 20
-3.049212921073685
 30
0.0
 10
21.80140779748352
 20
-3.130964033183444
 30
0.0
 10
21.96099788148839
 20
-3.159883745927335
 30
0.0
 10
22.04105147030133
 20
-3.174390454204507
 30
0.0
  0
SPLINE
  5
B7
330
1F
100
AcDbEntity
  8
외형선
  6
Continuous
370
    15
100
AcDbSpline
210
0.0
220
0.0
230
1.0
 70
     8
 71
     3
 72
    10
 73
     6
 74
     0
 42
0.000000001
 43
0.00000001
 40
0.0
 40
0.0
 40
0.0
 40
0.0
 40
0.4585710818307416
 40
0.936896472041579
 40
1.0
 40
1.0
 40
1.0
 40
1.0
 10
10.22365339804951
 20
-3.004857877201419
 30
0.0
 10
10.30913361389608
 20
-3.04925758246513
 30
0.0
 10
10.48377635921766
 20
-3.139969641880621
 30
0.0
 10
10.69758750433977
 20
-3.186134627844334
 30
0.0
 10
10.80954762202579
 20
-3.169243438251267
 30
0.0
 10
10.82259657116674
 20
-3.167274770492735
 30
0.0
  0
LINE
  5
B8
330
1F
100
AcDbEntity
  8
외형선
  6
Continuous
370
    15
100
AcDbLine
 10
13.30903334196074
 20
3.173985423565221
 30
0.0
 11
13.18801058775031
 21
3.146228808666984
 31
0.0
  0
LINE
  5
B9
330
1F
100
AcDbEntity
  8
외형선
  6
Continuous
370
    15
100
AcDbLine
 10
22.03338493914977
 20
-3.17260773590012
 30
0.0
 11
22.05710348688966
 21
-3.167231947022828
 31
0.0
  0
LINE
  5
BA
330
1F
100
AcDbEntity
  8
외형선
  6
Continuous
370
    15
100
AcDbLine
 10
24.79963065701557
 20
2.975000000000003
 30
0.0
 11
24.59963065701557
 21
3.175000000000001
 31
0.0
  0
LINE
  5
BB
330
1F
100
AcDbEntity
  8
외형선
  6
Continuous
370
    15
100
AcDbLine
 10
12.77547776236441
 20
2.983768844659816
 30
0.0
 11
12.7275100521712
 21
2.977876513364211
 31
0.0
  0
LINE
  5
BC
330
1F
100
AcDbEntity
  8
외형선
  6
Continuous
370
    15
100
AcDbLine
 10
12.69778773854343
 20
2.978951884633505
 30
0.0
 11
12.63483570686694
 21
2.997447152998315
 31
0.0
  0
LINE
  5
BD
330
1F
100
AcDbEntity
  8
외형선
  6
Continuous
370
    15
100
AcDbLine
 10
23.76577568539474
 20
3.005142219555067
 30
0.0
 11
23.71414553881842
 21
3.036248996695852
 31
0.0
  0
LINE
  5
BE
330
1F
100
AcDbEntity
  8
외형선
  6
Continuous
370
    15
100
AcDbLine
 10
-36.61286934298445
 20
4.762499999999996
 30
0.0
 11
-36.61286934298445
 21
-4.762500000000007
 31
0.0
  0
LINE
  5
BF
330
1F
100
AcDbEntity
  8
외형선
  6
Continuous
370
    15
100
AcDbLine
 10
-37.11286934298445
 20
4.262499999999994
 30
0.0
 11
-37.11286934298445
 21
-4.262500000000008
 31
0.0
  0
LINE
  5
C0
330
1F
100
AcDbEntity
  8
외형선
  6
Continuous
370
    15
100
AcDbLine
 10
1.999999999999991
 20
4.762499999999999
 30
0.0
 11
1.999999999999993
 21
-4.762500000000002
 31
0.0
  0
SPLINE
  5
C1
330
1F
100
AcDbEntity
  8
외형선
  6
Continuous
370
    15
100
AcDbSpline
210
0.0
220
0.0
230
1.0
 70
     8
 71
     3
 72
    15
 73
    11
 74
     0
 42
0.000000001
 43
0.00000001
 40
0.0
 40
0.0
 40
0.0
 40
0.0
 40
0.1010244699049417
 40
0.3060423022456833
 40
0.4102393037244131
 40
0.5185841792592458
 40
0.738954438963974
 40
0.8512441536179388
 40
0.9597175724753868
 40
1.0
 40
1.0
 40
1.0
 40
1.0
 10
7.355186481998767
 20
-2.393660683093425
 30
0.0
 10
7.345050757747983
 20
-2.454654331667101
 30
0.0
 10
7.314345717795224
 20
-2.639427749923256
 30
0.0
 10
7.271835768864938
 20
-2.850550445418824
 30
0.0
 10
7.228501490201888
 20
-3.030763853741384
 30
0.0
 10
7.183704831434674
 20
-3.189959496894159
 30
0.0
 10
7.138537441492233
 20
-3.309857412383291
 30
0.0
 10
7.095402477559175
 20
-3.37678333550738
 30
0.0
 10
7.06957042153806
 20
-3.408241838076895
 30
0.0
 10
7.054465760950677
 20
-3.403436228925701
 30
0.0
 10
7.050375485440883
 20
-3.402134891149386
 30
0.0
  0
LINE
  5
C4
330
1F
100
AcDbEntity
  8
외형선
  6
Continuous
370
    15
100
AcDbLine
 10
7.355186481998767
 20
-2.393660683093425
 30
0.0
 11
7.355186481998767
 21
-2.283902372603143
 31
0.0
  0
SPLINE
  5
C6
330
1F
100
AcDbEntity
  8
외형선
  6
Continuous
370
    15
100
AcDbSpline
210
0.0
220
0.0
230
1.0
 70
    24
 71
     3
 72
     8
 73
     4
 74
     0
 42
0.000000001
 43
0.00000001
 40
0.0
 40
0.0
 40
0.0
 40
0.0
 40
0.0782142984823389
 40
0.0782142984823389
 40
0.0782142984823389
 40
0.0782142984823389
 10
7.404746945980471
 20
3.102918031607405
 30
0.0
 10
7.404746945980497
 20
3.104696432543599
 30
0.0
 10
7.404746945980522
 20
3.201615897022889
 30
0.0
 10
7.404746945980545
 20
3.31430242052988
 30
0.0
  0
SPLINE
  5
C7
330
1F
100
AcDbEntity
  8
외형선
  6
Continuous
370
    15
100
AcDbSpline
210
0.0
220
0.0
230
1.0
 70
     8
 71
     3
 72
     8
 73
     4
 74
     0
 42
0.000000001
 43
0.00000001
 40
0.0
 40
0.0
 40
0.0
 40
0.0
 40
0.0000457365051744
 40
0.0000457365051744
 40
0.0000457365051744
 40
0.0000457365051744
 10
7.440144325010795
 20
2.797838725366518
 30
0.0
 10
7.428467896732913
 20
2.807380230878493
 30
0.0
 10
7.416662368192618
 20
2.816702939536596
 30
0.0
 10
7.404746945980596
 20
2.825789166539249
 30
0.0
  0
SPLINE
  5
C9
330
1F
100
AcDbEntity
  8
외형선
  6
Continuous
370
    15
100
AcDbSpline
210
0.0
220
0.0
230
1.0
 70
     8
 71
     3
 72
    10
 73
     6
 74
     0
 42
0.000000001
 43
0.00000001
 40
0.0
 40
0.0
 40
0.0
 40
0.0
 40
0.5
 40
0.5
 40
1.0
 40
1.0
 40
1.0
 40
1.0
 10
23.23645485548323
 20
-1.07769916477727
 30
0.0
 10
23.39402282397088
 20
-1.187383683505301
 30
0.0
 10
23.56910184404552
 20
-1.303959463858053
 30
0.0
 10
23.92215048229321
 20
-1.486496573624276
 30
0.0
 10
24.09808111408504
 20
-1.550707687466623
 30
0.0
 10
24.24852359965458
 20
-1.574910786795298
 30
0.0
  0
SPLINE
  5
CA
330
1F
100
AcDbEntity
  8
외형선
  6
Continuous
370
    15
100
AcDbSpline
210
0.0
220
0.0
230
1.0
 70
     8
 71
     3
 72
    10
 73
     6
 74
     0
 42
0.000000001
 43
0.00000001
 40
0.0
 40
0.0
 40
0.0
 40
0.0
 40
0.5
 40
0.5
 40
1.0
 40
1.0
 40
1.0
 40
1.0
 10
24.5355917437132
 20
0.5231851565021066
 30
0.0
 10
24.37811538637351
 20
0.616591363946765
 30
0.0
 10
24.2029191960575
 20
0.7288867040597216
 30
0.0
 10
23.8502066518409
 20
0.9247644956522065
 30
0.0
 10
23.67456221009262
 20
1.006423337034024
 30
0.0
 10
23.52453169778673
 20
1.05654958715119
 30
0.0
  0
SPLINE
  5
CB
330
1F
100
AcDbEntity
  8
외형선
  6
Continuous
370
    15
100
AcDbSpline
210
0.0
220
0.0
230
1.0
 70
     8
 71
     3
 72
    10
 73
     6
 74
     0
 42
0.000000001
 43
0.00000001
 40
0.0
 40
0.0
 40
0.0
 40
0.0
 40
0.5
 40
0.5
 40
1.0
 40
1.0
 40
1.0
 40
1.0
 10
12.10152041623782
 20
1.007735292066113
 30
0.0
 10
11.94423693471448
 20
1.115188646540328
 30
0.0
 10
11.76961064239948
 20
1.231479449525791
 30
0.0
 10
11.41740299821587
 20
1.416148579576822
 30
0.0
 10
11.24186699898714
 20
1.48257739785238
 30
0.0
 10
11.09180180706652
 20
1.510022004599589
 30
0.0
  0
SPLINE
  5
CC
330
1F
100
AcDbEntity
  8
외형선
  6
Continuous
370
    15
100
AcDbSpline
210
0.0
220
0.0
230
1.0
 70
     8
 71
     3
 72
    10
 73
     6
 74
     0
 42
0.000000001
 43
0.00000001
 40
0.0
 40
0.0
 40
0.0
 40
0.0
 40
0.5000000000000001
 40
0.5000000000000001
 40
1.0
 40
1.0
 40
1.0
 40
1.0
 10
10.80324171300165
 20
-0.5967581742505951
 30
0.0
 10
10.96058028689024
 20
-0.6922388813906379
 30
0.0
 10
11.13571679739119
 20
-0.8051337209978837
 30
0.0
 10
11.48824116907422
 20
-0.9995726327401622
 30
0.0
 10
11.66361572409328
 20
-1.079139306644189
 30
0.0
 10
11.81352061388215
 20
-1.126223620336938
 30
0.0
  0
SPLINE
  5
CD
330
1F
100
AcDbEntity
  8
외형선
  6
Continuous
370
    15
100
AcDbSpline
210
0.0
220
0.0
230
1.0
 70
     8
 71
     3
 72
    10
 73
     6
 74
     0
 42
0.000000001
 43
0.00000001
 40
0.0
 40
0.0
 40
0.0
 40
0.0
 40
0.5
 40
0.5
 40
1.0
 40
1.0
 40
1.0
 40
1.0
 10
14.43407204776661
 20
-0.250352126393081
 30
0.0
 10
14.27667764572871
 20
-0.1838313135223714
 30
0.0
 10
14.10146709991072
 20
-0.0827469526328301
 30
0.0
 10
13.74871676004009
 20
0.1203741515806854
 30
0.0
 10
13.57317948193203
 20
0.2206486152724831
 30
0.0
 10
13.42307130069868
 20
0.302455500401468
 30
0.0
  0
SPLINE
  5
CE
330
1F
100
AcDbEntity
  8
외형선
  6
Continuous
370
    15
100
AcDbSpline
210
0.0
220
0.0
230
1.0
 70
     8
 71
     3
 72
    10
 73
     6
 74
     0
 42
0.000000001
 43
0.00000001
 40
0.0
 40
0.0
 40
0.0
 40
0.0
 40
0.5
 40
0.5
 40
1.0
 40
1.0
 40
1.0
 40
1.0
 10
13.13555063526624
 20
-1.759628341676298
 30
0.0
 10
13.29283367307083
 20
-1.884229231661944
 30
0.0
 10
13.46753203930557
 20
-1.998703708105755
 30
0.0
 10
13.8198825614857
 20
-2.152067377396757
 30
0.0
 10
13.9954867371835
 20
-2.189098546509408
 30
0.0
 10
14.14555379878636
 20
-2.177329717035685
 30
0.0
  0
SPLINE
  5
CF
330
1F
100
AcDbEntity
  8
외형선
  6
Continuous
370
    15
100
AcDbSpline
210
0.0
220
0.0
230
1.0
 70
     8
 71
     3
 72
     8
 73
     4
 74
     0
 42
0.000000001
 43
0.00000001
 40
0.0
 40
0.0
 40
0.0
 40
0.0
 40
1.0
 40
1.0
 40
1.0
 40
1.0
 10
7.404746945980598
 20
-1.996472053819185
 30
0.0
 10
7.38835125384709
 20
-2.097295954083742
 30
0.0
 10
7.371769103233914
 20
-2.193487299129464
 30
0.0
 10
7.355186481998767
 20
-2.283902372603146
 30
0.0
  0
SPLINE
  5
D1
330
1F
100
AcDbEntity
  8
외형선
  6
Continuous
370
    15
100
AcDbSpline
210
0.0
220
0.0
230
1.0
 70
    24
 71
     3
 72
    16
 73
    12
 74
     0
 42
0.000000001
 43
0.00000001
 40
0.0
 40
0.0
 40
0.0
 40
0.0
 40
0.2500000000000001
 40
0.2500000000000001
 40
0.5000000000000002
 40
0.5000000000000002
 40
0.6250000000000002
 40
0.6250000000000002
 40
0.7500000000000002
 40
0.7500000000000002
 40
1.0
 40
1.0
 40
1.0
 40
1.0
 10
7.404746945980596
 20
1.193524044008871
 30
0.0
 10
7.404746945980596
 20
0.9428037219227402
 30
0.0
 10
7.404746945980596
 20
0.677934843990864
 30
0.0
 10
7.404746945980596
 20
0.1213775159123066
 30
0.0
 10
7.404746945980598
 20
-0.1620566318648428
 30
0.0
 10
7.404746945980598
 20
-0.5839493731476615
 30
0.0
 10
7.404746945980602
 20
-0.7250121278491685
 30
0.0
 10
7.404746945980602
 20
-0.9985897961404308
 30
0.0
 10
7.404746945980617
 20
-1.13219530118636
 30
0.0
 10
7.404746945980617
 20
-1.52356747491276
 30
0.0
 10
7.404746945980569
 20
-1.772421330541877
 30
0.0
 10
7.404746945980569
 20
-1.99647205381929
 30
0.0
  0
SPLINE
  5
D3
330
1F
100
AcDbEntity
  8
외형선
  6
Continuous
370
    15
100
AcDbSpline
210
0.0
220
0.0
230
1.0
 70
     8
 71
     3
 72
     8
 73
     4
 74
     0
 42
0.000000001
 43
0.00000001
 40
0.0
 40
0.0
 40
0.0
 40
0.0
 40
1.0
 40
1.0
 40
1.0
 40
1.0
 10
7.724216485686309
 20
-2.467385510634118
 30
0.0
 10
7.624317027913382
 20
-2.497064512286848
 30
0.0
 10
7.516552449628299
 20
-2.49946291080851
 30
0.0
 10
7.404746945980596
 20
-2.480239694191632
 30
0.0
  0
SPLINE
  5
D4
330
1F
100
AcDbEntity
  8
외형선
  6
Continuous
370
    15
100
AcDbSpline
210
0.0
220
0.0
230
1.0
 70
    24
 71
     3
 72
     8
 73
     4
 74
     0
 42
0.000000001
 43
0.00000001
 40
0.0
 40
0.0
 40
0.0
 40
0.0
 40
1.0
 40
1.0
 40
1.0
 40
1.0
 10
7.40474694598058
 20
-1.996472053819257
 30
0.0
 10
7.40474694598058
 20
-2.177886995066691
 30
0.0
 10
7.404746945980596
 20
-2.339145852418313
 30
0.0
 10
7.404746945980596
 20
-2.480255519195501
 30
0.0
  0
SPLINE
  5
D5
330
1F
100
AcDbEntity
  8
외형선
  6
Continuous
370
    15
100
AcDbSpline
210
0.0
220
0.0
230
1.0
 70
     8
 71
     3
 72
    12
 73
     8
 74
     0
 42
0.000000001
 43
0.00000001
 40
0.0
 40
0.0
 40
0.0
 40
0.0
 40
0.25
 40
0.25
 40
0.5
 40
0.5
 40
1.0
 40
1.0
 40
1.0
 40
1.0
 10
12.76061607282392
 20
0.6860962480842326
 30
0.0
 10
12.73719111957177
 20
0.5014604041802171
 30
0.0
 10
12.71486603830815
 20
0.3161022753991032
 30
0.0
 10
12.66766969576943
 20
-0.062725447078661
 30
0.0
 10
12.64337754358759
 20
-0.25466785085888
 30
0.0
 10
12.57014785320114
 20
-0.824120220010491
 30
0.0
 10
12.52142206783168
 20
-1.193129724338716
 30
0.0
 10
12.47584567610445
 20
-1.522049165777129
 30
0.0
  0
SPLINE
  5
D6
330
1F
100
AcDbEntity
  8
외형선
  6
Continuous
370
    15
100
AcDbSpline
210
0.0
220
0.0
230
1.0
 70
     8
 71
     3
 72
     8
 73
     4
 74
     0
 42
0.000000001
 43
0.00000001
 40
0.0
 40
0.0
 40
0.0
 40
0.0
 40
1.0
 40
1.0
 40
1.0
 40
1.0
 10
12.07162119917592
 20
-1.257143512764843
 30
0.0
 10
12.19642815459705
 20
-1.348173541983622
 30
0.0
 10
12.33456654104743
 20
-1.4424566665958
 30
0.0
 10
12.47584567610446
 20
-1.522049165777112
 30
0.0
  0
SPLINE
  5
D7
330
1F
100
AcDbEntity
  8
외형선
  6
Continuous
370
    15
100
AcDbSpline
210
0.0
220
0.0
230
1.0
 70
     8
 71
     3
 72
     8
 73
     4
 74
     0
 42
0.000000001
 43
0.00000001
 40
0.0
 40
0.0
 40
0.0
 40
0.0
 40
1.0
 40
1.0
 40
1.0
 40
1.0
 10
12.76061607282392
 20
0.6860962480842261
 30
0.0
 10
12.61820412801013
 20
0.7627950569378075
 30
0.0
 10
12.47987062909965
 20
0.8276035120576086
 30
0.0
 10
12.3593551637763
 20
0.8738391452281506
 30
0.0
  0
SPLINE
  5
D8
330
1F
100
AcDbEntity
  8
외형선
  6
Continuous
370
    15
100
AcDbSpline
210
0.0
220
0.0
230
1.0
 70
     8
 71
     3
 72
     8
 73
     4
 74
     0
 42
0.000000001
 43
0.00000001
 40
0.0
 40
0.0
 40
0.0
 40
0.0
 40
1.0
 40
1.0
 40
1.0
 40
1.0
 10
12.47584567610476
 20
-1.522049165777078
 30
0.0
 10
12.61841980866479
 20
-1.58580531720468
 30
0.0
 10
12.75689422869296
 20
-1.627863160492927
 30
0.0
 10
12.87754127175067
 20
-1.643455174277227
 30
0.0
  0
SPLINE
  5
D9
330
1F
100
AcDbEntity
  8
외형선
  6
Continuous
370
    15
100
AcDbSpline
210
0.0
220
0.0
230
1.0
 70
     8
 71
     3
 72
     8
 73
     4
 74
     0
 42
0.000000001
 43
0.00000001
 40
0.0
 40
0.0
 40
0.0
 40
0.0
 40
1.0
 40
1.0
 40
1.0
 40
1.0
 10
13.16467976059556
 20
0.4437107922712241
 30
0.0
 10
13.03990485122767
 20
0.5160779677062048
 30
0.0
 10
12.90185797824249
 20
0.6032808168982576
 30
0.0
 10
12.76061607282392
 20
0.6860962480842291
 30
0.0
  0
SPLINE
  5
DA
330
1F
100
AcDbEntity
  8
외형선
  6
Continuous
370
    15
100
AcDbSpline
210
0.0
220
0.0
230
1.0
 70
     8
 71
     3
 72
    10
 73
     6
 74
     0
 42
0.000000001
 43
0.00000001
 40
0.0
 40
0.0
 40
0.0
 40
0.0
 40
0.5
 40
0.5
 40
1.0
 40
1.0
 40
1.0
 40
1.0
 10
20.90643882017478
 20
0.1747685632868591
 30
0.0
 10
21.06388467740813
 20
0.1055010705214251
 30
0.0
 10
21.23905649530224
 20
0.0031236544311632
 30
0.0
 10
21.59160728269412
 20
-0.1998977171297329
 30
0.0
 10
21.76706099382233
 20
-0.2987850016671172
 30
0.0
 10
21.91692123028123
 20
-0.3778205385305462
 30
0.0
  0
SPLINE
  5
DB
330
1F
100
AcDbEntity
  8
외형선
  6
Continuous
370
    15
100
AcDbSpline
210
0.0
220
0.0
230
1.0
 70
     8
 71
     3
 72
    10
 73
     6
 74
     0
 42
0.000000001
 43
0.00000001
 40
0.0
 40
0.0
 40
0.0
 40
0.0
 40
0.4999999999999999
 40
0.4999999999999999
 40
1.0
 40
1.0
 40
1.0
 40
1.0
 10
22.20522452339918
 20
1.697297835869227
 30
0.0
 10
22.0476512974585
 20
1.820838370896288
 30
0.0
 10
21.87269145266846
 20
1.936011867229618
 30
0.0
 10
21.5198870945431
 20
2.093056789583688
 30
0.0
 10
21.34408318254153
 20
2.132973831930193
 30
0.0
 10
21.19362718559791
 20
2.124853486142892
 30
0.0
  0
SPLINE
  5
DC
330
1F
100
AcDbEntity
  8
외형선
  6
Continuous
370
    15
100
AcDbSpline
210
0.0
220
0.0
230
1.0
 70
     8
 71
     3
 72
     8
 73
     4
 74
     0
 42
0.000000001
 43
0.00000001
 40
0.0
 40
0.0
 40
0.0
 40
0.0
 40
1.0
 40
1.0
 40
1.0
 40
1.0
 10
22.5777150947184
 20
-0.7624059638700275
 30
0.0
 10
22.72002476350472
 20
-0.8380913178723908
 30
0.0
 10
22.85819064605499
 20
-0.9010163317619145
 30
0.0
 10
22.97856845803787
 20
-0.9447008174765532
 30
0.0
  0
SPLINE
  5
DD
330
1F
100
AcDbEntity
  8
외형선
  6
Continuous
370
    15
100
AcDbSpline
210
0.0
220
0.0
230
1.0
 70
     8
 71
     3
 72
    12
 73
     8
 74
     0
 42
0.000000001
 43
0.00000001
 40
0.0
 40
0.0
 40
0.0
 40
0.0
 40
0.2500000000000001
 40
0.2500000000000001
 40
0.5000000000000001
 40
0.5000000000000001
 40
1.0
 40
1.0
 40
1.0
 40
1.0
 10
22.86377940697782
 20
1.452136418589167
 30
0.0
 10
22.83942361662244
 20
1.282095208299424
 30
0.0
 10
22.81499996990412
 20
1.103945575309086
 30
0.0
 10
22.76719127988337
 20
0.740274486227574
 30
0.0
 10
22.74421316030286
 20
0.555882300111875
 30
0.0
 10
22.67567564543571
 20
-0.0019082932218458
 30
0.0
 10
22.62627454604198
 20
-0.3915569039453187
 30
0.0
 10
22.5777150947184
 20
-0.7624059638700036
 30
0.0
  0
SPLINE
  5
DE
330
1F
100
AcDbEntity
  8
외형선
  6
Continuous
370
    15
100
AcDbSpline
210
0.0
220
0.0
230
1.0
 70
     8
 71
     3
 72
     8
 73
     4
 74
     0
 42
0.000000001
 43
0.00000001
 40
0.0
 40
0.0
 40
0.0
 40
0.0
 40
1.0
 40
1.0
 40
1.0
 40
1.0
 10
23.26687058345559
 20
1.188651368035957
 30
0.0
 10
23.14245317495268
 20
1.278233560758168
 30
0.0
 10
23.00472233900982
 20
1.372116359834788
 30
0.0
 10
22.86377940697875
 20
1.452136418595663
 30
0.0
  0
SPLINE
  5
DF
330
1F
100
AcDbEntity
  8
외형선
  6
Continuous
370
    15
100
AcDbSpline
210
0.0
220
0.0
230
1.0
 70
     8
 71
     3
 72
     8
 73
     4
 74
     0
 42
0.000000001
 43
0.00000001
 40
0.0
 40
0.0
 40
0.0
 40
0.0
 40
1.0
 40
1.0
 40
1.0
 40
1.0
 10
8.340009710998194
 20
2.652437928600558
 30
0.0
 10
8.231688139819976
 20
2.698659146703787
 30
0.0
 10
8.12363291300261
 20
2.743899921929778
 30
0.0
 10
8.01582491718027
 20
2.788074572266213
 30
0.0
  0
SPLINE
  5
E0
330
1F
100
AcDbEntity
  8
외형선
  6
Continuous
370
    15
100
AcDbSpline
210
0.0
220
0.0
230
1.0
 70
     8
 71
     3
 72
     8
 73
     4
 74
     0
 42
0.000000001
 43
0.00000001
 40
0.0
 40
0.0
 40
0.0
 40
0.0
 40
1.0
 40
1.0
 40
1.0
 40
1.0
 10
8.01582491718024
 20
2.788074572266519
 30
0.0
 10
7.903273078397588
 20
2.796226524649746
 30
0.0
 10
7.794578804422379
 20
2.781040528898447
 30
0.0
 10
7.697786138468664
 20
2.743109605333459
 30
0.0
  0
SPLINE
  5
E1
330
1F
100
AcDbEntity
  8
외형선
  6
Continuous
370
    15
100
AcDbSpline
210
0.0
220
0.0
230
1.0
 70
     8
 71
     3
 72
     8
 73
     4
 74
     0
 42
0.000000001
 43
0.00000001
 40
0.0
 40
0.0
 40
0.0
 40
0.0
 40
1.0
 40
1.0
 40
1.0
 40
1.0
 10
7.697786138468666
 20
2.743109605333462
 30
0.0
 10
7.622267144399453
 20
2.713515367345287
 30
0.0
 10
7.51980172046969
 20
2.73274591960841
 30
0.0
 10
7.440144325010795
 20
2.797838725366516
 30
0.0
  0
SPLINE
  5
E2
330
1F
100
AcDbEntity
  8
외형선
  6
Continuous
370
    15
100
AcDbSpline
210
0.0
220
0.0
230
1.0
 70
     8
 71
     3
 72
     9
 73
     5
 74
     0
 42
0.000000001
 43
0.00000001
 40
0.0
 40
0.0
 40
0.0
 40
0.0
 40
0.8708967463446157
 40
1.0
 40
1.0
 40
1.0
 40
1.0
 10
9.165375024426329
 20
2.424792689369692
 30
0.0
 10
9.190617393050188
 20
2.437826470285859
 30
0.0
 10
9.21960173445439
 20
2.452792401632914
 30
0.0
 10
9.245144980097692
 20
2.473852622324194
 30
0.0
 10
9.248442696219161
 20
2.476571565338139
 30
0.0
  0
SPLINE
  5
E3
330
1F
100
AcDbEntity
  8
외형선
  6
Continuous
370
    15
100
AcDbSpline
210
0.0
220
0.0
230
1.0
 70
     8
 71
     3
 72
    10
 73
     6
 74
     0
 42
0.000000001
 43
0.00000001
 40
0.0
 40
0.0
 40
0.0
 40
0.0
 40
0.5
 40
0.5
 40
1.0
 40
1.0
 40
1.0
 40
1.0
 10
9.248442696218834
 20
2.476571565337786
 30
0.0
 10
9.405991983411353
 20
2.608597346750353
 30
0.0
 10
9.581361934588966
 20
2.708648581956569
 30
0.0
 10
9.934412044860974
 20
2.808397508310505
 30
0.0
 10
10.11013291033041
 20
2.806440862465538
 30
0.0
 10
10.2603762381994
 20
2.749213892011753
 30
0.0
  0
SPLINE
  5
E4
330
1F
100
AcDbEntity
  8
외형선
  6
Continuous
370
    15
100
AcDbSpline
210
0.0
220
0.0
230
1.0
 70
     8
 71
     3
 72
     8
 73
     4
 74
     0
 42
0.000000001
 43
0.00000001
 40
0.0
 40
0.0
 40
0.0
 40
0.0
 40
1.0
 40
1.0
 40
1.0
 40
1.0
 10
10.2603762381994
 20
2.749213892011741
 30
0.0
 10
10.33657231568985
 20
2.7201911677611
 30
0.0
 10
10.43924029248352
 20
2.740035165151602
 30
0.0
 10
10.51858671715278
 20
2.805838053380082
 30
0.0
  0
SPLINE
  5
E5
330
1F
100
AcDbEntity
  8
외형선
  6
Continuous
370
    15
100
AcDbSpline
210
0.0
220
0.0
230
1.0
 70
     8
 71
     3
 72
     8
 73
     4
 74
     0
 42
0.000000001
 43
0.00000001
 40
0.0
 40
0.0
 40
0.0
 40
0.0
 40
1.0
 40
1.0
 40
1.0
 40
1.0
 10
10.51858671715284
 20
2.805838053380112
 30
0.0
 10
10.64320630109826
 20
2.909186485116255
 30
0.0
 10
10.78111157160826
 20
2.985754790522781
 30
0.0
 10
10.92221884868348
 20
3.027405712430967
 30
0.0
  0
SPLINE
  5
E6
330
1F
100
AcDbEntity
  8
외형선
  6
Continuous
370
    15
100
AcDbSpline
210
0.0
220
0.0
230
1.0
 70
     8
 71
     3
 72
     8
 73
     4
 74
     0
 42
0.000000001
 43
0.00000001
 40
0.0
 40
0.0
 40
0.0
 40
0.0
 40
1.0
 40
1.0
 40
1.0
 40
1.0
 10
10.92221884868347
 20
3.027405712430965
 30
0.0
 10
11.0645279027857
 20
3.03479413727676
 30
0.0
 10
11.20274932611345
 20
3.004097979426192
 30
0.0
 10
11.3231562006686
 20
2.937323725798873
 30
0.0
  0
SPLINE
  5
E7
330
1F
100
AcDbEntity
  8
외형선
  6
Continuous
370
    15
100
AcDbSpline
210
0.0
220
0.0
230
1.0
 70
     8
 71
     3
 72
     8
 73
     4
 74
     0
 42
0.000000001
 43
0.00000001
 40
0.0
 40
0.0
 40
0.0
 40
0.0
 40
1.0
 40
1.0
 40
1.0
 40
1.0
 10
11.3231562006686
 20
2.937323725798872
 30
0.0
 10
11.39867991390014
 20
2.895440406421701
 30
0.0
 10
11.50123707892364
 20
2.90417971152538
 30
0.0
 10
11.58086677043475
 20
2.96491621043574
 30
0.0
  0
SPLINE
  5
E8
330
1F
100
AcDbEntity
  8
외형선
  6
Continuous
370
    15
100
AcDbSpline
210
0.0
220
0.0
230
1.0
 70
     8
 71
     3
 72
    10
 73
     6
 74
     0
 42
0.000000001
 43
0.00000001
 40
0.0
 40
0.0
 40
0.0
 40
0.0
 40
0.5
 40
0.5
 40
1.0
 40
1.0
 40
1.0
 40
1.0
 10
11.58086677043501
 20
2.964916210435911
 30
0.0
 10
11.73814704948158
 20
3.084879672753102
 30
0.0
 10
11.91278729228444
 20
3.151878204008142
 30
0.0
 10
12.26502343539268
 20
3.170136451009919
 30
0.0
 10
12.44055365476172
 20
3.12015176043512
 30
0.0
 10
12.59064986763553
 20
3.015403880591443
 30
0.0
  0
SPLINE
  5
E9
330
1F
100
AcDbEntity
  8
외형선
  6
Continuous
370
    15
100
AcDbSpline
210
0.0
220
0.0
230
1.0
 70
     8
 71
     3
 72
     8
 73
     4
 74
     0
 42
0.000000001
 43
0.00000001
 40
0.0
 40
0.0
 40
0.0
 40
0.0
 40
1.0
 40
1.0
 40
1.0
 40
1.0
 10
12.59064986763553
 20
3.015403880591446
 30
0.0
 10
12.66670572381543
 20
2.962326660773531
 30
0.0
 10
12.76940377875798
 20
2.959774519518076
 30
0.0
 10
12.84861520945128
 20
3.013479380414679
 30
0.0
  0
SPLINE
  5
EA
330
1F
100
AcDbEntity
  8
외형선
  6
Continuous
370
    15
100
AcDbSpline
210
0.0
220
0.0
230
1.0
 70
     8
 71
     3
 72
     8
 73
     4
 74
     0
 42
0.000000001
 43
0.00000001
 40
0.0
 40
0.0
 40
0.0
 40
0.0
 40
1.0
 40
1.0
 40
1.0
 40
1.0
 10
12.84861520945134
 20
3.013479380414716
 30
0.0
 10
12.97338189840116
 20
3.098070425115343
 30
0.0
 10
13.11139525463172
 20
3.144626185888454
 30
0.0
 10
13.25232665778893
 20
3.153115326771716
 30
0.0
  0
SPLINE
  5
EB
330
1F
100
AcDbEntity
  8
외형선
  6
Continuous
370
    15
100
AcDbSpline
210
0.0
220
0.0
230
1.0
 70
     8
 71
     3
 72
     8
 73
     4
 74
     0
 42
0.000000001
 43
0.00000001
 40
0.0
 40
0.0
 40
0.0
 40
0.0
 40
1.0
 40
1.0
 40
1.0
 40
1.0
 10
13.25232665778818
 20
3.153115326771525
 30
0.0
 10
13.39479203903801
 20
3.12513797314506
 30
0.0
 10
13.53326693249343
 20
3.059058811625123
 30
0.0
 10
13.65409654836508
 20
2.960261937083085
 30
0.0
  0
SPLINE
  5
EC
330
1F
100
AcDbEntity
  8
외형선
  6
Continuous
370
    15
100
AcDbSpline
210
0.0
220
0.0
230
1.0
 70
     8
 71
     3
 72
     8
 73
     4
 74
     0
 42
0.000000001
 43
0.00000001
 40
0.0
 40
0.0
 40
0.0
 40
0.0
 40
1.0
 40
1.0
 40
1.0
 40
1.0
 10
13.65409654836503
 20
2.960261937083124
 30
0.0
 10
13.72982065591428
 20
2.89834578267526
 30
0.0
 10
13.83255390959928
 20
2.884318055978548
 30
0.0
 10
13.9124316564303
 20
2.928319442737699
 30
0.0
  0
SPLINE
  5
ED
330
1F
100
AcDbEntity
  8
외형선
  6
Continuous
370
    15
100
AcDbSpline
210
0.0
220
0.0
230
1.0
 70
     8
 71
     3
 72
    10
 73
     6
 74
     0
 42
0.000000001
 43
0.00000001
 40
0.0
 40
0.0
 40
0.0
 40
0.0
 40
0.5
 40
0.5
 40
1.0
 40
1.0
 40
1.0
 40
1.0
 10
13.91243165643057
 20
2.928319442737865
 30
0.0
 10
14.06997632102446
 20
3.015104360861435
 30
0.0
 10
14.24520700811414
 20
3.037113721044166
 30
0.0
 10
14.59770482460181
 20
2.970327641267029
 30
0.0
 10
14.77294972168346
 20
2.881076170570976
 30
0.0
 10
14.92298900451402
 20
2.747446087348529
 30
0.0
  0
SPLINE
  5
EE
330
1F
100
AcDbEntity
  8
외형선
  6
Continuous
370
    15
100
AcDbSpline
210
0.0
220
0.0
230
1.0
 70
     8
 71
     3
 72
     8
 73
     4
 74
     0
 42
0.000000001
 43
0.00000001
 40
0.0
 40
0.0
 40
0.0
 40
0.0
 40
1.0
 40
1.0
 40
1.0
 40
1.0
 10
14.92298900451401
 20
2.747446087348527
 30
0.0
 10
14.99892951221399
 20
2.679810890935573
 30
0.0
 10
15.10153853503355
 20
2.655306385809018
 30
0.0
 10
15.18069690540158
 20
2.687582801393821
 30
0.0
  0
SPLINE
  5
EF
330
1F
100
AcDbEntity
  8
외형선
  6
Continuous
370
    15
100
AcDbSpline
210
0.0
220
0.0
230
1.0
 70
     8
 71
     3
 72
     8
 73
     4
 74
     0
 42
0.000000001
 43
0.00000001
 40
0.0
 40
0.0
 40
0.0
 40
0.0
 40
1.0
 40
1.0
 40
1.0
 40
1.0
 10
15.18069690540164
 20
2.687582801393852
 30
0.0
 10
15.3051773764805
 20
2.738339068836595
 30
0.0
 10
15.44296711984517
 20
2.746881239841175
 30
0.0
 10
15.58387051964025
 20
2.720917607700169
 30
0.0
  0
SPLINE
  5
F0
330
1F
100
AcDbEntity
  8
외형선
  6
Continuous
370
    15
100
AcDbSpline
210
0.0
220
0.0
230
1.0
 70
     8
 71
     3
 72
     8
 73
     4
 74
     0
 42
0.000000001
 43
0.00000001
 40
0.0
 40
0.0
 40
0.0
 40
0.0
 40
1.0
 40
1.0
 40
1.0
 40
1.0
 10
15.58387051964024
 20
2.720917607700172
 30
0.0
 10
15.72619351068254
 20
2.662648772032254
 30
0.0
 10
15.86431684336742
 20
2.572874410241359
 30
0.0
 10
15.98463681751112
 20
2.459692746512061
 30
0.0
  0
SPLINE
  5
F1
330
1F
100
AcDbEntity
  8
외형선
  6
Continuous
370
    15
100
AcDbSpline
210
0.0
220
0.0
230
1.0
 70
     8
 71
     3
 72
     8
 73
     4
 74
     0
 42
0.000000001
 43
0.00000001
 40
0.0
 40
0.0
 40
0.0
 40
0.0
 40
1.0
 40
1.0
 40
1.0
 40
1.0
 10
15.98463681751112
 20
2.459692746512061
 30
0.0
 10
16.06020626001324
 20
2.38860666716109
 30
0.0
 10
16.16271392005171
 20
2.354273595643671
 30
0.0
 10
16.24242356346265
 20
2.373556504132765
 30
0.0
  0
SPLINE
  5
F2
330
1F
100
AcDbEntity
  8
외형선
  6
Continuous
370
    15
100
AcDbSpline
210
0.0
220
0.0
230
1.0
 70
     8
 71
     3
 72
    10
 73
     6
 74
     0
 42
0.000000001
 43
0.00000001
 40
0.0
 40
0.0
 40
0.0
 40
0.0
 40
0.5
 40
0.5
 40
1.0
 40
1.0
 40
1.0
 40
1.0
 10
16.24242356346315
 20
2.373556504131889
 30
0.0
 10
16.39990249628701
 20
2.411652921587089
 30
0.0
 10
16.57520116693788
 20
2.384569384207543
 30
0.0
 10
16.92826682447754
 20
2.244667591164022
 30
0.0
 10
17.10412406077908
 20
2.132335279557898
 30
0.0
 10
17.25447855678789
 20
1.9936156076014
 30
0.0
  0
SPLINE
  5
F3
330
1F
100
AcDbEntity
  8
외형선
  6
Continuous
370
    15
100
AcDbSpline
210
0.0
220
0.0
230
1.0
 70
     8
 71
     3
 72
     8
 73
     4
 74
     0
 42
0.000000001
 43
0.00000001
 40
0.0
 40
0.0
 40
0.0
 40
0.0
 40
1.0
 40
1.0
 40
1.0
 40
1.0
 10
17.25447855678789
 20
1.993615607601399
 30
0.0
 10
17.33066427600906
 20
1.923325338546123
 30
0.0
 10
17.43339351758084
 20
1.881184536877169
 30
0.0
 10
17.51267131545923
 20
1.886096484655062
 30
0.0
  0
SPLINE
  5
F4
330
1F
100
AcDbEntity
  8
외형선
  6
Continuous
370
    15
100
AcDbSpline
210
0.0
220
0.0
230
1.0
 70
     8
 71
     3
 72
     8
 73
     4
 74
     0
 42
0.000000001
 43
0.00000001
 40
0.0
 40
0.0
 40
0.0
 40
0.0
 40
1.0
 40
1.0
 40
1.0
 40
1.0
 10
17.51267131545928
 20
1.88609648465508
 30
0.0
 10
17.63730850690746
 20
1.893818840623068
 30
0.0
 10
17.77507093161662
 20
1.862158407548826
 30
0.0
 10
17.91614586034287
 20
1.80598273457906
 30
0.0
  0
SPLINE
  5
F5
330
1F
100
AcDbEntity
  8
외형선
  6
Continuous
370
    15
100
AcDbSpline
210
0.0
220
0.0
230
1.0
 70
     8
 71
     3
 72
     8
 73
     4
 74
     0
 42
0.000000001
 43
0.00000001
 40
0.0
 40
0.0
 40
0.0
 40
0.0
 40
1.0
 40
1.0
 40
1.0
 40
1.0
 10
17.91614586034285
 20
1.805982734579063
 30
0.0
 10
18.05838250683636
 20
1.727549263912196
 30
0.0
 10
18.19659245964194
 20
1.630081390543453
 30
0.0
 10
18.31701188838264
 20
1.522593654820019
 30
0.0
  0
SPLINE
  5
F6
330
1F
100
AcDbEntity
  8
외형선
  6
Continuous
370
    15
100
AcDbSpline
210
0.0
220
0.0
230
1.0
 70
     8
 71
     3
 72
     8
 73
     4
 74
     0
 42
0.000000001
 43
0.00000001
 40
0.0
 40
0.0
 40
0.0
 40
0.0
 40
1.0
 40
1.0
 40
1.0
 40
1.0
 10
18.31701188838264
 20
1.522593654820014
 30
0.0
 10
18.392522546949
 20
1.455191992171702
 30
0.0
 10
18.495093126487
 20
1.406959037960955
 30
0.0
 10
18.57473349034216
 20
1.398430897250137
 30
0.0
  0
SPLINE
  5
F7
330
1F
100
AcDbEntity
  8
외형선
  6
Continuous
370
    15
100
AcDbSpline
210
0.0
220
0.0
230
1.0
 70
     8
 71
     3
 72
    10
 73
     6
 74
     0
 42
0.000000001
 43
0.00000001
 40
0.0
 40
0.0
 40
0.0
 40
0.0
 40
0.5
 40
0.5
 40
1.0
 40
1.0
 40
1.0
 40
1.0
 10
18.57473349034243
 20
1.398430897250213
 30
0.0
 10
18.73209986587549
 20
1.381579610682207
 30
0.0
 10
18.9070199852078
 20
1.31033983929077
 30
0.0
 10
19.25898091700254
 20
1.121358956320661
 30
0.0
 10
19.43444114264685
 20
1.005586073101936
 30
0.0
 10
19.5845474977653
 20
0.8865271952359591
 30
0.0
  0
SPLINE
  5
F8
330
1F
100
AcDbEntity
  8
외형선
  6
Continuous
370
    15
100
AcDbSpline
210
0.0
220
0.0
230
1.0
 70
     8
 71
     3
 72
     8
 73
     4
 74
     0
 42
0.000000001
 43
0.00000001
 40
0.0
 40
0.0
 40
0.0
 40
0.0
 40
1.0
 40
1.0
 40
1.0
 40
1.0
 10
19.58454749776437
 20
0.8865271952366912
 30
0.0
 10
19.66060825546435
 20
0.826198580540457
 30
0.0
 10
19.76332363467177
 20
0.7741598623339876
 30
0.0
 10
19.8425650898247
 20
0.7512441347825694
 30
0.0
  0
SPLINE
  5
F9
330
1F
100
AcDbEntity
  8
외형선
  6
Continuous
370
    15
100
AcDbSpline
210
0.0
220
0.0
230
1.0
 70
     8
 71
     3
 72
     8
 73
     4
 74
     0
 42
0.000000001
 43
0.00000001
 40
0.0
 40
0.0
 40
0.0
 40
0.0
 40
1.0
 40
1.0
 40
1.0
 40
1.0
 10
19.84256508982476
 20
0.7512441347825548
 30
0.0
 10
19.96733813251046
 20
0.7151611899851689
 30
0.0
 10
20.10539572833515
 20
0.6497507085096971
 30
0.0
 10
20.24643839316668
 20
0.5734090003496408
 30
0.0
  0
SPLINE
  5
FA
330
1F
100
AcDbEntity
  8
외형선
  6
Continuous
370
    15
100
AcDbSpline
210
0.0
220
0.0
230
1.0
 70
     8
 71
     3
 72
     8
 73
     4
 74
     0
 42
0.000000001
 43
0.00000001
 40
0.0
 40
0.0
 40
0.0
 40
0.0
 40
1.0
 40
1.0
 40
1.0
 40
1.0
 10
20.24643839316667
 20
0.573409000349646
 30
0.0
 10
20.38908461588791
 20
0.4884418349678332
 30
0.0
 10
20.52743416677535
 20
0.3995714446116609
 30
0.0
 10
20.64821109140023
 20
0.3161970692581149
 30
0.0
  0
SPLINE
  5
FB
330
1F
100
AcDbEntity
  8
외형선
  6
Continuous
370
    15
100
AcDbSpline
210
0.0
220
0.0
230
1.0
 70
     8
 71
     3
 72
     8
 73
     4
 74
     0
 42
0.000000001
 43
0.00000001
 40
0.0
 40
0.0
 40
0.0
 40
0.0
 40
1.0
 40
1.0
 40
1.0
 40
1.0
 10
20.64821109140024
 20
0.3161970692580486
 30
0.0
 10
20.72388791560625
 20
0.2639560640617957
 30
0.0
 10
20.82657653621704
 20
0.2099035631748128
 30
0.0
 10
20.90643882017452
 20
0.1747685632868495
 30
0.0
  0
SPLINE
  5
FC
330
1F
100
AcDbEntity
  8
외형선
  6
Continuous
370
    15
100
AcDbSpline
210
0.0
220
0.0
230
1.0
 70
     8
 71
     3
 72
     8
 73
     4
 74
     0
 42
0.000000001
 43
0.00000001
 40
0.0
 40
0.0
 40
0.0
 40
0.0
 40
1.0
 40
1.0
 40
1.0
 40
1.0
 10
21.91692123028122
 20
-0.3778205385305462
 30
0.0
 10
21.99283346839583
 20
-0.417856272062418
 30
0.0
 10
22.09539881499375
 20
-0.4710167559482921
 30
0.0
 10
22.1745613550721
 20
-0.5180510054282255
 30
0.0
  0
SPLINE
  5
FD
330
1F
100
AcDbEntity
  8
외형선
  6
Continuous
370
    15
100
AcDbSpline
210
0.0
220
0.0
230
1.0
 70
     8
 71
     3
 72
     8
 73
     4
 74
     0
 42
0.000000001
 43
0.00000001
 40
0.0
 40
0.0
 40
0.0
 40
0.0
 40
1.0
 40
1.0
 40
1.0
 40
1.0
 10
22.17456135507211
 20
-0.5180510054282094
 30
0.0
 10
22.29901026209332
 20
-0.591992050454653
 30
0.0
 10
22.43677834511434
 20
-0.6798273022538136
 30
0.0
 10
22.5777150947184
 20
-0.7624059638700275
 30
0.0
  0
SPLINE
  5
FE
330
1F
100
AcDbEntity
  8
외형선
  6
Continuous
370
    15
100
AcDbSpline
210
0.0
220
0.0
230
1.0
 70
     8
 71
     3
 72
     8
 73
     4
 74
     0
 42
0.000000001
 43
0.00000001
 40
0.0
 40
0.0
 40
0.0
 40
0.0
 40
1.0
 40
1.0
 40
1.0
 40
1.0
 10
22.97856845803819
 20
-0.9447008174784536
 30
0.0
 10
23.05416023248689
 20
-0.9721326816787773
 30
0.0
 10
23.1567584336891
 20
-1.022221749204039
 30
0.0
 10
23.23645485548296
 20
-1.07769916477721
 30
0.0
  0
SPLINE
  5
FF
330
1F
100
AcDbEntity
  8
외형선
  6
Continuous
370
    15
100
AcDbSpline
210
0.0
220
0.0
230
1.0
 70
     8
 71
     3
 72
     8
 73
     4
 74
     0
 42
0.000000001
 43
0.00000001
 40
0.0
 40
0.0
 40
0.0
 40
0.0
 40
1.0
 40
1.0
 40
1.0
 40
1.0
 10
24.24852359965458
 20
-1.574910786795298
 30
0.0
 10
24.32468323733563
 20
-1.587163304883205
 30
0.0
 10
24.42742643697235
 20
-1.631654750783148
 30
0.0
 10
24.5066997772014
 20
-1.694394727562663
 30
0.0
  0
SPLINE
  5
100
330
1F
100
AcDbEntity
  8
외형선
  6
Continuous
370
    15
100
AcDbSpline
210
0.0
220
0.0
230
1.0
 70
     8
 71
     3
 72
     8
 73
     4
 74
     0
 42
0.000000001
 43
0.00000001
 40
0.0
 40
0.0
 40
0.0
 40
0.0
 40
1.0
 40
1.0
 40
1.0
 40
1.0
 10
24.50669977720146
 20
-1.694394727562687
 30
0.0
 10
24.54404473653456
 20
-1.723950967713794
 30
0.0
 10
24.58243337097974
 20
-1.753126631616936
 30
0.0
 10
24.62196184495081
 20
-1.781704773207045
 30
0.0
  0
LINE
  5
101
330
1F
100
AcDbEntity
  8
외형선
  6
Continuous
370
    15
100
AcDbLine
 10
23.79064812372052
 20
-1.417619636098542
 30
0.0
 11
23.72661179878733
 21
-1.438833473375855
 31
0.0
  0
LINE
  5
102
330
1F
100
AcDbEntity
  8
외형선
  6
Continuous
370
    15
100
AcDbLine
 10
24.79963065701557
 20
-1.720915759481668
 30
0.0
 11
24.72456233484536
 21
-1.704235736836731
 31
0.0
  0
SPLINE
  5
103
330
1F
100
AcDbEntity
  8
외형선
  6
Continuous
370
    15
100
AcDbSpline
210
0.0
220
0.0
230
1.0
 70
     8
 71
     3
 72
     9
 73
     5
 74
     0
 42
0.000000001
 43
0.00000001
 40
0.0
 40
0.0
 40
0.0
 40
0.0
 40
0.2234096977954091
 40
1.0
 40
1.0
 40
1.0
 40
1.0
 10
24.41627651113059
 20
-1.635735277894596
 30
0.0
 10
24.36428615834268
 20
-1.62465080419355
 30
0.0
 10
24.1315731055927
 20
-1.575035797278331
 30
0.0
 10
23.90363011485204
 20
-1.49837078130168
 30
0.0
 10
23.72661179878732
 20
-1.438833473375854
 30
0.0
  0
LINE
  5
104
330
1F
100
AcDbEntity
  8
외형선
  6
Continuous
370
    15
100
AcDbLine
 10
24.79963065701557
 20
-2.744850377284889
 30
0.0
 11
24.79963065701557
 21
-1.720915759481669
 31
0.0
  0
SPLINE
  5
105
330
1F
100
AcDbEntity
  8
외형선
  6
Continuous
370
    15
100
AcDbSpline
210
0.0
220
0.0
230
1.0
 70
     8
 71
     3
 72
     8
 73
     4
 74
     0
 42
0.000000001
 43
0.00000001
 40
0.0
 40
0.0
 40
0.0
 40
0.0
 40
1.0
 40
1.0
 40
1.0
 40
1.0
 10
24.6719761808021
 20
-2.885542927125115
 30
0.0
 10
24.71417285327143
 20
-2.838468622519458
 30
0.0
 10
24.75670247153404
 20
-2.791553323157317
 30
0.0
 10
24.79963065701545
 20
-2.74485037728492
 30
0.0
  0
SPLINE
  5
106
330
1F
100
AcDbEntity
  8
외형선
  6
Continuous
370
    15
100
AcDbSpline
210
0.0
220
0.0
230
1.0
 70
     8
 71
     3
 72
     8
 73
     4
 74
     0
 42
0.000000001
 43
0.00000001
 40
0.0
 40
0.0
 40
0.0
 40
0.0
 40
1.0
 40
1.0
 40
1.0
 40
1.0
 10
24.67197618080352
 20
-2.885542927126626
 30
0.0
 10
24.5900317108159
 20
-2.936352955960541
 30
0.0
 10
24.50502012615094
 20
-2.975753112381989
 30
0.0
 10
24.41860255565683
 20
-3.002376471408984
 30
0.0
  0
SPLINE
  5
107
330
1F
100
AcDbEntity
  8
외형선
  6
Continuous
370
    15
100
AcDbSpline
210
0.0
220
0.0
230
1.0
 70
     8
 71
     3
 72
     8
 73
     4
 74
     0
 42
0.000000001
 43
0.00000001
 40
0.0
 40
0.0
 40
0.0
 40
0.0
 40
1.0
 40
1.0
 40
1.0
 40
1.0
 10
24.41860255565683
 20
-3.002376471408983
 30
0.0
 10
24.2762366678483
 20
-3.011915513275395
 30
0.0
 10
24.13793205265912
 20
-2.983538044986473
 30
0.0
 10
24.01736407765383
 20
-2.919141525064407
 30
0.0
  0
SPLINE
  5
108
330
1F
100
AcDbEntity
  8
외형선
  6
Continuous
370
    15
100
AcDbSpline
210
0.0
220
0.0
230
1.0
 70
     8
 71
     3
 72
     8
 73
     4
 74
     0
 42
0.000000001
 43
0.00000001
 40
0.0
 40
0.0
 40
0.0
 40
0.0
 40
1.0
 40
1.0
 40
1.0
 40
1.0
 10
24.01736407765379
 20
-2.919141525064386
 30
0.0
 10
23.94165940543934
 20
-2.87870692846244
 30
0.0
 10
23.83893237293735
 20
-2.888799278325659
 30
0.0
 10
23.75909196335622
 20
-2.95023100383005
 30
0.0
  0
SPLINE
  5
109
330
1F
100
AcDbEntity
  8
외형선
  6
Continuous
370
    15
100
AcDbSpline
210
0.0
220
0.0
230
1.0
 70
     8
 71
     3
 72
    10
 73
     6
 74
     0
 42
0.000000001
 43
0.00000001
 40
0.0
 40
0.0
 40
0.0
 40
0.0
 40
0.5
 40
0.5
 40
1.0
 40
1.0
 40
1.0
 40
1.0
 10
23.75909196335622
 20
-2.950231003830055
 30
0.0
 10
23.60136168938155
 20
-3.071593643944003
 30
0.0
 10
23.42623693302531
 20
-3.140873158182149
 30
0.0
 10
23.07355527718829
 20
-3.16436903575939
 30
0.0
 10
22.89768402924993
 20
-3.117149943667197
 30
0.0
 10
22.74728891174148
 20
-3.014527870457862
 30
0.0
  0
SPLINE
  5
10A
330
1F
100
AcDbEntity
  8
외형선
  6
Continuous
370
    15
100
AcDbSpline
210
0.0
220
0.0
230
1.0
 70
     8
 71
     3
 72
     8
 73
     4
 74
     0
 42
0.000000001
 43
0.00000001
 40
0.0
 40
0.0
 40
0.0
 40
0.0
 40
1.0
 40
1.0
 40
1.0
 40
1.0
 10
22.74728891174127
 20
-3.014527870457721
 30
0.0
 10
22.67125047176443
 20
-2.962643058747706
 30
0.0
 10
22.5685698659119
 20
-2.961368365934143
 30
0.0
 10
22.48937828240293
 20
-3.016075164960131
 30
0.0
  0
SPLINE
  5
10B
330
1F
100
AcDbEntity
  8
외형선
  6
Continuous
370
    15
100
AcDbSpline
210
0.0
220
0.0
230
1.0
 70
     8
 71
     3
 72
     8
 73
     4
 74
     0
 42
0.000000001
 43
0.00000001
 40
0.0
 40
0.0
 40
0.0
 40
0.0
 40
1.0
 40
1.0
 40
1.0
 40
1.0
 10
22.48937828240292
 20
-3.016075164960132
 30
0.0
 10
22.36480542460204
 20
-3.10213206638619
 30
0.0
 10
22.22698481515723
 20
-3.150801186521377
 30
0.0
 10
22.08617505782059
 20
-3.161394100539016
 30
0.0
  0
SPLINE
  5
10C
330
1F
100
AcDbEntity
  8
외형선
  6
Continuous
370
    15
100
AcDbSpline
210
0.0
220
0.0
230
1.0
 70
     8
 71
     3
 72
     8
 73
     4
 74
     0
 42
0.000000001
 43
0.00000001
 40
0.0
 40
0.0
 40
0.0
 40
0.0
 40
1.0
 40
1.0
 40
1.0
 40
1.0
 10
22.08617505782059
 20
-3.161394100539015
 30
0.0
 10
21.9439569290661
 20
-3.13545733061993
 30
0.0
 10
21.80601728216748
 20
-3.071178308665137
 30
0.0
 10
21.68564111092558
 20
-2.973877271626739
 30
0.0
  0
SPLINE
  5
10D
330
1F
100
AcDbEntity
  8
외형선
  6
Continuous
370
    15
100
AcDbSpline
210
0.0
220
0.0
230
1.0
 70
     8
 71
     3
 72
     8
 73
     4
 74
     0
 42
0.000000001
 43
0.00000001
 40
0.0
 40
0.0
 40
0.0
 40
0.0
 40
1.0
 40
1.0
 40
1.0
 40
1.0
 10
21.68564111092553
 20
-2.973877271626705
 30
0.0
 10
21.61017134221977
 20
-2.912874444535932
 30
0.0
 10
21.50762077629605
 20
-2.900212565144387
 30
0.0
 10
21.42795098813803
 20
-2.945428533883465
 30
0.0
  0
SPLINE
  5
10E
330
1F
100
AcDbEntity
  8
외형선
  6
Continuous
370
    15
100
AcDbSpline
210
0.0
220
0.0
230
1.0
 70
     8
 71
     3
 72
    10
 73
     6
 74
     0
 42
0.000000001
 43
0.00000001
 40
0.0
 40
0.0
 40
0.0
 40
0.0
 40
0.4999999999999999
 40
0.4999999999999999
 40
1.0
 40
1.0
 40
1.0
 40
1.0
 10
21.42795098813803
 20
-2.945428533883465
 30
0.0
 10
21.27049473169904
 20
-3.034791607810521
 30
0.0
 10
21.09524314652544
 20
-3.059614327805098
 30
0.0
 10
20.74257152830077
 20
-2.997565868297433
 30
0.0
 10
20.56725861535784
 20
-2.91025964495854
 30
0.0
 10
20.41720759310291
 20
-2.77783937734768
 30
0.0
  0
SPLINE
  5
10F
330
1F
100
AcDbEntity
  8
외형선
  6
Continuous
370
    15
100
AcDbSpline
210
0.0
220
0.0
230
1.0
 70
     8
 71
     3
 72
     8
 73
     4
 74
     0
 42
0.000000001
 43
0.00000001
 40
0.0
 40
0.0
 40
0.0
 40
0.0
 40
1.0
 40
1.0
 40
1.0
 40
1.0
 10
20.41720759310271
 20
-2.777839377347499
 30
0.0
 10
20.34104440255083
 20
-2.710625239626756
 30
0.0
 10
20.23826186814258
 20
-2.687247915701208
 30
0.0
 10
20.15884411150829
 20
-2.720927778175536
 30
0.0
  0
SPLINE
  5
110
330
1F
100
AcDbEntity
  8
외형선
  6
Continuous
370
    15
100
AcDbSpline
210
0.0
220
0.0
230
1.0
 70
     8
 71
     3
 72
     8
 73
     4
 74
     0
 42
0.000000001
 43
0.00000001
 40
0.0
 40
0.0
 40
0.0
 40
0.0
 40
1.0
 40
1.0
 40
1.0
 40
1.0
 10
20.15884411150829
 20
-2.720927778175537
 30
0.0
 10
20.03400241142105
 20
-2.77387124407274
 30
0.0
 10
19.8958785326027
 20
-2.784613365755408
 30
0.0
 10
19.75462185960022
 20
-2.76051504197152
 30
0.0
  0
SPLINE
  5
111
330
1F
100
AcDbEntity
  8
외형선
  6
Continuous
370
    15
100
AcDbSpline
210
0.0
220
0.0
230
1.0
 70
     8
 71
     3
 72
     8
 73
     4
 74
     0
 42
0.000000001
 43
0.00000001
 40
0.0
 40
0.0
 40
0.0
 40
0.0
 40
1.0
 40
1.0
 40
1.0
 40
1.0
 10
19.75462185960003
 20
-2.760515041971493
 30
0.0
 10
19.61214358911952
 20
-2.703763422332717
 30
0.0
 10
19.47379992980965
 20
-2.61500239483729
 30
0.0
 10
19.35329058673648
 20
-2.502080200723043
 30
0.0
  0
SPLINE
  5
112
330
1F
100
AcDbEntity
  8
외형선
  6
Continuous
370
    15
100
AcDbSpline
210
0.0
220
0.0
230
1.0
 70
     8
 71
     3
 72
     8
 73
     4
 74
     0
 42
0.000000001
 43
0.00000001
 40
0.0
 40
0.0
 40
0.0
 40
0.0
 40
1.0
 40
1.0
 40
1.0
 40
1.0
 10
19.35329058673645
 20
-2.502080200723011
 30
0.0
 10
19.27770226824363
 20
-2.431250847944667
 30
0.0
 10
19.17513545622031
 20
-2.39806804444504
 30
0.0
 10
19.09546882542412
 20
-2.418928974671209
 30
0.0
  0
SPLINE
  5
113
330
1F
100
AcDbEntity
  8
외형선
  6
Continuous
370
    15
100
AcDbSpline
210
0.0
220
0.0
230
1.0
 70
     8
 71
     3
 72
    10
 73
     6
 74
     0
 42
0.000000001
 43
0.00000001
 40
0.0
 40
0.0
 40
0.0
 40
0.0
 40
0.5
 40
0.5
 40
1.0
 40
1.0
 40
1.0
 40
1.0
 10
19.09546882542412
 20
-2.418928974671208
 30
0.0
 10
18.93830757933285
 20
-2.460082086786062
 30
0.0
 10
18.76353249994325
 20
-2.435819510282435
 30
0.0
 10
18.41121221751001
 20
-2.29993070391071
 30
0.0
 10
18.23566116786716
 20
-2.188548948437997
 30
0.0
 10
18.08565104833054
 20
-2.04964128887407
 30
0.0
  0
SPLINE
  5
114
330
1F
100
AcDbEntity
  8
외형선
  6
Continuous
370
    15
100
AcDbSpline
210
0.0
220
0.0
230
1.0
 70
     8
 71
     3
 72
     8
 73
     4
 74
     0
 42
0.000000001
 43
0.00000001
 40
0.0
 40
0.0
 40
0.0
 40
0.0
 40
1.0
 40
1.0
 40
1.0
 40
1.0
 10
18.08565104833033
 20
-2.049641288873879
 30
0.0
 10
18.00965202938016
 20
-1.979267064227328
 30
0.0
 10
17.90702623236159
 20
-1.938143916653641
 30
0.0
 10
17.82789721329286
 20
-1.944864213455342
 30
0.0
  0
SPLINE
  5
115
330
1F
100
AcDbEntity
  8
외형선
  6
Continuous
370
    15
100
AcDbSpline
210
0.0
220
0.0
230
1.0
 70
     8
 71
     3
 72
     8
 73
     4
 74
     0
 42
0.000000001
 43
0.00000001
 40
0.0
 40
0.0
 40
0.0
 40
0.0
 40
1.0
 40
1.0
 40
1.0
 40
1.0
 10
17.82789721329286
 20
-1.944864213455349
 30
0.0
 10
17.70328349649965
 20
-1.955447450455745
 30
0.0
 10
17.56559963724067
 20
-1.925974396780594
 30
0.0
 10
17.42464633204386
 20
-1.871256293088171
 30
0.0
  0
SPLINE
  5
116
330
1F
100
AcDbEntity
  8
외형선
  6
Continuous
370
    15
100
AcDbSpline
210
0.0
220
0.0
230
1.0
 70
     8
 71
     3
 72
     8
 73
     4
 74
     0
 42
0.000000001
 43
0.00000001
 40
0.0
 40
0.0
 40
0.0
 40
0.0
 40
1.0
 40
1.0
 40
1.0
 40
1.0
 10
17.42464633204386
 20
-1.871256293088171
 30
0.0
 10
17.28232095869291
 20
-1.793461348784899
 30
0.0
 10
17.14399012395645
 20
-1.695824080202663
 30
0.0
 10
17.02336343625049
 20
-1.587355539362589
 30
0.0
  0
SPLINE
  5
117
330
1F
100
AcDbEntity
  8
외형선
  6
Continuous
370
    15
100
AcDbSpline
210
0.0
220
0.0
230
1.0
 70
     8
 71
     3
 72
     8
 73
     4
 74
     0
 42
0.000000001
 43
0.00000001
 40
0.0
 40
0.0
 40
0.0
 40
0.0
 40
1.0
 40
1.0
 40
1.0
 40
1.0
 10
17.02336343625045
 20
-1.587355539362559
 30
0.0
 10
16.94764380582532
 20
-1.519267805368043
 30
0.0
 10
16.84489020788182
 20
-1.471587874271022
 30
0.0
 10
16.76501032443701
 20
-1.464641793975024
 30
0.0
  0
SPLINE
  5
118
330
1F
100
AcDbEntity
  8
외형선
  6
Continuous
370
    15
100
AcDbSpline
210
0.0
220
0.0
230
1.0
 70
     8
 71
     3
 72
    10
 73
     6
 74
     0
 42
0.000000001
 43
0.00000001
 40
0.0
 40
0.0
 40
0.0
 40
0.0
 40
0.5
 40
0.5
 40
1.0
 40
1.0
 40
1.0
 40
1.0
 10
16.76501032443701
 20
-1.464641793975024
 30
0.0
 10
16.60725458117317
 20
-1.450923896394187
 30
0.0
 10
16.43187377209576
 20
-1.382074958171455
 30
0.0
 10
16.07929169175459
 20
-1.195005325990608
 30
0.0
 10
15.90369977267989
 20
-1.078321848238158
 30
0.0
 10
15.7533752426605
 20
-0.9572361266479892
 30
0.0
  0
SPLINE
  5
119
330
1F
100
AcDbEntity
  8
외형선
  6
Continuous
370
    15
100
AcDbSpline
210
0.0
220
0.0
230
1.0
 70
     8
 71
     3
 72
     8
 73
     4
 74
     0
 42
0.000000001
 43
0.00000001
 40
0.0
 40
0.0
 40
0.0
 40
0.0
 40
1.0
 40
1.0
 40
1.0
 40
1.0
 10
15.75337524265794
 20
-0.9572361266459335
 30
0.0
 10
15.67736532360512
 20
-0.8960104843947526
 30
0.0
 10
15.57470063135123
 20
-0.8442972297541349
 30
0.0
 10
15.49550964518327
 20
-0.8229813559997344
 30
0.0
  0
SPLINE
  5
11A
330
1F
100
AcDbEntity
  8
외형선
  6
Continuous
370
    15
100
AcDbSpline
210
0.0
220
0.0
230
1.0
 70
     8
 71
     3
 72
     8
 73
     4
 74
     0
 42
0.000000001
 43
0.00000001
 40
0.0
 40
0.0
 40
0.0
 40
0.0
 40
1.0
 40
1.0
 40
1.0
 40
1.0
 10
15.49550964518328
 20
-0.8229813559997383
 30
0.0
 10
15.37097455085908
 20
-0.7894601880352827
 30
0.0
 10
15.23315950957758
 20
-0.7259996304679658
 30
0.0
 10
15.09228973261932
 20
-0.6507397036228493
 30
0.0
  0
SPLINE
  5
11B
330
1F
100
AcDbEntity
  8
외형선
  6
Continuous
370
    15
100
AcDbSpline
210
0.0
220
0.0
230
1.0
 70
     8
 71
     3
 72
     8
 73
     4
 74
     0
 42
0.000000001
 43
0.00000001
 40
0.0
 40
0.0
 40
0.0
 40
0.0
 40
1.0
 40
1.0
 40
1.0
 40
1.0
 10
15.09228973261933
 20
-0.6507397036228557
 30
0.0
 10
14.94999399699857
 20
-0.5660728018850648
 30
0.0
 10
14.81197888080558
 20
-0.4766650190222189
 30
0.0
 10
14.6917234355688
 20
-0.391484542204102
 30
0.0
  0
SPLINE
  5
11C
330
1F
100
AcDbEntity
  8
외형선
  6
Continuous
370
    15
100
AcDbSpline
210
0.0
220
0.0
230
1.0
 70
     8
 71
     3
 72
     8
 73
     4
 74
     0
 42
0.000000001
 43
0.00000001
 40
0.0
 40
0.0
 40
0.0
 40
0.0
 40
1.0
 40
1.0
 40
1.0
 40
1.0
 10
14.69172343556876
 20
-0.3914845422040795
 30
0.0
 10
14.61627372311071
 20
-0.3380412867214442
 30
0.0
 10
14.51375511212513
 20
-0.2840291958728547
 30
0.0
 10
14.43407204776661
 20
-0.2503521263930849
 30
0.0
  0
SPLINE
  5
11D
330
1F
100
AcDbEntity
  8
외형선
  6
Continuous
370
    15
100
AcDbSpline
210
0.0
220
0.0
230
1.0
 70
     8
 71
     3
 72
     8
 73
     4
 74
     0
 42
0.000000001
 43
0.00000001
 40
0.0
 40
0.0
 40
0.0
 40
0.0
 40
1.0
 40
1.0
 40
1.0
 40
1.0
 10
13.42307130069848
 20
0.3024555004015764
 30
0.0
 10
13.3468305574118
 20
0.344005652278415
 30
0.0
 10
13.24409959429806
 20
0.3976487348617487
 30
0.0
 10
13.16467976059556
 20
0.4437107922712199
 30
0.0
  0
SPLINE
  5
11E
330
1F
100
AcDbEntity
  8
외형선
  6
Continuous
370
    15
100
AcDbSpline
210
0.0
220
0.0
230
1.0
 70
     8
 71
     3
 72
     8
 73
     4
 74
     0
 42
0.000000001
 43
0.00000001
 40
0.0
 40
0.0
 40
0.0
 40
0.0
 40
1.0
 40
1.0
 40
1.0
 40
1.0
 10
12.35935516377626
 20
0.8738391452281615
 30
0.0
 10
12.28378300715993
 20
0.9028323246665362
 30
0.0
 10
12.1811926794647
 20
0.9533045797029011
 30
0.0
 10
12.10152041623782
 20
1.007735292066112
 30
0.0
  0
SPLINE
  5
11F
330
1F
100
AcDbEntity
  8
외형선
  6
Continuous
370
    15
100
AcDbSpline
210
0.0
220
0.0
230
1.0
 70
     8
 71
     3
 72
     8
 73
     4
 74
     0
 42
0.000000001
 43
0.00000001
 40
0.0
 40
0.0
 40
0.0
 40
0.0
 40
1.0
 40
1.0
 40
1.0
 40
1.0
 10
11.09180180706632
 20
1.510022004599622
 30
0.0
 10
11.01580056075223
 20
1.523921459167937
 30
0.0
 10
10.91314748334867
 20
1.569095627842681
 30
0.0
 10
10.83399377627619
 20
1.63106236637383
 30
0.0
  0
SPLINE
  5
120
330
1F
100
AcDbEntity
  8
외형선
  6
Continuous
370
    15
100
AcDbSpline
210
0.0
220
0.0
230
1.0
 70
     8
 71
     3
 72
     8
 73
     4
 74
     0
 42
0.000000001
 43
0.00000001
 40
0.0
 40
0.0
 40
0.0
 40
0.0
 40
1.0
 40
1.0
 40
1.0
 40
1.0
 10
10.8339937762762
 20
1.631062366373817
 30
0.0
 10
10.709342724462
 20
1.728647424876884
 30
0.0
 10
10.57144801795854
 20
1.82373329454192
 30
0.0
 10
10.43062552268598
 20
1.899608605103601
 30
0.0
  0
SPLINE
  5
121
330
1F
100
AcDbEntity
  8
외형선
  6
Continuous
370
    15
100
AcDbSpline
210
0.0
220
0.0
230
1.0
 70
     8
 71
     3
 72
     8
 73
     4
 74
     0
 42
0.000000001
 43
0.00000001
 40
0.0
 40
0.0
 40
0.0
 40
0.0
 40
1.0
 40
1.0
 40
1.0
 40
1.0
 10
10.43062552268599
 20
1.899608605103597
 30
0.0
 10
10.28831085022703
 20
1.955262620728204
 30
0.0
 10
10.15000918503143
 20
1.984692169569519
 30
0.0
 10
10.02932815574709
 20
1.98426308001865
 30
0.0
  0
SPLINE
  5
122
330
1F
100
AcDbEntity
  8
외형선
  6
Continuous
370
    15
100
AcDbSpline
210
0.0
220
0.0
230
1.0
 70
     8
 71
     3
 72
     8
 73
     4
 74
     0
 42
0.000000001
 43
0.00000001
 40
0.0
 40
0.0
 40
0.0
 40
0.0
 40
1.0
 40
1.0
 40
1.0
 40
1.0
 10
10.02932815574705
 20
1.984263080018646
 30
0.0
 10
9.95359732109145
 20
1.983993813920879
 30
0.0
 10
9.850831867467825
 20
2.022177568018791
 30
0.0
 10
9.770913476144834
 20
2.087717891498708
 30
0.0
  0
SPLINE
  5
123
330
1F
100
AcDbEntity
  8
외형선
  6
Continuous
370
    15
100
AcDbSpline
210
0.0
220
0.0
230
1.0
 70
     8
 71
     3
 72
    14
 73
    10
 74
     0
 42
0.000000001
 43
0.00000001
 40
0.0
 40
0.0
 40
0.0
 40
0.0
 40
0.25
 40
0.25
 40
0.5
 40
0.5
 40
0.75
 40
0.75
 40
1.0
 40
1.0
 40
1.0
 40
1.0
 10
9.770913476144829
 20
2.087717891498715
 30
0.0
 10
9.705767023799456
 20
2.141143886311707
 30
0.0
 10
9.638418438208749
 20
2.190745084157877
 30
0.0
 10
9.498309288474998
 20
2.281121483012462
 30
0.0
 10
9.425469457089452
 20
2.321708412467181
 30
0.0
 10
9.280747952005928
 20
2.388276355110832
 30
0.0
 10
9.206950547264583
 20
2.41512993257287
 30
0.0
 10
9.063099813777013
 20
2.452170274596616
 30
0.0
 10
8.99302149333332
 20
2.462648319573468
 30
0.0
 10
8.92463065701747
 20
2.464516345164822
 30
0.0
  0
SPLINE
  5
124
330
1F
100
AcDbEntity
  8
외형선
  6
Continuous
370
    15
100
AcDbSpline
210
0.0
220
0.0
230
1.0
 70
     8
 71
     3
 72
     8
 73
     4
 74
     0
 42
0.000000001
 43
0.00000001
 40
0.0
 40
0.0
 40
0.0
 40
0.0
 40
1.0
 40
1.0
 40
1.0
 40
1.0
 10
8.92463065701557
 20
2.395076970941783
 30
0.0
 10
8.87943370538588
 20
2.415546936242256
 30
0.0
 10
8.834286747574447
 20
2.435869181822095
 30
0.0
 10
8.789188901996047
 20
2.456039773006222
 30
0.0
  0
SPLINE
  5
125
330
1F
100
AcDbEntity
  8
외형선
  6
Continuous
370
    15
100
AcDbSpline
210
0.0
220
0.0
230
1.0
 70
     8
 71
     3
 72
     8
 73
     4
 74
     0
 42
0.000000001
 43
0.00000001
 40
0.0
 40
0.0
 40
0.0
 40
0.0
 40
1.0
 40
1.0
 40
1.0
 40
1.0
 10
8.789188901996047
 20
2.45603977300622
 30
0.0
 10
8.779172523534996
 20
2.454441900100122
 30
0.0
 10
8.769257210590894
 20
2.452626164526216
 30
0.0
 10
8.759445267641542
 20
2.450591974144365
 30
0.0
  0
SPLINE
  5
126
330
1F
100
AcDbEntity
  8
외형선
  6
Continuous
370
    15
100
AcDbSpline
210
0.0
220
0.0
230
1.0
 70
     8
 71
     3
 72
     8
 73
     4
 74
     0
 42
0.000000001
 43
0.00000001
 40
0.0
 40
0.0
 40
0.0
 40
0.0
 40
1.0
 40
1.0
 40
1.0
 40
1.0
 10
8.759445267641338
 20
2.450591974144326
 30
0.0
 10
8.683468144734173
 20
2.434840564514603
 30
0.0
 10
8.580834327397607
 20
2.464054629989512
 30
0.0
 10
8.501644847575104
 20
2.531350254950157
 30
0.0
  0
SPLINE
  5
127
330
1F
100
AcDbEntity
  8
외형선
  6
Continuous
370
    15
100
AcDbSpline
210
0.0
220
0.0
230
1.0
 70
     8
 71
     3
 72
     8
 73
     4
 74
     0
 42
0.000000001
 43
0.00000001
 40
0.0
 40
0.0
 40
0.0
 40
0.0
 40
1.0
 40
1.0
 40
1.0
 40
1.0
 10
8.501644847575104
 20
2.531350254950158
 30
0.0
 10
8.449842436098773
 20
2.575372209161524
 30
0.0
 10
8.39572476827153
 20
2.616035804565718
 30
0.0
 10
8.340009710998194
 20
2.65243792860056
 30
0.0
  0
SPLINE
  5
128
330
1F
100
AcDbEntity
  8
외형선
  6
Continuous
370
    15
100
AcDbSpline
210
0.0
220
0.0
230
1.0
 70
     8
 71
     3
 72
     8
 73
     4
 74
     0
 42
0.000000001
 43
0.00000001
 40
0.0
 40
0.0
 40
0.0
 40
0.0
 40
1.0
 40
1.0
 40
1.0
 40
1.0
 10
22.86377940697875
 20
1.452136418595662
 30
0.0
 10
22.72153676931976
 20
1.517136045931456
 30
0.0
 10
22.58338989312315
 20
1.561165498823407
 30
0.0
 10
22.46302813328037
 20
1.579417537905179
 30
0.0
  0
SPLINE
  5
129
330
1F
100
AcDbEntity
  8
외형선
  6
Continuous
370
    15
100
AcDbSpline
210
0.0
220
0.0
230
1.0
 70
     8
 71
     3
 72
     8
 73
     4
 74
     0
 42
0.000000001
 43
0.00000001
 40
0.0
 40
0.0
 40
0.0
 40
0.0
 40
0.0000060431386252
 40
0.0000060431386252
 40
0.0000060431386252
 40
0.0000060431386252
 10
7.404746945980595
 20
1.225951771584319
 30
0.0
 10
7.406301092166341
 20
1.225686908161436
 30
0.0
 10
7.407845205782923
 20
1.225435391934269
 30
0.0
 10
7.409378620514896
 20
1.225197291542548
 30
0.0
  0
SPLINE
  5
12A
330
1F
100
AcDbEntity
  8
외형선
  6
Continuous
370
    15
100
AcDbSpline
210
0.0
220
0.0
230
1.0
 70
     8
 71
     3
 72
     8
 73
     4
 74
     0
 42
0.000000001
 43
0.00000001
 40
0.0
 40
0.0
 40
0.0
 40
0.0
 40
1.0
 40
1.0
 40
1.0
 40
1.0
 10
7.409378620515096
 20
1.22519729154134
 30
0.0
 10
7.533877715113404
 20
1.205865741782035
 30
0.0
 10
7.671506365464355
 20
1.152369528853255
 30
0.0
 10
7.812454304853572
 20
1.082581283984256
 30
0.0
  0
SPLINE
  5
12B
330
1F
100
AcDbEntity
  8
외형선
  6
Continuous
370
    15
100
AcDbSpline
210
0.0
220
0.0
230
1.0
 70
     8
 71
     3
 72
     8
 73
     4
 74
     0
 42
0.000000001
 43
0.00000001
 40
0.0
 40
0.0
 40
0.0
 40
0.0
 40
1.0
 40
1.0
 40
1.0
 40
1.0
 10
7.812454304853882
 20
1.082581283984236
 30
0.0
 10
7.954714326498781
 20
0.9985580426266447
 30
0.0
 10
8.09294126474793
 20
0.9047885661867322
 30
0.0
 10
8.213427822587478
 20
0.8101662497295177
 30
0.0
  0
SPLINE
  5
12C
330
1F
100
AcDbEntity
  8
외형선
  6
Continuous
370
    15
100
AcDbSpline
210
0.0
220
0.0
230
1.0
 70
     8
 71
     3
 72
     8
 73
     4
 74
     0
 42
0.000000001
 43
0.00000001
 40
0.0
 40
0.0
 40
0.0
 40
0.0
 40
1.0
 40
1.0
 40
1.0
 40
1.0
 10
8.213427822585784
 20
0.8101662497308395
 30
0.0
 10
8.28905397372142
 20
0.7507743828411969
 30
0.0
 10
8.391726821178603
 20
0.6979882080102918
 30
0.0
 10
8.471498253672861
 20
0.6728495951628406
 30
0.0
  0
SPLINE
  5
12D
330
1F
100
AcDbEntity
  8
외형선
  6
Continuous
370
    15
100
AcDbSpline
210
0.0
220
0.0
230
1.0
 70
     8
 71
     3
 72
     8
 73
     4
 74
     0
 42
0.000000001
 43
0.00000001
 40
0.0
 40
0.0
 40
0.0
 40
0.0
 40
1.0
 40
1.0
 40
1.0
 40
1.0
 10
8.471498253672872
 20
0.6728495951627952
 30
0.0
 10
8.502021735575978
 20
0.6632306379706502
 30
0.0
 10
8.533033607207635
 20
0.6520109357956976
 30
0.0
 10
8.564574623267578
 20
0.6394590069892666
 30
0.0
  0
SPLINE
  5
12E
330
1F
100
AcDbEntity
  8
외형선
  6
Continuous
370
    15
100
AcDbSpline
210
0.0
220
0.0
230
1.0
 70
     8
 71
     3
 72
     8
 73
     4
 74
     0
 42
0.000000001
 43
0.00000001
 40
0.0
 40
0.0
 40
0.0
 40
0.0
 40
1.0
 40
1.0
 40
1.0
 40
1.0
 10
8.564574623267578
 20
0.6394590069892644
 30
0.0
 10
8.68444652563721
 20
0.5686148847568298
 30
0.0
 10
8.804461105720941
 20
0.4981063056014347
 30
0.0
 10
8.92463065701557
 20
0.4279533040644425
 30
0.0
  0
SPLINE
  5
12F
330
1F
100
AcDbEntity
  8
외형선
  6
Continuous
370
    15
100
AcDbSpline
210
0.0
220
0.0
230
1.0
 70
    24
 71
     3
 72
     9
 73
     5
 74
     0
 42
0.000000001
 43
0.00000001
 40
0.0
 40
0.0
 40
0.0
 40
0.0
 40
0.5
 40
1.0
 40
1.0
 40
1.0
 40
1.0
 10
8.92463065701557
 20
0.4612584543914671
 30
0.0
 10
8.92463065701557
 20
0.4563919271050273
 30
0.0
 10
8.924630657015568
 20
0.4459236194871959
 30
0.0
 10
8.92463065701557
 20
0.4341388571752686
 30
0.0
 10
8.92463065701557
 20
0.4279533040644432
 30
0.0
  0
SPLINE
  5
130
330
1F
100
AcDbEntity
  8
외형선
  6
Continuous
370
    15
100
AcDbSpline
210
0.0
220
0.0
230
1.0
 70
     8
 71
     3
 72
     8
 73
     4
 74
     0
 42
0.000000001
 43
0.00000001
 40
0.0
 40
0.0
 40
0.0
 40
0.0
 40
1.0
 40
1.0
 40
1.0
 40
1.0
 10
8.924630657015292
 20
0.4612584543916137
 30
0.0
 10
9.118870287258611
 20
0.3519617767174181
 30
0.0
 10
9.317063647138744
 20
0.2300722381623728
 30
0.0
 10
9.483575123302813
 20
0.1229673204180719
 30
0.0
  0
SPLINE
  5
131
330
1F
100
AcDbEntity
  8
외형선
  6
Continuous
370
    15
100
AcDbSpline
210
0.0
220
0.0
230
1.0
 70
     8
 71
     3
 72
     8
 73
     4
 74
     0
 42
0.000000001
 43
0.00000001
 40
0.0
 40
0.0
 40
0.0
 40
0.0
 40
1.0
 40
1.0
 40
1.0
 40
1.0
 10
9.483575123302817
 20
0.1229673204180644
 30
0.0
 10
9.559664515399694
 20
0.07402445912411
 30
0.0
 10
9.66238528324734
 20
0.0202902301507952
 30
0.0
 10
9.741634837488002
 20
-0.0179885663847395
 30
0.0
  0
SPLINE
  5
132
330
1F
100
AcDbEntity
  8
외형선
  6
Continuous
370
    15
100
AcDbSpline
210
0.0
220
0.0
230
1.0
 70
     8
 71
     3
 72
     8
 73
     4
 74
     0
 42
0.000000001
 43
0.00000001
 40
0.0
 40
0.0
 40
0.0
 40
0.0
 40
1.0
 40
1.0
 40
1.0
 40
1.0
 10
9.741634837488196
 20
-0.0179885663847365
 30
0.0
 10
9.86625062029823
 20
-0.0781799736552006
 30
0.0
 10
10.00412131738715
 20
-0.158853052928099
 30
0.0
 10
10.14500988012927
 20
-0.240826112251096
 30
0.0
  0
SPLINE
  5
133
330
1F
100
AcDbEntity
  8
외형선
  6
Continuous
370
    15
100
AcDbSpline
210
0.0
220
0.0
230
1.0
 70
     8
 71
     3
 72
     8
 73
     4
 74
     0
 42
0.000000001
 43
0.00000001
 40
0.0
 40
0.0
 40
0.0
 40
0.0
 40
1.0
 40
1.0
 40
1.0
 40
1.0
 10
10.14500988012958
 20
-0.2408261122510982
 30
0.0
 10
10.28729588536164
 20
-0.3219730558392409
 30
0.0
 10
10.42525010258565
 20
-0.3970281386919137
 30
0.0
 10
10.5455976911162
 20
-0.457677900223258
 30
0.0
  0
SPLINE
  5
134
330
1F
100
AcDbEntity
  8
외형선
  6
Continuous
370
    15
100
AcDbSpline
210
0.0
220
0.0
230
1.0
 70
     8
 71
     3
 72
     8
 73
     4
 74
     0
 42
0.000000001
 43
0.00000001
 40
0.0
 40
0.0
 40
0.0
 40
0.0
 40
1.0
 40
1.0
 40
1.0
 40
1.0
 10
10.5455976911162
 20
-0.4576779002232766
 30
0.0
 10
10.62104994488223
 20
-0.4957024361012872
 30
0.0
 10
10.72357834384348
 20
-0.5484145631932937
 30
0.0
 10
10.80324171300165
 20
-0.5967581742505963
 30
0.0
  0
SPLINE
  5
135
330
1F
100
AcDbEntity
  8
외형선
  6
Continuous
370
    15
100
AcDbSpline
210
0.0
220
0.0
230
1.0
 70
     8
 71
     3
 72
     8
 73
     4
 74
     0
 42
0.000000001
 43
0.00000001
 40
0.0
 40
0.0
 40
0.0
 40
0.0
 40
1.0
 40
1.0
 40
1.0
 40
1.0
 10
11.81352061388215
 20
-1.126223620336945
 30
0.0
 10
11.88960812554136
 20
-1.150122295504305
 30
0.0
 10
11.99228615392996
 20
-1.199279177700854
 30
0.0
 10
12.07162119917572
 20
-1.257143512764782
 30
0.0
  0
SPLINE
  5
136
330
1F
100
AcDbEntity
  8
외형선
  6
Continuous
370
    15
100
AcDbSpline
210
0.0
220
0.0
230
1.0
 70
     8
 71
     3
 72
     8
 73
     4
 74
     0
 42
0.000000001
 43
0.00000001
 40
0.0
 40
0.0
 40
0.0
 40
0.0
 40
1.0
 40
1.0
 40
1.0
 40
1.0
 10
12.87754127175067
 20
-1.643455174277234
 30
0.0
 10
12.95319072025674
 20
-1.653231851881484
 30
0.0
 10
13.05581881901036
 20
-1.696464154333995
 30
0.0
 10
13.13555063526624
 20
-1.759628341676298
 30
0.0
  0
SPLINE
  5
137
330
1F
100
AcDbEntity
  8
외형선
  6
Continuous
370
    15
100
AcDbSpline
210
0.0
220
0.0
230
1.0
 70
     8
 71
     3
 72
     8
 73
     4
 74
     0
 42
0.000000001
 43
0.00000001
 40
0.0
 40
0.0
 40
0.0
 40
0.0
 40
1.0
 40
1.0
 40
1.0
 40
1.0
 10
14.14555379878636
 20
-2.177329717035685
 30
0.0
 10
14.22153539840833
 20
-2.171370951137689
 30
0.0
 10
14.32415816916204
 20
-2.206680812892936
 30
0.0
 10
14.40327638575831
 20
-2.273520451670171
 30
0.0
  0
SPLINE
  5
138
330
1F
100
AcDbEntity
  8
외형선
  6
Continuous
370
    15
100
AcDbSpline
210
0.0
220
0.0
230
1.0
 70
     8
 71
     3
 72
     8
 73
     4
 74
     0
 42
0.000000001
 43
0.00000001
 40
0.0
 40
0.0
 40
0.0
 40
0.0
 40
1.0
 40
1.0
 40
1.0
 40
1.0
 10
14.4032763857585
 20
-2.27352045167027
 30
0.0
 10
14.52786074549669
 20
-2.378770215383748
 30
0.0
 10
14.66555746259394
 20
-2.469938356291316
 30
0.0
 10
14.80639031620182
 20
-2.533280237190192
 30
0.0
  0
SPLINE
  5
139
330
1F
100
AcDbEntity
  8
외형선
  6
Continuous
370
    15
100
AcDbSpline
210
0.0
220
0.0
230
1.0
 70
     8
 71
     3
 72
     8
 73
     4
 74
     0
 42
0.000000001
 43
0.00000001
 40
0.0
 40
0.0
 40
0.0
 40
0.0
 40
1.0
 40
1.0
 40
1.0
 40
1.0
 10
14.806390316202
 20
-2.5332802371901
 30
0.0
 10
14.94859433651079
 20
-2.568670351031728
 30
0.0
 10
15.08683402334702
 20
-2.570766317937343
 30
0.0
 10
15.20736850553758
 20
-2.538597046885804
 30
0.0
  0
SPLINE
  5
13A
330
1F
100
AcDbEntity
  8
외형선
  6
Continuous
370
    15
100
AcDbSpline
210
0.0
220
0.0
230
1.0
 70
     8
 71
     3
 72
     8
 73
     4
 74
     0
 42
0.000000001
 43
0.00000001
 40
0.0
 40
0.0
 40
0.0
 40
0.0
 40
1.0
 40
1.0
 40
1.0
 40
1.0
 10
15.20736850553771
 20
-2.538597046886202
 30
0.0
 10
15.28300226295227
 20
-2.51841126437235
 30
0.0
 10
15.38569073330006
 20
-2.544424659637046
 30
0.0
 10
15.46549563569191
 20
-2.610921323327332
 30
0.0
  0
SPLINE
  5
13B
330
1F
100
AcDbEntity
  8
외형선
  6
Continuous
370
    15
100
AcDbSpline
210
0.0
220
0.0
230
1.0
 70
     8
 71
     3
 72
    10
 73
     6
 74
     0
 42
0.000000001
 43
0.00000001
 40
0.0
 40
0.0
 40
0.0
 40
0.0
 40
0.5
 40
0.5
 40
1.0
 40
1.0
 40
1.0
 40
1.0
 10
15.46549563569191
 20
-2.610921323327335
 30
0.0
 10
15.62327677160504
 20
-2.74239093004361
 30
0.0
 10
15.79876957367183
 20
-2.837168962424432
 30
0.0
 10
16.15166132897871
 20
-2.922315343479252
 30
0.0
 10
16.32718042020011
 20
-2.911000982005508
 30
0.0
 10
16.47755305925415
 20
-2.843052069884676
 30
0.0
  0
SPLINE
  5
13C
330
1F
100
AcDbEntity
  8
외형선
  6
Continuous
370
    15
100
AcDbSpline
210
0.0
220
0.0
230
1.0
 70
     8
 71
     3
 72
     8
 73
     4
 74
     0
 42
0.000000001
 43
0.00000001
 40
0.0
 40
0.0
 40
0.0
 40
0.0
 40
1.0
 40
1.0
 40
1.0
 40
1.0
 10
16.47755305925415
 20
-2.843052069884675
 30
0.0
 10
16.55360640952915
 20
-2.808685828480389
 30
0.0
 10
16.65630027963127
 20
-2.824135204282034
 30
0.0
 10
16.73554332320908
 20
-2.888325756059845
 30
0.0
  0
SPLINE
  5
13D
330
1F
100
AcDbEntity
  8
외형선
  6
Continuous
370
    15
100
AcDbSpline
210
0.0
220
0.0
230
1.0
 70
     8
 71
     3
 72
     8
 73
     4
 74
     0
 42
0.000000001
 43
0.00000001
 40
0.0
 40
0.0
 40
0.0
 40
0.0
 40
1.0
 40
1.0
 40
1.0
 40
1.0
 10
16.73554332320928
 20
-2.888325756059967
 30
0.0
 10
16.86011248714058
 20
-2.989232573948559
 30
0.0
 10
16.99796409081615
 20
-3.060785166490871
 30
0.0
 10
17.13889719649008
 20
-3.096338807577592
 30
0.0
  0
SPLINE
  5
13E
330
1F
100
AcDbEntity
  8
외형선
  6
Continuous
370
    15
100
AcDbSpline
210
0.0
220
0.0
230
1.0
 70
     8
 71
     3
 72
     8
 73
     4
 74
     0
 42
0.000000001
 43
0.00000001
 40
0.0
 40
0.0
 40
0.0
 40
0.0
 40
1.0
 40
1.0
 40
1.0
 40
1.0
 10
17.1388971964904
 20
-3.096338807577553
 30
0.0
 10
17.28120175116401
 20
-3.096708174632366
 30
0.0
 10
17.41928375491317
 20
-3.058457227605397
 30
0.0
 10
17.53953303595817
 20
-2.984367283403368
 30
0.0
  0
SPLINE
  5
13F
330
1F
100
AcDbEntity
  8
외형선
  6
Continuous
370
    15
100
AcDbSpline
210
0.0
220
0.0
230
1.0
 70
     8
 71
     3
 72
     8
 73
     4
 74
     0
 42
0.000000001
 43
0.00000001
 40
0.0
 40
0.0
 40
0.0
 40
0.0
 40
1.0
 40
1.0
 40
1.0
 40
1.0
 10
17.53953303595811
 20
-2.984367283403403
 30
0.0
 10
17.6149988512427
 20
-2.937870057016628
 30
0.0
 10
17.71745376372081
 20
-2.942152026788845
 30
0.0
 10
17.79711947925735
 20
-3.000400574889365
 30
0.0
  0
SPLINE
  5
140
330
1F
100
AcDbEntity
  8
외형선
  6
Continuous
370
    15
100
AcDbSpline
210
0.0
220
0.0
230
1.0
 70
     8
 71
     3
 72
    10
 73
     6
 74
     0
 42
0.000000001
 43
0.00000001
 40
0.0
 40
0.0
 40
0.0
 40
0.0
 40
0.4746018863442966
 40
0.963984983877275
 40
0.9999999999999999
 40
0.9999999999999999
 40
0.9999999999999999
 40
0.9999999999999999
 10
17.79711947925712
 20
-3.000400574889199
 30
0.0
 10
17.84033547704437
 20
-3.028646783053455
 30
0.0
 10
17.92811341077969
 20
-3.086018911789707
 30
0.0
 10
18.02522623828051
 20
-3.128747333946551
 30
0.0
 10
18.07749454210875
 20
-3.140512160654453
 30
0.0
 10
18.0810774324088
 20
-3.141318616582926
 30
0.0
  0
SPLINE
  5
141
330
1F
100
AcDbEntity
  8
외형선
  6
Continuous
370
    15
100
AcDbSpline
210
0.0
220
0.0
230
1.0
 70
     8
 71
     3
 72
    12
 73
     8
 74
     0
 42
0.000000001
 43
0.00000001
 40
0.0
 40
0.0
 40
0.0
 40
0.0
 40
0.1574492307851708
 40
0.3645706253813599
 40
0.5730946507662291
 40
0.7858500106884286
 40
0.9999999999999999
 40
0.9999999999999999
 40
0.9999999999999999
 40
0.9999999999999999
 10
14.64286277033792
 20
-2.446369697796078
 30
0.0
 10
14.62646615128835
 20
-2.458807534801793
 30
0.0
 10
14.58850009943004
 20
-2.487607103989604
 30
0.0
 10
14.52676653394361
 20
-2.528990876112526
 30
0.0
 10
14.4579158548548
 20
-2.570730844999239
 30
0.0
 10
14.38717777539628
 20
-2.608823619802069
 30
0.0
 10
14.33906121553041
 20
-2.630302531037632
 30
0.0
 10
14.31492434116358
 20
-2.641077070686234
 30
0.0
  0
SPLINE
  5
142
330
1F
100
AcDbEntity
  8
외형선
  6
Continuous
370
    15
100
AcDbSpline
210
0.0
220
0.0
230
1.0
 70
     8
 71
     3
 72
     8
 73
     4
 74
     0
 42
0.000000001
 43
0.00000001
 40
0.0
 40
0.0
 40
0.0
 40
0.0
 40
1.0
 40
1.0
 40
1.0
 40
1.0
 10
14.31492434116359
 20
-2.64107707068624
 30
0.0
 10
14.17270167084368
 20
-2.671654136261737
 30
0.0
 10
14.03453986164872
 20
-2.66791905404504
 30
0.0
 10
13.9141742389251
 20
-2.629372451665717
 30
0.0
  0
SPLINE
  5
143
330
1F
100
AcDbEntity
  8
외형선
  6
Continuous
370
    15
100
AcDbSpline
210
0.0
220
0.0
230
1.0
 70
     8
 71
     3
 72
     8
 73
     4
 74
     0
 42
0.000000001
 43
0.00000001
 40
0.0
 40
0.0
 40
0.0
 40
0.0
 40
1.0
 40
1.0
 40
1.0
 40
1.0
 10
13.91417423892496
 20
-2.629372451665668
 30
0.0
 10
13.838670730343
 20
-2.605192759344064
 30
0.0
 10
13.73611169917403
 20
-2.628393955882264
 30
0.0
 10
13.65648540572328
 20
-2.694418206935578
 30
0.0
  0
SPLINE
  5
144
330
1F
100
AcDbEntity
  8
외형선
  6
Continuous
370
    15
100
AcDbSpline
210
0.0
220
0.0
230
1.0
 70
     8
 71
     3
 72
    10
 73
     6
 74
     0
 42
0.000000001
 43
0.00000001
 40
0.0
 40
0.0
 40
0.0
 40
0.0
 40
0.5
 40
0.5
 40
1.0
 40
1.0
 40
1.0
 40
1.0
 10
13.65648540572328
 20
-2.694418206935578
 30
0.0
 10
13.49910273066536
 20
-2.824916222090511
 30
0.0
 10
13.32429902805346
 20
-2.915843522603535
 30
0.0
 10
12.97207438658311
 20
-2.989948028764143
 30
0.0
 10
12.79653285256126
 20
-2.971385817207998
 30
0.0
 10
12.64634586574629
 20
-2.896520657611693
 30
0.0
  0
SPLINE
  5
145
330
1F
100
AcDbEntity
  8
외형선
  6
Continuous
370
    15
100
AcDbSpline
210
0.0
220
0.0
230
1.0
 70
     8
 71
     3
 72
     8
 73
     4
 74
     0
 42
0.000000001
 43
0.00000001
 40
0.0
 40
0.0
 40
0.0
 40
0.0
 40
1.0
 40
1.0
 40
1.0
 40
1.0
 10
12.64634586574629
 20
-2.896520657611694
 30
0.0
 10
12.57021380585671
 20
-2.858570373536482
 30
0.0
 10
12.46744611938859
 20
-2.871063979046252
 30
0.0
 10
12.38814329595205
 20
-2.933956416473603
 30
0.0
  0
SPLINE
  5
146
330
1F
100
AcDbEntity
  8
외형선
  6
Continuous
370
    15
100
AcDbSpline
210
0.0
220
0.0
230
1.0
 70
     8
 71
     3
 72
     8
 73
     4
 74
     0
 42
0.000000001
 43
0.00000001
 40
0.0
 40
0.0
 40
0.0
 40
0.0
 40
1.0
 40
1.0
 40
1.0
 40
1.0
 10
12.38814329595205
 20
-2.933956416473604
 30
0.0
 10
12.26324030505016
 20
-3.03301283337498
 30
0.0
 10
12.12506796773468
 20
-3.100806644105395
 30
0.0
 10
11.98395228521136
 20
-3.132003899762528
 30
0.0
  0
SPLINE
  5
147
330
1F
100
AcDbEntity
  8
외형선
  6
Continuous
370
    15
100
AcDbSpline
210
0.0
220
0.0
230
1.0
 70
     8
 71
     3
 72
     8
 73
     4
 74
     0
 42
0.000000001
 43
0.00000001
 40
0.0
 40
0.0
 40
0.0
 40
0.0
 40
1.0
 40
1.0
 40
1.0
 40
1.0
 10
11.98395228521112
 20
-3.132003899762582
 30
0.0
 10
11.84143046126434
 20
-3.1275433710955
 30
0.0
 10
11.70312312328303
 20
-3.084283298272442
 30
0.0
 10
11.58240180218624
 20
-3.005116366053859
 30
0.0
  0
SPLINE
  5
148
330
1F
100
AcDbEntity
  8
외형선
  6
Continuous
370
    15
100
AcDbSpline
210
0.0
220
0.0
230
1.0
 70
     8
 71
     3
 72
     8
 73
     4
 74
     0
 42
0.000000001
 43
0.00000001
 40
0.0
 40
0.0
 40
0.0
 40
0.0
 40
1.0
 40
1.0
 40
1.0
 40
1.0
 10
11.5824018021861
 20
-3.005116366053765
 30
0.0
 10
11.50679328880591
 20
-2.95553362458326
 30
0.0
 10
11.40414840103583
 20
-2.956589162165813
 30
0.0
 10
11.32436320827104
 20
-3.012834376264508
 30
0.0
  0
SPLINE
  5
149
330
1F
100
AcDbEntity
  8
외형선
  6
Continuous
370
    15
100
AcDbSpline
210
0.0
220
0.0
230
1.0
 70
     8
 71
     3
 72
    10
 73
     6
 74
     0
 42
0.000000001
 43
0.00000001
 40
0.0
 40
0.0
 40
0.0
 40
0.0
 40
0.5
 40
0.5
 40
1.0
 40
1.0
 40
1.0
 40
1.0
 10
11.32436320827103
 20
-3.012834376264512
 30
0.0
 10
11.16696459760964
 20
-3.123793794280666
 30
0.0
 10
10.9918344374773
 20
-3.176687618432188
 30
0.0
 10
10.63942716343541
 20
-3.166093518594476
 30
0.0
 10
10.46420484085808
 20
-3.101671725806613
 30
0.0
 10
10.31433100781402
 20
-2.984901175664489
 30
0.0
  0
SPLINE
  5
14A
330
1F
100
AcDbEntity
  8
외형선
  6
Continuous
370
    15
100
AcDbSpline
210
0.0
220
0.0
230
1.0
 70
     8
 71
     3
 72
     8
 73
     4
 74
     0
 42
0.000000001
 43
0.00000001
 40
0.0
 40
0.0
 40
0.0
 40
0.0
 40
1.0
 40
1.0
 40
1.0
 40
1.0
 10
10.31433100781402
 20
-2.984901175664488
 30
0.0
 10
10.23841034726528
 20
-2.925749440372421
 30
0.0
 10
10.13582208420085
 20
-2.915549055511234
 30
0.0
 10
10.05666104575691
 20
-2.962992447799432
 30
0.0
  0
SPLINE
  5
14B
330
1F
100
AcDbEntity
  8
외형선
  6
Continuous
370
    15
100
AcDbSpline
210
0.0
220
0.0
230
1.0
 70
     8
 71
     3
 72
     8
 73
     4
 74
     0
 42
0.000000001
 43
0.00000001
 40
0.0
 40
0.0
 40
0.0
 40
0.0
 40
1.0
 40
1.0
 40
1.0
 40
1.0
 10
10.05666104575691
 20
-2.962992447799431
 30
0.0
 10
9.932171473973419
 20
-3.037602479527304
 30
0.0
 10
9.794360677223212
 20
-3.072097223068381
 30
0.0
 10
9.653409403928997
 20
-3.069001343793437
 30
0.0
  0
SPLINE
  5
14C
330
1F
100
AcDbEntity
  8
외형선
  6
Continuous
370
    15
100
AcDbSpline
210
0.0
220
0.0
230
1.0
 70
     8
 71
     3
 72
     8
 73
     4
 74
     0
 42
0.000000001
 43
0.00000001
 40
0.0
 40
0.0
 40
0.0
 40
0.0
 40
1.0
 40
1.0
 40
1.0
 40
1.0
 10
9.65340940392876
 20
-3.069001343793436
 30
0.0
 10
9.511025481781807
 20
-3.030103555292825
 30
0.0
 10
9.372811121183554
 20
-2.954562544675992
 30
0.0
 10
9.252376989118975
 20
-2.848942748355874
 30
0.0
  0
SPLINE
  5
14D
330
1F
100
AcDbEntity
  8
외형선
  6
Continuous
370
    15
100
AcDbSpline
210
0.0
220
0.0
230
1.0
 70
     8
 71
     3
 72
     8
 73
     4
 74
     0
 42
0.000000001
 43
0.00000001
 40
0.0
 40
0.0
 40
0.0
 40
0.0
 40
1.0
 40
1.0
 40
1.0
 40
1.0
 10
9.252376989118828
 20
-2.848942748355747
 30
0.0
 10
9.176723057908735
 20
-2.782594839600573
 30
0.0
 10
9.07409301822772
 20
-2.761414250403082
 30
0.0
 10
8.99434182467871
 20
-2.797740426626021
 30
0.0
  0
SPLINE
  5
14E
330
1F
100
AcDbEntity
  8
외형선
  6
Continuous
370
    15
100
AcDbSpline
210
0.0
220
0.0
230
1.0
 70
     8
 71
     3
 72
     8
 73
     4
 74
     0
 42
0.000000001
 43
0.00000001
 40
0.0
 40
0.0
 40
0.0
 40
0.0
 40
1.0
 40
1.0
 40
1.0
 40
1.0
 10
8.99434182467871
 20
-2.797740426626015
 30
0.0
 10
8.97138496167325
 20
-2.808197135973564
 30
0.0
 10
8.948157414557393
 20
-2.817165036174402
 30
0.0
 10
8.924630657015562
 20
-2.824778136019795
 30
0.0
  0
SPLINE
  5
14F
330
1F
100
AcDbEntity
  8
외형선
  6
Continuous
370
    15
100
AcDbSpline
210
0.0
220
0.0
230
1.0
 70
    24
 71
     3
 72
     9
 73
     5
 74
     0
 42
0.000000001
 43
0.00000001
 40
0.0
 40
0.0
 40
0.0
 40
0.0
 40
0.5
 40
1.0
 40
1.0
 40
1.0
 40
1.0
 10
8.92463065701557
 20
-2.781259886932737
 30
0.0
 10
8.92463065701557
 20
-2.788534400045329
 30
0.0
 10
8.92463065701557
 20
-2.803062534405079
 30
0.0
 10
8.92463065701557
 20
-2.817547144379453
 30
0.0
 10
8.92463065701557
 20
-2.824778136017432
 30
0.0
  0
SPLINE
  5
150
330
1F
100
AcDbEntity
  8
외형선
  6
Continuous
370
    15
100
AcDbSpline
210
0.0
220
0.0
230
1.0
 70
     8
 71
     3
 72
     8
 73
     4
 74
     0
 42
0.000000001
 43
0.00000001
 40
0.0
 40
0.0
 40
0.0
 40
0.0
 40
1.0
 40
1.0
 40
1.0
 40
1.0
 10
8.92463065701557
 20
-2.781259886932738
 30
0.0
 10
8.684341988388978
 20
-2.76764841430475
 30
0.0
 10
8.445472450923253
 20
-2.74466143237396
 30
0.0
 10
8.207858705209935
 20
-2.711597005966484
 30
0.0
  0
SPLINE
  5
151
330
1F
100
AcDbEntity
  8
외형선
  6
Continuous
370
    15
100
AcDbSpline
210
0.0
220
0.0
230
1.0
 70
     8
 71
     3
 72
     8
 73
     4
 74
     0
 42
0.000000001
 43
0.00000001
 40
0.0
 40
0.0
 40
0.0
 40
0.0
 40
1.0
 40
1.0
 40
1.0
 40
1.0
 10
8.207858705208789
 20
-2.71159700595932
 30
0.0
 10
8.129092258505255
 20
-2.66567132779826
 30
0.0
 10
8.05253937208016
 20
-2.609377859491414
 30
0.0
 10
7.982189640449742
 20
-2.544761219012269
 30
0.0
  0
SPLINE
  5
152
330
1F
100
AcDbEntity
  8
외형선
  6
Continuous
370
    15
100
AcDbSpline
210
0.0
220
0.0
230
1.0
 70
     8
 71
     3
 72
     8
 73
     4
 74
     0
 42
0.000000001
 43
0.00000001
 40
0.0
 40
0.0
 40
0.0
 40
0.0
 40
1.0
 40
1.0
 40
1.0
 40
1.0
 10
7.982189640449732
 20
-2.544761219012252
 30
0.0
 10
7.906097933170524
 20
-2.474870540273987
 30
0.0
 10
7.803417453551404
 20
-2.443855796774113
 30
0.0
 10
7.724216485686309
 20
-2.467385510634114
 30
0.0
  0
SPLINE
  5
153
330
1F
100
AcDbEntity
  8
외형선
  6
Continuous
370
    15
100
AcDbSpline
210
0.0
220
0.0
230
1.0
 70
    24
 71
     3
 72
    14
 73
    10
 74
     0
 42
0.000000001
 43
0.00000001
 40
0.0
 40
0.0
 40
0.0
 40
0.0
 40
0.25
 40
0.25
 40
0.5
 40
0.5
 40
0.75
 40
0.75
 40
1.0
 40
1.0
 40
1.0
 40
1.0
 10
8.92463065701557
 20
0.4612584543916142
 30
0.0
 10
8.92463065701557
 20
0.6622908298350564
 30
0.0
 10
8.924630657015577
 20
0.8571960616477124
 30
0.0
 10
8.924630657015575
 20
1.235027298205715
 30
0.0
 10
8.92463065701557
 20
1.419674358371569
 30
0.0
 10
8.92463065701557
 20
1.762128016531884
 30
0.0
 10
8.924630657015566
 20
1.921290879649872
 30
0.0
 10
8.924630657015566
 20
2.215230810010765
 30
0.0
 10
8.924630657015571
 20
2.348902440801084
 30
0.0
 10
8.924630657015571
 20
2.464516345164796
 30
0.0
  0
SPLINE
  5
154
330
1F
100
AcDbEntity
  8
외형선
  6
Continuous
370
    15
100
AcDbSpline
210
0.0
220
0.0
230
1.0
 70
     8
 71
     3
 72
    12
 73
     8
 74
     0
 42
0.000000001
 43
0.00000001
 40
0.0
 40
0.0
 40
0.0
 40
0.0
 40
0.5
 40
0.5
 40
0.75
 40
0.75
 40
1.0
 40
1.0
 40
1.0
 40
1.0
 10
10.43062552268599
 20
1.899608605103594
 30
0.0
 10
10.38315780489913
 20
1.595743592552429
 30
0.0
 10
10.33324515527693
 20
1.244926457733327
 30
0.0
 10
10.26175817080663
 20
0.6976476475254478
 30
0.0
 10
10.23904631858244
 20
0.5134207156576615
 30
0.0
 10
10.19306754796891
 20
0.1401542772594968
 30
0.0
 10
10.16920405194503
 20
-0.0505480116064338
 30
0.0
 10
10.14500988012932
 20
-0.2408261122507243
 30
0.0
  0
SPLINE
  5
155
330
1F
100
AcDbEntity
  8
외형선
  6
Continuous
370
    15
100
AcDbSpline
210
0.0
220
0.0
230
1.0
 70
     8
 71
     3
 72
     8
 73
     4
 74
     0
 42
0.000000001
 43
0.00000001
 40
0.0
 40
0.0
 40
0.0
 40
0.0
 40
1.0
 40
1.0
 40
1.0
 40
1.0
 10
20.61967094670416
 20
2.430915149159248
 30
0.0
 10
20.74421730639131
 20
2.536902388885334
 30
0.0
 10
20.88209268095853
 20
2.625262447848319
 30
0.0
 10
21.02315349946201
 20
2.683721440830346
 30
0.0
  0
SPLINE
  5
156
330
1F
100
AcDbEntity
  8
외형선
  6
Continuous
370
    15
100
AcDbSpline
210
0.0
220
0.0
230
1.0
 70
     8
 71
     3
 72
     8
 73
     4
 74
     0
 42
0.000000001
 43
0.00000001
 40
0.0
 40
0.0
 40
0.0
 40
0.0
 40
1.0
 40
1.0
 40
1.0
 40
1.0
 10
21.02315349946205
 20
2.683721440830487
 30
0.0
 10
21.16565123756361
 20
2.712369412436527
 30
0.0
 10
21.3040405983476
 20
2.706268852704082
 30
0.0
 10
21.42469196048166
 20
2.665222469606998
 30
0.0
  0
SPLINE
  5
157
330
1F
100
AcDbEntity
  8
외형선
  6
Continuous
370
    15
100
AcDbSpline
210
0.0
220
0.0
230
1.0
 70
     8
 71
     3
 72
     8
 73
     4
 74
     0
 42
0.000000001
 43
0.00000001
 40
0.0
 40
0.0
 40
0.0
 40
0.0
 40
1.0
 40
1.0
 40
1.0
 40
1.0
 10
21.42469196048076
 20
2.665222469607306
 30
0.0
 10
21.50047869184872
 20
2.639439327549215
 30
0.0
 10
21.6032528530443
 20
2.661500595465179
 30
0.0
 10
21.68314914612124
 20
2.727399832717754
 30
0.0
  0
SPLINE
  5
158
330
1F
100
AcDbEntity
  8
외형선
  6
Continuous
370
    15
100
AcDbSpline
210
0.0
220
0.0
230
1.0
 70
     8
 71
     3
 72
    10
 73
     6
 74
     0
 42
0.000000001
 43
0.00000001
 40
0.0
 40
0.0
 40
0.0
 40
0.0
 40
0.5
 40
0.5
 40
1.0
 40
1.0
 40
1.0
 40
1.0
 10
21.68314914612125
 20
2.727399832717763
 30
0.0
 10
21.84073017054879
 20
2.857374189666377
 30
0.0
 10
22.01559506230558
 20
2.946544631217128
 30
0.0
 10
22.36825506573215
 20
3.015975150125763
 30
0.0
 10
22.54408306909625
 20
2.994617294732478
 30
0.0
 10
22.69436489447992
 20
2.916656938031308
 30
0.0
  0
SPLINE
  5
159
330
1F
100
AcDbEntity
  8
외형선
  6
Continuous
370
    15
100
AcDbSpline
210
0.0
220
0.0
230
1.0
 70
     8
 71
     3
 72
     8
 73
     4
 74
     0
 42
0.000000001
 43
0.00000001
 40
0.0
 40
0.0
 40
0.0
 40
0.0
 40
1.0
 40
1.0
 40
1.0
 40
1.0
 10
22.69436489447993
 20
2.916656938031299
 30
0.0
 10
22.77037421197707
 20
2.877226265096891
 30
0.0
 10
22.87302248267807
 20
2.888378611423554
 30
0.0
 10
22.95216987259201
 20
2.950635524142241
 30
0.0
  0
SPLINE
  5
15A
330
1F
100
AcDbEntity
  8
외형선
  6
Continuous
370
    15
100
AcDbSpline
210
0.0
220
0.0
230
1.0
 70
     8
 71
     3
 72
     8
 73
     4
 74
     0
 42
0.000000001
 43
0.00000001
 40
0.0
 40
0.0
 40
0.0
 40
0.0
 40
1.0
 40
1.0
 40
1.0
 40
1.0
 10
22.95216987259202
 20
2.950635524142241
 30
0.0
 10
23.07673305620387
 20
3.048616256779365
 30
0.0
 10
23.21451840347621
 20
3.114773954628177
 30
0.0
 10
23.35523687551509
 20
3.144045745805984
 30
0.0
  0
SPLINE
  5
15B
330
1F
100
AcDbEntity
  8
외형선
  6
Continuous
370
    15
100
AcDbSpline
210
0.0
220
0.0
230
1.0
 70
     8
 71
     3
 72
     8
 73
     4
 74
     0
 42
0.000000001
 43
0.00000001
 40
0.0
 40
0.0
 40
0.0
 40
0.0
 40
1.0
 40
1.0
 40
1.0
 40
1.0
 10
23.35523687551509
 20
3.144045745805983
 30
0.0
 10
23.49730395110346
 20
3.137455945640518
 30
0.0
 10
23.63542467918547
 20
3.091875452597568
 30
0.0
 10
23.75583431910022
 20
3.010768471157875
 30
0.0
  0
SPLINE
  5
15C
330
1F
100
AcDbEntity
  8
외형선
  6
Continuous
370
    15
100
AcDbSpline
210
0.0
220
0.0
230
1.0
 70
     8
 71
     3
 72
     8
 73
     4
 74
     0
 42
0.000000001
 43
0.00000001
 40
0.0
 40
0.0
 40
0.0
 40
0.0
 40
1.0
 40
1.0
 40
1.0
 40
1.0
 10
23.75583431910041
 20
3.010768471158136
 30
0.0
 10
23.83134101797718
 20
2.95990775578087
 30
0.0
 10
23.93392725870905
 20
2.959686663532389
 30
0.0
 10
24.01361306720615
 20
3.014985472058632
 30
0.0
  0
SPLINE
  5
15D
330
1F
100
AcDbEntity
  8
외형선
  6
Continuous
370
    15
100
AcDbSpline
210
0.0
220
0.0
230
1.0
 70
     8
 71
     3
 72
     8
 73
     4
 74
     0
 42
0.000000001
 43
0.00000001
 40
0.0
 40
0.0
 40
0.0
 40
0.0
 40
1.0
 40
1.0
 40
1.0
 40
1.0
 10
24.01361306720634
 20
3.014985472058578
 30
0.0
 10
24.19518515723511
 20
3.140989341876517
 30
0.0
 10
24.40059716286173
 20
3.18868748679618
 30
0.0
 10
24.60363565916204
 20
3.15895299322904
 30
0.0
  0
SPLINE
  5
15E
330
1F
100
AcDbEntity
  8
외형선
  6
Continuous
370
    15
100
AcDbSpline
210
0.0
220
0.0
230
1.0
 70
     8
 71
     3
 72
     8
 73
     4
 74
     0
 42
0.000000001
 43
0.00000001
 40
0.0002786960524581
 40
0.0002786960524581
 40
0.0002786960524581
 40
0.0002786960524581
 40
0.0003037991921996
 40
0.0003037991921996
 40
0.0003037991921996
 40
0.0003037991921996
 10
24.6199249270176
 20
3.141843682091731
 30
0.0
 10
24.61449784477549
 20
3.147549371938257
 30
0.0
 10
24.60906807633541
 20
3.153252461454815
 30
0.0
 10
24.60363565916791
 20
3.158952993236448
 30
0.0
  0
SPLINE
  5
15F
330
1F
100
AcDbEntity
  8
외형선
  6
Continuous
370
    15
100
AcDbSpline
210
0.0
220
0.0
230
1.0
 70
     8
 71
     3
 72
    14
 73
    10
 74
     0
 42
0.000000001
 43
0.00000001
 40
0.0
 40
0.0
 40
0.0
 40
0.0
 40
0.25
 40
0.25
 40
0.5
 40
0.5
 40
0.75
 40
0.75
 40
1.0
 40
1.0
 40
1.0
 40
1.0
 10
24.6199249270176
 20
3.14184368209173
 30
0.0
 10
24.62755700906697
 20
2.950617092795286
 30
0.0
 10
24.61925386651478
 20
2.760247691891142
 30
0.0
 10
24.55944568557284
 20
2.381832808607719
 30
0.0
 10
24.50825279006449
 20
2.198983508735612
 30
0.0
 10
24.35529020349657
 20
1.861401205756979
 30
0.0
 10
24.2553394386623
 20
1.711525050119075
 30
0.0
 10
24.01400190263513
 20
1.463266763175592
 30
0.0
 10
23.87552180352648
 20
1.367711150110839
 30
0.0
 10
23.72661179878732
 20
1.301351940525072
 30
0.0
  0
SPLINE
  5
160
330
1F
100
AcDbEntity
  8
외형선
  6
Continuous
370
    15
100
AcDbSpline
210
0.0
220
0.0
230
1.0
 70
     8
 71
     3
 72
     8
 73
     4
 74
     0
 42
0.000000001
 43
0.00000001
 40
0.0
 40
0.0
 40
0.0
 40
0.0
 40
1.0
 40
1.0
 40
1.0
 40
1.0
 10
24.79963065701557
 20
0.7917171133154425
 30
0.0
 10
24.43512770410361
 20
0.9798149692746333
 30
0.0
 10
24.07774702864775
 20
1.148913571607954
 30
0.0
 10
23.72661179878732
 20
1.301351940525072
 30
0.0
  0
LINE
  5
161
330
1F
100
AcDbEntity
  8
외형선
  6
Continuous
370
    15
100
AcDbLine
 10
24.79963065701557
 20
0.3871479485605517
 30
0.0
 11
24.79963065701557
 21
0.7917171133154427
 31
0.0
  0
SPLINE
  5
162
330
1F
100
AcDbEntity
  8
외형선
  6
Continuous
370
    15
100
AcDbSpline
210
0.0
220
0.0
230
1.0
 70
     8
 71
     3
 72
     8
 73
     4
 74
     0
 42
0.000000001
 43
0.00000001
 40
0.0
 40
0.0
 40
0.0
 40
0.0
 40
1.0
 40
1.0
 40
1.0
 40
1.0
 10
24.77177131182203
 20
0.3944647916872507
 30
0.0
 10
24.78103947071757
 20
0.3891538884529316
 30
0.0
 10
24.79032568456043
 20
0.3839277247387621
 30
0.0
 10
24.79963065701545
 20
0.3787874001402128
 30
0.0
  0
SPLINE
  5
163
330
1F
100
AcDbEntity
  8
외형선
  6
Continuous
370
    15
100
AcDbSpline
210
0.0
220
0.0
230
1.0
 70
     8
 71
     3
 72
     8
 73
     4
 74
     0
 42
0.000000001
 43
0.00000001
 40
0.0
 40
0.0
 40
0.0
 40
0.0
 40
1.0
 40
1.0
 40
1.0
 40
1.0
 10
24.77177131182205
 20
0.3944647916872355
 30
0.0
 10
24.69975954717518
 20
0.432492669324697
 30
0.0
 10
24.6079142725559
 20
0.4802874590564437
 30
0.0
 10
24.5355917437132
 20
0.5231851565021084
 30
0.0
  0
SPLINE
  5
164
330
1F
100
AcDbEntity
  8
외형선
  6
Continuous
370
    15
100
AcDbSpline
210
0.0
220
0.0
230
1.0
 70
     8
 71
     3
 72
     8
 73
     4
 74
     0
 42
0.000000001
 43
0.00000001
 40
0.0
 40
0.0
 40
0.0
 40
0.0
 40
1.0
 40
1.0
 40
1.0
 40
1.0
 10
23.52453169778671
 20
1.05654958715119
 30
0.0
 10
23.4485390256762
 20
1.081939273760521
 30
0.0
 10
23.34601661556367
 20
1.131665169827844
 30
0.0
 10
23.26687058345599
 20
1.188651368035853
 30
0.0
  0
SPLINE
  5
165
330
1F
100
AcDbEntity
  8
외형선
  6
Continuous
370
    15
100
AcDbSpline
210
0.0
220
0.0
230
1.0
 70
     8
 71
     3
 72
     8
 73
     4
 74
     0
 42
0.000000001
 43
0.00000001
 40
0.0
 40
0.0
 40
0.0
 40
0.0
 40
1.0
 40
1.0
 40
1.0
 40
1.0
 10
22.46302813328037
 20
1.579417537905182
 30
0.0
 10
22.38748005019729
 20
1.590873888882325
 30
0.0
 10
22.2848919882236
 20
1.634836963028033
 30
0.0
 10
22.2052245233992
 20
1.697297835869219
 30
0.0
  0
SPLINE
  5
166
330
1F
100
AcDbEntity
  8
외형선
  6
Continuous
370
    15
100
AcDbSpline
210
0.0
220
0.0
230
1.0
 70
     8
 71
     3
 72
     8
 73
     4
 74
     0
 42
0.000000001
 43
0.00000001
 40
0.0
 40
0.0
 40
0.0
 40
0.0
 40
1.0
 40
1.0
 40
1.0
 40
1.0
 10
21.1936271855979
 20
2.12485348614289
 30
0.0
 10
21.11739548822122
 20
2.120739142047436
 30
0.0
 10
21.0145819529333
 20
2.157028792981859
 30
0.0
 10
20.93522358480117
 20
2.223738459800383
 30
0.0
  0
SPLINE
  5
167
330
1F
100
AcDbEntity
  8
외형선
  6
Continuous
370
    15
100
AcDbSpline
210
0.0
220
0.0
230
1.0
 70
     8
 71
     3
 72
     8
 73
     4
 74
     0
 42
0.000000001
 43
0.00000001
 40
0.0
 40
0.0
 40
0.0
 40
0.0
 40
1.0
 40
1.0
 40
1.0
 40
1.0
 10
20.93522358480076
 20
2.223738459800579
 30
0.0
 10
20.8104404444787
 20
2.328632775439529
 30
0.0
 10
20.67245398040842
 20
2.420323444759767
 30
0.0
 10
20.53152478778162
 20
2.485051172466962
 30
0.0
  0
SPLINE
  5
168
330
1F
100
AcDbEntity
  8
외형선
  6
Continuous
370
    15
100
AcDbSpline
210
0.0
220
0.0
230
1.0
 70
     8
 71
     3
 72
     8
 73
     4
 74
     0
 42
0.000000001
 43
0.00000001
 40
0.0
 40
0.0
 40
0.0
 40
0.0
 40
1.0
 40
1.0
 40
1.0
 40
1.0
 10
20.53152478778163
 20
2.485051172466958
 30
0.0
 10
20.38931371487588
 20
2.522394064473712
 30
0.0
 10
20.25115870514132
 20
2.527116874831385
 30
0.0
 10
20.13066534670792
 20
2.497629635798455
 30
0.0
  0
SPLINE
  5
169
330
1F
100
AcDbEntity
  8
외형선
  6
Continuous
370
    15
100
AcDbSpline
210
0.0
220
0.0
230
1.0
 70
     8
 71
     3
 72
     8
 73
     4
 74
     0
 42
0.000000001
 43
0.00000001
 40
0.0
 40
0.0
 40
0.0
 40
0.0
 40
1.0
 40
1.0
 40
1.0
 40
1.0
 10
20.13066534670792
 20
2.497629635798455
 30
0.0
 10
20.05516496157725
 20
2.479153116159763
 30
0.0
 10
19.95259319665667
 20
2.506286045573576
 30
0.0
 10
19.87291852701724
 20
2.572875064035067
 30
0.0
  0
SPLINE
  5
16A
330
1F
100
AcDbEntity
  8
외형선
  6
Continuous
370
    15
100
AcDbSpline
210
0.0
220
0.0
230
1.0
 70
     8
 71
     3
 72
    10
 73
     6
 74
     0
 42
0.000000001
 43
0.00000001
 40
0.0
 40
0.0
 40
0.0
 40
0.0
 40
0.5
 40
0.5
 40
1.0
 40
1.0
 40
1.0
 40
1.0
 10
19.87291852701723
 20
2.572875064035072
 30
0.0
 10
19.71556347641849
 20
2.704386351333135
 30
0.0
 10
19.54045965555223
 20
2.800770554448255
 30
0.0
 10
19.18816301796475
 20
2.890109965619049
 30
0.0
 10
19.01308531705624
 20
2.881518050032931
 30
0.0
 10
18.86315758570466
 20
2.816826089285232
 30
0.0
  0
SPLINE
  5
16B
330
1F
100
AcDbEntity
  8
외형선
  6
Continuous
370
    15
100
AcDbSpline
210
0.0
220
0.0
230
1.0
 70
     8
 71
     3
 72
     8
 73
     4
 74
     0
 42
0.000000001
 43
0.00000001
 40
0.0
 40
0.0
 40
0.0
 40
0.0
 40
1.0
 40
1.0
 40
1.0
 40
1.0
 10
18.86315758570464
 20
2.816826089285227
 30
0.0
 10
18.78716287814461
 20
2.784035313394828
 30
0.0
 10
18.68450535945218
 20
2.800829663213419
 30
0.0
 10
18.60527885902489
 20
2.865504681494203
 30
0.0
  0
SPLINE
  5
16C
330
1F
100
AcDbEntity
  8
외형선
  6
Continuous
370
    15
100
AcDbSpline
210
0.0
220
0.0
230
1.0
 70
     8
 71
     3
 72
     8
 73
     4
 74
     0
 42
0.000000001
 43
0.00000001
 40
0.0
 40
0.0
 40
0.0
 40
0.0
 40
1.0
 40
1.0
 40
1.0
 40
1.0
 10
18.60527885902449
 20
2.865504681494458
 30
0.0
 10
18.48062044581412
 20
2.967267161343222
 30
0.0
 10
18.34263870172585
 20
3.040347037399107
 30
0.0
 10
18.20155593168769
 20
3.077752729335954
 30
0.0
  0
SPLINE
  5
16D
330
1F
100
AcDbEntity
  8
외형선
  6
Continuous
370
    15
100
AcDbSpline
210
0.0
220
0.0
230
1.0
 70
     8
 71
     3
 72
     8
 73
     4
 74
     0
 42
0.000000001
 43
0.00000001
 40
0.0
 40
0.0
 40
0.0
 40
0.0
 40
1.0
 40
1.0
 40
1.0
 40
1.0
 10
18.20155593168769
 20
3.077752729335956
 30
0.0
 10
18.05892681981786
 20
3.080263719857619
 30
0.0
 10
17.92048373192321
 20
3.044272764061648
 30
0.0
 10
17.79979320659745
 20
2.972397018739016
 30
0.0
  0
SPLINE
  5
16E
330
1F
100
AcDbEntity
  8
외형선
  6
Continuous
370
    15
100
AcDbSpline
210
0.0
220
0.0
230
1.0
 70
     8
 71
     3
 72
     8
 73
     4
 74
     0
 42
0.000000001
 43
0.00000001
 40
0.0
 40
0.0
 40
0.0
 40
0.0
 40
1.0
 40
1.0
 40
1.0
 40
1.0
 10
17.79979320659745
 20
2.972397018739014
 30
0.0
 10
17.72401041827778
 20
2.927265519158564
 30
0.0
 10
17.62135476456348
 20
2.932884433480511
 30
0.0
 10
17.54147687734085
 20
2.992001365225916
 30
0.0
  0
SPLINE
  5
16F
330
1F
100
AcDbEntity
  8
외형선
  6
Continuous
370
    15
100
AcDbSpline
210
0.0
220
0.0
230
1.0
 70
     8
 71
     3
 72
    12
 73
     8
 74
     0
 42
0.000000001
 43
0.00000001
 40
0.0
 40
0.0
 40
0.0
 40
0.0
 40
0.2399541283359474
 40
0.4873726617424352
 40
0.6813222207459606
 40
0.9730613793371793
 40
1.0
 40
1.0
 40
1.0
 40
1.0
 10
17.54147687734085
 20
2.992001365225918
 30
0.0
 10
17.49815962978731
 20
3.021135029363336
 30
0.0
 10
17.410177637621
 20
3.080308636983391
 30
0.0
 10
17.27818418577504
 20
3.134308841033061
 30
0.0
 10
17.13363167789483
 20
3.167999938053222
 30
0.0
 10
17.03013475722972
 20
3.180330950234902
 30
0.0
 10
16.96723847802335
 20
3.170596421629194
 30
0.0
 10
16.96192170002078
 20
3.169773537855953
 30
0.0
  0
SPLINE
  5
170
330
1F
100
AcDbEntity
  8
외형선
  6
Continuous
370
    15
100
AcDbSpline
210
0.0
220
0.0
230
1.0
 70
     8
 71
     3
 72
    10
 73
     6
 74
     0
 42
0.000000001
 43
0.00000001
 40
0.0
 40
0.0
 40
0.0
 40
0.0
 40
0.4177283763977378
 40
0.8385074395697982
 40
1.0
 40
1.0
 40
1.0
 40
1.0
 10
16.27292881363089
 20
2.999972683496494
 30
0.0
 10
16.25273344516849
 20
3.01225699619469
 30
0.0
 10
16.21219522067293
 20
3.036915334410221
 30
0.0
 10
16.16212391444403
 20
3.06135187357188
 30
0.0
 10
16.13209918726286
 20
3.072046670404171
 30
0.0
 10
16.12377185364026
 20
3.07501286359257
 30
0.0
  0
LINE
  5
171
330
1F
100
AcDbEntity
  8
외형선
  6
Continuous
370
    15
100
AcDbLine
 10
24.79963065701557
 20
-1.622862244781236
 30
0.0
 11
24.79963065701557
 21
0.3787874001401487
 31
0.0
  0
SPLINE
  5
172
330
1F
100
AcDbEntity
  8
외형선
  6
Continuous
370
    15
100
AcDbSpline
210
0.0
220
0.0
230
1.0
 70
     8
 71
     3
 72
     8
 73
     4
 74
     0
 42
0.000000001
 43
0.00000001
 40
0.0001080573747973
 40
0.0001080573747973
 40
0.0001080573747973
 40
0.0001080573747973
 40
0.0003097718223893
 40
0.0003097718223893
 40
0.0003097718223893
 40
0.0003097718223893
 10
24.66949679504761
 20
-1.763926364463969
 30
0.0
 10
24.71302082291605
 20
-1.716930872956196
 30
0.0
 10
24.75640469717009
 20
-1.669909476106912
 30
0.0
 10
24.79963065701557
 20
-1.622862244781237
 30
0.0
  0
SPLINE
  5
173
330
1F
100
AcDbEntity
  8
외형선
  6
Continuous
370
    15
100
AcDbSpline
210
0.0
220
0.0
230
1.0
 70
     8
 71
     3
 72
    10
 73
     6
 74
     0
 42
0.000000001
 43
0.00000001
 40
0.0
 40
0.0
 40
0.0
 40
0.0
 40
0.5
 40
0.5
 40
1.0
 40
1.0
 40
1.0
 40
1.0
 10
24.75778418677152
 20
0.1046226900823593
 30
0.0
 10
24.74062574953737
 20
-0.2236965805641673
 30
0.0
 10
24.72450634896794
 20
-0.5485368234395462
 30
0.0
 10
24.69454926444863
 20
-1.188183271634219
 30
0.0
 10
24.68184594995405
 20
-1.486449991628098
 30
0.0
 10
24.66949679504761
 20
-1.763926364463971
 30
0.0
  0
SPLINE
  5
174
330
1F
100
AcDbEntity
  8
외형선
  6
Continuous
370
    15
100
AcDbSpline
210
0.0
220
0.0
230
1.0
 70
     8
 71
     3
 72
     8
 73
     4
 74
     0
 42
0.000000001
 43
0.00000001
 40
0.0
 40
0.0
 40
0.0
 40
0.0
 40
1.0
 40
1.0
 40
1.0
 40
1.0
 10
24.77177131182201
 20
0.3944647916872441
 30
0.0
 10
24.76753238007393
 20
0.2984571578172868
 30
0.0
 10
24.76286513296398
 20
0.2018443965430979
 30
0.0
 10
24.75778418677152
 20
0.1046226900823402
 30
0.0
  0
SPLINE
  5
175
330
1F
100
AcDbEntity
  8
외형선
  6
Continuous
370
    15
100
AcDbSpline
210
0.0
220
0.0
230
1.0
 70
     8
 71
     3
 72
    12
 73
     8
 74
     0
 42
0.000000001
 43
0.00000001
 40
0.0
 40
0.0
 40
0.0
 40
0.0
 40
0.25
 40
0.25
 40
0.5
 40
0.5
 40
1.0
 40
1.0
 40
1.0
 40
1.0
 10
20.53152478778163
 20
2.485051172466958
 30
0.0
 10
20.5077352808031
 20
2.366856108447811
 30
0.0
 10
20.48516189307061
 20
2.23753318221859
 30
0.0
 10
20.43893537166258
 20
1.954987556240021
 30
0.0
 10
20.41497504923199
 20
1.800878697663034
 30
0.0
 10
20.34220485548281
 20
1.309588920213394
 30
0.0
 10
20.29257283012575
 20
0.9431783737895425
 30
0.0
 10
20.24643839316677
 20
0.5734090003503437
 30
0.0
  0
SPLINE
  5
176
330
1F
100
AcDbEntity
  8
외형선
  6
Continuous
370
    15
100
AcDbSpline
210
0.0
220
0.0
230
1.0
 70
     8
 71
     3
 72
    12
 73
     8
 74
     0
 42
0.000000001
 43
0.00000001
 40
0.0
 40
0.0
 40
0.0
 40
0.0
 40
0.2499999999999999
 40
0.2499999999999999
 40
0.4999999999999998
 40
0.4999999999999998
 40
1.0
 40
1.0
 40
1.0
 40
1.0
 10
15.09228973261933
 20
-0.6507397036228596
 30
0.0
 10
15.06794611003603
 20
-0.837852364968345
 30
0.0
 10
15.04371223710947
 20
-1.021098146786405
 30
0.0
 10
14.99660849326499
 20
-1.371396988132675
 30
0.0
 10
14.97433374289217
 20
-1.537150189783718
 30
0.0
 10
14.90433742307921
 20
-2.01515216807086
 30
0.0
 10
14.85458229103253
 20
-2.303583133200973
 30
0.0
 10
14.80639031620169
 20
-2.533280237190135
 30
0.0
  0
SPLINE
  5
177
330
1F
100
AcDbEntity
  8
외형선
  6
Continuous
370
    15
100
AcDbSpline
210
0.0
220
0.0
230
1.0
 70
     8
 71
     3
 72
     8
 73
     4
 74
     0
 42
0.000000001
 43
0.00000001
 40
0.0
 40
0.0
 40
0.0
 40
0.0
 40
1.0
 40
1.0
 40
1.0
 40
1.0
 10
24.66949679504761
 20
-1.763926364463971
 30
0.0
 10
24.65353973952704
 20
-1.770126851436811
 30
0.0
 10
24.63767258494055
 20
-1.776061718630233
 30
0.0
 10
24.62196184495079
 20
-1.781704773206658
 30
0.0
  0
SPLINE
  5
179
330
1F
100
AcDbEntity
  8
외형선
  6
Continuous
370
    15
100
AcDbSpline
210
0.0
220
0.0
230
1.0
 70
    24
 71
     3
 72
     8
 73
     4
 74
     0
 42
0.000000001
 43
0.00000001
 40
0.0000178441003218
 40
0.0000178441003218
 40
0.0000178441003218
 40
0.0000178441003218
 40
0.0000547726462546
 40
0.0000547726462546
 40
0.0000547726462546
 40
0.0000547726462546
 10
7.404746945980595
 20
1.22595227399872
 30
0.0
 10
7.404746945980595
 20
1.215166524409951
 30
0.0
 10
7.404746945980596
 20
1.204356775291408
 30
0.0
 10
7.404746945980596
 20
1.193524044008871
 30
0.0
  0
SPLINE
  5
17B
330
1F
100
AcDbEntity
  8
외형선
  6
Continuous
370
    15
100
AcDbSpline
210
0.0
220
0.0
230
1.0
 70
     8
 71
     3
 72
     8
 73
     4
 74
     0
 42
0.000000001
 43
0.00000001
 40
0.0
 40
0.0
 40
0.0
 40
0.0
 40
1.0
 40
1.0
 40
1.0
 40
1.0
 10
7.924630657015546
 20
1.861071687042666
 30
0.0
 10
7.887858768495644
 20
1.623706982640929
 30
0.0
 10
7.849744460774301
 20
1.359281345750648
 30
0.0
 10
7.81245430485361
 20
1.082581283984558
 30
0.0
  0
SPLINE
  5
17C
330
1F
100
AcDbEntity
  8
외형선
  6
Continuous
370
    15
100
AcDbSpline
210
0.0
220
0.0
230
1.0
 70
     8
 71
     3
 72
    20
 73
    16
 74
     0
 42
0.000000001
 43
0.00000001
 40
0.0
 40
0.0
 40
0.0
 40
0.0
 40
0.4999999999999999
 40
0.4999999999999999
 40
0.7500000000000001
 40
0.7500000000000001
 40
0.875
 40
0.875
 40
0.9375000000000001
 40
0.9375000000000001
 40
0.9531250000000001
 40
0.9531250000000001
 40
0.9687500000000001
 40
0.9687500000000001
 40
1.0
 40
1.0
 40
1.0
 40
1.0
 10
8.340009711014563
 20
2.652437928590878
 30
0.0
 10
8.290920148608894
 20
2.540190304945602
 30
0.0
 10
8.240312052585745
 20
2.40704210789978
 30
0.0
 10
8.155836485170582
 20
2.179105799024436
 30
0.0
 10
8.126841161671818
 20
2.098938432192221
 30
0.0
 10
8.074078285247225
 20
1.975334370106784
 30
0.0
 10
8.05529592767171
 20
1.933212108325626
 30
0.0
 10
8.019518526577837
 20
1.872502975167067
 30
0.0
 10
8.007500625347012
 20
1.851999697338151
 30
0.0
 10
7.982487886539503
 20
1.831313391881654
 30
0.0
 10
7.977030789795794
 20
1.827544996210136
 30
0.0
 10
7.963406556319653
 20
1.823370038730916
 30
0.0
 10
7.955053072295396
 20
1.824137125663313
 30
0.0
 10
7.935799636594118
 20
1.835870360221966
 30
0.0
 10
7.929836956677868
 20
1.848980776997237
 30
0.0
 10
7.924630657015596
 20
1.861071687042909
 30
0.0
  0
SPLINE
  5
17D
330
1F
100
AcDbEntity
  8
외형선
  6
Continuous
370
    15
100
AcDbSpline
210
0.0
220
0.0
230
1.0
 70
     8
 71
     3
 72
    14
 73
    10
 74
     0
 42
0.000000001
 43
0.00000001
 40
0.0
 40
0.0
 40
0.0
 40
0.0
 40
0.2500000000000001
 40
0.2500000000000001
 40
0.5000000000000002
 40
0.5000000000000002
 40
0.7500000000000001
 40
0.7500000000000001
 40
1.0
 40
1.0
 40
1.0
 40
1.0
 10
8.564574623267582
 20
0.63945900698927
 30
0.0
 10
8.582542887803672
 20
0.8213726428176094
 30
0.0
 10
8.600902109499636
 20
0.9979946132006171
 30
0.0
 10
8.638416930607777
 20
1.340650494955826
 30
0.0
 10
8.657616521783762
 20
1.506835750718996
 30
0.0
 10
8.695291352670328
 20
1.815364768721297
 30
0.0
 10
8.713957681219627
 20
1.959521365776622
 30
0.0
 10
8.750896864208691
 20
2.227190656494599
 30
0.0
 10
8.769897666873232
 20
2.349251919537846
 30
0.0
 10
8.789188901996043
 20
2.456039773006217
 30
0.0
  0
SPLINE
  5
17E
330
1F
100
AcDbEntity
  8
외형선
  6
Continuous
370
    15
100
AcDbSpline
210
0.0
220
0.0
230
1.0
 70
     8
 71
     3
 72
    10
 73
     6
 74
     0
 42
0.000000001
 43
0.00000001
 40
0.0
 40
0.0
 40
0.0
 40
0.0
 40
0.5
 40
0.5
 40
1.0
 40
1.0
 40
1.0
 40
1.0
 10
7.924630657015559
 20
1.861071687042667
 30
0.0
 10
7.937554576977236
 20
2.055486728905664
 30
0.0
 10
7.95121110202656
 20
2.230249239044086
 30
0.0
 10
7.981563439707141
 20
2.541319148785188
 30
0.0
 10
7.998312404232181
 20
2.677208560956012
 30
0.0
 10
8.015824917179865
 20
2.788074572266282
 30
0.0
  0
SPLINE
  5
17F
330
1F
100
AcDbEntity
  8
외형선
  6
Continuous
370
    15
100
AcDbSpline
210
0.0
220
0.0
230
1.0
 70
     8
 71
     3
 72
    10
 73
     6
 74
     0
 42
0.000000001
 43
0.00000001
 40
0.0
 40
0.0
 40
0.0
 40
0.0
 40
0.5
 40
0.5
 40
1.0
 40
1.0
 40
1.0
 40
1.0
 10
18.20155593168769
 20
3.077752729335954
 30
0.0
 10
18.15485309526633
 20
2.985053041379059
 30
0.0
 10
18.10503369592322
 20
2.822969147365551
 30
0.0
 10
18.00850378757279
 20
2.386613266109779
 30
0.0
 10
17.96410308180549
 20
2.119150257927913
 30
0.0
 10
17.91614586034286
 20
1.80598273457906
 30
0.0
  0
SPLINE
  5
180
330
1F
100
AcDbEntity
  8
외형선
  6
Continuous
370
    15
100
AcDbSpline
210
0.0
220
0.0
230
1.0
 70
     8
 71
     3
 72
    12
 73
     8
 74
     0
 42
0.000000001
 43
0.00000001
 40
0.0
 40
0.0
 40
0.0
 40
0.0
 40
0.5000000000000001
 40
0.5000000000000001
 40
0.75
 40
0.75
 40
1.0
 40
1.0
 40
1.0
 40
1.0
 10
17.42464633204386
 20
-1.871256293088174
 30
0.0
 10
17.37698010616129
 20
-2.178061642224237
 30
0.0
 10
17.32706342419075
 20
-2.447988561521076
 30
0.0
 10
17.25586371213996
 20
-2.759729714792065
 30
0.0
 10
17.23337568341386
 20
-2.847825432432652
 30
0.0
 10
17.18710911949085
 20
-2.995080888122094
 30
0.0
 10
17.16314362485625
 20
-3.054091999904514
 30
0.0
 10
17.13889719649005
 20
-3.096338807577649
 30
0.0
  0
LINE
  5
181
330
1F
100
AcDbEntity
  8
외형선
  6
Continuous
370
    15
100
AcDbLine
 10
16.47466707462833
 20
2.985594283533516
 30
0.0
 11
16.4623553636408
 21
2.980188428480732
 31
0.0
  0
LINE
  5
182
330
1F
100
AcDbEntity
  8
외형선
  6
Continuous
370
    15
100
AcDbLine
 10
18.88346115781646
 20
-2.986408588011682
 30
0.0
 11
18.87193831811979
 21
-2.98920899546618
 31
0.0
  0
SPLINE
  5
183
330
1F
100
AcDbEntity
  8
외형선
  6
Continuous
370
    15
100
AcDbSpline
210
0.0
220
0.0
230
1.0
 70
     8
 71
     3
 72
    11
 73
     7
 74
     0
 42
0.000000001
 43
0.00000001
 40
0.0
 40
0.0
 40
0.0
 40
0.0
 40
0.0033999819361331
 40
0.3242644574820556
 40
0.6600342899252228
 40
1.0
 40
1.0
 40
1.0
 40
1.0
 10
15.79950887868182
 20
3.174486311481035
 30
0.0
 10
15.79926066809403
 20
3.174659138730811
 30
0.0
 10
15.77558822715112
 20
3.191142089358041
 30
0.0
 10
15.72928578685338
 20
3.133078860999332
 30
0.0
 10
15.65845146398218
 20
2.996940896507468
 30
0.0
 10
15.60883353276692
 20
2.813305456131995
 30
0.0
 10
15.58387051964024
 20
2.720917607700174
 30
0.0
  0
LINE
  5
184
330
1F
100
AcDbEntity
  8
외형선
  6
Continuous
370
    15
100
AcDbLine
 10
19.09764721960048
 20
-3.000845062044439
 30
0.0
 11
19.06573150429561
 21
-2.991099975974505
 31
0.0
  0
SPLINE
  5
185
330
1F
100
AcDbEntity
  8
외형선
  6
Continuous
370
    15
100
AcDbSpline
210
0.0
220
0.0
230
1.0
 70
     8
 71
     3
 72
    10
 73
     6
 74
     0
 42
0.000000001
 43
0.00000001
 40
0.0
 40
0.0
 40
0.0
 40
0.0
 40
0.3394296025825285
 40
0.6838195593938993
 40
0.9999999999999999
 40
0.9999999999999999
 40
0.9999999999999999
 40
0.9999999999999999
 10
19.75462185960001
 20
-2.760515041971562
 30
0.0
 10
19.73252388158819
 20
-2.841818963986273
 30
0.0
 10
19.68800499027005
 20
-3.005614966768849
 30
0.0
 10
19.62005486558497
 20
-3.144412365969263
 30
0.0
 10
19.57527472100806
 20
-3.162422740055572
 30
0.0
 10
19.5538408119227
 20
-3.171043362530259
 30
0.0
  0
LINE
  5
186
330
1F
100
AcDbEntity
  8
외형선
  6
Continuous
370
    15
100
AcDbLine
 10
19.54790058360528
 20
-3.174990320982639
 30
0.0
 11
19.54412724988164
 21
-3.172302988999542
 31
0.0
  0
LINE
  5
187
330
1F
100
AcDbEntity
  8
외형선
  6
Continuous
370
    15
100
AcDbLine
 10
7.745152678792326
 20
-3.003850017370451
 30
0.0
 11
7.733991966860699
 21
-2.998135482847817
 31
0.0
  0
SPLINE
  5
188
330
1F
100
AcDbEntity
  8
외형선
  6
Continuous
370
    15
100
AcDbSpline
210
0.0
220
0.0
230
1.0
 70
     8
 71
     3
 72
    11
 73
     7
 74
     0
 42
0.000000001
 43
0.00000001
 40
0.0
 40
0.0
 40
0.0
 40
0.0
 40
0.1786044953886242
 40
0.50659068932516
 40
0.8034161958117387
 40
0.9999999999999999
 40
0.9999999999999999
 40
0.9999999999999999
 40
0.9999999999999999
 10
8.078171604392107
 20
-3.139492816600447
 30
0.0
 10
8.085374563506567
 20
-3.139867868761376
 30
0.0
 10
8.105804911662338
 20
-3.140931660198007
 30
0.0
 10
8.14114500042669
 20
-3.045641260159674
 30
0.0
 10
8.177258777143322
 20
-2.894497930242393
 30
0.0
 10
8.19914057435019
 20
-2.76370674257901
 30
0.0
 10
8.20785870520897
 20
-2.711597005958915
 30
0.0
  0
SPLINE
  5
189
330
1F
100
AcDbEntity
  8
외형선
  6
Continuous
370
    15
100
AcDbSpline
210
0.0
220
0.0
230
1.0
 70
     8
 71
     3
 72
     8
 73
     4
 74
     0
 42
0.000000001
 43
0.00000001
 40
0.0
 40
0.0
 40
0.0
 40
0.0
 40
0.0000698428011655
 40
0.0000698428011655
 40
0.0000698428011655
 40
0.0000698428011655
 10
8.92463065701557
 20
-2.953442712735355
 30
0.0
 10
8.92049044620976
 20
-2.958644115058059
 30
0.0
 10
8.916371837230304
 20
-2.963588830154074
 30
0.0
 10
8.912274166935292
 20
-2.968274947524749
 30
0.0
  0
SPLINE
  5
18A
330
1F
100
AcDbEntity
  8
외형선
  6
Continuous
370
    15
100
AcDbSpline
210
0.0
220
0.0
230
1.0
 70
     8
 71
     3
 72
     9
 73
     5
 74
     0
 42
0.000000001
 43
0.00000001
 40
0.0
 40
0.0
 40
0.0
 40
0.0
 40
0.9022036441462565
 40
1.0
 40
1.0
 40
1.0
 40
1.0
 10
8.912274166935292
 20
-2.968274947524751
 30
0.0
 10
8.883280430561483
 20
-3.000199635071475
 30
0.0
 10
8.851143854122306
 20
-3.035584869606782
 30
0.0
 10
8.81911494730183
 20
-3.027899378442081
 30
0.0
 10
8.815982636932809
 20
-3.027147765413227
 30
0.0
  0
LINE
  5
18B
330
1F
100
AcDbEntity
  8
외형선
  6
Continuous
370
    15
100
AcDbLine
 10
20.22505748877996
 20
-2.991900377088521
 30
0.0
 11
20.22072459884386
 21
-2.989276184834634
 31
0.0
  0
SPLINE
  5
18C
330
1F
100
AcDbEntity
  8
외형선
  6
Continuous
370
    15
100
AcDbSpline
210
0.0
220
0.0
230
1.0
 70
    24
 71
     3
 72
     8
 73
     4
 74
     0
 42
0.000000001
 43
0.00000001
 40
0.0
 40
0.0
 40
0.0
 40
0.0
 40
1.0
 40
1.0
 40
1.0
 40
1.0
 10
8.924630657015568
 20
-2.950643840558592
 30
0.0
 10
8.924630657015568
 20
-2.927620737949738
 30
0.0
 10
8.92463065701557
 20
-2.885491832694967
 30
0.0
 10
8.92463065701557
 20
-2.824778136019765
 30
0.0
  0
LINE
  5
18D
330
1F
100
AcDbEntity
  8
외형선
  6
Continuous
370
    15
100
AcDbLine
 10
8.912274166935292
 20
-2.968274947524751
 30
0.0
 11
8.873384408830738
 21
-2.993961323657437
 31
0.0
  0
SPLINE
  5
18E
330
1F
100
AcDbEntity
  8
외형선
  6
Continuous
370
    15
100
AcDbSpline
210
0.0
220
0.0
230
1.0
 70
     8
 71
     3
 72
     9
 73
     5
 74
     0
 42
0.000000001
 43
0.00000001
 40
0.0
 40
0.0
 40
0.0
 40
0.0
 40
0.9372881977865778
 40
1.0
 40
1.0
 40
1.0
 40
1.0
 10
9.653409403928757
 20
-3.069001343793436
 30
0.0
 10
9.623790957079075
 20
-3.126771020450676
 30
0.0
 10
9.592190807925778
 20
-3.188405933590162
 30
0.0
 10
9.561568347364759
 20
-3.170363650864783
 30
0.0
 10
9.559647957674764
 20
-3.169232186799031
 30
0.0
  0
SPLINE
  5
18F
330
1F
100
AcDbEntity
  8
외형선
  6
Continuous
370
    15
100
AcDbSpline
210
0.0
220
0.0
230
1.0
 70
     8
 71
     3
 72
     8
 73
     4
 74
     0
 42
0.000000001
 43
0.00000001
 40
0.0000315690659259
 40
0.0000315690659259
 40
0.0000315690659259
 40
0.0000315690659259
 40
0.0003097718223893
 40
0.0003097718223893
 40
0.0003097718223893
 40
0.0003097718223893
 10
24.6199249270176
 20
3.141843682091728
 30
0.0
 10
24.68009694746997
 20
3.085241635872357
 30
0.0
 10
24.74001394130086
 20
3.028232500525835
 30
0.0
 10
24.79963065701557
 20
2.970761423860896
 30
0.0
  0
LINE
  5
190
330
1F
100
AcDbEntity
  8
외형선
  6
Continuous
370
    15
100
AcDbLine
 10
24.79963065701557
 20
0.3787874001401487
 30
0.0
 11
24.79963065701557
 21
0.3871479485605517
 31
0.0
  0
LINE
  5
191
330
1F
100
AcDbEntity
  8
외형선
  6
Continuous
370
    15
100
AcDbLine
 10
24.79963065701557
 20
0.7917171133154425
 30
0.0
 11
24.79963065701557
 21
2.970761423860895
 31
0.0
  0
LINE
  5
192
330
1F
100
AcDbEntity
  8
외형선
  6
Continuous
370
    15
100
AcDbLine
 10
24.79963065701557
 20
-1.622862244781236
 30
0.0
 11
24.79963065701557
 21
-1.720915759481668
 31
0.0
  0
LINE
  5
193
330
1F
100
AcDbEntity
  8
외형선
  6
Continuous
370
    15
100
AcDbLine
 10
13.30369882553973
 20
3.164449485926378
 30
0.0
 11
13.25232665778809
 21
3.153115326771732
 31
0.0
  0
LINE
  5
194
330
1F
100
AcDbEntity
  8
외형선
  6
Continuous
370
    15
100
AcDbLine
 10
22.08617505782059
 20
-3.161394100539022
 30
0.0
 11
22.04104987609331
 21
-3.170455663951044
 31
0.0
  0
SPLINE
  5
195
330
1F
100
AcDbEntity
  8
외형선
  6
Continuous
370
    15
100
AcDbSpline
210
0.0
220
0.0
230
1.0
 70
     8
 71
     3
 72
     9
 73
     5
 74
     0
 42
0.000000001
 43
0.00000001
 40
0.0
 40
0.0
 40
0.0
 40
0.0
 40
0.3837539056832688
 40
1.0
 40
1.0
 40
1.0
 40
1.0
 10
24.60121365665022
 20
3.169539215457995
 30
0.0
 10
24.6013873086935
 20
3.170609617283102
 30
0.0
 10
24.60183981755586
 20
3.173398909611481
 30
0.0
 10
24.60295093647054
 20
3.164460966043829
 30
0.0
 10
24.60363565916203
 20
3.158952993229039
 30
0.0
  0
LINE
  5
196
330
1F
100
AcDbEntity
  8
외형선
  6
Continuous
370
    15
100
AcDbLine
 10
24.79963065701557
 20
2.970761423860895
 30
0.0
 11
24.79963065701557
 21
2.975000000000003
 31
0.0
  0
LINE
  5
197
330
1F
100
AcDbEntity
  8
외형선
  6
Continuous
370
    15
100
AcDbLine
 10
23.76477782176999
 20
3.000449712088665
 30
0.0
 11
23.75583431909982
 21
3.01076847115815
 31
0.0
  0
LINE
  5
198
330
1F
100
AcDbEntity
  8
중심선
100
AcDbLine
 10
-40.11286934298444
 20
-0.0000000000000052
 30
0.0
 11
27.79963065701557
 21
0.000000000000003
 31
0.0
  0
LINE
  5
199
330
1F
100
AcDbEntity
  8
참조1
100
AcDbLine
 10
-6.156619342984435
 20
-0.0000000000000052
 30
0.0
 11
-6.156619342984431
 21
-38.04226164784988
 31
0.0
  0
LINE
  5
19A
330
1F
100
AcDbEntity
  8
참조1
100
AcDbLine
 10
-6.156619342984431
 20
-38.04226164784988
 30
0.0
 11
-21.31496278973688
 21
-38.04226164784988
 31
0.0
  0
CIRCLE
  5
19B
330
1F
100
AcDbEntity
  8
해칭선
100
AcDbCircle
 10
-0.0000000000000087
 20
-0.0000000000000052
 30
0.0
 40
3.000000000000001
  0
INSERT
  5
19C
330
1F
100
AcDbEntity
  8
0
  6
Continuous
 62
     7
100
AcDbBlockReference
 66
     1
  2
블럭10
 10
-20.09689227510964
 20
-50.0894359494938
 30
0.0
  0
ATTRIB
  5
19D
330
19C
100
AcDbEntity
  8
FORMAT
 62
     2
100
AcDbText
 10
-29.27818756385092
 20
-48.01406903666161
 30
0.0
 40
4.233333333333333
  1
E2170016 [ 3 FLUTE ]
 41
0.75
  7
SLDTEXTSTYLE0
 11
-29.27818756385092
 21
-50.13073570332828
 31
0.0
100
AcDbAttribute
  2
AUTOATTR0
 70
     0
 74
     1
  0
SEQEND
  5
19E
330
19C
100
AcDbEntity
  8
0
  6
Continuous
 62
     7
  0
HATCH
  5
19F
330
1F
100
AcDbEntity
  8
중심선
100
AcDbHatch
 10
0.0
 20
0.0
 30
0.0
210
0.0
220
0.0
230
1.0
  2
SOLID
 70
     1
 71
     0
 91
        1
 92
        0
 93
        4
 72
     1
 10
-14.38198297072879
 20
-33.84226164784987
 11
-17.82825821456607
 21
-33.84226164784987
 72
     1
 10
-17.82825821456607
 20
-33.84226164784987
 11
-19.9564880737701
 21
-36.37858722842247
 72
     1
 10
-19.9564880737701
 20
-36.37858722842247
 11
-16.51017974481966
 21
-36.37854779911998
 72
     1
 10
-16.51017974481966
 20
-36.37854779911998
 11
-14.38198297072879
 21
-33.84226164784987
 97
        0
 75
     0
 76
     1
 98
        1
 10
0.0
 20
0.0
  0
HATCH
  5
1A0
330
1F
100
AcDbEntity
  8
중심선
100
AcDbHatch
 10
0.0
 20
0.0
 30
0.0
210
0.0
220
0.0
230
1.0
  2
SOLID
 70
     1
 71
     0
 91
        1
 92
        0
 93
        4
 72
     1
 10
-9.369218979692839
 20
-33.84226164784987
 11
-12.81549422353009
 21
-33.84226164784987
 72
     1
 10
-12.81549422353009
 20
-33.84226164784987
 11
-17.34663223188751
 21
-39.24226164784989
 72
     1
 10
-17.34663223188751
 20
-39.24226164784989
 11
-13.90035698805023
 21
-39.24226164784989
 72
     1
 10
-13.90035698805023
 20
-39.24226164784989
 11
-9.369218979692839
 21
-33.84226164784987
 97
        0
 75
     0
 76
     1
 98
        1
 10
0.0
 20
0.0
  0
HATCH
  5
1A1
330
1F
100
AcDbEntity
  8
중심선
100
AcDbHatch
 10
0.0
 20
0.0
 30
0.0
210
0.0
220
0.0
230
1.0
  2
SOLID
 70
     1
 71
     0
 91
        1
 92
        0
 93
        4
 72
     1
 10
-4.356454988656972
 20
-33.84226164784987
 11
-7.80273023249406
 21
-33.84226164784984
 72
     1
 10
-7.80273023249406
 20
-33.84226164784984
 11
-14.85116713438331
 21
-42.24226164784989
 72
     1
 10
-14.85116713438331
 20
-42.24226164784989
 11
-11.40489189054603
 21
-42.24226164784989
 72
     1
 10
-11.40489189054603
 20
-42.24226164784989
 11
-4.356454988656972
 21
-33.84226164784987
 97
        0
 75
     0
 76
     1
 98
        1
 10
0.0
 20
0.0
  0
HATCH
  5
1A2
330
1F
100
AcDbEntity
  8
중심선
100
AcDbHatch
 10
0.0
 20
0.0
 30
0.0
210
0.0
220
0.0
230
1.0
  2
SOLID
 70
     1
 71
     0
 91
        1
 92
        0
 93
        6
 72
     3
 10
0.4434354423552556
 20
-38.04226164790114
 11
3.960054785062284
 21
1.540850780301639E-10
 40
0.3939339440162633
 50
17.09539180608433
 51
320.0019657685079
 73
     0
 72
     1
 10
2.126435098055851
 20
-36.63015565248817
 11
4.431736971756889
 21
-34.69582894244025
 72
     3
 10
0.4434354423024089
 20
-38.04226164785002
 11
6.600054785286829
 21
-1.249000902703301E-13
 40
0.6363583540795982
 50
39.99873849337408
 51
368.4976242363725
 73
     1
 72
     1
 10
6.868767934203018
 20
-37.08226164777989
 11
-0.8764972508616689
 21
-37.08226164777989
 72
     1
 10
-0.8764972508616686
 20
-37.08226164777989
 11
-0.8765222953076024
 21
-39.00226164777978
 72
     1
 10
-0.8765222953076024
 20
-39.00226164777978
 11
3.564857474164435
 21
-39.00226164777975
 97
        0
 75
     0
 76
     1
 98
        1
 10
0.0
 20
0.0
  0
DIMENSION
  5
1A3
330
1F
100
AcDbEntity
  8
치수문자_일반주서
100
AcDbDimension
  2
_D
 10
-50.11286934298447
 20
-4.762500000000052
 30
0.0
 11
-50.11286934298449
 21
-0.3630378551438768
 31
0.0
 70
   160
  1
%%c<>
 71
     2
 42
9.525000000000006
  3
SLDDIMSTYLE0
100
AcDbAlignedDimension
 13
-36.61286934298444
 23
4.762500000000003
 33
0.0
 14
-36.61286934298444
 24
-4.762500000000003
 34
0.0
 50
90.0000000000002
100
AcDbRotatedDimension
1001
ACAD
1000
DSTYLE
1002
{
1070
   171
1070
     6
1070
   273
1070
     7
1002
}
  0
DIMENSION
  5
1B8
330
1F
100
AcDbEntity
  8
치수문자_일반주서
100
AcDbDimension
  2
_D_1
 10
43.79963065701559
 20
3.175000000000072
 30
0.0
 11
43.79963065701552
 21
25.09150000000007
 31
0.0
 70
   160
  1
%%c<>
 71
     2
 42
6.35
  3
SLDDIMSTYLE0
100
AcDbAlignedDimension
 13
24.79963065701558
 23
-3.174999999999995
 33
0.0
 14
24.79963065701558
 24
3.175000000000004
 34
0.0
 50
90.0000000000002
100
AcDbRotatedDimension
1001
ACAD
1000
DSTYLE
1002
{
1070
   171
1070
     6
1070
   273
1070
     7
1002
}
  0
DIMENSION
  5
1CC
330
1F
100
AcDbEntity
  8
치수문자_일반주서
100
AcDbDimension
  2
_D_2
 10
8.92463065701557
 20
26.08723932355743
 30
0.0
 11
-7.06486934298443
 21
26.08723932355743
 31
0.0
 70
   160
  1
<>
 71
     2
 42
15.875
  3
SLDDIMSTYLE1
100
AcDbAlignedDimension
 13
24.79963065701557
 23
2.970761423860895
 33
0.0
 14
8.92463065701557
 24
-2.824778136019766
 34
0.0
100
AcDbRotatedDimension
1001
ACAD
1000
DSTYLE
1002
{
1070
   171
1070
     6
1070
   273
1070
     7
1002
}
  0
DIMENSION
  5
1E1
330
1F
100
AcDbEntity
  8
치수문자_일반주서
100
AcDbDimension
  2
_D_3
 10
-37.11286934298445
 20
39.50824390759582
 30
0.0
 11
-4.019989799230572
 21
39.50824390759582
 31
0.0
 70
   160
  1
<>
 71
     2
 42
61.91250000000002
  3
SLDDIMSTYLE1
100
AcDbAlignedDimension
 13
24.79963065701557
 23
2.970761423860895
 33
0.0
 14
-37.11286934298445
 24
4.262499999999994
 34
0.0
100
AcDbRotatedDimension
1001
ACAD
1000
DSTYLE
1002
{
1070
   171
1070
     6
1070
   273
1070
     7
1002
}
  0
LINE
  5
1F4
330
1F
100
AcDbEntity
  8
참조1
100
AcDbLine
 10
98.32345799139918
 20
9.397738352150132
 30
0.0
 11
98.32345799139918
 21
-5.482261647849873
 31
0.0
  0
LINE
  5
1F5
330
1F
100
AcDbEntity
  8
참조1
100
AcDbLine
 10
111.0234579913992
 20
7.397738352150131
 30
0.0
 11
98.32345799139918
 21
7.397738352150131
 31
0.0
  0
SOLID
  5
1F6
330
1F
100
AcDbEntity
  8
참조1
100
AcDbTrace
 10
98.32345799139918
 20
7.397738352150131
 30
0.0
 11
104.6734579913992
 21
6.381738352150131
 31
0.0
 12
104.6734579913992
 22
8.41373835215013
 32
0.0
 13
104.6734579913992
 23
8.41373835215013
 33
0.0
  0
LINE
  5
1F7
330
1F
100
AcDbEntity
  8
참조1
100
AcDbLine
 10
111.0234579913992
 20
-3.482261647849873
 30
0.0
 11
98.32345799139918
 21
-3.482261647849873
 31
0.0
  0
SOLID
  5
1F8
330
1F
100
AcDbEntity
  8
참조1
100
AcDbTrace
 10
98.32345799139918
 20
-3.482261647849873
 30
0.0
 11
104.6734579913992
 21
-4.498261647849873
 31
0.0
 12
104.6734579913992
 22
-2.466261647849873
 32
0.0
 13
104.6734579913992
 23
-2.466261647849873
 33
0.0
  0
MTEXT
  5
1F9
330
1F
100
AcDbEntity
  8
참조1
100
AcDbMText
 10
107.9235728019618
 20
13.02345591816621
 30
0.0
 40
3.5
 41
0.0
 71
     1
 72
     1
  1
A
  7
SLDTEXTSTYLE0
 73
     1
 44
1.0
  0
MTEXT
  5
1FA
330
1F
100
AcDbEntity
  8
참조1
100
AcDbMText
 10
107.9235728019618
 20
2.143455918166203
 30
0.0
 40
3.5
 41
0.0
 71
     1
 72
     1
  1
A
  7
SLDTEXTSTYLE0
 73
     1
 44
1.0
  0
INSERT
  5
201
330
1F
100
AcDbEntity
  8
해칭선
100
AcDbBlockReference
  2
SW_DOWELSYMBOL_0
 10
-0.0000000000000087
 20
-0.0000000000000052
 30
0.0
  0
SPLINE
  5
228
330
1F
100
AcDbEntity
  8
외형선
  6
Continuous
370
    15
100
AcDbSpline
210
0.0
220
0.0
230
1.0
 70
    24
 71
     3
 72
    10
 73
     6
 74
     0
 42
0.000000001
 43
0.00000001
 40
0.4867105365497054
 40
0.4867105365497054
 40
0.4867105365497054
 40
0.4867105365497054
 40
0.5064572829721068
 40
0.8903509384135336
 40
1.0
 40
1.0
 40
1.0
 40
1.0
 10
7.404746945980838
 20
3.31430242052988
 30
0.0
 10
7.40474694598084
 20
3.299428095275096
 30
0.0
 10
7.404746945980824
 20
3.003874935753847
 30
0.0
 10
7.404746945980573
 20
2.938085455324508
 30
0.0
 10
7.404746945980591
 20
2.846191756732654
 30
0.0
 10
7.404746945980596
 20
2.825775980207809
 30
0.0
  0
LINE
  5
264
330
1F
100
AcDbEntity
  8
외형선
  6
Continuous
370
    15
100
AcDbLine
 10
-20.83781934298457
 20
3.4925
 30
0.0
 11
-13.70041934298445
 21
3.4925
 31
0.0
  0
LINE
  5
265
330
1F
100
AcDbEntity
  8
외형선
  6
Continuous
370
    15
100
AcDbLine
 10
-20.83781934298457
 20
3.4925
 30
0.0
 11
-22.10781934298456
 21
4.762499999999982
 31
0.0
  0
LINE
  5
266
330
1F
100
AcDbEntity
  8
외형선
  6
Continuous
370
    15
100
AcDbLine
 10
-13.70041934298445
 20
3.4925
 30
0.0
 11
-12.43041934298435
 21
4.762499999999982
 31
0.0
  0
LINE
  5
267
330
1F
100
AcDbEntity
  8
외형선
  6
Continuous
370
    15
100
AcDbLine
 10
-22.10781934298457
 20
4.762499999999998
 30
0.0
 11
-36.61286934298445
 21
4.762499999999996
 31
0.0
  0
ENDSEC
  0
SECTION
  2
OBJECTS
  0
DICTIONARY
  5
C
330
0
100
AcDbDictionary
281
     1
  3
ACAD_GROUP
350
D
  3
ACAD_IMAGE_VARS
350
225
  3
ACAD_LAYOUT
350
1A
  3
ACAD_MLINESTYLE
350
17
  3
ACAD_PLOTSETTINGS
350
19
  3
ACAD_PLOTSTYLENAME
350
E
  3
ACAD_SCALELIST
350
47
  3
APPDATA
350
223
  3
DWGPROPS
350
268
  0
DICTIONARY
  5
255
330
2
100
AcDbDictionary
280
     1
281
     1
  3
ACAD_LAYERSTATES
360
256
  0
DICTIONARY
  5
D
102
{ACAD_REACTORS
330
C
102
}
330
C
100
AcDbDictionary
281
     1
  0
RASTERVARIABLES
  5
225
102
{ACAD_REACTORS
330
C
102
}
330
C
100
AcDbRasterVariables
 90
        0
 70
     1
 71
     1
 72
     1
  0
DICTIONARY
  5
1A
102
{ACAD_REACTORS
330
C
102
}
330
C
100
AcDbDictionary
281
     1
  3
Layout1
350
1E
  3
Layout2
350
26
  3
Model
350
22
  0
DICTIONARY
  5
17
102
{ACAD_REACTORS
330
C
102
}
330
C
100
AcDbDictionary
281
     1
  3
Standard
350
18
  0
DICTIONARY
  5
19
102
{ACAD_REACTORS
330
C
102
}
330
C
100
AcDbDictionary
281
     1
  0
ACDBDICTIONARYWDFLT
  5
E
102
{ACAD_REACTORS
330
C
102
}
330
C
100
AcDbDictionary
281
     1
  3
Normal
350
F
100
AcDbDictionaryWithDefault
340
F
  0
DICTIONARY
  5
47
102
{ACAD_REACTORS
330
C
102
}
330
C
100
AcDbDictionary
281
     1
  3
A0
350
48
  3
A1
350
49
  3
A2
350
4A
  3
A3
350
4B
  3
A4
350
4C
  3
A5
350
4D
  3
A6
350
4E
  3
A7
350
4F
  3
A8
350
50
  3
A9
350
51
  3
B0
350
52
  3
B1
350
53
  3
B2
350
54
  3
B3
350
55
  3
B4
350
56
  3
B5
350
57
  3
B6
350
58
  3
B7
350
59
  3
B8
350
5A
  3
B9
350
5B
  3
C0
350
5C
  3
C1
350
5D
  3
C2
350
5E
  3
C3
350
5F
  3
C4
350
60
  3
C5
350
61
  3
C6
350
62
  3
C7
350
63
  3
C8
350
64
  3
C9
350
65
  3
D0
350
66
  3
D1
350
67
  3
D2
350
68
  0
DICTIONARY
  5
223
102
{ACAD_REACTORS
330
C
102
}
330
C
100
AcDbDictionary
281
     1
  0
XRECORD
  5
268
102
{ACAD_REACTORS
330
C
102
}
330
C
100
AcDbXrecord
280
     1
  1
DWGPROPS COOKIE
  2

  3

  4

  6

  7

  8
12016016
  9

300
=
301
=
302
=
303
=
304
=
305
=
306
=
307
=
308
=
309
=
 40
0.0
 41
2458318.989650498
 42
2458331.227784086
  1

 90
        0
  0
DICTIONARY
  5
256
102
{ACAD_REACTORS
330
255
102
}
330
255
100
AcDbDictionary
281
     1
  0
LAYOUT
  5
1E
102
{ACAD_REACTORS
330
1A
102
}
330
1A
100
AcDbPlotSettings
  1

  2
none_device
  4

  6

 40
0.0
 41
0.0
 42
0.0
 43
0.0
 44
0.0
 45
0.0
 46
0.0
 47
0.0
 48
0.0
 49
0.0
140
0.0
141
0.0
142
1.0
143
1.0
 70
   688
 72
     1
 73
     0
 74
     5
  7

 75
    16
147
1.0
148
0.0
149
0.0
100
AcDbLayout
  1
Layout1
 70
     1
 71
     1
 10
0.0
 20
0.0
 11
420.0
 21
297.0
 12
0.0
 22
0.0
 32
0.0
 14
1.000000000000000E+20
 24
1.000000000000000E+20
 34
1.000000000000000E+20
 15
-1.000000000000000E+20
 25
-1.000000000000000E+20
 35
-1.000000000000000E+20
146
0.0
 13
0.0
 23
0.0
 33
0.0
 16
1.0
 26
0.0
 36
0.0
 17
0.0
 27
1.0
 37
0.0
 76
     0
330
1B
  0
LAYOUT
  5
26
102
{ACAD_REACTORS
330
1A
102
}
330
1A
100
AcDbPlotSettings
  1

  2
none_device
  4

  6

 40
0.0
 41
0.0
 42
0.0
 43
0.0
 44
0.0
 45
0.0
 46
0.0
 47
0.0
 48
0.0
 49
0.0
140
0.0
141
0.0
142
1.0
143
1.0
 70
   688
 72
     1
 73
     0
 74
     5
  7

 75
    16
147
1.0
148
0.0
149
0.0
100
AcDbLayout
  1
Layout2
 70
     1
 71
     2
 10
0.0
 20
0.0
 11
0.0
 21
0.0
 12
0.0
 22
0.0
 32
0.0
 14
0.0
 24
0.0
 34
0.0
 15
0.0
 25
0.0
 35
0.0
146
0.0
 13
0.0
 23
0.0
 33
0.0
 16
1.0
 26
0.0
 36
0.0
 17
0.0
 27
1.0
 37
0.0
 76
     0
330
23
  0
LAYOUT
  5
22
102
{ACAD_REACTORS
330
1A
102
}
330
1A
100
AcDbPlotSettings
  1

  2
none_device
  4
ANSI_A_(11.00_x_8.50_Inches)
  6

 40
6.35
 41
19.05
 42
6.35000508
 43
19.05000254
 44
279.4
 45
215.9
 46
93.03439745142401
 47
83.43208854043168
 48
0.0
 49
0.0
140
0.0
141
0.0
142
0.0633400226764609
143
1.0
 70
  1696
 72
     0
 73
     0
 74
     0
  7

 75
     0
147
0.0235690232323232
148
0.0
149
0.0
100
AcDbLayout
  1
Model
 70
     1
 71
     0
 10
0.0
 20
0.0
 11
420.0
 21
297.0
 12
0.0
 22
0.0
 32
0.0
 14
1.000000000000000E+20
 24
1.000000000000000E+20
 34
1.000000000000000E+20
 15
-1.000000000000000E+20
 25
-1.000000000000000E+20
 35
-1.000000000000000E+20
146
0.0
 13
0.0
 23
0.0
 33
0.0
 16
1.0
 26
0.0
 36
0.0
 17
0.0
 27
1.0
 37
0.0
 76
     0
330
1F
331
29
  0
MLINESTYLE
  5
18
102
{ACAD_REACTORS
330
17
102
}
330
17
100
AcDbMlineStyle
  2
Standard
 70
     0
  3

 62
   256
 51
90.0
 52
90.0
 71
     2
 49
0.5
 62
   256
  6
BYLAYER
 49
-0.5
 62
   256
  6
BYLAYER
  0
ACDBPLACEHOLDER
  5
F
102
{ACAD_REACTORS
330
E
102
}
330
E
  0
SCALE
  5
48
102
{ACAD_REACTORS
330
47
102
}
330
47
100
AcDbScale
 70
     0
300
1:1
140
1.0
141
1.0
290
     1
  0
SCALE
  5
49
102
{ACAD_REACTORS
330
47
102
}
330
47
100
AcDbScale
 70
     0
300
1:2
140
1.0
141
2.0
290
     0
  0
SCALE
  5
4A
102
{ACAD_REACTORS
330
47
102
}
330
47
100
AcDbScale
 70
     0
300
1:4
140
1.0
141
4.0
290
     0
  0
SCALE
  5
4B
102
{ACAD_REACTORS
330
47
102
}
330
47
100
AcDbScale
 70
     0
300
1:5
140
1.0
141
5.0
290
     0
  0
SCALE
  5
4C
102
{ACAD_REACTORS
330
47
102
}
330
47
100
AcDbScale
 70
     0
300
1:8
140
1.0
141
8.0
290
     0
  0
SCALE
  5
4D
102
{ACAD_REACTORS
330
47
102
}
330
47
100
AcDbScale
 70
     0
300
1:10
140
1.0
141
10.0
290
     0
  0
SCALE
  5
4E
102
{ACAD_REACTORS
330
47
102
}
330
47
100
AcDbScale
 70
     0
300
1:16
140
1.0
141
16.0
290
     0
  0
SCALE
  5
4F
102
{ACAD_REACTORS
330
47
102
}
330
47
100
AcDbScale
 70
     0
300
1:20
140
1.0
141
20.0
290
     0
  0
SCALE
  5
50
102
{ACAD_REACTORS
330
47
102
}
330
47
100
AcDbScale
 70
     0
300
1:30
140
1.0
141
30.0
290
     0
  0
SCALE
  5
51
102
{ACAD_REACTORS
330
47
102
}
330
47
100
AcDbScale
 70
     0
300
1:40
140
1.0
141
40.0
290
     0
  0
SCALE
  5
52
102
{ACAD_REACTORS
330
47
102
}
330
47
100
AcDbScale
 70
     0
300
1:50
140
1.0
141
50.0
290
     0
  0
SCALE
  5
53
102
{ACAD_REACTORS
330
47
102
}
330
47
100
AcDbScale
 70
     0
300
1:100
140
1.0
141
100.0
290
     0
  0
SCALE
  5
54
102
{ACAD_REACTORS
330
47
102
}
330
47
100
AcDbScale
 70
     0
300
2:1
140
2.0
141
1.0
290
     0
  0
SCALE
  5
55
102
{ACAD_REACTORS
330
47
102
}
330
47
100
AcDbScale
 70
     0
300
4:1
140
4.0
141
1.0
290
     0
  0
SCALE
  5
56
102
{ACAD_REACTORS
330
47
102
}
330
47
100
AcDbScale
 70
     0
300
8:1
140
8.0
141
1.0
290
     0
  0
SCALE
  5
57
102
{ACAD_REACTORS
330
47
102
}
330
47
100
AcDbScale
 70
     0
300
10:1
140
10.0
141
1.0
290
     0
  0
SCALE
  5
58
102
{ACAD_REACTORS
330
47
102
}
330
47
100
AcDbScale
 70
     0
300
100:1
140
100.0
141
1.0
290
     0
  0
SCALE
  5
59
102
{ACAD_REACTORS
330
47
102
}
330
47
100
AcDbScale
 70
     0
300
1/128" = 1'-0"
140
0.0078125
141
12.0
290
     0
  0
SCALE
  5
5A
102
{ACAD_REACTORS
330
47
102
}
330
47
100
AcDbScale
 70
     0
300
1/64" = 1'-0"
140
0.015625
141
12.0
290
     0
  0
SCALE
  5
5B
102
{ACAD_REACTORS
330
47
102
}
330
47
100
AcDbScale
 70
     0
300
1/32" = 1'-0"
140
0.03125
141
12.0
290
     0
  0
SCALE
  5
5C
102
{ACAD_REACTORS
330
47
102
}
330
47
100
AcDbScale
 70
     0
300
1/16" = 1'-0"
140
0.0625
141
12.0
290
     0
  0
SCALE
  5
5D
102
{ACAD_REACTORS
330
47
102
}
330
47
100
AcDbScale
 70
     0
300
3/32" = 1'-0"
140
0.09375
141
12.0
290
     0
  0
SCALE
  5
5E
102
{ACAD_REACTORS
330
47
102
}
330
47
100
AcDbScale
 70
     0
300
1/8" = 1'-0"
140
0.125
141
12.0
290
     0
  0
SCALE
  5
5F
102
{ACAD_REACTORS
330
47
102
}
330
47
100
AcDbScale
 70
     0
300
3/16" = 1'-0"
140
0.1875
141
12.0
290
     0
  0
SCALE
  5
60
102
{ACAD_REACTORS
330
47
102
}
330
47
100
AcDbScale
 70
     0
300
1/4" = 1'-0"
140
0.25
141
12.0
290
     0
  0
SCALE
  5
61
102
{ACAD_REACTORS
330
47
102
}
330
47
100
AcDbScale
 70
     0
300
3/8" = 1'-0"
140
0.375
141
12.0
290
     0
  0
SCALE
  5
62
102
{ACAD_REACTORS
330
47
102
}
330
47
100
AcDbScale
 70
     0
300
1/2" = 1'-0"
140
0.5
141
12.0
290
     0
  0
SCALE
  5
63
102
{ACAD_REACTORS
330
47
102
}
330
47
100
AcDbScale
 70
     0
300
3/4" = 1'-0"
140
0.75
141
12.0
290
     0
  0
SCALE
  5
64
102
{ACAD_REACTORS
330
47
102
}
330
47
100
AcDbScale
 70
     0
300
1" = 1'-0"
140
1.0
141
12.0
290
     0
  0
SCALE
  5
65
102
{ACAD_REACTORS
330
47
102
}
330
47
100
AcDbScale
 70
     0
300
1-1/2" = 1'-0"
140
1.5
141
12.0
290
     0
  0
SCALE
  5
66
102
{ACAD_REACTORS
330
47
102
}
330
47
100
AcDbScale
 70
     0
300
3" = 1'-0"
140
3.0
141
12.0
290
     0
  0
SCALE
  5
67
102
{ACAD_REACTORS
330
47
102
}
330
47
100
AcDbScale
 70
     0
300
6" = 1'-0"
140
6.0
141
12.0
290
     0
  0
SCALE
  5
68
102
{ACAD_REACTORS
330
47
102
}
330
47
100
AcDbScale
 70
     0
300
1'-0" = 1'-0"
140
12.0
141
12.0
290
     0
  0
ENDSEC
  0
EOF
