  0
SECTION
  2
HEADER
  9
$ACADVER
  1
AC1015
  9
$ACADMAINTVER
 70
     6
  9
$DWGCODEPAGE
  3
ANSI_949
  9
$INSBASE
 10
0.0
 20
0.0
 30
0.0
  9
$EXTMIN
 10
-100.1250000000001
 20
-49.97073246008785
 30
0.0
  9
$EXTMAX
 10
184.0065833333335
 20
82.95572736996911
 30
0.0
  9
$LIMMIN
 10
0.0
 20
0.0
  9
$LIMMAX
 10
420.0
 20
297.0
  9
$ORTHOMODE
 70
     0
  9
$REGENMODE
 70
     1
  9
$FILLMODE
 70
     1
  9
$QTEXTMODE
 70
     0
  9
$MIRRTEXT
 70
     1
  9
$LTSCALE
 40
1.0
  9
$ATTMODE
 70
     1
  9
$TEXTSIZE
 40
3.5
  9
$TRACEWID
 40
1.0
  9
$TEXTSTYLE
  7
Standard
  9
$CLAYER
  8
0
  9
$CELTYPE
  6
ByLayer
  9
$CECOLOR
 62
   256
  9
$CELTSCALE
 40
1.0
  9
$DISPSILH
 70
     0
  9
$DIMSCALE
 40
1.0
  9
$DIMASZ
 40
3.302
  9
$DIMEXO
 40
1.0
  9
$DIMDLI
 40
3.75
  9
$DIMRND
 40
0.0
  9
$DIMDLE
 40
0.0
  9
$DIMEXE
 40
1.0
  9
$DIMTP
 40
0.0
  9
$DIMTM
 40
0.0
  9
$DIMTXT
 40
3.5
  9
$DIMCEN
 40
2.5
  9
$DIMTSZ
 40
0.0
  9
$DIMTOL
 70
     0
  9
$DIMLIM
 70
     0
  9
$DIMTIH
 70
     1
  9
$DIMTOH
 70
     1
  9
$DIMSE1
 70
     0
  9
$DIMSE2
 70
     0
  9
$DIMTAD
 70
     1
  9
$DIMZIN
 70
     0
  9
$DIMBLK
  1

  9
$DIMASO
 70
     1
  9
$DIMSHO
 70
     1
  9
$DIMPOST
  1

  9
$DIMAPOST
  1

  9
$DIMALT
 70
     0
  9
$DIMALTD
 70
     3
  9
$DIMALTF
 40
0.0393700787401575
  9
$DIMLFAC
 40
1.0
  9
$DIMTOFL
 70
     1
  9
$DIMTVP
 40
0.0
  9
$DIMTIX
 70
     0
  9
$DIMSOXD
 70
     0
  9
$DIMSAH
 70
     0
  9
$DIMBLK1
  1

  9
$DIMBLK2
  1

  9
$DIMSTYLE
  2
ISO-25
  9
$DIMCLRD
 70
     0
  9
$DIMCLRE
 70
     0
  9
$DIMCLRT
 70
     0
  9
$DIMTFAC
 40
1.0
  9
$DIMGAP
 40
1.524
  9
$DIMJUST
 70
     0
  9
$DIMSD1
 70
     0
  9
$DIMSD2
 70
     0
  9
$DIMTOLJ
 70
     0
  9
$DIMTZIN
 70
     0
  9
$DIMALTZ
 70
     0
  9
$DIMALTTZ
 70
     0
  9
$DIMUPT
 70
     0
  9
$DIMDEC
 70
     2
  9
$DIMTDEC
 70
     2
  9
$DIMALTU
 70
     2
  9
$DIMALTTD
 70
     3
  9
$DIMTXSTY
  7
Standard
  9
$DIMAUNIT
 70
     0
  9
$DIMADEC
 70
     2
  9
$DIMALTRND
 40
0.0
  9
$DIMAZIN
 70
     0
  9
$DIMDSEP
 70
    44
  9
$DIMATFIT
 70
     3
  9
$DIMFRAC
 70
     0
  9
$DIMLDRBLK
  1

  9
$DIMLUNIT
 70
     2
  9
$DIMLWD
 70
    -2
  9
$DIMLWE
 70
    -2
  9
$DIMTMOVE
 70
     0
  9
$LUNITS
 70
     2
  9
$LUPREC
 70
     2
  9
$SKETCHINC
 40
1.0
  9
$FILLETRAD
 40
10.0
  9
$AUNITS
 70
     0
  9
$AUPREC
 70
     2
  9
$MENU
  1
.
  9
$ELEVATION
 40
0.0
  9
$PELEVATION
 40
0.0
  9
$THICKNESS
 40
0.0
  9
$LIMCHECK
 70
     0
  9
$CHAMFERA
 40
0.0
  9
$CHAMFERB
 40
0.0
  9
$CHAMFERC
 40
0.0
  9
$CHAMFERD
 40
0.0
  9
$SKPOLY
 70
     0
  9
$TDCREATE
 40
2458323.441321285
  9
$TDUCREATE
 40
2458323.066321285
  9
$TDUPDATE
 40
2458323.741826516
  9
$TDUUPDATE
 40
2458323.366826516
  9
$TDINDWG
 40
0.0009901389
  9
$TDUSRTIMER
 40
2458323.366559132
  9
$USRTIMER
 70
     1
  9
$ANGBASE
 50
0.0
  9
$ANGDIR
 70
     0
  9
$PDMODE
 70
     0
  9
$PDSIZE
 40
-1.0
  9
$PLINEWID
 40
0.0
  9
$SPLFRAME
 70
     0
  9
$SPLINETYPE
 70
     6
  9
$SPLINESEGS
 70
     8
  9
$HANDSEED
  5
324
  9
$SURFTAB1
 70
     6
  9
$SURFTAB2
 70
     6
  9
$SURFTYPE
 70
     6
  9
$SURFU
 70
     6
  9
$SURFV
 70
     6
  9
$UCSBASE
  2

  9
$UCSNAME
  2

  9
$UCSORG
 10
0.0
 20
0.0
 30
0.0
  9
$UCSXDIR
 10
1.0
 20
0.0
 30
0.0
  9
$UCSYDIR
 10
0.0
 20
1.0
 30
0.0
  9
$UCSORTHOREF
  2

  9
$UCSORTHOVIEW
 70
     0
  9
$UCSORGTOP
 10
0.0
 20
0.0
 30
0.0
  9
$UCSORGBOTTOM
 10
0.0
 20
0.0
 30
0.0
  9
$UCSORGLEFT
 10
0.0
 20
0.0
 30
0.0
  9
$UCSORGRIGHT
 10
0.0
 20
0.0
 30
0.0
  9
$UCSORGFRONT
 10
0.0
 20
0.0
 30
0.0
  9
$UCSORGBACK
 10
0.0
 20
0.0
 30
0.0
  9
$PUCSBASE
  2

  9
$PUCSNAME
  2

  9
$PUCSORG
 10
0.0
 20
0.0
 30
0.0
  9
$PUCSXDIR
 10
1.0
 20
0.0
 30
0.0
  9
$PUCSYDIR
 10
0.0
 20
1.0
 30
0.0
  9
$PUCSORTHOREF
  2

  9
$PUCSORTHOVIEW
 70
     0
  9
$PUCSORGTOP
 10
0.0
 20
0.0
 30
0.0
  9
$PUCSORGBOTTOM
 10
0.0
 20
0.0
 30
0.0
  9
$PUCSORGLEFT
 10
0.0
 20
0.0
 30
0.0
  9
$PUCSORGRIGHT
 10
0.0
 20
0.0
 30
0.0
  9
$PUCSORGFRONT
 10
0.0
 20
0.0
 30
0.0
  9
$PUCSORGBACK
 10
0.0
 20
0.0
 30
0.0
  9
$USERI1
 70
     0
  9
$USERI2
 70
     0
  9
$USERI3
 70
     0
  9
$USERI4
 70
     0
  9
$USERI5
 70
     0
  9
$USERR1
 40
0.0
  9
$USERR2
 40
0.0
  9
$USERR3
 40
0.0
  9
$USERR4
 40
0.0
  9
$USERR5
 40
0.0
  9
$WORLDVIEW
 70
     1
  9
$SHADEDGE
 70
     3
  9
$SHADEDIF
 70
    70
  9
$TILEMODE
 70
     1
  9
$MAXACTVP
 70
    64
  9
$PINSBASE
 10
0.0
 20
0.0
 30
0.0
  9
$PLIMCHECK
 70
     0
  9
$PEXTMIN
 10
1.000000000000000E+20
 20
1.000000000000000E+20
 30
1.000000000000000E+20
  9
$PEXTMAX
 10
-1.000000000000000E+20
 20
-1.000000000000000E+20
 30
-1.000000000000000E+20
  9
$PLIMMIN
 10
0.0
 20
0.0
  9
$PLIMMAX
 10
0.0
 20
0.0
  9
$UNITMODE
 70
     0
  9
$VISRETAIN
 70
     1
  9
$PLINEGEN
 70
     0
  9
$PSLTSCALE
 70
     1
  9
$TREEDEPTH
 70
  3020
  9
$CMLSTYLE
  2
Standard
  9
$CMLJUST
 70
     0
  9
$CMLSCALE
 40
20.0
  9
$PROXYGRAPHICS
 70
     1
  9
$MEASUREMENT
 70
     1
  9
$CELWEIGHT
370
    -1
  9
$ENDCAPS
280
     0
  9
$JOINSTYLE
280
     0
  9
$LWDISPLAY
290
     1
  9
$INSUNITS
 70
     4
  9
$HYPERLINKBASE
  1

  9
$STYLESHEET
  1

  9
$XEDIT
290
     1
  9
$CEPSNTYPE
380
     0
  9
$PSTYLEMODE
290
     1
  9
$FINGERPRINTGUID
  2
{7A74CC16-3C6B-466A-8B43-072AF33BC6B2}
  9
$VERSIONGUID
  2
{FAEB1C32-E019-11D5-929B-00C0DF256EC4}
  9
$EXTNAMES
290
     1
  9
$PSVPSCALE
 40
0.0
  9
$OLESTARTUP
290
     0
  0
ENDSEC
  0
SECTION
  2
CLASSES
  0
CLASS
  1
ACDBDICTIONARYWDFLT
  2
AcDbDictionaryWithDefault
  3
ObjectDBX Classes
 90
        0
280
     0
281
     0
  0
CLASS
  1
VISUALSTYLE
  2
AcDbVisualStyle
  3
ObjectDBX Classes
 90
     4095
280
     0
281
     0
  0
CLASS
  1
MATERIAL
  2
AcDbMaterial
  3
ObjectDBX Classes
 90
     1153
280
     0
281
     0
  0
CLASS
  1
SCALE
  2
AcDbScale
  3
ObjectDBX Classes
 90
     1153
280
     0
281
     0
  0
CLASS
  1
SUN
  2
AcDbSun
  3
SCENEOE
 90
     1153
280
     0
281
     0
  0
CLASS
  1
ACDBPLACEHOLDER
  2
AcDbPlaceHolder
  3
ObjectDBX Classes
 90
        0
280
     0
281
     0
  0
CLASS
  1
LAYOUT
  2
AcDbLayout
  3
ObjectDBX Classes
 90
        0
280
     0
281
     0
  0
CLASS
  1
TABLESTYLE
  2
AcDbTableStyle
  3
ObjectDBX Classes
 90
     4095
280
     0
281
     0
  0
CLASS
  1
MLEADERSTYLE
  2
AcDbMLeaderStyle
  3
ACDB_MLEADERSTYLE_CLASS
 90
     4095
280
     0
281
     0
  0
CLASS
  1
RASTERVARIABLES
  2
AcDbRasterVariables
  3
ISM
 90
        0
280
     0
281
     0
  0
ENDSEC
  0
SECTION
  2
TABLES
  0
TABLE
  2
VPORT
  5
8
330
0
100
AcDbSymbolTable
 70
     1
  0
VPORT
  5
29
330
8
100
AcDbSymbolTableRecord
100
AcDbViewportTableRecord
  2
*Active
 70
     0
 10
0.0
 20
0.0
 11
1.0
 21
1.0
 12
53.27691746841379
 22
-25.53103212955306
 13
0.0
 23
0.0
 14
10.0
 24
10.0
 15
10.0
 25
10.0
 16
0.0
 26
0.0
 36
1.0
 17
0.0
 27
0.0
 37
0.0
 40
122.7930850517301
 41
1.632495164410058
 42
50.0
 43
0.0
 44
0.0
 50
0.0
 51
0.0
 71
    16
 72
  2000
 73
     1
 74
     3
 75
     0
 76
     0
 77
     0
 78
     0
281
     0
 65
     1
110
0.0
120
0.0
130
0.0
111
1.0
121
0.0
131
0.0
112
0.0
122
1.0
132
0.0
 79
     0
146
0.0
  0
ENDTAB
  0
TABLE
  2
LTYPE
  5
5
330
0
100
AcDbSymbolTable
 70
     6
  0
LTYPE
  5
14
330
5
100
AcDbSymbolTableRecord
100
AcDbLinetypeTableRecord
  2
ByBlock
 70
     0
  3

 72
    65
 73
     0
 40
0.0
  0
LTYPE
  5
15
330
5
100
AcDbSymbolTableRecord
100
AcDbLinetypeTableRecord
  2
ByLayer
 70
     0
  3

 72
    65
 73
     0
 40
0.0
  0
LTYPE
  5
16
330
5
100
AcDbSymbolTableRecord
100
AcDbLinetypeTableRecord
  2
Continuous
 70
     0
  3
Solid line
 72
    65
 73
     0
 40
0.0
  0
LTYPE
  5
6A
330
5
100
AcDbSymbolTableRecord
100
AcDbLinetypeTableRecord
  2
HIDDEN
 70
     0
  3
Hidden __ __ __ __ __ __ __ __ __ __ __ __ __ __
 72
    65
 73
     2
 40
1.905
 49
1.27
 74
     0
 49
-0.635
 74
     0
  0
LTYPE
  5
6B
330
5
100
AcDbSymbolTableRecord
100
AcDbLinetypeTableRecord
  2
PHANTOM
 70
     0
  3
Phantom ______  __  __  ______  __  __  ______
 72
    65
 73
     6
 40
12.7
 49
6.35
 74
     0
 49
-1.27
 74
     0
 49
1.27
 74
     0
 49
-1.27
 74
     0
 49
1.27
 74
     0
 49
-1.27
 74
     0
  0
LTYPE
  5
6C
330
5
100
AcDbSymbolTableRecord
100
AcDbLinetypeTableRecord
  2
CENTER
 70
     0
  3
Center ____ _ ____ _ ____ _ ____ _ ____ _ ____
 72
    65
 73
     4
 40
10.16
 49
6.35
 74
     0
 49
-1.27
 74
     0
 49
1.27
 74
     0
 49
-1.27
 74
     0
  0
LTYPE
  5
6D
330
5
100
AcDbSymbolTableRecord
100
AcDbLinetypeTableRecord
  2
CENTERX2
 70
     0
  3
Center (2x) ________  __  ________  __  _____
 72
    65
 73
     4
 40
20.32
 49
12.7
 74
     0
 49
-2.54
 74
     0
 49
2.54
 74
     0
 49
-2.54
 74
     0
  0
LTYPE
  5
6E
330
5
100
AcDbSymbolTableRecord
100
AcDbLinetypeTableRecord
  2
DOT2
 70
     0
  3
Dot (.5x) ........................................
 72
    65
 73
     2
 40
0.635
 49
0.0
 74
     0
 49
-0.635
 74
     0
  0
ENDTAB
  0
TABLE
  2
LAYER
  5
2
330
0
100
AcDbSymbolTable
 70
    18
  0
LAYER
  5
10
330
2
100
AcDbSymbolTableRecord
100
AcDbLayerTableRecord
  2
0
 70
     0
 62
     7
  6
Continuous
370
    -3
390
F
  0
LAYER
  5
6F
330
2
100
AcDbSymbolTableRecord
100
AcDbLayerTableRecord
  2
FORMAT
 70
     0
 62
     2
  6
Continuous
370
    -3
390
F
  0
LAYER
  5
70
330
2
100
AcDbSymbolTableRecord
100
AcDbLayerTableRecord
  2
외형선
 70
     0
 62
     4
  6
Continuous
370
    30
390
F
  0
LAYER
  5
71
330
2
100
AcDbSymbolTableRecord
100
AcDbLayerTableRecord
  2
숨은선
 70
     0
 62
     2
  6
HIDDEN
370
    15
390
F
  0
LAYER
  5
72
330
2
100
AcDbSymbolTableRecord
100
AcDbLayerTableRecord
  2
중심선
 70
     0
 62
     1
  6
CENTERX2
370
    -3
390
F
  0
LAYER
  5
73
330
2
100
AcDbSymbolTableRecord
100
AcDbLayerTableRecord
  2
파단선
 70
     0
 62
     4
  6
Continuous
370
    -3
390
F
  0
LAYER
  5
74
330
2
100
AcDbSymbolTableRecord
100
AcDbLayerTableRecord
  2
해칭선
 70
     0
 62
   100
  6
Continuous
370
    -3
390
F
  0
LAYER
  5
75
330
2
100
AcDbSymbolTableRecord
100
AcDbLayerTableRecord
  2
가는실선
 70
     0
 62
     4
  6
Continuous
370
    -3
390
F
  0
LAYER
  5
76
330
2
100
AcDbSymbolTableRecord
100
AcDbLayerTableRecord
  2
치수_보조선
 70
     0
 62
     4
  6
Continuous
370
    -3
390
F
  0
LAYER
  5
77
330
2
100
AcDbSymbolTableRecord
100
AcDbLayerTableRecord
  2
치수문자_일반주서
 70
     0
 62
     7
  6
Continuous
370
    15
390
F
  0
LAYER
  5
78
330
2
100
AcDbSymbolTableRecord
100
AcDbLayerTableRecord
  2
개별주서
 70
     0
 62
   100
  6
Continuous
370
    30
390
F
  0
LAYER
  5
79
330
2
100
AcDbSymbolTableRecord
100
AcDbLayerTableRecord
  2
중간선
 70
     0
 62
     2
  6
Continuous
370
    15
390
F
  0
LAYER
  5
7A
330
2
100
AcDbSymbolTableRecord
100
AcDbLayerTableRecord
  2
윤곽선
 70
     0
 62
     3
  6
Continuous
370
    40
390
F
  0
LAYER
  5
7B
330
2
100
AcDbSymbolTableRecord
100
AcDbLayerTableRecord
  2
중심마크
 70
     0
 62
   100
  6
Continuous
370
    30
390
F
  0
LAYER
  5
7C
330
2
100
AcDbSymbolTableRecord
100
AcDbLayerTableRecord
  2
가상선
 70
     0
 62
     4
  6
PHANTOM
370
    -3
390
F
  0
LAYER
  5
7D
330
2
100
AcDbSymbolTableRecord
100
AcDbLayerTableRecord
  2
특수지정선
 70
     0
 62
     5
  6
CENTERX2
370
    60
390
F
  0
LAYER
  5
7E
330
2
100
AcDbSymbolTableRecord
100
AcDbLayerTableRecord
  2
참조1
 70
     0
 62
    -4
  6
Continuous
370
    -3
390
F
  0
LAYER
  5
165
330
2
100
AcDbSymbolTableRecord
100
AcDbLayerTableRecord
  2
Defpoints
 70
     0
 62
     7
  6
Continuous
290
     0
370
    -3
390
F
  0
ENDTAB
  0
TABLE
  2
STYLE
  5
3
330
0
100
AcDbSymbolTable
 70
     2
  0
STYLE
  5
11
330
3
100
AcDbSymbolTableRecord
100
AcDbTextStyleTableRecord
  2
Standard
 70
     0
 40
0.0
 41
1.0
 50
0.0
 71
     0
 42
3.5
  3
txt
  4

  0
STYLE
  5
94
330
3
100
AcDbSymbolTableRecord
100
AcDbTextStyleTableRecord
  2
SLDTEXTSTYLE0
 70
     0
 40
0.0
 41
0.75
 50
0.0
 71
     0
 42
3.5
  3
TXT
  4

  0
ENDTAB
  0
TABLE
  2
VIEW
  5
6
330
0
100
AcDbSymbolTable
 70
     0
  0
ENDTAB
  0
TABLE
  2
UCS
  5
7
330
0
100
AcDbSymbolTable
 70
     0
  0
ENDTAB
  0
TABLE
  2
APPID
  5
9
330
0
100
AcDbSymbolTable
 70
     1
  0
APPID
  5
12
330
9
100
AcDbSymbolTableRecord
100
AcDbRegAppTableRecord
  2
ACAD
 70
     0
  0
ENDTAB
  0
TABLE
  2
DIMSTYLE
  5
A
330
0
100
AcDbSymbolTable
 70
     3
100
AcDbDimStyleTable
  0
DIMSTYLE
105
27
330
A
100
AcDbSymbolTableRecord
100
AcDbDimStyleTableRecord
  2
ISO-25
 70
     0
 41
2.5
 42
0.625
 43
3.75
 44
1.25
 73
     0
 74
     0
 77
     1
 78
     8
140
2.5
141
2.5
143
0.03937007874016
147
0.625
171
     3
172
     1
178
     0
271
     2
272
     2
274
     3
278
    44
283
     0
284
     8
340
11
  0
DIMSTYLE
105
E6
102
{ACAD_REACTORS
330
F8
330
11F
330
2A0
330
10B
102
}
330
A
100
AcDbSymbolTableRecord
100
AcDbDimStyleTableRecord
  2
SLDDIMSTYLE0
 70
     0
 41
3.302
 44
0.0
 45
0.000000001
 73
     0
 74
     0
 77
     1
 78
     4
 79
     1
140
3.5
143
0.0393700787401575
147
0.875
148
0.000000001
170
     1
173
     1
178
     0
271
     2
272
     2
276
     2
284
    12
340
94
  0
DIMSTYLE
105
10C
330
A
100
AcDbSymbolTableRecord
100
AcDbDimStyleTableRecord
  2
SLDDIMSTYLE1
 70
     0
 41
3.302
 44
0.0
 45
0.000000001
 73
     0
 74
     0
 77
     1
 78
    12
 79
     3
140
3.5
143
0.0393700787401575
147
0.875
148
0.000000001
170
     1
173
     1
178
     0
271
     2
272
     2
276
     2
284
    12
340
94
  0
ENDTAB
  0
TABLE
  2
BLOCK_RECORD
  5
1
330
0
100
AcDbSymbolTable
 70
    15
  0
BLOCK_RECORD
  5
1F
330
1
100
AcDbSymbolTableRecord
100
AcDbBlockTableRecord
  2
*Model_Space
340
22
  0
BLOCK_RECORD
  5
1B
330
1
100
AcDbSymbolTableRecord
100
AcDbBlockTableRecord
  2
*Paper_Space
340
1E
  0
BLOCK_RECORD
  5
23
330
1
100
AcDbSymbolTableRecord
100
AcDbBlockTableRecord
  2
*Paper_Space0
340
26
  0
BLOCK_RECORD
  5
7F
330
1
100
AcDbSymbolTableRecord
100
AcDbBlockTableRecord
  2
블럭10
340
0
102
{BLKREFS
331
DE
102
}
  0
BLOCK_RECORD
  5
E7
330
1
100
AcDbSymbolTableRecord
100
AcDbBlockTableRecord
  2
_D
340
0
  0
BLOCK_RECORD
  5
F9
330
1
100
AcDbSymbolTableRecord
100
AcDbBlockTableRecord
  2
_D_1
340
0
  0
BLOCK_RECORD
  5
10D
330
1
100
AcDbSymbolTableRecord
100
AcDbBlockTableRecord
  2
_D_2
340
0
  0
BLOCK_RECORD
  5
120
330
1
100
AcDbSymbolTableRecord
100
AcDbBlockTableRecord
  2
_D_3
340
0
  0
BLOCK_RECORD
  5
139
330
1
100
AcDbSymbolTableRecord
100
AcDbBlockTableRecord
  2
SW_DOWELSYMBOL_0
340
0
102
{BLKREFS
331
13F
102
}
  0
BLOCK_RECORD
  5
1FD
330
1
100
AcDbSymbolTableRecord
100
AcDbBlockTableRecord
  2
*D7
340
0
  0
BLOCK_RECORD
  5
237
330
1
100
AcDbSymbolTableRecord
100
AcDbBlockTableRecord
  2
*D8
340
0
  0
BLOCK_RECORD
  5
243
330
1
100
AcDbSymbolTableRecord
100
AcDbBlockTableRecord
  2
*D9
340
0
  0
BLOCK_RECORD
  5
24F
330
1
100
AcDbSymbolTableRecord
100
AcDbBlockTableRecord
  2
*D10
340
0
  0
BLOCK_RECORD
  5
2CD
330
1
100
AcDbSymbolTableRecord
100
AcDbBlockTableRecord
  2
*D11
340
0
  0
BLOCK_RECORD
  5
2D9
330
1
100
AcDbSymbolTableRecord
100
AcDbBlockTableRecord
  2
*D12
340
0
  0
BLOCK_RECORD
  5
2E5
330
1
100
AcDbSymbolTableRecord
100
AcDbBlockTableRecord
  2
*D13
340
0
  0
BLOCK_RECORD
  5
2F2
330
1
100
AcDbSymbolTableRecord
100
AcDbBlockTableRecord
  2
*D14
340
0
  0
ENDTAB
  0
ENDSEC
  0
SECTION
  2
BLOCKS
  0
BLOCK
  5
20
330
1F
100
AcDbEntity
  8
0
100
AcDbBlockBegin
  2
*Model_Space
 70
     0
 10
0.0
 20
0.0
 30
0.0
  3
*Model_Space
  1
*Model_Space
  0
ENDBLK
  5
21
330
1F
100
AcDbEntity
  8
0
100
AcDbBlockEnd
  0
BLOCK
  5
1C
330
1B
100
AcDbEntity
 67
     1
  8
0
100
AcDbBlockBegin
  2
*Paper_Space
 70
     0
 10
0.0
 20
0.0
 30
0.0
  3
*Paper_Space
  1
*Paper_Space
  0
ENDBLK
  5
1D
330
1B
100
AcDbEntity
 67
     1
  8
0
100
AcDbBlockEnd
  0
BLOCK
  5
24
330
23
100
AcDbEntity
  8
0
100
AcDbBlockBegin
  2
*Paper_Space0
 70
     0
 10
0.0
 20
0.0
 30
0.0
  3
*Paper_Space0
  1
*Paper_Space0
  0
ENDBLK
  5
25
330
23
100
AcDbEntity
  8
0
100
AcDbBlockEnd
  0
BLOCK
  5
80
330
7F
100
AcDbEntity
  8
0
100
AcDbBlockBegin
  2
블럭10
 70
     2
 10
0.0
 20
0.0
 30
0.0
  3
블럭10
  1
블럭10
  0
ELLIPSE
  5
82
330
7F
100
AcDbEntity
  8
중심선
100
AcDbEllipse
 10
20.54032771741204
 20
12.0471743016438
 30
0.0
 11
6.600054785286829
 21
-1.261213355974178E-13
 31
0.0
210
0.0
220
0.0
230
1.0
 40
0.636358354079598
 41
0.9219305317359503
 42
6.513795318482858
  0
ELLIPSE
  5
83
330
7F
100
AcDbEntity
  8
중심선
100
AcDbEllipse
 10
20.54032771746488
 20
12.04717430159265
 30
0.0
 11
3.960054785062283
 21
1.540847449632565E-10
 31
0.0
210
0.0
220
0.0
230
1.0
 40
0.3939339440162632
 41
1.131841032648279
 42
5.62031148352944
  0
LINE
  5
84
330
7F
100
AcDbEntity
  8
중심선
100
AcDbLine
 10
2.268634060543552
 20
16.24717430164393
 30
0.0
 11
5.714909304380834
 21
16.24717430164393
 31
0.0
  0
LINE
  5
85
330
7F
100
AcDbEntity
  8
중심선
100
AcDbLine
 10
5.245725140726316
 20
7.84717430164391
 30
0.0
 11
8.692000384563599
 21
7.84717430164391
 31
0.0
  0
LINE
  5
86
330
7F
100
AcDbEntity
  8
중심선
100
AcDbLine
 10
15.74043728645272
 20
16.24717430164393
 30
0.0
 11
8.692000384563599
 21
7.84717430164391
 31
0.0
  0
LINE
  5
87
330
7F
100
AcDbEntity
  8
중심선
100
AcDbLine
 10
0.1404042013395286
 20
13.71084872107135
 30
0.0
 11
3.58671253028996
 21
13.71088815037384
 31
0.0
  0
LINE
  5
88
330
7F
100
AcDbEntity
  8
중심선
100
AcDbLine
 10
2.750260043222114
 20
10.84717430164391
 30
0.0
 11
6.196535287059397
 21
10.84717430164391
 31
0.0
  0
LINE
  5
89
330
7F
100
AcDbEntity
  8
중심선
100
AcDbLine
 10
12.29416204261559
 20
16.24717430164393
 30
0.0
 11
5.245725140726316
 21
7.84717430164391
 31
0.0
  0
LINE
  5
8A
330
7F
100
AcDbEntity
  8
중심선
100
AcDbLine
 10
10.72767329541681
 20
16.24717430164393
 30
0.0
 11
6.196535287059397
 21
10.84717430164391
 31
0.0
  0
LINE
  5
8B
330
7F
100
AcDbEntity
  8
중심선
100
AcDbLine
 10
7.28139805157953
 20
16.24717430164393
 30
0.0
 11
2.750260043222114
 21
10.84717430164391
 31
0.0
  0
LINE
  5
8C
330
7F
100
AcDbEntity
  8
중심선
100
AcDbLine
 10
5.714909304380834
 20
16.24717430164393
 30
0.0
 11
3.58671253028996
 21
13.71088815037384
 31
0.0
  0
LINE
  5
8D
330
7F
100
AcDbEntity
  8
중심선
100
AcDbLine
 10
2.268634060543552
 20
16.24717430164393
 30
0.0
 11
0.1404042013395286
 21
13.71084872107135
 31
0.0
  0
LINE
  5
8E
330
7F
100
AcDbEntity
  8
중심선
100
AcDbLine
 10
7.28139805157953
 20
16.24717430164393
 30
0.0
 11
10.72767329541681
 21
16.24717430164393
 31
0.0
  0
LINE
  5
8F
330
7F
100
AcDbEntity
  8
중심선
100
AcDbLine
 10
12.29416204261559
 20
16.24717430164393
 30
0.0
 11
15.74043728645272
 21
16.24717430164393
 31
0.0
  0
LINE
  5
90
330
7F
100
AcDbEntity
  8
중심선
100
AcDbLine
 10
19.22036997980202
 20
11.08717430171403
 30
0.0
 11
23.66174974927406
 21
11.08717430171406
 31
0.0
  0
LINE
  5
91
330
7F
100
AcDbEntity
  8
중심선
100
AcDbLine
 10
19.22039502424796
 20
13.00717430171391
 30
0.0
 11
19.22036997980202
 21
11.08717430171403
 31
0.0
  0
LINE
  5
92
330
7F
100
AcDbEntity
  8
중심선
100
AcDbLine
 10
19.22039502424796
 20
13.00717430171391
 30
0.0
 11
26.96566020931264
 21
13.00717430171391
 31
0.0
  0
LINE
  5
93
330
7F
100
AcDbEntity
  8
중심선
100
AcDbLine
 10
22.22332737316547
 20
13.45928029700563
 30
0.0
 11
24.52862924686651
 21
15.39360700705356
 31
0.0
  0
ATTDEF
  5
95
330
7F
100
AcDbEntity
  8
FORMAT
 62
     2
100
AcDbText
 10
4.408487351596664
 20
2.075366912832191
 30
0.0
 40
4.233333333333333
  1
E1162902
 41
0.75
  7
SLDTEXTSTYLE0
 11
4.408487351596664
 21
-0.0412997538344756
 31
0.0
100
AcDbAttributeDefinition
  3

  2
AUTOATTR0
 70
     0
 74
     1
  0
ENDBLK
  5
81
330
7F
100
AcDbEntity
  8
0
100
AcDbBlockEnd
  0
BLOCK
  5
E8
330
E7
100
AcDbEntity
  8
0
100
AcDbBlockBegin
  2
_D
 70
     0
 10
0.0
 20
0.0
 30
0.0
  3
_D
  1
_D
  0
SOLID
  5
EA
330
E7
100
AcDbEntity
  8
치수문자_일반주서
100
AcDbTrace
 10
-51.48249999999997
 20
25.4010749287239
 30
0.0
 11
-51.99049999999998
 21
22.0990749287239
 31
0.0
 12
-50.97449999999997
 22
22.0990749287239
 32
0.0
 13
-50.97449999999997
 23
22.0990749287239
 33
0.0
  0
SOLID
  5
EB
330
E7
100
AcDbEntity
  8
치수문자_일반주서
100
AcDbTrace
 10
-51.48249999999997
 20
-25.39892507127611
 30
0.0
 11
-50.97449999999997
 21
-22.09692507127611
 31
0.0
 12
-51.99049999999998
 22
-22.09692507127611
 32
0.0
 13
-51.99049999999998
 23
-22.09692507127611
 33
0.0
  0
LINE
  5
EC
330
E7
100
AcDbEntity
  8
치수문자_일반주서
100
AcDbLine
 10
-62.2753817160427
 20
-5.413291502344814
 30
0.0
 11
-62.27538171604269
 21
-6.124228987909314
 31
0.0
  0
LINE
  5
ED
330
E7
100
AcDbEntity
  8
치수문자_일반주서
100
AcDbLine
 10
-62.27538171604269
 20
-6.124228987909314
 30
0.0
 11
-56.71913172498339
 21
-6.124228987909275
 31
0.0
  0
LINE
  5
EE
330
E7
100
AcDbEntity
  8
치수문자_일반주서
100
AcDbLine
 10
-56.71913172498339
 20
-6.124228987909275
 30
0.0
 11
-56.7191317249834
 21
-5.413291502344775
 31
0.0
  0
LINE
  5
EF
330
E7
100
AcDbEntity
  8
치수문자_일반주서
100
AcDbLine
 10
-62.27538171604277
 20
5.415441359792444
 30
0.0
 11
-62.27538171604278
 21
6.126378845356944
 31
0.0
  0
LINE
  5
F0
330
E7
100
AcDbEntity
  8
치수문자_일반주서
100
AcDbLine
 10
-62.27538171604278
 20
6.126378845356944
 30
0.0
 11
-56.71913172498348
 21
6.126378845356983
 31
0.0
  0
LINE
  5
F1
330
E7
100
AcDbEntity
  8
치수문자_일반주서
100
AcDbLine
 10
-56.71913172498348
 20
6.126378845356983
 30
0.0
 11
-56.71913172498347
 21
5.415441359792483
 31
0.0
  0
LINE
  5
F2
330
E7
100
AcDbEntity
  8
치수문자_일반주서
100
AcDbLine
 10
-37.89499999999996
 20
25.4010749287239
 30
0.0
 11
-52.48249999999997
 21
25.4010749287239
 31
0.0
  0
LINE
  5
F3
330
E7
100
AcDbEntity
  8
치수문자_일반주서
100
AcDbLine
 10
-37.89499999999996
 20
-25.39892507127611
 30
0.0
 11
-52.48249999999997
 21
-25.39892507127611
 31
0.0
  0
LINE
  5
F4
330
E7
100
AcDbEntity
  8
치수문자_일반주서
100
AcDbLine
 10
-51.48249999999997
 20
25.4010749287239
 30
0.0
 11
-51.48249999999997
 21
-25.39892507127611
 31
0.0
  0
MTEXT
  5
F5
330
E7
100
AcDbEntity
  8
치수문자_일반주서
100
AcDbMText
 10
-61.2308686395623
 20
-4.524619601733436
 30
0.0
 40
3.5
 41
0.0
 71
     1
 72
     1
  1
2.00
  7
SLDTEXTSTYLE0
 11
-7.044195017643634E-15
 21
1.0
 31
0.0
 73
     1
 44
1.0
  0
MTEXT
  5
F6
330
E7
100
AcDbEntity
  8
치수문자_일반주서
100
AcDbMText
 10
-55.99423708920179
 20
-8.456894014097168
 30
0.0
 40
3.5
 41
0.0
 71
     1
 72
     1
  1
%%c
  7
SLDTEXTSTYLE0
 11
-7.044195017643634E-15
 21
1.0
 31
0.0
 73
     1
 44
1.0
  0
MTEXT
  5
F7
330
E7
100
AcDbEntity
  8
치수문자_일반주서
100
AcDbMText
 10
-55.99423708920182
 20
-3.178456615723087
 30
0.0
 40
3.5
 41
0.0
 71
     1
 72
     1
  1
50.80
  7
SLDTEXTSTYLE0
 11
-7.044195017643634E-15
 21
1.0
 31
0.0
 73
     1
 44
1.0
  0
ENDBLK
  5
E9
330
E7
100
AcDbEntity
  8
0
100
AcDbBlockEnd
  0
BLOCK
  5
FA
330
F9
100
AcDbEntity
  8
0
100
AcDbBlockBegin
  2
_D_1
 70
     0
 10
0.0
 20
0.0
 30
0.0
  3
_D_1
  1
_D_1
  0
LINE
  5
FC
330
F9
100
AcDbEntity
  8
치수문자_일반주서
 62
     0
370
    -2
100
AcDbLine
 10
164.3999999999999
 20
25.27821972169407
 30
0.0
 11
164.3999999999999
 21
47.75570626228482
 31
0.0
  0
LINE
  5
FD
330
F9
100
AcDbEntity
  8
치수문자_일반주서
 62
     0
370
    -2
100
AcDbLine
 10
11.99999999999996
 20
25.12989167215711
 30
0.0
 11
11.99999999999996
 21
47.75570626228482
 31
0.0
  0
LINE
  5
FE
330
F9
100
AcDbEntity
  8
치수문자_일반주서
 62
     0
370
    -2
100
AcDbLine
 10
161.0979999999999
 20
47.75570626228482
 30
0.0
 11
15.30199999999996
 21
47.75570626228482
 31
0.0
  0
SOLID
  5
FF
330
F9
100
AcDbEntity
  8
치수문자_일반주서
 62
     0
100
AcDbTrace
 10
161.0979999999999
 20
47.20537292895149
 30
0.0
 11
161.0979999999999
 21
48.30603959561816
 31
0.0
 12
164.3999999999999
 22
47.75570626228482
 32
0.0
 13
164.3999999999999
 23
47.75570626228482
 33
0.0
  0
SOLID
  5
100
330
F9
100
AcDbEntity
  8
치수문자_일반주서
 62
     0
100
AcDbTrace
 10
15.30199999999996
 20
48.30603959561816
 30
0.0
 11
15.30199999999996
 21
47.20537292895149
 31
0.0
 12
11.99999999999996
 22
47.75570626228482
 32
0.0
 13
11.99999999999996
 23
47.75570626228482
 33
0.0
  0
MTEXT
  5
101
330
F9
100
AcDbEntity
  8
치수문자_일반주서
 62
     0
100
AcDbMText
 10
88.19999999999995
 20
52.13070626228482
 30
0.0
 40
3.5
 41
0.0
 71
     2
 72
     1
  1
\A1;152.40 [6]
  7
SLDTEXTSTYLE0
 73
     1
 44
1.0
  0
POINT
  5
102
330
F9
100
AcDbEntity
  8
Defpoints
 62
     0
100
AcDbPoint
 10
164.3999999999999
 20
25.21571972169407
 30
0.0
  0
POINT
  5
103
330
F9
100
AcDbEntity
  8
Defpoints
 62
     0
100
AcDbPoint
 10
11.99999999999996
 20
25.06739167215711
 30
0.0
  0
POINT
  5
104
330
F9
100
AcDbEntity
  8
Defpoints
 62
     0
100
AcDbPoint
 10
11.99999999999996
 20
47.75570626228482
 30
0.0
  0
ENDBLK
  5
FB
330
F9
100
AcDbEntity
  8
0
100
AcDbBlockEnd
  0
BLOCK
  5
10E
330
10D
100
AcDbEntity
  8
0
100
AcDbBlockBegin
  2
_D_2
 70
     0
 10
0.0
 20
0.0
 30
0.0
  3
_D_2
  1
_D_2
  0
LINE
  5
110
330
10D
100
AcDbEntity
  8
치수문자_일반주서
 62
     0
370
    -2
100
AcDbLine
 10
164.3999999999999
 20
25.27821972169407
 30
0.0
 11
164.3999999999999
 21
59.75570626228484
 31
0.0
  0
LINE
  5
111
330
10D
100
AcDbEntity
  8
치수문자_일반주서
 62
     0
370
    -2
100
AcDbLine
 10
-83.25000000000004
 20
20.38357492872391
 30
0.0
 11
-83.25000000000004
 21
59.75570626228484
 31
0.0
  0
LINE
  5
112
330
10D
100
AcDbEntity
  8
치수문자_일반주서
 62
     0
370
    -2
100
AcDbLine
 10
161.0979999999999
 20
59.75570626228484
 30
0.0
 11
-79.94800000000004
 21
59.75570626228484
 31
0.0
  0
SOLID
  5
113
330
10D
100
AcDbEntity
  8
치수문자_일반주서
 62
     0
100
AcDbTrace
 10
161.0979999999999
 20
59.2053729289515
 30
0.0
 11
161.0979999999999
 21
60.30603959561817
 31
0.0
 12
164.3999999999999
 22
59.75570626228484
 32
0.0
 13
164.3999999999999
 23
59.75570626228484
 33
0.0
  0
SOLID
  5
114
330
10D
100
AcDbEntity
  8
치수문자_일반주서
 62
     0
100
AcDbTrace
 10
-79.94800000000004
 20
60.30603959561817
 30
0.0
 11
-79.94800000000004
 21
59.2053729289515
 31
0.0
 12
-83.25000000000004
 22
59.75570626228484
 32
0.0
 13
-83.25000000000004
 23
59.75570626228484
 33
0.0
  0
MTEXT
  5
115
330
10D
100
AcDbEntity
  8
치수문자_일반주서
 62
     0
100
AcDbMText
 10
40.57499999999996
 20
64.13070626228483
 30
0.0
 40
3.5
 41
0.0
 71
     2
 72
     1
  1
\A1;247.65 [9 3/4]
  7
SLDTEXTSTYLE0
 73
     1
 44
1.0
  0
POINT
  5
116
330
10D
100
AcDbEntity
  8
Defpoints
 62
     0
100
AcDbPoint
 10
164.3999999999999
 20
25.21571972169407
 30
0.0
  0
POINT
  5
117
330
10D
100
AcDbEntity
  8
Defpoints
 62
     0
100
AcDbPoint
 10
-83.25000000000004
 20
20.32107492872391
 30
0.0
  0
POINT
  5
118
330
10D
100
AcDbEntity
  8
Defpoints
 62
     0
100
AcDbPoint
 10
-83.25000000000004
 20
59.75570626228484
 30
0.0
  0
ENDBLK
  5
10F
330
10D
100
AcDbEntity
  8
0
100
AcDbBlockEnd
  0
BLOCK
  5
121
330
120
100
AcDbEntity
  8
0
100
AcDbBlockBegin
  2
_D_3
 70
     0
 10
0.0
 20
0.0
 30
0.0
  3
_D_3
  1
_D_3
  0
LINE
  5
123
330
120
100
AcDbEntity
  8
치수문자_일반주서
 62
     0
370
    -2
100
AcDbLine
 10
164.4624999999999
 20
25.40107492872389
 30
0.0
 11
183.45625
 21
25.40107492872396
 31
0.0
  0
LINE
  5
124
330
120
100
AcDbEntity
  8
치수문자_일반주서
 62
     0
370
    -2
100
AcDbLine
 10
164.4624999999999
 20
-25.39892507127611
 30
0.0
 11
183.4562500000002
 21
-25.39892507127604
 31
0.0
  0
LINE
  5
125
330
120
100
AcDbEntity
  8
치수문자_일반주서
 62
     0
370
    -2
100
AcDbLine
 10
183.45625
 20
25.40107492872396
 30
0.0
 11
183.4562499999998
 21
82.95572736996911
 31
0.0
  0
LINE
  5
126
330
120
100
AcDbEntity
  8
치수문자_일반주서
 62
     0
370
    -2
100
AcDbLine
 10
183.45625
 20
22.09907492872396
 30
0.0
 11
183.4562500000002
 21
-22.09692507127604
 31
0.0
  0
SOLID
  5
127
330
120
100
AcDbEntity
  8
치수문자_일반주서
 62
     0
100
AcDbTrace
 10
184.0065833333333
 20
22.09907492872396
 30
0.0
 11
182.9059166666667
 21
22.09907492872395
 31
0.0
 12
183.45625
 22
25.40107492872396
 32
0.0
 13
183.45625
 23
25.40107492872396
 33
0.0
  0
SOLID
  5
128
330
120
100
AcDbEntity
  8
치수문자_일반주서
 62
     0
100
AcDbTrace
 10
182.9059166666668
 20
-22.09692507127604
 30
0.0
 11
184.0065833333335
 21
-22.09692507127604
 31
0.0
 12
183.4562500000002
 22
-25.39892507127604
 32
0.0
 13
183.4562500000002
 23
-25.39892507127604
 33
0.0
  0
MTEXT
  5
129
330
120
100
AcDbEntity
  8
치수문자_일반주서
 62
     0
100
AcDbMText
 10
179.0812499999998
 20
71.5807273699691
 30
0.0
 40
3.5
 41
0.0
 71
     2
 72
     1
  1
\A1;%%c50.80 [2]
  7
SLDTEXTSTYLE0
 11
-3.356894814614647E-15
 21
1.0
 31
0.0
 73
     1
 44
1.0
  0
POINT
  5
12A
330
120
100
AcDbEntity
  8
Defpoints
 62
     0
100
AcDbPoint
 10
164.3999999999999
 20
25.40107492872389
 30
0.0
  0
POINT
  5
12B
330
120
100
AcDbEntity
  8
Defpoints
 62
     0
100
AcDbPoint
 10
164.3999999999999
 20
-25.39892507127611
 30
0.0
  0
POINT
  5
12C
330
120
100
AcDbEntity
  8
Defpoints
 62
     0
100
AcDbPoint
 10
183.4562500000001
 20
-25.39892507127604
 30
0.0
  0
ENDBLK
  5
122
330
120
100
AcDbEntity
  8
0
100
AcDbBlockEnd
  0
BLOCK
  5
13A
330
139
100
AcDbEntity
  8
0
100
AcDbBlockBegin
  2
SW_DOWELSYMBOL_0
 70
     0
 10
0.0
 20
0.0
 30
0.0
  3
SW_DOWELSYMBOL_0
  1
SW_DOWELSYMBOL_0
  0
CIRCLE
  5
13C
330
139
100
AcDbEntity
  8
해칭선
 62
     0
100
AcDbCircle
 10
0.0
 20
0.0
 30
0.0
 40
3.000000000000001
  0
HATCH
  5
13D
330
139
100
AcDbEntity
  8
0
  6
Continuous
 62
     0
370
     0
100
AcDbHatch
 10
0.0
 20
0.0
 30
0.0
210
0.0
220
0.0
230
1.0
  2
SOLID
 70
     1
 71
     0
 91
        1
 92
        0
 93
        3
 72
     2
 10
0.0
 20
0.0
 40
3.000000000000001
 50
0.0
 51
90.0
 73
     1
 72
     1
 10
0.0
 20
3.000000000000001
 11
0.0
 21
0.0
 72
     1
 10
0.0
 20
0.0
 11
3.000000000000003
 21
0.0
 97
        0
 75
     0
 76
     1
 98
        1
 10
0.0
 20
0.0
  0
HATCH
  5
13E
330
139
100
AcDbEntity
  8
0
  6
Continuous
 62
     0
370
     0
100
AcDbHatch
 10
0.0
 20
0.0
 30
0.0
210
0.0
220
0.0
230
1.0
  2
SOLID
 70
     1
 71
     0
 91
        1
 92
        0
 93
        3
 72
     2
 10
0.0
 20
0.0
 40
3.000000000000001
 50
180.0
 51
270.0000000000007
 73
     1
 72
     1
 10
0.0
 20
-3.000000000000001
 11
0.0
 21
0.0
 72
     1
 10
0.0
 20
0.0
 11
-3.000000000000003
 21
0.0
 97
        0
 75
     0
 76
     1
 98
        1
 10
0.0
 20
0.0
  0
ENDBLK
  5
13B
330
139
100
AcDbEntity
  8
0
100
AcDbBlockEnd
  0
BLOCK
  5
1FE
330
1FD
100
AcDbEntity
  8
0
100
AcDbBlockBegin
  2
*D7
 70
     1
 10
0.0
 20
0.0
 30
0.0
  3
*D7
  1
*D8
  0
LINE
  5
1FF
330
1FD
100
AcDbEntity
  8
치수문자_일반주서
 62
     0
370
    -2
100
AcDbLine
 10
16.81250000000004
 20
50.88636130152701
 30
0.0
 11
4.374999999999954
 21
50.88636130152696
 31
0.0
  0
LINE
  5
200
330
1FD
100
AcDbEntity
  8
치수문자_일반주서
 62
     0
370
    -2
100
AcDbLine
 10
17.81250000000004
 20
0.0863613015269988
 30
0.0
 11
4.375000000000131
 21
0.0863613015269458
 31
0.0
  0
LINE
  5
201
330
1FD
100
AcDbEntity
  8
치수문자_일반주서
 62
     0
370
    -2
100
AcDbLine
 10
4.374999999999965
 20
47.58436130152696
 30
0.0
 11
4.37500000000012
 21
3.388361301526945
 31
0.0
  0
SOLID
  5
202
330
1FD
100
AcDbEntity
  8
치수문자_일반주서
 62
     0
100
AcDbTrace
 10
4.925333333333299
 20
47.58436130152696
 30
0.0
 11
3.824666666666632
 21
47.58436130152696
 31
0.0
 12
4.374999999999954
 22
50.88636130152696
 32
0.0
 13
4.374999999999954
 23
50.88636130152696
 33
0.0
  0
SOLID
  5
203
330
1FD
100
AcDbEntity
  8
치수문자_일반주서
 62
     0
100
AcDbTrace
 10
3.824666666666787
 20
3.388361301526944
 30
0.0
 11
4.925333333333453
 21
3.388361301526947
 31
0.0
 12
4.375000000000131
 22
0.0863613015269458
 32
0.0
 13
4.375000000000131
 23
0.0863613015269458
 33
0.0
  0
MTEXT
  5
204
330
1FD
100
AcDbEntity
  8
치수문자_일반주서
 62
     0
100
AcDbMText
 10
0.0000000000000426
 20
25.48636130152699
 30
0.0
 40
3.5
 41
0.0
 71
     2
 72
     1
  1
\A1;%%c50.80 [2]
  7
SLDTEXTSTYLE0
 11
-3.496765431890256E-15
 21
1.0
 31
0.0
 73
     1
 44
1.0
  0
POINT
  5
205
330
1FD
100
AcDbEntity
  8
Defpoints
 62
     0
100
AcDbPoint
 10
16.87500000000004
 20
50.88636130152701
 30
0.0
  0
POINT
  5
206
330
1FD
100
AcDbEntity
  8
Defpoints
 62
     0
100
AcDbPoint
 10
17.87500000000004
 20
0.0863613015269991
 30
0.0
  0
POINT
  5
207
330
1FD
100
AcDbEntity
  8
Defpoints
 62
     0
100
AcDbPoint
 10
4.375000000000128
 20
0.0863613015269486
 30
0.0
  0
ENDBLK
  5
208
330
1FD
100
AcDbEntity
  8
0
100
AcDbBlockEnd
  0
BLOCK
  5
238
330
237
100
AcDbEntity
  8
0
100
AcDbBlockBegin
  2
*D8
 70
     1
 10
0.0
 20
0.0
 30
0.0
  3
*D8
  1
*D9
  0
LINE
  5
23A
330
237
100
AcDbEntity
  8
치수문자_일반주서
 62
     0
370
    -2
100
AcDbLine
 10
213.7250000000001
 20
50.76350609449717
 30
0.0
 11
213.7250000000001
 21
73.24099263508792
 31
0.0
  0
LINE
  5
23B
330
237
100
AcDbEntity
  8
치수문자_일반주서
 62
     0
370
    -2
100
AcDbLine
 10
112.1250000000001
 20
50.89032880421544
 30
0.0
 11
112.1250000000001
 21
73.24099263508792
 31
0.0
  0
LINE
  5
23C
330
237
100
AcDbEntity
  8
치수문자_일반주서
 62
     0
370
    -2
100
AcDbLine
 10
210.4230000000001
 20
73.24099263508792
 30
0.0
 11
115.427
 21
73.24099263508792
 31
0.0
  0
SOLID
  5
23D
330
237
100
AcDbEntity
  8
치수문자_일반주서
 62
     0
100
AcDbTrace
 10
210.4230000000001
 20
72.6906593017546
 30
0.0
 11
210.4230000000001
 21
73.79132596842125
 31
0.0
 12
213.7250000000001
 22
73.24099263508792
 32
0.0
 13
213.7250000000001
 23
73.24099263508792
 33
0.0
  0
SOLID
  5
23E
330
237
100
AcDbEntity
  8
치수문자_일반주서
 62
     0
100
AcDbTrace
 10
115.427
 20
73.79132596842125
 30
0.0
 11
115.427
 21
72.6906593017546
 31
0.0
 12
112.1250000000001
 22
73.24099263508792
 32
0.0
 13
112.1250000000001
 23
73.24099263508792
 33
0.0
  0
MTEXT
  5
23F
330
237
100
AcDbEntity
  8
치수문자_일반주서
 62
     0
100
AcDbMText
 10
162.9250000000001
 20
77.61599263508792
 30
0.0
 40
3.5
 41
0.0
 71
     2
 72
     1
  1
\A1;101.60 [4]
  7
SLDTEXTSTYLE0
 73
     1
 44
1.0
  0
POINT
  5
240
330
237
100
AcDbEntity
  8
Defpoints
 62
     0
100
AcDbPoint
 10
213.7250000000001
 20
50.70100609449717
 30
0.0
  0
POINT
  5
241
330
237
100
AcDbEntity
  8
Defpoints
 62
     0
100
AcDbPoint
 10
112.1250000000001
 20
50.82782880421544
 30
0.0
  0
POINT
  5
242
330
237
100
AcDbEntity
  8
Defpoints
 62
     0
100
AcDbPoint
 10
112.1250000000001
 20
73.24099263508792
 30
0.0
  0
ENDBLK
  5
239
330
237
100
AcDbEntity
  8
0
100
AcDbBlockEnd
  0
BLOCK
  5
244
330
243
100
AcDbEntity
  8
0
100
AcDbBlockBegin
  2
*D9
 70
     1
 10
0.0
 20
0.0
 30
0.0
  3
*D9
  1
*D10
  0
LINE
  5
246
330
243
100
AcDbEntity
  8
치수문자_일반주서
 62
     0
370
    -2
100
AcDbLine
 10
213.7250000000001
 20
50.76350609449717
 30
0.0
 11
213.7250000000001
 21
85.24099263508793
 31
0.0
  0
LINE
  5
247
330
243
100
AcDbEntity
  8
치수문자_일반주서
 62
     0
370
    -2
100
AcDbLine
 10
16.87500000000006
 20
45.86886130152701
 30
0.0
 11
16.87500000000006
 21
85.24099263508793
 31
0.0
  0
LINE
  5
248
330
243
100
AcDbEntity
  8
치수문자_일반주서
 62
     0
370
    -2
100
AcDbLine
 10
210.4230000000001
 20
85.24099263508793
 30
0.0
 11
20.17700000000006
 21
85.24099263508793
 31
0.0
  0
SOLID
  5
249
330
243
100
AcDbEntity
  8
치수문자_일반주서
 62
     0
100
AcDbTrace
 10
210.4230000000001
 20
84.69065930175461
 30
0.0
 11
210.4230000000001
 21
85.79132596842126
 31
0.0
 12
213.7250000000001
 22
85.24099263508793
 32
0.0
 13
213.7250000000001
 23
85.24099263508793
 33
0.0
  0
SOLID
  5
24A
330
243
100
AcDbEntity
  8
치수문자_일반주서
 62
     0
100
AcDbTrace
 10
20.17700000000006
 20
85.79132596842126
 30
0.0
 11
20.17700000000006
 21
84.69065930175461
 31
0.0
 12
16.87500000000006
 22
85.24099263508793
 32
0.0
 13
16.87500000000006
 23
85.24099263508793
 33
0.0
  0
MTEXT
  5
24B
330
243
100
AcDbEntity
  8
치수문자_일반주서
 62
     0
100
AcDbMText
 10
115.3000000000001
 20
89.61599263508793
 30
0.0
 40
3.5
 41
0.0
 71
     2
 72
     1
  1
\A1;196.85 [7 3/4]
  7
SLDTEXTSTYLE0
 73
     1
 44
1.0
  0
POINT
  5
24C
330
243
100
AcDbEntity
  8
Defpoints
 62
     0
100
AcDbPoint
 10
213.7250000000001
 20
50.70100609449717
 30
0.0
  0
POINT
  5
24D
330
243
100
AcDbEntity
  8
Defpoints
 62
     0
100
AcDbPoint
 10
16.87500000000006
 20
45.80636130152701
 30
0.0
  0
POINT
  5
24E
330
243
100
AcDbEntity
  8
Defpoints
 62
     0
100
AcDbPoint
 10
16.87500000000006
 20
85.24099263508793
 30
0.0
  0
ENDBLK
  5
245
330
243
100
AcDbEntity
  8
0
100
AcDbBlockEnd
  0
BLOCK
  5
250
330
24F
100
AcDbEntity
  8
0
100
AcDbBlockBegin
  2
*D10
 70
     1
 10
0.0
 20
0.0
 30
0.0
  3
*D10
  1
*D11
  0
LINE
  5
252
330
24F
100
AcDbEntity
  8
치수문자_일반주서
 62
     0
370
    -2
100
AcDbLine
 10
213.7875000000001
 20
50.88636130152699
 30
0.0
 11
238.5996253714335
 21
50.88636130152708
 31
0.0
  0
LINE
  5
253
330
24F
100
AcDbEntity
  8
치수문자_일반주서
 62
     0
370
    -2
100
AcDbLine
 10
213.7875000000001
 20
0.0863613015269886
 30
0.0
 11
238.5996253714337
 21
0.0863613015270772
 31
0.0
  0
LINE
  5
254
330
24F
100
AcDbEntity
  8
치수문자_일반주서
 62
     0
370
    -2
100
AcDbLine
 10
238.5996253714335
 20
50.88636130152708
 30
0.0
 11
238.5996253714333
 21
108.441013742772
 31
0.0
  0
LINE
  5
255
330
24F
100
AcDbEntity
  8
치수문자_일반주서
 62
     0
370
    -2
100
AcDbLine
 10
238.5996253714335
 20
47.58436130152708
 30
0.0
 11
238.5996253714337
 21
3.388361301527077
 31
0.0
  0
SOLID
  5
256
330
24F
100
AcDbEntity
  8
치수문자_일반주서
 62
     0
100
AcDbTrace
 10
239.1499587047668
 20
47.58436130152708
 30
0.0
 11
238.0492920381002
 21
47.58436130152708
 31
0.0
 12
238.5996253714335
 22
50.88636130152708
 32
0.0
 13
238.5996253714335
 23
50.88636130152708
 33
0.0
  0
SOLID
  5
257
330
24F
100
AcDbEntity
  8
치수문자_일반주서
 62
     0
100
AcDbTrace
 10
238.0492920381004
 20
3.388361301527075
 30
0.0
 11
239.149958704767
 21
3.388361301527079
 31
0.0
 12
238.5996253714337
 22
0.0863613015270772
 32
0.0
 13
238.5996253714337
 23
0.0863613015270772
 33
0.0
  0
MTEXT
  5
258
330
24F
100
AcDbEntity
  8
치수문자_일반주서
 62
     0
100
AcDbMText
 10
234.2246253714334
 20
97.06601374277203
 30
0.0
 40
3.5
 41
0.0
 71
     2
 72
     1
  1
\A1;%%c50.80 [2]
  7
SLDTEXTSTYLE0
 11
-3.356894814614647E-15
 21
1.0
 31
0.0
 73
     1
 44
1.0
  0
POINT
  5
259
330
24F
100
AcDbEntity
  8
Defpoints
 62
     0
100
AcDbPoint
 10
213.7250000000001
 20
50.88636130152699
 30
0.0
  0
POINT
  5
25A
330
24F
100
AcDbEntity
  8
Defpoints
 62
     0
100
AcDbPoint
 10
213.7250000000001
 20
0.0863613015269884
 30
0.0
  0
POINT
  5
25B
330
24F
100
AcDbEntity
  8
Defpoints
 62
     0
100
AcDbPoint
 10
238.5996253714337
 20
0.0863613015270813
 30
0.0
  0
ENDBLK
  5
251
330
24F
100
AcDbEntity
  8
0
100
AcDbBlockEnd
  0
BLOCK
  5
2CE
330
2CD
100
AcDbEntity
  8
0
100
AcDbBlockBegin
  2
*D11
 70
     1
 10
0.0
 20
0.0
 30
0.0
  3
*D11
  1
*D12
  0
LINE
  5
2D0
330
2CD
100
AcDbEntity
  8
치수문자_일반주서
 62
     0
370
    -2
100
AcDbLine
 10
324.8261513017328
 20
-126.233303985541
 30
0.0
 11
324.8261513017328
 21
-103.7558174449502
 31
0.0
  0
LINE
  5
2D1
330
2CD
100
AcDbEntity
  8
치수문자_일반주서
 62
     0
370
    -2
100
AcDbLine
 10
223.2261513017327
 20
-126.1064812758227
 30
0.0
 11
223.2261513017327
 21
-103.7558174449502
 31
0.0
  0
LINE
  5
2D2
330
2CD
100
AcDbEntity
  8
치수문자_일반주서
 62
     0
370
    -2
100
AcDbLine
 10
321.5241513017327
 20
-103.7558174449502
 30
0.0
 11
226.5281513017327
 21
-103.7558174449502
 31
0.0
  0
SOLID
  5
2D3
330
2CD
100
AcDbEntity
  8
치수문자_일반주서
 62
     0
100
AcDbTrace
 10
321.5241513017327
 20
-104.3061507782835
 30
0.0
 11
321.5241513017327
 21
-103.2054841116169
 31
0.0
 12
324.8261513017328
 22
-103.7558174449502
 32
0.0
 13
324.8261513017328
 23
-103.7558174449502
 33
0.0
  0
SOLID
  5
2D4
330
2CD
100
AcDbEntity
  8
치수문자_일반주서
 62
     0
100
AcDbTrace
 10
226.5281513017327
 20
-103.2054841116169
 30
0.0
 11
226.5281513017327
 21
-104.3061507782835
 31
0.0
 12
223.2261513017327
 22
-103.7558174449502
 32
0.0
 13
223.2261513017327
 23
-103.7558174449502
 33
0.0
  0
MTEXT
  5
2D5
330
2CD
100
AcDbEntity
  8
치수문자_일반주서
 62
     0
100
AcDbMText
 10
274.0261513017327
 20
-99.38081744495021
 30
0.0
 40
3.5
 41
0.0
 71
     2
 72
     1
  1
\A1;101.60 [4]
  7
SLDTEXTSTYLE0
 73
     1
 44
1.0
  0
POINT
  5
2D6
330
2CD
100
AcDbEntity
  8
Defpoints
 62
     0
100
AcDbPoint
 10
324.8261513017328
 20
-126.295803985541
 30
0.0
  0
POINT
  5
2D7
330
2CD
100
AcDbEntity
  8
Defpoints
 62
     0
100
AcDbPoint
 10
223.2261513017327
 20
-126.1689812758227
 30
0.0
  0
POINT
  5
2D8
330
2CD
100
AcDbEntity
  8
Defpoints
 62
     0
100
AcDbPoint
 10
223.2261513017327
 20
-103.7558174449502
 30
0.0
  0
ENDBLK
  5
2CF
330
2CD
100
AcDbEntity
  8
0
100
AcDbBlockEnd
  0
BLOCK
  5
2DA
330
2D9
100
AcDbEntity
  8
0
100
AcDbBlockBegin
  2
*D12
 70
     1
 10
0.0
 20
0.0
 30
0.0
  3
*D12
  1
*D13
  0
LINE
  5
2DC
330
2D9
100
AcDbEntity
  8
치수문자_일반주서
 62
     0
370
    -2
100
AcDbLine
 10
324.8261513017328
 20
-126.233303985541
 30
0.0
 11
324.8261513017328
 21
-91.7558174449502
 31
0.0
  0
LINE
  5
2DD
330
2D9
100
AcDbEntity
  8
치수문자_일반주서
 62
     0
370
    -2
100
AcDbLine
 10
127.9761513017327
 20
-131.1279487785111
 30
0.0
 11
127.9761513017327
 21
-91.7558174449502
 31
0.0
  0
LINE
  5
2DE
330
2D9
100
AcDbEntity
  8
치수문자_일반주서
 62
     0
370
    -2
100
AcDbLine
 10
321.5241513017327
 20
-91.7558174449502
 30
0.0
 11
131.2781513017327
 21
-91.7558174449502
 31
0.0
  0
SOLID
  5
2DF
330
2D9
100
AcDbEntity
  8
치수문자_일반주서
 62
     0
100
AcDbTrace
 10
321.5241513017327
 20
-92.30615077828352
 30
0.0
 11
321.5241513017327
 21
-91.20548411161687
 31
0.0
 12
324.8261513017328
 22
-91.7558174449502
 32
0.0
 13
324.8261513017328
 23
-91.7558174449502
 33
0.0
  0
SOLID
  5
2E0
330
2D9
100
AcDbEntity
  8
치수문자_일반주서
 62
     0
100
AcDbTrace
 10
131.2781513017327
 20
-91.20548411161687
 30
0.0
 11
131.2781513017327
 21
-92.30615077828352
 31
0.0
 12
127.9761513017327
 22
-91.7558174449502
 32
0.0
 13
127.9761513017327
 23
-91.7558174449502
 33
0.0
  0
MTEXT
  5
2E1
330
2D9
100
AcDbEntity
  8
치수문자_일반주서
 62
     0
100
AcDbMText
 10
226.4011513017327
 20
-87.3808174449502
 30
0.0
 40
3.5
 41
0.0
 71
     2
 72
     1
  1
\A1;196.85 [7 3/4]
  7
SLDTEXTSTYLE0
 73
     1
 44
1.0
  0
POINT
  5
2E2
330
2D9
100
AcDbEntity
  8
Defpoints
 62
     0
100
AcDbPoint
 10
324.8261513017328
 20
-126.295803985541
 30
0.0
  0
POINT
  5
2E3
330
2D9
100
AcDbEntity
  8
Defpoints
 62
     0
100
AcDbPoint
 10
127.9761513017327
 20
-131.1904487785111
 30
0.0
  0
POINT
  5
2E4
330
2D9
100
AcDbEntity
  8
Defpoints
 62
     0
100
AcDbPoint
 10
127.9761513017327
 20
-91.7558174449502
 30
0.0
  0
ENDBLK
  5
2DB
330
2D9
100
AcDbEntity
  8
0
100
AcDbBlockEnd
  0
BLOCK
  5
2E6
330
2E5
100
AcDbEntity
  8
0
100
AcDbBlockBegin
  2
*D13
 70
     1
 10
0.0
 20
0.0
 30
0.0
  3
*D13
  1
*D14
  0
LINE
  5
2E8
330
2E5
100
AcDbEntity
  8
치수문자_일반주서
 62
     0
370
    -2
100
AcDbLine
 10
324.8886513017328
 20
-126.1104487785111
 30
0.0
 11
349.7007766731662
 21
-126.1104487785111
 31
0.0
  0
LINE
  5
2E9
330
2E5
100
AcDbEntity
  8
치수문자_일반주서
 62
     0
370
    -2
100
AcDbLine
 10
324.8886513017328
 20
-176.9104487785112
 30
0.0
 11
349.7007766731664
 21
-176.9104487785111
 31
0.0
  0
LINE
  5
2EA
330
2E5
100
AcDbEntity
  8
치수문자_일반주서
 62
     0
370
    -2
100
AcDbLine
 10
349.7007766731662
 20
-126.1104487785111
 30
0.0
 11
349.700776673166
 21
-68.55579633726609
 31
0.0
  0
LINE
  5
2EB
330
2E5
100
AcDbEntity
  8
치수문자_일반주서
 62
     0
370
    -2
100
AcDbLine
 10
349.7007766731662
 20
-129.412448778511
 30
0.0
 11
349.7007766731664
 21
-173.6084487785111
 31
0.0
  0
SOLID
  5
2EC
330
2E5
100
AcDbEntity
  8
치수문자_일반주서
 62
     0
100
AcDbTrace
 10
350.2511100064996
 20
-129.412448778511
 30
0.0
 11
349.1504433398329
 21
-129.412448778511
 31
0.0
 12
349.7007766731662
 22
-126.1104487785111
 32
0.0
 13
349.7007766731662
 23
-126.1104487785111
 33
0.0
  0
SOLID
  5
2ED
330
2E5
100
AcDbEntity
  8
치수문자_일반주서
 62
     0
100
AcDbTrace
 10
349.150443339833
 20
-173.6084487785111
 30
0.0
 11
350.2511100064997
 21
-173.6084487785111
 31
0.0
 12
349.7007766731664
 22
-176.9104487785111
 32
0.0
 13
349.7007766731664
 23
-176.9104487785111
 33
0.0
  0
MTEXT
  5
2EE
330
2E5
100
AcDbEntity
  8
치수문자_일반주서
 62
     0
100
AcDbMText
 10
345.325776673166
 20
-79.9307963372661
 30
0.0
 40
3.5
 41
0.0
 71
     2
 72
     1
  1
\A1;%%c50.80 [2]
  7
SLDTEXTSTYLE0
 11
-3.356894814614646E-15
 21
1.0
 31
0.0
 73
     1
 44
1.0
  0
POINT
  5
2EF
330
2E5
100
AcDbEntity
  8
Defpoints
 62
     0
100
AcDbPoint
 10
324.8261513017328
 20
-126.1104487785111
 30
0.0
  0
POINT
  5
2F0
330
2E5
100
AcDbEntity
  8
Defpoints
 62
     0
100
AcDbPoint
 10
324.8261513017328
 20
-176.9104487785112
 30
0.0
  0
POINT
  5
2F1
330
2E5
100
AcDbEntity
  8
Defpoints
 62
     0
100
AcDbPoint
 10
349.7007766731664
 20
-176.9104487785111
 30
0.0
  0
ENDBLK
  5
2E7
330
2E5
100
AcDbEntity
  8
0
100
AcDbBlockEnd
  0
BLOCK
  5
2F3
330
2F2
100
AcDbEntity
  8
0
100
AcDbBlockBegin
  2
*D14
 70
     1
 10
0.0
 20
0.0
 30
0.0
  3
*D14
  1
*D15
  0
LINE
  5
2F5
330
2F2
100
AcDbEntity
  8
치수문자_일반주서
 62
     0
370
    -2
100
AcDbLine
 10
-83.31250000000006
 20
25.40107492872392
 30
0.0
 11
-95.75000000000014
 21
25.40107492872387
 31
0.0
  0
LINE
  5
2F6
330
2F2
100
AcDbEntity
  8
치수문자_일반주서
 62
     0
370
    -2
100
AcDbLine
 10
-82.31250000000004
 20
-25.3989250712761
 30
0.0
 11
-95.74999999999997
 21
-25.39892507127615
 31
0.0
  0
LINE
  5
2F7
330
2F2
100
AcDbEntity
  8
치수문자_일반주서
 62
     0
370
    -2
100
AcDbLine
 10
-95.75000000000013
 20
22.09907492872387
 30
0.0
 11
-95.74999999999999
 21
-22.09692507127615
 31
0.0
  0
SOLID
  5
2F8
330
2F2
100
AcDbEntity
  8
치수문자_일반주서
 62
     0
100
AcDbTrace
 10
-95.1996666666668
 20
22.09907492872387
 30
0.0
 11
-96.30033333333346
 21
22.09907492872386
 31
0.0
 12
-95.75000000000014
 22
25.40107492872387
 32
0.0
 13
-95.75000000000014
 23
25.40107492872387
 33
0.0
  0
SOLID
  5
2F9
330
2F2
100
AcDbEntity
  8
치수문자_일반주서
 62
     0
100
AcDbTrace
 10
-96.30033333333331
 20
-22.09692507127615
 30
0.0
 11
-95.19966666666666
 21
-22.09692507127615
 31
0.0
 12
-95.74999999999997
 22
-25.39892507127615
 32
0.0
 13
-95.74999999999997
 23
-25.39892507127615
 33
0.0
  0
MTEXT
  5
2FA
330
2F2
100
AcDbEntity
  8
치수문자_일반주서
 62
     0
100
AcDbMText
 10
-100.1250000000001
 20
0.0010749287238948
 30
0.0
 40
3.5
 41
0.0
 71
     2
 72
     1
  1
\A1;%%c50.80 [2]
  7
SLDTEXTSTYLE0
 11
-3.356894814614646E-15
 21
1.0
 31
0.0
 73
     1
 44
1.0
  0
POINT
  5
2FB
330
2F2
100
AcDbEntity
  8
Defpoints
 62
     0
100
AcDbPoint
 10
-83.25000000000006
 20
25.40107492872392
 30
0.0
  0
POINT
  5
2FC
330
2F2
100
AcDbEntity
  8
Defpoints
 62
     0
100
AcDbPoint
 10
-82.25000000000004
 20
-25.3989250712761
 30
0.0
  0
POINT
  5
2FD
330
2F2
100
AcDbEntity
  8
Defpoints
 62
     0
100
AcDbPoint
 10
-95.74999999999997
 20
-25.39892507127615
 30
0.0
  0
ENDBLK
  5
2F4
330
2F2
100
AcDbEntity
  8
0
100
AcDbBlockEnd
  0
ENDSEC
  0
SECTION
  2
ENTITIES
  0
LINE
  5
96
330
1F
100
AcDbEntity
  8
외형선
  6
Continuous
 62
     1
370
    15
100
AcDbLine
 10
89.85184669681213
 20
4.950571595369024
 30
0.0
 11
89.7172946403905
 21
5.081092793231432
 31
0.0
  0
LINE
  5
97
330
1F
100
AcDbEntity
  8
외형선
  6
Continuous
 62
     1
370
    15
100
AcDbLine
 10
116.4728886944443
 20
4.930292917369865
 30
0.0
 11
116.3174848188187
 21
5.080810096947236
 31
0.0
  0
LINE
  5
98
330
1F
100
AcDbEntity
  8
외형선
  6
Continuous
 62
     1
370
    15
100
AcDbLine
 10
143.058642294601
 20
4.942827995496929
 30
0.0
 11
142.9160802383358
 21
5.081115042835241
 31
0.0
  0
LINE
  5
99
330
1F
100
AcDbEntity
  8
외형선
  6
Continuous
 62
     1
370
    15
100
AcDbLine
 10
161.3286478640366
 20
-25.39892507127611
 30
0.0
 11
164.3999999999999
 21
-25.39892507127611
 31
0.0
  0
LINE
  5
9A
330
1F
100
AcDbEntity
  8
외형선
  6
Continuous
 62
     1
370
    15
100
AcDbLine
 10
87.67480974436278
 20
25.40107492872389
 30
0.0
 11
81.53349091889652
 21
25.40107492872389
 31
0.0
  0
LINE
  5
9B
330
1F
100
AcDbEntity
  8
외형선
  6
Continuous
 62
     1
370
    15
100
AcDbLine
 10
54.93353307071676
 20
-25.39892507127611
 30
0.0
 11
61.07448415164086
 21
-25.39892507127611
 31
0.0
  0
LINE
  5
9C
330
1F
100
AcDbEntity
  8
외형선
  6
Continuous
 62
     1
370
    15
100
AcDbLine
 10
140.8714522669458
 20
25.40107492872389
 30
0.0
 11
134.7294003700279
 21
25.40107492872389
 31
0.0
  0
LINE
  5
9D
330
1F
100
AcDbEntity
  8
외형선
  6
Continuous
 62
     1
370
    15
100
AcDbLine
 10
28.3350924850468
 20
-25.39892507127611
 30
0.0
 11
34.47509291091815
 21
-25.39892507127611
 31
0.0
  0
LINE
  5
9E
330
1F
100
AcDbEntity
  8
외형선
  6
Continuous
 62
     1
370
    15
100
AcDbLine
 10
114.2732326538365
 20
25.40107492872389
 30
0.0
 11
108.1316627503848
 21
25.40107492872389
 31
0.0
  0
LINE
  5
9F
330
1F
100
AcDbEntity
  8
외형선
  6
Continuous
 62
     1
370
    15
100
AcDbLine
 10
81.53349091889643
 20
-25.39892507127611
 30
0.0
 11
87.67480974436266
 21
-25.39892507127611
 31
0.0
  0
LINE
  5
A0
330
1F
100
AcDbEntity
  8
외형선
  6
Continuous
 62
     1
370
    15
100
AcDbLine
 10
164.3999999999999
 20
25.40107492872389
 30
0.0
 11
161.3286478640366
 21
25.40107492872389
 31
0.0
  0
LINE
  5
A1
330
1F
100
AcDbEntity
  8
외형선
  6
Continuous
 62
     1
370
    15
100
AcDbLine
 10
134.7294003700278
 20
-25.39892507127611
 30
0.0
 11
140.8714522669458
 21
-25.39892507127611
 31
0.0
  0
LINE
  5
A2
330
1F
100
AcDbEntity
  8
외형선
  6
Continuous
 62
     1
370
    15
100
AcDbLine
 10
61.07448415164086
 20
25.40107492872389
 30
0.0
 11
54.93353307071654
 21
25.40107492872389
 31
0.0
  0
LINE
  5
A3
330
1F
100
AcDbEntity
  8
외형선
  6
Continuous
 62
     1
370
    15
100
AcDbLine
 10
108.1316627503846
 20
-25.39892507127611
 30
0.0
 11
114.2732326538363
 21
-25.39892507127611
 31
0.0
  0
LINE
  5
A4
330
1F
100
AcDbEntity
  8
외형선
  6
Continuous
 62
     1
370
    15
100
AcDbLine
 10
34.47509291091801
 20
25.40107492872389
 30
0.0
 11
28.33509248504663
 21
25.40107492872389
 31
0.0
  0
LINE
  5
A5
330
1F
100
AcDbEntity
  8
외형선
  6
Continuous
370
    15
100
AcDbLine
 10
-78.17000000000004
 20
-25.3989250712761
 30
0.0
 11
-73.72500000000001
 21
-25.3989250712761
 31
0.0
  0
LINE
  5
A6
330
1F
100
AcDbEntity
  8
외형선
  6
Continuous
370
    15
100
AcDbLine
 10
11.00009137382504
 20
25.40107492872389
 30
0.0
 11
-28.18280000000002
 21
25.40107492872389
 31
0.0
  0
SPLINE
  5
A9
330
1F
100
AcDbEntity
  8
외형선
  6
Continuous
 62
     1
370
    15
100
AcDbSpline
210
0.0
220
0.0
230
1.0
 70
     8
 71
     3
 72
    31
 73
    27
 74
     0
 42
0.000000001
 43
0.00000001
 40
0.0
 40
0.0
 40
0.0
 40
0.0
 40
0.0374190218316477
 40
0.08001757818993
 40
0.12261656029542
 40
0.1652160319104984
 40
0.2078160567163083
 40
0.2504166983022381
 40
0.2930180201554355
 40
0.3356200856503599
 40
0.378222469521412
 40
0.4208241237846727
 40
0.4634250687678439
 40
0.5060253679078056
 40
0.5486250847484622
 40
0.5912242829302761
 40
0.6338230261797643
 40
0.6764213782989624
 40
0.7190194031548623
 40
0.7616171646688271
 40
0.804214726805983
 40
0.8468121535645998
 40
0.8894095089654545
 40
0.9320068570411872
 40
0.974604261825659
 40
1.0
 40
1.0
 40
1.0
 40
1.0
 10
34.47509291091798
 20
25.37019550615413
 30
0.0
 10
35.59796848393744
 20
25.33965505171903
 30
0.0
 10
37.99914787248188
 20
25.27434673843088
 30
0.0
 10
41.67866303268832
 20
24.47015854848972
 30
0.0
 10
45.51365254308497
 20
23.13033058152097
 30
0.0
 10
49.34870853348571
 20
21.24947278527549
 30
0.0
 10
53.18383906818687
 20
18.88908213903248
 30
0.0
 10
57.01905314121018
 20
16.0978410228782
 30
0.0
 10
60.85435820236155
 20
12.94059238009874
 30
0.0
 10
64.68975219590688
 20
9.488823179794334
 30
0.0
 10
68.52518054493771
 20
5.821199731244777
 30
0.0
 10
72.36052701979519
 20
2.021123661521085
 30
0.0
 10
76.19578263647277
 20
-1.824881521123556
 30
0.0
 10
80.03095007897124
 20
-5.629311145100965
 30
0.0
 10
83.86603915084446
 20
-9.305603630786875
 30
0.0
 10
87.70105811262151
 20
-12.77011654092819
 30
0.0
 10
91.53601565512828
 20
-15.94403116848862
 30
0.0
 10
95.37092036895315
 20
-18.75512804557675
 30
0.0
 10
99.20578088376367
 20
-21.13949564487584
 30
0.0
 10
103.0406058319969
 20
-23.04273597225172
 30
0.0
 10
106.8754038451957
 20
-24.42212686963907
 30
0.0
 10
110.7101835953643
 20
-25.24414051209536
 30
0.0
 10
114.5449536235873
 20
-25.4980926792283
 30
0.0
 10
118.3797229745587
 20
-25.14829143779489
 30
0.0
 10
121.6983095837084
 20
-24.42659524323422
 30
0.0
 10
123.738644075596
 20
-23.60842667359255
 30
0.0
 10
124.5007179890705
 20
-23.30283711157332
 30
0.0
  0
SPLINE
  5
AA
330
1F
100
AcDbEntity
  8
외형선
  6
Continuous
 62
     1
370
    15
100
AcDbSpline
210
0.0
220
0.0
230
1.0
 70
     8
 71
     3
 72
    32
 73
    28
 74
     0
 42
0.000000001
 43
0.00000001
 40
0.0
 40
0.0
 40
0.0
 40
0.0
 40
0.0112240088409762
 40
0.053821620779517
 40
0.0964189840089108
 40
0.1390161625022844
 40
0.1816132202634723
 40
0.2242102213163839
 40
0.266807229694357
 40
0.3094043094295116
 40
0.3520015245421024
 40
0.3945989390298776
 40
0.4371966168574424
 40
0.4797946219456394
 40
0.5223930181609401
 40
0.5649918693048607
 40
0.6075912391033985
 40
0.6501911911964972
 40
0.6927917891275449
 40
0.7353930963329026
 40
0.777995133140109
 40
0.8205968515737814
 40
0.8631978263717843
 40
0.9057981209080619
 40
0.9483977986692441
 40
0.9909969232442013
 40
1.0
 40
1.0
 40
1.0
 40
1.0
 10
134.7294003700277
 20
-25.34278729074768
 30
0.0
 10
134.3925852017294
 20
-25.35947008641756
 30
0.0
 10
132.777481497003
 20
-25.43946780512996
 30
0.0
 10
129.8841113856436
 20
-25.0046869516694
 30
0.0
 10
126.0492924169389
 20
-24.02851028293237
 30
0.0
 10
122.2144995983522
 20
-22.46032141697804
 30
0.0
 10
118.3797227660554
 20
-20.39322397806442
 30
0.0
 10
114.5449536794554
 20
-17.85886273232196
 30
0.0
 10
110.7101835803944
 20
-14.9190209579676
 30
0.0
 10
106.8754038492068
 20
-11.63947893231033
 30
0.0
 10
103.0406058309221
 20
-8.09514579032926
 30
0.0
 10
99.20578088405155
 20
-4.366579763170845
 30
0.0
 10
95.37092036887604
 20
-0.5386317940984651
 30
0.0
 10
91.53601565514846
 20
3.301611946158046
 30
0.0
 10
87.70105811261813
 20
7.066776526290408
 30
0.0
 10
83.86603915083808
 20
10.67119552192315
 30
0.0
 10
80.03095007900016
 20
14.03285475575195
 30
0.0
 10
76.19578263636357
 20
17.07526793426934
 30
0.0
 10
72.36052702020305
 20
19.72918198693119
 30
0.0
 10
68.52518054341515
 20
21.93428115630809
 30
0.0
 10
64.68975220158967
 20
23.64006445907551
 30
0.0
 10
60.85435818115354
 20
24.80882859269184
 30
0.0
 10
57.01905322035745
 20
25.40987229368925
 30
0.0
 10
53.18383877281219
 20
25.44481922941182
 30
0.0
 10
49.34870963581599
 20
24.8558238541084
 30
0.0
 10
46.52181435975015
 20
24.12860932526004
 30
0.0
 10
44.97330030090158
 20
23.44414152163011
 30
0.0
 10
44.70312983201234
 20
23.32472188421088
 30
0.0
  0
LINE
  5
AB
330
1F
100
AcDbEntity
  8
외형선
  6
Continuous
 62
     1
370
    15
100
AcDbLine
 10
164.3999999999999
 20
-9.953651385946701
 30
0.0
 11
164.3999999999999
 21
9.955801243394967
 31
0.0
  0
SPLINE
  5
AC
330
1F
100
AcDbEntity
  8
외형선
  6
Continuous
 62
     1
370
    15
100
AcDbSpline
210
0.0
220
0.0
230
1.0
 70
     8
 71
     3
 72
    16
 73
    12
 74
     0
 42
0.000000001
 43
0.00000001
 40
0.0
 40
0.0
 40
0.0
 40
0.0
 40
0.1111550096426919
 40
0.2223049317017731
 40
0.333451881232767
 40
0.444597975858231
 40
0.5557453339392345
 40
0.6730032684879002
 40
0.7902620233897809
 40
0.9075217745217037
 40
1.0
 40
1.0
 40
1.0
 40
1.0
 10
11.99999999999995
 20
-16.08592976612041
 30
0.0
 10
13.21170337352007
 20
-16.99187425768649
 30
0.0
 10
15.63505466069179
 20
-18.80372177558588
 30
0.0
 10
19.2699086117574
 20
-21.04891821626779
 30
0.0
 10
22.9046173688905
 20
-22.88721930962921
 30
0.0
 10
26.53931121354815
 20
-24.25150245258008
 30
0.0
 10
30.24052864322262
 20
-25.13644653333309
 30
0.0
 10
34.00886955555534
 20
-25.49404530095872
 30
0.0
 10
37.84372485039768
 20
-25.26150315447894
 30
0.0
 10
41.40849337463327
 20
-24.56812814503295
 30
0.0
 10
43.69497033867965
 20
-23.70371247772241
 30
0.0
 10
44.70312983201254
 20
-23.32257202676308
 30
0.0
  0
SPLINE
  5
AD
330
1F
100
AcDbEntity
  8
외형선
  6
Continuous
 62
     1
370
    15
100
AcDbSpline
210
0.0
220
0.0
230
1.0
 70
     8
 71
     3
 72
    21
 73
    17
 74
     0
 42
0.000000001
 43
0.00000001
 40
0.0
 40
0.0
 40
0.0
 40
0.0
 40
0.0054207905293262
 40
0.0819237466864902
 40
0.1584268046900452
 40
0.2349300795250404
 40
0.3114336861404735
 40
0.3879377394301912
 40
0.4644423542138002
 40
0.5409476452176193
 40
0.6174537270556514
 40
0.6939607142106057
 40
0.7704687210149684
 40
0.8469778616321242
 40
0.9234882500375345
 40
1.0
 40
1.0
 40
1.0
 40
1.0
 10
114.2732326538365
 20
25.38204419842514
 30
0.0
 10
114.3638063833606
 20
25.38830957244939
 30
0.0
 10
115.7326361202472
 20
25.48299740657295
 30
0.0
 10
118.3797226891583
 20
25.12579137158425
 30
0.0
 10
122.2144995692884
 20
24.27206396937548
 30
0.0
 10
126.0492926100924
 20
22.80304439583797
 30
0.0
 10
129.8841106420889
 20
20.83212450016004
 30
0.0
 10
133.7189622557677
 20
18.38271527708188
 30
0.0
 10
137.5538560969841
 20
15.51627478564141
 30
0.0
 10
141.3888007927064
 20
12.29650516852448
 30
0.0
 10
145.2238049430199
 20
8.796964261495987
 30
0.0
 10
149.0588772177697
 20
5.097556957343026
 30
0.0
 10
152.8940259684082
 20
1.281000314285473
 30
0.0
 10
156.7292606744455
 20
-2.560351661147887
 30
0.0
 10
160.5645865361664
 20
-6.359716491916081
 30
0.0
 10
163.1215212617093
 20
-8.755665981727402
 30
0.0
 10
164.3999999999999
 20
-9.9536513859467
 30
0.0
  0
SPLINE
  5
AE
330
1F
100
AcDbEntity
  8
외형선
  6
Continuous
370
    15
100
AcDbSpline
210
0.0
220
0.0
230
1.0
 70
    24
 71
     3
 72
    24
 73
    20
 74
     0
 42
0.000000001
 43
0.00000001
 40
0.0
 40
0.0
 40
0.0
 40
0.0
 40
0.004962426311656
 40
0.0715220565670038
 40
0.1362058523622932
 40
0.2027654826176375
 40
0.2674492784129269
 40
0.3340089086682706
 40
0.3986927044635609
 40
0.4652523347189059
 40
0.5299361305141952
 40
0.5964957607695395
 40
0.6611795565648292
 40
0.7277391868201732
 40
0.7924229826154635
 40
0.858982612870809
 40
0.9236664086660983
 40
0.9902260389214418
 40
1.0
 40
1.0
 40
1.0
 40
1.0
 10
11.99999999999995
 20
3.016719027132162
 30
0.0
 10
11.99999999999996
 20
3.016248193361613
 30
0.0
 10
12.00000000000003
 20
3.009462198476053
 30
0.0
 10
11.99999999999992
 20
2.727471860423742
 30
0.0
 10
12.00000000000014
 20
2.153360571978286
 30
0.0
 10
11.99999999999985
 20
1.292831203181974
 30
0.0
 10
12.00000000000004
 20
0.1935511416691336
 30
0.0
 10
12.00000000000004
 20
-1.103953971465142
 30
0.0
 10
12.00000000000001
 20
-2.583525994157265
 30
0.0
 10
11.99999999999996
 20
-4.177401037122991
 30
0.0
 10
11.99999999999989
 20
-5.868950860876072
 30
0.0
 10
11.99999999999995
 20
-7.579907560018559
 30
0.0
 10
11.99999999999992
 20
-9.292612475619002
 30
0.0
 10
12.00000000000011
 20
-10.92780305414078
 30
0.0
 10
11.99999999999988
 20
-12.46848575910538
 30
0.0
 10
11.99999999999997
 20
-13.84384052814543
 30
0.0
 10
11.99999999999997
 20
-15.03775441412263
 30
0.0
 10
11.99999999999999
 20
-15.73188119848216
 30
0.0
 10
11.99999999999997
 20
-16.04574215396487
 30
0.0
 10
11.99999999999996
 20
-16.08592976612042
 30
0.0
  0
SPLINE
  5
AF
330
1F
100
AcDbEntity
  8
외형선
  6
Continuous
 62
     1
370
    15
100
AcDbSpline
210
0.0
220
0.0
230
1.0
 70
     8
 71
     3
 72
    18
 73
    14
 74
     0
 42
0.000000001
 43
0.00000001
 40
0.0
 40
0.0
 40
0.0
 40
0.0
 40
0.0961246880562563
 40
0.1922476655354146
 40
0.2883690753696441
 40
0.3844890607507539
 40
0.4806077651066439
 40
0.5767253320776635
 40
0.6728419054928954
 40
0.7689576293463707
 40
0.865072647773225
 40
0.9611871050257987
 40
1.0
 40
1.0
 40
1.0
 40
1.0
 10
164.4
 20
9.955801243394971
 30
0.0
 10
163.1215212617116
 20
11.11002777806666
 30
0.0
 10
160.5645865361731
 20
13.41846030748929
 30
0.0
 10
156.7292606744191
 20
16.51512398976543
 30
0.0
 10
152.8940259685075
 20
19.25224867438652
 30
0.0
 10
149.058877217399
 20
21.54700588688037
 30
0.0
 10
145.2238049444032
 20
23.35250321283044
 30
0.0
 10
141.3888007875433
 20
24.62698925743366
 30
0.0
 10
137.5538561162527
 20
25.33889095343732
 30
0.0
 10
133.7189621838567
 20
25.4830390080743
 30
0.0
 10
129.8841109104616
 20
25.01466684379088
 30
0.0
 10
126.8113671410768
 20
24.28127955816382
 30
0.0
 10
125.0169080158713
 20
23.52308693340445
 30
0.0
 10
124.5007179890706
 20
23.3049869690211
 30
0.0
  0
SPLINE
  5
B0
330
1F
100
AcDbEntity
  8
외형선
  6
Continuous
 62
     1
370
    15
100
AcDbSpline
210
0.0
220
0.0
230
1.0
 70
     8
 71
     3
 72
    19
 73
    15
 74
     0
 42
0.000000001
 43
0.00000001
 40
0.0
 40
0.0
 40
0.0
 40
0.0
 40
0.0407516478392143
 40
0.1300745398270052
 40
0.2193962718953786
 40
0.3087169775697002
 40
0.3980367905456714
 40
0.4873558446672178
 40
0.5766742739043087
 40
0.661338117556847
 40
0.7460009988023231
 40
0.8306645312516544
 40
0.915330327953215
 40
0.9999999999999999
 40
0.9999999999999999
 40
0.9999999999999999
 40
0.9999999999999999
 10
54.93353307071676
 20
-25.32713394791442
 30
0.0
 10
54.35029653358247
 20
-25.34295474898073
 30
0.0
 10
52.4886730606529
 20
-25.39345291353385
 30
0.0
 10
49.34870965293099
 20
-24.86138058335365
 30
0.0
 10
45.51365189548632
 20
-23.76770721416506
 30
0.0
 10
41.6786645036338
 20
-22.10056791260685
 30
0.0
 10
37.84372444408064
 20
-19.93930885109094
 30
0.0
 10
34.00886966462048
 20
-17.32203596969906
 30
0.0
 10
30.24052861568926
 20
-14.36348596991009
 30
0.0
 10
26.53931122075782
 20
-11.15118638419934
 30
0.0
 10
22.90461736695927
 20
-7.768353704175119
 30
0.0
 10
19.26990861227237
 20
-4.227843478566834
 30
0.0
 10
15.63505466056299
 20
-0.5963637707240905
 30
0.0
 10
13.21170337347712
 20
1.821665260685347
 30
0.0
 10
11.99999999999991
 20
3.030707445422809
 30
0.0
  0
LINE
  5
B1
330
1F
100
AcDbEntity
  8
외형선
  6
Continuous
 62
     1
370
    15
100
AcDbLine
 10
164.3999999999999
 20
15.21019655935138
 30
0.0
 11
164.3999999999999
 21
25.21571972169407
 31
0.0
  0
SPLINE
  5
B2
330
1F
100
AcDbEntity
  8
외형선
  6
Continuous
 62
     1
370
    15
100
AcDbSpline
210
0.0
220
0.0
230
1.0
 70
     8
 71
     3
 72
    23
 73
    19
 74
     0
 42
0.000000001
 43
0.00000001
 40
0.0
 40
0.0
 40
0.0
 40
0.0
 40
0.0612991274522929
 40
0.1225954492331441
 40
0.1838901317412474
 40
0.2451843427909504
 40
0.3064792506038708
 40
0.3711439840944846
 40
0.4358091699887863
 40
0.5004749052783201
 40
0.5651412868633763
 40
0.6298084115369351
 40
0.6944763759686565
 40
0.7591452766889137
 40
0.8238152100728763
 40
0.88848627232465
 40
0.9531578178798066
 40
1.0
 40
1.0
 40
1.0
 40
1.0
 10
11.99999999999995
 20
8.980386977312566
 30
0.0
 10
13.21170337347923
 20
7.829190619636585
 30
0.0
 10
15.63505466056928
 20
5.526850594736824
 30
0.0
 10
19.26990861224746
 20
1.911109229921258
 30
0.0
 10
22.90461736705284
 20
-1.730445374589792
 30
0.0
 10
26.53931122040861
 20
-5.340126773077189
 30
0.0
 10
30.2405286170231
 20
-8.903732935545882
 30
0.0
 10
34.00886965933704
 20
-12.33932164337119
 30
0.0
 10
37.84372446376383
 20
-15.55475957604168
 30
0.0
 10
41.67866443018322
 20
-18.41629815351248
 30
0.0
 10
45.5136521696093
 20
-20.8588192014549
 30
0.0
 10
49.34870862987226
 20
-22.82663130945332
 30
0.0
 10
53.18383905612291
 20
-24.27540510971802
 30
0.0
 10
57.01905309307664
 20
-25.17046745868993
 30
0.0
 10
60.85435840696516
 20
-25.49778140025442
 30
0.0
 10
64.68975142561013
 20
-25.22621828320568
 30
0.0
 10
68.17273772531372
 20
-24.5215912140119
 30
0.0
 10
70.3772133019724
 20
-23.67105247348103
 30
0.0
 10
71.30321988962761
 20
-23.31377726248444
 30
0.0
  0
SPLINE
  5
B3
330
1F
100
AcDbEntity
  8
외형선
  6
Continuous
 62
     1
370
    15
100
AcDbSpline
210
0.0
220
0.0
230
1.0
 70
     8
 71
     3
 72
    14
 73
    10
 74
     0
 42
0.000000001
 43
0.00000001
 40
0.0
 40
0.0
 40
0.0
 40
0.0
 40
0.0219881812438513
 40
0.184984518077352
 40
0.3479827836900875
 40
0.5109832216676133
 40
0.6739860752352133
 40
0.8369915872178015
 40
1.0
 40
1.0
 40
1.0
 40
1.0
 10
140.8714522669458
 20
25.36732992178587
 30
0.0
 10
141.0438984257979
 20
25.37820135691916
 30
0.0
 10
142.4946718770333
 20
25.46966172677142
 30
0.0
 10
145.2238060862045
 20
25.08912215890766
 30
0.0
 10
149.0588769114561
 20
24.19355271659928
 30
0.0
 10
152.8940260504582
 20
22.69290293794677
 30
0.0
 10
156.729260652565
 20
20.6843431467249
 30
0.0
 10
160.5645865416366
 20
18.22603348202804
 30
0.0
 10
163.1215212635328
 20
16.24934596140056
 30
0.0
 10
164.3999999999999
 20
15.26099340702321
 30
0.0
  0
SPLINE
  5
B4
330
1F
100
AcDbEntity
  8
외형선
  6
Continuous
370
    15
100
AcDbSpline
210
0.0
220
0.0
230
1.0
 70
    24
 71
     3
 72
    18
 73
    14
 74
     0
 42
0.000000001
 43
0.00000001
 40
0.0
 40
0.0
 40
0.0
 40
0.0
 40
0.0093612732513167
 40
0.114202599149868
 40
0.2220843306019334
 40
0.3269256565004796
 40
0.4348073879525392
 40
0.5396487138510841
 40
0.6475304453031432
 40
0.7523717712016903
 40
0.8602535026537508
 40
0.9650948285522963
 40
1.0
 40
1.0
 40
1.0
 40
1.0
 10
11.99999999999992
 20
23.3559002326373
 30
0.0
 10
11.99999999999989
 20
23.3144689890191
 30
0.0
 10
11.99999999999966
 20
22.80902965612233
 30
0.0
 10
11.99999999999999
 20
21.76112839405917
 30
0.0
 10
12.00000000000001
 20
20.14706613855939
 30
0.0
 10
11.99999999999989
 20
18.44398797809686
 30
0.0
 10
11.99999999999994
 20
16.73202220333509
 30
0.0
 10
11.99999999999996
 20
15.02807896955428
 30
0.0
 10
12.00000000000006
 20
13.41271838897278
 30
0.0
 10
12.00000000000001
 20
11.89666147748249
 30
0.0
 10
11.99999999999996
 20
10.57211116166842
 30
0.0
 10
11.99999999999989
 20
9.643971544140312
 30
0.0
 10
11.99999999999992
 20
9.257096027702904
 30
0.0
 10
11.99999999999994
 20
9.16046422306663
 30
0.0
  0
SPLINE
  5
B5
330
1F
100
AcDbEntity
  8
외형선
  6
Continuous
 62
     1
370
    15
100
AcDbSpline
210
0.0
220
0.0
230
1.0
 70
     8
 71
     3
 72
    11
 73
     7
 74
     0
 42
0.000000001
 43
0.00000001
 40
0.0
 40
0.0
 40
0.0
 40
0.0
 40
0.2883677561506879
 40
0.5767303806823354
 40
0.8650883023820705
 40
1.0
 40
1.0
 40
1.0
 40
1.0
 10
164.4
 20
25.21571972169407
 30
0.0
 10
163.1215211834951
 20
25.31599383637913
 30
0.0
 10
160.5645863015248
 20
25.51654028133146
 30
0.0
 10
156.7292616129862
 20
25.05550926132449
 30
0.0
 10
153.5742954045127
 20
24.3317524612348
 30
0.0
 10
151.6977805070402
 20
23.55149050494774
 30
0.0
 10
151.0996657384172
 20
23.30279213325958
 30
0.0
  0
SPLINE
  5
B6
330
1F
100
AcDbEntity
  8
외형선
  6
Continuous
 62
     1
370
    15
100
AcDbSpline
210
0.0
220
0.0
230
1.0
 70
     8
 71
     3
 72
    26
 73
    22
 74
     0
 42
0.000000001
 43
0.00000001
 40
0.0
 40
0.0
 40
0.0
 40
0.0
 40
0.0216082582403385
 40
0.0767624468343351
 40
0.1319174715951886
 40
0.1870734146540011
 40
0.2422303023288515
 40
0.2973867778052584
 40
0.3525422904960298
 40
0.4076969224514563
 40
0.4628507558677234
 40
0.5180038730733876
 40
0.5731563565157992
 40
0.6283082887474852
 40
0.6834597524124957
 40
0.7386108302327089
 40
0.7908878605132695
 40
0.843164296540357
 40
0.8954411346635718
 40
0.9477193708851629
 40
1.0
 40
1.0
 40
1.0
 40
1.0
 10
81.53349091889646
 20
-25.32997352079922
 30
0.0
 10
81.0326487629172
 20
-25.34742575521418
 30
0.0
 10
79.25342764554914
 20
-25.40942409869552
 30
0.0
 10
76.19578166026926
 20
-24.91188528308389
 30
0.0
 10
72.36052728140895
 20
-23.85700834042846
 30
0.0
 10
68.52518047470808
 20
-22.22278998113971
 30
0.0
 10
64.68975221520516
 20
-20.09265674042712
 30
0.0
 10
60.85435819539849
 20
-17.50267708582825
 30
0.0
 10
57.01905314976433
 20
-14.51512294981015
 30
0.0
 10
53.18383904093383
 20
-11.19710441797116
 30
0.0
 10
49.3487086339421
 20
-7.624361338964307
 30
0.0
 10
45.51365216851886
 20
-3.8781230143884
 30
0.0
 10
41.67866443047545
 20
-0.0436505695481323
 30
0.0
 10
37.84372446368563
 20
3.79183688948265
 30
0.0
 10
34.00886965935803
 20
7.540999266998704
 30
0.0
 10
30.24052861701774
 20
11.05667281871423
 30
0.0
 10
26.53931122040996
 20
14.27161177402001
 30
0.0
 10
22.90461736705242
 20
17.13943903534685
 30
0.0
 10
19.26990861224751
 20
19.64766466187549
 30
0.0
 10
15.6350546605692
 20
21.78850751761916
 30
0.0
 10
13.21170337347919
 20
22.8334280230841
 30
0.0
 10
11.99999999999991
 20
23.35590023263731
 30
0.0
  0
SPLINE
  5
B7
330
1F
100
AcDbEntity
  8
외형선
  6
Continuous
 62
     1
370
    15
100
AcDbSpline
210
0.0
220
0.0
230
1.0
 70
     8
 71
     3
 72
    31
 73
    27
 74
     0
 42
0.000000001
 43
0.00000001
 40
0.0
 40
0.0
 40
0.0
 40
0.0
 40
0.0401568725630877
 40
0.0827593134503418
 40
0.125361024728828
 40
0.1679620267262754
 40
0.2105623828796491
 40
0.2531621567329381
 40
0.2957614119266905
 40
0.3383602121875084
 40
0.3809586213175126
 40
0.4235567031837807
 40
0.4661545217077612
 40
0.508752140854666
 40
0.5513496246228505
 40
0.5939470370331773
 40
0.6365444421183726
 40
0.6791419039123825
 40
0.7217394864397231
 40
0.7643372537048362
 40
0.8069352696814552
 40
0.8495335983019766
 40
0.8921323034468527
 40
0.9347314489339984
 40
0.9773310985082224
 40
1.0
 40
1.0
 40
1.0
 40
1.0
 10
61.07448415164086
 20
25.38543523711106
 30
0.0
 10
62.279569927685
 20
25.34222359835262
 30
0.0
 10
64.76313164722643
 20
25.25316871612558
 30
0.0
 10
68.52518103194026
 20
24.40096674613596
 30
0.0
 10
72.36052688930648
 20
23.0246102818516
 30
0.0
 10
76.19578267143632
 20
21.11160995526371
 30
0.0
 10
80.03095006960265
 20
18.72170257411268
 30
0.0
 10
83.86603915335598
 20
15.90493546002643
 30
0.0
 10
87.7010581119438
 20
12.72656801279976
 30
0.0
 10
91.53601565532777
 20
9.258609620462364
 30
0.0
 10
95.37092036883301
 20
5.580050913498126
 30
0.0
 10
99.20578088404487
 20
1.774565915978008
 30
0.0
 10
103.0406058309921
 20
-2.07125712104072
 30
0.0
 10
106.8754038489337
 20
-5.869921143738268
 30
0.0
 10
110.7101835814175
 20
-9.535001216331406
 30
0.0
 10
114.5449536756362
 20
-12.98311142656202
 30
0.0
 10
118.3797227803095
 20
-16.1358061415751
 30
0.0
 10
122.2144995451544
 20
-18.92134455483657
 30
0.0
 10
126.0492926154769
 20
-21.27639668518237
 30
0.0
 10
129.8841106446848
 20
-23.1472067828043
 30
0.0
 10
133.718962239999
 20
-24.49185047258724
 30
0.0
 10
137.5538561574642
 20
-25.27732840550112
 30
0.0
 10
141.3888005665517
 20
-25.49472358040165
 30
0.0
 10
145.2238057871716
 20
-25.10563821802038
 30
0.0
 10
148.4607633643949
 20
-24.37815126883396
 30
0.0
 10
150.4193979318894
 20
-23.57840726113787
 30
0.0
 10
151.0996657384172
 20
-23.30064227581179
 30
0.0
  0
SPLINE
  5
B8
330
1F
100
AcDbEntity
  8
외형선
  6
Continuous
 62
     1
370
    15
100
AcDbSpline
210
0.0
220
0.0
230
1.0
 70
     8
 71
     3
 72
    32
 73
    28
 74
     0
 42
0.000000001
 43
0.00000001
 40
0.0
 40
0.0
 40
0.0
 40
0.0
 40
0.0084870024781632
 40
0.0510883712023238
 40
0.0936890451517136
 40
0.1362890877884436
 40
0.1788885626792593
 40
0.2214875334850631
 40
0.2640860639504033
 40
0.306684217892933
 40
0.3492820591928419
 40
0.3918796517822649
 40
0.4344770596346728
 40
0.4770743467542449
 40
0.5196715771652354
 40
0.5622688149013269
 40
0.6048661239949842
 40
0.6474635684668064
 40
0.6900612123148866
 40
0.7326591195041744
 40
0.7752573539558563
 40
0.817855979536748
 40
0.8604550600487092
 40
0.9030546592180801
 40
0.9456548406851472
 40
0.9882556679936407
 40
1.0
 40
1.0
 40
1.0
 40
1.0
 10
161.3286478640366
 20
-25.35278171073639
 30
0.0
 10
161.0739554456849
 20
-25.36716170255347
 30
0.0
 10
159.5408086315245
 20
-25.4537235200771
 30
0.0
 10
156.7292621516048
 20
-25.0471333583776
 30
0.0
 10
152.8940255726131
 20
-24.11106887987317
 30
0.0
 10
149.0588773238227
 20
-22.57585780722117
 30
0.0
 10
145.2238049145952
 20
-20.54048984933431
 30
0.0
 10
141.3888008003539
 20
-18.03412289477714
 30
0.0
 10
137.5538560948181
 20
-15.11838813275766
 30
0.0
 10
133.7189622567846
 20
-11.85839792331444
 30
0.0
 10
129.8841106401871
 20
-8.328657000834225
 30
0.0
 10
126.0492926166821
 20
-4.609386800304888
 30
0.0
 10
122.2144995448312
 20
-0.785231396957286
 30
0.0
 10
118.379722780397
 20
3.056810087341659
 30
0.0
 10
114.5449536756096
 20
6.829324078155753
 30
0.0
 10
110.7101835814364
 20
10.44648160159267
 30
0.0
 10
106.8754038488846
 20
13.82598556660411
 30
0.0
 10
103.040605831169
 20
16.890951573083
 30
0.0
 10
99.20578088338588
 20
19.57162601304496
 30
0.0
 10
95.37092037129169
 20
21.80708674107885
 30
0.0
 10
91.53601564615171
 20
23.54620377122374
 30
0.0
 10
87.70105814618982
 20
24.75038935052418
 30
0.0
 10
83.866039025546
 20
25.38855384979161
 30
0.0
 10
80.03095054660518
 20
25.459915577175
 30
0.0
 10
76.19578089120087
 20
24.91153096686988
 30
0.0
 10
73.28653240141456
 20
24.18015043564609
 30
0.0
 10
71.65566140710851
 20
23.46950260287928
 30
0.0
 10
71.30321988962758
 20
23.31592711993223
 30
0.0
  0
SPLINE
  5
B9
330
1F
100
AcDbEntity
  8
외형선
  6
Continuous
 62
     1
370
    15
100
AcDbSpline
210
0.0
220
0.0
230
1.0
 70
     8
 71
     3
 72
    30
 73
    26
 74
     0
 42
0.000000001
 43
0.00000001
 40
0.0
 40
0.0
 40
0.0
 40
0.0
 40
0.0423184393648794
 40
0.0846349418076241
 40
0.1269503125627371
 40
0.1692653578420307
 40
0.2115808841384818
 40
0.2562228018460114
 40
0.3008650318747573
 40
0.3455076411837602
 40
0.390150696669063
 40
0.4347942651526262
 40
0.4794384133712747
 40
0.5240832079656755
 40
0.5687287154693497
 40
0.6133750022977223
 40
0.6580216227792112
 40
0.702667478643343
 40
0.7473125911932258
 40
0.7919570269097005
 40
0.836600852385768
 40
0.8812441343156204
 40
0.9258869394836337
 40
0.9705293347533258
 40
0.9999999999999999
 40
0.9999999999999999
 40
0.9999999999999999
 40
0.9999999999999999
 10
11.99999999999996
 20
25.06739167215711
 30
0.0
 10
13.21170337347925
 20
24.82214089193009
 30
0.0
 10
15.63505466056924
 20
24.33165055664577
 30
0.0
 10
19.2699086122475
 20
22.96108934535832
 30
0.0
 10
22.90461736705244
 20
21.15789772305079
 30
0.0
 10
26.53931122040996
 20
18.91226820072448
 30
0.0
 10
30.24052861701789
 20
16.23448512482094
 30
0.0
 10
34.00886965935756
 20
13.15303921884387
 30
0.0
 10
37.84372446368742
 20
9.718098399532407
 30
0.0
 10
41.67866443046852
 20
6.061994157451718
 30
0.0
 10
45.51365216854468
 20
2.26798389125628
 30
0.0
 10
49.34870863384548
 20
-1.577632044778373
 30
0.0
 10
53.18383904129446
 20
-5.387350924926499
 30
0.0
 10
57.01905314841825
 20
-9.074490700933776
 30
0.0
 10
60.85435820042218
 20
-12.55515350204427
 30
0.0
 10
64.689752196456
 20
-15.75012272032561
 30
0.0
 10
68.52518054468052
 20
-18.58666447319696
 30
0.0
 10
72.3605270202745
 20
-21.00029239306187
 30
0.0
 10
76.19578263481262
 20
-22.93592154420717
 30
0.0
 10
80.0309500851324
 20
-24.35003805090482
 30
0.0
 10
83.86603912786046
 20
-25.20856215243762
 30
0.0
 10
87.70105819839524
 20
-25.49911834362756
 30
0.0
 10
91.53601533502167
 20
-25.1884331808049
 30
0.0
 10
94.93650029736237
 20
-24.47435135120717
 30
0.0
 10
97.05866202230838
 20
-23.6392722693816
 30
0.0
 10
97.90252837136272
 20
-23.307207503691
 30
0.0
  0
SPLINE
  5
BA
330
1F
100
AcDbEntity
  8
외형선
  6
Continuous
 62
     1
370
    15
100
AcDbSpline
210
0.0
220
0.0
230
1.0
 70
     8
 71
     3
 72
    32
 73
    28
 74
     0
 42
0.000000001
 43
0.00000001
 40
0.0
 40
0.0
 40
0.0
 40
0.0
 40
0.0139545968071258
 40
0.0565517753551952
 40
0.0991491532782779
 40
0.1417467945409243
 40
0.1843447630639218
 40
0.2269431227136873
 40
0.2695419372916823
 40
0.3121412705238492
 40
0.3547411860500772
 40
0.3973417474136998
 40
0.4399430180510236
 40
0.4825450182895699
 40
0.5251467001548553
 40
0.5677476383851098
 40
0.6103478963542227
 40
0.6529475375487697
 40
0.6955466255575665
 40
0.7381452240611833
 40
0.7807433968214259
 40
0.823341207670791
 40
0.8659387205018878
 40
0.9063163804890088
 40
0.9466935814874581
 40
0.9870710930563553
 40
1.0
 40
1.0
 40
1.0
 40
1.0
 10
108.1316627503846
 20
-25.33519564190164
 30
0.0
 10
107.7129108634273
 20
-25.35291722669895
 30
0.0
 10
106.0158956813992
 20
-25.42473492922715
 30
0.0
 10
103.0406056174251
 20
-24.95964469157218
 30
0.0
 10
99.2057809412584
 20
-23.94393953130085
 30
0.0
 10
95.3709203535473
 20
-22.34278681200229
 30
0.0
 10
91.53601565925628
 20
-20.24413532457319
 30
0.0
 10
87.7010581115156
 20
-17.68192099225913
 30
0.0
 10
83.86603915114017
 20
-14.71813260547864
 30
0.0
 10
80.0309500788945
 20
-11.41920585253228
 30
0.0
 10
76.19578263648411
 20
-7.860459558673847
 30
0.0
 10
72.36052701982672
 20
-4.122791004630762
 30
0.0
 10
68.52518054480018
 20
-0.2912570715455652
 30
0.0
 10
64.68975219642572
 20
3.546915625034276
 30
0.0
 10
60.85435820042393
 20
7.304418566938147
 30
0.0
 10
57.01905314844178
 20
10.89572358367055
 30
0.0
 10
53.18383904119857
 20
14.23910137856017
 30
0.0
 10
49.34870863420549
 20
17.25849189116906
 30
0.0
 10
45.51365216720059
 20
19.88518532044844
 30
0.0
 10
41.6786644354851
 20
22.05949012807037
 30
0.0
 10
37.84372444496535
 20
23.7317029734157
 30
0.0
 10
34.00886972922864
 20
24.86468310600118
 30
0.0
 10
30.2405283620009
 20
25.41950042714305
 30
0.0
 10
26.53931211710102
 20
25.4298811511652
 30
0.0
 10
22.90461401460945
 20
24.8864295914327
 30
0.0
 10
20.09356887329022
 20
24.17019015469106
 30
0.0
 10
18.49403525728487
 20
23.48355304551564
 30
0.0
 10
18.106085328334
 20
23.31701649070106
 30
0.0
  0
LINE
  5
BB
330
1F
100
AcDbEntity
  8
외형선
  6
Continuous
 62
     1
370
    15
100
AcDbLine
 10
164.3999999999999
 20
-25.21356986424626
 30
0.0
 11
164.3999999999999
 21
-15.24588587583957
 31
0.0
  0
SPLINE
  5
BC
330
1F
100
AcDbEntity
  8
외형선
  6
Continuous
 62
     1
370
    15
100
AcDbSpline
210
0.0
220
0.0
230
1.0
 70
     8
 71
     3
 72
     9
 73
     5
 74
     0
 42
0.000000001
 43
0.00000001
 40
0.0
 40
0.0
 40
0.0
 40
0.0
 40
0.5953172010803376
 40
1.0
 40
1.0
 40
1.0
 40
1.0
 10
11.99999999999995
 20
-25.06524181470935
 30
0.0
 10
13.21170536260805
 20
-24.83386933978823
 30
0.0
 10
15.24709987230669
 20
-24.44521523320228
 30
0.0
 10
17.28242447244155
 20
-23.64051498285512
 30
0.0
 10
18.10608532833418
 20
-23.31486663325327
 30
0.0
  0
SPLINE
  5
BD
330
1F
100
AcDbEntity
  8
외형선
  6
Continuous
 62
     1
370
    15
100
AcDbSpline
210
0.0
220
0.0
230
1.0
 70
     8
 71
     3
 72
    28
 73
    24
 74
     0
 42
0.000000001
 43
0.00000001
 40
0.0
 40
0.0
 40
0.0
 40
0.0
 40
0.0003422402338585
 40
0.0503252108089752
 40
0.1003077224537973
 40
0.1502898501062629
 40
0.2002716687681061
 40
0.25025325349241
 40
0.3002346793711467
 40
0.3502160215226967
 40
0.4001973550793604
 40
0.4501787551748705
 40
0.5001602969318938
 40
0.5501420554495441
 40
0.600124105790903
 40
0.6501065229705504
 40
0.7000893819421175
 40
0.7500727575858576
 40
0.8000567246962459
 40
0.8500413579696134
 40
0.9000267319918125
 40
0.9500129212259212
 40
0.9999999999999999
 40
0.9999999999999999
 40
0.9999999999999999
 40
0.9999999999999999
 10
87.6748097443628
 20
25.39910984345675
 30
0.0
 10
87.68356261419625
 20
25.39976441666431
 30
0.0
 10
88.97064103447882
 20
25.49601708190102
 30
0.0
 10
91.53601401614564
 20
25.15956677801387
 30
0.0
 10
95.37092080804517
 20
24.34808847721454
 30
0.0
 10
99.20578076635944
 20
22.91194656408214
 30
0.0
 10
103.040605862526
 20
20.97347900323984
 30
0.0
 10
106.8754038404827
 20
18.55276966531467
 30
0.0
 10
110.7101835836875
 20
15.71133295903737
 30
0.0
 10
114.5449536750071
 20
12.51209223781648
 30
0.0
 10
118.3797227805558
 20
9.02829727309482
 30
0.0
 10
122.2144995447985
 20
5.339085056398411
 30
0.0
 10
126.0492926166544
 20
1.528423404197286
 30
0.0
 10
129.8841106403306
 20
-2.317000216371061
 30
0.0
 10
133.7189622562389
 20
-6.109688744350578
 30
0.0
 10
137.5538560968579
 20
-9.763371069057676
 30
0.0
 10
141.3888007927403
 20
-13.19484458278983
 30
0.0
 10
145.2238049430108
 20
-16.32630164672554
 30
0.0
 10
149.0588772177721
 20
-19.08548406479322
 30
0.0
 10
152.8940259684075
 20
-21.41335545451314
 30
0.0
 10
156.7292606744456
 20
-23.24294579383505
 30
0.0
 10
160.5645865361664
 20
-24.58484357119293
 30
0.0
 10
163.1215212617093
 20
-25.00399319006169
 30
0.0
 10
164.3999999999999
 20
-25.21356986424626
 30
0.0
  0
SPLINE
  5
BE
330
1F
100
AcDbEntity
  8
외형선
  6
Continuous
370
    15
100
AcDbSpline
210
0.0
220
0.0
230
1.0
 70
    24
 71
     3
 72
    11
 73
     7
 74
     0
 42
0.000000001
 43
0.00000001
 40
0.0
 40
0.0
 40
0.0
 40
0.0
 40
0.2170102495825875
 40
0.5761627637289816
 40
0.9457307251163373
 40
1.0
 40
1.0
 40
1.0
 40
1.0
 10
11.99999999999995
 20
-20.50419510424483
 30
0.0
 10
11.99999999999996
 20
-20.8127446063371
 30
0.0
 10
11.99999999999996
 20
-21.63194431793886
 30
0.0
 10
11.99999999999997
 20
-23.09028035234814
 30
0.0
 10
12.00000000000001
 20
-24.31679471744316
 30
0.0
 10
11.99999999999997
 20
-24.9802865164447
 30
0.0
 10
11.99999999999996
 20
-25.06524181470935
 30
0.0
  0
SPLINE
  5
BF
330
1F
100
AcDbEntity
  8
외형선
  6
Continuous
 62
     1
370
    15
100
AcDbSpline
210
0.0
220
0.0
230
1.0
 70
     8
 71
     3
 72
    25
 73
    21
 74
     0
 42
0.000000001
 43
0.00000001
 40
0.0
 40
0.0
 40
0.0
 40
0.0
 40
0.0576754241399482
 40
0.1153498219227591
 40
0.1730232791086432
 40
0.2306958816135968
 40
0.2883677154952717
 40
0.3460388669387913
 40
0.4037094222425195
 40
0.4613794678037912
 40
0.519049090104604
 40
0.5767183756972797
 40
0.6343874111901016
 40
0.6920562832329263
 40
0.7497250785027885
 40
0.8073938836894865
 40
0.8650627854811705
 40
0.9227318705499271
 40
0.9804012255373729
 40
1.0
 40
1.0
 40
1.0
 40
1.0
 10
164.4
 20
-15.25884354957529
 30
0.0
 10
163.1215212617093
 20
-14.20335572179149
 30
0.0
 10
160.5645865361663
 20
-12.09239884905004
 30
0.0
 10
156.7292606744458
 20
-8.557734619387228
 30
0.0
 10
152.8940259684077
 20
-4.853283226280126
 30
0.0
 10
149.0588772177721
 20
-1.031724686423614
 30
0.0
 10
145.223804943011
 20
2.811518002236721
 30
0.0
 10
141.3888007927391
 20
6.59127097702862
 30
0.0
 10
137.553856096862
 20
10.22093013936014
 30
0.0
 10
133.718962256223
 20
13.61807768468749
 30
0.0
 10
129.8841106403895
 20
16.70538636008055
 30
0.0
 10
126.0492926164344
 20
19.41261265696434
 30
0.0
 10
122.2144995456195
 20
21.67822667912352
 30
0.0
 10
118.3797227774916
 20
23.4504477913674
 30
0.0
 10
114.5449536864429
 20
24.6898448248144
 30
0.0
 10
110.7101835410084
 20
25.36490634658287
 30
0.0
 10
106.8754039997637
 20
25.47264092772118
 30
0.0
 10
103.0406052680782
 20
24.96443731475789
 30
0.0
 10
100.0496465623434
 20
24.23103929985434
 30
0.0
 10
98.33694800768733
 20
23.49583835426976
 30
0.0
 10
97.90252837136292
 20
23.30935736113879
 30
0.0
  0
SPLINE
  5
C0
330
1F
100
AcDbEntity
  8
외형선
  6
Continuous
 62
     1
370
    15
100
AcDbSpline
210
0.0
220
0.0
230
1.0
 70
     8
 71
     3
 72
    12
 73
     8
 74
     0
 42
0.000000001
 43
0.00000001
 40
0.0
 40
0.0
 40
0.0
 40
0.0
 40
0.1099366345170363
 40
0.3324456705774554
 40
0.55495641811686
 40
0.777473116511864
 40
1.0
 40
1.0
 40
1.0
 40
1.0
 10
28.3350924850468
 20
-25.33393494754082
 30
0.0
 10
27.73648857248835
 20
-25.34666748372375
 30
0.0
 10
25.92632510882568
 20
-25.3851703590217
 30
0.0
 10
22.90462351048002
 20
-24.88958043750859
 30
0.0
 10
19.26990697394843
 20
-23.87900332227748
 30
0.0
 10
15.63505507017042
 20
-22.38265375823548
 30
0.0
 10
13.211703510015
 20
-21.01030696073613
 30
0.0
 10
11.99999999999991
 20
-20.32411785849075
 30
0.0
  0
LINE
  5
C1
330
1F
100
AcDbEntity
  8
외형선
  6
Continuous
 62
     1
370
    15
100
AcDbLine
 10
164.3999999999999
 20
-25.39892507127611
 30
0.0
 11
164.3999999999999
 21
-25.21356986424626
 31
0.0
  0
LINE
  5
C2
330
1F
100
AcDbEntity
  8
외형선
  6
Continuous
370
    15
100
AcDbLine
 10
11.99999999999992
 20
3.030707445422791
 30
0.0
 11
11.99999999999995
 21
8.980386977312566
 31
0.0
  0
LINE
  5
C3
330
1F
100
AcDbEntity
  8
외형선
  6
Continuous
 62
     1
370
    15
100
AcDbLine
 10
164.3999999999999
 20
9.955801243394967
 30
0.0
 11
164.3999999999999
 21
15.2609934070232
 31
0.0
  0
LINE
  5
C4
330
1F
100
AcDbEntity
  8
외형선
  6
Continuous
 62
     1
370
    15
100
AcDbLine
 10
164.3999999999999
 20
-15.25884354957529
 30
0.0
 11
164.3999999999999
 21
-9.953651385946701
 31
0.0
  0
LINE
  5
C5
330
1F
100
AcDbEntity
  8
외형선
  6
Continuous
370
    15
100
AcDbLine
 10
11.99999999999992
 20
-20.32411785849077
 30
0.0
 11
11.99999999999996
 21
-16.08592976612042
 31
0.0
  0
LINE
  5
C6
330
1F
100
AcDbEntity
  8
외형선
  6
Continuous
 62
     1
370
    15
100
AcDbLine
 10
164.3999999999999
 20
25.21571972169407
 30
0.0
 11
164.3999999999999
 21
25.40107492872389
 31
0.0
  0
LINE
  5
C7
330
1F
100
AcDbEntity
  8
외형선
  6
Continuous
370
    15
100
AcDbLine
 10
11.99999999999992
 20
23.3559002326373
 30
0.0
 11
11.99999999999996
 21
25.06739167215711
 31
0.0
  0
SPLINE
  5
C8
330
1F
100
AcDbEntity
  8
외형선
  6
Continuous
370
    15
100
AcDbSpline
210
0.0
220
0.0
230
1.0
 70
     8
 71
     3
 72
     8
 73
     4
 74
     0
 42
0.000000001
 43
0.00000001
 40
0.0
 40
0.0
 40
0.0
 40
0.0
 40
1.0
 40
1.0
 40
1.0
 40
1.0
 10
11.99999999999994
 20
-16.0859297661204
 30
0.0
 10
11.66703561190937
 20
-15.82823294451827
 30
0.0
 10
11.33360388291872
 20
-15.56626651797045
 30
0.0
 10
11.00009137382502
 20
-15.30032777428837
 30
0.0
  0
SPLINE
  5
C9
330
1F
100
AcDbEntity
  8
외형선
  6
Continuous
370
    15
100
AcDbSpline
210
0.0
220
0.0
230
1.0
 70
     8
 71
     3
 72
     8
 73
     4
 74
     0
 42
0.000000001
 43
0.00000001
 40
0.0
 40
0.0
 40
0.0
 40
0.0
 40
1.0
 40
1.0
 40
1.0
 40
1.0
 10
11.99999999999996
 20
-20.32411785849077
 30
0.0
 10
11.6670356119094
 20
-20.12440966800317
 30
0.0
 10
11.33360388291873
 20
-19.91936590451301
 30
0.0
 10
11.00009137382505
 20
-19.7092159780791
 30
0.0
  0
LINE
  5
CA
330
1F
100
AcDbEntity
  8
외형선
  6
Continuous
370
    15
100
AcDbLine
 10
11.00009137382504
 20
-25.3989250712761
 30
0.0
 11
11.00009137382504
 21
-19.70921021999711
 31
0.0
  0
SPLINE
  5
CB
330
1F
100
AcDbEntity
  8
외형선
  6
Continuous
370
    15
100
AcDbSpline
210
0.0
220
0.0
230
1.0
 70
     8
 71
     3
 72
     8
 73
     4
 74
     0
 42
0.000000001
 43
0.00000001
 40
0.0
 40
0.0
 40
0.0
 40
0.0
 40
1.0
 40
1.0
 40
1.0
 40
1.0
 10
11.99999999999994
 20
-25.06524181470934
 30
0.0
 10
11.66703561190937
 20
-25.11904107966209
 30
0.0
 10
11.33360388291872
 20
-25.16640053789325
 30
0.0
 10
11.00009137382502
 20
-25.20725457951758
 30
0.0
  0
LINE
  5
CC
330
1F
100
AcDbEntity
  8
외형선
  6
Continuous
370
    15
100
AcDbLine
 10
11.00009137382504
 20
25.20940367217229
 30
0.0
 11
11.00009137382504
 21
25.40107492872389
 31
0.0
  0
SPLINE
  5
CD
330
1F
100
AcDbEntity
  8
외형선
  6
Continuous
370
    15
100
AcDbSpline
210
0.0
220
0.0
230
1.0
 70
     8
 71
     3
 72
     8
 73
     4
 74
     0
 42
0.000000001
 43
0.00000001
 40
0.0
 40
0.0
 40
0.0
 40
0.0
 40
1.0
 40
1.0
 40
1.0
 40
1.0
 10
11.99999999999994
 20
25.0673916721571
 30
0.0
 10
11.66703561190937
 20
25.12119093710985
 30
0.0
 10
11.33360388291872
 20
25.16855039534102
 30
0.0
 10
11.00009137382502
 20
25.20940443696536
 30
0.0
  0
SPLINE
  5
CE
330
1F
100
AcDbEntity
  8
외형선
  6
Continuous
370
    15
100
AcDbSpline
210
0.0
220
0.0
230
1.0
 70
     8
 71
     3
 72
     8
 73
     4
 74
     0
 42
0.000000001
 43
0.00000001
 40
0.0
 40
0.0
 40
0.0
 40
0.0
 40
1.0
 40
1.0
 40
1.0
 40
1.0
 10
11.99999999999996
 20
23.3559002326373
 30
0.0
 10
11.6670356119094
 20
23.48681310068174
 30
0.0
 10
11.33360388291873
 20
23.61176364858163
 30
0.0
 10
11.00009137382505
 20
23.73059691863676
 30
0.0
  0
LINE
  5
CF
330
1F
100
AcDbEntity
  8
외형선
  6
Continuous
370
    15
100
AcDbLine
 10
11.00009137382504
 20
9.907995990756678
 30
0.0
 11
11.00009137382504
 21
23.73060017465139
 31
0.0
  0
SPLINE
  5
D0
330
1F
100
AcDbEntity
  8
외형선
  6
Continuous
370
    15
100
AcDbSpline
210
0.0
220
0.0
230
1.0
 70
     8
 71
     3
 72
     8
 73
     4
 74
     0
 42
0.000000001
 43
0.00000001
 40
0.0
 40
0.0
 40
0.0
 40
0.0
 40
1.0
 40
1.0
 40
1.0
 40
1.0
 10
11.99999999999994
 20
8.980386977312577
 30
0.0
 10
11.66703561190937
 20
9.291883063867449
 30
0.0
 10
11.33360388291872
 20
9.601208948646434
 30
0.0
 10
11.00009137382502
 20
9.908001733952847
 30
0.0
  0
SPLINE
  5
D1
330
1F
100
AcDbEntity
  8
외형선
  6
Continuous
370
    15
100
AcDbSpline
210
0.0
220
0.0
230
1.0
 70
     8
 71
     3
 72
     8
 73
     4
 74
     0
 42
0.000000001
 43
0.00000001
 40
0.0
 40
0.0
 40
0.0
 40
0.0
 40
1.0
 40
1.0
 40
1.0
 40
1.0
 10
11.99999999999996
 20
3.030707445422776
 30
0.0
 10
11.6670356119094
 20
3.361328503954815
 30
0.0
 10
11.33360388291873
 20
3.691322815344873
 30
0.0
 10
11.00009137382505
 20
4.02030601183391
 30
0.0
  0
LINE
  5
D4
330
1F
100
AcDbEntity
  8
외형선
  6
Continuous
370
    15
100
AcDbLine
 10
11.00009137382504
 20
-15.30033275269147
 30
0.0
 11
11.00009137382504
 21
4.020315025930516
 31
0.0
  0
LINE
  5
D5
330
1F
100
AcDbEntity
  8
외형선
  6
Continuous
370
    15
100
AcDbLine
 10
-83.25000000000004
 20
0.0010749287238949
 30
0.0
 11
-83.25000000000004
 21
20.32107492872391
 31
0.0
  0
SPLINE
  5
D7
330
1F
100
AcDbEntity
  8
외형선
  6
Continuous
370
    15
100
AcDbSpline
210
0.0
220
0.0
230
1.0
 70
    24
 71
     3
 72
    23
 73
    19
 74
     0
 42
0.000000001
 43
0.00000001
 40
0.0
 40
0.0
 40
0.0
 40
0.0
 40
0.0347153902103161
 40
0.0993845154214597
 40
0.1659290496447237
 40
0.230598174855867
 40
0.2971427090791319
 40
0.3618118342902751
 40
0.4283563685135392
 40
0.4930254937246826
 40
0.5595700279479471
 40
0.6242391531590904
 40
0.6907836873823547
 40
0.755452812593495
 40
0.8219973468167552
 40
0.8866664720279019
 40
0.9513355972390433
 40
1.0
 40
1.0
 40
1.0
 40
1.0
 10
11.99999999999996
 20
-16.08592976612041
 30
0.0
 10
11.99999999999996
 20
-15.93809287144655
 30
0.0
 10
12.00000000000001
 20
-15.51485988891166
 30
0.0
 10
11.99999999999988
 20
-14.62085794405703
 30
0.0
 10
11.99999999999991
 20
-13.36549404960962
 30
0.0
 10
12.0000000000001
 20
-11.91629631480578
 30
0.0
 10
11.99999999999992
 20
-10.3448863912249
 30
0.0
 10
11.99999999999992
 20
-8.666247416234663
 30
0.0
 10
12.0
 20
-6.958428779941675
 30
0.0
 10
11.99999999999985
 20
-5.238950044382503
 30
0.0
 10
12.0
 20
-3.587434317494999
 30
0.0
 10
11.99999999999995
 20
-2.020962139909608
 30
0.0
 10
11.99999999999994
 20
-0.6118252004190883
 30
0.0
 10
11.99999999999999
 20
0.6245463768350082
 30
0.0
 10
12.00000000000004
 20
1.634283239557905
 30
0.0
 10
11.99999999999997
 20
2.387135113016917
 30
0.0
 10
11.99999999999995
 20
2.864714827931713
 30
0.0
 10
12.00000000000006
 20
2.958023981846266
 30
0.0
 10
12.00000000000004
 20
2.998090097572407
 30
0.0
  0
SPLINE
  5
D8
330
1F
100
AcDbEntity
  8
외형선
  6
Continuous
370
    15
100
AcDbSpline
210
0.0
220
0.0
230
1.0
 70
    24
 71
     3
 72
    17
 73
    13
 74
     0
 42
0.000000001
 43
0.00000001
 40
0.0
 40
0.0
 40
0.0
 40
0.0
 40
0.0735874055750014
 40
0.1799674368937742
 40
0.2863474682125468
 40
0.3927274995313192
 40
0.4991075308500861
 40
0.6054875621688529
 40
0.7103523125105401
 40
0.8167323438293097
 40
0.9231123751480792
 40
1.0
 40
1.0
 40
1.0
 40
1.0
 10
11.99999999999996
 20
9.160474223066624
 30
0.0
 10
11.99999999999996
 20
9.381903321618646
 30
0.0
 10
11.99999999999996
 20
9.923436577326244
 30
0.0
 10
11.99999999999996
 20
11.04301888754682
 30
0.0
 10
11.99999999999995
 20
12.44692223757852
 30
0.0
 10
11.99999999999992
 20
14.00222053386974
 30
0.0
 10
12.0
 20
15.65870734557855
 30
0.0
 10
12.00000000000003
 20
17.36063906354172
 30
0.0
 10
11.99999999999999
 20
19.06946340716752
 30
0.0
 10
12.0
 20
20.73309368906954
 30
0.0
 10
12.00000000000009
 20
22.17947306204779
 30
0.0
 10
11.99999999999999
 20
23.0082129183443
 30
0.0
 10
11.99999999999994
 20
23.3559002326373
 30
0.0
  0
SPLINE
  5
D9
330
1F
100
AcDbEntity
  8
외형선
  6
Continuous
370
    15
100
AcDbSpline
210
0.0
220
0.0
230
1.0
 70
    24
 71
     3
 72
    11
 73
     7
 74
     0
 42
0.000000001
 43
0.00000001
 40
0.0
 40
0.0
 40
0.0
 40
0.0
 40
0.1929588973569296
 40
0.5524099367426621
 40
0.9222850806215258
 40
1.0
 40
1.0
 40
1.0
 40
1.0
 10
11.99999999999996
 20
-25.06524181470934
 30
0.0
 10
12.0
 20
-24.76296634817677
 30
0.0
 10
12.00000000000003
 20
-23.89760085514513
 30
0.0
 10
11.99999999999988
 20
-22.4672114201997
 30
0.0
 10
11.99999999999994
 20
-21.23244003684977
 30
0.0
 10
11.99999999999995
 20
-20.61193346214351
 30
0.0
 10
11.99999999999996
 20
-20.50419510424483
 30
0.0
  0
LINE
  5
DA
330
1F
100
AcDbEntity
  8
중심선
 62
     1
100
AcDbLine
 10
-86.25000000000003
 20
0.0010749287238888
 30
0.0
 11
167.4
 21
0.0010749287239207
 31
0.0
  0
LINE
  5
DB
330
1F
100
AcDbEntity
  8
참조1
100
AcDbLine
 10
81.85000000000004
 20
0.0010749287238892
 30
0.0
 11
81.85000000000004
 21
-39.99892507127611
 31
0.0
  0
LINE
  5
DC
330
1F
100
AcDbEntity
  8
참조1
100
AcDbLine
 10
81.85000000000004
 20
-39.99892507127611
 30
0.0
 11
-9.508856814308633
 21
-39.9989250712761
 31
0.0
  0
CIRCLE
  5
DD
330
1F
100
AcDbEntity
  8
해칭선
100
AcDbCircle
 10
0.0
 20
0.0
 30
0.0
 40
2.999999999999997
  0
INSERT
  5
DE
330
1F
100
AcDbEntity
  8
0
  6
Continuous
 62
     7
100
AcDbBlockReference
 66
     1
  2
블럭10
 10
26.63472706787475
 20
-52.04609937292004
 30
0.0
  0
ATTRIB
  5
DF
330
DE
100
AcDbEntity
  8
FORMAT
 62
     2
100
AcDbText
 10
17.45343177913346
 20
-49.97073246008785
 30
0.0
 40
4.233333333333333
  1
E2162902 [ 6 FLUTE ]
 41
0.75
  7
SLDTEXTSTYLE0
 11
17.45343177913346
 21
-52.08739912675452
 31
0.0
100
AcDbAttribute
  2
AUTOATTR0
 70
     0
 74
     1
  0
SEQEND
  5
E0
330
DE
100
AcDbEntity
  8
0
  6
Continuous
 62
     7
  0
HATCH
  5
E1
330
1F
100
AcDbEntity
  8
중심선
100
AcDbHatch
 10
0.0
 20
0.0
 30
0.0
210
0.0
220
0.0
230
1.0
  2
SOLID
 70
     1
 71
     0
 91
        1
 92
        0
 93
        4
 72
     1
 10
32.34963637225562
 20
-35.7989250712761
 11
28.90336112841834
 21
-35.7989250712761
 72
     1
 10
28.90336112841834
 20
-35.7989250712761
 11
26.77513126921437
 21
-38.3352506518487
 72
     1
 10
26.77513126921437
 20
-38.3352506518487
 11
30.22143959816468
 21
-38.33521122254621
 72
     1
 10
30.22143959816468
 20
-38.33521122254621
 11
32.34963637225562
 21
-35.7989250712761
 97
        0
 75
     0
 76
     1
 98
        1
 10
-41.27500000000008
 20
0.0
  0
HATCH
  5
E2
330
1F
100
AcDbEntity
  8
중심선
100
AcDbHatch
 10
0.0
 20
0.0
 30
0.0
210
0.0
220
0.0
230
1.0
  2
SOLID
 70
     1
 71
     0
 91
        1
 92
        0
 93
        4
 72
     1
 10
37.36240036329157
 20
-35.7989250712761
 11
33.91612511945428
 21
-35.79892507127608
 72
     1
 10
33.91612511945428
 20
-35.79892507127608
 11
29.38498711109686
 21
-41.19892507127612
 72
     1
 10
29.38498711109686
 20
-41.19892507127612
 11
32.83126235493415
 21
-41.19892507127612
 72
     1
 10
32.83126235493415
 20
-41.19892507127612
 11
37.36240036329157
 21
-35.7989250712761
 97
        0
 75
     0
 76
     1
 98
        1
 10
-41.27500000000008
 20
0.0
  0
HATCH
  5
E3
330
1F
100
AcDbEntity
  8
중심선
100
AcDbHatch
 10
0.0
 20
0.0
 30
0.0
210
0.0
220
0.0
230
1.0
  2
SOLID
 70
     1
 71
     0
 91
        1
 92
        0
 93
        4
 72
     1
 10
42.37516435432752
 20
-35.79892507127613
 11
38.92888911049035
 21
-35.79892507127608
 72
     1
 10
38.92888911049035
 20
-35.79892507127608
 11
31.88045220860107
 21
-44.19892507127612
 72
     1
 10
31.88045220860107
 20
-44.19892507127612
 11
35.32672745243835
 21
-44.19892507127612
 72
     1
 10
35.32672745243835
 20
-44.19892507127612
 11
42.37516435432752
 21
-35.79892507127613
 97
        0
 75
     0
 76
     1
 98
        1
 10
-41.27500000000008
 20
0.0
  0
HATCH
  5
E4
330
1F
100
AcDbEntity
  8
중심선
100
AcDbHatch
 10
0.0
 20
0.0
 30
0.0
210
0.0
220
0.0
230
1.0
  2
SOLID
 70
     1
 71
     0
 91
        1
 92
        0
 93
        6
 72
     3
 10
47.17505478533967
 20
-39.99892507132738
 11
3.960054785062283
 21
1.540882976769353E-10
 40
0.3939339440162628
 50
17.09539180608451
 51
320.001965768507
 73
     0
 72
     1
 10
48.85805444104022
 20
-38.58681907591438
 11
51.16335631474126
 21
-36.65249236586649
 72
     3
 10
47.17505478528682
 20
-39.99892507127625
 11
6.600054785286829
 21
-1.278976924368180E-13
 40
0.636358354079598
 50
39.99873849337434
 51
368.4976242363724
 73
     1
 72
     1
 10
53.60038727718739
 20
-39.03892507120613
 11
45.85512209212271
 21
-39.03892507120613
 72
     1
 10
45.85512209212271
 20
-39.03892507120613
 11
45.85509704767681
 21
-40.95892507120602
 72
     1
 10
45.85509704767681
 20
-40.95892507120602
 11
50.29647681714881
 21
-40.95892507120599
 97
        0
 75
     0
 76
     1
 98
        1
 10
-41.27500000000008
 20
0.0
  0
DIMENSION
  5
F8
330
1F
100
AcDbEntity
  8
치수문자_일반주서
100
AcDbDimension
  2
_D_1
 10
11.99999999999996
 20
47.75570626228482
 30
0.0
 11
88.19999999999995
 21
47.75570626228482
 31
0.0
 70
   160
  1
<>
 71
     2
 42
152.4
  3
SLDDIMSTYLE0
100
AcDbAlignedDimension
 13
164.3999999999999
 23
25.21571972169407
 33
0.0
 14
11.99999999999996
 24
25.06739167215711
 34
0.0
 50
0.0000000000000053
100
AcDbRotatedDimension
1001
ACAD
1000
DSTYLE
1002
{
1070
   171
1070
     6
1070
   273
1070
     7
1002
}
  0
DIMENSION
  5
10B
330
1F
100
AcDbEntity
  8
치수문자_일반주서
100
AcDbDimension
  2
_D_2
 10
-83.25000000000004
 20
59.75570626228484
 30
0.0
 11
40.57499999999996
 21
59.75570626228484
 31
0.0
 70
   160
  1
<>
 71
     2
 42
247.65
  3
SLDDIMSTYLE0
100
AcDbAlignedDimension
 13
164.3999999999999
 23
25.21571972169407
 33
0.0
 14
-83.25000000000004
 24
20.32107492872391
 34
0.0
 50
0.0000000000000033
100
AcDbRotatedDimension
1001
ACAD
1000
DSTYLE
1002
{
1070
   171
1070
     6
1070
   273
1070
     7
1002
}
  0
DIMENSION
  5
11F
330
1F
100
AcDbEntity
  8
치수문자_일반주서
100
AcDbDimension
  2
_D_3
 10
183.4562500000002
 20
-25.39892507127604
 30
0.0
 11
183.4562499999998
 21
71.58072736996911
 31
0.0
 70
   160
  1
%%c<>
 71
     2
 42
50.8
 52
-270.0
  3
SLDDIMSTYLE0
100
AcDbAlignedDimension
 13
164.3999999999999
 23
25.40107492872389
 33
0.0
 14
164.3999999999999
 24
-25.39892507127611
 34
0.0
 50
90.0000000000002
100
AcDbRotatedDimension
1001
ACAD
1000
DSTYLE
1002
{
1070
   171
1070
     6
1070
   273
1070
     7
1002
}
  0
LINE
  5
132
330
1F
100
AcDbEntity
  8
참조1
100
AcDbLine
 10
88.46348381534564
 20
7.441074928723896
 30
0.0
 11
88.46348381534564
 21
-7.438925071276109
 31
0.0
  0
LINE
  5
133
330
1F
100
AcDbEntity
  8
참조1
100
AcDbLine
 10
101.1634838153456
 20
5.441074928723896
 30
0.0
 11
88.46348381534564
 21
5.441074928723896
 31
0.0
  0
SOLID
  5
134
330
1F
100
AcDbEntity
  8
참조1
100
AcDbTrace
 10
88.46348381534564
 20
5.441074928723896
 30
0.0
 11
94.81348381534563
 21
4.425074928723896
 31
0.0
 12
94.81348381534563
 22
6.457074928723896
 32
0.0
 13
94.81348381534563
 23
6.457074928723896
 33
0.0
  0
LINE
  5
135
330
1F
100
AcDbEntity
  8
참조1
100
AcDbLine
 10
101.1634838153456
 20
-5.438925071276109
 30
0.0
 11
88.46348381534564
 21
-5.438925071276109
 31
0.0
  0
SOLID
  5
136
330
1F
100
AcDbEntity
  8
참조1
100
AcDbTrace
 10
88.46348381534564
 20
-5.438925071276109
 30
0.0
 11
94.81348381534563
 21
-6.454925071276109
 31
0.0
 12
94.81348381534563
 22
-4.422925071276109
 32
0.0
 13
94.81348381534563
 23
-4.422925071276109
 33
0.0
  0
MTEXT
  5
137
330
1F
100
AcDbEntity
  8
참조1
100
AcDbMText
 10
97.8609739078159
 20
10.98929157337383
 30
0.0
 40
3.5
 41
0.0
 71
     1
 72
     1
  1
A
  7
SLDTEXTSTYLE0
 73
     1
 44
1.0
  0
MTEXT
  5
138
330
1F
100
AcDbEntity
  8
참조1
100
AcDbMText
 10
97.8609739078159
 20
0.1092915733738251
 30
0.0
 40
3.5
 41
0.0
 71
     1
 72
     1
  1
A
  7
SLDTEXTSTYLE0
 73
     1
 44
1.0
  0
INSERT
  5
13F
330
1F
100
AcDbEntity
  8
해칭선
100
AcDbBlockReference
  2
SW_DOWELSYMBOL_0
 10
0.0
 20
0.0
 30
0.0
  0
LINE
  5
298
330
1F
100
AcDbEntity
  8
외형선
  6
Continuous
370
    15
100
AcDbLine
 10
-83.25000000000006
 20
-20.31892507127614
 30
0.0
 11
-83.25000000000006
 21
0.0010749287238809
 31
0.0
  0
LINE
  5
299
330
1F
100
AcDbEntity
  8
외형선
  6
Continuous
370
    15
100
AcDbLine
 10
10.99968921090574
 20
25.40107492872389
 30
0.0
 11
-28.18280000000003
 21
25.40107492872389
 31
0.0
  0
LINE
  5
29A
330
1F
100
AcDbEntity
  8
외형선
  6
Continuous
370
    15
100
AcDbLine
 10
-83.25000000000006
 20
-20.31892507127611
 30
0.0
 11
-83.25000000000006
 21
0.0010749287238809
 31
0.0
  0
LINE
  5
29B
330
1F
100
AcDbEntity
  8
외형선
  6
Continuous
370
    15
100
AcDbLine
 10
8.949890311373693
 20
25.40107492872389
 30
0.0
 11
-28.18280000000003
 21
25.40107492872389
 31
0.0
  0
LINE
  5
29C
330
1F
100
AcDbEntity
  8
외형선
  6
Continuous
370
    15
100
AcDbLine
 10
-82.25000000000004
 20
-25.3989250712761
 30
0.0
 11
-73.72500000000001
 21
-25.3989250712761
 31
0.0
  0
LINE
  5
29D
330
1F
100
AcDbEntity
  8
외형선
  6
Continuous
370
    15
100
AcDbLine
 10
-83.25000000000006
 20
-24.3989250712761
 30
0.0
 11
-82.25000000000004
 21
-25.3989250712761
 31
0.0
  0
LINE
  5
29E
330
1F
100
AcDbEntity
  8
외형선
  6
Continuous
370
    15
100
AcDbLine
 10
-82.25000000000004
 20
19.8638749287239
 30
0.0
 11
-82.25000000000004
 21
-25.3989250712761
 31
0.0
  0
LINE
  5
29F
330
1F
100
AcDbEntity
  8
외형선
  6
Continuous
370
    15
100
AcDbLine
 10
-83.25000000000006
 20
19.8638749287239
 30
0.0
 11
-83.25000000000006
 21
-24.3989250712761
 31
0.0
  0
DIMENSION
  5
2A0
330
1F
100
AcDbEntity
  8
치수문자_일반주서
100
AcDbDimension
  2
*D14
 10
-95.74999999999997
 20
-25.39892507127615
 30
0.0
 11
-95.75000000000006
 21
0.0010749287239094
 31
0.0
 70
   160
  1
%%c<>
 71
     2
 42
50.80000000000001
 52
-270.0
  3
SLDDIMSTYLE0
100
AcDbAlignedDimension
 13
-83.25000000000006
 23
25.40107492872392
 33
0.0
 14
-82.25000000000004
 24
-25.3989250712761
 34
0.0
 50
90.0000000000002
100
AcDbRotatedDimension
1001
ACAD
1000
DSTYLE
1002
{
1070
   171
1070
     6
1070
   273
1070
     7
1002
}
  0
LINE
  5
2A1
330
1F
100
AcDbEntity
  8
외형선
  6
Continuous
370
    15
100
AcDbLine
 10
-47.69000000000004
 20
-14.82382388914331
 30
0.0
 11
-47.69000000000004
 21
14.82597374659107
 31
0.0
  0
LINE
  5
2A2
330
1F
100
AcDbEntity
  8
외형선
  6
Continuous
370
    15
100
AcDbLine
 10
-47.69000000000004
 20
14.82597374659107
 30
0.0
 11
-29.91000000000001
 21
14.82597374659107
 31
0.0
  0
LINE
  5
2A3
330
1F
100
AcDbEntity
  8
외형선
  6
Continuous
370
    15
100
AcDbLine
 10
-47.69000000000004
 20
-14.82382388914331
 30
0.0
 11
-29.91000000000001
 21
-14.82382388914331
 31
0.0
  0
LINE
  5
2A4
330
1F
100
AcDbEntity
  8
외형선
  6
Continuous
370
    15
100
AcDbLine
 10
-29.91000000000001
 20
14.82597374659107
 30
0.0
 11
-29.91000000000001
 21
-14.82382388914331
 31
0.0
  0
SPLINE
  5
2A5
330
1F
100
AcDbEntity
  8
외형선
  6
Continuous
370
    15
100
AcDbSpline
210
0.0
220
0.0
230
1.0
 70
  1064
 71
     3
 72
     9
 73
     5
 74
     3
 42
0.000000001
 43
0.0000000001
 44
0.0
 40
0.0
 40
0.0
 40
0.0
 40
0.0
 40
15.44052883416383
 40
30.88105766832771
 40
30.88105766832771
 40
30.88105766832771
 40
30.88105766832771
 10
-47.69000000000004
 20
14.82597374659107
 30
0.0
 10
-49.84825773012899
 20
9.884340807302017
 30
0.0
 10
-54.1647731903869
 20
0.0010749287238925
 30
0.0
 10
-49.84825773012899
 20
-9.882190949854236
 30
0.0
 10
-47.69000000000004
 20
-14.82382388914331
 30
0.0
 11
-47.69000000000004
 21
14.82597374659107
 31
0.0
 11
-52.00651546025794
 21
0.0010749287239094
 31
0.0
 11
-47.69000000000004
 21
-14.82382388914331
 31
0.0
  0
SPLINE
  5
2A6
330
1F
100
AcDbEntity
  8
외형선
  6
Continuous
370
    15
100
AcDbSpline
210
0.0
220
0.0
230
1.0
 70
  1064
 71
     3
 72
     9
 73
     5
 74
     3
 42
0.000000001
 43
0.0000000001
 44
0.0
 40
0.0
 40
0.0
 40
0.0
 40
0.0
 40
15.44052883416383
 40
30.88105766832771
 40
30.88105766832771
 40
30.88105766832771
 40
30.88105766832771
 10
-29.91000000000001
 20
14.82597374659107
 30
0.0
 10
-27.75174226987106
 20
9.884340807302017
 30
0.0
 10
-23.43522680961316
 20
0.0010749287238925
 30
0.0
 10
-27.75174226987106
 20
-9.882190949854236
 30
0.0
 10
-29.91000000000001
 20
-14.82382388914331
 30
0.0
 11
-29.91000000000001
 21
14.82597374659107
 31
0.0
 11
-25.59348453974211
 21
0.0010749287239094
 31
0.0
 11
-29.91000000000001
 21
-14.82382388914331
 31
0.0
  0
LINE
  5
2A7
330
1F
100
AcDbEntity
  8
외형선
  6
Continuous
370
    15
100
AcDbLine
 10
-61.02500000000002
 20
25.40107492872389
 30
0.0
 11
-61.02500000000002
 21
-25.3989250712761
 31
0.0
  0
LINE
  5
2A8
330
1F
100
AcDbEntity
  8
외형선
  6
Continuous
370
    15
100
AcDbLine
 10
-73.72500000000001
 20
19.8638749287239
 30
0.0
 11
-73.72500000000001
 21
-25.3989250712761
 31
0.0
  0
LINE
  5
2A9
330
1F
100
AcDbEntity
  8
외형선
  6
Continuous
370
    15
100
AcDbLine
 10
-61.02500000000002
 20
-25.3989250712761
 30
0.0
 11
8.949890311373693
 21
-25.39892507127607
 31
0.0
  0
LINE
  5
2AA
330
1F
100
AcDbEntity
  8
외형선
  6
Continuous
370
    15
100
AcDbLine
 10
-61.02500000000002
 20
25.02007492872389
 30
0.0
 11
-61.02500000000002
 21
-25.0179250712761
 31
0.0
  0
LINE
  5
2AB
330
1F
100
AcDbEntity
  8
외형선
  6
Continuous
370
    15
100
AcDbLine
 10
-61.02500000000002
 20
25.02007492872389
 30
0.0
 11
-61.59680376681744
 21
25.02007492872389
 31
0.0
  0
LINE
  5
2AC
330
1F
100
AcDbEntity
  8
외형선
  6
Continuous
370
    15
100
AcDbLine
 10
-61.02500000000002
 20
-25.0179250712761
 30
0.0
 11
-73.72500000000001
 21
-25.0179250712761
 31
0.0
  0
LINE
  5
2AD
330
1F
100
AcDbEntity
  8
외형선
  6
Continuous
370
    15
100
AcDbLine
 10
-48.45199999999998
 20
22.9118749287239
 30
0.0
 11
-30.67200000000001
 21
22.9118749287239
 31
0.0
  0
LINE
  5
2AE
330
1F
100
AcDbEntity
  8
외형선
  6
Continuous
370
    15
100
AcDbLine
 10
-48.45199999999998
 20
22.9118749287239
 30
0.0
 11
-50.94120000000002
 21
25.40107492872389
 31
0.0
  0
LINE
  5
2AF
330
1F
100
AcDbEntity
  8
외형선
  6
Continuous
370
    15
100
AcDbLine
 10
-30.67200000000001
 20
22.9118749287239
 30
0.0
 11
-28.18280000000003
 21
25.40107492872389
 31
0.0
  0
LINE
  5
2B0
330
1F
100
AcDbEntity
  8
외형선
  6
Continuous
370
    15
100
AcDbLine
 10
-62.09180000000002
 20
23.07312647568634
 30
0.0
 11
-62.09180000000002
 21
-6.9409650436275
 31
0.0
  0
LINE
  5
2B1
330
1F
100
AcDbEntity
  8
외형선
  6
Continuous
370
    15
100
AcDbLine
 10
-82.25000000000004
 20
19.8638749287239
 30
0.0
 11
-82.25000000000004
 21
-25.3989250712761
 31
0.0
  0
LINE
  5
2B2
330
1F
100
AcDbEntity
  8
외형선
  6
Continuous
370
    15
100
AcDbLine
 10
-67.92357134821707
 20
19.8638749287239
 30
0.0
 11
-83.25000000000006
 21
19.8638749287239
 31
0.0
  0
ARC
  5
2B3
330
1F
100
AcDbEntity
  8
외형선
  6
Continuous
370
    15
100
AcDbCircle
 10
-67.1718
 20
25.40107492872389
 30
0.0
 40
5.588
100
AcDbArc
 50
262.2683738127856
 51
356.0904364753407
  0
LINE
  5
2B4
330
1F
100
AcDbEntity
  8
외형선
  6
Continuous
370
    15
100
AcDbLine
 10
-71.87515845852458
 20
19.8638749287239
 30
0.0
 11
-71.87515845852458
 21
-6.9409650436275
 31
0.0
  0
ARC
  5
2B5
330
1F
100
AcDbEntity
  8
외형선
  6
Continuous
370
    15
100
AcDbCircle
 10
-66.98347922926233
 20
-6.9409650436275
 30
0.0
 40
4.891679229262294
100
AcDbArc
 50
180.0
 51
0.0
  0
LINE
  5
2B6
330
1F
100
AcDbEntity
  8
외형선
  6
Continuous
370
    15
100
AcDbLine
 10
-50.94120000000002
 20
25.40107492872389
 30
0.0
 11
-61.02500000000002
 21
25.40107492872389
 31
0.0
  0
LINE
  5
2B7
330
1F
100
AcDbEntity
  8
외형선
  6
Continuous
370
    15
100
AcDbLine
 10
-61.02500000000002
 20
-25.3989250712761
 30
0.0
 11
12.00000000000001
 21
-25.3989250712761
 31
0.0
  0
LINE
  5
2B8
330
1F
100
AcDbEntity
  8
외형선
  6
Continuous
370
    15
100
AcDbLine
 10
12.00000000000001
 20
25.40107492872389
 30
0.0
 11
-28.18280000000003
 21
25.40107492872389
 31
0.0
  0
LINE
  5
2B9
330
1F
100
AcDbEntity
  8
외형선
  6
Continuous
370
    15
100
AcDbLine
 10
-78.17000000000006
 20
-25.3989250712761
 30
0.0
 11
-73.72500000000001
 21
-25.3989250712761
 31
0.0
  0
LINE
  5
2BA
330
1F
100
AcDbEntity
  8
외형선
  6
Continuous
370
    15
100
AcDbLine
 10
-50.94120000000002
 20
25.40107492872389
 30
0.0
 11
-61.02500000000002
 21
25.40107492872389
 31
0.0
  0
LINE
  5
2BB
330
1F
100
AcDbEntity
  8
외형선
  6
Continuous
370
    15
100
AcDbLine
 10
-61.02500000000002
 20
-25.3989250712761
 30
0.0
 11
10.99968921090574
 21
-25.3989250712761
 31
0.0
  0
LINE
  5
2BC
330
1F
100
AcDbEntity
  8
외형선
  6
Continuous
370
    15
100
AcDbLine
 10
-61.02500000000002
 20
-25.3989250712761
 30
0.0
 11
11.00022260296949
 21
-25.3989250712761
 31
0.0
  0
LINE
  5
2BD
330
1F
100
AcDbEntity
  8
외형선
  6
Continuous
370
    15
100
AcDbLine
 10
-78.17000000000006
 20
-25.3989250712761
 30
0.0
 11
-73.72500000000001
 21
-25.3989250712761
 31
0.0
  0
LINE
  5
2BE
330
1F
100
AcDbEntity
  8
외형선
  6
Continuous
370
    15
100
AcDbLine
 10
-50.94120000000002
 20
25.40107492872389
 30
0.0
 11
-61.02500000000002
 21
25.40107492872389
 31
0.0
  0
LINE
  5
2BF
330
1F
100
AcDbEntity
  8
외형선
  6
Continuous
370
    15
100
AcDbLine
 10
-78.17000000000006
 20
-25.3989250712761
 30
0.0
 11
-73.72500000000001
 21
-25.3989250712761
 31
0.0
  0
LINE
  5
2C0
330
1F
100
AcDbEntity
  8
외형선
  6
Continuous
370
    15
100
AcDbLine
 10
11.00022260296949
 20
25.40107492872389
 30
0.0
 11
-28.18280000000003
 21
25.40107492872389
 31
0.0
  0
LINE
  5
2C1
330
1F
100
AcDbEntity
  8
외형선
  6
Continuous
370
    15
100
AcDbLine
 10
-61.02500000000002
 20
-25.39892507127612
 30
0.0
 11
11.00009137382501
 21
-25.39892507127612
 31
0.0
  0
LINE
  5
2C2
330
1F
100
AcDbEntity
  8
외형선
  6
Continuous
370
    15
100
AcDbLine
 10
-78.17000000000006
 20
-25.39892507127612
 30
0.0
 11
-73.72500000000001
 21
-25.39892507127612
 31
0.0
  0
LINE
  5
2C3
330
1F
100
AcDbEntity
  8
외형선
  6
Continuous
370
    15
100
AcDbLine
 10
-50.94120000000002
 20
25.40107492872386
 30
0.0
 11
-61.02500000000008
 21
25.40107492872386
 31
0.0
  0
LINE
  5
2C4
330
1F
100
AcDbEntity
  8
외형선
  6
Continuous
370
    15
100
AcDbLine
 10
11.00009137382501
 20
25.40107492872386
 30
0.0
 11
-28.18280000000009
 21
25.40107492872386
 31
0.0
  0
LINE
  5
2C5
330
1F
100
AcDbEntity
  8
외형선
  6
Continuous
370
    15
100
AcDbLine
 10
-50.94119999999999
 20
25.40107492872386
 30
0.0
 11
-61.02500000000005
 21
25.40107492872386
 31
0.0
  0
LINE
  5
2C6
330
1F
100
AcDbEntity
  8
외형선
  6
Continuous
370
    15
100
AcDbLine
 10
-61.02500000000002
 20
-25.3989250712761
 30
0.0
 11
11.00033501722807
 21
-25.3989250712761
 31
0.0
  0
LINE
  5
2C7
330
1F
100
AcDbEntity
  8
외형선
  6
Continuous
370
    15
100
AcDbLine
 10
11.00033501722807
 20
25.40107492872386
 30
0.0
 11
-28.18280000000009
 21
25.40107492872386
 31
0.0
  0
LINE
  5
2C8
330
1F
100
AcDbEntity
  8
외형선
  6
Continuous
370
    15
100
AcDbLine
 10
-78.17000000000006
 20
-25.3989250712761
 30
0.0
 11
-73.72500000000001
 21
-25.3989250712761
 31
0.0
  0
LINE
  5
2C9
330
1F
100
AcDbEntity
  8
외형선
  6
Continuous
370
    15
100
AcDbLine
 10
-50.94119999999999
 20
25.40107492872389
 30
0.0
 11
-61.02500000000002
 21
25.40107492872389
 31
0.0
  0
LINE
  5
2CA
330
1F
100
AcDbEntity
  8
외형선
  6
Continuous
370
    15
100
AcDbLine
 10
10.99968921090574
 20
25.40107492872389
 30
0.0
 11
-28.18280000000003
 21
25.40107492872389
 31
0.0
  0
LINE
  5
2CB
330
1F
100
AcDbEntity
  8
외형선
  6
Continuous
370
    15
100
AcDbLine
 10
-61.02500000000002
 20
-25.3989250712761
 30
0.0
 11
10.99968921090574
 21
-25.3989250712761
 31
0.0
  0
LINE
  5
2CC
330
1F
100
AcDbEntity
  8
외형선
  6
Continuous
370
    15
100
AcDbLine
 10
-78.17000000000006
 20
-25.3989250712761
 30
0.0
 11
-73.72500000000001
 21
-25.3989250712761
 31
0.0
  0
LINE
  5
2FE
330
1F
100
AcDbEntity
  8
외형선
  6
Continuous
370
    15
100
AcDbLine
 10
-50.94120000000002
 20
25.40107492872389
 30
0.0
 11
-61.02500000000004
 21
25.40107492872389
 31
0.0
  0
LINE
  5
2FF
330
1F
100
AcDbEntity
  8
외형선
  6
Continuous
370
    15
100
AcDbLine
 10
-61.02500000000002
 20
-25.3989250712761
 30
0.0
 11
11.00009137382503
 21
-25.3989250712761
 31
0.0
  0
ENDSEC
  0
SECTION
  2
OBJECTS
  0
DICTIONARY
  5
C
330
0
100
AcDbDictionary
281
     1
  3
ACAD_GROUP
350
D
  3
ACAD_IMAGE_VARS
350
163
  3
ACAD_LAYOUT
350
1A
  3
ACAD_MLINESTYLE
350
17
  3
ACAD_PLOTSETTINGS
350
19
  3
ACAD_PLOTSTYLENAME
350
E
  3
ACAD_SCALELIST
350
47
  3
APPDATA
350
161
  3
DWGPROPS
350
323
  0
DICTIONARY
  5
D
102
{ACAD_REACTORS
330
C
102
}
330
C
100
AcDbDictionary
281
     1
  0
RASTERVARIABLES
  5
163
102
{ACAD_REACTORS
330
C
102
}
330
C
100
AcDbRasterVariables
 90
        0
 70
     1
 71
     1
 72
     1
  0
DICTIONARY
  5
1A
102
{ACAD_REACTORS
330
C
102
}
330
C
100
AcDbDictionary
281
     1
  3
Layout1
350
1E
  3
Layout2
350
26
  3
Model
350
22
  0
DICTIONARY
  5
17
102
{ACAD_REACTORS
330
C
102
}
330
C
100
AcDbDictionary
281
     1
  3
Standard
350
18
  0
DICTIONARY
  5
19
102
{ACAD_REACTORS
330
C
102
}
330
C
100
AcDbDictionary
281
     1
  0
ACDBDICTIONARYWDFLT
  5
E
102
{ACAD_REACTORS
330
C
102
}
330
C
100
AcDbDictionary
281
     1
  3
Normal
350
F
100
AcDbDictionaryWithDefault
340
F
  0
DICTIONARY
  5
47
102
{ACAD_REACTORS
330
C
102
}
330
C
100
AcDbDictionary
281
     1
  3
A0
350
48
  3
A1
350
49
  3
A2
350
4A
  3
A3
350
4B
  3
A4
350
4C
  3
A5
350
4D
  3
A6
350
4E
  3
A7
350
4F
  3
A8
350
50
  3
A9
350
51
  3
B0
350
52
  3
B1
350
53
  3
B2
350
54
  3
B3
350
55
  3
B4
350
56
  3
B5
350
57
  3
B6
350
58
  3
B7
350
59
  3
B8
350
5A
  3
B9
350
5B
  3
C0
350
5C
  3
C1
350
5D
  3
C2
350
5E
  3
C3
350
5F
  3
C4
350
60
  3
C5
350
61
  3
C6
350
62
  3
C7
350
63
  3
C8
350
64
  3
C9
350
65
  3
D0
350
66
  3
D1
350
67
  3
D2
350
68
  0
DICTIONARY
  5
161
102
{ACAD_REACTORS
330
C
102
}
330
C
100
AcDbDictionary
281
     1
  0
XRECORD
  5
323
102
{ACAD_REACTORS
330
C
102
}
330
C
100
AcDbXrecord
280
     1
  1
DWGPROPS COOKIE
  2

  3

  4

  6

  7

  8
12016016
  9

300
=
301
=
302
=
303
=
304
=
305
=
306
=
307
=
308
=
309
=
 40
0.0
 41
2458323.066321285
 42
2458323.366826516
  1

 90
        0
  0
LAYOUT
  5
1E
102
{ACAD_REACTORS
330
1A
102
}
330
1A
100
AcDbPlotSettings
  1

  2
none_device
  4

  6

 40
0.0
 41
0.0
 42
0.0
 43
0.0
 44
0.0
 45
0.0
 46
0.0
 47
0.0
 48
0.0
 49
0.0
140
0.0
141
0.0
142
1.0
143
1.0
 70
   688
 72
     1
 73
     0
 74
     5
  7

 75
    16
147
1.0
148
0.0
149
0.0
100
AcDbLayout
  1
Layout1
 70
     1
 71
     1
 10
0.0
 20
0.0
 11
420.0
 21
297.0
 12
0.0
 22
0.0
 32
0.0
 14
1.000000000000000E+20
 24
1.000000000000000E+20
 34
1.000000000000000E+20
 15
-1.000000000000000E+20
 25
-1.000000000000000E+20
 35
-1.000000000000000E+20
146
0.0
 13
0.0
 23
0.0
 33
0.0
 16
1.0
 26
0.0
 36
0.0
 17
0.0
 27
1.0
 37
0.0
 76
     0
330
1B
  0
LAYOUT
  5
26
102
{ACAD_REACTORS
330
1A
102
}
330
1A
100
AcDbPlotSettings
  1

  2
none_device
  4

  6

 40
0.0
 41
0.0
 42
0.0
 43
0.0
 44
0.0
 45
0.0
 46
0.0
 47
0.0
 48
0.0
 49
0.0
140
0.0
141
0.0
142
1.0
143
1.0
 70
   688
 72
     1
 73
     0
 74
     5
  7

 75
    16
147
1.0
148
0.0
149
0.0
100
AcDbLayout
  1
Layout2
 70
     1
 71
     2
 10
0.0
 20
0.0
 11
0.0
 21
0.0
 12
0.0
 22
0.0
 32
0.0
 14
0.0
 24
0.0
 34
0.0
 15
0.0
 25
0.0
 35
0.0
146
0.0
 13
0.0
 23
0.0
 33
0.0
 16
1.0
 26
0.0
 36
0.0
 17
0.0
 27
1.0
 37
0.0
 76
     0
330
23
  0
LAYOUT
  5
22
102
{ACAD_REACTORS
330
1A
102
}
330
1A
100
AcDbPlotSettings
  1

  2
none_device
  4
ANSI_A_(11.00_x_8.50_Inches)
  6

 40
6.35
 41
19.05
 42
6.35000508
 43
19.05000254
 44
279.4
 45
215.9
 46
51.15684376918319
 47
75.68960176369822
 48
0.0
 49
0.0
140
0.0
141
0.0
142
0.0354722685982606
143
1.0
 70
  1696
 72
     0
 73
     0
 74
     0
  7

 75
     0
147
0.0235690232323232
148
0.0
149
0.0
100
AcDbLayout
  1
Model
 70
     1
 71
     0
 10
0.0
 20
0.0
 11
420.0
 21
297.0
 12
0.0
 22
0.0
 32
0.0
 14
-100.1250000000001
 24
-49.97073246008785
 34
0.0
 15
184.0065833333335
 25
82.95572736996911
 35
0.0
146
0.0
 13
0.0
 23
0.0
 33
0.0
 16
1.0
 26
0.0
 36
0.0
 17
0.0
 27
1.0
 37
0.0
 76
     0
330
1F
331
29
  0
MLINESTYLE
  5
18
102
{ACAD_REACTORS
330
17
102
}
330
17
100
AcDbMlineStyle
  2
Standard
 70
     0
  3

 62
   256
 51
90.0
 52
90.0
 71
     2
 49
0.5
 62
   256
  6
BYLAYER
 49
-0.5
 62
   256
  6
BYLAYER
  0
ACDBPLACEHOLDER
  5
F
102
{ACAD_REACTORS
330
E
102
}
330
E
  0
SCALE
  5
48
102
{ACAD_REACTORS
330
47
102
}
330
47
100
AcDbScale
 70
     0
300
1:1
140
1.0
141
1.0
290
     1
  0
SCALE
  5
49
102
{ACAD_REACTORS
330
47
102
}
330
47
100
AcDbScale
 70
     0
300
1:2
140
1.0
141
2.0
290
     0
  0
SCALE
  5
4A
102
{ACAD_REACTORS
330
47
102
}
330
47
100
AcDbScale
 70
     0
300
1:4
140
1.0
141
4.0
290
     0
  0
SCALE
  5
4B
102
{ACAD_REACTORS
330
47
102
}
330
47
100
AcDbScale
 70
     0
300
1:5
140
1.0
141
5.0
290
     0
  0
SCALE
  5
4C
102
{ACAD_REACTORS
330
47
102
}
330
47
100
AcDbScale
 70
     0
300
1:8
140
1.0
141
8.0
290
     0
  0
SCALE
  5
4D
102
{ACAD_REACTORS
330
47
102
}
330
47
100
AcDbScale
 70
     0
300
1:10
140
1.0
141
10.0
290
     0
  0
SCALE
  5
4E
102
{ACAD_REACTORS
330
47
102
}
330
47
100
AcDbScale
 70
     0
300
1:16
140
1.0
141
16.0
290
     0
  0
SCALE
  5
4F
102
{ACAD_REACTORS
330
47
102
}
330
47
100
AcDbScale
 70
     0
300
1:20
140
1.0
141
20.0
290
     0
  0
SCALE
  5
50
102
{ACAD_REACTORS
330
47
102
}
330
47
100
AcDbScale
 70
     0
300
1:30
140
1.0
141
30.0
290
     0
  0
SCALE
  5
51
102
{ACAD_REACTORS
330
47
102
}
330
47
100
AcDbScale
 70
     0
300
1:40
140
1.0
141
40.0
290
     0
  0
SCALE
  5
52
102
{ACAD_REACTORS
330
47
102
}
330
47
100
AcDbScale
 70
     0
300
1:50
140
1.0
141
50.0
290
     0
  0
SCALE
  5
53
102
{ACAD_REACTORS
330
47
102
}
330
47
100
AcDbScale
 70
     0
300
1:100
140
1.0
141
100.0
290
     0
  0
SCALE
  5
54
102
{ACAD_REACTORS
330
47
102
}
330
47
100
AcDbScale
 70
     0
300
2:1
140
2.0
141
1.0
290
     0
  0
SCALE
  5
55
102
{ACAD_REACTORS
330
47
102
}
330
47
100
AcDbScale
 70
     0
300
4:1
140
4.0
141
1.0
290
     0
  0
SCALE
  5
56
102
{ACAD_REACTORS
330
47
102
}
330
47
100
AcDbScale
 70
     0
300
8:1
140
8.0
141
1.0
290
     0
  0
SCALE
  5
57
102
{ACAD_REACTORS
330
47
102
}
330
47
100
AcDbScale
 70
     0
300
10:1
140
10.0
141
1.0
290
     0
  0
SCALE
  5
58
102
{ACAD_REACTORS
330
47
102
}
330
47
100
AcDbScale
 70
     0
300
100:1
140
100.0
141
1.0
290
     0
  0
SCALE
  5
59
102
{ACAD_REACTORS
330
47
102
}
330
47
100
AcDbScale
 70
     0
300
1/128" = 1'-0"
140
0.0078125
141
12.0
290
     0
  0
SCALE
  5
5A
102
{ACAD_REACTORS
330
47
102
}
330
47
100
AcDbScale
 70
     0
300
1/64" = 1'-0"
140
0.015625
141
12.0
290
     0
  0
SCALE
  5
5B
102
{ACAD_REACTORS
330
47
102
}
330
47
100
AcDbScale
 70
     0
300
1/32" = 1'-0"
140
0.03125
141
12.0
290
     0
  0
SCALE
  5
5C
102
{ACAD_REACTORS
330
47
102
}
330
47
100
AcDbScale
 70
     0
300
1/16" = 1'-0"
140
0.0625
141
12.0
290
     0
  0
SCALE
  5
5D
102
{ACAD_REACTORS
330
47
102
}
330
47
100
AcDbScale
 70
     0
300
3/32" = 1'-0"
140
0.09375
141
12.0
290
     0
  0
SCALE
  5
5E
102
{ACAD_REACTORS
330
47
102
}
330
47
100
AcDbScale
 70
     0
300
1/8" = 1'-0"
140
0.125
141
12.0
290
     0
  0
SCALE
  5
5F
102
{ACAD_REACTORS
330
47
102
}
330
47
100
AcDbScale
 70
     0
300
3/16" = 1'-0"
140
0.1875
141
12.0
290
     0
  0
SCALE
  5
60
102
{ACAD_REACTORS
330
47
102
}
330
47
100
AcDbScale
 70
     0
300
1/4" = 1'-0"
140
0.25
141
12.0
290
     0
  0
SCALE
  5
61
102
{ACAD_REACTORS
330
47
102
}
330
47
100
AcDbScale
 70
     0
300
3/8" = 1'-0"
140
0.375
141
12.0
290
     0
  0
SCALE
  5
62
102
{ACAD_REACTORS
330
47
102
}
330
47
100
AcDbScale
 70
     0
300
1/2" = 1'-0"
140
0.5
141
12.0
290
     0
  0
SCALE
  5
63
102
{ACAD_REACTORS
330
47
102
}
330
47
100
AcDbScale
 70
     0
300
3/4" = 1'-0"
140
0.75
141
12.0
290
     0
  0
SCALE
  5
64
102
{ACAD_REACTORS
330
47
102
}
330
47
100
AcDbScale
 70
     0
300
1" = 1'-0"
140
1.0
141
12.0
290
     0
  0
SCALE
  5
65
102
{ACAD_REACTORS
330
47
102
}
330
47
100
AcDbScale
 70
     0
300
1-1/2" = 1'-0"
140
1.5
141
12.0
290
     0
  0
SCALE
  5
66
102
{ACAD_REACTORS
330
47
102
}
330
47
100
AcDbScale
 70
     0
300
3" = 1'-0"
140
3.0
141
12.0
290
     0
  0
SCALE
  5
67
102
{ACAD_REACTORS
330
47
102
}
330
47
100
AcDbScale
 70
     0
300
6" = 1'-0"
140
6.0
141
12.0
290
     0
  0
SCALE
  5
68
102
{ACAD_REACTORS
330
47
102
}
330
47
100
AcDbScale
 70
     0
300
1'-0" = 1'-0"
140
12.0
141
12.0
290
     0
  0
ENDSEC
  0
EOF
