  0
SECTION
  2
HEADER
  9
$ACADVER
  1
AC1015
  9
$ACADMAINTVER
 70
     6
  9
$DWGCODEPAGE
  3
ANSI_949
  9
$INSBASE
 10
0.0
 20
0.0
 30
0.0
  9
$EXTMIN
 10
-61.89000000000005
 20
-49.97073246008785
 30
0.0
  9
$EXTMAX
 10
121.6296379967034
 20
49.94746856623912
 30
0.0
  9
$LIMMIN
 10
0.0
 20
0.0
  9
$LIMMAX
 10
420.0
 20
297.0
  9
$ORTHOMODE
 70
     0
  9
$REGENMODE
 70
     1
  9
$FILLMODE
 70
     1
  9
$QTEXTMODE
 70
     0
  9
$MIRRTEXT
 70
     1
  9
$LTSCALE
 40
1.0
  9
$ATTMODE
 70
     1
  9
$TEXTSIZE
 40
3.5
  9
$TRACEWID
 40
1.0
  9
$TEXTSTYLE
  7
Standard
  9
$CLAYER
  8
0
  9
$CELTYPE
  6
ByLayer
  9
$CECOLOR
 62
   256
  9
$CELTSCALE
 40
1.0
  9
$DISPSILH
 70
     0
  9
$DIMSCALE
 40
1.0
  9
$DIMASZ
 40
3.302
  9
$DIMEXO
 40
1.0
  9
$DIMDLI
 40
3.75
  9
$DIMRND
 40
0.0
  9
$DIMDLE
 40
0.0
  9
$DIMEXE
 40
1.0
  9
$DIMTP
 40
0.0
  9
$DIMTM
 40
0.0
  9
$DIMTXT
 40
3.5
  9
$DIMCEN
 40
2.5
  9
$DIMTSZ
 40
0.0
  9
$DIMTOL
 70
     0
  9
$DIMLIM
 70
     0
  9
$DIMTIH
 70
     1
  9
$DIMTOH
 70
     1
  9
$DIMSE1
 70
     0
  9
$DIMSE2
 70
     0
  9
$DIMTAD
 70
     1
  9
$DIMZIN
 70
     0
  9
$DIMBLK
  1

  9
$DIMASO
 70
     1
  9
$DIMSHO
 70
     1
  9
$DIMPOST
  1

  9
$DIMAPOST
  1

  9
$DIMALT
 70
     0
  9
$DIMALTD
 70
     3
  9
$DIMALTF
 40
0.0393700787401575
  9
$DIMLFAC
 40
1.0
  9
$DIMTOFL
 70
     1
  9
$DIMTVP
 40
0.0
  9
$DIMTIX
 70
     0
  9
$DIMSOXD
 70
     0
  9
$DIMSAH
 70
     0
  9
$DIMBLK1
  1

  9
$DIMBLK2
  1

  9
$DIMSTYLE
  2
ISO-25
  9
$DIMCLRD
 70
     0
  9
$DIMCLRE
 70
     0
  9
$DIMCLRT
 70
     0
  9
$DIMTFAC
 40
1.0
  9
$DIMGAP
 40
1.524
  9
$DIMJUST
 70
     0
  9
$DIMSD1
 70
     0
  9
$DIMSD2
 70
     0
  9
$DIMTOLJ
 70
     0
  9
$DIMTZIN
 70
     0
  9
$DIMALTZ
 70
     0
  9
$DIMALTTZ
 70
     0
  9
$DIMUPT
 70
     0
  9
$DIMDEC
 70
     2
  9
$DIMTDEC
 70
     2
  9
$DIMALTU
 70
     2
  9
$DIMALTTD
 70
     3
  9
$DIMTXSTY
  7
Standard
  9
$DIMAUNIT
 70
     0
  9
$DIMADEC
 70
     2
  9
$DIMALTRND
 40
0.0
  9
$DIMAZIN
 70
     0
  9
$DIMDSEP
 70
    44
  9
$DIMATFIT
 70
     3
  9
$DIMFRAC
 70
     0
  9
$DIMLDRBLK
  1

  9
$DIMLUNIT
 70
     2
  9
$DIMLWD
 70
    -2
  9
$DIMLWE
 70
    -2
  9
$DIMTMOVE
 70
     0
  9
$LUNITS
 70
     2
  9
$LUPREC
 70
     2
  9
$SKETCHINC
 40
1.0
  9
$FILLETRAD
 40
10.0
  9
$AUNITS
 70
     0
  9
$AUPREC
 70
     2
  9
$MENU
  1
.
  9
$ELEVATION
 40
0.0
  9
$PELEVATION
 40
0.0
  9
$THICKNESS
 40
0.0
  9
$LIMCHECK
 70
     0
  9
$CHAMFERA
 40
0.0
  9
$CHAMFERB
 40
0.0
  9
$CHAMFERC
 40
0.0
  9
$CHAMFERD
 40
0.0
  9
$SKPOLY
 70
     0
  9
$TDCREATE
 40
2458323.440474109
  9
$TDUCREATE
 40
2458323.065474109
  9
$TDUPDATE
 40
2458323.74227184
  9
$TDUUPDATE
 40
2458323.36727184
  9
$TDINDWG
 40
0.0005063194
  9
$TDUSRTIMER
 40
2458323.367237118
  9
$USRTIMER
 70
     1
  9
$ANGBASE
 50
0.0
  9
$ANGDIR
 70
     0
  9
$PDMODE
 70
     0
  9
$PDSIZE
 40
-1.0
  9
$PLINEWID
 40
0.0
  9
$SPLFRAME
 70
     0
  9
$SPLINETYPE
 70
     6
  9
$SPLINESEGS
 70
     8
  9
$HANDSEED
  5
358
  9
$SURFTAB1
 70
     6
  9
$SURFTAB2
 70
     6
  9
$SURFTYPE
 70
     6
  9
$SURFU
 70
     6
  9
$SURFV
 70
     6
  9
$UCSBASE
  2

  9
$UCSNAME
  2

  9
$UCSORG
 10
0.0
 20
0.0
 30
0.0
  9
$UCSXDIR
 10
1.0
 20
0.0
 30
0.0
  9
$UCSYDIR
 10
0.0
 20
1.0
 30
0.0
  9
$UCSORTHOREF
  2

  9
$UCSORTHOVIEW
 70
     0
  9
$UCSORGTOP
 10
0.0
 20
0.0
 30
0.0
  9
$UCSORGBOTTOM
 10
0.0
 20
0.0
 30
0.0
  9
$UCSORGLEFT
 10
0.0
 20
0.0
 30
0.0
  9
$UCSORGRIGHT
 10
0.0
 20
0.0
 30
0.0
  9
$UCSORGFRONT
 10
0.0
 20
0.0
 30
0.0
  9
$UCSORGBACK
 10
0.0
 20
0.0
 30
0.0
  9
$PUCSBASE
  2

  9
$PUCSNAME
  2

  9
$PUCSORG
 10
0.0
 20
0.0
 30
0.0
  9
$PUCSXDIR
 10
1.0
 20
0.0
 30
0.0
  9
$PUCSYDIR
 10
0.0
 20
1.0
 30
0.0
  9
$PUCSORTHOREF
  2

  9
$PUCSORTHOVIEW
 70
     0
  9
$PUCSORGTOP
 10
0.0
 20
0.0
 30
0.0
  9
$PUCSORGBOTTOM
 10
0.0
 20
0.0
 30
0.0
  9
$PUCSORGLEFT
 10
0.0
 20
0.0
 30
0.0
  9
$PUCSORGRIGHT
 10
0.0
 20
0.0
 30
0.0
  9
$PUCSORGFRONT
 10
0.0
 20
0.0
 30
0.0
  9
$PUCSORGBACK
 10
0.0
 20
0.0
 30
0.0
  9
$USERI1
 70
     0
  9
$USERI2
 70
     0
  9
$USERI3
 70
     0
  9
$USERI4
 70
     0
  9
$USERI5
 70
     0
  9
$USERR1
 40
0.0
  9
$USERR2
 40
0.0
  9
$USERR3
 40
0.0
  9
$USERR4
 40
0.0
  9
$USERR5
 40
0.0
  9
$WORLDVIEW
 70
     1
  9
$SHADEDGE
 70
     3
  9
$SHADEDIF
 70
    70
  9
$TILEMODE
 70
     1
  9
$MAXACTVP
 70
    64
  9
$PINSBASE
 10
0.0
 20
0.0
 30
0.0
  9
$PLIMCHECK
 70
     0
  9
$PEXTMIN
 10
1.000000000000000E+20
 20
1.000000000000000E+20
 30
1.000000000000000E+20
  9
$PEXTMAX
 10
-1.000000000000000E+20
 20
-1.000000000000000E+20
 30
-1.000000000000000E+20
  9
$PLIMMIN
 10
0.0
 20
0.0
  9
$PLIMMAX
 10
0.0
 20
0.0
  9
$UNITMODE
 70
     0
  9
$VISRETAIN
 70
     1
  9
$PLINEGEN
 70
     0
  9
$PSLTSCALE
 70
     1
  9
$TREEDEPTH
 70
  3020
  9
$CMLSTYLE
  2
Standard
  9
$CMLJUST
 70
     0
  9
$CMLSCALE
 40
20.0
  9
$PROXYGRAPHICS
 70
     1
  9
$MEASUREMENT
 70
     1
  9
$CELWEIGHT
370
    -1
  9
$ENDCAPS
280
     0
  9
$JOINSTYLE
280
     0
  9
$LWDISPLAY
290
     1
  9
$INSUNITS
 70
     4
  9
$HYPERLINKBASE
  1

  9
$STYLESHEET
  1

  9
$XEDIT
290
     1
  9
$CEPSNTYPE
380
     0
  9
$PSTYLEMODE
290
     1
  9
$FINGERPRINTGUID
  2
{B9AEE1D5-3C2C-4A0A-9B45-119689E08641}
  9
$VERSIONGUID
  2
{FAEB1C32-E019-11D5-929B-00C0DF256EC4}
  9
$EXTNAMES
290
     1
  9
$PSVPSCALE
 40
0.0
  9
$OLESTARTUP
290
     0
  0
ENDSEC
  0
SECTION
  2
CLASSES
  0
CLASS
  1
ACDBDICTIONARYWDFLT
  2
AcDbDictionaryWithDefault
  3
ObjectDBX Classes
 90
        0
280
     0
281
     0
  0
CLASS
  1
VISUALSTYLE
  2
AcDbVisualStyle
  3
ObjectDBX Classes
 90
     4095
280
     0
281
     0
  0
CLASS
  1
MATERIAL
  2
AcDbMaterial
  3
ObjectDBX Classes
 90
     1153
280
     0
281
     0
  0
CLASS
  1
SCALE
  2
AcDbScale
  3
ObjectDBX Classes
 90
     1153
280
     0
281
     0
  0
CLASS
  1
SUN
  2
AcDbSun
  3
SCENEOE
 90
     1153
280
     0
281
     0
  0
CLASS
  1
ACDBPLACEHOLDER
  2
AcDbPlaceHolder
  3
ObjectDBX Classes
 90
        0
280
     0
281
     0
  0
CLASS
  1
LAYOUT
  2
AcDbLayout
  3
ObjectDBX Classes
 90
        0
280
     0
281
     0
  0
CLASS
  1
TABLESTYLE
  2
AcDbTableStyle
  3
ObjectDBX Classes
 90
     4095
280
     0
281
     0
  0
CLASS
  1
MLEADERSTYLE
  2
AcDbMLeaderStyle
  3
ACDB_MLEADERSTYLE_CLASS
 90
     4095
280
     0
281
     0
  0
CLASS
  1
RASTERVARIABLES
  2
AcDbRasterVariables
  3
ISM
 90
        0
280
     0
281
     0
  0
ENDSEC
  0
SECTION
  2
TABLES
  0
TABLE
  2
VPORT
  5
8
330
0
100
AcDbSymbolTable
 70
     1
  0
VPORT
  5
29
330
8
100
AcDbSymbolTableRecord
100
AcDbViewportTableRecord
  2
*Active
 70
     0
 10
0.0
 20
0.0
 11
1.0
 21
1.0
 12
6.231972997940957
 22
20.95827205075449
 13
0.0
 23
0.0
 14
10.0
 24
10.0
 15
10.0
 25
10.0
 16
0.0
 26
0.0
 36
1.0
 17
0.0
 27
0.0
 37
0.0
 40
154.9200240844468
 41
1.632093933463796
 42
50.0
 43
0.0
 44
0.0
 50
0.0
 51
0.0
 71
    16
 72
  2000
 73
     1
 74
     3
 75
     0
 76
     0
 77
     0
 78
     0
281
     0
 65
     1
110
0.0
120
0.0
130
0.0
111
1.0
121
0.0
131
0.0
112
0.0
122
1.0
132
0.0
 79
     0
146
0.0
  0
ENDTAB
  0
TABLE
  2
LTYPE
  5
5
330
0
100
AcDbSymbolTable
 70
     6
  0
LTYPE
  5
14
330
5
100
AcDbSymbolTableRecord
100
AcDbLinetypeTableRecord
  2
ByBlock
 70
     0
  3

 72
    65
 73
     0
 40
0.0
  0
LTYPE
  5
15
330
5
100
AcDbSymbolTableRecord
100
AcDbLinetypeTableRecord
  2
ByLayer
 70
     0
  3

 72
    65
 73
     0
 40
0.0
  0
LTYPE
  5
16
330
5
100
AcDbSymbolTableRecord
100
AcDbLinetypeTableRecord
  2
Continuous
 70
     0
  3
Solid line
 72
    65
 73
     0
 40
0.0
  0
LTYPE
  5
6A
330
5
100
AcDbSymbolTableRecord
100
AcDbLinetypeTableRecord
  2
HIDDEN
 70
     0
  3
Hidden __ __ __ __ __ __ __ __ __ __ __ __ __ __
 72
    65
 73
     2
 40
1.905
 49
1.27
 74
     0
 49
-0.635
 74
     0
  0
LTYPE
  5
6B
330
5
100
AcDbSymbolTableRecord
100
AcDbLinetypeTableRecord
  2
PHANTOM
 70
     0
  3
Phantom ______  __  __  ______  __  __  ______
 72
    65
 73
     6
 40
12.7
 49
6.35
 74
     0
 49
-1.27
 74
     0
 49
1.27
 74
     0
 49
-1.27
 74
     0
 49
1.27
 74
     0
 49
-1.27
 74
     0
  0
LTYPE
  5
6C
330
5
100
AcDbSymbolTableRecord
100
AcDbLinetypeTableRecord
  2
CENTER
 70
     0
  3
Center ____ _ ____ _ ____ _ ____ _ ____ _ ____
 72
    65
 73
     4
 40
10.16
 49
6.35
 74
     0
 49
-1.27
 74
     0
 49
1.27
 74
     0
 49
-1.27
 74
     0
  0
LTYPE
  5
6D
330
5
100
AcDbSymbolTableRecord
100
AcDbLinetypeTableRecord
  2
CENTERX2
 70
     0
  3
Center (2x) ________  __  ________  __  _____
 72
    65
 73
     4
 40
20.32
 49
12.7
 74
     0
 49
-2.54
 74
     0
 49
2.54
 74
     0
 49
-2.54
 74
     0
  0
LTYPE
  5
6E
330
5
100
AcDbSymbolTableRecord
100
AcDbLinetypeTableRecord
  2
DOT2
 70
     0
  3
Dot (.5x) ........................................
 72
    65
 73
     2
 40
0.635
 49
0.0
 74
     0
 49
-0.635
 74
     0
  0
ENDTAB
  0
TABLE
  2
LAYER
  5
2
102
{ACAD_XDICTIONARY
360
22F
102
}
330
0
100
AcDbSymbolTable
 70
    18
  0
LAYER
  5
10
330
2
100
AcDbSymbolTableRecord
100
AcDbLayerTableRecord
  2
0
 70
     0
 62
     7
  6
Continuous
370
    -3
390
F
  0
LAYER
  5
6F
330
2
100
AcDbSymbolTableRecord
100
AcDbLayerTableRecord
  2
FORMAT
 70
     0
 62
     2
  6
Continuous
370
    -3
390
F
  0
LAYER
  5
70
330
2
100
AcDbSymbolTableRecord
100
AcDbLayerTableRecord
  2
외형선
 70
     0
 62
     4
  6
Continuous
370
    30
390
F
  0
LAYER
  5
71
330
2
100
AcDbSymbolTableRecord
100
AcDbLayerTableRecord
  2
숨은선
 70
     0
 62
     2
  6
HIDDEN
370
    15
390
F
  0
LAYER
  5
72
330
2
100
AcDbSymbolTableRecord
100
AcDbLayerTableRecord
  2
중심선
 70
     0
 62
     1
  6
CENTERX2
370
    -3
390
F
  0
LAYER
  5
73
330
2
100
AcDbSymbolTableRecord
100
AcDbLayerTableRecord
  2
파단선
 70
     0
 62
     4
  6
Continuous
370
    -3
390
F
  0
LAYER
  5
74
330
2
100
AcDbSymbolTableRecord
100
AcDbLayerTableRecord
  2
해칭선
 70
     0
 62
   100
  6
Continuous
370
    -3
390
F
  0
LAYER
  5
75
330
2
100
AcDbSymbolTableRecord
100
AcDbLayerTableRecord
  2
가는실선
 70
     0
 62
     4
  6
Continuous
370
    -3
390
F
  0
LAYER
  5
76
330
2
100
AcDbSymbolTableRecord
100
AcDbLayerTableRecord
  2
치수_보조선
 70
     0
 62
     4
  6
Continuous
370
    -3
390
F
  0
LAYER
  5
77
330
2
100
AcDbSymbolTableRecord
100
AcDbLayerTableRecord
  2
치수문자_일반주서
 70
     0
 62
     7
  6
Continuous
370
    15
390
F
  0
LAYER
  5
78
330
2
100
AcDbSymbolTableRecord
100
AcDbLayerTableRecord
  2
개별주서
 70
     0
 62
   100
  6
Continuous
370
    30
390
F
  0
LAYER
  5
79
330
2
100
AcDbSymbolTableRecord
100
AcDbLayerTableRecord
  2
중간선
 70
     0
 62
     2
  6
Continuous
370
    15
390
F
  0
LAYER
  5
7A
330
2
100
AcDbSymbolTableRecord
100
AcDbLayerTableRecord
  2
윤곽선
 70
     0
 62
     3
  6
Continuous
370
    40
390
F
  0
LAYER
  5
7B
330
2
100
AcDbSymbolTableRecord
100
AcDbLayerTableRecord
  2
중심마크
 70
     0
 62
   100
  6
Continuous
370
    30
390
F
  0
LAYER
  5
7C
330
2
100
AcDbSymbolTableRecord
100
AcDbLayerTableRecord
  2
가상선
 70
     0
 62
     4
  6
PHANTOM
370
    -3
390
F
  0
LAYER
  5
7D
330
2
100
AcDbSymbolTableRecord
100
AcDbLayerTableRecord
  2
특수지정선
 70
     0
 62
     5
  6
CENTERX2
370
    60
390
F
  0
LAYER
  5
7E
330
2
100
AcDbSymbolTableRecord
100
AcDbLayerTableRecord
  2
참조1
 70
     0
 62
    -4
  6
Continuous
370
    -3
390
F
  0
LAYER
  5
174
330
2
100
AcDbSymbolTableRecord
100
AcDbLayerTableRecord
  2
Defpoints
 70
     0
 62
     7
  6
Continuous
290
     0
370
    -3
390
F
  0
ENDTAB
  0
TABLE
  2
STYLE
  5
3
330
0
100
AcDbSymbolTable
 70
     2
  0
STYLE
  5
11
330
3
100
AcDbSymbolTableRecord
100
AcDbTextStyleTableRecord
  2
Standard
 70
     0
 40
0.0
 41
1.0
 50
0.0
 71
     0
 42
3.5
  3
txt
  4

  0
STYLE
  5
94
330
3
100
AcDbSymbolTableRecord
100
AcDbTextStyleTableRecord
  2
SLDTEXTSTYLE0
 70
     0
 40
0.0
 41
0.75
 50
0.0
 71
     0
 42
3.5
  3
TXT
  4

  0
ENDTAB
  0
TABLE
  2
VIEW
  5
6
330
0
100
AcDbSymbolTable
 70
     0
  0
ENDTAB
  0
TABLE
  2
UCS
  5
7
330
0
100
AcDbSymbolTable
 70
     0
  0
ENDTAB
  0
TABLE
  2
APPID
  5
9
330
0
100
AcDbSymbolTable
 70
     1
  0
APPID
  5
12
330
9
100
AcDbSymbolTableRecord
100
AcDbRegAppTableRecord
  2
ACAD
 70
     0
  0
ENDTAB
  0
TABLE
  2
DIMSTYLE
  5
A
330
0
100
AcDbSymbolTable
 70
     4
100
AcDbDimStyleTable
  0
DIMSTYLE
105
27
330
A
100
AcDbSymbolTableRecord
100
AcDbDimStyleTableRecord
  2
ISO-25
 70
     0
 41
2.5
 42
0.625
 43
3.75
 44
1.25
 73
     0
 74
     0
 77
     1
 78
     8
140
2.5
141
2.5
143
0.03937007874016
147
0.625
171
     3
172
     1
178
     0
271
     2
272
     2
274
     3
278
    44
283
     0
284
     8
340
11
  0
DIMSTYLE
105
F2
102
{ACAD_REACTORS
330
F1
330
106
330
11A
330
12E
102
}
330
A
100
AcDbSymbolTableRecord
100
AcDbDimStyleTableRecord
  2
SLDDIMSTYLE0
 70
     0
 41
3.302
 44
0.0
 45
0.000000001
 73
     0
 74
     0
 77
     1
 78
    12
 79
     3
140
3.5
143
0.0393700787401575
147
0.875
148
0.000000001
170
     1
172
     1
173
     1
178
     0
271
     2
272
     2
276
     2
284
    12
289
     0
340
94
  0
DIMSTYLE
105
107
330
A
100
AcDbSymbolTableRecord
100
AcDbDimStyleTableRecord
  2
SLDDIMSTYLE1
 70
     0
 41
3.302
 44
0.0
 45
0.000000001
 73
     0
 74
     0
 77
     1
 78
     4
 79
     1
140
3.5
143
0.0393700787401575
147
0.875
148
0.000000001
170
     1
173
     1
178
     0
271
     2
272
     2
276
     2
284
    12
340
94
  0
DIMSTYLE
105
11B
330
A
100
AcDbSymbolTableRecord
100
AcDbDimStyleTableRecord
  2
SLDDIMSTYLE2
 70
     0
 41
3.302
 44
0.0
 45
0.000000001
 73
     0
 74
     0
 77
     1
 78
    12
 79
     3
140
3.5
143
0.0393700787401575
147
0.875
148
0.000000001
170
     1
173
     1
178
     0
271
     2
272
     2
276
     2
284
    12
340
94
  0
ENDTAB
  0
TABLE
  2
BLOCK_RECORD
  5
1
330
0
100
AcDbSymbolTable
 70
    15
  0
BLOCK_RECORD
  5
1F
330
1
100
AcDbSymbolTableRecord
100
AcDbBlockTableRecord
  2
*Model_Space
340
22
  0
BLOCK_RECORD
  5
1B
330
1
100
AcDbSymbolTableRecord
100
AcDbBlockTableRecord
  2
*Paper_Space
340
1E
  0
BLOCK_RECORD
  5
23
330
1
100
AcDbSymbolTableRecord
100
AcDbBlockTableRecord
  2
*Paper_Space0
340
26
  0
BLOCK_RECORD
  5
7F
330
1
100
AcDbSymbolTableRecord
100
AcDbBlockTableRecord
  2
블럭10
340
0
102
{BLKREFS
331
EA
102
}
  0
BLOCK_RECORD
  5
F3
330
1
100
AcDbSymbolTableRecord
100
AcDbBlockTableRecord
  2
_D
340
0
  0
BLOCK_RECORD
  5
108
330
1
100
AcDbSymbolTableRecord
100
AcDbBlockTableRecord
  2
_D_1
340
0
  0
BLOCK_RECORD
  5
11C
330
1
100
AcDbSymbolTableRecord
100
AcDbBlockTableRecord
  2
_D_2
340
0
  0
BLOCK_RECORD
  5
12F
330
1
100
AcDbSymbolTableRecord
100
AcDbBlockTableRecord
  2
_D_3
340
0
  0
BLOCK_RECORD
  5
148
330
1
100
AcDbSymbolTableRecord
100
AcDbBlockTableRecord
  2
SW_DOWELSYMBOL_0
340
0
102
{BLKREFS
331
14E
102
}
  0
BLOCK_RECORD
  5
233
330
1
100
AcDbSymbolTableRecord
100
AcDbBlockTableRecord
  2
*D7
340
0
  0
BLOCK_RECORD
  5
23F
330
1
100
AcDbSymbolTableRecord
100
AcDbBlockTableRecord
  2
*D8
340
0
  0
BLOCK_RECORD
  5
24B
330
1
100
AcDbSymbolTableRecord
100
AcDbBlockTableRecord
  2
*D9
340
0
  0
BLOCK_RECORD
  5
257
330
1
100
AcDbSymbolTableRecord
100
AcDbBlockTableRecord
  2
*D10
340
0
  0
BLOCK_RECORD
  5
2C0
330
1
100
AcDbSymbolTableRecord
100
AcDbBlockTableRecord
  2
*D11
340
0
  0
BLOCK_RECORD
  5
2CC
330
1
100
AcDbSymbolTableRecord
100
AcDbBlockTableRecord
  2
*D12
340
0
  0
BLOCK_RECORD
  5
2D8
330
1
100
AcDbSymbolTableRecord
100
AcDbBlockTableRecord
  2
*D13
340
0
  0
BLOCK_RECORD
  5
2E4
330
1
100
AcDbSymbolTableRecord
100
AcDbBlockTableRecord
  2
*D14
340
0
  0
ENDTAB
  0
ENDSEC
  0
SECTION
  2
BLOCKS
  0
BLOCK
  5
20
330
1F
100
AcDbEntity
  8
0
100
AcDbBlockBegin
  2
*Model_Space
 70
     0
 10
0.0
 20
0.0
 30
0.0
  3
*Model_Space
  1
*Model_Space
  0
ENDBLK
  5
21
330
1F
100
AcDbEntity
  8
0
100
AcDbBlockEnd
  0
BLOCK
  5
1C
330
1B
100
AcDbEntity
 67
     1
  8
0
100
AcDbBlockBegin
  2
*Paper_Space
 70
     0
 10
0.0
 20
0.0
 30
0.0
  3
*Paper_Space
  1
*Paper_Space
  0
ENDBLK
  5
1D
330
1B
100
AcDbEntity
 67
     1
  8
0
100
AcDbBlockEnd
  0
BLOCK
  5
24
330
23
100
AcDbEntity
  8
0
100
AcDbBlockBegin
  2
*Paper_Space0
 70
     0
 10
0.0
 20
0.0
 30
0.0
  3
*Paper_Space0
  1
*Paper_Space0
  0
ENDBLK
  5
25
330
23
100
AcDbEntity
  8
0
100
AcDbBlockEnd
  0
BLOCK
  5
80
330
7F
100
AcDbEntity
  8
0
100
AcDbBlockBegin
  2
블럭10
 70
     2
 10
0.0
 20
0.0
 30
0.0
  3
블럭10
  1
블럭10
  0
ELLIPSE
  5
82
330
7F
100
AcDbEntity
  8
중심선
100
AcDbEllipse
 10
20.54032771741204
 20
12.0471743016438
 30
0.0
 11
6.600054785286829
 21
-1.261213355974178E-13
 31
0.0
210
0.0
220
0.0
230
1.0
 40
0.636358354079598
 41
0.9219305317359503
 42
6.513795318482858
  0
ELLIPSE
  5
83
330
7F
100
AcDbEntity
  8
중심선
100
AcDbEllipse
 10
20.54032771746488
 20
12.04717430159265
 30
0.0
 11
3.960054785062283
 21
1.540847449632565E-10
 31
0.0
210
0.0
220
0.0
230
1.0
 40
0.3939339440162632
 41
1.131841032648279
 42
5.62031148352944
  0
LINE
  5
84
330
7F
100
AcDbEntity
  8
중심선
100
AcDbLine
 10
2.268634060543552
 20
16.24717430164393
 30
0.0
 11
5.714909304380834
 21
16.24717430164393
 31
0.0
  0
LINE
  5
85
330
7F
100
AcDbEntity
  8
중심선
100
AcDbLine
 10
5.245725140726316
 20
7.84717430164391
 30
0.0
 11
8.692000384563599
 21
7.84717430164391
 31
0.0
  0
LINE
  5
86
330
7F
100
AcDbEntity
  8
중심선
100
AcDbLine
 10
15.74043728645272
 20
16.24717430164393
 30
0.0
 11
8.692000384563599
 21
7.84717430164391
 31
0.0
  0
LINE
  5
87
330
7F
100
AcDbEntity
  8
중심선
100
AcDbLine
 10
0.1404042013395286
 20
13.71084872107135
 30
0.0
 11
3.58671253028996
 21
13.71088815037384
 31
0.0
  0
LINE
  5
88
330
7F
100
AcDbEntity
  8
중심선
100
AcDbLine
 10
2.750260043222114
 20
10.84717430164391
 30
0.0
 11
6.196535287059397
 21
10.84717430164391
 31
0.0
  0
LINE
  5
89
330
7F
100
AcDbEntity
  8
중심선
100
AcDbLine
 10
12.29416204261559
 20
16.24717430164393
 30
0.0
 11
5.245725140726316
 21
7.84717430164391
 31
0.0
  0
LINE
  5
8A
330
7F
100
AcDbEntity
  8
중심선
100
AcDbLine
 10
10.72767329541681
 20
16.24717430164393
 30
0.0
 11
6.196535287059397
 21
10.84717430164391
 31
0.0
  0
LINE
  5
8B
330
7F
100
AcDbEntity
  8
중심선
100
AcDbLine
 10
7.28139805157953
 20
16.24717430164393
 30
0.0
 11
2.750260043222114
 21
10.84717430164391
 31
0.0
  0
LINE
  5
8C
330
7F
100
AcDbEntity
  8
중심선
100
AcDbLine
 10
5.714909304380834
 20
16.24717430164393
 30
0.0
 11
3.58671253028996
 21
13.71088815037384
 31
0.0
  0
LINE
  5
8D
330
7F
100
AcDbEntity
  8
중심선
100
AcDbLine
 10
2.268634060543552
 20
16.24717430164393
 30
0.0
 11
0.1404042013395286
 21
13.71084872107135
 31
0.0
  0
LINE
  5
8E
330
7F
100
AcDbEntity
  8
중심선
100
AcDbLine
 10
7.28139805157953
 20
16.24717430164393
 30
0.0
 11
10.72767329541681
 21
16.24717430164393
 31
0.0
  0
LINE
  5
8F
330
7F
100
AcDbEntity
  8
중심선
100
AcDbLine
 10
12.29416204261559
 20
16.24717430164393
 30
0.0
 11
15.74043728645272
 21
16.24717430164393
 31
0.0
  0
LINE
  5
90
330
7F
100
AcDbEntity
  8
중심선
100
AcDbLine
 10
19.22036997980202
 20
11.08717430171403
 30
0.0
 11
23.66174974927406
 21
11.08717430171406
 31
0.0
  0
LINE
  5
91
330
7F
100
AcDbEntity
  8
중심선
100
AcDbLine
 10
19.22039502424796
 20
13.00717430171391
 30
0.0
 11
19.22036997980202
 21
11.08717430171403
 31
0.0
  0
LINE
  5
92
330
7F
100
AcDbEntity
  8
중심선
100
AcDbLine
 10
19.22039502424796
 20
13.00717430171391
 30
0.0
 11
26.96566020931264
 21
13.00717430171391
 31
0.0
  0
LINE
  5
93
330
7F
100
AcDbEntity
  8
중심선
100
AcDbLine
 10
22.22332737316547
 20
13.45928029700563
 30
0.0
 11
24.52862924686651
 21
15.39360700705356
 31
0.0
  0
ATTDEF
  5
95
330
7F
100
AcDbEntity
  8
FORMAT
 62
     2
100
AcDbText
 10
4.408487351596664
 20
2.075366912832191
 30
0.0
 40
4.233333333333333
  1
E1162056
 41
0.75
  7
SLDTEXTSTYLE0
 11
4.408487351596664
 21
-0.0412997538344756
 31
0.0
100
AcDbAttributeDefinition
  3

  2
AUTOATTR0
 70
     0
 74
     1
  0
ENDBLK
  5
81
330
7F
100
AcDbEntity
  8
0
100
AcDbBlockEnd
  0
BLOCK
  5
F4
330
F3
100
AcDbEntity
  8
0
100
AcDbBlockBegin
  2
_D
 70
     0
 10
0.0
 20
0.0
 30
0.0
  3
_D
  1
_D
  0
LINE
  5
F6
330
F3
100
AcDbEntity
  8
치수문자_일반주서
 62
     0
370
    -2
100
AcDbLine
 10
-42.99000000000001
 20
11.11357492872389
 30
0.0
 11
-57.51500000000005
 21
11.11357492872384
 31
0.0
  0
LINE
  5
F7
330
F3
100
AcDbEntity
  8
치수문자_일반주서
 62
     0
370
    -2
100
AcDbLine
 10
-42.99000000000001
 20
-11.1114250712761
 30
0.0
 11
-57.51499999999997
 21
-11.11142507127615
 31
0.0
  0
LINE
  5
F8
330
F3
100
AcDbEntity
  8
치수문자_일반주서
 62
     0
370
    -2
100
AcDbLine
 10
-57.51500000000004
 20
7.811574928723841
 30
0.0
 11
-57.51499999999999
 21
-7.809425071276154
 31
0.0
  0
SOLID
  5
F9
330
F3
100
AcDbEntity
  8
치수문자_일반주서
 62
     0
100
AcDbTrace
 10
-56.9646666666667
 20
7.811574928723843
 30
0.0
 11
-58.06533333333337
 21
7.811574928723839
 31
0.0
 12
-57.51500000000005
 22
11.11357492872384
 32
0.0
 13
-57.51500000000005
 23
11.11357492872384
 33
0.0
  0
SOLID
  5
FA
330
F3
100
AcDbEntity
  8
치수문자_일반주서
 62
     0
100
AcDbTrace
 10
-58.06533333333332
 20
-7.809425071276156
 30
0.0
 11
-56.96466666666665
 21
-7.809425071276152
 31
0.0
 12
-57.51499999999997
 22
-11.11142507127615
 32
0.0
 13
-57.51499999999997
 23
-11.11142507127615
 33
0.0
  0
MTEXT
  5
FB
330
F3
100
AcDbEntity
  8
치수문자_일반주서
 62
     0
100
AcDbMText
 10
-61.89000000000001
 20
0.0010749287238752
 30
0.0
 40
3.5
 41
0.0
 71
     2
 72
     1
  1
\A1;%%c22.23 [7/8]
  7
SLDTEXTSTYLE0
 11
-3.516746948643916E-15
 21
1.0
 31
0.0
 73
     1
 44
1.0
  0
POINT
  5
FC
330
F3
100
AcDbEntity
  8
Defpoints
 62
     0
100
AcDbPoint
 10
-42.92750000000001
 20
11.11357492872389
 30
0.0
  0
POINT
  5
FD
330
F3
100
AcDbEntity
  8
Defpoints
 62
     0
100
AcDbPoint
 10
-42.92750000000001
 20
-11.1114250712761
 30
0.0
  0
POINT
  5
FE
330
F3
100
AcDbEntity
  8
Defpoints
 62
     0
100
AcDbPoint
 10
-57.51499999999997
 20
-11.11142507127616
 30
0.0
  0
ENDBLK
  5
F5
330
F3
100
AcDbEntity
  8
0
100
AcDbBlockEnd
  0
BLOCK
  5
109
330
108
100
AcDbEntity
  8
0
100
AcDbBlockBegin
  2
_D_1
 70
     0
 10
0.0
 20
0.0
 30
0.0
  3
_D_1
  1
_D_1
  0
LINE
  5
10B
330
108
100
AcDbEntity
  8
치수문자_일반주서
 62
     0
370
    -2
100
AcDbLine
 10
100.9
 20
11.09498202564835
 30
0.0
 11
100.9
 21
33.57246856623911
 31
0.0
  0
LINE
  5
10C
330
108
100
AcDbEntity
  8
치수문자_일반주서
 62
     0
370
    -2
100
AcDbLine
 10
11.99999999999999
 20
10.81216697272469
 30
0.0
 11
12.00000000000001
 21
33.57246856623911
 31
0.0
  0
LINE
  5
10D
330
108
100
AcDbEntity
  8
치수문자_일반주서
 62
     0
370
    -2
100
AcDbLine
 10
97.59800000000004
 20
33.57246856623911
 30
0.0
 11
15.30200000000001
 21
33.57246856623911
 31
0.0
  0
SOLID
  5
10E
330
108
100
AcDbEntity
  8
치수문자_일반주서
 62
     0
100
AcDbTrace
 10
97.59800000000004
 20
33.02213523290578
 30
0.0
 11
97.59800000000004
 21
34.12280189957244
 31
0.0
 12
100.9
 22
33.57246856623911
 32
0.0
 13
100.9
 23
33.57246856623911
 33
0.0
  0
SOLID
  5
10F
330
108
100
AcDbEntity
  8
치수문자_일반주서
 62
     0
100
AcDbTrace
 10
15.30200000000001
 20
34.12280189957244
 30
0.0
 11
15.30200000000001
 21
33.02213523290578
 31
0.0
 12
12.00000000000001
 22
33.57246856623911
 32
0.0
 13
12.00000000000001
 23
33.57246856623911
 33
0.0
  0
MTEXT
  5
110
330
108
100
AcDbEntity
  8
치수문자_일반주서
 62
     0
100
AcDbMText
 10
56.45000000000001
 20
37.94746856623911
 30
0.0
 40
3.5
 41
0.0
 71
     2
 72
     1
  1
\A1;88.9 [3 1/2]
  7
SLDTEXTSTYLE0
 73
     1
 44
1.0
  0
POINT
  5
111
330
108
100
AcDbEntity
  8
Defpoints
 62
     0
100
AcDbPoint
 10
100.9
 20
11.03248202564835
 30
0.0
  0
POINT
  5
112
330
108
100
AcDbEntity
  8
Defpoints
 62
     0
100
AcDbPoint
 10
11.99999999999999
 20
10.74966697272469
 30
0.0
  0
POINT
  5
113
330
108
100
AcDbEntity
  8
Defpoints
 62
     0
100
AcDbPoint
 10
11.99999999999999
 20
33.57246856623911
 30
0.0
  0
ENDBLK
  5
10A
330
108
100
AcDbEntity
  8
0
100
AcDbBlockEnd
  0
BLOCK
  5
11D
330
11C
100
AcDbEntity
  8
0
100
AcDbBlockBegin
  2
_D_2
 70
     0
 10
0.0
 20
0.0
 30
0.0
  3
_D_2
  1
_D_2
  0
LINE
  5
11F
330
11C
100
AcDbEntity
  8
치수문자_일반주서
 62
     0
370
    -2
100
AcDbLine
 10
100.9
 20
11.09498202564835
 30
0.0
 11
100.9
 21
45.57246856623912
 31
0.0
  0
LINE
  5
120
330
11C
100
AcDbEntity
  8
치수문자_일반주서
 62
     0
370
    -2
100
AcDbLine
 10
-45.15
 20
8.953574928723906
 30
0.0
 11
-45.15000000000001
 21
45.57246856623912
 31
0.0
  0
LINE
  5
121
330
11C
100
AcDbEntity
  8
치수문자_일반주서
 62
     0
370
    -2
100
AcDbLine
 10
97.59800000000001
 20
45.57246856623912
 30
0.0
 11
-41.84800000000001
 21
45.57246856623912
 31
0.0
  0
SOLID
  5
122
330
11C
100
AcDbEntity
  8
치수문자_일반주서
 62
     0
100
AcDbTrace
 10
97.59800000000001
 20
45.02213523290579
 30
0.0
 11
97.59800000000001
 21
46.12280189957246
 31
0.0
 12
100.9
 22
45.57246856623912
 32
0.0
 13
100.9
 23
45.57246856623912
 33
0.0
  0
SOLID
  5
123
330
11C
100
AcDbEntity
  8
치수문자_일반주서
 62
     0
100
AcDbTrace
 10
-41.84800000000001
 20
46.12280189957246
 30
0.0
 11
-41.84800000000001
 21
45.02213523290579
 31
0.0
 12
-45.15000000000001
 22
45.57246856623912
 32
0.0
 13
-45.15000000000001
 23
45.57246856623912
 33
0.0
  0
MTEXT
  5
124
330
11C
100
AcDbEntity
  8
치수문자_일반주서
 62
     0
100
AcDbMText
 10
27.87500000000001
 20
49.94746856623912
 30
0.0
 40
3.5
 41
0.0
 71
     2
 72
     1
  1
\A1;146.05 [5 3/4]
  7
SLDTEXTSTYLE0
 73
     1
 44
1.0
  0
POINT
  5
125
330
11C
100
AcDbEntity
  8
Defpoints
 62
     0
100
AcDbPoint
 10
100.9
 20
11.03248202564835
 30
0.0
  0
POINT
  5
126
330
11C
100
AcDbEntity
  8
Defpoints
 62
     0
100
AcDbPoint
 10
-45.15
 20
8.891074928723906
 30
0.0
  0
POINT
  5
127
330
11C
100
AcDbEntity
  8
Defpoints
 62
     0
100
AcDbPoint
 10
-45.15
 20
45.57246856623912
 30
0.0
  0
ENDBLK
  5
11E
330
11C
100
AcDbEntity
  8
0
100
AcDbBlockEnd
  0
BLOCK
  5
130
330
12F
100
AcDbEntity
  8
0
100
AcDbBlockBegin
  2
_D_3
 70
     0
 10
0.0
 20
0.0
 30
0.0
  3
_D_3
  1
_D_3
  0
LINE
  5
132
330
12F
100
AcDbEntity
  8
치수문자_일반주서
 62
     0
370
    -2
100
AcDbLine
 10
100.9625
 20
11.1135749287239
 30
0.0
 11
121.0793046633699
 21
11.11357492872398
 31
0.0
  0
LINE
  5
133
330
12F
100
AcDbEntity
  8
치수문자_일반주서
 62
     0
370
    -2
100
AcDbLine
 10
100.9625
 20
-11.11142507127611
 30
0.0
 11
121.07930466337
 21
-11.11142507127605
 31
0.0
  0
LINE
  5
134
330
12F
100
AcDbEntity
  8
치수문자_일반주서
 62
     0
370
    -2
100
AcDbLine
 10
121.0793046633699
 20
11.11357492872398
 30
0.0
 11
121.0793046633698
 21
46.59257492872398
 31
0.0
  0
LINE
  5
135
330
12F
100
AcDbEntity
  8
치수문자_일반주서
 62
     0
370
    -2
100
AcDbLine
 10
121.0793046633699
 20
11.11357492872398
 30
0.0
 11
121.07930466337
 21
-11.11142507127605
 31
0.0
  0
LINE
  5
136
330
12F
100
AcDbEntity
  8
치수문자_일반주서
 62
     0
370
    -2
100
AcDbLine
 10
121.0793046633699
 20
14.41557492872398
 30
0.0
 11
121.0793046633699
 21
17.71757492872398
 31
0.0
  0
LINE
  5
137
330
12F
100
AcDbEntity
  8
치수문자_일반주서
 62
     0
370
    -2
100
AcDbLine
 10
121.07930466337
 20
-14.41342507127604
 30
0.0
 11
121.07930466337
 21
-17.71542507127604
 31
0.0
  0
SOLID
  5
138
330
12F
100
AcDbEntity
  8
치수문자_일반주서
 62
     0
100
AcDbTrace
 10
120.5289713300366
 20
14.41557492872398
 30
0.0
 11
121.6296379967033
 21
14.41557492872398
 31
0.0
 12
121.0793046633699
 22
11.11357492872398
 32
0.0
 13
121.0793046633699
 23
11.11357492872398
 33
0.0
  0
SOLID
  5
139
330
12F
100
AcDbEntity
  8
치수문자_일반주서
 62
     0
100
AcDbTrace
 10
121.6296379967034
 20
-14.41342507127604
 30
0.0
 11
120.5289713300367
 21
-14.41342507127605
 31
0.0
 12
121.07930466337
 22
-11.11142507127605
 32
0.0
 13
121.07930466337
 23
-11.11142507127605
 33
0.0
  0
MTEXT
  5
13A
330
12F
100
AcDbEntity
  8
치수문자_일반주서
 62
     0
100
AcDbMText
 10
116.7043046633699
 20
32.15507492872396
 30
0.0
 40
3.5
 41
0.0
 71
     2
 72
     1
  1
\A1;%%c22.23 [7/8]
  7
SLDTEXTSTYLE0
 11
-3.197042680585375E-15
 21
1.0
 31
0.0
 73
     1
 44
1.0
  0
POINT
  5
13B
330
12F
100
AcDbEntity
  8
Defpoints
 62
     0
100
AcDbPoint
 10
100.9
 20
11.1135749287239
 30
0.0
  0
POINT
  5
2F5
330
12F
100
AcDbEntity
  8
Defpoints
 62
     0
100
AcDbPoint
 10
100.9
 20
-11.11142507127611
 30
0.0
  0
POINT
  5
2F6
330
12F
100
AcDbEntity
  8
Defpoints
 62
     0
100
AcDbPoint
 10
121.07930466337
 20
-11.11142507127604
 30
0.0
  0
ENDBLK
  5
131
330
12F
100
AcDbEntity
  8
0
100
AcDbBlockEnd
  0
BLOCK
  5
149
330
148
100
AcDbEntity
  8
0
100
AcDbBlockBegin
  2
SW_DOWELSYMBOL_0
 70
     0
 10
0.0
 20
0.0
 30
0.0
  3
SW_DOWELSYMBOL_0
  1
SW_DOWELSYMBOL_0
  0
CIRCLE
  5
14B
330
148
100
AcDbEntity
  8
해칭선
 62
     0
100
AcDbCircle
 10
0.0
 20
0.0
 30
0.0
 40
3.000000000000002
  0
HATCH
  5
14C
330
148
100
AcDbEntity
  8
0
  6
Continuous
 62
     0
370
     0
100
AcDbHatch
 10
0.0
 20
0.0
 30
0.0
210
0.0
220
0.0
230
1.0
  2
SOLID
 70
     1
 71
     0
 91
        1
 92
        0
 93
        3
 72
     2
 10
0.0
 20
0.0
 40
3.000000000000002
 50
0.0
 51
90.0
 73
     1
 72
     1
 10
0.0
 20
3.000000000000002
 11
0.0
 21
0.0
 72
     1
 10
0.0
 20
0.0
 11
3.000000000000003
 21
0.0
 97
        0
 75
     0
 76
     1
 98
        1
 10
0.0
 20
0.0
  0
HATCH
  5
14D
330
148
100
AcDbEntity
  8
0
  6
Continuous
 62
     0
370
     0
100
AcDbHatch
 10
0.0
 20
0.0
 30
0.0
210
0.0
220
0.0
230
1.0
  2
SOLID
 70
     1
 71
     0
 91
        1
 92
        0
 93
        3
 72
     2
 10
0.0
 20
0.0
 40
3.000000000000002
 50
180.0
 51
270.0000000000007
 73
     1
 72
     1
 10
0.0
 20
-3.000000000000002
 11
0.0
 21
0.0
 72
     1
 10
0.0
 20
0.0
 11
-3.000000000000002
 21
0.0
 97
        0
 75
     0
 76
     1
 98
        1
 10
0.0
 20
0.0
  0
ENDBLK
  5
14A
330
148
100
AcDbEntity
  8
0
100
AcDbBlockEnd
  0
BLOCK
  5
234
330
233
100
AcDbEntity
  8
0
100
AcDbBlockBegin
  2
*D7
 70
     1
 10
0.0
 20
0.0
 30
0.0
  3
*D7
  1
*D8
  0
LINE
  5
236
330
233
100
AcDbEntity
  8
치수문자_일반주서
 62
     0
370
    -2
100
AcDbLine
 10
18.90000000000006
 20
25.65399999999993
 30
0.0
 11
4.37500000000001
 21
25.65399999999988
 31
0.0
  0
LINE
  5
237
330
233
100
AcDbEntity
  8
치수문자_일반주서
 62
     0
370
    -2
100
AcDbLine
 10
18.90000000000006
 20
6.603999999999921
 30
0.0
 11
4.375000000000076
 21
6.603999999999868
 31
0.0
  0
LINE
  5
238
330
233
100
AcDbEntity
  8
치수문자_일반주서
 62
     0
370
    -2
100
AcDbLine
 10
4.375000000000021
 20
22.35199999999988
 30
0.0
 11
4.375000000000065
 21
9.905999999999867
 31
0.0
  0
SOLID
  5
239
330
233
100
AcDbEntity
  8
치수문자_일반주서
 62
     0
100
AcDbTrace
 10
4.925333333333355
 20
22.35199999999988
 30
0.0
 11
3.824666666666688
 21
22.35199999999988
 31
0.0
 12
4.37500000000001
 22
25.65399999999988
 32
0.0
 13
4.37500000000001
 23
25.65399999999988
 33
0.0
  0
SOLID
  5
23A
330
233
100
AcDbEntity
  8
치수문자_일반주서
 62
     0
100
AcDbTrace
 10
3.824666666666732
 20
9.905999999999866
 30
0.0
 11
4.925333333333398
 21
9.90599999999987
 31
0.0
 12
4.375000000000076
 22
6.603999999999868
 32
0.0
 13
4.375000000000076
 23
6.603999999999868
 33
0.0
  0
MTEXT
  5
23B
330
233
100
AcDbEntity
  8
치수문자_일반주서
 62
     0
100
AcDbMText
 10
0.0000000000000426
 20
16.12899999999992
 30
0.0
 40
3.5
 41
0.0
 71
     2
 72
     1
  1
\A1;%%c19.05 [3/4]
  7
SLDTEXTSTYLE0
 11
-3.496765431890255E-15
 21
1.0
 31
0.0
 73
     1
 44
1.0
  0
POINT
  5
23C
330
233
100
AcDbEntity
  8
Defpoints
 62
     0
100
AcDbPoint
 10
18.96250000000006
 20
25.65399999999993
 30
0.0
  0
POINT
  5
23D
330
233
100
AcDbEntity
  8
Defpoints
 62
     0
100
AcDbPoint
 10
18.96250000000006
 20
6.603999999999921
 30
0.0
  0
POINT
  5
23E
330
233
100
AcDbEntity
  8
Defpoints
 62
     0
100
AcDbPoint
 10
4.375000000000078
 20
6.603999999999867
 30
0.0
  0
ENDBLK
  5
235
330
233
100
AcDbEntity
  8
0
100
AcDbBlockEnd
  0
BLOCK
  5
240
330
23F
100
AcDbEntity
  8
0
100
AcDbBlockBegin
  2
*D8
 70
     1
 10
0.0
 20
0.0
 30
0.0
  3
*D8
  1
*D9
  0
LINE
  5
242
330
23F
100
AcDbEntity
  8
치수문자_일반주서
 62
     0
370
    -2
100
AcDbLine
 10
150.4075000000001
 20
25.64699179736375
 30
0.0
 11
150.4075000000001
 21
48.1244783379545
 31
0.0
  0
LINE
  5
243
330
23F
100
AcDbEntity
  8
치수문자_일반주서
 62
     0
370
    -2
100
AcDbLine
 10
74.20750000000004
 20
25.40424519281418
 30
0.0
 11
74.20750000000004
 21
48.1244783379545
 31
0.0
  0
LINE
  5
244
330
23F
100
AcDbEntity
  8
치수문자_일반주서
 62
     0
370
    -2
100
AcDbLine
 10
147.1055000000001
 20
48.1244783379545
 30
0.0
 11
77.50950000000003
 21
48.1244783379545
 31
0.0
  0
SOLID
  5
245
330
23F
100
AcDbEntity
  8
치수문자_일반주서
 62
     0
100
AcDbTrace
 10
147.1055000000001
 20
47.57414500462117
 30
0.0
 11
147.1055000000001
 21
48.67481167128783
 31
0.0
 12
150.4075000000001
 22
48.1244783379545
 32
0.0
 13
150.4075000000001
 23
48.1244783379545
 33
0.0
  0
SOLID
  5
246
330
23F
100
AcDbEntity
  8
치수문자_일반주서
 62
     0
100
AcDbTrace
 10
77.50950000000003
 20
48.67481167128783
 30
0.0
 11
77.50950000000003
 21
47.57414500462117
 31
0.0
 12
74.20750000000004
 22
48.1244783379545
 32
0.0
 13
74.20750000000004
 23
48.1244783379545
 33
0.0
  0
MTEXT
  5
247
330
23F
100
AcDbEntity
  8
치수문자_일반주서
 62
     0
100
AcDbMText
 10
112.3075000000001
 20
52.4994783379545
 30
0.0
 40
3.5
 41
0.0
 71
     2
 72
     1
  1
\A1;76.2 [3]
  7
SLDTEXTSTYLE0
 73
     1
 44
1.0
  0
POINT
  5
248
330
23F
100
AcDbEntity
  8
Defpoints
 62
     0
100
AcDbPoint
 10
150.4075000000001
 20
25.58449179736375
 30
0.0
  0
POINT
  5
249
330
23F
100
AcDbEntity
  8
Defpoints
 62
     0
100
AcDbPoint
 10
74.20750000000004
 20
25.34174519281418
 30
0.0
  0
POINT
  5
24A
330
23F
100
AcDbEntity
  8
Defpoints
 62
     0
100
AcDbPoint
 10
74.20750000000004
 20
48.1244783379545
 30
0.0
  0
ENDBLK
  5
241
330
23F
100
AcDbEntity
  8
0
100
AcDbBlockEnd
  0
BLOCK
  5
24C
330
24B
100
AcDbEntity
  8
0
100
AcDbBlockBegin
  2
*D9
 70
     1
 10
0.0
 20
0.0
 30
0.0
  3
*D9
  1
*D10
  0
LINE
  5
24E
330
24B
100
AcDbEntity
  8
치수문자_일반주서
 62
     0
370
    -2
100
AcDbLine
 10
150.4075000000001
 20
25.64699179736375
 30
0.0
 11
150.4075000000001
 21
60.12447833795451
 31
0.0
  0
LINE
  5
24F
330
24B
100
AcDbEntity
  8
치수문자_일반주서
 62
     0
370
    -2
100
AcDbLine
 10
17.05750000000006
 20
23.81149999999993
 30
0.0
 11
17.05750000000006
 21
60.12447833795451
 31
0.0
  0
LINE
  5
250
330
24B
100
AcDbEntity
  8
치수문자_일반주서
 62
     0
370
    -2
100
AcDbLine
 10
147.1055000000001
 20
60.12447833795451
 30
0.0
 11
20.35950000000006
 21
60.12447833795451
 31
0.0
  0
SOLID
  5
251
330
24B
100
AcDbEntity
  8
치수문자_일반주서
 62
     0
100
AcDbTrace
 10
147.1055000000001
 20
59.57414500462117
 30
0.0
 11
147.1055000000001
 21
60.67481167128784
 31
0.0
 12
150.4075000000001
 22
60.12447833795451
 32
0.0
 13
150.4075000000001
 23
60.12447833795451
 33
0.0
  0
SOLID
  5
252
330
24B
100
AcDbEntity
  8
치수문자_일반주서
 62
     0
100
AcDbTrace
 10
20.35950000000006
 20
60.67481167128784
 30
0.0
 11
20.35950000000006
 21
59.57414500462117
 31
0.0
 12
17.05750000000006
 22
60.12447833795451
 32
0.0
 13
17.05750000000006
 23
60.12447833795451
 33
0.0
  0
MTEXT
  5
253
330
24B
100
AcDbEntity
  8
치수문자_일반주서
 62
     0
100
AcDbMText
 10
83.73250000000006
 20
64.49947833795451
 30
0.0
 40
3.5
 41
0.0
 71
     2
 72
     1
  1
\A1;133.35 [5 1/4]
  7
SLDTEXTSTYLE0
 73
     1
 44
1.0
  0
POINT
  5
254
330
24B
100
AcDbEntity
  8
Defpoints
 62
     0
100
AcDbPoint
 10
150.4075000000001
 20
25.58449179736375
 30
0.0
  0
POINT
  5
255
330
24B
100
AcDbEntity
  8
Defpoints
 62
     0
100
AcDbPoint
 10
17.05750000000006
 20
23.74899999999993
 30
0.0
  0
POINT
  5
256
330
24B
100
AcDbEntity
  8
Defpoints
 62
     0
100
AcDbPoint
 10
17.05750000000006
 20
60.12447833795451
 30
0.0
  0
ENDBLK
  5
24D
330
24B
100
AcDbEntity
  8
0
100
AcDbBlockEnd
  0
BLOCK
  5
258
330
257
100
AcDbEntity
  8
0
100
AcDbBlockBegin
  2
*D10
 70
     1
 10
0.0
 20
0.0
 30
0.0
  3
*D10
  1
*D11
  0
LINE
  5
25A
330
257
100
AcDbEntity
  8
치수문자_일반주서
 62
     0
370
    -2
100
AcDbLine
 10
150.4700000000001
 20
25.65399999999993
 30
0.0
 11
169.7804952666895
 21
25.654
 31
0.0
  0
LINE
  5
25B
330
257
100
AcDbEntity
  8
치수문자_일반주서
 62
     0
370
    -2
100
AcDbLine
 10
150.4700000000001
 20
6.603999999999925
 30
0.0
 11
169.7804952666896
 21
6.603999999999999
 31
0.0
  0
LINE
  5
25C
330
257
100
AcDbEntity
  8
치수문자_일반주서
 62
     0
370
    -2
100
AcDbLine
 10
169.7804952666895
 20
25.654
 30
0.0
 11
169.7804952666895
 21
59.8205
 31
0.0
  0
LINE
  5
25D
330
257
100
AcDbEntity
  8
치수문자_일반주서
 62
     0
370
    -2
100
AcDbLine
 10
169.7804952666895
 20
25.654
 30
0.0
 11
169.7804952666896
 21
6.603999999999999
 31
0.0
  0
LINE
  5
25E
330
257
100
AcDbEntity
  8
치수문자_일반주서
 62
     0
370
    -2
100
AcDbLine
 10
169.7804952666895
 20
28.956
 30
0.0
 11
169.7804952666895
 21
32.258
 31
0.0
  0
LINE
  5
25F
330
257
100
AcDbEntity
  8
치수문자_일반주서
 62
     0
370
    -2
100
AcDbLine
 10
169.7804952666896
 20
3.302
 30
0.0
 11
169.7804952666896
 21
0.0
 31
0.0
  0
SOLID
  5
260
330
257
100
AcDbEntity
  8
치수문자_일반주서
 62
     0
100
AcDbTrace
 10
169.2301619333562
 20
28.956
 30
0.0
 11
170.3308286000229
 21
28.956
 31
0.0
 12
169.7804952666895
 22
25.654
 32
0.0
 13
169.7804952666895
 23
25.654
 33
0.0
  0
SOLID
  5
261
330
257
100
AcDbEntity
  8
치수문자_일반주서
 62
     0
100
AcDbTrace
 10
170.3308286000229
 20
3.302000000000001
 30
0.0
 11
169.2301619333563
 21
3.301999999999998
 31
0.0
 12
169.7804952666896
 22
6.603999999999999
 32
0.0
 13
169.7804952666896
 23
6.603999999999999
 33
0.0
  0
MTEXT
  5
262
330
257
100
AcDbEntity
  8
치수문자_일반주서
 62
     0
100
AcDbMText
 10
165.4054952666895
 20
46.03924999999998
 30
0.0
 40
3.5
 41
0.0
 71
     2
 72
     1
  1
\A1;%%c19.05 [3/4]
  7
SLDTEXTSTYLE0
 11
-2.983906501879685E-15
 21
1.0
 31
0.0
 73
     1
 44
1.0
  0
POINT
  5
263
330
257
100
AcDbEntity
  8
Defpoints
 62
     0
100
AcDbPoint
 10
150.4075000000001
 20
25.65399999999993
 30
0.0
  0
POINT
  5
264
330
257
100
AcDbEntity
  8
Defpoints
 62
     0
100
AcDbPoint
 10
150.4075000000001
 20
6.603999999999925
 30
0.0
  0
POINT
  5
265
330
257
100
AcDbEntity
  8
Defpoints
 62
     0
100
AcDbPoint
 10
169.7804952666896
 20
6.603999999999997
 30
0.0
  0
ENDBLK
  5
259
330
257
100
AcDbEntity
  8
0
100
AcDbBlockEnd
  0
BLOCK
  5
2C1
330
2C0
100
AcDbEntity
  8
0
100
AcDbBlockBegin
  2
*D11
 70
     1
 10
0.0
 20
0.0
 30
0.0
  3
*D11
  1
*D12
  0
LINE
  5
2C3
330
2C0
100
AcDbEntity
  8
치수문자_일반주서
 62
     0
370
    -2
100
AcDbLine
 10
99.60095009592501
 20
-79.64300002874492
 30
0.0
 11
85.07595009592498
 21
-79.64300002874498
 31
0.0
  0
LINE
  5
2C4
330
2C0
100
AcDbEntity
  8
치수문자_일반주서
 62
     0
370
    -2
100
AcDbLine
 10
99.60095009592501
 20
-98.69300002874493
 30
0.0
 11
85.07595009592505
 21
-98.69300002874499
 31
0.0
  0
LINE
  5
2C5
330
2C0
100
AcDbEntity
  8
치수문자_일반주서
 62
     0
370
    -2
100
AcDbLine
 10
85.075950095925
 20
-82.94500002874497
 30
0.0
 11
85.07595009592504
 21
-95.391000028745
 31
0.0
  0
SOLID
  5
2C6
330
2C0
100
AcDbEntity
  8
치수문자_일반주서
 62
     0
100
AcDbTrace
 10
85.62628342925832
 20
-82.94500002874497
 30
0.0
 11
84.52561676259167
 21
-82.94500002874497
 31
0.0
 12
85.07595009592498
 22
-79.64300002874498
 32
0.0
 13
85.07595009592498
 23
-79.64300002874498
 33
0.0
  0
SOLID
  5
2C7
330
2C0
100
AcDbEntity
  8
치수문자_일반주서
 62
     0
100
AcDbTrace
 10
84.52561676259171
 20
-95.391000028745
 30
0.0
 11
85.62628342925836
 21
-95.391000028745
 31
0.0
 12
85.07595009592505
 22
-98.69300002874499
 32
0.0
 13
85.07595009592505
 23
-98.69300002874499
 33
0.0
  0
MTEXT
  5
2C8
330
2C0
100
AcDbEntity
  8
치수문자_일반주서
 62
     0
100
AcDbMText
 10
80.70095009592501
 20
-89.16800002874493
 30
0.0
 40
3.5
 41
0.0
 71
     2
 72
     1
  1
\A1;%%c19.05 [3/4]
  7
SLDTEXTSTYLE0
 11
-3.729883127349605E-15
 21
1.0
 31
0.0
 73
     1
 44
1.0
  0
POINT
  5
2C9
330
2C0
100
AcDbEntity
  8
Defpoints
 62
     0
100
AcDbPoint
 10
99.66345009592501
 20
-79.64300002874492
 30
0.0
  0
POINT
  5
2CA
330
2C0
100
AcDbEntity
  8
Defpoints
 62
     0
100
AcDbPoint
 10
99.66345009592501
 20
-98.69300002874493
 30
0.0
  0
POINT
  5
2CB
330
2C0
100
AcDbEntity
  8
Defpoints
 62
     0
100
AcDbPoint
 10
85.07595009592504
 20
-98.69300002874499
 30
0.0
  0
ENDBLK
  5
2C2
330
2C0
100
AcDbEntity
  8
0
100
AcDbBlockEnd
  0
BLOCK
  5
2CD
330
2CC
100
AcDbEntity
  8
0
100
AcDbBlockBegin
  2
*D12
 70
     1
 10
0.0
 20
0.0
 30
0.0
  3
*D12
  1
*D13
  0
LINE
  5
2CF
330
2CC
100
AcDbEntity
  8
치수문자_일반주서
 62
     0
370
    -2
100
AcDbLine
 10
231.108450095925
 20
-79.6500082313811
 30
0.0
 11
231.108450095925
 21
-57.17252169079035
 31
0.0
  0
LINE
  5
2D0
330
2CC
100
AcDbEntity
  8
치수문자_일반주서
 62
     0
370
    -2
100
AcDbLine
 10
154.908450095925
 20
-79.89275483593066
 30
0.0
 11
154.908450095925
 21
-57.17252169079035
 31
0.0
  0
LINE
  5
2D1
330
2CC
100
AcDbEntity
  8
치수문자_일반주서
 62
     0
370
    -2
100
AcDbLine
 10
227.806450095925
 20
-57.17252169079035
 30
0.0
 11
158.210450095925
 21
-57.17252169079035
 31
0.0
  0
SOLID
  5
2D2
330
2CC
100
AcDbEntity
  8
치수문자_일반주서
 62
     0
100
AcDbTrace
 10
227.806450095925
 20
-57.72285502412368
 30
0.0
 11
227.806450095925
 21
-56.62218835745701
 31
0.0
 12
231.108450095925
 22
-57.17252169079035
 32
0.0
 13
231.108450095925
 23
-57.17252169079035
 33
0.0
  0
SOLID
  5
2D3
330
2CC
100
AcDbEntity
  8
치수문자_일반주서
 62
     0
100
AcDbTrace
 10
158.210450095925
 20
-56.62218835745701
 30
0.0
 11
158.210450095925
 21
-57.72285502412368
 31
0.0
 12
154.908450095925
 22
-57.17252169079035
 32
0.0
 13
154.908450095925
 23
-57.17252169079035
 33
0.0
  0
MTEXT
  5
2D4
330
2CC
100
AcDbEntity
  8
치수문자_일반주서
 62
     0
100
AcDbMText
 10
193.008450095925
 20
-52.79752169079035
 30
0.0
 40
3.5
 41
0.0
 71
     2
 72
     1
  1
\A1;76.2 [3]
  7
SLDTEXTSTYLE0
 73
     1
 44
1.0
  0
POINT
  5
2D5
330
2CC
100
AcDbEntity
  8
Defpoints
 62
     0
100
AcDbPoint
 10
231.108450095925
 20
-79.7125082313811
 30
0.0
  0
POINT
  5
2D6
330
2CC
100
AcDbEntity
  8
Defpoints
 62
     0
100
AcDbPoint
 10
154.908450095925
 20
-79.95525483593066
 30
0.0
  0
POINT
  5
2D7
330
2CC
100
AcDbEntity
  8
Defpoints
 62
     0
100
AcDbPoint
 10
154.908450095925
 20
-57.17252169079035
 30
0.0
  0
ENDBLK
  5
2CE
330
2CC
100
AcDbEntity
  8
0
100
AcDbBlockEnd
  0
BLOCK
  5
2D9
330
2D8
100
AcDbEntity
  8
0
100
AcDbBlockBegin
  2
*D13
 70
     1
 10
0.0
 20
0.0
 30
0.0
  3
*D13
  1
*D14
  0
LINE
  5
2DB
330
2D8
100
AcDbEntity
  8
치수문자_일반주서
 62
     0
370
    -2
100
AcDbLine
 10
231.108450095925
 20
-79.6500082313811
 30
0.0
 11
231.108450095925
 21
-45.17252169079034
 31
0.0
  0
LINE
  5
2DC
330
2D8
100
AcDbEntity
  8
치수문자_일반주서
 62
     0
370
    -2
100
AcDbLine
 10
97.75845009592503
 20
-81.48550002874492
 30
0.0
 11
97.75845009592503
 21
-45.17252169079034
 31
0.0
  0
LINE
  5
2DD
330
2D8
100
AcDbEntity
  8
치수문자_일반주서
 62
     0
370
    -2
100
AcDbLine
 10
227.806450095925
 20
-45.17252169079034
 30
0.0
 11
101.060450095925
 21
-45.17252169079034
 31
0.0
  0
SOLID
  5
2DE
330
2D8
100
AcDbEntity
  8
치수문자_일반주서
 62
     0
100
AcDbTrace
 10
227.806450095925
 20
-45.72285502412367
 30
0.0
 11
227.806450095925
 21
-44.62218835745701
 31
0.0
 12
231.108450095925
 22
-45.17252169079034
 32
0.0
 13
231.108450095925
 23
-45.17252169079034
 33
0.0
  0
SOLID
  5
2DF
330
2D8
100
AcDbEntity
  8
치수문자_일반주서
 62
     0
100
AcDbTrace
 10
101.060450095925
 20
-44.62218835745701
 30
0.0
 11
101.060450095925
 21
-45.72285502412367
 31
0.0
 12
97.75845009592503
 22
-45.17252169079034
 32
0.0
 13
97.75845009592503
 23
-45.17252169079034
 33
0.0
  0
MTEXT
  5
2E0
330
2D8
100
AcDbEntity
  8
치수문자_일반주서
 62
     0
100
AcDbMText
 10
164.433450095925
 20
-40.79752169079034
 30
0.0
 40
3.5
 41
0.0
 71
     2
 72
     1
  1
\A1;133.35 [5 1/4]
  7
SLDTEXTSTYLE0
 73
     1
 44
1.0
  0
POINT
  5
2E1
330
2D8
100
AcDbEntity
  8
Defpoints
 62
     0
100
AcDbPoint
 10
231.108450095925
 20
-79.7125082313811
 30
0.0
  0
POINT
  5
2E2
330
2D8
100
AcDbEntity
  8
Defpoints
 62
     0
100
AcDbPoint
 10
97.75845009592503
 20
-81.54800002874492
 30
0.0
  0
POINT
  5
2E3
330
2D8
100
AcDbEntity
  8
Defpoints
 62
     0
100
AcDbPoint
 10
97.75845009592503
 20
-45.17252169079034
 30
0.0
  0
ENDBLK
  5
2DA
330
2D8
100
AcDbEntity
  8
0
100
AcDbBlockEnd
  0
BLOCK
  5
2E5
330
2E4
100
AcDbEntity
  8
0
100
AcDbBlockBegin
  2
*D14
 70
     1
 10
0.0
 20
0.0
 30
0.0
  3
*D14
  1
*D15
  0
LINE
  5
2E7
330
2E4
100
AcDbEntity
  8
치수문자_일반주서
 62
     0
370
    -2
100
AcDbLine
 10
231.170950095925
 20
-79.64300002874492
 30
0.0
 11
250.4814453626145
 21
-79.64300002874485
 31
0.0
  0
LINE
  5
2E8
330
2E4
100
AcDbEntity
  8
치수문자_일반주서
 62
     0
370
    -2
100
AcDbLine
 10
231.170950095925
 20
-98.69300002874492
 30
0.0
 11
250.4814453626146
 21
-98.69300002874485
 31
0.0
  0
LINE
  5
2E9
330
2E4
100
AcDbEntity
  8
치수문자_일반주서
 62
     0
370
    -2
100
AcDbLine
 10
250.4814453626145
 20
-79.64300002874485
 30
0.0
 11
250.4814453626144
 21
-45.47650002874485
 31
0.0
  0
LINE
  5
2EA
330
2E4
100
AcDbEntity
  8
치수문자_일반주서
 62
     0
370
    -2
100
AcDbLine
 10
250.4814453626145
 20
-79.64300002874485
 30
0.0
 11
250.4814453626146
 21
-98.69300002874485
 31
0.0
  0
LINE
  5
2EB
330
2E4
100
AcDbEntity
  8
치수문자_일반주서
 62
     0
370
    -2
100
AcDbLine
 10
250.4814453626145
 20
-76.34100002874484
 30
0.0
 11
250.4814453626145
 21
-73.03900002874485
 31
0.0
  0
LINE
  5
2EC
330
2E4
100
AcDbEntity
  8
치수문자_일반주서
 62
     0
370
    -2
100
AcDbLine
 10
250.4814453626146
 20
-101.9950000287448
 30
0.0
 11
250.4814453626146
 21
-105.2970000287448
 31
0.0
  0
SOLID
  5
2ED
330
2E4
100
AcDbEntity
  8
치수문자_일반주서
 62
     0
100
AcDbTrace
 10
249.9311120292812
 20
-76.34100002874484
 30
0.0
 11
251.0317786959478
 21
-76.34100002874484
 31
0.0
 12
250.4814453626145
 22
-79.64300002874485
 32
0.0
 13
250.4814453626145
 23
-79.64300002874485
 33
0.0
  0
SOLID
  5
2EE
330
2E4
100
AcDbEntity
  8
치수문자_일반주서
 62
     0
100
AcDbTrace
 10
251.0317786959479
 20
-101.9950000287448
 30
0.0
 11
249.9311120292813
 21
-101.9950000287448
 31
0.0
 12
250.4814453626146
 22
-98.69300002874485
 32
0.0
 13
250.4814453626146
 23
-98.69300002874485
 33
0.0
  0
MTEXT
  5
2EF
330
2E4
100
AcDbEntity
  8
치수문자_일반주서
 62
     0
100
AcDbMText
 10
246.1064453626145
 20
-59.25775002874487
 30
0.0
 40
3.5
 41
0.0
 71
     2
 72
     1
  1
\A1;%%c19.05 [3/4]
  7
SLDTEXTSTYLE0
 11
-2.983906501879686E-15
 21
1.0
 31
0.0
 73
     1
 44
1.0
  0
POINT
  5
2F0
330
2E4
100
AcDbEntity
  8
Defpoints
 62
     0
100
AcDbPoint
 10
231.108450095925
 20
-79.64300002874492
 30
0.0
  0
POINT
  5
2F1
330
2E4
100
AcDbEntity
  8
Defpoints
 62
     0
100
AcDbPoint
 10
231.108450095925
 20
-98.69300002874492
 30
0.0
  0
POINT
  5
2F2
330
2E4
100
AcDbEntity
  8
Defpoints
 62
     0
100
AcDbPoint
 10
250.4814453626146
 20
-98.69300002874485
 30
0.0
  0
ENDBLK
  5
2E6
330
2E4
100
AcDbEntity
  8
0
100
AcDbBlockEnd
  0
ENDSEC
  0
SECTION
  2
ENTITIES
  0
LINE
  5
96
330
1F
100
AcDbEntity
  8
0
  6
Continuous
 62
     1
370
    15
100
AcDbLine
 10
40.40237782180623
 20
-2.149026313187769
 30
0.0
 11
40.47719831847606
 21
-2.221418826301364
 31
0.0
  0
LINE
  5
97
330
1F
100
AcDbEntity
  8
0
  6
Continuous
 62
     1
370
    15
100
AcDbLine
 10
63.58431200376977
 20
-2.057051226010204
 30
0.0
 11
63.75098854999123
 21
-2.221246534644014
 31
0.0
  0
LINE
  5
98
330
1F
100
AcDbEntity
  8
0
  6
Continuous
 62
     1
370
    15
100
AcDbLine
 10
28.75523614788072
 20
-2.139147970134653
 30
0.0
 11
28.83998941244649
 21
-2.221196643783688
 31
0.0
  0
LINE
  5
99
330
1F
100
AcDbEntity
  8
0
  6
Continuous
 62
     1
370
    15
100
AcDbLine
 10
33.40586133481025
 20
2.136445013657855
 30
0.0
 11
33.316390002953
 21
2.223176641794494
 31
0.0
  0
LINE
  5
9A
330
1F
100
AcDbEntity
  8
0
  6
Continuous
 62
     1
370
    15
100
AcDbLine
 10
17.10569168764016
 20
-2.12744439107891
 30
0.0
 11
17.20302168550101
 21
-2.221211442404261
 31
0.0
  0
LINE
  5
9B
330
1F
100
AcDbEntity
  8
0
  6
Continuous
 62
     1
370
    15
100
AcDbLine
 10
21.99395673049481
 20
1.918980600251429
 30
0.0
 11
21.67911794576578
 21
2.223460877345121
 31
0.0
  0
LINE
  5
9C
330
1F
100
AcDbEntity
  8
0
  6
Continuous
 62
     1
370
    15
100
AcDbLine
 10
86.9400324438635
 20
-2.139051677551406
 30
0.0
 11
87.02511171768393
 21
-2.221401383853828
 31
0.0
  0
LINE
  5
9D
330
1F
100
AcDbEntity
  8
0
  6
Continuous
 62
     1
370
    15
100
AcDbLine
 10
99.55571234455141
 20
-11.11142507127611
 30
0.0
 11
100.9
 21
-11.11142507127611
 31
0.0
  0
LINE
  5
9E
330
1F
100
AcDbEntity
  8
0
  6
Continuous
 62
     1
370
    15
100
AcDbLine
 10
29.73444773358741
 20
-11.11142507127611
 30
0.0
 11
32.42071669869832
 21
-11.11142507127611
 31
0.0
  0
LINE
  5
9F
330
1F
100
AcDbEntity
  8
0
  6
Continuous
 62
     1
370
    15
100
AcDbLine
 10
67.33210358731034
 20
11.1135749287239
 30
0.0
 11
64.64671551523274
 21
11.1135749287239
 31
0.0
  0
LINE
  5
A0
330
1F
100
AcDbEntity
  8
0
  6
Continuous
 62
     1
370
    15
100
AcDbLine
 10
64.64671551523271
 20
-11.11142507127611
 30
0.0
 11
67.33210358731029
 21
-11.11142507127611
 31
0.0
  0
LINE
  5
A1
330
1F
100
AcDbEntity
  8
0
  6
Continuous
 62
     1
370
    15
100
AcDbLine
 10
32.42071669869825
 20
11.1135749287239
 30
0.0
 11
29.73444773358738
 21
11.1135749287239
 31
0.0
  0
LINE
  5
A2
330
1F
100
AcDbEntity
  8
0
  6
Continuous
 62
     1
370
    15
100
AcDbLine
 10
100.9
 20
11.1135749287239
 30
0.0
 11
99.55571234455144
 21
11.1135749287239
 31
0.0
  0
LINE
  5
A3
330
1F
100
AcDbEntity
  8
0
  6
Continuous
 62
     1
370
    15
100
AcDbLine
 10
41.37063732530943
 20
-11.11142507127611
 30
0.0
 11
44.05904948998541
 21
-11.11142507127611
 31
0.0
  0
LINE
  5
A4
330
1F
100
AcDbEntity
  8
0
  6
Continuous
 62
     1
370
    15
100
AcDbLine
 10
78.96831641815871
 20
11.1135749287239
 30
0.0
 11
76.28336398032215
 21
11.1135749287239
 31
0.0
  0
LINE
  5
A5
330
1F
100
AcDbEntity
  8
0
  6
Continuous
 62
     1
370
    15
100
AcDbLine
 10
53.00860170150953
 20
-11.11142507127611
 30
0.0
 11
55.69644385533847
 21
-11.11142507127611
 31
0.0
  0
LINE
  5
A6
330
1F
100
AcDbEntity
  8
0
  6
Continuous
 62
     1
370
    15
100
AcDbLine
 10
20.78322313875906
 20
11.1135749287239
 30
0.0
 11
18.09769316179117
 21
11.1135749287239
 31
0.0
  0
LINE
  5
A7
330
1F
100
AcDbEntity
  8
0
  6
Continuous
 62
     1
370
    15
100
AcDbLine
 10
90.60603740045437
 20
11.1135749287239
 30
0.0
 11
87.9189129085364
 21
11.1135749287239
 31
0.0
  0
LINE
  5
A8
330
1F
100
AcDbEntity
  8
0
  6
Continuous
 62
     1
370
    15
100
AcDbLine
 10
76.2833639803221
 20
-11.11142507127611
 30
0.0
 11
78.96831641815862
 21
-11.11142507127611
 31
0.0
  0
LINE
  5
A9
330
1F
100
AcDbEntity
  8
0
  6
Continuous
 62
     1
370
    15
100
AcDbLine
 10
44.05904948998538
 20
11.1135749287239
 30
0.0
 11
41.37063732530935
 21
11.1135749287239
 31
0.0
  0
LINE
  5
AA
330
1F
100
AcDbEntity
  8
0
  6
Continuous
 62
     1
370
    15
100
AcDbLine
 10
87.91891290853629
 20
-11.11142507127611
 30
0.0
 11
90.60603740045437
 21
-11.11142507127611
 31
0.0
  0
LINE
  5
AB
330
1F
100
AcDbEntity
  8
0
  6
Continuous
 62
     1
370
    15
100
AcDbLine
 10
18.09769316179106
 20
-11.11142507127611
 30
0.0
 11
20.78322313875904
 21
-11.11142507127611
 31
0.0
  0
LINE
  5
AC
330
1F
100
AcDbEntity
  8
0
  6
Continuous
 62
     1
370
    15
100
AcDbLine
 10
55.69644385533845
 20
11.1135749287239
 30
0.0
 11
53.00860170150945
 21
11.1135749287239
 31
0.0
  0
LINE
  5
AD
330
1F
100
AcDbEntity
  8
외형선
  6
Continuous
370
    15
100
AcDbLine
 10
-42.92749999999999
 20
-11.11142507127611
 30
0.0
 11
10.99978208381787
 21
-11.11142507127611
 31
0.0
  0
LINE
  5
AE
330
1F
100
AcDbEntity
  8
외형선
  6
Continuous
370
    15
100
AcDbLine
 10
10.99978208381787
 20
11.1135749287239
 30
0.0
 11
-11.91092499999985
 21
11.1135749287239
 31
0.0
  0
LINE
  5
AF
330
1F
100
AcDbEntity
  8
외형선
  6
Continuous
370
    15
100
AcDbLine
 10
-44.57850000000001
 20
9.462574928723889
 30
0.0
 11
-45.15
 21
8.891074928723906
 31
0.0
  0
LINE
  5
B0
330
1F
100
AcDbEntity
  8
외형선
  6
Continuous
370
    15
100
AcDbLine
 10
-45.15
 20
-8.888925071276116
 30
0.0
 11
-42.92749999999999
 21
-11.11142507127611
 31
0.0
  0
LINE
  5
B1
330
1F
100
AcDbEntity
  8
0
  6
Continuous
 62
     1
370
    15
100
AcDbLine
 10
100.9
 20
6.642798154606677
 30
0.0
 11
100.9
 21
11.03248202564835
 31
0.0
  0
SPLINE
  5
B2
330
1F
100
AcDbEntity
  8
0
  6
Continuous
 62
     1
370
    15
100
AcDbSpline
210
0.0
220
0.0
230
1.0
 70
     8
 71
     3
 72
    29
 73
    25
 74
     0
 42
0.000000001
 43
0.00000001
 40
0.0
 40
0.0
 40
0.0
 40
0.0
 40
0.0369004511496527
 40
0.0844708599002378
 40
0.1320438303837673
 40
0.179586089175297
 40
0.2271168608928756
 40
0.2746555064601212
 40
0.3222213299309301
 40
0.3697982051779175
 40
0.4173431617516168
 40
0.4648742936652801
 40
0.5124109592396541
 40
0.5599724768236646
 40
0.6075520963561695
 40
0.6551000323039657
 40
0.7026318074659033
 40
0.750166775514761
 40
0.7977242670581938
 40
0.845305470047656
 40
0.8928566666471283
 40
0.9403893680415245
 40
0.987922921211582
 40
1.0
 40
1.0
 40
1.0
 40
1.0
 10
20.78322313875906
 20
11.07475766774518
 30
0.0
 10
21.26771919566174
 20
11.07211410745402
 30
0.0
 10
22.37680586722751
 20
11.06606258764777
 30
0.0
 10
24.11079332494087
 20
10.66237694817579
 30
0.0
 10
25.98475208826898
 20
9.968383372705505
 30
0.0
 10
27.85726026787062
 20
8.979881335545773
 30
0.0
 10
29.72918620104654
 20
7.74028204305496
 30
0.0
 10
31.60151816684715
 20
6.280378185115434
 30
0.0
 10
33.47513267800333
 20
4.642785581859243
 30
0.0
 10
35.34923680102762
 20
2.873901691734677
 30
0.0
 10
37.22188543507092
 20
1.023105226307922
 30
0.0
 10
39.09382964088487
 20
-0.8563145075461595
 30
0.0
 10
40.96606094423631
 20
-2.711585505381894
 30
0.0
 10
42.83948190741377
 20
-4.490051343981241
 30
0.0
 10
44.71370731604661
 20
-6.140807784487979
 30
0.0
 10
46.58649970236278
 20
-7.61804312002397
 30
0.0
 10
48.45847822979054
 20
-8.879101969379438
 30
0.0
 10
50.33062265755682
 20
-9.888482795247908
 30
0.0
 10
52.20385994619323
 20
-10.61808539607911
 30
0.0
 10
54.0781580344646
 20
-11.04496329321985
 30
0.0
 10
55.9510945734015
 20
-11.16504167238595
 30
0.0
 10
57.82315945168534
 20
-10.94585325654124
 30
0.0
 10
59.22944783496609
 20
-10.61205006414046
 30
0.0
 10
60.01212235932358
 20
-10.26520982164021
 30
0.0
 10
60.17069175518131
 20
-10.19494019358816
 30
0.0
  0
SPLINE
  5
B3
330
1F
100
AcDbEntity
  8
0
  6
Continuous
 62
     1
370
    15
100
AcDbSpline
210
0.0
220
0.0
230
1.0
 70
     8
 71
     3
 72
    13
 73
     9
 74
     0
 42
0.000000001
 43
0.00000001
 40
0.0
 40
0.0
 40
0.0
 40
0.0
 40
0.0902942491127298
 40
0.2723004032276934
 40
0.4542001442661402
 40
0.6360673192341387
 40
0.8179760103411385
 40
1.0
 40
1.0
 40
1.0
 40
1.0
 10
90.60603740045443
 20
11.07412259779862
 30
0.0
 10
90.91594381361686
 20
11.08182506953069
 30
0.0
 10
91.85052870796193
 20
11.10505341661927
 30
0.0
 10
93.4093704582501
 20
10.80271986711565
 30
0.0
 10
95.2817195050292
 20
10.19612717647718
 30
0.0
 10
97.15364402980272
 20
9.280492868115699
 30
0.0
 10
99.02612410264835
 20
8.119724121277383
 30
0.0
 10
100.2752427885969
 20
7.158202423224012
 30
0.0
 10
100.9
 20
6.677289262979854
 30
0.0
  0
SPLINE
  5
B4
330
1F
100
AcDbEntity
  8
0
  6
Continuous
 62
     1
370
    15
100
AcDbSpline
210
0.0
220
0.0
230
1.0
 70
     8
 71
     3
 72
    11
 73
     7
 74
     0
 42
0.000000001
 43
0.00000001
 40
0.0
 40
0.0
 40
0.0
 40
0.0
 40
0.3220029562136479
 40
0.6438019476937745
 40
0.9655274965495851
 40
1.0
 40
1.0
 40
1.0
 40
1.0
 10
100.9
 20
11.03248202564835
 30
0.0
 10
100.2752445725488
 20
11.0790777389268
 30
0.0
 10
99.02612945337421
 20
11.17223965059241
 30
0.0
 10
97.15362264474886
 20
10.88432091187981
 30
0.0
 10
95.8389222299404
 20
10.55797990538736
 30
0.0
 10
95.14810381314324
 20
10.24135527370455
 30
0.0
 10
95.08124707402729
 20
10.2107126476781
 30
0.0
  0
SPLINE
  5
B5
330
1F
100
AcDbEntity
  8
0
  6
Continuous
 62
     1
370
    15
100
AcDbSpline
210
0.0
220
0.0
230
1.0
 70
     8
 71
     3
 72
    29
 73
    25
 74
     0
 42
0.000000001
 43
0.00000001
 40
0.0
 40
0.0
 40
0.0
 40
0.0
 40
0.0305657082416458
 40
0.078147690418521
 40
0.1257017927439313
 40
0.173235702314893
 40
0.2207687601038068
 40
0.2683203132364723
 40
0.3159018729841108
 40
0.363459721107935
 40
0.4109950455683057
 40
0.458527177117816
 40
0.506075469574356
 40
0.5536554458531661
 40
0.6012173200477544
 40
0.6487543420463692
 40
0.6962858303427824
 40
0.7438311434028874
 40
0.7914083753756022
 40
0.8389745554892746
 40
0.8865135574956063
 40
0.9340446855932342
 40
0.981587300850942
 40
1.0
 40
1.0
 40
1.0
 40
1.0
 10
64.64671551523271
 20
-11.07520724581051
 30
0.0
 10
64.24543212715058
 20
-11.07689956651455
 30
0.0
 10
63.21946637055773
 20
-11.08122634191337
 30
0.0
 10
61.56825097647602
 20
-10.7309910059557
 30
0.0
 10
59.69520510345014
 20
-10.07692686886104
 30
0.0
 10
57.82312854376155
 20
-9.124534284601674
 30
0.0
 10
55.95110285851591
 20
-7.917021008610226
 30
0.0
 10
54.07815581251038
 20
-6.483928400418362
 30
0.0
 10
52.2038605414024
 20
-4.867876560329613
 30
0.0
 10
50.33062249818636
 20
-3.113238363055732
 30
0.0
 10
48.45847827248911
 20
-1.270540507288398
 30
0.0
 10
46.58649969088906
 20
0.6081079272640837
 30
0.0
 10
44.71370731923174
 20
2.469905221699622
 30
0.0
 10
42.83948190615732
 20
4.261117529724304
 30
0.0
 10
40.96606094607606
 20
5.932086407855506
 30
0.0
 10
39.09382963478517
 20
7.434869987835032
 30
0.0
 10
37.22188545763118
 20
8.726931921632492
 30
0.0
 10
35.34923671683486
 20
9.771812402810244
 30
0.0
 10
33.47513299240126
 20
10.53989395555142
 30
0.0
 10
31.60151699411571
 20
11.00815511502276
 30
0.0
 10
29.72919057467528
 20
11.16936299965796
 30
0.0
 10
27.857243946291
 20
10.99579239362681
 30
0.0
 10
26.36758473214365
 20
10.66414390799078
 30
0.0
 10
25.50141881536145
 20
10.29358354556677
 30
0.0
 10
25.25961188013073
 20
10.19013446748642
 30
0.0
  0
LINE
  5
B6
330
1F
100
AcDbEntity
  8
0
  6
Continuous
 62
     1
370
    15
100
AcDbLine
 10
12.00000000000001
 20
-10.74751711527689
 30
0.0
 11
13.6222153311813
 21
-10.19389525801369
 31
0.0
  0
SPLINE
  5
B7
330
1F
100
AcDbEntity
  8
0
  6
Continuous
 62
     1
370
    15
100
AcDbSpline
210
0.0
220
0.0
230
1.0
 70
     8
 71
     3
 72
    29
 73
    25
 74
     0
 42
0.000000001
 43
0.00000001
 40
0.0
 40
0.0
 40
0.0
 40
0.0
 40
0.0166230423256624
 40
0.064173405208303
 40
0.1117076064802083
 40
0.1592450008020046
 40
0.2068049197680169
 40
0.2543885513903348
 40
0.301942175091081
 40
0.3494773026427216
 40
0.3970132820134997
 40
0.4445694550179924
 40
0.4921535090879405
 40
0.5397106745548363
 40
0.5872470112869232
 40
0.6347818585173589
 40
0.6823345662396222
 40
0.7299178816130728
 40
0.7774788694208058
 40
0.8250166981062463
 40
0.872550696126682
 40
0.9201002196113447
 40
0.9676816352385603
 40
1.0
 40
1.0
 40
1.0
 40
1.0
 10
44.05904948998535
 20
11.07770458693257
 30
0.0
 10
44.27735855676028
 20
11.08740260309651
 30
0.0
 10
45.12014268305504
 20
11.12484188218947
 30
0.0
 10
46.58648683158278
 20
10.86545163761226
 30
0.0
 10
48.45848171640675
 20
10.30592566065677
 30
0.0
 10
50.33062158022178
 20
9.433068178772265
 30
0.0
 10
52.20386076765683
 20
8.298473618865817
 30
0.0
 10
54.07815582622496
 20
6.927653706644787
 30
0.0
 10
55.95110257777947
 20
5.360431540742995
 30
0.0
 10
57.82312965256609
 20
3.641483565649544
 30
0.0
 10
59.69520094796228
 20
1.819397547676314
 30
0.0
 10
61.56826650057601
 20
-0.0545195575891039
 30
0.0
 10
63.44258053709196
 20
-1.926179801320912
 30
0.0
 10
65.31569202267288
 20
-3.743889412861357
 30
0.0
 10
67.18778178055531
 20
-5.455199094281386
 30
0.0
 10
69.05979425539385
 20
-7.011873607995928
 30
0.0
 10
70.93269787935915
 20
-8.37005546055569
 30
0.0
 10
72.80697918899823
 20
-9.490519465010259
 30
0.0
 10
74.68026633533078
 20
-10.34256434995265
 30
0.0
 10
76.5524316132041
 20
-10.90056816882547
 30
0.0
 10
78.42440417013877
 20
-11.15262371924747
 30
0.0
 10
80.29713864288956
 20
-11.07750409329815
 30
0.0
 10
81.97114168816785
 20
-10.76698976710171
 30
0.0
 10
83.02017135625125
 20
-10.35675348949954
 30
0.0
 10
83.44448946193036
 20
-10.19081854457941
 30
0.0
  0
SPLINE
  5
B8
330
1F
100
AcDbEntity
  8
외형선
  6
Continuous
370
    15
100
AcDbSpline
210
0.0
220
0.0
230
1.0
 70
    24
 71
     3
 72
    10
 73
     6
 74
     0
 42
0.000000001
 43
0.00000001
 40
0.0
 40
0.0
 40
0.0
 40
0.0
 40
0.0970056448201885
 40
0.7342155008623185
 40
1.0
 40
1.0
 40
1.0
 40
1.0
 10
12.00000000000002
 20
-9.582033794050714
 30
0.0
 10
12.00000000000002
 20
-9.617690837099044
 30
0.0
 10
11.99999999999999
 20
-9.887571561767443
 30
0.0
 10
12.00000000000001
 20
-10.28524987505136
 30
0.0
 10
11.99999999999999
 20
-10.64239588857327
 30
0.0
 10
12.00000000000001
 20
-10.74751711527689
 30
0.0
  0
SPLINE
  5
B9
330
1F
100
AcDbEntity
  8
0
  6
Continuous
 62
     1
370
    15
100
AcDbSpline
210
0.0
220
0.0
230
1.0
 70
     8
 71
     3
 72
    29
 73
    25
 74
     0
 42
0.000000001
 43
0.00000001
 40
0.0
 40
0.0
 40
0.0
 40
0.0
 40
0.0033019956158426
 40
0.0508353184822188
 40
0.0983748127579341
 40
0.1459397940417173
 40
0.1935211005947607
 40
0.24107051507836
 40
0.2886044041333224
 40
0.3361421238445089
 40
0.3837030026248985
 40
0.4312862089198229
 40
0.4788388076337236
 40
0.526373545896739
 40
0.5739097736579921
 40
0.6214668301063065
 40
0.6690507750960347
 40
0.7166068390842213
 40
0.7641427094849843
 40
0.8116777280685625
 40
0.859231242758847
 40
0.9068147653019127
 40
0.9543745752430319
 40
1.0
 40
1.0
 40
1.0
 40
1.0
 10
87.91891290853631
 20
-11.10124623359153
 30
0.0
 10
87.87556567100954
 20
-11.10459839987518
 30
0.0
 10
87.20822056175936
 20
-11.15620611244055
 30
0.0
 10
85.91711080831243
 20
-10.96177227552484
 30
0.0
 10
84.04481445788417
 20
-10.49765522665107
 30
0.0
 10
82.1713522803716
 20
-9.70153004344183
 30
0.0
 10
80.29715201551541
 20
-8.639940346328638
 30
0.0
 10
78.4244005892861
 20
-7.330617272835682
 30
0.0
 10
76.55243257262775
 20
-5.814426580167795
 30
0.0
 10
74.68026607810948
 20
-4.133193334298184
 30
0.0
 10
72.80697925797189
 20
-2.334663660428192
 30
0.0
 10
70.93269786088815
 20
-0.4705179549745539
 30
0.0
 10
69.05979426033521
 20
1.407665786707842
 30
0.0
 10
67.18778177924828
 20
3.24564558631622
 30
0.0
 10
65.31569202296048
 20
4.991732790687472
 30
0.0
 10
63.44258053724925
 20
6.596601914589691
 30
0.0
 10
61.56826649965844
 20
8.014050641189089
 30
0.0
 10
59.69520095147205
 20
9.204885681552506
 30
0.0
 10
57.8231296394498
 20
10.13480221631593
 30
0.0
 10
55.95110262674397
 20
10.77714117791571
 30
0.0
 10
54.07815564335676
 20
11.11578385971634
 30
0.0
 10
52.20386145045742
 20
11.13323853512956
 30
0.0
 10
50.35571969870431
 20
10.86191836319145
 30
0.0
 10
49.13259630230112
 20
10.43030865199301
 30
0.0
 10
48.53372970426241
 20
10.21898358030689
 30
0.0
  0
SPLINE
  5
BA
330
1F
100
AcDbEntity
  8
0
  6
Continuous
 62
     1
370
    15
100
AcDbSpline
210
0.0
220
0.0
230
1.0
 70
     8
 71
     3
 72
    10
 73
     6
 74
     0
 42
0.000000001
 43
0.00000001
 40
0.0
 40
0.0
 40
0.0
 40
0.0
 40
0.3284722712675419
 40
0.6642140743430471
 40
1.0
 40
1.0
 40
1.0
 40
1.0
 10
18.09769316179105
 20
-11.10744742767735
 30
0.0
 10
17.43007798866427
 20
-11.07304656689472
 30
0.0
 10
16.08007242343169
 20
-11.00348350815262
 30
0.0
 10
14.04756726708404
 20
-10.4500320777247
 30
0.0
 10
12.68255231836352
 20
-9.803039796234783
 30
0.0
 10
12.00000000000002
 20
-9.479522400247177
 30
0.0
  0
SPLINE
  5
BB
330
1F
100
AcDbEntity
  8
0
  6
Continuous
 62
     1
370
    15
100
AcDbSpline
210
0.0
220
0.0
230
1.0
 70
     8
 71
     3
 72
    29
 73
    25
 74
     0
 42
0.000000001
 43
0.00000001
 40
0.0
 40
0.0
 40
0.0
 40
0.0
 40
0.0267647835175704
 40
0.0743424750051615
 40
0.1218882472718599
 40
0.1694201946413429
 40
0.2169576757664736
 40
0.2645200093276078
 40
0.3121004451477981
 40
0.3596491968397084
 40
0.4071817874685015
 40
0.4547175710389926
 40
0.5022758784904775
 40
0.5498578977947911
 40
0.5974099101943179
 40
0.6449434270714604
 40
0.6924777957388772
 40
0.7400323573557701
 40
0.7876147990933999
 40
0.8351703531390675
 40
0.8827050791556845
 40
0.9302383157211204
 40
0.9777894121732011
 40
1.0
 40
1.0
 40
1.0
 40
1.0
 10
32.42071669869826
 20
11.07474944258906
 30
0.0
 10
32.77214939772564
 20
11.08022391506925
 30
0.0
 10
33.74829690238555
 20
11.09542993507153
 30
0.0
 10
35.34925294513294
 20
10.77207832164
 30
0.0
 10
37.22188111193446
 20
10.14334373565394
 30
0.0
 10
39.09383079919963
 20
9.212530730705105
 30
0.0
 10
40.96606063387127
 20
8.024585156918047
 30
0.0
 10
42.8394819898958
 20
6.608103913848932
 30
0.0
 10
44.71370729670407
 20
5.00510188147565
 30
0.0
 10
46.58649969730463
 20
3.25964913305554
 30
0.0
 10
48.45847826934021
 20
1.422199426087273
 30
0.0
 10
50.33062250436907
 20
-0.4556061066131643
 30
0.0
 10
52.20386051980608
 20
-2.320669196538919
 30
0.0
 10
54.0781558927305
 20
-4.119338992783846
 30
0.0
 10
55.95110255950242
 20
-5.801888220143146
 30
0.0
 10
57.82312965921373
 20
-7.31967258367141
 30
0.0
 10
59.69520093964357
 20
-8.63007258479262
 30
0.0
 10
61.56826652721987
 20
-9.695930551985636
 30
0.0
 10
63.4425804388021
 20
-10.48698690366015
 30
0.0
 10
65.3156923888722
 20
-10.97993396579282
 30
0.0
 10
67.18778041462645
 20
-11.16588277541658
 30
0.0
 10
69.05979935379952
 20
-11.01939146584017
 30
0.0
 10
70.59961399335945
 20
-10.69133015384166
 30
0.0
 10
71.5158375704584
 20
-10.30824816981151
 30
0.0
 10
71.80754303081955
 20
-10.18628328121804
 30
0.0
  0
SPLINE
  5
BC
330
1F
100
AcDbEntity
  8
0
  6
Continuous
 62
     1
370
    15
100
AcDbSpline
210
0.0
220
0.0
230
1.0
 70
     8
 71
     3
 72
    29
 73
    25
 74
     0
 42
0.000000001
 43
0.00000001
 40
0.0
 40
0.0
 40
0.0
 40
0.0
 40
0.0407019710075352
 40
0.0882606701322639
 40
0.1358416957482854
 40
0.1833921151859903
 40
0.2309246749913321
 40
0.2784587242266498
 40
0.3260136011944759
 40
0.3735953654714477
 40
0.4211492500246294
 40
0.4686829419158343
 40
0.5162157820288921
 40
0.5637671174010029
 40
0.6113484592506724
 40
0.6589060895851142
 40
0.7064411963592487
 40
0.7539731102371448
 40
0.8015211849480621
 40
0.8491009433361548
 40
0.8966625997229235
 40
0.9441994040275281
 40
0.9917306746552728
 40
0.9999999999999999
 40
0.9999999999999999
 40
0.9999999999999999
 40
0.9999999999999999
 10
76.2833639803221
 20
-11.09203291054236
 30
0.0
 10
75.74909450695175
 20
-11.07757241082797
 30
0.0
 10
74.5905515523084
 20
-11.0462153692979
 30
0.0
 10
72.80697687079784
 20
-10.61694978641985
 30
0.0
 10
70.93269850020454
 20
-9.896885453392638
 30
0.0
 10
69.05979408915555
 20
-8.887593645501857
 30
0.0
 10
67.18778182508647
 20
-7.628829669064289
 30
0.0
 10
65.31569201075754
 20
-6.15324807525792
 30
0.0
 10
63.44258054020325
 20
-4.503165393038275
 30
0.0
 10
61.5682665000567
 20
-2.726020810635295
 30
0.0
 10
59.69520094693038
 20
-0.870954147793765
 30
0.0
 10
57.82312965721048
 20
1.008545033427282
 30
0.0
 10
55.95110256023023
 20
2.859475724486426
 30
0.0
 10
54.07815589182252
 20
4.629706048275412
 30
0.0
 10
52.20386052271076
 20
6.268156004732524
 30
0.0
 10
50.33062249366677
 20
7.729530434368021
 30
0.0
 10
48.45847830922526
 20
8.971737511518608
 30
0.0
 10
46.58649954844814
 20
9.959584264226944
 30
0.0
 10
44.71370785261021
 20
10.66583916613454
 30
0.0
 10
42.83947991404431
 20
11.06782058434432
 30
0.0
 10
40.96606837588482
 20
11.1632696969043
 30
0.0
 10
39.09380192352094
 20
10.91633146818175
 30
0.0
 10
37.7374875417171
 20
10.58364199484508
 30
0.0
 10
37.00491567693991
 20
10.25277588018938
 30
0.0
 10
36.89635276676553
 20
10.20374343707742
 30
0.0
  0
SPLINE
  5
BD
330
1F
100
AcDbEntity
  8
0
  6
Continuous
 62
     1
370
    15
100
AcDbSpline
210
0.0
220
0.0
230
1.0
 70
     8
 71
     3
 72
    14
 73
    10
 74
     0
 42
0.000000001
 43
0.00000001
 40
0.0
 40
0.0
 40
0.0
 40
0.0
 40
0.1544250032572588
 40
0.308829714926147
 40
0.4632275078447818
 40
0.6176317741344821
 40
0.772055887874356
 40
0.9133732209736559
 40
1.0
 40
1.0
 40
1.0
 40
1.0
 10
12.00000000000001
 20
-7.815877227740098
 30
0.0
 10
12.68255213456375
 20
-8.275394746418462
 30
0.0
 10
14.04756671570892
 20
-9.194369402747887
 30
0.0
 10
16.0948194117816
 20
-10.19089287663151
 30
0.0
 10
18.14194735355492
 20
-10.86027975612261
 30
0.0
 10
20.18921151869994
 20
-11.16067127389264
 30
0.0
 10
22.17875221043924
 20
-11.07274791218792
 30
0.0
 10
23.86903497325235
 20
-10.74371427870997
 30
0.0
 10
24.87667371954582
 20
-10.34102188259134
 30
0.0
 10
25.25961188013072
 20
-10.18798461003863
 30
0.0
  0
SPLINE
  5
BE
330
1F
100
AcDbEntity
  8
0
  6
Continuous
 62
     1
370
    15
100
AcDbSpline
210
0.0
220
0.0
230
1.0
 70
     8
 71
     3
 72
    29
 73
    25
 74
     0
 42
0.000000001
 43
0.00000001
 40
0.0
 40
0.0
 40
0.0
 40
0.0
 40
0.0064707965881045
 40
0.0540063369825474
 40
0.1015427292035258
 40
0.1490993152336006
 40
0.1966837825712782
 40
0.2442413610723757
 40
0.2917781106577665
 40
0.3393133707285698
 40
0.3868664914463193
 40
0.4344502200810837
 40
0.4820116209562155
 40
0.5295498625079177
 40
0.5770842733613456
 40
0.6246342098138394
 40
0.6722160386858694
 40
0.719781542109429
 40
0.7673215582451399
 40
0.8148554029037661
 40
0.8624024364739357
 40
0.9099812047661446
 40
0.9575510904805061
 40
0.9999999999999999
 40
0.9999999999999999
 40
0.9999999999999999
 40
0.9999999999999999
 10
55.69644385533845
 20
11.09504923310011
 30
0.0
 10
55.78139577429219
 20
11.10101434811583
 30
0.0
 10
56.49041851977046
 20
11.15080018318147
 30
0.0
 10
57.82309556018879
 20
10.94309500445472
 30
0.0
 10
59.69521008720461
 20
10.45566207985513
 30
0.0
 10
61.5682640496612
 20
9.641161637138078
 30
0.0
 10
63.44258119347932
 20
8.562057581482978
 30
0.0
 10
65.31569184726641
 20
7.237740511063731
 30
0.0
 10
67.18778182626012
 20
5.709100340784719
 30
0.0
 10
69.05979424793584
 20
4.01860655590675
 30
0.0
 10
70.93269786345826
 20
2.213966988815006
 30
0.0
 10
72.80697926010393
 20
0.3472747034394668
 30
0.0
 10
74.68026606702077
 20
-1.529816872662847
 30
0.0
 10
76.55243261482846
 20
-3.36334468131297
 30
0.0
 10
78.42440043155518
 20
-5.101447433042726
 30
0.0
 10
80.297152604619
 20
-6.695246407931377
 30
0.0
 10
82.17135008049175
 20
-8.098801050694675
 30
0.0
 10
84.0448226627682
 20
-9.273126351605757
 30
0.0
 10
85.91708020691269
 20
-10.18470093221912
 30
0.0
 10
87.7890172053173
 20
-10.80707283069543
 30
0.0
 10
89.66162962942003
 20
-11.12514522411527
 30
0.0
 10
91.53568769231696
 20
-11.12065774226254
 30
0.0
 10
93.34249339371716
 20
-10.8383687162175
 30
0.0
 10
94.5240682673921
 20
-10.41038235686997
 30
0.0
 10
95.08124707402726
 20
-10.20856279023031
 30
0.0
  0
SPLINE
  5
BF
330
1F
100
AcDbEntity
  8
외형선
  6
Continuous
370
    15
100
AcDbSpline
210
0.0
220
0.0
230
1.0
 70
    24
 71
     3
 72
    23
 73
    19
 74
     0
 42
0.000000001
 43
0.00000001
 40
0.0
 40
0.0
 40
0.0
 40
0.0
 40
0.0371152638848412
 40
0.1029211248823491
 40
0.1706353603067908
 40
0.2364412213042983
 40
0.3041554567287389
 40
0.369961317726247
 40
0.4376755531506881
 40
0.5034814141481955
 40
0.5711956495726359
 40
0.6370015105701424
 40
0.7047157459945826
 40
0.7705216069920766
 40
0.8382358424165335
 40
0.9040417034140412
 40
0.9717559388384818
 40
1.0
 40
1.0
 40
1.0
 40
1.0
 10
12.00000000000001
 20
0.3343692132439407
 30
0.0
 10
12.00000000000001
 20
0.3305117271778701
 30
0.0
 10
11.99999999999999
 20
0.3198148665447405
 30
0.0
 10
12.00000000000002
 20
0.1713402795133908
 30
0.0
 10
12.00000000000003
 20
-0.1035000400500085
 30
0.0
 10
11.99999999999996
 20
-0.4999302888550712
 30
0.0
 10
12.00000000000013
 20
-0.9929946960478107
 30
0.0
 10
11.99999999999995
 20
-1.579383117432457
 30
0.0
 10
12.00000000000005
 20
-2.231470340630551
 30
0.0
 10
12.0
 20
-2.942662070233902
 30
0.0
 10
11.99999999999994
 20
-3.679996175519906
 30
0.0
 10
12.00000000000004
 20
-4.435873799161835
 30
0.0
 10
12.00000000000004
 20
-5.175324681578495
 30
0.0
 10
11.99999999999999
 20
-5.890609723861505
 30
0.0
 10
12.00000000000001
 20
-6.54905005910313
 30
0.0
 10
12.00000000000004
 20
-7.142209253078328
 30
0.0
 10
11.99999999999999
 20
-7.553310727130387
 30
0.0
 10
12.0
 20
-7.756168664741121
 30
0.0
 10
12.00000000000001
 20
-7.815877227740098
 30
0.0
  0
SPLINE
  5
C0
330
1F
100
AcDbEntity
  8
0
  6
Continuous
 62
     1
370
    15
100
AcDbSpline
210
0.0
220
0.0
230
1.0
 70
     8
 71
     3
 72
    29
 73
    25
 74
     0
 42
0.000000001
 43
0.00000001
 40
0.0
 40
0.0
 40
0.0
 40
0.0
 40
0.0134499459732663
 40
0.0609943316418462
 40
0.1085278664856956
 40
0.1560699129284336
 40
0.2036397719199797
 40
0.2512185134843837
 40
0.298765520344575
 40
0.3462993383006325
 40
0.3938393277303081
 40
0.441404804433515
 40
0.4889866065760203
 40
0.5365365163169052
 40
0.584070900467446
 40
0.6316091153141097
 40
0.6791704894711927
 40
0.726754191375366
 40
0.774307285379718
 40
0.8218425187471571
 40
0.8693792416283478
 40
0.9169367934135436
 40
0.9645212340202146
 40
1.0
 40
1.0
 40
1.0
 40
1.0
 10
99.55571234455141
 20
-11.07943497520533
 30
0.0
 10
99.37909251736593
 20
-11.08877563766706
 30
0.0
 10
98.57813700904711
 20
-11.13113472706991
 30
0.0
 10
97.15366714958625
 20
-10.88930500758895
 30
0.0
 10
95.28171594595855
 20
-10.35194822800469
 30
0.0
 10
93.40936156905383
 20
-9.4972711580926
 30
0.0
 10
91.5356905350031
 20
-8.379843585539504
 30
0.0
 10
89.6616288682234
 20
-7.023405201330722
 30
0.0
 10
87.78901740915728
 20
-5.467972287442681
 30
0.0
 10
85.9170801522949
 20
-3.757714442352385
 30
0.0
 10
84.04482267740713
 20
-1.940828256923771
 30
0.0
 10
82.17135007658632
 20
-0.0688472511010549
 30
0.0
 10
80.29715260559178
 20
1.804656638882484
 30
0.0
 10
78.42440043156698
 20
3.62765968393767
 30
0.0
 10
76.55243261380944
 20
5.347539048969982
 30
0.0
 10
74.68026607108646
 20
6.91601564695836
 30
0.0
 10
72.80697924484907
 20
8.288644922226425
 30
0.0
 10
70.93269792042234
 20
9.425998130205123
 30
0.0
 10
69.0597940355273
 20
10.29682997908697
 30
0.0
 10
67.18778261867575
 20
10.87501118504099
 30
0.0
 10
65.31568888923861
 20
11.14771666618005
 30
0.0
 10
63.44259224101359
 20
11.09473346311123
 30
0.0
 10
61.72686664794409
 20
10.79192665255692
 30
0.0
 10
60.63644378923908
 20
10.37512039863945
 30
0.0
 10
60.17069175518131
 20
10.19709005103595
 30
0.0
  0
SPLINE
  5
C1
330
1F
100
AcDbEntity
  8
0
  6
Continuous
 62
     1
370
    15
100
AcDbSpline
210
0.0
220
0.0
230
1.0
 70
     8
 71
     3
 72
    17
 73
    13
 74
     0
 42
0.000000001
 43
0.00000001
 40
0.0
 40
0.0
 40
0.0
 40
0.0
 40
0.0003016530453147
 40
0.1058686782959998
 40
0.2114612166234149
 40
0.3171219663820278
 40
0.4227770264681058
 40
0.5382312928209889
 40
0.6536707203462866
 40
0.76910530809437
 40
0.8845450686047576
 40
1.0
 40
1.0
 40
1.0
 40
1.0
 10
29.73444773358741
 20
-11.11097661220176
 30
0.0
 10
29.73266480969803
 20
-11.11112605672566
 30
0.0
 10
29.10692673543558
 20
-11.16357536718199
 30
0.0
 10
27.85728234485319
 20
-10.98085596379876
 30
0.0
 10
25.98474705875218
 20
-10.5405530367949
 30
0.0
 10
24.11079134565648
 20
-9.762835191496276
 30
0.0
 10
22.17876412848514
 20
-8.686337674753318
 30
0.0
 10
20.18920820700101
 20
-7.29917142517957
 30
0.0
 10
18.14194824052596
 20
-5.625342225691777
 30
0.0
 10
16.09481917524936
 20
-3.76097479142283
 30
0.0
 10
14.04756677485216
 20
-1.76855929137326
 30
0.0
 10
12.68255215427901
 20
-0.4020967411431812
 30
0.0
 10
12.00000000000001
 20
0.2811794255322422
 30
0.0
  0
LINE
  5
C2
330
1F
100
AcDbEntity
  8
0
  6
Continuous
 62
     1
370
    15
100
AcDbLine
 10
100.9
 20
-4.354117833944493
 30
0.0
 11
100.9
 21
4.356267691392491
 31
0.0
  0
SPLINE
  5
C3
330
1F
100
AcDbEntity
  8
0
  6
Continuous
 62
     1
370
    15
100
AcDbSpline
210
0.0
220
0.0
230
1.0
 70
     8
 71
     3
 72
    27
 73
    23
 74
     0
 42
0.000000001
 43
0.00000001
 40
0.0
 40
0.0
 40
0.0
 40
0.0
 40
0.056044044286655
 40
0.1120807243340139
 40
0.1681148934230602
 40
0.224151411833052
 40
0.2801951332953544
 40
0.3314821315639904
 40
0.3827718917091068
 40
0.4340285407135837
 40
0.4852728051799134
 40
0.5365255586654643
 40
0.5878076134147546
 40
0.6391015833953961
 40
0.6903611409548569
 40
0.7416057937587364
 40
0.7928564125581737
 40
0.8441338250095612
 40
0.8954307536817566
 40
0.946693523388394
 40
0.9979388696963654
 40
1.0
 40
1.0
 40
1.0
 40
1.0
 10
12.00000000000001
 20
10.74966697272469
 30
0.0
 10
12.6825521550618
 20
10.54119986703941
 30
0.0
 10
14.04756677720044
 20
10.1242930484395
 30
0.0
 10
16.09481916585782
 20
9.058617923387724
 30
0.0
 10
18.14194827574327
 20
7.712407049031119
 30
0.0
 10
20.18920807550948
 20
6.098135538510199
 30
0.0
 10
22.17876460169297
 20
4.330530009393415
 30
0.0
 10
24.11078974559377
 20
2.483975970159699
 30
0.0
 10
25.98475304668587
 20
0.6229822472603508
 30
0.0
 10
27.85726001122729
 20
-1.256027912853417
 30
0.0
 10
29.72918626973334
 20
-3.099100140202158
 30
0.0
 10
31.60151814874666
 20
-4.854525676356459
 30
0.0
 10
33.47513268167202
 20
-6.472271442054712
 30
0.0
 10
35.34923680446346
 20
-7.906328277134523
 30
0.0
 10
37.22188541767738
 20
-9.116718968756008
 30
0.0
 10
39.09382970700987
 20
-10.06832784880616
 30
0.0
 10
40.96606069703586
 20
-10.73531019866283
 30
0.0
 10
42.83948283074931
 20
-11.09566350557039
 30
0.0
 10
44.71370386965891
 20
-11.15028808246142
 30
0.0
 10
46.58651255290346
 20
-10.85623930854636
 30
0.0
 10
47.85959376521945
 20
-10.5298114086762
 30
0.0
 10
48.50863412780281
 20
-10.22848471932687
 30
0.0
 10
48.53372970426248
 20
-10.21683372285909
 30
0.0
  0
SPLINE
  5
C4
330
1F
100
AcDbEntity
  8
0
  6
Continuous
 62
     1
370
    15
100
AcDbSpline
210
0.0
220
0.0
230
1.0
 70
     8
 71
     3
 72
    19
 73
    15
 74
     0
 42
0.000000001
 43
0.00000001
 40
0.0
 40
0.0
 40
0.0
 40
0.0
 40
0.0605819600441032
 40
0.1460307229760102
 40
0.2314501682164964
 40
0.316823842681273
 40
0.4021864342369885
 40
0.4875727108044511
 40
0.5730159774625545
 40
0.6584432925419418
 40
0.743820661049685
 40
0.8291827441843888
 40
0.9145643135408889
 40
0.9999999999999999
 40
0.9999999999999999
 40
0.9999999999999999
 40
0.9999999999999999
 10
78.96831641815871
 20
11.08107405606386
 30
0.0
 10
79.41114363790288
 20
11.07867460315435
 30
0.0
 10
80.47856336162315
 20
11.07289080476176
 30
0.0
 10
82.1713616273552
 20
10.6990869278051
 30
0.0
 10
84.04481958687116
 20
10.02418052575014
 30
0.0
 10
85.9170809718828
 20
9.053896392233908
 30
0.0
 10
87.78901722011034
 20
7.830217554110815
 30
0.0
 10
89.66162880460892
 20
6.383610017624052
 30
0.0
 10
91.53569097898054
 20
4.756702744756898
 30
0.0
 10
93.4093598576502
 20
2.994926726747889
 30
0.0
 10
95.28172234318205
 20
1.147566347458333
 30
0.0
 10
97.15364327284223
 20
-0.7296899647150348
 30
0.0
 10
99.02612429204649
 20
-2.595379562776893
 30
0.0
 10
100.2752428517429
 20
-3.767747936431177
 30
0.0
 10
100.9
 20
-4.354117833944492
 30
0.0
  0
SPLINE
  5
C5
330
1F
100
AcDbEntity
  8
0
  6
Continuous
 62
     1
370
    15
100
AcDbSpline
210
0.0
220
0.0
230
1.0
 70
     8
 71
     3
 72
    17
 73
    13
 74
     0
 42
0.000000001
 43
0.00000001
 40
0.0
 40
0.0
 40
0.0
 40
0.0
 40
0.1073406283020134
 40
0.2146132643628838
 40
0.321861418109893
 40
0.429128776262155
 40
0.5364588868379525
 40
0.6438090388338267
 40
0.7510875889922256
 40
0.8583363815148217
 40
0.9655990985047149
 40
1.0
 40
1.0
 40
1.0
 40
1.0
 10
100.9
 20
4.356267691392492
 30
0.0
 10
100.2752428525713
 20
4.918772865870611
 30
0.0
 10
99.02612429453123
 20
6.043426909967524
 30
0.0
 10
97.15364326291164
 20
7.526532197001964
 30
0.0
 10
95.28172238041584
 20
8.80503952561129
 30
0.0
 10
93.40935971858033
 20
9.831730015496987
 30
0.0
 10
91.5356914983855
 20
10.58076964920875
 30
0.0
 10
89.66162686634193
 20
11.0283210092587
 30
0.0
 10
87.78902444754877
 20
11.1689641691685
 30
0.0
 10
85.91705400498009
 20
10.97266620056292
 30
0.0
 10
84.46910069472612
 20
10.6393342637318
 30
0.0
 10
83.64468624260086
 20
10.28018295292628
 30
0.0
 10
83.44448946193044
 20
10.1929684020272
 30
0.0
  0
SPLINE
  5
C6
330
1F
100
AcDbEntity
  8
0
  6
Continuous
 62
     1
370
    15
100
AcDbSpline
210
0.0
220
0.0
230
1.0
 70
     8
 71
     3
 72
    29
 73
    25
 74
     0
 42
0.000000001
 43
0.00000001
 40
0.0
 40
0.0
 40
0.0
 40
0.0
 40
0.0204301473263043
 40
0.0679895131698002
 40
0.1155263546310419
 40
0.1630600030795275
 40
0.2106098129507879
 40
0.2581913076554482
 40
0.3057546996981927
 40
0.3532932387518522
 40
0.4008262439267125
 40
0.4483730743064561
 40
0.4959518246174419
 40
0.5435195227166857
 40
0.5910600418412506
 40
0.6385926868058304
 40
0.6861368192970815
 40
0.7337116646907181
 40
0.7812839482504493
 40
0.8332684257818177
 40
0.8852462219775925
 40
0.9372218390136204
 40
0.9891997851393759
 40
1.0
 40
1.0
 40
1.0
 40
1.0
 10
53.00860170150953
 20
-11.07275488243402
 30
0.0
 10
52.74028933909982
 20
-11.08184729606588
 30
0.0
 10
51.84737228831641
 20
-11.11210595091036
 30
0.0
 10
50.33062147449993
 20
-10.83006902578936
 30
0.0
 10
48.45847854669849
 20
-10.24429623085859
 30
0.0
 10
46.58649961741913
 20
-9.349650076171159
 30
0.0
 10
44.71370733882943
 20
-8.1947701741853
 30
0.0
 10
42.8394819013035
 20
-6.806736192373783
 30
0.0
 10
40.96606094589618
 20
-5.225768038897808
 30
0.0
 10
39.09382964035131
 20
-3.496630430056366
 30
0.0
 10
37.22188543554567
 20
-1.668550226966713
 30
0.0
 10
35.34923679966153
 20
0.2072011690211904
 30
0.0
 10
33.47513268299571
 20
2.076575751743885
 30
0.0
 10
31.60151814825428
 20
3.887454987199935
 30
0.0
 10
29.72918627037964
 20
5.58824952052521
 30
0.0
 10
27.85726000913434
 20
7.130531801606526
 30
0.0
 10
25.98475305441558
 20
8.47104013444963
 30
0.0
 10
24.11078971674908
 20
9.571130146043563
 30
0.0
 10
22.17876471354723
 20
10.42642666292337
 30
0.0
 10
20.18920761476324
 20
10.97787366564875
 30
0.0
 10
18.14194998993355
 20
11.18146208654795
 30
0.0
 10
16.09481276991886
 20
10.97718452057663
 30
0.0
 10
14.58827837574193
 20
10.63395902035455
 30
0.0
 10
13.76401906536353
 20
10.26032438513624
 30
0.0
 10
13.62221533118137
 20
10.19604511546148
 30
0.0
  0
LINE
  5
C7
330
1F
100
AcDbEntity
  8
0
  6
Continuous
 62
     1
370
    15
100
AcDbLine
 10
100.9
 20
-11.03033216820056
 30
0.0
 11
100.9
 21
-6.64065311232808
 31
0.0
  0
SPLINE
  5
C8
330
1F
100
AcDbEntity
  8
0
  6
Continuous
 62
     1
370
    15
100
AcDbSpline
210
0.0
220
0.0
230
1.0
 70
     8
 71
     3
 72
    20
 73
    16
 74
     0
 42
0.000000001
 43
0.00000001
 40
0.0
 40
0.0
 40
0.0
 40
0.0
 40
0.0822428524792703
 40
0.1644748981715972
 40
0.2467032591124626
 40
0.3289350676070944
 40
0.4111774463518946
 40
0.4864394851001653
 40
0.5617055768143279
 40
0.6369230789827197
 40
0.7121224072352779
 40
0.7873341928535449
 40
0.8625889771444071
 40
0.9378612466583066
 40
1.0
 40
1.0
 40
1.0
 40
1.0
 10
12.00000000000001
 20
2.93271481626077
 30
0.0
 10
12.68255215505715
 20
2.264715997849449
 30
0.0
 10
14.04756677718645
 20
0.9288061366898744
 30
0.0
 10
16.09481916591378
 20
-1.133179590145618
 30
0.0
 10
18.14194827553346
 20
-3.14958621229587
 30
0.0
 10
20.18920807629276
 20
-5.061226400123643
 30
0.0
 10
22.17876459887414
 20
-6.751873251446156
 30
0.0
 10
24.11078975512512
 20
-8.184731572813718
 30
0.0
 10
25.98475301101654
 20
-9.342318369070956
 30
0.0
 10
27.85726014426567
 20
-10.23546482737735
 30
0.0
 10
29.72918577330803
 20
-10.83779199953397
 30
0.0
 10
31.60152000224034
 20
-11.13526006282909
 30
0.0
 10
33.47512575928986
 20
-11.10876929205113
 30
0.0
 10
35.24064916102833
 20
-10.81655028417672
 30
0.0
 10
36.38077535082229
 20
-10.39308787096821
 30
0.0
 10
36.89635276676562
 20
-10.20159357962963
 30
0.0
  0
SPLINE
  5
C9
330
1F
100
AcDbEntity
  8
0
  6
Continuous
 62
     1
370
    15
100
AcDbSpline
210
0.0
220
0.0
230
1.0
 70
     8
 71
     3
 72
    25
 73
    21
 74
     0
 42
0.000000001
 43
0.00000001
 40
0.0
 40
0.0
 40
0.0
 40
0.0
 40
0.0514729807087255
 40
0.1072666681517813
 40
0.1630962676134267
 40
0.218899670097388
 40
0.2746758999366667
 40
0.330447635249004
 40
0.3862375866196899
 40
0.4420649571052634
 40
0.4978731730757268
 40
0.5536514850199027
 40
0.6094225560205121
 40
0.6652091014631191
 40
0.7210328809954314
 40
0.7768462386718353
 40
0.8326269640939623
 40
0.8883977029211475
 40
0.9441811729393558
 40
1.0
 40
1.0
 40
1.0
 40
1.0
 10
67.33210358731034
 20
11.10237045963575
 30
0.0
 10
67.90792428369203
 20
11.08101997462343
 30
0.0
 10
69.10790078987544
 20
11.036526818036
 30
0.0
 10
70.93269815421779
 20
10.58053111546192
 30
0.0
 10
72.80697918221927
 20
9.840125454372885
 30
0.0
 10
74.68026608785269
 20
8.813362519035826
 30
0.0
 10
76.55243260932964
 20
7.538882229184488
 30
0.0
 10
78.42440043272545
 20
6.050375546022436
 30
0.0
 10
80.29715260543901
 20
4.390255923842847
 30
0.0
 10
82.17135007603757
 20
2.606285302439904
 30
0.0
 10
84.04482267975338
 20
0.7480633225500872
 30
0.0
 10
85.91708014346389
 20
-1.131285161421925
 30
0.0
 10
87.78901744213607
 20
-2.978392277936011
 30
0.0
 10
89.66162874506573
 20
-4.741355510884107
 30
0.0
 10
91.53569099493657
 20
-6.36958901818656
 30
0.0
 10
93.40935985337804
 20
-7.817095182039071
 30
0.0
 10
95.2817223443258
 20
-9.044707620996833
 30
0.0
 10
97.15364327253717
 20
-10.00984889577447
 30
0.0
 10
99.02612429212279
 20
-10.71384335279367
 30
0.0
 10
100.2752428517683
 20
-10.9248136170343
 30
0.0
 10
100.9
 20
-11.03033216820056
 30
0.0
  0
SPLINE
  5
CA
330
1F
100
AcDbEntity
  8
외형선
  6
Continuous
370
    15
100
AcDbSpline
210
0.0
220
0.0
230
1.0
 70
    24
 71
     3
 72
    18
 73
    14
 74
     0
 42
0.000000001
 43
0.00000001
 40
0.0
 40
0.0
 40
0.0
 40
0.0
 40
0.0859659262006285
 40
0.1739758856190407
 40
0.2684911947344995
 40
0.3657474542172284
 40
0.4602627633326864
 40
0.5575190228154142
 40
0.652034331930873
 40
0.7492905914136014
 40
0.8438059005290591
 40
0.9410621600117864
 40
1.0
 40
1.0
 40
1.0
 40
1.0
 10
12.00000000000002
 20
9.761776754503439
 30
0.0
 10
12.00000000000001
 20
9.584075459356495
 30
0.0
 10
11.99999999999999
 20
9.224447621151292
 30
0.0
 10
12.00000000000001
 20
8.59524653752155
 30
0.0
 10
11.99999999999999
 20
7.899613118250222
 30
0.0
 10
12.00000000000006
 20
7.157798935427482
 30
0.0
 10
11.99999999999993
 20
6.40225894350595
 30
0.0
 10
12.00000000000017
 20
5.667387155670085
 30
0.0
 10
11.99999999999993
 20
4.961302117133129
 30
0.0
 10
12.00000000000006
 20
4.315113999595765
 30
0.0
 10
11.99999999999999
 20
3.741286557017634
 30
0.0
 10
11.99999999999996
 20
3.306502045835632
 30
0.0
 10
11.99999999999997
 20
3.10954530857448
 30
0.0
 10
11.99999999999999
 20
3.035226210064245
 30
0.0
  0
SPLINE
  5
CB
330
1F
100
AcDbEntity
  8
0
  6
Continuous
 62
     1
370
    15
100
AcDbSpline
210
0.0
220
0.0
230
1.0
 70
     8
 71
     3
 72
    23
 73
    19
 74
     0
 42
0.000000001
 43
0.00000001
 40
0.0
 40
0.0
 40
0.0
 40
0.0
 40
0.0644058889525214
 40
0.1287709816026366
 40
0.1931213845195838
 40
0.2574833103501907
 40
0.3218828885188327
 40
0.3862944918218189
 40
0.4506631330137555
 40
0.5150139192050525
 40
0.5793730602728638
 40
0.6437667057453316
 40
0.7081824524269792
 40
0.7725550235084742
 40
0.836906576207948
 40
0.9012633148638157
 40
0.9656514063521978
 40
1.0
 40
1.0
 40
1.0
 40
1.0
 10
100.9
 20
-6.675139405532004
 30
0.0
 10
100.2752428517683
 20
-6.15770450005658
 30
0.0
 10
99.02612429212265
 20
-5.123162445328381
 30
0.0
 10
97.15364327253783
 20
-3.374999989592463
 30
0.0
 10
95.28172234432344
 20
-1.545011503208618
 30
0.0
 10
93.40935985338677
 20
0.3326480458014107
 30
0.0
 10
91.53569099490392
 20
2.199820311387823
 30
0.0
 10
89.66162874518754
 20
4.004700343326333
 30
0.0
 10
87.78901744168176
 20
5.696512996636475
 30
0.0
 10
85.917080145159
 20
7.226630987772281
 30
0.0
 10
84.044822673425
 20
8.552149252643217
 30
0.0
 10
82.1713500996729
 20
9.635257218077465
 30
0.0
 10
80.29715251722352
 20
10.44543046345914
 30
0.0
 10
78.42440076165502
 20
10.95881961208007
 30
0.0
 10
76.55243138212556
 20
11.16541024999125
 30
0.0
 10
74.68027066925167
 20
11.04133446994404
 30
0.0
 10
73.09858019119689
 20
10.7175348725989
 30
0.0
 10
72.14075276829924
 20
10.32499144641611
 30
0.0
 10
71.80754303081963
 20
10.18843313866583
 30
0.0
  0
SPLINE
  5
CC
330
1F
100
AcDbEntity
  8
0
  6
Continuous
 62
     1
370
    15
100
AcDbSpline
210
0.0
220
0.0
230
1.0
 70
     8
 71
     3
 72
    23
 73
    19
 74
     0
 42
0.000000001
 43
0.00000001
 40
0.0
 40
0.0
 40
0.0
 40
0.0
 40
0.0137815017064565
 40
0.0775311384734889
 40
0.1412733542559814
 40
0.2050341097708066
 40
0.2688376702195407
 40
0.3326264095463379
 40
0.3963787016074433
 40
0.4601204343444954
 40
0.5238775719649793
 40
0.5876758958820999
 40
0.6514707843553852
 40
0.7211824672577142
 40
0.790885190424938
 40
0.8605849913180428
 40
0.9302879155428084
 40
1.0
 40
1.0
 40
1.0
 40
1.0
 10
41.37063732530943
 20
-11.08471650171478
 30
0.0
 10
41.23569723876477
 20
-11.09294910404094
 30
0.0
 10
40.47655946420591
 20
-11.13926358010762
 30
0.0
 10
39.09386106261294
 20
-10.9137411054684
 30
0.0
 10
37.22187701384428
 20
-10.3988642564564
 30
0.0
 10
35.34923905824422
 20
-9.562395744526103
 30
0.0
 10
33.47513207774648
 20
-8.462344429799158
 30
0.0
 10
31.60151831044995
 20
-7.120360789090771
 30
0.0
 10
29.72918622642399
 20
-5.576997291232213
 30
0.0
 10
27.85726002283391
 20
-3.875614928521591
 30
0.0
 10
25.98475304357395
 20
-2.064111498550827
 30
0.0
 10
24.11078974642534
 20
-0.1944498535280143
 30
0.0
 10
22.178764601447
 20
1.739273749304146
 30
0.0
 10
20.18920807557783
 20
3.678528914659175
 30
0.0
 10
18.14194827572499
 20
5.551198200427692
 30
0.0
 10
16.09481916586269
 20
7.229619937168852
 30
0.0
 10
14.04756677719922
 20
8.687043166833474
 30
0.0
 10
12.6825521550614
 20
9.403516533371857
 30
0.0
 10
12.00000000000001
 20
9.761776754503387
 30
0.0
  0
LINE
  5
CD
330
1F
100
AcDbEntity
  8
0
  6
Continuous
 62
     1
370
    15
100
AcDbLine
 10
100.9
 20
-11.11142507127611
 30
0.0
 11
100.9
 21
-11.03033216820056
 31
0.0
  0
LINE
  5
CE
330
1F
100
AcDbEntity
  8
외형선
  6
Continuous
370
    15
100
AcDbLine
 10
12.00000000000002
 20
0.2811794255322304
 30
0.0
 11
12.00000000000001
 21
2.93271481626077
 31
0.0
  0
LINE
  5
CF
330
1F
100
AcDbEntity
  8
0
  6
Continuous
 62
     1
370
    15
100
AcDbLine
 10
100.9
 20
11.03248202564835
 30
0.0
 11
100.9
 21
11.1135749287239
 31
0.0
  0
LINE
  5
D0
330
1F
100
AcDbEntity
  8
0
  6
Continuous
 62
     1
370
    15
100
AcDbLine
 10
100.9
 20
-6.675139405532006
 30
0.0
 11
100.9
 21
-4.354117833944493
 31
0.0
  0
LINE
  5
D1
330
1F
100
AcDbEntity
  8
외형선
  6
Continuous
370
    15
100
AcDbLine
 10
12.00000000000002
 20
9.761776754503439
 30
0.0
 11
12.00000000000001
 21
10.74966697272469
 31
0.0
  0
LINE
  5
D2
330
1F
100
AcDbEntity
  8
0
  6
Continuous
 62
     1
370
    15
100
AcDbLine
 10
100.9
 20
4.356267691392491
 30
0.0
 11
100.9
 21
6.677289262979854
 31
0.0
  0
LINE
  5
D3
330
1F
100
AcDbEntity
  8
외형선
  6
Continuous
370
    15
100
AcDbLine
 10
12.00000000000002
 20
-9.479522400247241
 30
0.0
 11
12.00000000000001
 21
-7.815877227740098
 31
0.0
  0
LINE
  5
D4
330
1F
100
AcDbEntity
  8
외형선
  6
Continuous
370
    15
100
AcDbLine
 10
10.99978208381787
 20
10.9594577241066
 30
0.0
 11
10.99978208381787
 21
11.1135749287239
 31
0.0
  0
SPLINE
  5
D5
330
1F
100
AcDbEntity
  8
외형선
  6
Continuous
370
    15
100
AcDbSpline
210
0.0
220
0.0
230
1.0
 70
     8
 71
     3
 72
     8
 73
     4
 74
     0
 42
0.000000001
 43
0.00000001
 40
0.0
 40
0.0
 40
0.0
 40
0.0
 40
1.0
 40
1.0
 40
1.0
 40
1.0
 10
11.99999999999999
 20
10.74966697272469
 30
0.0
 10
11.66734404698299
 20
10.83411570882796
 30
0.0
 10
11.33326498432378
 20
10.90420217556699
 30
0.0
 10
10.99978208381789
 20
10.95946639240167
 30
0.0
  0
SPLINE
  5
D6
330
1F
100
AcDbEntity
  8
외형선
  6
Continuous
370
    15
100
AcDbSpline
210
0.0
220
0.0
230
1.0
 70
     8
 71
     3
 72
     8
 73
     4
 74
     0
 42
0.000000001
 43
0.00000001
 40
0.0
 40
0.0
 40
0.0
 40
0.0
 40
1.0
 40
1.0
 40
1.0
 40
1.0
 10
11.99999999999999
 20
9.761776754503387
 30
0.0
 10
11.66734404698299
 20
9.920818786707796
 30
0.0
 10
11.33326498432377
 20
10.0669357961615
 30
0.0
 10
10.99978208381787
 20
10.19921101248618
 30
0.0
  0
SPLINE
  5
D7
330
1F
100
AcDbEntity
  8
외형선
  6
Continuous
370
    15
100
AcDbSpline
210
0.0
220
0.0
230
1.0
 70
     8
 71
     3
 72
     8
 73
     4
 74
     0
 42
0.000000001
 43
0.00000001
 40
0.0
 40
0.0
 40
0.0
 40
0.0
 40
1.0
 40
1.0
 40
1.0
 40
1.0
 10
11.99999999999999
 20
2.932714816260768
 30
0.0
 10
11.66734404698299
 20
3.253643480897166
 30
0.0
 10
11.33326498432378
 20
3.571078926106544
 30
0.0
 10
10.99978208381789
 20
3.883090462809379
 30
0.0
  0
SPLINE
  5
D8
330
1F
100
AcDbEntity
  8
외형선
  6
Continuous
370
    15
100
AcDbSpline
210
0.0
220
0.0
230
1.0
 70
     8
 71
     3
 72
     8
 73
     4
 74
     0
 42
0.000000001
 43
0.00000001
 40
0.0
 40
0.0
 40
0.0
 40
0.0
 40
1.0
 40
1.0
 40
1.0
 40
1.0
 10
11.99999999999999
 20
0.2811794255322586
 30
0.0
 10
11.66734404698299
 20
0.6137893602008577
 30
0.0
 10
11.33326498432377
 20
0.9464953385992424
 30
0.0
 10
10.99978208381787
 20
1.277283111768977
 30
0.0
  0
SPLINE
  5
D9
330
1F
100
AcDbEntity
  8
외형선
  6
Continuous
370
    15
100
AcDbSpline
210
0.0
220
0.0
230
1.0
 70
     8
 71
     3
 72
     8
 73
     4
 74
     0
 42
0.000000001
 43
0.00000001
 40
0.0
 40
0.0
 40
0.0
 40
0.0
 40
1.0
 40
1.0
 40
1.0
 40
1.0
 10
11.99999999999999
 20
-7.815877227740093
 30
0.0
 10
11.66734404698299
 20
-7.579397299206962
 30
0.0
 10
11.33326498432378
 20
-7.332048320736624
 30
0.0
 10
10.99978208381789
 20
-7.075301000868476
 30
0.0
  0
SPLINE
  5
DA
330
1F
100
AcDbEntity
  8
외형선
  6
Continuous
370
    15
100
AcDbSpline
210
0.0
220
0.0
230
1.0
 70
     8
 71
     3
 72
     8
 73
     4
 74
     0
 42
0.000000001
 43
0.00000001
 40
0.0
 40
0.0
 40
0.0
 40
0.0
 40
1.0
 40
1.0
 40
1.0
 40
1.0
 10
11.99999999999999
 20
-9.47952240024716
 30
0.0
 10
11.66734404698299
 20
-9.305954497782972
 30
0.0
 10
11.33326498432377
 20
-9.119365528838296
 30
0.0
 10
10.99978208381787
 20
-8.920852971993236
 30
0.0
  0
LINE
  5
DB
330
1F
100
AcDbEntity
  8
외형선
  6
Continuous
370
    15
100
AcDbLine
 10
10.99978208381787
 20
-11.11142507127611
 30
0.0
 11
10.99978208381787
 21
-8.920824398746046
 31
0.0
  0
SPLINE
  5
DC
330
1F
100
AcDbEntity
  8
외형선
  6
Continuous
370
    15
100
AcDbSpline
210
0.0
220
0.0
230
1.0
 70
     8
 71
     3
 72
     8
 73
     4
 74
     0
 42
0.000000001
 43
0.00000001
 40
0.0
 40
0.0
 40
0.0
 40
0.0
 40
1.0
 40
1.0
 40
1.0
 40
1.0
 10
11.99999999999999
 20
-10.74751711527688
 30
0.0
 10
11.66734404698299
 20
-10.83196585138015
 30
0.0
 10
11.33326498432378
 20
-10.90205231811919
 30
0.0
 10
10.99978208381789
 20
-10.95731653495387
 30
0.0
  0
LINE
  5
DD
330
1F
100
AcDbEntity
  8
외형선
  6
Continuous
370
    15
100
AcDbLine
 10
-42.92749999999999
 20
0.0010749287238949
 30
0.0
 11
-42.92749999999999
 21
9.462574928723889
 31
0.0
  0
LINE
  5
DE
330
1F
100
AcDbEntity
  8
외형선
  6
Continuous
370
    15
100
AcDbLine
 10
-42.92749999999999
 20
-11.11142507127611
 30
0.0
 11
-42.92749999999999
 21
0.0010749287238949
 31
0.0
  0
LINE
  5
DF
330
1F
100
AcDbEntity
  8
외형선
  6
Continuous
370
    15
100
AcDbLine
 10
10.99978208381787
 20
-7.075341271522088
 30
0.0
 11
10.99978208381787
 21
1.277330724127374
 31
0.0
  0
LINE
  5
E0
330
1F
100
AcDbEntity
  8
외형선
  6
Continuous
370
    15
100
AcDbLine
 10
10.99978208381787
 20
3.883041523860688
 30
0.0
 11
10.99978208381787
 21
10.19923005159738
 31
0.0
  0
LINE
  5
E1
330
1F
100
AcDbEntity
  8
외형선
  6
Continuous
370
    15
100
AcDbLine
 10
-45.15
 20
0.0010749287238949
 30
0.0
 11
-45.15
 21
8.891074928723906
 31
0.0
  0
LINE
  5
E2
330
1F
100
AcDbEntity
  8
외형선
  6
Continuous
370
    15
100
AcDbLine
 10
-45.15
 20
-8.888925071276116
 30
0.0
 11
-45.15
 21
0.0010749287238949
 31
0.0
  0
SPLINE
  5
E3
330
1F
100
AcDbEntity
  8
외형선
  6
Continuous
370
    15
100
AcDbSpline
210
0.0
220
0.0
230
1.0
 70
    24
 71
     3
 72
    21
 73
    17
 74
     0
 42
0.000000001
 43
0.00000001
 40
0.0
 40
0.0
 40
0.0
 40
0.0
 40
0.0941562670102115
 40
0.1635795403491085
 40
0.2350160933178966
 40
0.3044393666567836
 40
0.3758759196255645
 40
0.4452991929644614
 40
0.5167357459332658
 40
0.5861590192721606
 40
0.6575955722409511
 40
0.7270188455798445
 40
0.7984553985486332
 40
0.8678786718875107
 40
0.9393152248562807
 40
1.0
 40
1.0
 40
1.0
 40
1.0
 10
11.99999999999999
 20
-7.815877227740093
 30
0.0
 10
12.00000000000002
 20
-7.614898652975487
 30
0.0
 10
12.00000000000009
 20
-7.265734609795572
 30
0.0
 10
11.99999999999999
 20
-6.609272848278688
 30
0.0
 10
11.99999999999998
 20
-5.958978238988588
 30
0.0
 10
12.00000000000004
 20
-5.247311619524391
 30
0.0
 10
11.99999999999995
 20
-4.510107369303315
 30
0.0
 10
12.0000000000001
 20
-3.754191326400262
 30
0.0
 10
11.99999999999993
 20
-3.014766119376235
 30
0.0
 10
12.00000000000006
 20
-2.299418003098517
 30
0.0
 10
11.99999999999996
 20
-1.641207331244176
 30
0.0
 10
12.00000000000001
 20
-1.047203365953343
 30
0.0
 10
12.00000000000001
 20
-0.5438338919365279
 30
0.0
 10
12.00000000000006
 20
-0.1403163875722005
 30
0.0
 10
12.00000000000003
 20
0.1472090742848582
 30
0.0
 10
12.00000000000001
 20
0.2390129147005448
 30
0.0
 10
11.99999999999999
 20
0.2811794255322597
 30
0.0
  0
SPLINE
  5
E4
330
1F
100
AcDbEntity
  8
외형선
  6
Continuous
370
    15
100
AcDbSpline
210
0.0
220
0.0
230
1.0
 70
    24
 71
     3
 72
    18
 73
    14
 74
     0
 42
0.000000001
 43
0.00000001
 40
0.0
 40
0.0
 40
0.0
 40
0.0
 40
0.0511772023769917
 40
0.1470295136913469
 40
0.2428818250056913
 40
0.3387341363200358
 40
0.434586447634378
 40
0.5304387589487203
 40
0.626291070263039
 40
0.7221433815773576
 40
0.8179956928917267
 40
0.9138480042060958
 40
1.0
 40
1.0
 40
1.0
 40
1.0
 10
11.99999999999999
 20
3.035226210064245
 30
0.0
 10
11.99999999999999
 20
3.09828401020099
 30
0.0
 10
11.99999999999999
 20
3.279445880290243
 30
0.0
 10
11.99999999999996
 20
3.694322582991159
 30
0.0
 10
11.99999999999999
 20
4.258075159706757
 30
0.0
 10
11.99999999999998
 20
4.900691563610729
 30
0.0
 10
12.00000000000001
 20
5.599741200014808
 30
0.0
 10
12.0
 20
6.335333527995608
 30
0.0
 10
12.00000000000003
 20
7.087050939406106
 30
0.0
 10
12.00000000000001
 20
7.833955912529689
 30
0.0
 10
12.00000000000002
 20
8.552330700080697
 30
0.0
 10
12.00000000000003
 20
9.207247186536593
 30
0.0
 10
12.00000000000001
 20
9.583620102981486
 30
0.0
 10
11.99999999999999
 20
9.761776754489793
 30
0.0
  0
SPLINE
  5
E5
330
1F
100
AcDbEntity
  8
외형선
  6
Continuous
370
    15
100
AcDbSpline
210
0.0
220
0.0
230
1.0
 70
    24
 71
     3
 72
    10
 73
     6
 74
     0
 42
0.000000001
 43
0.00000001
 40
0.0
 40
0.0
 40
0.0
 40
0.0
 40
0.4173542997025876
 40
0.8400700659896221
 40
1.0
 40
1.0
 40
1.0
 40
1.0
 10
11.99999999999999
 20
-10.74751711527688
 30
0.0
 10
11.99999999999999
 20
-10.58229065885637
 30
0.0
 10
11.99999999999999
 20
-10.24971519420362
 30
0.0
 10
12.00000000000006
 20
-9.856538238034965
 30
0.0
 10
12.00000000000002
 20
-9.64115434094676
 30
0.0
 10
12.00000000000004
 20
-9.582033794050714
 30
0.0
  0
LINE
  5
E6
330
1F
100
AcDbEntity
  8
중심선
100
AcDbLine
 10
-48.14999999999999
 20
0.0010749287238888
 30
0.0
 11
103.9
 21
0.0010749287239083
 31
0.0
  0
LINE
  5
E7
330
1F
100
AcDbEntity
  8
참조1
100
AcDbLine
 10
31.05000000000005
 20
0.0010749287238892
 30
0.0
 11
31.05000000000006
 21
-39.99892507127611
 31
0.0
  0
LINE
  5
E8
330
1F
100
AcDbEntity
  8
참조1
100
AcDbLine
 10
31.05000000000006
 20
-39.99892507127611
 30
0.0
 11
-9.508856814308633
 21
-39.9989250712761
 31
0.0
  0
CIRCLE
  5
E9
330
1F
100
AcDbEntity
  8
해칭선
100
AcDbCircle
 10
0.0
 20
0.0
 30
0.0
 40
3.000000000000001
  0
INSERT
  5
EA
330
1F
100
AcDbEntity
  8
0
  6
Continuous
 62
     7
100
AcDbBlockReference
 66
     1
  2
블럭10
 10
13.93472706787481
 20
-52.04609937292004
 30
0.0
  0
ATTRIB
  5
EB
330
EA
100
AcDbEntity
  8
FORMAT
 62
     2
100
AcDbText
 10
4.753431779133531
 20
-49.97073246008785
 30
0.0
 40
4.233333333333333
  1
E2162056 [ 6 FLUTE ]
 41
0.75
  7
SLDTEXTSTYLE0
 11
4.753431779133531
 21
-52.08739912675452
 31
0.0
100
AcDbAttribute
  2
AUTOATTR0
 70
     0
 74
     1
  0
SEQEND
  5
EC
330
EA
100
AcDbEntity
  8
0
  6
Continuous
 62
     7
  0
HATCH
  5
ED
330
1F
100
AcDbEntity
  8
중심선
100
AcDbHatch
 10
0.0
 20
0.0
 30
0.0
210
0.0
220
0.0
230
1.0
  2
SOLID
 70
     1
 71
     0
 91
        1
 92
        0
 93
        4
 72
     1
 10
19.64963637225564
 20
-35.7989250712761
 11
16.20336112841836
 21
-35.7989250712761
 72
     1
 10
16.20336112841836
 20
-35.7989250712761
 11
14.07513126921434
 21
-38.3352506518487
 72
     1
 10
14.07513126921434
 20
-38.3352506518487
 11
17.52143959816477
 21
-38.33521122254621
 72
     1
 10
17.52143959816477
 20
-38.33521122254621
 11
19.64963637225564
 21
-35.7989250712761
 97
        0
 75
     0
 76
     1
 98
        1
 10
-3.175000000000035
 20
0.0
  0
HATCH
  5
EE
330
1F
100
AcDbEntity
  8
중심선
100
AcDbHatch
 10
0.0
 20
0.0
 30
0.0
210
0.0
220
0.0
230
1.0
  2
SOLID
 70
     1
 71
     0
 91
        1
 92
        0
 93
        4
 72
     1
 10
24.66240036329165
 20
-35.7989250712761
 11
21.21612511945437
 21
-35.79892507127608
 72
     1
 10
21.21612511945437
 20
-35.79892507127608
 11
16.68498711109692
 21
-41.19892507127612
 72
     1
 10
16.68498711109692
 20
-41.19892507127612
 11
20.13126235493421
 21
-41.19892507127612
 72
     1
 10
20.13126235493421
 20
-41.19892507127612
 11
24.66240036329165
 21
-35.7989250712761
 97
        0
 75
     0
 76
     1
 98
        1
 10
-3.175000000000035
 20
0.0
  0
HATCH
  5
EF
330
1F
100
AcDbEntity
  8
중심선
100
AcDbHatch
 10
0.0
 20
0.0
 30
0.0
210
0.0
220
0.0
230
1.0
  2
SOLID
 70
     1
 71
     0
 91
        1
 92
        0
 93
        4
 72
     1
 10
29.67516435432749
 20
-35.7989250712761
 11
26.22888911049043
 21
-35.79892507127608
 72
     1
 10
26.22888911049043
 20
-35.79892507127608
 11
19.18045220860112
 21
-44.19892507127612
 72
     1
 10
19.18045220860112
 20
-44.19892507127612
 11
22.62672745243841
 21
-44.19892507127612
 72
     1
 10
22.62672745243841
 20
-44.19892507127612
 11
29.67516435432749
 21
-35.7989250712761
 97
        0
 75
     0
 76
     1
 98
        1
 10
-3.175000000000035
 20
0.0
  0
HATCH
  5
F0
330
1F
100
AcDbEntity
  8
중심선
100
AcDbHatch
 10
0.0
 20
0.0
 30
0.0
210
0.0
220
0.0
230
1.0
  2
SOLID
 70
     1
 71
     0
 91
        1
 92
        0
 93
        6
 72
     3
 10
34.47505478533969
 20
-39.99892507132738
 11
3.960054785062283
 21
1.540882976769353E-10
 40
0.3939339440162628
 50
17.09539180608436
 51
320.0019657685081
 73
     0
 72
     1
 10
36.15805444104029
 20
-38.58681907591441
 11
38.46335631474135
 21
-36.65249236586649
 72
     3
 10
34.47505478528684
 20
-39.99892507127625
 11
6.600054785286829
 21
-1.278976924368180E-13
 40
0.636358354079598
 50
39.99873849337385
 51
368.4976242363724
 73
     1
 72
     1
 10
40.90038727718746
 20
-39.03892507120613
 11
33.15512209212277
 21
-39.0389250712061
 72
     1
 10
33.15512209212277
 20
-39.0389250712061
 11
33.15509704767683
 21
-40.95892507120602
 72
     1
 10
33.15509704767683
 20
-40.95892507120602
 11
37.59647681714888
 21
-40.95892507120599
 97
        0
 75
     0
 76
     1
 98
        1
 10
-3.175000000000035
 20
0.0
  0
DIMENSION
  5
F1
330
1F
100
AcDbEntity
  8
치수문자_일반주서
100
AcDbDimension
  2
_D
 10
-57.51499999999997
 20
-11.11142507127615
 30
0.0
 11
-57.51500000000001
 21
0.0010749287238905
 31
0.0
 70
   160
  1
%%c<>
 71
     2
 42
22.22499999999999
 52
-270.0
  3
SLDDIMSTYLE0
100
AcDbAlignedDimension
 13
-42.92750000000001
 23
11.11357492872389
 33
0.0
 14
-42.92750000000001
 24
-11.1114250712761
 34
0.0
 50
90.0000000000002
100
AcDbRotatedDimension
1001
ACAD
1000
DSTYLE
1002
{
1070
   171
1070
     6
1070
   273
1070
     7
1002
}
  0
DIMENSION
  5
106
330
1F
100
AcDbEntity
  8
치수문자_일반주서
100
AcDbDimension
  2
_D_1
 10
12.00000000000001
 20
33.57246856623911
 30
0.0
 11
56.45000000000001
 21
33.57246856623911
 31
0.0
 70
   160
  1
<>
 71
     2
 42
88.90000000000003
  3
SLDDIMSTYLE0
100
AcDbAlignedDimension
 13
100.9
 23
11.03248202564835
 33
0.0
 14
11.99999999999999
 24
10.74966697272469
 34
0.0
 50
0.0000000000000046
100
AcDbRotatedDimension
1001
ACAD
1000
DSTYLE
1002
{
1070
   171
1070
     6
1070
   273
1070
     7
1002
}
  0
DIMENSION
  5
11A
330
1F
100
AcDbEntity
  8
치수문자_일반주서
100
AcDbDimension
  2
_D_2
 10
-45.15000000000001
 20
45.57246856623912
 30
0.0
 11
27.87500000000001
 21
45.57246856623912
 31
0.0
 70
   160
  1
<>
 71
     2
 42
146.05
  3
SLDDIMSTYLE0
100
AcDbAlignedDimension
 13
100.9
 23
11.03248202564835
 33
0.0
 14
-45.15
 24
8.891074928723906
 34
0.0
 50
0.0000000000000084
100
AcDbRotatedDimension
1001
ACAD
1000
DSTYLE
1002
{
1070
   171
1070
     6
1070
   273
1070
     7
1002
}
  0
DIMENSION
  5
12E
330
1F
100
AcDbEntity
  8
치수문자_일반주서
100
AcDbDimension
  2
_D_3
 10
121.07930466337
 20
-11.11142507127605
 30
0.0
 11
121.0793046633699
 21
32.15507492872398
 31
0.0
 70
   160
  1
%%c<>
 71
     2
 42
22.22500000000002
 52
-270.0
  3
SLDDIMSTYLE0
100
AcDbAlignedDimension
 13
100.9
 23
11.1135749287239
 33
0.0
 14
100.9
 24
-11.11142507127611
 34
0.0
 50
90.0000000000002
100
AcDbRotatedDimension
1001
ACAD
1000
DSTYLE
1002
{
1070
   171
1070
     6
1070
   273
1070
     7
1002
}
  0
LINE
  5
141
330
1F
100
AcDbEntity
  8
참조1
100
AcDbLine
 10
88.46348381534564
 20
7.441074928723896
 30
0.0
 11
88.46348381534564
 21
-7.438925071276109
 31
0.0
  0
LINE
  5
142
330
1F
100
AcDbEntity
  8
참조1
100
AcDbLine
 10
101.1634838153456
 20
5.441074928723896
 30
0.0
 11
88.46348381534564
 21
5.441074928723896
 31
0.0
  0
SOLID
  5
143
330
1F
100
AcDbEntity
  8
참조1
100
AcDbTrace
 10
88.46348381534564
 20
5.441074928723896
 30
0.0
 11
94.81348381534563
 21
4.425074928723896
 31
0.0
 12
94.81348381534563
 22
6.457074928723896
 32
0.0
 13
94.81348381534563
 23
6.457074928723896
 33
0.0
  0
LINE
  5
144
330
1F
100
AcDbEntity
  8
참조1
100
AcDbLine
 10
101.1634838153456
 20
-5.438925071276109
 30
0.0
 11
88.46348381534564
 21
-5.438925071276109
 31
0.0
  0
SOLID
  5
145
330
1F
100
AcDbEntity
  8
참조1
100
AcDbTrace
 10
88.46348381534564
 20
-5.438925071276109
 30
0.0
 11
94.81348381534563
 21
-6.454925071276109
 31
0.0
 12
94.81348381534563
 22
-4.422925071276109
 32
0.0
 13
94.81348381534563
 23
-4.422925071276109
 33
0.0
  0
MTEXT
  5
146
330
1F
100
AcDbEntity
  8
참조1
100
AcDbMText
 10
97.8609739078159
 20
10.98929157337383
 30
0.0
 40
3.5
 41
0.0
 71
     1
 72
     1
  1
A
  7
SLDTEXTSTYLE0
 73
     1
 44
1.0
  0
MTEXT
  5
147
330
1F
100
AcDbEntity
  8
참조1
100
AcDbMText
 10
97.8609739078159
 20
0.1092915733738251
 30
0.0
 40
3.5
 41
0.0
 71
     1
 72
     1
  1
A
  7
SLDTEXTSTYLE0
 73
     1
 44
1.0
  0
INSERT
  5
14E
330
1F
100
AcDbEntity
  8
해칭선
100
AcDbBlockReference
  2
SW_DOWELSYMBOL_0
 10
0.0
 20
0.0
 30
0.0
  0
LINE
  5
32C
330
1F
100
AcDbEntity
  8
외형선
  6
Continuous
370
    15
100
AcDbLine
 10
-25.14432500000001
 20
9.462574928723889
 30
0.0
 11
-13.561925
 21
9.462574928723889
 31
0.0
  0
LINE
  5
32D
330
1F
100
AcDbEntity
  8
외형선
  6
Continuous
370
    15
100
AcDbLine
 10
-25.14432500000001
 20
9.462574928723889
 30
0.0
 11
-26.79532500000002
 21
11.11357492872387
 31
0.0
  0
LINE
  5
32E
330
1F
100
AcDbEntity
  8
외형선
  6
Continuous
370
    15
100
AcDbLine
 10
-13.561925
 20
9.462574928723889
 30
0.0
 11
-11.91092499999987
 21
11.11357492872387
 31
0.0
  0
LINE
  5
330
330
1F
100
AcDbEntity
  8
외형선
  6
Continuous
370
    15
100
AcDbLine
 10
-44.57850000000001
 20
9.462574928723889
 30
0.0
 11
-32.45000000000001
 21
9.462574928723889
 31
0.0
  0
LINE
  5
331
330
1F
100
AcDbEntity
  8
외형선
  6
Continuous
370
    15
100
AcDbLine
 10
-32.45000000000001
 20
9.462574928723889
 30
0.0
 11
-30.799
 21
11.11357492872386
 31
0.0
  0
LINE
  5
333
330
1F
100
AcDbEntity
  8
외형선
  6
Continuous
370
    15
100
AcDbLine
 10
-26.79532500000004
 20
11.1135749287239
 30
0.0
 11
-30.79899999999997
 21
11.1135749287239
 31
0.0
  0
ENDSEC
  0
SECTION
  2
OBJECTS
  0
DICTIONARY
  5
C
330
0
100
AcDbDictionary
281
     1
  3
ACAD_GROUP
350
D
  3
ACAD_IMAGE_VARS
350
172
  3
ACAD_LAYOUT
350
1A
  3
ACAD_MLINESTYLE
350
17
  3
ACAD_PLOTSETTINGS
350
19
  3
ACAD_PLOTSTYLENAME
350
E
  3
ACAD_SCALELIST
350
47
  3
APPDATA
350
170
  3
DWGPROPS
350
357
  0
DICTIONARY
  5
22F
330
2
100
AcDbDictionary
280
     1
281
     1
  3
ACAD_LAYERSTATES
360
230
  0
DICTIONARY
  5
D
102
{ACAD_REACTORS
330
C
102
}
330
C
100
AcDbDictionary
281
     1
  0
RASTERVARIABLES
  5
172
102
{ACAD_REACTORS
330
C
102
}
330
C
100
AcDbRasterVariables
 90
        0
 70
     1
 71
     1
 72
     1
  0
DICTIONARY
  5
1A
102
{ACAD_REACTORS
330
C
102
}
330
C
100
AcDbDictionary
281
     1
  3
Layout1
350
1E
  3
Layout2
350
26
  3
Model
350
22
  0
DICTIONARY
  5
17
102
{ACAD_REACTORS
330
C
102
}
330
C
100
AcDbDictionary
281
     1
  3
Standard
350
18
  0
DICTIONARY
  5
19
102
{ACAD_REACTORS
330
C
102
}
330
C
100
AcDbDictionary
281
     1
  0
ACDBDICTIONARYWDFLT
  5
E
102
{ACAD_REACTORS
330
C
102
}
330
C
100
AcDbDictionary
281
     1
  3
Normal
350
F
100
AcDbDictionaryWithDefault
340
F
  0
DICTIONARY
  5
47
102
{ACAD_REACTORS
330
C
102
}
330
C
100
AcDbDictionary
281
     1
  3
A0
350
48
  3
A1
350
49
  3
A2
350
4A
  3
A3
350
4B
  3
A4
350
4C
  3
A5
350
4D
  3
A6
350
4E
  3
A7
350
4F
  3
A8
350
50
  3
A9
350
51
  3
B0
350
52
  3
B1
350
53
  3
B2
350
54
  3
B3
350
55
  3
B4
350
56
  3
B5
350
57
  3
B6
350
58
  3
B7
350
59
  3
B8
350
5A
  3
B9
350
5B
  3
C0
350
5C
  3
C1
350
5D
  3
C2
350
5E
  3
C3
350
5F
  3
C4
350
60
  3
C5
350
61
  3
C6
350
62
  3
C7
350
63
  3
C8
350
64
  3
C9
350
65
  3
D0
350
66
  3
D1
350
67
  3
D2
350
68
  0
DICTIONARY
  5
170
102
{ACAD_REACTORS
330
C
102
}
330
C
100
AcDbDictionary
281
     1
  0
XRECORD
  5
357
102
{ACAD_REACTORS
330
C
102
}
330
C
100
AcDbXrecord
280
     1
  1
DWGPROPS COOKIE
  2

  3

  4

  6

  7

  8
12016016
  9

300
=
301
=
302
=
303
=
304
=
305
=
306
=
307
=
308
=
309
=
 40
0.0
 41
2458323.065474109
 42
2458323.36727184
  1

 90
        0
  0
DICTIONARY
  5
230
102
{ACAD_REACTORS
330
22F
102
}
330
22F
100
AcDbDictionary
281
     1
  0
LAYOUT
  5
1E
102
{ACAD_REACTORS
330
1A
102
}
330
1A
100
AcDbPlotSettings
  1

  2
none_device
  4

  6

 40
0.0
 41
0.0
 42
0.0
 43
0.0
 44
0.0
 45
0.0
 46
0.0
 47
0.0
 48
0.0
 49
0.0
140
0.0
141
0.0
142
1.0
143
1.0
 70
   688
 72
     1
 73
     0
 74
     5
  7

 75
    16
147
1.0
148
0.0
149
0.0
100
AcDbLayout
  1
Layout1
 70
     1
 71
     1
 10
0.0
 20
0.0
 11
420.0
 21
297.0
 12
0.0
 22
0.0
 32
0.0
 14
1.000000000000000E+20
 24
1.000000000000000E+20
 34
1.000000000000000E+20
 15
-1.000000000000000E+20
 25
-1.000000000000000E+20
 35
-1.000000000000000E+20
146
0.0
 13
0.0
 23
0.0
 33
0.0
 16
1.0
 26
0.0
 36
0.0
 17
0.0
 27
1.0
 37
0.0
 76
     0
330
1B
  0
LAYOUT
  5
26
102
{ACAD_REACTORS
330
1A
102
}
330
1A
100
AcDbPlotSettings
  1

  2
none_device
  4

  6

 40
0.0
 41
0.0
 42
0.0
 43
0.0
 44
0.0
 45
0.0
 46
0.0
 47
0.0
 48
0.0
 49
0.0
140
0.0
141
0.0
142
1.0
143
1.0
 70
   688
 72
     1
 73
     0
 74
     5
  7

 75
    16
147
1.0
148
0.0
149
0.0
100
AcDbLayout
  1
Layout2
 70
     1
 71
     2
 10
0.0
 20
0.0
 11
0.0
 21
0.0
 12
0.0
 22
0.0
 32
0.0
 14
0.0
 24
0.0
 34
0.0
 15
0.0
 25
0.0
 35
0.0
146
0.0
 13
0.0
 23
0.0
 33
0.0
 16
1.0
 26
0.0
 36
0.0
 17
0.0
 27
1.0
 37
0.0
 76
     0
330
23
  0
LAYOUT
  5
22
102
{ACAD_REACTORS
330
1A
102
}
330
1A
100
AcDbPlotSettings
  1

  2
none_device
  4
ANSI_A_(11.00_x_8.50_Inches)
  6

 40
6.35
 41
19.05
 42
6.35000508
 43
19.05000254
 44
279.4
 45
215.9
 46
53.19025261998306
 47
86.37786783925222
 48
0.0
 49
0.0
140
0.0
141
0.0
142
0.0351451444116555
143
1.0
 70
  1696
 72
     0
 73
     0
 74
     0
  7

 75
     0
147
0.0235690232323232
148
0.0
149
0.0
100
AcDbLayout
  1
Model
 70
     1
 71
     0
 10
0.0
 20
0.0
 11
420.0
 21
297.0
 12
0.0
 22
0.0
 32
0.0
 14
-61.89000000000005
 24
-49.97073246008785
 34
0.0
 15
121.6296379967034
 25
49.94746856623912
 35
0.0
146
0.0
 13
0.0
 23
0.0
 33
0.0
 16
1.0
 26
0.0
 36
0.0
 17
0.0
 27
1.0
 37
0.0
 76
     0
330
1F
331
29
  0
MLINESTYLE
  5
18
102
{ACAD_REACTORS
330
17
102
}
330
17
100
AcDbMlineStyle
  2
Standard
 70
     0
  3

 62
   256
 51
90.0
 52
90.0
 71
     2
 49
0.5
 62
   256
  6
BYLAYER
 49
-0.5
 62
   256
  6
BYLAYER
  0
ACDBPLACEHOLDER
  5
F
102
{ACAD_REACTORS
330
E
102
}
330
E
  0
SCALE
  5
48
102
{ACAD_REACTORS
330
47
102
}
330
47
100
AcDbScale
 70
     0
300
1:1
140
1.0
141
1.0
290
     1
  0
SCALE
  5
49
102
{ACAD_REACTORS
330
47
102
}
330
47
100
AcDbScale
 70
     0
300
1:2
140
1.0
141
2.0
290
     0
  0
SCALE
  5
4A
102
{ACAD_REACTORS
330
47
102
}
330
47
100
AcDbScale
 70
     0
300
1:4
140
1.0
141
4.0
290
     0
  0
SCALE
  5
4B
102
{ACAD_REACTORS
330
47
102
}
330
47
100
AcDbScale
 70
     0
300
1:5
140
1.0
141
5.0
290
     0
  0
SCALE
  5
4C
102
{ACAD_REACTORS
330
47
102
}
330
47
100
AcDbScale
 70
     0
300
1:8
140
1.0
141
8.0
290
     0
  0
SCALE
  5
4D
102
{ACAD_REACTORS
330
47
102
}
330
47
100
AcDbScale
 70
     0
300
1:10
140
1.0
141
10.0
290
     0
  0
SCALE
  5
4E
102
{ACAD_REACTORS
330
47
102
}
330
47
100
AcDbScale
 70
     0
300
1:16
140
1.0
141
16.0
290
     0
  0
SCALE
  5
4F
102
{ACAD_REACTORS
330
47
102
}
330
47
100
AcDbScale
 70
     0
300
1:20
140
1.0
141
20.0
290
     0
  0
SCALE
  5
50
102
{ACAD_REACTORS
330
47
102
}
330
47
100
AcDbScale
 70
     0
300
1:30
140
1.0
141
30.0
290
     0
  0
SCALE
  5
51
102
{ACAD_REACTORS
330
47
102
}
330
47
100
AcDbScale
 70
     0
300
1:40
140
1.0
141
40.0
290
     0
  0
SCALE
  5
52
102
{ACAD_REACTORS
330
47
102
}
330
47
100
AcDbScale
 70
     0
300
1:50
140
1.0
141
50.0
290
     0
  0
SCALE
  5
53
102
{ACAD_REACTORS
330
47
102
}
330
47
100
AcDbScale
 70
     0
300
1:100
140
1.0
141
100.0
290
     0
  0
SCALE
  5
54
102
{ACAD_REACTORS
330
47
102
}
330
47
100
AcDbScale
 70
     0
300
2:1
140
2.0
141
1.0
290
     0
  0
SCALE
  5
55
102
{ACAD_REACTORS
330
47
102
}
330
47
100
AcDbScale
 70
     0
300
4:1
140
4.0
141
1.0
290
     0
  0
SCALE
  5
56
102
{ACAD_REACTORS
330
47
102
}
330
47
100
AcDbScale
 70
     0
300
8:1
140
8.0
141
1.0
290
     0
  0
SCALE
  5
57
102
{ACAD_REACTORS
330
47
102
}
330
47
100
AcDbScale
 70
     0
300
10:1
140
10.0
141
1.0
290
     0
  0
SCALE
  5
58
102
{ACAD_REACTORS
330
47
102
}
330
47
100
AcDbScale
 70
     0
300
100:1
140
100.0
141
1.0
290
     0
  0
SCALE
  5
59
102
{ACAD_REACTORS
330
47
102
}
330
47
100
AcDbScale
 70
     0
300
1/128" = 1'-0"
140
0.0078125
141
12.0
290
     0
  0
SCALE
  5
5A
102
{ACAD_REACTORS
330
47
102
}
330
47
100
AcDbScale
 70
     0
300
1/64" = 1'-0"
140
0.015625
141
12.0
290
     0
  0
SCALE
  5
5B
102
{ACAD_REACTORS
330
47
102
}
330
47
100
AcDbScale
 70
     0
300
1/32" = 1'-0"
140
0.03125
141
12.0
290
     0
  0
SCALE
  5
5C
102
{ACAD_REACTORS
330
47
102
}
330
47
100
AcDbScale
 70
     0
300
1/16" = 1'-0"
140
0.0625
141
12.0
290
     0
  0
SCALE
  5
5D
102
{ACAD_REACTORS
330
47
102
}
330
47
100
AcDbScale
 70
     0
300
3/32" = 1'-0"
140
0.09375
141
12.0
290
     0
  0
SCALE
  5
5E
102
{ACAD_REACTORS
330
47
102
}
330
47
100
AcDbScale
 70
     0
300
1/8" = 1'-0"
140
0.125
141
12.0
290
     0
  0
SCALE
  5
5F
102
{ACAD_REACTORS
330
47
102
}
330
47
100
AcDbScale
 70
     0
300
3/16" = 1'-0"
140
0.1875
141
12.0
290
     0
  0
SCALE
  5
60
102
{ACAD_REACTORS
330
47
102
}
330
47
100
AcDbScale
 70
     0
300
1/4" = 1'-0"
140
0.25
141
12.0
290
     0
  0
SCALE
  5
61
102
{ACAD_REACTORS
330
47
102
}
330
47
100
AcDbScale
 70
     0
300
3/8" = 1'-0"
140
0.375
141
12.0
290
     0
  0
SCALE
  5
62
102
{ACAD_REACTORS
330
47
102
}
330
47
100
AcDbScale
 70
     0
300
1/2" = 1'-0"
140
0.5
141
12.0
290
     0
  0
SCALE
  5
63
102
{ACAD_REACTORS
330
47
102
}
330
47
100
AcDbScale
 70
     0
300
3/4" = 1'-0"
140
0.75
141
12.0
290
     0
  0
SCALE
  5
64
102
{ACAD_REACTORS
330
47
102
}
330
47
100
AcDbScale
 70
     0
300
1" = 1'-0"
140
1.0
141
12.0
290
     0
  0
SCALE
  5
65
102
{ACAD_REACTORS
330
47
102
}
330
47
100
AcDbScale
 70
     0
300
1-1/2" = 1'-0"
140
1.5
141
12.0
290
     0
  0
SCALE
  5
66
102
{ACAD_REACTORS
330
47
102
}
330
47
100
AcDbScale
 70
     0
300
3" = 1'-0"
140
3.0
141
12.0
290
     0
  0
SCALE
  5
67
102
{ACAD_REACTORS
330
47
102
}
330
47
100
AcDbScale
 70
     0
300
6" = 1'-0"
140
6.0
141
12.0
290
     0
  0
SCALE
  5
68
102
{ACAD_REACTORS
330
47
102
}
330
47
100
AcDbScale
 70
     0
300
1'-0" = 1'-0"
140
12.0
141
12.0
290
     0
  0
ENDSEC
  0
EOF
