  0
SECTION
  2
HEADER
  9
$ACADVER
  1
AC1015
  9
$ACADMAINTVER
 70
     6
  9
$DWGCODEPAGE
  3
ANSI_949
  9
$INSBASE
 10
0.0
 20
0.0
 30
0.0
  9
$EXTMIN
 10
-73.95500000000004
 20
-49.97180738881174
 30
0.0
  9
$EXTMAX
 10
81.41936447236115
 20
39.23950000000009
 30
0.0
  9
$LIMMIN
 10
0.0
 20
0.0
  9
$LIMMAX
 10
420.0
 20
297.0
  9
$ORTHOMODE
 70
     1
  9
$REGENMODE
 70
     1
  9
$FILLMODE
 70
     1
  9
$QTEXTMODE
 70
     0
  9
$MIRRTEXT
 70
     1
  9
$LTSCALE
 40
1.0
  9
$ATTMODE
 70
     1
  9
$TEXTSIZE
 40
3.5
  9
$TRACEWID
 40
1.0
  9
$TEXTSTYLE
  7
Standard
  9
$CLAYER
  8
0
  9
$CELTYPE
  6
ByLayer
  9
$CECOLOR
 62
   256
  9
$CELTSCALE
 40
1.0
  9
$DISPSILH
 70
     0
  9
$DIMSCALE
 40
1.0
  9
$DIMASZ
 40
3.302
  9
$DIMEXO
 40
1.0
  9
$DIMDLI
 40
3.75
  9
$DIMRND
 40
0.0
  9
$DIMDLE
 40
0.0
  9
$DIMEXE
 40
1.0
  9
$DIMTP
 40
0.0
  9
$DIMTM
 40
0.0
  9
$DIMTXT
 40
3.5
  9
$DIMCEN
 40
2.5
  9
$DIMTSZ
 40
0.0
  9
$DIMTOL
 70
     0
  9
$DIMLIM
 70
     0
  9
$DIMTIH
 70
     1
  9
$DIMTOH
 70
     1
  9
$DIMSE1
 70
     0
  9
$DIMSE2
 70
     0
  9
$DIMTAD
 70
     1
  9
$DIMZIN
 70
     0
  9
$DIMBLK
  1

  9
$DIMASO
 70
     1
  9
$DIMSHO
 70
     1
  9
$DIMPOST
  1

  9
$DIMAPOST
  1

  9
$DIMALT
 70
     0
  9
$DIMALTD
 70
     3
  9
$DIMALTF
 40
0.0393700787401575
  9
$DIMLFAC
 40
1.0
  9
$DIMTOFL
 70
     1
  9
$DIMTVP
 40
0.0
  9
$DIMTIX
 70
     0
  9
$DIMSOXD
 70
     0
  9
$DIMSAH
 70
     0
  9
$DIMBLK1
  1

  9
$DIMBLK2
  1

  9
$DIMSTYLE
  2
ISO-25
  9
$DIMCLRD
 70
     0
  9
$DIMCLRE
 70
     0
  9
$DIMCLRT
 70
     0
  9
$DIMTFAC
 40
1.0
  9
$DIMGAP
 40
1.524
  9
$DIMJUST
 70
     0
  9
$DIMSD1
 70
     0
  9
$DIMSD2
 70
     0
  9
$DIMTOLJ
 70
     0
  9
$DIMTZIN
 70
     0
  9
$DIMALTZ
 70
     0
  9
$DIMALTTZ
 70
     0
  9
$DIMUPT
 70
     0
  9
$DIMDEC
 70
     2
  9
$DIMTDEC
 70
     2
  9
$DIMALTU
 70
     2
  9
$DIMALTTD
 70
     3
  9
$DIMTXSTY
  7
Standard
  9
$DIMAUNIT
 70
     0
  9
$DIMADEC
 70
     2
  9
$DIMALTRND
 40
0.0
  9
$DIMAZIN
 70
     0
  9
$DIMDSEP
 70
    44
  9
$DIMATFIT
 70
     3
  9
$DIMFRAC
 70
     0
  9
$DIMLDRBLK
  1

  9
$DIMLUNIT
 70
     2
  9
$DIMLWD
 70
    -2
  9
$DIMLWE
 70
    -2
  9
$DIMTMOVE
 70
     0
  9
$LUNITS
 70
     2
  9
$LUPREC
 70
     2
  9
$SKETCHINC
 40
1.0
  9
$FILLETRAD
 40
10.0
  9
$AUNITS
 70
     0
  9
$AUPREC
 70
     2
  9
$MENU
  1
.
  9
$ELEVATION
 40
0.0
  9
$PELEVATION
 40
0.0
  9
$THICKNESS
 40
0.0
  9
$LIMCHECK
 70
     0
  9
$CHAMFERA
 40
0.0
  9
$CHAMFERB
 40
0.0
  9
$CHAMFERC
 40
0.0
  9
$CHAMFERD
 40
0.0
  9
$SKPOLY
 70
     0
  9
$TDCREATE
 40
2458319.744312454
  9
$TDUCREATE
 40
2458319.369312454
  9
$TDUPDATE
 40
2458323.673717269
  9
$TDUUPDATE
 40
2458323.298717269
  9
$TDINDWG
 40
0.0004002431
  9
$TDUSRTIMER
 40
2458323.298663345
  9
$USRTIMER
 70
     1
  9
$ANGBASE
 50
0.0
  9
$ANGDIR
 70
     0
  9
$PDMODE
 70
     0
  9
$PDSIZE
 40
-1.0
  9
$PLINEWID
 40
0.0
  9
$SPLFRAME
 70
     0
  9
$SPLINETYPE
 70
     6
  9
$SPLINESEGS
 70
     8
  9
$HANDSEED
  5
3EB
  9
$SURFTAB1
 70
     6
  9
$SURFTAB2
 70
     6
  9
$SURFTYPE
 70
     6
  9
$SURFU
 70
     6
  9
$SURFV
 70
     6
  9
$UCSBASE
  2

  9
$UCSNAME
  2

  9
$UCSORG
 10
0.0
 20
0.0
 30
0.0
  9
$UCSXDIR
 10
1.0
 20
0.0
 30
0.0
  9
$UCSYDIR
 10
0.0
 20
1.0
 30
0.0
  9
$UCSORTHOREF
  2

  9
$UCSORTHOVIEW
 70
     0
  9
$UCSORGTOP
 10
0.0
 20
0.0
 30
0.0
  9
$UCSORGBOTTOM
 10
0.0
 20
0.0
 30
0.0
  9
$UCSORGLEFT
 10
0.0
 20
0.0
 30
0.0
  9
$UCSORGRIGHT
 10
0.0
 20
0.0
 30
0.0
  9
$UCSORGFRONT
 10
0.0
 20
0.0
 30
0.0
  9
$UCSORGBACK
 10
0.0
 20
0.0
 30
0.0
  9
$PUCSBASE
  2

  9
$PUCSNAME
  2

  9
$PUCSORG
 10
0.0
 20
0.0
 30
0.0
  9
$PUCSXDIR
 10
1.0
 20
0.0
 30
0.0
  9
$PUCSYDIR
 10
0.0
 20
1.0
 30
0.0
  9
$PUCSORTHOREF
  2

  9
$PUCSORTHOVIEW
 70
     0
  9
$PUCSORGTOP
 10
0.0
 20
0.0
 30
0.0
  9
$PUCSORGBOTTOM
 10
0.0
 20
0.0
 30
0.0
  9
$PUCSORGLEFT
 10
0.0
 20
0.0
 30
0.0
  9
$PUCSORGRIGHT
 10
0.0
 20
0.0
 30
0.0
  9
$PUCSORGFRONT
 10
0.0
 20
0.0
 30
0.0
  9
$PUCSORGBACK
 10
0.0
 20
0.0
 30
0.0
  9
$USERI1
 70
     0
  9
$USERI2
 70
     0
  9
$USERI3
 70
     0
  9
$USERI4
 70
     0
  9
$USERI5
 70
     0
  9
$USERR1
 40
0.0
  9
$USERR2
 40
0.0
  9
$USERR3
 40
0.0
  9
$USERR4
 40
0.0
  9
$USERR5
 40
0.0
  9
$WORLDVIEW
 70
     1
  9
$SHADEDGE
 70
     3
  9
$SHADEDIF
 70
    70
  9
$TILEMODE
 70
     1
  9
$MAXACTVP
 70
    64
  9
$PINSBASE
 10
0.0
 20
0.0
 30
0.0
  9
$PLIMCHECK
 70
     0
  9
$PEXTMIN
 10
1.000000000000000E+20
 20
1.000000000000000E+20
 30
1.000000000000000E+20
  9
$PEXTMAX
 10
-1.000000000000000E+20
 20
-1.000000000000000E+20
 30
-1.000000000000000E+20
  9
$PLIMMIN
 10
0.0
 20
0.0
  9
$PLIMMAX
 10
0.0
 20
0.0
  9
$UNITMODE
 70
     0
  9
$VISRETAIN
 70
     1
  9
$PLINEGEN
 70
     0
  9
$PSLTSCALE
 70
     1
  9
$TREEDEPTH
 70
  3020
  9
$CMLSTYLE
  2
Standard
  9
$CMLJUST
 70
     0
  9
$CMLSCALE
 40
20.0
  9
$PROXYGRAPHICS
 70
     1
  9
$MEASUREMENT
 70
     1
  9
$CELWEIGHT
370
    -1
  9
$ENDCAPS
280
     0
  9
$JOINSTYLE
280
     0
  9
$LWDISPLAY
290
     1
  9
$INSUNITS
 70
     4
  9
$HYPERLINKBASE
  1

  9
$STYLESHEET
  1

  9
$XEDIT
290
     1
  9
$CEPSNTYPE
380
     0
  9
$PSTYLEMODE
290
     1
  9
$FINGERPRINTGUID
  2
{06E016D2-CDB4-4683-9E3E-B4C676D7EBDE}
  9
$VERSIONGUID
  2
{FAEB1C32-E019-11D5-929B-00C0DF256EC4}
  9
$EXTNAMES
290
     1
  9
$PSVPSCALE
 40
0.0
  9
$OLESTARTUP
290
     0
  0
ENDSEC
  0
SECTION
  2
CLASSES
  0
CLASS
  1
ACDBDICTIONARYWDFLT
  2
AcDbDictionaryWithDefault
  3
ObjectDBX Classes
 90
        0
280
     0
281
     0
  0
CLASS
  1
VISUALSTYLE
  2
AcDbVisualStyle
  3
ObjectDBX Classes
 90
     4095
280
     0
281
     0
  0
CLASS
  1
MATERIAL
  2
AcDbMaterial
  3
ObjectDBX Classes
 90
     1153
280
     0
281
     0
  0
CLASS
  1
SCALE
  2
AcDbScale
  3
ObjectDBX Classes
 90
     1153
280
     0
281
     0
  0
CLASS
  1
SUN
  2
AcDbSun
  3
SCENEOE
 90
     1153
280
     0
281
     0
  0
CLASS
  1
ACDBPLACEHOLDER
  2
AcDbPlaceHolder
  3
ObjectDBX Classes
 90
        0
280
     0
281
     0
  0
CLASS
  1
LAYOUT
  2
AcDbLayout
  3
ObjectDBX Classes
 90
        0
280
     0
281
     0
  0
CLASS
  1
TABLESTYLE
  2
AcDbTableStyle
  3
ObjectDBX Classes
 90
     4095
280
     0
281
     0
  0
CLASS
  1
MLEADERSTYLE
  2
AcDbMLeaderStyle
  3
ACDB_MLEADERSTYLE_CLASS
 90
     4095
280
     0
281
     0
  0
CLASS
  1
RASTERVARIABLES
  2
AcDbRasterVariables
  3
ISM
 90
        0
280
     0
281
     0
  0
ENDSEC
  0
SECTION
  2
TABLES
  0
TABLE
  2
VPORT
  5
8
330
0
100
AcDbSymbolTable
 70
     1
  0
VPORT
  5
29
330
8
100
AcDbSymbolTableRecord
100
AcDbViewportTableRecord
  2
*Active
 70
     0
 10
0.0
 20
0.0
 11
1.0
 21
1.0
 12
22.50057995605633
 22
-16.53627236999416
 13
0.0
 23
0.0
 14
10.0
 24
10.0
 15
10.0
 25
10.0
 16
0.0
 26
0.0
 36
1.0
 17
0.0
 27
0.0
 37
0.0
 40
110.0328399351079
 41
1.586073500967118
 42
50.0
 43
0.0
 44
0.0
 50
0.0
 51
0.0
 71
    16
 72
  2000
 73
     1
 74
     3
 75
     0
 76
     0
 77
     0
 78
     0
281
     0
 65
     1
110
0.0
120
0.0
130
0.0
111
1.0
121
0.0
131
0.0
112
0.0
122
1.0
132
0.0
 79
     0
146
0.0
  0
ENDTAB
  0
TABLE
  2
LTYPE
  5
5
330
0
100
AcDbSymbolTable
 70
     6
  0
LTYPE
  5
14
330
5
100
AcDbSymbolTableRecord
100
AcDbLinetypeTableRecord
  2
ByBlock
 70
     0
  3

 72
    65
 73
     0
 40
0.0
  0
LTYPE
  5
15
330
5
100
AcDbSymbolTableRecord
100
AcDbLinetypeTableRecord
  2
ByLayer
 70
     0
  3

 72
    65
 73
     0
 40
0.0
  0
LTYPE
  5
16
330
5
100
AcDbSymbolTableRecord
100
AcDbLinetypeTableRecord
  2
Continuous
 70
     0
  3
Solid line
 72
    65
 73
     0
 40
0.0
  0
LTYPE
  5
6A
330
5
100
AcDbSymbolTableRecord
100
AcDbLinetypeTableRecord
  2
HIDDEN
 70
     0
  3
Hidden __ __ __ __ __ __ __ __ __ __ __ __ __ __
 72
    65
 73
     2
 40
1.905
 49
1.27
 74
     0
 49
-0.635
 74
     0
  0
LTYPE
  5
6B
330
5
100
AcDbSymbolTableRecord
100
AcDbLinetypeTableRecord
  2
PHANTOM
 70
     0
  3
Phantom ______  __  __  ______  __  __  ______
 72
    65
 73
     6
 40
12.7
 49
6.35
 74
     0
 49
-1.27
 74
     0
 49
1.27
 74
     0
 49
-1.27
 74
     0
 49
1.27
 74
     0
 49
-1.27
 74
     0
  0
LTYPE
  5
6C
330
5
100
AcDbSymbolTableRecord
100
AcDbLinetypeTableRecord
  2
CENTER
 70
     0
  3
Center ____ _ ____ _ ____ _ ____ _ ____ _ ____
 72
    65
 73
     4
 40
10.16
 49
6.35
 74
     0
 49
-1.27
 74
     0
 49
1.27
 74
     0
 49
-1.27
 74
     0
  0
LTYPE
  5
6D
330
5
100
AcDbSymbolTableRecord
100
AcDbLinetypeTableRecord
  2
CENTERX2
 70
     0
  3
Center (2x) ________  __  ________  __  _____
 72
    65
 73
     4
 40
20.32
 49
12.7
 74
     0
 49
-2.54
 74
     0
 49
2.54
 74
     0
 49
-2.54
 74
     0
  0
LTYPE
  5
6E
330
5
100
AcDbSymbolTableRecord
100
AcDbLinetypeTableRecord
  2
DOT2
 70
     0
  3
Dot (.5x) ........................................
 72
    65
 73
     2
 40
0.635
 49
0.0
 74
     0
 49
-0.635
 74
     0
  0
ENDTAB
  0
TABLE
  2
LAYER
  5
2
102
{ACAD_XDICTIONARY
360
1ED
102
}
330
0
100
AcDbSymbolTable
 70
    18
  0
LAYER
  5
10
330
2
100
AcDbSymbolTableRecord
100
AcDbLayerTableRecord
  2
0
 70
     0
 62
     7
  6
Continuous
370
    -3
390
F
  0
LAYER
  5
6F
330
2
100
AcDbSymbolTableRecord
100
AcDbLayerTableRecord
  2
FORMAT
 70
     0
 62
     2
  6
Continuous
370
    -3
390
F
  0
LAYER
  5
70
330
2
100
AcDbSymbolTableRecord
100
AcDbLayerTableRecord
  2
외형선
 70
     0
 62
     4
  6
Continuous
370
    30
390
F
  0
LAYER
  5
71
330
2
100
AcDbSymbolTableRecord
100
AcDbLayerTableRecord
  2
숨은선
 70
     0
 62
     2
  6
HIDDEN
370
    15
390
F
  0
LAYER
  5
72
330
2
100
AcDbSymbolTableRecord
100
AcDbLayerTableRecord
  2
중심선
 70
     0
 62
     1
  6
CENTERX2
370
    -3
390
F
  0
LAYER
  5
73
330
2
100
AcDbSymbolTableRecord
100
AcDbLayerTableRecord
  2
파단선
 70
     0
 62
     4
  6
Continuous
370
    -3
390
F
  0
LAYER
  5
74
330
2
100
AcDbSymbolTableRecord
100
AcDbLayerTableRecord
  2
해칭선
 70
     0
 62
   100
  6
Continuous
370
    -3
390
F
  0
LAYER
  5
75
330
2
100
AcDbSymbolTableRecord
100
AcDbLayerTableRecord
  2
가는실선
 70
     0
 62
     4
  6
Continuous
370
    -3
390
F
  0
LAYER
  5
76
330
2
100
AcDbSymbolTableRecord
100
AcDbLayerTableRecord
  2
치수_보조선
 70
     0
 62
     4
  6
Continuous
370
    -3
390
F
  0
LAYER
  5
77
330
2
100
AcDbSymbolTableRecord
100
AcDbLayerTableRecord
  2
치수문자_일반주서
 70
     0
 62
     7
  6
Continuous
370
    15
390
F
  0
LAYER
  5
78
330
2
100
AcDbSymbolTableRecord
100
AcDbLayerTableRecord
  2
개별주서
 70
     0
 62
   100
  6
Continuous
370
    30
390
F
  0
LAYER
  5
79
330
2
100
AcDbSymbolTableRecord
100
AcDbLayerTableRecord
  2
중간선
 70
     0
 62
     2
  6
Continuous
370
    15
390
F
  0
LAYER
  5
7A
330
2
100
AcDbSymbolTableRecord
100
AcDbLayerTableRecord
  2
윤곽선
 70
     0
 62
     3
  6
Continuous
370
    40
390
F
  0
LAYER
  5
7B
330
2
100
AcDbSymbolTableRecord
100
AcDbLayerTableRecord
  2
중심마크
 70
     0
 62
   100
  6
Continuous
370
    30
390
F
  0
LAYER
  5
7C
330
2
100
AcDbSymbolTableRecord
100
AcDbLayerTableRecord
  2
가상선
 70
     0
 62
     4
  6
PHANTOM
370
    -3
390
F
  0
LAYER
  5
7D
330
2
100
AcDbSymbolTableRecord
100
AcDbLayerTableRecord
  2
특수지정선
 70
     0
 62
     5
  6
CENTERX2
370
    60
390
F
  0
LAYER
  5
7E
330
2
100
AcDbSymbolTableRecord
100
AcDbLayerTableRecord
  2
참조1
 70
     0
 62
    -4
  6
Continuous
370
    -3
390
F
  0
LAYER
  5
148
330
2
100
AcDbSymbolTableRecord
100
AcDbLayerTableRecord
  2
Defpoints
 70
     0
 62
     7
  6
Continuous
290
     0
370
    -3
390
F
  0
ENDTAB
  0
TABLE
  2
STYLE
  5
3
330
0
100
AcDbSymbolTable
 70
     2
  0
STYLE
  5
11
330
3
100
AcDbSymbolTableRecord
100
AcDbTextStyleTableRecord
  2
Standard
 70
     0
 40
0.0
 41
1.0
 50
0.0
 71
     0
 42
3.5
  3
txt
  4

  0
STYLE
  5
94
330
3
100
AcDbSymbolTableRecord
100
AcDbTextStyleTableRecord
  2
SLDTEXTSTYLE0
 70
     0
 40
0.0
 41
0.75
 50
0.0
 71
     0
 42
3.5
  3
TXT
  4

  0
ENDTAB
  0
TABLE
  2
VIEW
  5
6
330
0
100
AcDbSymbolTable
 70
     0
  0
ENDTAB
  0
TABLE
  2
UCS
  5
7
330
0
100
AcDbSymbolTable
 70
     0
  0
ENDTAB
  0
TABLE
  2
APPID
  5
9
330
0
100
AcDbSymbolTable
 70
     1
  0
APPID
  5
12
330
9
100
AcDbSymbolTableRecord
100
AcDbRegAppTableRecord
  2
ACAD
 70
     0
  0
ENDTAB
  0
TABLE
  2
DIMSTYLE
  5
A
330
0
100
AcDbSymbolTable
 70
     4
100
AcDbDimStyleTable
  0
DIMSTYLE
105
27
330
A
100
AcDbSymbolTableRecord
100
AcDbDimStyleTableRecord
  2
ISO-25
 70
     0
 41
2.5
 42
0.625
 43
3.75
 44
1.25
 73
     0
 74
     0
 77
     1
 78
     8
140
2.5
141
2.5
143
0.03937007874016
147
0.625
171
     3
172
     1
178
     0
271
     2
272
     2
274
     3
278
    44
283
     0
284
     8
340
11
  0
DIMSTYLE
105
C5
102
{ACAD_REACTORS
330
C4
330
102
330
D9
330
ED
102
}
330
A
100
AcDbSymbolTableRecord
100
AcDbDimStyleTableRecord
  2
SLDDIMSTYLE0
 70
     0
 41
3.302
 44
0.0
 45
0.000000001
 73
     0
 74
     0
 77
     1
 78
    12
 79
     3
140
3.5
143
0.0393700787401575
147
0.875
148
0.000000001
170
     1
173
     1
178
     0
271
     2
272
     2
276
     2
284
    12
340
94
  0
DIMSTYLE
105
DA
330
A
100
AcDbSymbolTableRecord
100
AcDbDimStyleTableRecord
  2
SLDDIMSTYLE1
 70
     0
 41
3.302
 44
0.0
 45
0.000000001
 73
     0
 74
     0
 77
     1
 78
     4
 79
     1
140
3.5
143
0.0393700787401575
147
0.875
148
0.000000001
170
     1
173
     1
178
     0
271
     2
272
     2
276
     2
284
    12
340
94
  0
DIMSTYLE
105
EE
330
A
100
AcDbSymbolTableRecord
100
AcDbDimStyleTableRecord
  2
SLDDIMSTYLE2
 70
     0
 41
3.302
 44
0.0
 45
0.000000001
 73
     0
 74
     0
 77
     1
 78
    12
 79
     3
140
3.5
143
0.0393700787401575
147
0.875
148
0.000000001
170
     1
172
     1
173
     1
178
     0
271
     2
272
     2
276
     2
284
    12
289
     0
340
94
  0
ENDTAB
  0
TABLE
  2
BLOCK_RECORD
  5
1
330
0
100
AcDbSymbolTable
 70
    21
  0
BLOCK_RECORD
  5
1F
330
1
100
AcDbSymbolTableRecord
100
AcDbBlockTableRecord
  2
*Model_Space
340
22
  0
BLOCK_RECORD
  5
1B
330
1
100
AcDbSymbolTableRecord
100
AcDbBlockTableRecord
  2
*Paper_Space
340
1E
  0
BLOCK_RECORD
  5
23
330
1
100
AcDbSymbolTableRecord
100
AcDbBlockTableRecord
  2
*Paper_Space0
340
26
  0
BLOCK_RECORD
  5
7F
330
1
100
AcDbSymbolTableRecord
100
AcDbBlockTableRecord
  2
블럭10
340
0
102
{BLKREFS
331
BD
102
}
  0
BLOCK_RECORD
  5
C6
330
1
100
AcDbSymbolTableRecord
100
AcDbBlockTableRecord
  2
_D
340
0
  0
BLOCK_RECORD
  5
DB
330
1
100
AcDbSymbolTableRecord
100
AcDbBlockTableRecord
  2
_D_1
340
0
  0
BLOCK_RECORD
  5
EF
330
1
100
AcDbSymbolTableRecord
100
AcDbBlockTableRecord
  2
_D_2
340
0
  0
BLOCK_RECORD
  5
103
330
1
100
AcDbSymbolTableRecord
100
AcDbBlockTableRecord
  2
_D_3
340
0
  0
BLOCK_RECORD
  5
11C
330
1
100
AcDbSymbolTableRecord
100
AcDbBlockTableRecord
  2
SW_DOWELSYMBOL_0
340
0
102
{BLKREFS
331
122
102
}
  0
BLOCK_RECORD
  5
1F1
330
1
100
AcDbSymbolTableRecord
100
AcDbBlockTableRecord
  2
*D7
340
0
  0
BLOCK_RECORD
  5
1FE
330
1
100
AcDbSymbolTableRecord
100
AcDbBlockTableRecord
  2
*D8
340
0
  0
BLOCK_RECORD
  5
20A
330
1
100
AcDbSymbolTableRecord
100
AcDbBlockTableRecord
  2
*D9
340
0
  0
BLOCK_RECORD
  5
216
330
1
100
AcDbSymbolTableRecord
100
AcDbBlockTableRecord
  2
*D10
340
0
  0
BLOCK_RECORD
  5
269
330
1
100
AcDbSymbolTableRecord
100
AcDbBlockTableRecord
  2
*D11
340
0
  0
BLOCK_RECORD
  5
276
330
1
100
AcDbSymbolTableRecord
100
AcDbBlockTableRecord
  2
*D12
340
0
  0
BLOCK_RECORD
  5
282
330
1
100
AcDbSymbolTableRecord
100
AcDbBlockTableRecord
  2
*D13
340
0
  0
BLOCK_RECORD
  5
28E
330
1
100
AcDbSymbolTableRecord
100
AcDbBlockTableRecord
  2
*D14
340
0
  0
BLOCK_RECORD
  5
318
330
1
100
AcDbSymbolTableRecord
100
AcDbBlockTableRecord
  2
*D15
340
0
  0
BLOCK_RECORD
  5
325
330
1
100
AcDbSymbolTableRecord
100
AcDbBlockTableRecord
  2
*D16
340
0
  0
BLOCK_RECORD
  5
331
330
1
100
AcDbSymbolTableRecord
100
AcDbBlockTableRecord
  2
*D17
340
0
  0
BLOCK_RECORD
  5
363
330
1
100
AcDbSymbolTableRecord
100
AcDbBlockTableRecord
  2
*D18
340
0
  0
BLOCK_RECORD
  5
370
330
1
100
AcDbSymbolTableRecord
100
AcDbBlockTableRecord
  2
*D19
340
0
  0
BLOCK_RECORD
  5
37C
330
1
100
AcDbSymbolTableRecord
100
AcDbBlockTableRecord
  2
*D20
340
0
  0
ENDTAB
  0
ENDSEC
  0
SECTION
  2
BLOCKS
  0
BLOCK
  5
20
330
1F
100
AcDbEntity
  8
0
100
AcDbBlockBegin
  2
*Model_Space
 70
     0
 10
0.0
 20
0.0
 30
0.0
  3
*Model_Space
  1
*Model_Space
  0
ENDBLK
  5
21
330
1F
100
AcDbEntity
  8
0
100
AcDbBlockEnd
  0
BLOCK
  5
1C
330
1B
100
AcDbEntity
 67
     1
  8
0
100
AcDbBlockBegin
  2
*Paper_Space
 70
     0
 10
0.0
 20
0.0
 30
0.0
  3
*Paper_Space
  1
*Paper_Space
  0
ENDBLK
  5
1D
330
1B
100
AcDbEntity
 67
     1
  8
0
100
AcDbBlockEnd
  0
BLOCK
  5
24
330
23
100
AcDbEntity
  8
0
100
AcDbBlockBegin
  2
*Paper_Space0
 70
     0
 10
0.0
 20
0.0
 30
0.0
  3
*Paper_Space0
  1
*Paper_Space0
  0
ENDBLK
  5
25
330
23
100
AcDbEntity
  8
0
100
AcDbBlockEnd
  0
BLOCK
  5
80
330
7F
100
AcDbEntity
  8
0
100
AcDbBlockBegin
  2
블럭10
 70
     2
 10
0.0
 20
0.0
 30
0.0
  3
블럭10
  1
블럭10
  0
ELLIPSE
  5
82
330
7F
100
AcDbEntity
  8
중심선
100
AcDbEllipse
 10
20.54032771741204
 20
12.0471743016438
 30
0.0
 11
6.600054785286829
 21
-1.261213355974178E-13
 31
0.0
210
0.0
220
0.0
230
1.0
 40
0.636358354079598
 41
0.9219305317359503
 42
6.513795318482858
  0
ELLIPSE
  5
83
330
7F
100
AcDbEntity
  8
중심선
100
AcDbEllipse
 10
20.54032771746488
 20
12.04717430159265
 30
0.0
 11
3.960054785062283
 21
1.540847449632565E-10
 31
0.0
210
0.0
220
0.0
230
1.0
 40
0.3939339440162632
 41
1.131841032648279
 42
5.62031148352944
  0
LINE
  5
84
330
7F
100
AcDbEntity
  8
중심선
100
AcDbLine
 10
2.268634060543552
 20
16.24717430164393
 30
0.0
 11
5.714909304380834
 21
16.24717430164393
 31
0.0
  0
LINE
  5
85
330
7F
100
AcDbEntity
  8
중심선
100
AcDbLine
 10
5.245725140726316
 20
7.84717430164391
 30
0.0
 11
8.692000384563599
 21
7.84717430164391
 31
0.0
  0
LINE
  5
86
330
7F
100
AcDbEntity
  8
중심선
100
AcDbLine
 10
15.74043728645272
 20
16.24717430164393
 30
0.0
 11
8.692000384563599
 21
7.84717430164391
 31
0.0
  0
LINE
  5
87
330
7F
100
AcDbEntity
  8
중심선
100
AcDbLine
 10
0.1404042013395286
 20
13.71084872107135
 30
0.0
 11
3.58671253028996
 21
13.71088815037384
 31
0.0
  0
LINE
  5
88
330
7F
100
AcDbEntity
  8
중심선
100
AcDbLine
 10
2.750260043222114
 20
10.84717430164391
 30
0.0
 11
6.196535287059397
 21
10.84717430164391
 31
0.0
  0
LINE
  5
89
330
7F
100
AcDbEntity
  8
중심선
100
AcDbLine
 10
12.29416204261559
 20
16.24717430164393
 30
0.0
 11
5.245725140726316
 21
7.84717430164391
 31
0.0
  0
LINE
  5
8A
330
7F
100
AcDbEntity
  8
중심선
100
AcDbLine
 10
10.72767329541681
 20
16.24717430164393
 30
0.0
 11
6.196535287059397
 21
10.84717430164391
 31
0.0
  0
LINE
  5
8B
330
7F
100
AcDbEntity
  8
중심선
100
AcDbLine
 10
7.28139805157953
 20
16.24717430164393
 30
0.0
 11
2.750260043222114
 21
10.84717430164391
 31
0.0
  0
LINE
  5
8C
330
7F
100
AcDbEntity
  8
중심선
100
AcDbLine
 10
5.714909304380834
 20
16.24717430164393
 30
0.0
 11
3.58671253028996
 21
13.71088815037384
 31
0.0
  0
LINE
  5
8D
330
7F
100
AcDbEntity
  8
중심선
100
AcDbLine
 10
2.268634060543552
 20
16.24717430164393
 30
0.0
 11
0.1404042013395286
 21
13.71084872107135
 31
0.0
  0
LINE
  5
8E
330
7F
100
AcDbEntity
  8
중심선
100
AcDbLine
 10
7.28139805157953
 20
16.24717430164393
 30
0.0
 11
10.72767329541681
 21
16.24717430164393
 31
0.0
  0
LINE
  5
8F
330
7F
100
AcDbEntity
  8
중심선
100
AcDbLine
 10
12.29416204261559
 20
16.24717430164393
 30
0.0
 11
15.74043728645272
 21
16.24717430164393
 31
0.0
  0
LINE
  5
90
330
7F
100
AcDbEntity
  8
중심선
100
AcDbLine
 10
19.22036997980202
 20
11.08717430171403
 30
0.0
 11
23.66174974927406
 21
11.08717430171406
 31
0.0
  0
LINE
  5
91
330
7F
100
AcDbEntity
  8
중심선
100
AcDbLine
 10
19.22039502424796
 20
13.00717430171391
 30
0.0
 11
19.22036997980202
 21
11.08717430171403
 31
0.0
  0
LINE
  5
92
330
7F
100
AcDbEntity
  8
중심선
100
AcDbLine
 10
19.22039502424796
 20
13.00717430171391
 30
0.0
 11
26.96566020931264
 21
13.00717430171391
 31
0.0
  0
LINE
  5
93
330
7F
100
AcDbEntity
  8
중심선
100
AcDbLine
 10
22.22332737316547
 20
13.45928029700563
 30
0.0
 11
24.52862924686651
 21
15.39360700705356
 31
0.0
  0
ATTDEF
  5
95
330
7F
100
AcDbEntity
  8
FORMAT
 62
     2
100
AcDbText
 10
4.408487351596664
 20
2.075366912832191
 30
0.0
 40
4.233333333333333
  1
E1112040
 41
0.75
  7
SLDTEXTSTYLE0
 11
4.408487351596664
 21
-0.0412997538344756
 31
0.0
100
AcDbAttributeDefinition
  3

  2
AUTOATTR0
 70
     0
 74
     1
  0
ENDBLK
  5
81
330
7F
100
AcDbEntity
  8
0
100
AcDbBlockEnd
  0
BLOCK
  5
C7
330
C6
100
AcDbEntity
  8
0
100
AcDbBlockBegin
  2
_D
 70
     0
 10
0.0
 20
0.0
 30
0.0
  3
_D
  1
_D
  0
LINE
  5
C9
330
C6
100
AcDbEntity
  8
0
  6
Continuous
 62
     0
370
    -2
100
AcDbLine
 10
57.14999999999999
 20
8.00000000000003
 30
0.0
 11
57.14999999999999
 21
12.99892507127611
 31
0.0
  0
LINE
  5
CA
330
C6
100
AcDbEntity
  8
0
  6
Continuous
 62
     0
370
    -2
100
AcDbLine
 10
28.575
 20
7.024296668846856
 30
0.0
 11
28.575
 21
12.99892507127611
 31
0.0
  0
LINE
  5
CB
330
C6
100
AcDbEntity
  8
0
  6
Continuous
 62
     0
370
    -2
100
AcDbLine
 10
28.575
 20
12.99892507127611
 30
0.0
 11
-4.476999999999997
 21
12.99892507127611
 31
0.0
  0
LINE
  5
CC
330
C6
100
AcDbEntity
  8
0
  6
Continuous
 62
     0
370
    -2
100
AcDbLine
 10
53.84799999999999
 20
12.99892507127611
 30
0.0
 11
31.877
 21
12.99892507127611
 31
0.0
  0
SOLID
  5
CD
330
C6
100
AcDbEntity
  8
0
 62
     0
100
AcDbTrace
 10
53.84799999999999
 20
12.44859173794278
 30
0.0
 11
53.84799999999999
 21
13.54925840460945
 31
0.0
 12
57.14999999999999
 22
12.99892507127611
 32
0.0
 13
57.14999999999999
 23
12.99892507127611
 33
0.0
  0
SOLID
  5
CE
330
C6
100
AcDbEntity
  8
0
 62
     0
100
AcDbTrace
 10
31.877
 20
13.54925840460945
 30
0.0
 11
31.877
 21
12.44859173794278
 31
0.0
 12
28.575
 22
12.99892507127611
 32
0.0
 13
28.575
 23
12.99892507127611
 33
0.0
  0
MTEXT
  5
CF
330
C6
100
AcDbEntity
  8
0
 62
     0
370
    15
100
AcDbMText
 10
10.398
 20
17.37392507127611
 30
0.0
 40
3.5
 41
0.0
 71
     2
 72
     1
  1
\A1;28.58 [1 1/8]
  7
SLDTEXTSTYLE0
 73
     1
 44
1.0
  0
POINT
  5
D0
330
C6
100
AcDbEntity
  8
Defpoints
 62
     0
100
AcDbPoint
 10
57.14999999999999
 20
7.93750000000003
 30
0.0
  0
POINT
  5
D1
330
C6
100
AcDbEntity
  8
Defpoints
 62
     0
100
AcDbPoint
 10
28.575
 20
6.961796668846856
 30
0.0
  0
POINT
  5
D2
330
C6
100
AcDbEntity
  8
Defpoints
 62
     0
100
AcDbPoint
 10
28.575
 20
12.99892507127611
 30
0.0
  0
ENDBLK
  5
C8
330
C6
100
AcDbEntity
  8
0
100
AcDbBlockEnd
  0
BLOCK
  5
DC
330
DB
100
AcDbEntity
  8
0
100
AcDbBlockBegin
  2
_D_1
 70
     0
 10
0.0
 20
0.0
 30
0.0
  3
_D_1
  1
_D_1
  0
LINE
  5
DE
330
DB
100
AcDbEntity
  8
0
  6
Continuous
 62
     0
370
    -2
100
AcDbLine
 10
57.14999999999999
 20
8.00000000000003
 30
0.0
 11
57.14999999999999
 21
29.28797898817498
 31
0.0
  0
LINE
  5
DF
330
DB
100
AcDbEntity
  8
0
  6
Continuous
 62
     0
370
    -2
100
AcDbLine
 10
-57.14999999999999
 20
7.999999999999983
 30
0.0
 11
-57.14999999999999
 21
29.28797898817498
 31
0.0
  0
LINE
  5
E0
330
DB
100
AcDbEntity
  8
0
  6
Continuous
 62
     0
370
    -2
100
AcDbLine
 10
53.84799999999999
 20
29.28797898817498
 30
0.0
 11
-53.84799999999999
 21
29.28797898817498
 31
0.0
  0
SOLID
  5
E1
330
DB
100
AcDbEntity
  8
0
 62
     0
100
AcDbTrace
 10
53.84799999999999
 20
28.73764565484164
 30
0.0
 11
53.84799999999999
 21
29.83831232150831
 31
0.0
 12
57.14999999999999
 22
29.28797898817498
 32
0.0
 13
57.14999999999999
 23
29.28797898817498
 33
0.0
  0
SOLID
  5
E2
330
DB
100
AcDbEntity
  8
0
 62
     0
100
AcDbTrace
 10
-53.84799999999999
 20
29.83831232150831
 30
0.0
 11
-53.84799999999999
 21
28.73764565484164
 31
0.0
 12
-57.14999999999999
 22
29.28797898817498
 32
0.0
 13
-57.14999999999999
 23
29.28797898817498
 33
0.0
  0
MTEXT
  5
E3
330
DB
100
AcDbEntity
  8
0
 62
     0
370
    15
100
AcDbMText
 10
0.5002482052494734
 20
33.66297898817498
 30
0.0
 40
3.5
 41
0.0
 71
     2
 72
     1
  1
\A1;114.3 [4 1/2]
  7
SLDTEXTSTYLE0
 73
     1
 44
1.0
  0
POINT
  5
E4
330
DB
100
AcDbEntity
  8
Defpoints
 62
     0
100
AcDbPoint
 10
57.14999999999999
 20
7.93750000000003
 30
0.0
  0
POINT
  5
E5
330
DB
100
AcDbEntity
  8
Defpoints
 62
     0
100
AcDbPoint
 10
-57.14999999999999
 20
7.937499999999983
 30
0.0
  0
POINT
  5
E6
330
DB
100
AcDbEntity
  8
Defpoints
 62
     0
100
AcDbPoint
 10
-57.14999999999999
 20
29.28797898817498
 30
0.0
  0
ENDBLK
  5
DD
330
DB
100
AcDbEntity
  8
0
100
AcDbBlockEnd
  0
BLOCK
  5
F0
330
EF
100
AcDbEntity
  8
0
100
AcDbBlockBegin
  2
_D_2
 70
     0
 10
0.0
 20
0.0
 30
0.0
  3
_D_2
  1
_D_2
  0
LINE
  5
F2
330
EF
100
AcDbEntity
  8
0
  6
Continuous
 62
     0
370
    -2
100
AcDbLine
 10
-25.58716475472205
 20
7.937499999999997
 30
0.0
 11
-69.58000000000001
 21
7.937499999999831
 31
0.0
  0
LINE
  5
F3
330
EF
100
AcDbEntity
  8
0
  6
Continuous
 62
     0
370
    -2
100
AcDbLine
 10
-25.58716475472205
 20
-7.937500000000006
 30
0.0
 11
-69.57999999999996
 21
-7.937500000000172
 31
0.0
  0
LINE
  5
F4
330
EF
100
AcDbEntity
  8
0
  6
Continuous
 62
     0
370
    -2
100
AcDbLine
 10
-69.58
 20
4.635499999999832
 30
0.0
 11
-69.57999999999997
 21
-4.635500000000173
 31
0.0
  0
SOLID
  5
F5
330
EF
100
AcDbEntity
  8
0
 62
     0
100
AcDbTrace
 10
-69.02966666666667
 20
4.635499999999833
 30
0.0
 11
-70.13033333333333
 21
4.63549999999983
 31
0.0
 12
-69.58000000000001
 22
7.937499999999831
 32
0.0
 13
-69.58000000000001
 23
7.937499999999831
 33
0.0
  0
SOLID
  5
F6
330
EF
100
AcDbEntity
  8
0
 62
     0
100
AcDbTrace
 10
-70.1303333333333
 20
-4.635500000000174
 30
0.0
 11
-69.02966666666664
 21
-4.635500000000171
 31
0.0
 12
-69.57999999999996
 22
-7.937500000000172
 32
0.0
 13
-69.57999999999996
 23
-7.937500000000172
 33
0.0
  0
MTEXT
  5
F7
330
EF
100
AcDbEntity
  8
0
 62
     0
370
    15
100
AcDbMText
 10
-73.95499999999998
 20
-0.000000000000028
 30
0.0
 40
3.5
 41
0.0
 71
     2
 72
     1
  1
\A1;%%c15.88 [5/8]
  7
SLDTEXTSTYLE0
 11
-3.580687802255623E-15
 21
1.0
 31
0.0
 73
     1
 44
1.0
  0
POINT
  5
F8
330
EF
100
AcDbEntity
  8
Defpoints
 62
     0
100
AcDbPoint
 10
-25.52466475472205
 20
7.937499999999997
 30
0.0
  0
POINT
  5
F9
330
EF
100
AcDbEntity
  8
Defpoints
 62
     0
100
AcDbPoint
 10
-25.52466475472205
 20
-7.937500000000006
 30
0.0
  0
POINT
  5
FA
330
EF
100
AcDbEntity
  8
Defpoints
 62
     0
100
AcDbPoint
 10
-69.57999999999996
 20
-7.937500000000171
 30
0.0
  0
ENDBLK
  5
F1
330
EF
100
AcDbEntity
  8
0
100
AcDbBlockEnd
  0
BLOCK
  5
104
330
103
100
AcDbEntity
  8
0
100
AcDbBlockBegin
  2
_D_3
 70
     0
 10
0.0
 20
0.0
 30
0.0
  3
_D_3
  1
_D_3
  0
LINE
  5
106
330
103
100
AcDbEntity
  8
0
  6
Continuous
 62
     0
370
    -2
100
AcDbLine
 10
57.21249999999999
 20
7.93750000000003
 30
0.0
 11
74.03428769518034
 21
7.937500000000096
 31
0.0
  0
LINE
  5
107
330
103
100
AcDbEntity
  8
0
  6
Continuous
 62
     0
370
    -2
100
AcDbLine
 10
57.21249999999999
 20
-7.937499999999972
 30
0.0
 11
74.0342876951804
 21
-7.937499999999911
 31
0.0
  0
LINE
  5
108
330
103
100
AcDbEntity
  8
0
  6
Continuous
 62
     0
370
    -2
100
AcDbLine
 10
74.03428769518034
 20
7.937500000000096
 30
0.0
 11
74.03428769518023
 21
39.23950000000009
 31
0.0
  0
LINE
  5
109
330
103
100
AcDbEntity
  8
0
  6
Continuous
 62
     0
370
    -2
100
AcDbLine
 10
74.03428769518035
 20
4.635500000000096
 30
0.0
 11
74.03428769518038
 21
-4.635499999999912
 31
0.0
  0
SOLID
  5
10A
330
103
100
AcDbEntity
  8
0
 62
     0
100
AcDbTrace
 10
74.58462102851368
 20
4.635500000000098
 30
0.0
 11
73.48395436184703
 21
4.635500000000095
 31
0.0
 12
74.03428769518034
 22
7.937500000000096
 32
0.0
 13
74.03428769518034
 23
7.937500000000096
 33
0.0
  0
SOLID
  5
10B
330
103
100
AcDbEntity
  8
0
 62
     0
100
AcDbTrace
 10
73.48395436184705
 20
-4.635499999999913
 30
0.0
 11
74.58462102851371
 21
-4.63549999999991
 31
0.0
 12
74.0342876951804
 22
-7.937499999999911
 32
0.0
 13
74.0342876951804
 23
-7.937499999999911
 33
0.0
  0
MTEXT
  5
10C
330
103
100
AcDbEntity
  8
0
 62
     0
370
    15
100
AcDbMText
 10
69.65928769518028
 20
25.23950000000008
 30
0.0
 40
3.5
 41
0.0
 71
     2
 72
     1
  1
\A1;%%c15.88 [5/8]
  7
SLDTEXTSTYLE0
 11
-3.580687802255622E-15
 21
1.0
 31
0.0
 73
     1
 44
1.0
  0
POINT
  5
10D
330
103
100
AcDbEntity
  8
Defpoints
 62
     0
100
AcDbPoint
 10
57.14999999999999
 20
7.93750000000003
 30
0.0
  0
POINT
  5
10E
330
103
100
AcDbEntity
  8
Defpoints
 62
     0
100
AcDbPoint
 10
57.14999999999999
 20
-7.937499999999972
 30
0.0
  0
POINT
  5
10F
330
103
100
AcDbEntity
  8
Defpoints
 62
     0
100
AcDbPoint
 10
74.03428769518041
 20
-7.937499999999909
 30
0.0
  0
ENDBLK
  5
105
330
103
100
AcDbEntity
  8
0
100
AcDbBlockEnd
  0
BLOCK
  5
11D
330
11C
100
AcDbEntity
  8
0
100
AcDbBlockBegin
  2
SW_DOWELSYMBOL_0
 70
     0
 10
0.0
 20
0.0
 30
0.0
  3
SW_DOWELSYMBOL_0
  1
SW_DOWELSYMBOL_0
  0
CIRCLE
  5
11F
330
11C
100
AcDbEntity
  8
해칭선
 62
     0
100
AcDbCircle
 10
0.0
 20
0.0
 30
0.0
 40
3.000000000000001
  0
HATCH
  5
120
330
11C
100
AcDbEntity
  8
0
  6
Continuous
 62
     0
370
     0
100
AcDbHatch
 10
0.0
 20
0.0
 30
0.0
210
0.0
220
0.0
230
1.0
  2
SOLID
 70
     1
 71
     0
 91
        1
 92
        0
 93
        3
 72
     2
 10
0.0
 20
0.0
 40
3.000000000000001
 50
0.0
 51
90.0
 73
     1
 72
     1
 10
0.0
 20
3.000000000000001
 11
0.0
 21
0.0
 72
     1
 10
0.0
 20
0.0
 11
3.000000000000001
 21
0.0
 97
        0
 75
     0
 76
     1
 98
        1
 10
0.0
 20
0.0
  0
HATCH
  5
121
330
11C
100
AcDbEntity
  8
0
  6
Continuous
 62
     0
370
     0
100
AcDbHatch
 10
0.0
 20
0.0
 30
0.0
210
0.0
220
0.0
230
1.0
  2
SOLID
 70
     1
 71
     0
 91
        1
 92
        0
 93
        3
 72
     2
 10
0.0
 20
0.0
 40
3.000000000000001
 50
180.0
 51
270.0000000000007
 73
     1
 72
     1
 10
0.0
 20
-3.000000000000001
 11
0.0
 21
0.0
 72
     1
 10
0.0
 20
0.0
 11
-3.000000000000001
 21
0.0
 97
        0
 75
     0
 76
     1
 98
        1
 10
0.0
 20
0.0
  0
ENDBLK
  5
11E
330
11C
100
AcDbEntity
  8
0
100
AcDbBlockEnd
  0
BLOCK
  5
1F2
330
1F1
100
AcDbEntity
  8
0
100
AcDbBlockBegin
  2
*D7
 70
     1
 10
0.0
 20
0.0
 30
0.0
  3
*D7
  1
*D8
  0
LINE
  5
1F4
330
1F1
100
AcDbEntity
  8
0
  6
Continuous
 62
     0
370
    -2
100
AcDbLine
 10
112.1175
 20
17.78750000000004
 30
0.0
 11
112.1175
 21
26.60549030816913
 31
0.0
  0
LINE
  5
1F5
330
1F1
100
AcDbEntity
  8
0
  6
Continuous
 62
     0
370
    -2
100
AcDbLine
 10
91.41750000000003
 20
16.28142765623691
 30
0.0
 11
91.41750000000003
 21
26.60549030816913
 31
0.0
  0
LINE
  5
1F6
330
1F1
100
AcDbEntity
  8
0
  6
Continuous
 62
     0
370
    -2
100
AcDbLine
 10
91.41750000000003
 20
26.60549030816913
 30
0.0
 11
56.0953758285622
 21
26.60549030816913
 31
0.0
  0
LINE
  5
1F7
330
1F1
100
AcDbEntity
  8
0
  6
Continuous
 62
     0
370
    -2
100
AcDbLine
 10
108.8155
 20
26.60549030816913
 30
0.0
 11
94.71950000000004
 21
26.60549030816913
 31
0.0
  0
SOLID
  5
1F8
330
1F1
100
AcDbEntity
  8
0
 62
     0
100
AcDbTrace
 10
108.8155
 20
26.0551569748358
 30
0.0
 11
108.8155
 21
27.15582364150247
 31
0.0
 12
112.1175
 22
26.60549030816913
 32
0.0
 13
112.1175
 23
26.60549030816913
 33
0.0
  0
SOLID
  5
1F9
330
1F1
100
AcDbEntity
  8
0
 62
     0
100
AcDbTrace
 10
94.71950000000004
 20
27.15582364150247
 30
0.0
 11
94.71950000000004
 21
26.0551569748358
 31
0.0
 12
91.41750000000003
 22
26.60549030816913
 32
0.0
 13
91.41750000000003
 23
26.60549030816913
 33
0.0
  0
MTEXT
  5
1FA
330
1F1
100
AcDbEntity
  8
0
 62
     0
370
    15
100
AcDbMText
 10
69.4391258285622
 20
30.98049030816913
 30
0.0
 40
3.5
 41
0.0
 71
     2
 72
     1
  1
\A1;20.7 [13/16]
  7
SLDTEXTSTYLE0
 73
     1
 44
1.0
  0
POINT
  5
1FB
330
1F1
100
AcDbEntity
  8
Defpoints
 62
     0
100
AcDbPoint
 10
112.1175
 20
17.72500000000004
 30
0.0
  0
POINT
  5
1FC
330
1F1
100
AcDbEntity
  8
Defpoints
 62
     0
100
AcDbPoint
 10
91.41750000000003
 20
16.21892765623691
 30
0.0
  0
POINT
  5
1FD
330
1F1
100
AcDbEntity
  8
Defpoints
 62
     0
100
AcDbPoint
 10
91.41750000000003
 20
26.60549030816913
 30
0.0
  0
ENDBLK
  5
1F3
330
1F1
100
AcDbEntity
  8
0
100
AcDbBlockEnd
  0
BLOCK
  5
1FF
330
1FE
100
AcDbEntity
  8
0
100
AcDbBlockBegin
  2
*D8
 70
     1
 10
0.0
 20
0.0
 30
0.0
  3
*D8
  1
*D9
  0
LINE
  5
201
330
1FE
100
AcDbEntity
  8
0
  6
Continuous
 62
     0
370
    -2
100
AcDbLine
 10
112.1175
 20
17.78750000000004
 30
0.0
 11
112.1175
 21
40.66297898817499
 31
0.0
  0
LINE
  5
202
330
1FE
100
AcDbEntity
  8
0
  6
Continuous
 62
     0
370
    -2
100
AcDbLine
 10
16.80500000000004
 20
17.7875
 30
0.0
 11
16.80500000000004
 21
40.66297898817499
 31
0.0
  0
LINE
  5
203
330
1FE
100
AcDbEntity
  8
0
  6
Continuous
 62
     0
370
    -2
100
AcDbLine
 10
108.8155
 20
40.66297898817499
 30
0.0
 11
20.10700000000003
 21
40.66297898817499
 31
0.0
  0
SOLID
  5
204
330
1FE
100
AcDbEntity
  8
0
 62
     0
100
AcDbTrace
 10
108.8155
 20
40.11264565484166
 30
0.0
 11
108.8155
 21
41.21331232150833
 31
0.0
 12
112.1175
 22
40.66297898817499
 32
0.0
 13
112.1175
 23
40.66297898817499
 33
0.0
  0
SOLID
  5
205
330
1FE
100
AcDbEntity
  8
0
 62
     0
100
AcDbTrace
 10
20.10700000000003
 20
41.21331232150833
 30
0.0
 11
20.10700000000003
 21
40.11264565484166
 31
0.0
 12
16.80500000000004
 22
40.66297898817499
 32
0.0
 13
16.80500000000004
 23
40.66297898817499
 33
0.0
  0
MTEXT
  5
206
330
1FE
100
AcDbEntity
  8
0
 62
     0
370
    15
100
AcDbMText
 10
64.8468735043746
 20
45.03797898817499
 30
0.0
 40
3.5
 41
0.0
 71
     2
 72
     1
  1
\A1;95.31 [3 3/4]
  7
SLDTEXTSTYLE0
 73
     1
 44
1.0
  0
POINT
  5
207
330
1FE
100
AcDbEntity
  8
Defpoints
 62
     0
100
AcDbPoint
 10
112.1175
 20
17.72500000000004
 30
0.0
  0
POINT
  5
208
330
1FE
100
AcDbEntity
  8
Defpoints
 62
     0
100
AcDbPoint
 10
16.80500000000004
 20
17.725
 30
0.0
  0
POINT
  5
209
330
1FE
100
AcDbEntity
  8
Defpoints
 62
     0
100
AcDbPoint
 10
16.80500000000004
 20
40.66297898817499
 30
0.0
  0
ENDBLK
  5
200
330
1FE
100
AcDbEntity
  8
0
100
AcDbBlockEnd
  0
BLOCK
  5
20B
330
20A
100
AcDbEntity
  8
0
100
AcDbBlockBegin
  2
*D9
 70
     1
 10
0.0
 20
0.0
 30
0.0
  3
*D9
  1
*D10
  0
LINE
  5
20D
330
20A
100
AcDbEntity
  8
0
  6
Continuous
 62
     0
370
    -2
100
AcDbLine
 10
39.41033944944421
 20
17.72500000000001
 30
0.0
 11
4.37500000000002
 21
17.72499999999988
 31
0.0
  0
LINE
  5
20E
330
20A
100
AcDbEntity
  8
0
  6
Continuous
 62
     0
370
    -2
100
AcDbLine
 10
39.4103394494442
 20
5.025000000000009
 30
0.0
 11
4.375000000000065
 21
5.024999999999878
 31
0.0
  0
LINE
  5
20F
330
20A
100
AcDbEntity
  8
0
  6
Continuous
 62
     0
370
    -2
100
AcDbLine
 10
4.375000000000032
 20
14.42299999999988
 30
0.0
 11
4.375000000000053
 21
8.326999999999877
 31
0.0
  0
SOLID
  5
210
330
20A
100
AcDbEntity
  8
0
 62
     0
100
AcDbTrace
 10
4.925333333333366
 20
14.42299999999988
 30
0.0
 11
3.824666666666699
 21
14.42299999999988
 31
0.0
 12
4.37500000000002
 22
17.72499999999988
 32
0.0
 13
4.37500000000002
 23
17.72499999999988
 33
0.0
  0
SOLID
  5
211
330
20A
100
AcDbEntity
  8
0
 62
     0
100
AcDbTrace
 10
3.82466666666672
 20
8.326999999999876
 30
0.0
 11
4.925333333333387
 21
8.32699999999988
 31
0.0
 12
4.375000000000065
 22
5.024999999999878
 32
0.0
 13
4.375000000000065
 23
5.024999999999878
 33
0.0
  0
MTEXT
  5
212
330
20A
100
AcDbEntity
  8
0
 62
     0
370
    15
100
AcDbMText
 10
0.0000000000000426
 20
11.37499999999999
 30
0.0
 40
3.5
 41
0.0
 71
     2
 72
     1
  1
\A1;%%c12.7 [1/2]
  7
SLDTEXTSTYLE0
 11
-3.496765431890257E-15
 21
1.0
 31
0.0
 73
     1
 44
1.0
  0
POINT
  5
213
330
20A
100
AcDbEntity
  8
Defpoints
 62
     0
100
AcDbPoint
 10
39.47283944944421
 20
17.72500000000001
 30
0.0
  0
POINT
  5
214
330
20A
100
AcDbEntity
  8
Defpoints
 62
     0
100
AcDbPoint
 10
39.4728394494442
 20
5.025000000000009
 30
0.0
  0
POINT
  5
215
330
20A
100
AcDbEntity
  8
Defpoints
 62
     0
100
AcDbPoint
 10
4.375000000000064
 20
5.024999999999878
 30
0.0
  0
ENDBLK
  5
20C
330
20A
100
AcDbEntity
  8
0
100
AcDbBlockEnd
  0
BLOCK
  5
217
330
216
100
AcDbEntity
  8
0
100
AcDbBlockBegin
  2
*D10
 70
     1
 10
0.0
 20
0.0
 30
0.0
  3
*D10
  1
*D11
  0
LINE
  5
219
330
216
100
AcDbEntity
  8
0
  6
Continuous
 62
     0
370
    -2
100
AcDbLine
 10
112.1175
 20
17.72500000000004
 30
0.0
 11
125.4674349065033
 21
17.72500000000009
 31
0.0
  0
LINE
  5
21A
330
216
100
AcDbEntity
  8
0
  6
Continuous
 62
     0
370
    -2
100
AcDbLine
 10
112.1175
 20
5.025000000000036
 30
0.0
 11
125.4674349065033
 21
5.025000000000084
 31
0.0
  0
LINE
  5
21B
330
216
100
AcDbEntity
  8
0
  6
Continuous
 62
     0
370
    -2
100
AcDbLine
 10
125.4674349065033
 20
17.72500000000009
 30
0.0
 11
125.4674349065032
 21
45.52700000000009
 31
0.0
  0
LINE
  5
21C
330
216
100
AcDbEntity
  8
0
  6
Continuous
 62
     0
370
    -2
100
AcDbLine
 10
125.4674349065033
 20
14.42300000000009
 30
0.0
 11
125.4674349065033
 21
8.327000000000083
 31
0.0
  0
SOLID
  5
21D
330
216
100
AcDbEntity
  8
0
 62
     0
100
AcDbTrace
 10
126.0177682398366
 20
14.42300000000009
 30
0.0
 11
124.91710157317
 21
14.42300000000009
 31
0.0
 12
125.4674349065033
 22
17.72500000000009
 32
0.0
 13
125.4674349065033
 23
17.72500000000009
 33
0.0
  0
SOLID
  5
21E
330
216
100
AcDbEntity
  8
0
 62
     0
100
AcDbTrace
 10
124.91710157317
 20
8.327000000000082
 30
0.0
 11
126.0177682398366
 21
8.327000000000085
 31
0.0
 12
125.4674349065033
 22
5.025000000000084
 32
0.0
 13
125.4674349065033
 23
5.025000000000084
 33
0.0
  0
MTEXT
  5
21F
330
216
100
AcDbEntity
  8
0
 62
     0
370
    15
100
AcDbMText
 10
121.0924349065032
 20
33.27700000000007
 30
0.0
 40
3.5
 41
0.0
 71
     2
 72
     1
  1
\A1;%%c12.7 [1/2]
  7
SLDTEXTSTYLE0
 11
-3.356894814614646E-15
 21
1.0
 31
0.0
 73
     1
 44
1.0
  0
POINT
  5
220
330
216
100
AcDbEntity
  8
Defpoints
 62
     0
100
AcDbPoint
 10
112.055
 20
17.72500000000004
 30
0.0
  0
POINT
  5
221
330
216
100
AcDbEntity
  8
Defpoints
 62
     0
100
AcDbPoint
 10
112.055
 20
5.025000000000036
 30
0.0
  0
POINT
  5
222
330
216
100
AcDbEntity
  8
Defpoints
 62
     0
100
AcDbPoint
 10
125.4674349065033
 20
5.025000000000086
 30
0.0
  0
ENDBLK
  5
218
330
216
100
AcDbEntity
  8
0
100
AcDbBlockEnd
  0
BLOCK
  5
26A
330
269
100
AcDbEntity
  8
0
100
AcDbBlockBegin
  2
*D11
 70
     1
 10
0.0
 20
0.0
 30
0.0
  3
*D11
  1
*D12
  0
LINE
  5
26C
330
269
100
AcDbEntity
  8
0
  6
Continuous
 62
     0
370
    -2
100
AcDbLine
 10
186.4774064571055
 20
-25.61813002159458
 30
0.0
 11
186.4774064571055
 21
-16.80013971342549
 31
0.0
  0
LINE
  5
26D
330
269
100
AcDbEntity
  8
0
  6
Continuous
 62
     0
370
    -2
100
AcDbLine
 10
165.7774064571055
 20
-27.12420236535771
 30
0.0
 11
165.7774064571055
 21
-16.80013971342549
 31
0.0
  0
LINE
  5
26E
330
269
100
AcDbEntity
  8
0
  6
Continuous
 62
     0
370
    -2
100
AcDbLine
 10
165.7774064571055
 20
-16.80013971342549
 30
0.0
 11
130.4552822856677
 21
-16.80013971342549
 31
0.0
  0
LINE
  5
26F
330
269
100
AcDbEntity
  8
0
  6
Continuous
 62
     0
370
    -2
100
AcDbLine
 10
183.1754064571055
 20
-16.80013971342549
 30
0.0
 11
169.0794064571055
 21
-16.80013971342549
 31
0.0
  0
SOLID
  5
270
330
269
100
AcDbEntity
  8
0
 62
     0
100
AcDbTrace
 10
183.1754064571055
 20
-17.35047304675882
 30
0.0
 11
183.1754064571055
 21
-16.24980638009215
 31
0.0
 12
186.4774064571055
 22
-16.80013971342549
 32
0.0
 13
186.4774064571055
 23
-16.80013971342549
 33
0.0
  0
SOLID
  5
271
330
269
100
AcDbEntity
  8
0
 62
     0
100
AcDbTrace
 10
169.0794064571055
 20
-16.24980638009215
 30
0.0
 11
169.0794064571055
 21
-17.35047304675882
 31
0.0
 12
165.7774064571055
 22
-16.80013971342549
 32
0.0
 13
165.7774064571055
 23
-16.80013971342549
 33
0.0
  0
MTEXT
  5
272
330
269
100
AcDbEntity
  8
0
 62
     0
370
    15
100
AcDbMText
 10
143.7990322856677
 20
-12.42513971342549
 30
0.0
 40
3.5
 41
0.0
 71
     2
 72
     1
  1
\A1;20.7 [13/16]
  7
SLDTEXTSTYLE0
 73
     1
 44
1.0
  0
POINT
  5
273
330
269
100
AcDbEntity
  8
Defpoints
 62
     0
100
AcDbPoint
 10
186.4774064571055
 20
-25.68063002159458
 30
0.0
  0
POINT
  5
274
330
269
100
AcDbEntity
  8
Defpoints
 62
     0
100
AcDbPoint
 10
165.7774064571055
 20
-27.18670236535771
 30
0.0
  0
POINT
  5
275
330
269
100
AcDbEntity
  8
Defpoints
 62
     0
100
AcDbPoint
 10
165.7774064571055
 20
-16.80013971342549
 30
0.0
  0
ENDBLK
  5
26B
330
269
100
AcDbEntity
  8
0
100
AcDbBlockEnd
  0
BLOCK
  5
277
330
276
100
AcDbEntity
  8
0
100
AcDbBlockBegin
  2
*D12
 70
     1
 10
0.0
 20
0.0
 30
0.0
  3
*D12
  1
*D13
  0
LINE
  5
279
330
276
100
AcDbEntity
  8
0
  6
Continuous
 62
     0
370
    -2
100
AcDbLine
 10
186.4774064571055
 20
-25.61813002159458
 30
0.0
 11
186.4774064571055
 21
-2.742651033419627
 31
0.0
  0
LINE
  5
27A
330
276
100
AcDbEntity
  8
0
  6
Continuous
 62
     0
370
    -2
100
AcDbLine
 10
91.1649064571055
 20
-25.61813002159461
 30
0.0
 11
91.1649064571055
 21
-2.742651033419627
 31
0.0
  0
LINE
  5
27B
330
276
100
AcDbEntity
  8
0
  6
Continuous
 62
     0
370
    -2
100
AcDbLine
 10
183.1754064571055
 20
-2.742651033419627
 30
0.0
 11
94.4669064571055
 21
-2.742651033419627
 31
0.0
  0
SOLID
  5
27C
330
276
100
AcDbEntity
  8
0
 62
     0
100
AcDbTrace
 10
183.1754064571055
 20
-3.29298436675296
 30
0.0
 11
183.1754064571055
 21
-2.192317700086293
 31
0.0
 12
186.4774064571055
 22
-2.742651033419627
 32
0.0
 13
186.4774064571055
 23
-2.742651033419627
 33
0.0
  0
SOLID
  5
27D
330
276
100
AcDbEntity
  8
0
 62
     0
100
AcDbTrace
 10
94.4669064571055
 20
-2.192317700086293
 30
0.0
 11
94.4669064571055
 21
-3.29298436675296
 31
0.0
 12
91.1649064571055
 22
-2.742651033419627
 32
0.0
 13
91.1649064571055
 23
-2.742651033419627
 33
0.0
  0
MTEXT
  5
27E
330
276
100
AcDbEntity
  8
0
 62
     0
370
    15
100
AcDbMText
 10
139.2067799614801
 20
1.632348966580373
 30
0.0
 40
3.5
 41
0.0
 71
     2
 72
     1
  1
\A1;95.31 [3 3/4]
  7
SLDTEXTSTYLE0
 73
     1
 44
1.0
  0
POINT
  5
27F
330
276
100
AcDbEntity
  8
Defpoints
 62
     0
100
AcDbPoint
 10
186.4774064571055
 20
-25.68063002159458
 30
0.0
  0
POINT
  5
280
330
276
100
AcDbEntity
  8
Defpoints
 62
     0
100
AcDbPoint
 10
91.1649064571055
 20
-25.68063002159461
 30
0.0
  0
POINT
  5
281
330
276
100
AcDbEntity
  8
Defpoints
 62
     0
100
AcDbPoint
 10
91.1649064571055
 20
-2.742651033419627
 30
0.0
  0
ENDBLK
  5
278
330
276
100
AcDbEntity
  8
0
100
AcDbBlockEnd
  0
BLOCK
  5
283
330
282
100
AcDbEntity
  8
0
100
AcDbBlockBegin
  2
*D13
 70
     1
 10
0.0
 20
0.0
 30
0.0
  3
*D13
  1
*D14
  0
LINE
  5
285
330
282
100
AcDbEntity
  8
0
  6
Continuous
 62
     0
370
    -2
100
AcDbLine
 10
113.7702459065497
 20
-25.68063002159461
 30
0.0
 11
78.7349064571055
 21
-25.68063002159474
 31
0.0
  0
LINE
  5
286
330
282
100
AcDbEntity
  8
0
  6
Continuous
 62
     0
370
    -2
100
AcDbLine
 10
113.7702459065497
 20
-38.38063002159461
 30
0.0
 11
78.73490645710554
 21
-38.38063002159474
 31
0.0
  0
LINE
  5
287
330
282
100
AcDbEntity
  8
0
  6
Continuous
 62
     0
370
    -2
100
AcDbLine
 10
78.73490645710551
 20
-28.98263002159474
 30
0.0
 11
78.73490645710552
 21
-35.07863002159474
 31
0.0
  0
SOLID
  5
288
330
282
100
AcDbEntity
  8
0
 62
     0
100
AcDbTrace
 10
79.28523979043884
 20
-28.98263002159474
 30
0.0
 11
78.18457312377218
 21
-28.98263002159474
 31
0.0
 12
78.7349064571055
 22
-25.68063002159474
 32
0.0
 13
78.7349064571055
 23
-25.68063002159474
 33
0.0
  0
SOLID
  5
289
330
282
100
AcDbEntity
  8
0
 62
     0
100
AcDbTrace
 10
78.1845731237722
 20
-35.07863002159474
 30
0.0
 11
79.28523979043885
 21
-35.07863002159474
 31
0.0
 12
78.73490645710554
 22
-38.38063002159474
 32
0.0
 13
78.73490645710554
 23
-38.38063002159474
 33
0.0
  0
MTEXT
  5
28A
330
282
100
AcDbEntity
  8
0
 62
     0
370
    15
100
AcDbMText
 10
74.35990645710551
 20
-32.03063002159463
 30
0.0
 40
3.5
 41
0.0
 71
     2
 72
     1
  1
\A1;%%c12.7 [1/2]
  7
SLDTEXTSTYLE0
 11
-3.356894814614647E-15
 21
1.0
 31
0.0
 73
     1
 44
1.0
  0
POINT
  5
28B
330
282
100
AcDbEntity
  8
Defpoints
 62
     0
100
AcDbPoint
 10
113.8327459065497
 20
-25.68063002159461
 30
0.0
  0
POINT
  5
28C
330
282
100
AcDbEntity
  8
Defpoints
 62
     0
100
AcDbPoint
 10
113.8327459065497
 20
-38.38063002159461
 30
0.0
  0
POINT
  5
28D
330
282
100
AcDbEntity
  8
Defpoints
 62
     0
100
AcDbPoint
 10
78.73490645710554
 20
-38.38063002159474
 30
0.0
  0
ENDBLK
  5
284
330
282
100
AcDbEntity
  8
0
100
AcDbBlockEnd
  0
BLOCK
  5
28F
330
28E
100
AcDbEntity
  8
0
100
AcDbBlockBegin
  2
*D14
 70
     1
 10
0.0
 20
0.0
 30
0.0
  3
*D14
  1
*D15
  0
LINE
  5
291
330
28E
100
AcDbEntity
  8
0
  6
Continuous
 62
     0
370
    -2
100
AcDbLine
 10
186.4774064571055
 20
-25.68063002159458
 30
0.0
 11
199.8273413636088
 21
-25.68063002159453
 31
0.0
  0
LINE
  5
292
330
28E
100
AcDbEntity
  8
0
  6
Continuous
 62
     0
370
    -2
100
AcDbLine
 10
186.4774064571055
 20
-38.38063002159458
 30
0.0
 11
199.8273413636088
 21
-38.38063002159453
 31
0.0
  0
LINE
  5
293
330
28E
100
AcDbEntity
  8
0
  6
Continuous
 62
     0
370
    -2
100
AcDbLine
 10
199.8273413636088
 20
-25.68063002159453
 30
0.0
 11
199.8273413636086
 21
2.121369978405468
 31
0.0
  0
LINE
  5
294
330
28E
100
AcDbEntity
  8
0
  6
Continuous
 62
     0
370
    -2
100
AcDbLine
 10
199.8273413636088
 20
-28.98263002159453
 30
0.0
 11
199.8273413636088
 21
-35.07863002159453
 31
0.0
  0
SOLID
  5
295
330
28E
100
AcDbEntity
  8
0
 62
     0
100
AcDbTrace
 10
200.3776746969421
 20
-28.98263002159453
 30
0.0
 11
199.2770080302755
 21
-28.98263002159453
 31
0.0
 12
199.8273413636088
 22
-25.68063002159453
 32
0.0
 13
199.8273413636088
 23
-25.68063002159453
 33
0.0
  0
SOLID
  5
296
330
28E
100
AcDbEntity
  8
0
 62
     0
100
AcDbTrace
 10
199.2770080302755
 20
-35.07863002159453
 30
0.0
 11
200.3776746969421
 21
-35.07863002159453
 31
0.0
 12
199.8273413636088
 22
-38.38063002159453
 32
0.0
 13
199.8273413636088
 23
-38.38063002159453
 33
0.0
  0
MTEXT
  5
297
330
28E
100
AcDbEntity
  8
0
 62
     0
370
    15
100
AcDbMText
 10
195.4523413636087
 20
-10.12863002159455
 30
0.0
 40
3.5
 41
0.0
 71
     2
 72
     1
  1
\A1;%%c12.7 [1/2]
  7
SLDTEXTSTYLE0
 11
-4.475859752819528E-15
 21
1.0
 31
0.0
 73
     1
 44
1.0
  0
POINT
  5
298
330
28E
100
AcDbEntity
  8
Defpoints
 62
     0
100
AcDbPoint
 10
186.4149064571055
 20
-25.68063002159458
 30
0.0
  0
POINT
  5
299
330
28E
100
AcDbEntity
  8
Defpoints
 62
     0
100
AcDbPoint
 10
186.4149064571055
 20
-38.38063002159458
 30
0.0
  0
POINT
  5
29A
330
28E
100
AcDbEntity
  8
Defpoints
 62
     0
100
AcDbPoint
 10
199.8273413636088
 20
-38.38063002159453
 30
0.0
  0
ENDBLK
  5
290
330
28E
100
AcDbEntity
  8
0
100
AcDbBlockEnd
  0
BLOCK
  5
319
330
318
100
AcDbEntity
  8
0
100
AcDbBlockBegin
  2
*D15
 70
     1
 10
0.0
 20
0.0
 30
0.0
  3
*D15
  1
*D17
  0
LINE
  5
31B
330
318
100
AcDbEntity
  8
0
  6
Continuous
 62
     0
370
    -2
100
AcDbLine
 10
117.3
 20
15.95367983348106
 30
0.0
 11
117.3
 21
20.95260490475714
 31
0.0
  0
LINE
  5
31C
330
318
100
AcDbEntity
  8
0
  6
Continuous
 62
     0
370
    -2
100
AcDbLine
 10
88.725
 20
14.97797650232789
 30
0.0
 11
88.725
 21
20.95260490475714
 31
0.0
  0
LINE
  5
31D
330
318
100
AcDbEntity
  8
0
  6
Continuous
 62
     0
370
    -2
100
AcDbLine
 10
88.725
 20
20.95260490475714
 30
0.0
 11
55.673
 21
20.95260490475714
 31
0.0
  0
LINE
  5
31E
330
318
100
AcDbEntity
  8
0
  6
Continuous
 62
     0
370
    -2
100
AcDbLine
 10
113.998
 20
20.95260490475714
 30
0.0
 11
92.02699999999999
 21
20.95260490475714
 31
0.0
  0
SOLID
  5
31F
330
318
100
AcDbEntity
  8
0
 62
     0
100
AcDbTrace
 10
113.998
 20
20.40227157142381
 30
0.0
 11
113.998
 21
21.50293823809048
 31
0.0
 12
117.3
 22
20.95260490475714
 32
0.0
 13
117.3
 23
20.95260490475714
 33
0.0
  0
SOLID
  5
320
330
318
100
AcDbEntity
  8
0
 62
     0
100
AcDbTrace
 10
92.02699999999999
 20
21.50293823809048
 30
0.0
 11
92.02699999999999
 21
20.40227157142381
 31
0.0
 12
88.725
 22
20.95260490475714
 32
0.0
 13
88.725
 23
20.95260490475714
 33
0.0
  0
MTEXT
  5
321
330
318
100
AcDbEntity
  8
0
 62
     0
370
    15
100
AcDbMText
 10
70.548
 20
25.32760490475714
 30
0.0
 40
3.5
 41
0.0
 71
     2
 72
     1
  1
\A1;28.58 [1 1/8]
  7
SLDTEXTSTYLE0
 73
     1
 44
1.0
  0
POINT
  5
322
330
318
100
AcDbEntity
  8
Defpoints
 62
     0
100
AcDbPoint
 10
117.3
 20
15.89117983348106
 30
0.0
  0
POINT
  5
323
330
318
100
AcDbEntity
  8
Defpoints
 62
     0
100
AcDbPoint
 10
88.725
 20
14.91547650232789
 30
0.0
  0
POINT
  5
324
330
318
100
AcDbEntity
  8
Defpoints
 62
     0
100
AcDbPoint
 10
88.725
 20
20.95260490475714
 30
0.0
  0
ENDBLK
  5
31A
330
318
100
AcDbEntity
  8
0
100
AcDbBlockEnd
  0
BLOCK
  5
326
330
325
100
AcDbEntity
  8
0
100
AcDbBlockBegin
  2
*D16
 70
     1
 10
0.0
 20
0.0
 30
0.0
  3
*D16
  1
*D18
  0
LINE
  5
328
330
325
100
AcDbEntity
  8
0
  6
Continuous
 62
     0
370
    -2
100
AcDbLine
 10
117.3
 20
15.95367983348106
 30
0.0
 11
117.3
 21
37.241658821656
 31
0.0
  0
LINE
  5
329
330
325
100
AcDbEntity
  8
0
  6
Continuous
 62
     0
370
    -2
100
AcDbLine
 10
3.0
 20
14.95367983348101
 30
0.0
 11
3.0
 21
37.241658821656
 31
0.0
  0
LINE
  5
32A
330
325
100
AcDbEntity
  8
0
  6
Continuous
 62
     0
370
    -2
100
AcDbLine
 10
113.998
 20
37.241658821656
 30
0.0
 11
6.302
 21
37.241658821656
 31
0.0
  0
SOLID
  5
32B
330
325
100
AcDbEntity
  8
0
 62
     0
100
AcDbTrace
 10
113.998
 20
36.69132548832267
 30
0.0
 11
113.998
 21
37.79199215498934
 31
0.0
 12
117.3
 22
37.241658821656
 32
0.0
 13
117.3
 23
37.241658821656
 33
0.0
  0
SOLID
  5
32C
330
325
100
AcDbEntity
  8
0
 62
     0
100
AcDbTrace
 10
6.302
 20
37.79199215498934
 30
0.0
 11
6.302
 21
36.69132548832267
 31
0.0
 12
3.0
 22
37.241658821656
 32
0.0
 13
3.0
 23
37.241658821656
 33
0.0
  0
MTEXT
  5
32D
330
325
100
AcDbEntity
  8
0
 62
     0
370
    15
100
AcDbMText
 10
60.65024820524947
 20
41.616658821656
 30
0.0
 40
3.5
 41
0.0
 71
     2
 72
     1
  1
\A1;114.3 [4 1/2]
  7
SLDTEXTSTYLE0
 73
     1
 44
1.0
  0
POINT
  5
32E
330
325
100
AcDbEntity
  8
Defpoints
 62
     0
100
AcDbPoint
 10
117.3
 20
15.89117983348106
 30
0.0
  0
POINT
  5
32F
330
325
100
AcDbEntity
  8
Defpoints
 62
     0
100
AcDbPoint
 10
3.0
 20
14.89117983348101
 30
0.0
  0
POINT
  5
330
330
325
100
AcDbEntity
  8
Defpoints
 62
     0
100
AcDbPoint
 10
3.0
 20
37.241658821656
 30
0.0
  0
ENDBLK
  5
327
330
325
100
AcDbEntity
  8
0
100
AcDbBlockEnd
  0
BLOCK
  5
332
330
331
100
AcDbEntity
  8
0
100
AcDbBlockBegin
  2
*D17
 70
     1
 10
0.0
 20
0.0
 30
0.0
  3
*D17
  1
*D19
  0
LINE
  5
334
330
331
100
AcDbEntity
  8
0
  6
Continuous
 62
     0
370
    -2
100
AcDbLine
 10
117.3625
 20
15.89117983348106
 30
0.0
 11
134.1842876951803
 21
15.89117983348113
 31
0.0
  0
LINE
  5
335
330
331
100
AcDbEntity
  8
0
  6
Continuous
 62
     0
370
    -2
100
AcDbLine
 10
117.3625
 20
0.0161798334810579
 30
0.0
 11
134.1842876951804
 21
0.0161798334811181
 31
0.0
  0
LINE
  5
336
330
331
100
AcDbEntity
  8
0
  6
Continuous
 62
     0
370
    -2
100
AcDbLine
 10
134.1842876951803
 20
15.89117983348113
 30
0.0
 11
134.1842876951802
 21
47.19317983348112
 31
0.0
  0
LINE
  5
337
330
331
100
AcDbEntity
  8
0
  6
Continuous
 62
     0
370
    -2
100
AcDbLine
 10
134.1842876951803
 20
12.58917983348113
 30
0.0
 11
134.1842876951804
 21
3.318179833481118
 31
0.0
  0
SOLID
  5
338
330
331
100
AcDbEntity
  8
0
 62
     0
100
AcDbTrace
 10
134.7346210285137
 20
12.58917983348113
 30
0.0
 11
133.633954361847
 21
12.58917983348112
 31
0.0
 12
134.1842876951803
 22
15.89117983348113
 32
0.0
 13
134.1842876951803
 23
15.89117983348113
 33
0.0
  0
SOLID
  5
339
330
331
100
AcDbEntity
  8
0
 62
     0
100
AcDbTrace
 10
133.6339543618471
 20
3.318179833481116
 30
0.0
 11
134.7346210285137
 21
3.318179833481119
 31
0.0
 12
134.1842876951804
 22
0.0161798334811181
 32
0.0
 13
134.1842876951804
 23
0.0161798334811181
 33
0.0
  0
MTEXT
  5
33A
330
331
100
AcDbEntity
  8
0
 62
     0
370
    15
100
AcDbMText
 10
129.8092876951803
 20
33.19317983348111
 30
0.0
 40
3.5
 41
0.0
 71
     2
 72
     1
  1
\A1;%%c15.88 [5/8]
  7
SLDTEXTSTYLE0
 11
-3.580687802255622E-15
 21
1.0
 31
0.0
 73
     1
 44
1.0
  0
POINT
  5
33B
330
331
100
AcDbEntity
  8
Defpoints
 62
     0
100
AcDbPoint
 10
117.3
 20
15.89117983348106
 30
0.0
  0
POINT
  5
33C
330
331
100
AcDbEntity
  8
Defpoints
 62
     0
100
AcDbPoint
 10
117.3
 20
0.0161798334810577
 30
0.0
  0
POINT
  5
33D
330
331
100
AcDbEntity
  8
Defpoints
 62
     0
100
AcDbPoint
 10
134.1842876951804
 20
0.0161798334811208
 30
0.0
  0
ENDBLK
  5
333
330
331
100
AcDbEntity
  8
0
100
AcDbBlockEnd
  0
BLOCK
  5
364
330
363
100
AcDbEntity
  8
0
100
AcDbBlockBegin
  2
*D18
 70
     1
 10
0.0
 20
0.0
 30
0.0
  3
*D18
  1
*D20
  0
LINE
  5
366
330
363
100
AcDbEntity
  8
0
  6
Continuous
 62
     0
370
    -2
100
AcDbLine
 10
216.0161040461449
 20
-2.63837802920208
 30
0.0
 11
216.0161040461449
 21
2.360547042074003
 31
0.0
  0
LINE
  5
367
330
363
100
AcDbEntity
  8
0
  6
Continuous
 62
     0
370
    -2
100
AcDbLine
 10
187.4411040461449
 20
-3.614081360355256
 30
0.0
 11
187.4411040461449
 21
2.360547042074003
 31
0.0
  0
LINE
  5
368
330
363
100
AcDbEntity
  8
0
  6
Continuous
 62
     0
370
    -2
100
AcDbLine
 10
187.4411040461449
 20
2.360547042074003
 30
0.0
 11
154.3891040461449
 21
2.360547042074003
 31
0.0
  0
LINE
  5
369
330
363
100
AcDbEntity
  8
0
  6
Continuous
 62
     0
370
    -2
100
AcDbLine
 10
212.7141040461449
 20
2.360547042074003
 30
0.0
 11
190.7431040461449
 21
2.360547042074003
 31
0.0
  0
SOLID
  5
36A
330
363
100
AcDbEntity
  8
0
 62
     0
100
AcDbTrace
 10
212.7141040461449
 20
1.81021370874067
 30
0.0
 11
212.7141040461449
 21
2.910880375407336
 31
0.0
 12
216.0161040461449
 22
2.360547042074003
 32
0.0
 13
216.0161040461449
 23
2.360547042074003
 33
0.0
  0
SOLID
  5
36B
330
363
100
AcDbEntity
  8
0
 62
     0
100
AcDbTrace
 10
190.7431040461449
 20
2.910880375407336
 30
0.0
 11
190.7431040461449
 21
1.81021370874067
 31
0.0
 12
187.4411040461449
 22
2.360547042074003
 32
0.0
 13
187.4411040461449
 23
2.360547042074003
 33
0.0
  0
MTEXT
  5
36C
330
363
100
AcDbEntity
  8
0
 62
     0
370
    15
100
AcDbMText
 10
169.2641040461449
 20
6.735547042074003
 30
0.0
 40
3.5
 41
0.0
 71
     2
 72
     1
  1
\A1;28.58 [1 1/8]
  7
SLDTEXTSTYLE0
 73
     1
 44
1.0
  0
POINT
  5
36D
330
363
100
AcDbEntity
  8
Defpoints
 62
     0
100
AcDbPoint
 10
216.0161040461449
 20
-2.70087802920208
 30
0.0
  0
POINT
  5
36E
330
363
100
AcDbEntity
  8
Defpoints
 62
     0
100
AcDbPoint
 10
187.4411040461449
 20
-3.676581360355256
 30
0.0
  0
POINT
  5
36F
330
363
100
AcDbEntity
  8
Defpoints
 62
     0
100
AcDbPoint
 10
187.4411040461449
 20
2.360547042074003
 30
0.0
  0
ENDBLK
  5
365
330
363
100
AcDbEntity
  8
0
100
AcDbBlockEnd
  0
BLOCK
  5
371
330
370
100
AcDbEntity
  8
0
100
AcDbBlockBegin
  2
*D19
 70
     1
 10
0.0
 20
0.0
 30
0.0
  3
*D19
  1
*D21
  0
LINE
  5
373
330
370
100
AcDbEntity
  8
0
  6
Continuous
 62
     0
370
    -2
100
AcDbLine
 10
216.0161040461449
 20
-2.63837802920208
 30
0.0
 11
216.0161040461449
 21
18.64960095897286
 31
0.0
  0
LINE
  5
374
330
370
100
AcDbEntity
  8
0
  6
Continuous
 62
     0
370
    -2
100
AcDbLine
 10
101.7161040461449
 20
-3.63837802920213
 30
0.0
 11
101.7161040461449
 21
18.64960095897286
 31
0.0
  0
LINE
  5
375
330
370
100
AcDbEntity
  8
0
  6
Continuous
 62
     0
370
    -2
100
AcDbLine
 10
212.7141040461449
 20
18.64960095897286
 30
0.0
 11
105.0181040461449
 21
18.64960095897286
 31
0.0
  0
SOLID
  5
376
330
370
100
AcDbEntity
  8
0
 62
     0
100
AcDbTrace
 10
212.7141040461449
 20
18.09926762563953
 30
0.0
 11
212.7141040461449
 21
19.1999342923062
 31
0.0
 12
216.0161040461449
 22
18.64960095897286
 32
0.0
 13
216.0161040461449
 23
18.64960095897286
 33
0.0
  0
SOLID
  5
377
330
370
100
AcDbEntity
  8
0
 62
     0
100
AcDbTrace
 10
105.0181040461449
 20
19.1999342923062
 30
0.0
 11
105.0181040461449
 21
18.09926762563953
 31
0.0
 12
101.7161040461449
 22
18.64960095897286
 32
0.0
 13
101.7161040461449
 23
18.64960095897286
 33
0.0
  0
MTEXT
  5
378
330
370
100
AcDbEntity
  8
0
 62
     0
370
    15
100
AcDbMText
 10
159.3663522513943
 20
23.02460095897286
 30
0.0
 40
3.5
 41
0.0
 71
     2
 72
     1
  1
\A1;114.3 [4 1/2]
  7
SLDTEXTSTYLE0
 73
     1
 44
1.0
  0
POINT
  5
379
330
370
100
AcDbEntity
  8
Defpoints
 62
     0
100
AcDbPoint
 10
216.0161040461449
 20
-2.70087802920208
 30
0.0
  0
POINT
  5
37A
330
370
100
AcDbEntity
  8
Defpoints
 62
     0
100
AcDbPoint
 10
101.7161040461449
 20
-3.70087802920213
 30
0.0
  0
POINT
  5
37B
330
370
100
AcDbEntity
  8
Defpoints
 62
     0
100
AcDbPoint
 10
101.7161040461449
 20
18.64960095897286
 30
0.0
  0
ENDBLK
  5
372
330
370
100
AcDbEntity
  8
0
100
AcDbBlockEnd
  0
BLOCK
  5
37D
330
37C
100
AcDbEntity
  8
0
100
AcDbBlockBegin
  2
*D20
 70
     1
 10
0.0
 20
0.0
 30
0.0
  3
*D20
  1
*D22
  0
LINE
  5
37F
330
37C
100
AcDbEntity
  8
0
  6
Continuous
 62
     0
370
    -2
100
AcDbLine
 10
216.0786040461449
 20
-2.70087802920208
 30
0.0
 11
232.9003917413252
 21
-2.700878029202016
 31
0.0
  0
LINE
  5
380
330
37C
100
AcDbEntity
  8
0
  6
Continuous
 62
     0
370
    -2
100
AcDbLine
 10
216.0786040461449
 20
-18.57587802920208
 30
0.0
 11
232.9003917413253
 21
-18.57587802920202
 31
0.0
  0
LINE
  5
381
330
37C
100
AcDbEntity
  8
0
  6
Continuous
 62
     0
370
    -2
100
AcDbLine
 10
232.9003917413252
 20
-2.700878029202016
 30
0.0
 11
232.9003917413251
 21
28.60112197079798
 31
0.0
  0
LINE
  5
382
330
37C
100
AcDbEntity
  8
0
  6
Continuous
 62
     0
370
    -2
100
AcDbLine
 10
232.9003917413252
 20
-6.002878029202016
 30
0.0
 11
232.9003917413253
 21
-15.27387802920202
 31
0.0
  0
SOLID
  5
383
330
37C
100
AcDbEntity
  8
0
 62
     0
100
AcDbTrace
 10
233.4507250746585
 20
-6.002878029202014
 30
0.0
 11
232.3500584079919
 21
-6.002878029202018
 31
0.0
 12
232.9003917413252
 22
-2.700878029202016
 32
0.0
 13
232.9003917413252
 23
-2.700878029202016
 33
0.0
  0
SOLID
  5
384
330
37C
100
AcDbEntity
  8
0
 62
     0
100
AcDbTrace
 10
232.350058407992
 20
-15.27387802920202
 30
0.0
 11
233.4507250746586
 21
-15.27387802920201
 31
0.0
 12
232.9003917413253
 22
-18.57587802920202
 32
0.0
 13
232.9003917413253
 23
-18.57587802920202
 33
0.0
  0
MTEXT
  5
385
330
37C
100
AcDbEntity
  8
0
 62
     0
370
    15
100
AcDbMText
 10
228.5253917413252
 20
14.60112197079797
 30
0.0
 40
3.5
 41
0.0
 71
     2
 72
     1
  1
\A1;%%c15.88 [5/8]
  7
SLDTEXTSTYLE0
 11
-3.580687802255622E-15
 21
1.0
 31
0.0
 73
     1
 44
1.0
  0
POINT
  5
386
330
37C
100
AcDbEntity
  8
Defpoints
 62
     0
100
AcDbPoint
 10
216.0161040461449
 20
-2.70087802920208
 30
0.0
  0
POINT
  5
387
330
37C
100
AcDbEntity
  8
Defpoints
 62
     0
100
AcDbPoint
 10
216.0161040461449
 20
-18.57587802920208
 30
0.0
  0
POINT
  5
388
330
37C
100
AcDbEntity
  8
Defpoints
 62
     0
100
AcDbPoint
 10
232.9003917413253
 20
-18.57587802920202
 30
0.0
  0
ENDBLK
  5
37E
330
37C
100
AcDbEntity
  8
0
100
AcDbBlockEnd
  0
ENDSEC
  0
SECTION
  2
ENTITIES
  0
LINE
  5
96
330
1F
100
AcDbEntity
  8
외형선
  6
Continuous
370
    15
100
AcDbLine
 10
25.52466475472204
 20
7.937500000000001
 30
0.0
 11
6.743700000000059
 21
7.937499999999998
 31
0.0
  0
LINE
  5
9A
330
1F
100
AcDbEntity
  8
0
  6
Continuous
 62
     1
370
    15
100
AcDbLine
 10
47.6240846509431
 20
-7.937499999999999
 30
0.0
 11
49.21249999999999
 21
-7.937499999999999
 31
0.0
  0
ARC
  5
9B
330
1F
100
AcDbEntity
  8
0
  6
Continuous
 62
     1
370
    15
100
AcDbCircle
 10
49.21249999999999
 20
0.0000000000000004
 30
0.0
 40
7.9375
100
AcDbArc
 50
270.0000000000007
 51
0.0
  0
ARC
  5
9C
330
1F
100
AcDbEntity
  8
0
  6
Continuous
 62
     1
370
    15
100
AcDbCircle
 10
49.21249999999999
 20
0.0000000000000004
 30
0.0
 40
7.9375
100
AcDbArc
 50
0.0
 51
90.0
  0
LINE
  5
9D
330
1F
100
AcDbEntity
  8
0
  6
Continuous
 62
     1
370
    15
100
AcDbLine
 10
49.21249999999999
 20
7.937500000000001
 30
0.0
 11
47.62408465094309
 21
7.937500000000001
 31
0.0
  0
SPLINE
  5
9E
330
1F
100
AcDbEntity
  8
외형선
  6
Continuous
370
    15
100
AcDbSpline
210
0.0
220
0.0
230
1.0
 70
    24
 71
     3
 72
    14
 73
    10
 74
     0
 42
0.000000001
 43
0.00000001
 40
0.0
 40
0.0
 40
0.0
 40
0.0
 40
0.1146784326766322
 40
0.2799009879080751
 40
0.4404671145882386
 40
0.6056896698196483
 40
0.7662557964998097
 40
0.9314783517312181
 40
1.0
 40
1.0
 40
1.0
 40
1.0
 10
28.57499999999999
 20
-1.547888445068008
 30
0.0
 10
28.57499999999999
 20
-1.589786801722794
 30
0.0
 10
28.575
 20
-1.692050070810784
 30
0.0
 10
28.57499999999999
 20
-2.00406919802506
 30
0.0
 10
28.57499999999999
 20
-2.45477989984657
 30
0.0
 10
28.57499999999999
 20
-3.012883865176964
 30
0.0
 10
28.57499999999999
 20
-3.667146928862949
 30
0.0
 10
28.57499999999999
 20
-4.250832974745223
 30
0.0
 10
28.575
 20
-4.616513724511988
 30
0.0
 10
28.57499999999999
 20
-4.723712308857469
 30
0.0
  0
SPLINE
  5
9F
330
1F
100
AcDbEntity
  8
외형선
  6
Continuous
370
    15
100
AcDbSpline
210
0.0
220
0.0
230
1.0
 70
     8
 71
     3
 72
    10
 73
     6
 74
     0
 42
0.000000001
 43
0.00000001
 40
0.0
 40
0.0
 40
0.0
 40
0.0
 40
0.5
 40
0.5
 40
1.0
 40
1.0
 40
1.0
 40
1.0
 10
28.57500000000004
 20
-4.723712308857473
 30
0.0
 10
28.06559176347378
 20
-4.626494036814157
 30
0.0
 10
27.55954861737975
 20
-4.51980236298426
 30
0.0
 10
26.54412148321786
 20
-4.288141708607916
 30
0.0
 10
26.03349828440388
 20
-4.163040255310378
 30
0.0
 10
25.52466475472204
 20
-4.029800182855371
 30
0.0
  0
SPLINE
  5
A0
330
1F
100
AcDbEntity
  8
외형선
  6
Continuous
370
    15
100
AcDbSpline
210
0.0
220
0.0
230
1.0
 70
     8
 71
     3
 72
    10
 73
     6
 74
     0
 42
0.000000001
 43
0.00000001
 40
0.0
 40
0.0
 40
0.0
 40
0.0
 40
0.5
 40
0.5
 40
1.0
 40
1.0
 40
1.0
 40
1.0
 10
25.52489817961053
 20
0.2907646612489623
 30
0.0
 10
26.03369335248968
 20
-0.002581549362568
 30
0.0
 10
26.54427720126918
 20
-0.2968674509164189
 30
0.0
 10
27.55962581021236
 20
-0.8819031974709791
 30
0.0
 10
28.06563071154153
 20
-1.172895966236375
 30
0.0
 10
28.57499999999999
 20
-1.461528646842706
 30
0.0
  0
LINE
  5
A1
330
1F
100
AcDbEntity
  8
외형선
  6
Continuous
370
    15
100
AcDbLine
 10
25.52466475472204
 20
7.629984690021113
 30
0.0
 11
25.52466475472204
 21
7.937500000000001
 31
0.0
  0
SPLINE
  5
A2
330
1F
100
AcDbEntity
  8
외형선
  6
Continuous
370
    15
100
AcDbSpline
210
0.0
220
0.0
230
1.0
 70
     8
 71
     3
 72
    10
 73
     6
 74
     0
 42
0.000000001
 43
0.00000001
 40
0.0
 40
0.0
 40
0.0
 40
0.0
 40
0.5
 40
0.5
 40
1.0
 40
1.0
 40
1.0
 40
1.0
 10
28.57500000000003
 20
6.961796668867962
 30
0.0
 10
28.06559176347377
 20
7.102864029485379
 30
0.0
 10
27.55954861737974
 20
7.229341949371374
 30
0.0
 10
26.54412148321785
 20
7.452496807766008
 30
0.0
 10
26.03349828440388
 20
7.549200375744539
 30
0.0
 10
25.52466475472204
 20
7.630106210076844
 30
0.0
  0
LINE
  5
A3
330
1F
100
AcDbEntity
  8
외형선
  6
Continuous
370
    15
100
AcDbLine
 10
28.57499999999999
 20
6.961796668867974
 30
0.0
 11
28.57499999999999
 21
-1.461528646842706
 31
0.0
  0
SPLINE
  5
A4
330
1F
100
AcDbEntity
  8
외형선
  6
Continuous
370
    15
100
AcDbSpline
210
0.0
220
0.0
230
1.0
 70
     8
 71
     3
 72
    10
 73
     6
 74
     0
 42
0.000000001
 43
0.00000001
 40
0.0
 40
0.0
 40
0.0
 40
0.0
 40
0.5000000000000001
 40
0.5000000000000001
 40
1.0
 40
1.0
 40
1.0
 40
1.0
 10
28.57500000000003
 20
-6.961796668867962
 30
0.0
 10
28.06559176347377
 20
-7.10286402948538
 30
0.0
 10
27.55954861737974
 20
-7.229341949371372
 30
0.0
 10
26.54412148321786
 20
-7.452496807766008
 30
0.0
 10
26.03349828440389
 20
-7.549200375744537
 30
0.0
 10
25.52466475472204
 20
-7.630106210076843
 30
0.0
  0
LINE
  5
A6
330
1F
100
AcDbEntity
  8
외형선
  6
Continuous
370
    15
100
AcDbLine
 10
25.52466475472204
 20
-7.937499999999999
 30
0.0
 11
25.52466475472203
 21
0.2911802674127734
 31
0.0
  0
SPLINE
  5
A8
330
1F
100
AcDbEntity
  8
외형선
  6
Continuous
370
    15
100
AcDbSpline
210
0.0
220
0.0
230
1.0
 70
    24
 71
     3
 72
    13
 73
     9
 74
     0
 42
0.000000001
 43
0.00000001
 40
0.0
 40
0.0
 40
0.0
 40
0.0
 40
0.052770216072109
 40
0.3221890080452801
 40
0.5840148333473492
 40
0.8534336253205204
 40
0.9266375975519237
 40
0.9999999999999999
 40
0.9999999999999999
 40
0.9999999999999999
 40
0.9999999999999999
 10
28.575
 20
-4.803231271758356
 30
0.0
 10
28.575
 20
-4.823494558671218
 30
0.0
 10
28.575
 20
-4.947212231179339
 30
0.0
 10
28.575
 20
-5.302100141286921
 30
0.0
 10
28.57500000000001
 20
-5.863906744545949
 30
0.0
 10
28.57499999999997
 20
-6.376559347954644
 30
0.0
 10
28.575
 20
-6.754500587282066
 30
0.0
 10
28.575
 20
-6.892648198341219
 30
0.0
 10
28.575
 20
-6.961796668868141
 30
0.0
  0
SPLINE
  5
A9
330
1F
100
AcDbEntity
  8
0
  6
Continuous
 62
     1
370
    15
100
AcDbSpline
210
0.0
220
0.0
230
1.0
 70
     8
 71
     3
 72
    38
 73
    34
 74
     0
 42
0.000000001
 43
0.00000001
 40
0.0
 40
0.0
 40
0.0
 40
0.0
 40
0.0625000000000002
 40
0.0625000000000002
 40
0.1250000000000004
 40
0.1250000000000004
 40
0.1875000000000007
 40
0.1875000000000007
 40
0.2500000000000009
 40
0.2500000000000009
 40
0.3125000000000008
 40
0.3125000000000008
 40
0.3750000000000007
 40
0.3750000000000007
 40
0.4375000000000006
 40
0.4375000000000006
 40
0.5000000000000004
 40
0.5000000000000004
 40
0.5625000000000003
 40
0.5625000000000003
 40
0.6250000000000002
 40
0.6250000000000002
 40
0.6875000000000001
 40
0.6875000000000001
 40
0.7500000000000001
 40
0.7500000000000001
 40
0.8125000000000001
 40
0.8125000000000001
 40
0.8750000000000001
 40
0.8750000000000001
 40
0.9375000000000001
 40
0.9375000000000001
 40
1.0
 40
1.0
 40
1.0
 40
1.0
 10
49.2125000000014
 20
-3.318818210147866
 30
0.0
 10
48.78392324430001
 20
-3.09356639500762
 30
0.0
 10
48.35471729975678
 20
-2.863344446678341
 30
0.0
 10
47.49290962317739
 20
-2.39455588375112
 30
0.0
 10
47.06151923215157
 20
-2.156203710569839
 30
0.0
 10
46.20344515976846
 20
-1.674753674310207
 30
0.0
 10
45.77515214441312
 20
-1.431363338752349
 30
0.0
 10
44.91357510534318
 20
-0.9401516858282427
 30
0.0
 10
44.4820347852306
 20
-0.6926585363996259
 30
0.0
 10
43.62313691251259
 20
-0.1971678192046913
 30
0.0
 10
43.19549899794739
 20
0.0508814054861321
 30
0.0
 10
42.33425068369706
 20
0.5472516952506042
 30
0.0
 10
41.90260976299849
 20
0.7951909411071938
 30
0.0
 10
41.04298516199133
 20
1.287311917179106
 30
0.0
 10
40.6157442721253
 20
1.531358694765335
 30
0.0
 10
39.75492264522703
 20
2.015445620564699
 30
0.0
 10
39.32323049087687
 20
2.255119115889799
 30
0.0
 10
38.46297650863627
 20
2.726569492833163
 30
0.0
 10
38.03587441722137
 20
2.958096091975549
 30
0.0
 10
37.17557727833209
 20
3.412895508487999
 30
0.0
 10
36.74388327684229
 20
3.635881804082455
 30
0.0
 10
35.88309749882561
 20
4.070080968757281
 30
0.0
 10
35.45587592711188
 20
4.281003660434394
 30
0.0
 10
34.5962008780439
 20
4.690549031441664
 30
0.0
 10
34.16455441663233
 20
4.889014196460026
 30
0.0
 10
33.30333462990068
 20
5.270687246428931
 30
0.0
 10
32.87573534433304
 20
5.453632014005589
 30
0.0
 10
32.01677975124333
 20
5.803557283477522
 30
0.0
 10
31.58523019896143
 20
5.970531259855775
 30
0.0
 10
30.72367435522152
 20
6.28624850605046
 30
0.0
 10
30.2954392651007
 20
6.434802909636131
 30
0.0
 10
29.43730022186724
 20
6.712848572262817
 30
0.0
 10
29.00589691074246
 20
6.842470977726538
 30
0.0
 10
28.5749999999999
 20
6.961796668868006
 30
0.0
  0
SPLINE
  5
AA
330
1F
100
AcDbEntity
  8
0
  6
Continuous
 62
     1
370
    15
100
AcDbSpline
210
0.0
220
0.0
230
1.0
 70
     8
 71
     3
 72
    16
 73
    12
 74
     0
 42
0.000000001
 43
0.00000001
 40
0.0
 40
0.0
 40
0.0
 40
0.0
 40
0.1323644769465987
 40
0.2647172055471569
 40
0.3853852991614696
 40
0.5060519081033475
 40
0.6267171185858393
 40
0.7473810169702916
 40
0.8680436897572783
 40
0.9887052235774976
 40
1.0
 40
1.0
 40
1.0
 40
1.0
 10
55.0250762876357
 20
0.831808379828259
 30
0.0
 10
54.0613850074797
 20
1.202634465370063
 30
0.0
 10
52.13408798204003
 20
1.944253722840636
 30
0.0
 10
49.32826590406248
 20
2.931399458789681
 30
0.0
 10
46.60771057584714
 20
3.773376040827142
 30
0.0
 10
43.97222283224779
 20
4.450619013666278
 30
0.0
 10
41.33677661896993
 20
4.963630704248973
 30
0.0
 10
38.70135405975324
 20
5.299746102332876
 30
0.0
 10
36.06598411916928
 20
5.423166449850146
 30
0.0
 10
34.22679285358957
 20
5.419002015361202
 30
0.0
 10
33.26614926656405
 20
5.325735930320382
 30
0.0
 10
33.18392315310873
 20
5.317752836700985
 30
0.0
  0
SPLINE
  5
AB
330
1F
100
AcDbEntity
  8
0
  6
Continuous
 62
     1
370
    15
100
AcDbSpline
210
0.0
220
0.0
230
1.0
 70
     8
 71
     3
 72
    32
 73
    28
 74
     0
 42
0.000000001
 43
0.00000001
 40
0.0
 40
0.0
 40
0.0
 40
0.0
 40
0.1250000000000008
 40
0.1250000000000008
 40
0.1875000000000008
 40
0.1875000000000008
 40
0.2500000000000008
 40
0.2500000000000008
 40
0.3750000000000008
 40
0.3750000000000008
 40
0.4375000000000008
 40
0.4375000000000008
 40
0.5000000000000008
 40
0.5000000000000008
 40
0.5625000000000007
 40
0.5625000000000007
 40
0.6250000000000007
 40
0.6250000000000007
 40
0.6875000000000006
 40
0.6875000000000006
 40
0.7500000000000006
 40
0.7500000000000006
 40
0.8125000000000004
 40
0.8125000000000004
 40
0.8750000000000004
 40
0.8750000000000004
 40
1.0
 40
1.0
 40
1.0
 40
1.0
 10
49.2125
 20
-3.31881821014753
 30
0.0
 10
49.65308812094337
 20
-3.550382971071903
 30
0.0
 10
50.08710909046955
 20
-3.757117574133316
 30
0.0
 10
50.73640932194299
 20
-4.018650329113547
 30
0.0
 10
50.95256667538553
 20
-4.0976542124386
 30
0.0
 10
51.38607042669855
 20
-4.236032712352722
 30
0.0
 10
51.60434058875643
 20
-4.295608885325917
 30
0.0
 10
52.25016423715726
 20
-4.434639506884857
 30
0.0
 10
52.67257623284018
 20
-4.47655786549233
 30
0.0
 10
53.3078883463133
 20
-4.428992345944851
 30
0.0
 10
53.51571000478175
 20
-4.394593696935441
 30
0.0
 10
53.92390741305178
 20
-4.282028323855489
 30
0.0
 10
54.12667093314767
 20
-4.202797816703608
 30
0.0
 10
54.51590833357709
 20
-3.992863502005805
 30
0.0
 10
54.70129681080705
 20
-3.863504006919267
 30
0.0
 10
55.05237529032393
 20
-3.542174033748565
 30
0.0
 10
55.21012800949395
 20
-3.35742443863034
 30
0.0
 10
55.48530783305983
 20
-2.933813071501549
 30
0.0
 10
55.59581605645297
 20
-2.705019077798575
 30
0.0
 10
55.75936008517679
 20
-2.221162068851574
 30
0.0
 10
55.80939101349072
 20
-1.974358269129002
 30
0.0
 10
55.85112834988381
 20
-1.48347503743148
 30
0.0
 10
55.84260311729779
 20
-1.24634844176332
 30
0.0
 10
55.77926653020582
 20
-0.787274026102501
 30
0.0
 10
55.72362817958344
 20
-0.5637003331124782
 30
0.0
 10
55.50491619936654
 20
0.0717456095375769
 30
0.0
 10
55.28895564050322
 20
0.4608481068604062
 30
0.0
 10
55.02507628763475
 20
0.8318083798286325
 30
0.0
  0
SPLINE
  5
AC
330
1F
100
AcDbEntity
  8
0
  6
Continuous
 62
     1
370
    15
100
AcDbSpline
210
0.0
220
0.0
230
1.0
 70
     8
 71
     3
 72
    21
 73
    17
 74
     0
 42
0.000000001
 43
0.00000001
 40
0.0
 40
0.0
 40
0.0
 40
0.0
 40
0.0734583278405681
 40
0.1471071914217584
 40
0.220565535974526
 40
0.2942143636401117
 40
0.3676727306937408
 40
0.4413215286439606
 40
0.5147799184367889
 40
0.5884286987611099
 40
0.661887108155633
 40
0.7355358852033229
 40
0.8089943102053628
 40
0.8826430983263529
 40
0.9827679153588118
 40
1.0
 40
1.0
 40
1.0
 40
1.0
 10
28.575
 20
-1.461528646842706
 30
0.0
 10
29.04154437350587
 20
-1.724577867504771
 30
0.0
 10
29.97584324032774
 20
-2.251358604213948
 30
0.0
 10
31.37594348497129
 20
-3.015014991878621
 30
0.0
 10
32.7779746226134
 20
-3.747940935291386
 30
0.0
 10
34.17831157918026
 20
-4.441844956326049
 30
0.0
 10
35.58002215329829
 20
-5.090018935441234
 30
0.0
 10
36.98069840735804
 20
-5.684643903850971
 30
0.0
 10
38.38207957061898
 20
-6.221318885604205
 30
0.0
 10
39.78307195222139
 20
-6.692140513080969
 30
0.0
 10
41.18417355000994
 20
-7.095018697488007
 30
0.0
 10
42.58541587087818
 20
-7.422325730252234
 30
0.0
 10
43.98633518814299
 20
-7.6761383363703
 30
0.0
 10
45.55702878428102
 20
-7.860436049902556
 30
0.0
 10
46.76937156206067
 20
-7.95367983348103
 30
0.0
 10
47.5146515636242
 20
-7.930034645467239
 30
0.0
 10
47.62408465094309
 20
-7.926562707512168
 30
0.0
  0
SPLINE
  5
AD
330
1F
100
AcDbEntity
  8
0
  6
Continuous
 62
     1
370
    15
100
AcDbSpline
210
0.0
220
0.0
230
1.0
 70
     8
 71
     3
 72
    11
 73
     7
 74
     0
 42
0.000000001
 43
0.00000001
 40
0.0
 40
0.0
 40
0.0
 40
0.0
 40
0.0310993617182297
 40
0.3719539315481163
 40
0.6859942686973733
 40
1.0
 40
1.0
 40
1.0
 40
1.0
 10
36.30641090588701
 20
-5.389074702902471
 30
0.0
 10
36.22626132125308
 20
-5.393480187547826
 30
0.0
 10
35.26765794583183
 20
-5.446170572291465
 30
0.0
 10
33.4996790040203
 20
-5.36156581309767
 30
0.0
 10
31.00274308110041
 20
-5.148000588825187
 30
0.0
 10
29.38421796635225
 20
-4.865136540167375
 30
0.0
 10
28.575
 20
-4.723712308857467
 30
0.0
  0
SPLINE
  5
AE
330
1F
100
AcDbEntity
  8
외형선
  6
Continuous
370
    15
100
AcDbSpline
210
0.0
220
0.0
230
1.0
 70
    24
 71
     3
 72
    14
 73
    10
 74
     0
 42
0.000000001
 43
0.00000001
 40
0.0
 40
0.0
 40
0.0
 40
0.0
 40
0.1172801848913345
 40
0.2801234386442092
 40
0.4429666923970841
 40
0.6058099461499589
 40
0.7686531999028324
 40
0.9314964536557058
 40
1.0
 40
1.0
 40
1.0
 40
1.0
 10
28.57499999999999
 20
-1.547898445068008
 30
0.0
 10
28.57499999999999
 20
-1.591036811179722
 30
0.0
 10
28.57499999999999
 20
-1.694072694555099
 30
0.0
 10
28.57499999999999
 20
-2.007423312390312
 30
0.0
 10
28.57499999999999
 20
-2.458018547453055
 30
0.0
 10
28.57499999999999
 20
-3.01832673081489
 30
0.0
 10
28.57499999999999
 20
-3.671025199820007
 30
0.0
 10
28.57499999999999
 20
-4.254439679045704
 30
0.0
 10
28.57499999999999
 20
-4.616502696709513
 30
0.0
 10
28.57499999999999
 20
-4.723712308857469
 30
0.0
  0
SPLINE
  5
AF
330
1F
100
AcDbEntity
  8
0
  6
Continuous
 62
     1
370
    15
100
AcDbSpline
210
0.0
220
0.0
230
1.0
 70
     8
 71
     3
 72
    12
 73
     8
 74
     0
 42
0.000000001
 43
0.00000001
 40
0.0
 40
0.0
 40
0.0
 40
0.0
 40
0.2499999999999998
 40
0.2499999999999998
 40
0.4999999999999996
 40
0.4999999999999996
 40
1.0
 40
1.0
 40
1.0
 40
1.0
 10
55.02507628763471
 20
0.8318083798286383
 30
0.0
 10
55.11637843245617
 20
0.886802530435562
 30
0.0
 10
55.19770790416182
 20
0.954994011044643
 30
0.0
 10
55.34035771297961
 20
1.118533091122648
 30
0.0
 10
55.40214548463474
 20
1.215434107024539
 30
0.0
 10
55.54830652549133
 20
1.533900395325312
 30
0.0
 10
55.59653655204144
 20
1.789712211347761
 30
0.0
 10
55.60097261204692
 20
2.055735033142705
 30
0.0
  0
ARC
  5
B0
330
1F
100
AcDbEntity
  8
0
  6
Continuous
 62
     1
370
    15
100
AcDbCircle
 10
53.35242893053812
 20
-1.379798856937851
 30
0.0
 40
4.105951996497986
100
AcDbArc
 50
23.84125036270491
 51
56.7954076509276
  0
ARC
  5
B1
330
1F
100
AcDbEntity
  8
0
  6
Continuous
 62
     1
370
    15
100
AcDbCircle
 10
49.99353474879655
 20
0.1342909103444394
 30
0.0
 40
7.115969501930887
100
AcDbArc
 50
1.172026434265354
 51
71.06103089496932
  0
SPLINE
  5
B2
330
1F
100
AcDbEntity
  8
0
  6
Continuous
 62
     1
370
    15
100
AcDbSpline
210
0.0
220
0.0
230
1.0
 70
     8
 71
     3
 72
    10
 73
     6
 74
     0
 42
0.000000001
 43
0.00000001
 40
0.0
 40
0.0
 40
0.0
 40
0.0
 40
0.5
 40
0.5
 40
1.0
 40
1.0
 40
1.0
 40
1.0
 10
52.30309959532168
 20
6.865036201328618
 30
0.0
 10
51.81202091045103
 20
7.164378820383389
 30
0.0
 10
51.30688470840968
 20
7.39976622585174
 30
0.0
 10
50.27550951059798
 20
7.741924390268934
 30
0.0
 10
49.7442625924435
 20
7.849150968295012
 30
0.0
 10
49.21249999999999
 20
7.884609533580065
 30
0.0
  0
SPLINE
  5
B3
330
1F
100
AcDbEntity
  8
0
  6
Continuous
 62
     1
370
    15
100
AcDbSpline
210
0.0
220
0.0
230
1.0
 70
     8
 71
     3
 72
     8
 73
     4
 74
     0
 42
0.000000001
 43
0.00000001
 40
0.0
 40
0.0
 40
0.0
 40
0.0
 40
1.0
 40
1.0
 40
1.0
 40
1.0
 10
50.69302144699508
 20
3.553205698185369
 30
0.0
 10
52.30661501752654
 20
3.104725156303756
 30
0.0
 10
53.95171904300984
 20
2.599484952577603
 30
0.0
 10
55.60097261204697
 20
2.055735033142766
 30
0.0
  0
SPLINE
  5
B4
330
1F
100
AcDbEntity
  8
0
  6
Continuous
 62
     1
370
    15
100
AcDbSpline
210
0.0
220
0.0
230
1.0
 70
     8
 71
     3
 72
    16
 73
    12
 74
     0
 42
0.000000001
 43
0.00000001
 40
0.0
 40
0.0
 40
0.0
 40
0.0
 40
0.0523319496262512
 40
0.1607559617519518
 40
0.2694609888216687
 40
0.377885029879318
 40
0.4865900521127531
 40
0.5950141162069759
 40
0.703719154784516
 40
0.8515026061591974
 40
1.0
 40
1.0
 40
1.0
 40
1.0
 10
36.30641090588701
 20
5.389074702902474
 30
0.0
 10
36.53155655994045
 20
5.48581354680609
 30
0.0
 10
37.22317050534328
 20
5.78298087960305
 30
0.0
 10
38.38207382530771
 20
6.219426197383336
 30
0.0
 10
39.78307338600186
 20
6.692667637106448
 30
0.0
 10
41.18417354781948
 20
7.094799283226076
 30
0.0
 10
42.58541443968036
 20
7.422675880651244
 30
0.0
 10
43.98634090278962
 20
7.674959220267267
 30
0.0
 10
45.55700402700347
 20
7.865482530583211
 30
0.0
 10
47.29870511471357
 20
7.96783766845389
 30
0.0
 10
48.57354438604305
 20
7.912396776834627
 30
0.0
 10
49.21249999999998
 20
7.88460953358006
 30
0.0
  0
SPLINE
  5
B5
330
1F
100
AcDbEntity
  8
0
  6
Continuous
 62
     1
370
    15
100
AcDbSpline
210
0.0
220
0.0
230
1.0
 70
     8
 71
     3
 72
    18
 73
    14
 74
     0
 42
0.000000001
 43
0.00000001
 40
0.0
 40
0.0
 40
0.0
 40
0.0
 40
0.2500000000000002
 40
0.2500000000000002
 40
0.3750000000000005
 40
0.3750000000000005
 40
0.5000000000000008
 40
0.5000000000000008
 40
0.6250000000000011
 40
0.6250000000000011
 40
0.7500000000000014
 40
0.7500000000000014
 40
1.0
 40
1.0
 40
1.0
 40
1.0
 10
52.30309959532169
 20
6.865036201328628
 30
0.0
 10
52.35946801173041
 20
6.531827276881196
 30
0.0
 10
52.38484179760074
 20
6.192747789343341
 30
0.0
 10
52.34798077683851
 20
5.677451131588318
 30
0.0
 10
52.32321535196556
 20
5.508545982712803
 30
0.0
 10
52.24439277502042
 20
5.177450171161794
 30
0.0
 10
52.18934253523547
 20
5.013368194308206
 30
0.0
 10
52.0494569883253
 20
4.705335497142549
 30
0.0
 10
51.96502001704513
 20
4.561011474966666
 30
0.0
 10
51.76666843173567
 20
4.292075244864947
 30
0.0
 10
51.65200111465389
 20
4.167426605853068
 30
0.0
 10
51.28189615471486
 20
3.838840154981763
 30
0.0
 10
50.99268401522658
 20
3.672301954915067
 30
0.0
 10
50.69302144699509
 20
3.553205698185369
 30
0.0
  0
SPLINE
  5
B6
330
1F
100
AcDbEntity
  8
0
  6
Continuous
 62
     1
370
    15
100
AcDbSpline
210
0.0
220
0.0
230
1.0
 70
     8
 71
     3
 72
    10
 73
     6
 74
     0
 42
0.000000001
 43
0.00000001
 40
0.0
 40
0.0
 40
0.0
 40
0.0
 40
0.0149748292147641
 40
0.5075747843205208
 40
1.0
 40
1.0
 40
1.0
 40
1.0
 10
33.18392315310873
 20
-5.317752836700984
 30
0.0
 10
33.16091423602155
 20
-5.32827290343559
 30
0.0
 10
32.38102246159908
 20
-5.684852636484635
 30
0.0
 10
30.84471723567781
 20
-6.268569866082428
 30
0.0
 10
29.33148293137231
 20
-6.730748397464924
 30
0.0
 10
28.5749999999999
 20
-6.961796668868005
 30
0.0
  0
SPLINE
  5
B7
330
1F
100
AcDbEntity
  8
외형선
  6
Continuous
370
    15
100
AcDbSpline
210
0.0
220
0.0
230
1.0
 70
    24
 71
     3
 72
    12
 73
     8
 74
     0
 42
0.000000001
 43
0.00000001
 40
0.0
 40
0.0
 40
0.0
 40
0.0
 40
0.0527643358087327
 40
0.3221960617715529
 40
0.5840344565476733
 40
0.853466182510493
 40
1.0
 40
1.0
 40
1.0
 40
1.0
 10
28.575
 20
-4.803241271758355
 30
0.0
 10
28.575
 20
-4.823502654269527
 30
0.0
 10
28.575
 20
-4.947225194335428
 30
0.0
 10
28.575
 20
-5.301871180489877
 30
0.0
 10
28.575
 20
-5.864712843905393
 30
0.0
 10
28.575
 20
-6.436246759034691
 30
0.0
 10
28.575
 20
-6.824888362965226
 30
0.0
 10
28.575
 20
-6.961796668846849
 30
0.0
  0
LINE
  5
B8
330
1F
100
AcDbEntity
  8
중심선
 48
0.8
100
AcDbLine
 10
-60.14999999999999
 20
-0.0000000000000074
 30
0.0
 11
60.14999999999999
 21
0.0000000000000074
 31
0.0
  0
LINE
  5
B9
330
1F
100
AcDbEntity
  8
참조1
100
AcDbLine
 10
-19.65036934298443
 20
0.0010749287238892
 30
0.0
 11
-19.65036934298443
 21
-39.99892507127611
 31
0.0
  0
LINE
  5
BA
330
1F
100
AcDbEntity
  8
참조1
100
AcDbLine
 10
37.49963065701557
 20
0.0010749287238892
 30
0.0
 11
37.49963065701557
 21
0.6320484065631995
 31
0.0
  0
LINE
  5
BB
330
1F
100
AcDbEntity
  8
참조1
100
AcDbLine
 10
-19.65036934298443
 20
-39.99892507127611
 30
0.0
 11
-29.25297615729311
 21
-39.9989250712761
 31
0.0
  0
CIRCLE
  5
BC
330
1F
100
AcDbEntity
  8
해칭선
100
AcDbCircle
 10
0.0
 20
0.0
 30
0.0
 40
3.000000000000001
  0
INSERT
  5
BD
330
1F
100
AcDbEntity
  8
0
  6
Continuous
 62
     7
100
AcDbBlockReference
 66
     1
  2
블럭10
 10
-13.9402729321252
 20
-52.04717430164393
 30
0.0
  0
ATTRIB
  5
BE
330
BD
100
AcDbEntity
  8
FORMAT
 62
     2
100
AcDbText
 10
-23.12156822086649
 20
-49.97180738881174
 30
0.0
 40
4.233333333333333
  1
E2112040 [ 2 FLUTE ]
 41
0.75
  7
SLDTEXTSTYLE0
 11
-23.12156822086649
 21
-52.08847405547841
 31
0.0
100
AcDbAttribute
  2
AUTOATTR0
 70
     0
 74
     1
  0
SEQEND
  5
BF
330
BD
100
AcDbEntity
  8
0
  6
Continuous
 62
     7
  0
HATCH
  5
C0
330
1F
100
AcDbEntity
  8
중심선
100
AcDbHatch
 10
0.0
 20
0.0
 30
0.0
210
0.0
220
0.0
230
1.0
  2
SOLID
 70
     1
 71
     0
 91
        1
 92
        0
 93
        4
 72
     1
 10
-8.225363627744358
 20
-35.8
 11
-11.67163887158164
 21
-35.8
 72
     1
 10
-11.67163887158164
 20
-35.8
 11
-13.79986873078566
 21
-38.33632558057257
 72
     1
 10
-13.79986873078566
 20
-38.33632558057257
 11
-10.35356040183523
 21
-38.33628615127008
 72
     1
 10
-10.35356040183523
 20
-38.33628615127008
 11
-8.225363627744358
 21
-35.8
 97
        0
 75
     0
 76
     1
 98
        1
 10
19.65036934298443
 20
-0.0010749287238962
  0
HATCH
  5
C1
330
1F
100
AcDbEntity
  8
중심선
100
AcDbHatch
 10
0.0
 20
0.0
 30
0.0
210
0.0
220
0.0
230
1.0
  2
SOLID
 70
     1
 71
     0
 91
        1
 92
        0
 93
        4
 72
     1
 10
-3.212599636708404
 20
-35.8
 11
-6.65887488054566
 21
-35.8
 72
     1
 10
-6.65887488054566
 20
-35.8
 11
-11.19001288890308
 21
-41.20000000000002
 72
     1
 10
-11.19001288890308
 20
-41.20000000000002
 11
-7.743737645065792
 21
-41.20000000000002
 72
     1
 10
-7.743737645065792
 20
-41.20000000000002
 11
-3.212599636708404
 21
-35.8
 97
        0
 75
     0
 76
     1
 98
        1
 10
19.65036934298443
 20
-0.0010749287238962
  0
HATCH
  5
C2
330
1F
100
AcDbEntity
  8
중심선
100
AcDbHatch
 10
0.0
 20
0.0
 30
0.0
210
0.0
220
0.0
230
1.0
  2
SOLID
 70
     1
 71
     0
 91
        1
 92
        0
 93
        4
 72
     1
 10
1.800164354327492
 20
-35.8
 11
-1.646110889509597
 21
-35.80000000000003
 72
     1
 10
-1.646110889509597
 20
-35.80000000000003
 11
-8.694547791398875
 21
-44.20000000000002
 72
     1
 10
-8.694547791398875
 20
-44.20000000000002
 11
-5.248272547561591
 21
-44.20000000000002
 72
     1
 10
-5.248272547561591
 20
-44.20000000000002
 11
1.800164354327492
 21
-35.8
 97
        0
 75
     0
 76
     1
 98
        1
 10
19.65036934298443
 20
-0.0010749287238962
  0
HATCH
  5
C3
330
1F
100
AcDbEntity
  8
중심선
100
AcDbHatch
 10
0.0
 20
0.0
 30
0.0
210
0.0
220
0.0
230
1.0
  2
SOLID
 70
     1
 71
     0
 91
        1
 92
        0
 93
        6
 72
     3
 10
6.60005478533969
 20
-40.00000000005127
 11
3.960054785062283
 21
1.540882976769353E-10
 40
0.3939339440162628
 50
17.09539180608436
 51
320.0019657685086
 73
     0
 72
     1
 10
8.283054441040285
 20
-38.58789400463833
 11
10.58835631474135
 21
-36.65356729459038
 72
     3
 10
6.600054785286844
 20
-40.00000000000015
 11
6.600054785286829
 21
-1.278976924368180E-13
 40
0.636358354079598
 50
39.99873849337385
 51
368.4976242363724
 73
     1
 72
     1
 10
13.02538727718745
 20
-39.03999999993002
 11
5.280122092122766
 21
-39.03999999993002
 72
     1
 10
5.280122092122767
 20
-39.03999999993002
 11
5.280097047676833
 21
-40.95999999992991
 72
     1
 10
5.280097047676833
 20
-40.95999999992991
 11
9.721476817148869
 21
-40.95999999992988
 97
        0
 75
     0
 76
     1
 98
        1
 10
19.65036934298443
 20
-0.0010749287238962
  0
DIMENSION
  5
C4
330
1F
100
AcDbEntity
  8
0
  6
Continuous
370
    15
100
AcDbDimension
  2
_D
 10
28.575
 20
12.99892507127611
 30
0.0
 11
10.398
 21
12.99892507127611
 31
0.0
 70
   160
  1
<>
 71
     2
 42
28.57499999999999
  3
SLDDIMSTYLE0
100
AcDbAlignedDimension
 13
57.14999999999999
 23
7.93750000000003
 33
0.0
 14
28.575
 24
6.961796668846856
 34
0.0
 50
0.0000000000000071
100
AcDbRotatedDimension
1001
ACAD
1000
DSTYLE
1002
{
1070
   171
1070
     6
1070
   273
1070
     7
1002
}
  0
DIMENSION
  5
D9
330
1F
100
AcDbEntity
  8
0
  6
Continuous
370
    15
100
AcDbDimension
  2
_D_1
 10
-57.14999999999999
 20
29.28797898817498
 30
0.0
 11
0.5002482052494734
 21
29.28797898817498
 31
0.0
 70
   160
  1
<>
 71
     2
 42
114.3
  3
SLDDIMSTYLE0
100
AcDbAlignedDimension
 13
57.14999999999999
 23
7.93750000000003
 33
0.0
 14
-57.14999999999999
 24
7.937499999999983
 34
0.0
 50
0.0000000000000036
100
AcDbRotatedDimension
1001
ACAD
1000
DSTYLE
1002
{
1070
   171
1070
     6
1070
   273
1070
     7
1002
}
  0
DIMENSION
  5
ED
330
1F
100
AcDbEntity
  8
0
  6
Continuous
370
    15
100
AcDbDimension
  2
_D_2
 10
-69.57999999999996
 20
-7.937500000000172
 30
0.0
 11
-69.57999999999998
 21
-0.0000000000000125
 31
0.0
 70
   160
  1
%%c<>
 71
     2
 42
15.875
 52
-270.0
  3
SLDDIMSTYLE0
100
AcDbAlignedDimension
 13
-25.52466475472205
 23
7.937499999999997
 33
0.0
 14
-25.52466475472205
 24
-7.937500000000006
 34
0.0
 50
90.0000000000002
100
AcDbRotatedDimension
1001
ACAD
1000
DSTYLE
1002
{
1070
   171
1070
     6
1070
   273
1070
     7
1002
}
  0
DIMENSION
  5
102
330
1F
100
AcDbEntity
  8
0
  6
Continuous
370
    15
100
AcDbDimension
  2
_D_3
 10
74.0342876951804
 20
-7.937499999999911
 30
0.0
 11
74.03428769518028
 21
25.2395000000001
 31
0.0
 70
   160
  1
%%c<>
 71
     2
 42
15.875
 52
-270.0
  3
SLDDIMSTYLE0
100
AcDbAlignedDimension
 13
57.14999999999999
 23
7.93750000000003
 33
0.0
 14
57.14999999999999
 24
-7.937499999999972
 34
0.0
 50
90.0000000000002
100
AcDbRotatedDimension
1001
ACAD
1000
DSTYLE
1002
{
1070
   171
1070
     6
1070
   273
1070
     7
1002
}
  0
LINE
  5
115
330
1F
100
AcDbEntity
  8
참조1
100
AcDbLine
 10
68.71936447236115
 20
7.441074928723896
 30
0.0
 11
68.71936447236115
 21
-7.438925071276109
 31
0.0
  0
LINE
  5
116
330
1F
100
AcDbEntity
  8
참조1
100
AcDbLine
 10
81.41936447236115
 20
5.441074928723896
 30
0.0
 11
68.71936447236115
 21
5.441074928723896
 31
0.0
  0
SOLID
  5
117
330
1F
100
AcDbEntity
  8
참조1
100
AcDbTrace
 10
68.71936447236115
 20
5.441074928723896
 30
0.0
 11
75.06936447236114
 21
4.425074928723896
 31
0.0
 12
75.06936447236114
 22
6.457074928723896
 32
0.0
 13
75.06936447236114
 23
6.457074928723896
 33
0.0
  0
LINE
  5
118
330
1F
100
AcDbEntity
  8
참조1
100
AcDbLine
 10
81.41936447236115
 20
-5.438925071276109
 30
0.0
 11
68.71936447236115
 21
-5.438925071276109
 31
0.0
  0
SOLID
  5
119
330
1F
100
AcDbEntity
  8
참조1
100
AcDbTrace
 10
68.71936447236115
 20
-5.438925071276109
 30
0.0
 11
75.06936447236114
 21
-6.454925071276109
 31
0.0
 12
75.06936447236114
 22
-4.422925071276109
 32
0.0
 13
75.06936447236114
 23
-4.422925071276109
 33
0.0
  0
MTEXT
  5
11A
330
1F
100
AcDbEntity
  8
참조1
100
AcDbMText
 10
78.11685456483143
 20
10.98929157337383
 30
0.0
 40
3.5
 41
0.0
 71
     1
 72
     1
  1
A
  7
SLDTEXTSTYLE0
 73
     1
 44
1.0
  0
MTEXT
  5
11B
330
1F
100
AcDbEntity
  8
참조1
100
AcDbMText
 10
78.11685456483143
 20
0.1092915733738251
 30
0.0
 40
3.5
 41
0.0
 71
     1
 72
     1
  1
A
  7
SLDTEXTSTYLE0
 73
     1
 44
1.0
  0
INSERT
  5
122
330
1F
100
AcDbEntity
  8
해칭선
100
AcDbBlockReference
  2
SW_DOWELSYMBOL_0
 10
0.0
 20
0.0
 30
0.0
  0
LINE
  5
341
330
1F
100
AcDbEntity
  8
0
  6
Continuous
 62
     1
370
    15
100
AcDbLine
 10
-47.62408465094312
 20
7.937500000000001
 30
0.0
 11
-49.21250000000002
 21
7.937500000000001
 31
0.0
  0
ARC
  5
342
330
1F
100
AcDbEntity
  8
0
  6
Continuous
 62
     1
370
    15
100
AcDbCircle
 10
-49.21250000000002
 20
0.0000000000000025
 30
0.0
 40
7.9375
100
AcDbArc
 50
90.00000000000082
 51
180.0
  0
ARC
  5
343
330
1F
100
AcDbEntity
  8
0
  6
Continuous
 62
     1
370
    15
100
AcDbCircle
 10
-49.21250000000002
 20
0.0000000000000025
 30
0.0
 40
7.9375
100
AcDbArc
 50
180.0
 51
270.0
  0
LINE
  5
344
330
1F
100
AcDbEntity
  8
0
  6
Continuous
 62
     1
370
    15
100
AcDbLine
 10
-49.21250000000002
 20
-7.937499999999996
 30
0.0
 11
-47.62408465094312
 21
-7.937499999999996
 31
0.0
  0
SPLINE
  5
345
330
1F
100
AcDbEntity
  8
외형선
  6
Continuous
370
    15
100
AcDbSpline
210
0.0
220
0.0
230
1.0
 70
    24
 71
     3
 72
    14
 73
    10
 74
     0
 42
0.000000001
 43
0.00000001
 40
0.0
 40
0.0
 40
0.0
 40
0.0
 40
0.1146784326766322
 40
0.2799009879080751
 40
0.4404671145882386
 40
0.6056896698196483
 40
0.7662557964998097
 40
0.9314783517312181
 40
1.0
 40
1.0
 40
1.0
 40
1.0
 10
-28.575
 20
1.54788844506801
 30
0.0
 10
-28.575
 20
1.589786801722796
 30
0.0
 10
-28.57500000000003
 20
1.692050070810786
 30
0.0
 10
-28.575
 20
2.004069198025062
 30
0.0
 10
-28.575
 20
2.454779899846572
 30
0.0
 10
-28.575
 20
3.012883865176966
 30
0.0
 10
-28.575
 20
3.667146928862951
 30
0.0
 10
-28.575
 20
4.250832974745225
 30
0.0
 10
-28.57500000000003
 20
4.61651372451199
 30
0.0
 10
-28.575
 20
4.723712308857471
 30
0.0
  0
SPLINE
  5
346
330
1F
100
AcDbEntity
  8
외형선
  6
Continuous
370
    15
100
AcDbSpline
210
0.0
220
0.0
230
1.0
 70
     8
 71
     3
 72
    10
 73
     6
 74
     0
 42
0.000000001
 43
0.00000001
 40
0.0
 40
0.0
 40
0.0
 40
0.0
 40
0.5
 40
0.5
 40
1.0
 40
1.0
 40
1.0
 40
1.0
 10
-28.57500000000006
 20
4.723712308857475
 30
0.0
 10
-28.06559176347379
 20
4.626494036814159
 30
0.0
 10
-27.55954861737978
 20
4.519802362984261
 30
0.0
 10
-26.54412148321789
 20
4.288141708607918
 30
0.0
 10
-26.0334982844039
 20
4.16304025531038
 30
0.0
 10
-25.52466475472205
 20
4.029800182855372
 30
0.0
  0
SPLINE
  5
347
330
1F
100
AcDbEntity
  8
외형선
  6
Continuous
370
    15
100
AcDbSpline
210
0.0
220
0.0
230
1.0
 70
     8
 71
     3
 72
    10
 73
     6
 74
     0
 42
0.000000001
 43
0.00000001
 40
0.0
 40
0.0
 40
0.0
 40
0.0
 40
0.5
 40
0.5
 40
1.0
 40
1.0
 40
1.0
 40
1.0
 10
-25.52489817961056
 20
-0.29076466124896
 30
0.0
 10
-26.03369335248972
 20
0.0025815493625697
 30
0.0
 10
-26.54427720126922
 20
0.2968674509164203
 30
0.0
 10
-27.55962581021238
 20
0.8819031974709802
 30
0.0
 10
-28.06563071154154
 20
1.172895966236376
 30
0.0
 10
-28.575
 20
1.461528646842708
 30
0.0
  0
LINE
  5
348
330
1F
100
AcDbEntity
  8
외형선
  6
Continuous
370
    15
100
AcDbLine
 10
-25.52466475472205
 20
-7.629984690021113
 30
0.0
 11
-25.52466475472205
 21
-7.937499999999999
 31
0.0
  0
SPLINE
  5
349
330
1F
100
AcDbEntity
  8
외형선
  6
Continuous
370
    15
100
AcDbSpline
210
0.0
220
0.0
230
1.0
 70
     8
 71
     3
 72
    10
 73
     6
 74
     0
 42
0.000000001
 43
0.00000001
 40
0.0
 40
0.0
 40
0.0
 40
0.0
 40
0.5
 40
0.5
 40
1.0
 40
1.0
 40
1.0
 40
1.0
 10
-28.57500000000006
 20
-6.961796668867961
 30
0.0
 10
-28.06559176347379
 20
-7.102864029485377
 30
0.0
 10
-27.55954861737978
 20
-7.229341949371373
 30
0.0
 10
-26.54412148321786
 20
-7.452496807766006
 30
0.0
 10
-26.0334982844039
 20
-7.549200375744539
 30
0.0
 10
-25.52466475472205
 20
-7.630106210076842
 30
0.0
  0
LINE
  5
34A
330
1F
100
AcDbEntity
  8
외형선
  6
Continuous
370
    15
100
AcDbLine
 10
-28.575
 20
-6.961796668867971
 30
0.0
 11
-28.575
 21
1.461528646842708
 31
0.0
  0
SPLINE
  5
34B
330
1F
100
AcDbEntity
  8
외형선
  6
Continuous
370
    15
100
AcDbSpline
210
0.0
220
0.0
230
1.0
 70
     8
 71
     3
 72
    10
 73
     6
 74
     0
 42
0.000000001
 43
0.00000001
 40
0.0
 40
0.0
 40
0.0
 40
0.0
 40
0.5000000000000001
 40
0.5000000000000001
 40
1.0
 40
1.0
 40
1.0
 40
1.0
 10
-28.57500000000006
 20
6.961796668867962
 30
0.0
 10
-28.06559176347379
 20
7.102864029485379
 30
0.0
 10
-27.55954861737978
 20
7.229341949371372
 30
0.0
 10
-26.54412148321789
 20
7.452496807766008
 30
0.0
 10
-26.0334982844039
 20
7.549200375744538
 30
0.0
 10
-25.52466475472205
 20
7.630106210076844
 30
0.0
  0
LINE
  5
34C
330
1F
100
AcDbEntity
  8
외형선
  6
Continuous
370
    15
100
AcDbLine
 10
-25.52466475472205
 20
7.937499999999997
 30
0.0
 11
-25.52466475472205
 21
-0.2911802674127728
 31
0.0
  0
SPLINE
  5
34D
330
1F
100
AcDbEntity
  8
외형선
  6
Continuous
370
    15
100
AcDbSpline
210
0.0
220
0.0
230
1.0
 70
    24
 71
     3
 72
    13
 73
     9
 74
     0
 42
0.000000001
 43
0.00000001
 40
0.0
 40
0.0
 40
0.0
 40
0.0
 40
0.052770216072109
 40
0.3221890080452801
 40
0.5840148333473492
 40
0.8534336253205204
 40
0.9266375975519237
 40
0.9999999999999999
 40
0.9999999999999999
 40
0.9999999999999999
 40
0.9999999999999999
 10
-28.57500000000003
 20
4.803231271758357
 30
0.0
 10
-28.57500000000003
 20
4.823494558671221
 30
0.0
 10
-28.57500000000003
 20
4.947212231179342
 30
0.0
 10
-28.57500000000003
 20
5.302100141286924
 30
0.0
 10
-28.57500000000003
 20
5.863906744545948
 30
0.0
 10
-28.575
 20
6.376559347954644
 30
0.0
 10
-28.57500000000003
 20
6.754500587282064
 30
0.0
 10
-28.57500000000003
 20
6.892648198341218
 30
0.0
 10
-28.57500000000003
 20
6.96179666886814
 30
0.0
  0
SPLINE
  5
34E
330
1F
100
AcDbEntity
  8
0
  6
Continuous
 62
     1
370
    15
100
AcDbSpline
210
0.0
220
0.0
230
1.0
 70
     8
 71
     3
 72
    38
 73
    34
 74
     0
 42
0.000000001
 43
0.00000001
 40
0.0
 40
0.0
 40
0.0
 40
0.0
 40
0.0625000000000002
 40
0.0625000000000002
 40
0.1250000000000004
 40
0.1250000000000004
 40
0.1875000000000007
 40
0.1875000000000007
 40
0.2500000000000009
 40
0.2500000000000009
 40
0.3125000000000008
 40
0.3125000000000008
 40
0.3750000000000007
 40
0.3750000000000007
 40
0.4375000000000006
 40
0.4375000000000006
 40
0.5000000000000004
 40
0.5000000000000004
 40
0.5625000000000003
 40
0.5625000000000003
 40
0.6250000000000002
 40
0.6250000000000002
 40
0.6875000000000001
 40
0.6875000000000001
 40
0.7500000000000001
 40
0.7500000000000001
 40
0.8125000000000001
 40
0.8125000000000001
 40
0.8750000000000001
 40
0.8750000000000001
 40
0.9375000000000001
 40
0.9375000000000001
 40
1.0
 40
1.0
 40
1.0
 40
1.0
 10
-49.21250000000141
 20
3.31881821014787
 30
0.0
 10
-48.78392324430003
 20
3.093566395007625
 30
0.0
 10
-48.35471729975681
 20
2.863344446678345
 30
0.0
 10
-47.49290962317743
 20
2.394555883751123
 30
0.0
 10
-47.06151923215158
 20
2.156203710569842
 30
0.0
 10
-46.20344515976849
 20
1.674753674310211
 30
0.0
 10
-45.77515214441316
 20
1.431363338752352
 30
0.0
 10
-44.91357510534321
 20
0.9401516858282449
 30
0.0
 10
-44.48203478523062
 20
0.6926585363996293
 30
0.0
 10
-43.62313691251261
 20
0.1971678192046945
 30
0.0
 10
-43.19549899794741
 20
-0.0508814054861297
 30
0.0
 10
-42.33425068369708
 20
-0.5472516952506005
 30
0.0
 10
-41.90260976299852
 20
-0.7951909411071912
 30
0.0
 10
-41.04298516199135
 20
-1.287311917179103
 30
0.0
 10
-40.61574427212533
 20
-1.531358694765332
 30
0.0
 10
-39.75492264522707
 20
-2.015445620564695
 30
0.0
 10
-39.3232304908769
 20
-2.255119115889795
 30
0.0
 10
-38.46297650863632
 20
-2.72656949283316
 30
0.0
 10
-38.03587441722139
 20
-2.958096091975547
 30
0.0
 10
-37.17557727833211
 20
-3.412895508487995
 30
0.0
 10
-36.74388327684231
 20
-3.635881804082451
 30
0.0
 10
-35.88309749882565
 20
-4.070080968757277
 30
0.0
 10
-35.4558759271119
 20
-4.281003660434389
 30
0.0
 10
-34.59620087804394
 20
-4.690549031441662
 30
0.0
 10
-34.16455441663236
 20
-4.889014196460024
 30
0.0
 10
-33.3033346299007
 20
-5.270687246428928
 30
0.0
 10
-32.87573534433308
 20
-5.453632014005588
 30
0.0
 10
-32.01677975124336
 20
-5.803557283477519
 30
0.0
 10
-31.58523019896147
 20
-5.970531259855771
 30
0.0
 10
-30.72367435522155
 20
-6.286248506050458
 30
0.0
 10
-30.29543926510071
 20
-6.434802909636129
 30
0.0
 10
-29.43730022186726
 20
-6.712848572262817
 30
0.0
 10
-29.00589691074249
 20
-6.842470977726538
 30
0.0
 10
-28.57499999999992
 20
-6.961796668868007
 30
0.0
  0
SPLINE
  5
34F
330
1F
100
AcDbEntity
  8
0
  6
Continuous
 62
     1
370
    15
100
AcDbSpline
210
0.0
220
0.0
230
1.0
 70
     8
 71
     3
 72
    16
 73
    12
 74
     0
 42
0.000000001
 43
0.00000001
 40
0.0
 40
0.0
 40
0.0
 40
0.0
 40
0.1323644769465987
 40
0.2647172055471569
 40
0.3853852991614696
 40
0.5060519081033475
 40
0.6267171185858393
 40
0.7473810169702916
 40
0.8680436897572783
 40
0.9887052235774976
 40
1.0
 40
1.0
 40
1.0
 40
1.0
 10
-55.02507628763574
 20
-0.831808379828254
 30
0.0
 10
-54.06138500747973
 20
-1.202634465370058
 30
0.0
 10
-52.13408798204007
 20
-1.944253722840631
 30
0.0
 10
-49.32826590406252
 20
-2.931399458789676
 30
0.0
 10
-46.60771057584718
 20
-3.773376040827139
 30
0.0
 10
-43.97222283224782
 20
-4.450619013666276
 30
0.0
 10
-41.33677661896995
 20
-4.96363070424897
 30
0.0
 10
-38.70135405975326
 20
-5.299746102332874
 30
0.0
 10
-36.0659841191693
 20
-5.423166449850142
 30
0.0
 10
-34.2267928535896
 20
-5.4190020153612
 30
0.0
 10
-33.26614926656408
 20
-5.325735930320382
 30
0.0
 10
-33.18392315310875
 20
-5.317752836700984
 30
0.0
  0
SPLINE
  5
350
330
1F
100
AcDbEntity
  8
0
  6
Continuous
 62
     1
370
    15
100
AcDbSpline
210
0.0
220
0.0
230
1.0
 70
     8
 71
     3
 72
    32
 73
    28
 74
     0
 42
0.000000001
 43
0.00000001
 40
0.0
 40
0.0
 40
0.0
 40
0.0
 40
0.1250000000000008
 40
0.1250000000000008
 40
0.1875000000000008
 40
0.1875000000000008
 40
0.2500000000000008
 40
0.2500000000000008
 40
0.3750000000000008
 40
0.3750000000000008
 40
0.4375000000000008
 40
0.4375000000000008
 40
0.5000000000000008
 40
0.5000000000000008
 40
0.5625000000000007
 40
0.5625000000000007
 40
0.6250000000000007
 40
0.6250000000000007
 40
0.6875000000000006
 40
0.6875000000000006
 40
0.7500000000000006
 40
0.7500000000000006
 40
0.8125000000000004
 40
0.8125000000000004
 40
0.8750000000000004
 40
0.8750000000000004
 40
1.0
 40
1.0
 40
1.0
 40
1.0
 10
-49.21250000000002
 20
3.318818210147534
 30
0.0
 10
-49.65308812094339
 20
3.550382971071907
 30
0.0
 10
-50.08710909046958
 20
3.757117574133319
 30
0.0
 10
-50.73640932194301
 20
4.018650329113551
 30
0.0
 10
-50.95256667538554
 20
4.097654212438603
 30
0.0
 10
-51.38607042669857
 20
4.236032712352725
 30
0.0
 10
-51.60434058875644
 20
4.295608885325922
 30
0.0
 10
-52.25016423715728
 20
4.434639506884863
 30
0.0
 10
-52.6725762328402
 20
4.476557865492334
 30
0.0
 10
-53.30788834631333
 20
4.428992345944855
 30
0.0
 10
-53.51571000478178
 20
4.394593696935448
 30
0.0
 10
-53.92390741305179
 20
4.282028323855495
 30
0.0
 10
-54.12667093314771
 20
4.202797816703614
 30
0.0
 10
-54.51590833357712
 20
3.99286350200581
 30
0.0
 10
-54.70129681080708
 20
3.863504006919272
 30
0.0
 10
-55.05237529032395
 20
3.54217403374857
 30
0.0
 10
-55.21012800949397
 20
3.357424438630345
 30
0.0
 10
-55.48530783305985
 20
2.933813071501555
 30
0.0
 10
-55.59581605645299
 20
2.705019077798581
 30
0.0
 10
-55.75936008517682
 20
2.221162068851579
 30
0.0
 10
-55.80939101349075
 20
1.974358269129006
 30
0.0
 10
-55.85112834988384
 20
1.483475037431485
 30
0.0
 10
-55.84260311729783
 20
1.246348441763325
 30
0.0
 10
-55.77926653020585
 20
0.7872740261025059
 30
0.0
 10
-55.72362817958346
 20
0.5637003331124831
 30
0.0
 10
-55.50491619936658
 20
-0.0717456095375716
 30
0.0
 10
-55.28895564050323
 20
-0.4608481068604011
 30
0.0
 10
-55.02507628763477
 20
-0.831808379828627
 30
0.0
  0
SPLINE
  5
351
330
1F
100
AcDbEntity
  8
0
  6
Continuous
 62
     1
370
    15
100
AcDbSpline
210
0.0
220
0.0
230
1.0
 70
     8
 71
     3
 72
    21
 73
    17
 74
     0
 42
0.000000001
 43
0.00000001
 40
0.0
 40
0.0
 40
0.0
 40
0.0
 40
0.0734583278405681
 40
0.1471071914217584
 40
0.220565535974526
 40
0.2942143636401117
 40
0.3676727306937408
 40
0.4413215286439606
 40
0.5147799184367889
 40
0.5884286987611099
 40
0.661887108155633
 40
0.7355358852033229
 40
0.8089943102053628
 40
0.8826430983263529
 40
0.9827679153588118
 40
1.0
 40
1.0
 40
1.0
 40
1.0
 10
-28.57500000000003
 20
1.461528646842708
 30
0.0
 10
-29.04154437350589
 20
1.724577867504773
 30
0.0
 10
-29.97584324032779
 20
2.251358604213951
 30
0.0
 10
-31.3759434849713
 20
3.015014991878622
 30
0.0
 10
-32.77797462261343
 20
3.747940935291388
 30
0.0
 10
-34.17831157918029
 20
4.44184495632605
 30
0.0
 10
-35.58002215329832
 20
5.090018935441235
 30
0.0
 10
-36.98069840735808
 20
5.684643903850977
 30
0.0
 10
-38.38207957061901
 20
6.22131888560421
 30
0.0
 10
-39.78307195222142
 20
6.692140513080973
 30
0.0
 10
-41.18417355000999
 20
7.095018697488009
 30
0.0
 10
-42.58541587087821
 20
7.422325730252237
 30
0.0
 10
-43.98633518814303
 20
7.676138336370305
 30
0.0
 10
-45.55702878428106
 20
7.860436049902561
 30
0.0
 10
-46.7693715620607
 20
7.953679833481034
 30
0.0
 10
-47.51465156362424
 20
7.930034645467242
 30
0.0
 10
-47.62408465094312
 20
7.926562707512169
 30
0.0
  0
SPLINE
  5
352
330
1F
100
AcDbEntity
  8
0
  6
Continuous
 62
     1
370
    15
100
AcDbSpline
210
0.0
220
0.0
230
1.0
 70
     8
 71
     3
 72
    11
 73
     7
 74
     0
 42
0.000000001
 43
0.00000001
 40
0.0
 40
0.0
 40
0.0
 40
0.0
 40
0.0310993617182297
 40
0.3719539315481163
 40
0.6859942686973733
 40
1.0
 40
1.0
 40
1.0
 40
1.0
 10
-36.30641090588703
 20
5.389074702902474
 30
0.0
 10
-36.22626132125312
 20
5.393480187547831
 30
0.0
 10
-35.26765794583186
 20
5.446170572291469
 30
0.0
 10
-33.49967900402034
 20
5.361565813097672
 30
0.0
 10
-31.00274308110043
 20
5.14800058882519
 30
0.0
 10
-29.38421796635227
 20
4.865136540167376
 30
0.0
 10
-28.57500000000003
 20
4.723712308857468
 30
0.0
  0
SPLINE
  5
353
330
1F
100
AcDbEntity
  8
외형선
  6
Continuous
370
    15
100
AcDbSpline
210
0.0
220
0.0
230
1.0
 70
    24
 71
     3
 72
    14
 73
    10
 74
     0
 42
0.000000001
 43
0.00000001
 40
0.0
 40
0.0
 40
0.0
 40
0.0
 40
0.1172801848913345
 40
0.2801234386442092
 40
0.4429666923970841
 40
0.6058099461499589
 40
0.7686531999028324
 40
0.9314964536557058
 40
1.0
 40
1.0
 40
1.0
 40
1.0
 10
-28.575
 20
1.54789844506801
 30
0.0
 10
-28.575
 20
1.591036811179724
 30
0.0
 10
-28.575
 20
1.694072694555101
 30
0.0
 10
-28.575
 20
2.007423312390313
 30
0.0
 10
-28.575
 20
2.458018547453057
 30
0.0
 10
-28.575
 20
3.018326730814892
 30
0.0
 10
-28.575
 20
3.671025199820009
 30
0.0
 10
-28.575
 20
4.254439679045706
 30
0.0
 10
-28.575
 20
4.616502696709515
 30
0.0
 10
-28.575
 20
4.723712308857471
 30
0.0
  0
SPLINE
  5
354
330
1F
100
AcDbEntity
  8
0
  6
Continuous
 62
     1
370
    15
100
AcDbSpline
210
0.0
220
0.0
230
1.0
 70
     8
 71
     3
 72
    12
 73
     8
 74
     0
 42
0.000000001
 43
0.00000001
 40
0.0
 40
0.0
 40
0.0
 40
0.0
 40
0.2499999999999998
 40
0.2499999999999998
 40
0.4999999999999996
 40
0.4999999999999996
 40
1.0
 40
1.0
 40
1.0
 40
1.0
 10
-55.02507628763475
 20
-0.8318083798286341
 30
0.0
 10
-55.11637843245619
 20
-0.8868025304355572
 30
0.0
 10
-55.19770790416185
 20
-0.9549940110446374
 30
0.0
 10
-55.34035771297964
 20
-1.118533091122642
 30
0.0
 10
-55.40214548463477
 20
-1.215434107024534
 30
0.0
 10
-55.54830652549136
 20
-1.533900395325307
 30
0.0
 10
-55.59653655204148
 20
-1.789712211347756
 30
0.0
 10
-55.60097261204693
 20
-2.0557350331427
 30
0.0
  0
ARC
  5
355
330
1F
100
AcDbEntity
  8
0
  6
Continuous
 62
     1
370
    15
100
AcDbCircle
 10
-53.35242893053815
 20
1.379798856937856
 30
0.0
 40
4.105951996497986
100
AcDbArc
 50
203.8412503627048
 51
236.7954076509277
  0
ARC
  5
356
330
1F
100
AcDbEntity
  8
0
  6
Continuous
 62
     1
370
    15
100
AcDbCircle
 10
-49.99353474879656
 20
-0.1342909103444355
 30
0.0
 40
7.115969501930887
100
AcDbArc
 50
181.1720264342653
 51
251.0610308949693
  0
SPLINE
  5
357
330
1F
100
AcDbEntity
  8
0
  6
Continuous
 62
     1
370
    15
100
AcDbSpline
210
0.0
220
0.0
230
1.0
 70
     8
 71
     3
 72
    10
 73
     6
 74
     0
 42
0.000000001
 43
0.00000001
 40
0.0
 40
0.0
 40
0.0
 40
0.0
 40
0.5
 40
0.5
 40
1.0
 40
1.0
 40
1.0
 40
1.0
 10
-52.30309959532171
 20
-6.865036201328613
 30
0.0
 10
-51.81202091045107
 20
-7.164378820383386
 30
0.0
 10
-51.3068847084097
 20
-7.399766225851738
 30
0.0
 10
-50.27550951059801
 20
-7.74192439026893
 30
0.0
 10
-49.74426259244355
 20
-7.849150968295009
 30
0.0
 10
-49.21250000000002
 20
-7.88460953358006
 30
0.0
  0
SPLINE
  5
358
330
1F
100
AcDbEntity
  8
0
  6
Continuous
 62
     1
370
    15
100
AcDbSpline
210
0.0
220
0.0
230
1.0
 70
     8
 71
     3
 72
     8
 73
     4
 74
     0
 42
0.000000001
 43
0.00000001
 40
0.0
 40
0.0
 40
0.0
 40
0.0
 40
1.0
 40
1.0
 40
1.0
 40
1.0
 10
-50.6930214469951
 20
-3.553205698185365
 30
0.0
 10
-52.30661501752657
 20
-3.104725156303753
 30
0.0
 10
-53.95171904300987
 20
-2.599484952577598
 30
0.0
 10
-55.60097261204699
 20
-2.055735033142761
 30
0.0
  0
SPLINE
  5
359
330
1F
100
AcDbEntity
  8
0
  6
Continuous
 62
     1
370
    15
100
AcDbSpline
210
0.0
220
0.0
230
1.0
 70
     8
 71
     3
 72
    16
 73
    12
 74
     0
 42
0.000000001
 43
0.00000001
 40
0.0
 40
0.0
 40
0.0
 40
0.0
 40
0.0523319496262512
 40
0.1607559617519518
 40
0.2694609888216687
 40
0.377885029879318
 40
0.4865900521127531
 40
0.5950141162069759
 40
0.703719154784516
 40
0.8515026061591974
 40
1.0
 40
1.0
 40
1.0
 40
1.0
 10
-36.30641090588703
 20
-5.389074702902472
 30
0.0
 10
-36.53155655994048
 20
-5.485813546806088
 30
0.0
 10
-37.2231705053433
 20
-5.782980879603048
 30
0.0
 10
-38.38207382530773
 20
-6.219426197383334
 30
0.0
 10
-39.7830733860019
 20
-6.692667637106445
 30
0.0
 10
-41.1841735478195
 20
-7.094799283226073
 30
0.0
 10
-42.58541443968038
 20
-7.42267588065124
 30
0.0
 10
-43.98634090278965
 20
-7.674959220267264
 30
0.0
 10
-45.55700402700349
 20
-7.865482530583207
 30
0.0
 10
-47.2987051147136
 20
-7.967837668453885
 30
0.0
 10
-48.57354438604308
 20
-7.912396776834622
 30
0.0
 10
-49.21250000000002
 20
-7.884609533580057
 30
0.0
  0
SPLINE
  5
35A
330
1F
100
AcDbEntity
  8
0
  6
Continuous
 62
     1
370
    15
100
AcDbSpline
210
0.0
220
0.0
230
1.0
 70
     8
 71
     3
 72
    18
 73
    14
 74
     0
 42
0.000000001
 43
0.00000001
 40
0.0
 40
0.0
 40
0.0
 40
0.0
 40
0.2500000000000002
 40
0.2500000000000002
 40
0.3750000000000005
 40
0.3750000000000005
 40
0.5000000000000008
 40
0.5000000000000008
 40
0.6250000000000011
 40
0.6250000000000011
 40
0.7500000000000014
 40
0.7500000000000014
 40
1.0
 40
1.0
 40
1.0
 40
1.0
 10
-52.30309959532171
 20
-6.865036201328624
 30
0.0
 10
-52.35946801173044
 20
-6.531827276881191
 30
0.0
 10
-52.38484179760077
 20
-6.192747789343335
 30
0.0
 10
-52.34798077683855
 20
-5.677451131588316
 30
0.0
 10
-52.3232153519656
 20
-5.508545982712799
 30
0.0
 10
-52.24439277502044
 20
-5.17745017116179
 30
0.0
 10
-52.1893425352355
 20
-5.013368194308202
 30
0.0
 10
-52.04945698832533
 20
-4.705335497142545
 30
0.0
 10
-51.96502001704515
 20
-4.561011474966661
 30
0.0
 10
-51.76666843173571
 20
-4.292075244864942
 30
0.0
 10
-51.65200111465391
 20
-4.167426605853065
 30
0.0
 10
-51.28189615471489
 20
-3.838840154981759
 30
0.0
 10
-50.9926840152266
 20
-3.672301954915063
 30
0.0
 10
-50.6930214469951
 20
-3.553205698185365
 30
0.0
  0
SPLINE
  5
35B
330
1F
100
AcDbEntity
  8
0
  6
Continuous
 62
     1
370
    15
100
AcDbSpline
210
0.0
220
0.0
230
1.0
 70
     8
 71
     3
 72
    10
 73
     6
 74
     0
 42
0.000000001
 43
0.00000001
 40
0.0
 40
0.0
 40
0.0
 40
0.0
 40
0.0149748292147641
 40
0.5075747843205208
 40
1.0
 40
1.0
 40
1.0
 40
1.0
 10
-33.18392315310875
 20
5.317752836700985
 30
0.0
 10
-33.16091423602155
 20
5.328272903435592
 30
0.0
 10
-32.3810224615991
 20
5.684852636484639
 30
0.0
 10
-30.84471723567783
 20
6.268569866082431
 30
0.0
 10
-29.33148293137232
 20
6.730748397464926
 30
0.0
 10
-28.57499999999992
 20
6.961796668868005
 30
0.0
  0
SPLINE
  5
35C
330
1F
100
AcDbEntity
  8
외형선
  6
Continuous
370
    15
100
AcDbSpline
210
0.0
220
0.0
230
1.0
 70
    24
 71
     3
 72
    12
 73
     8
 74
     0
 42
0.000000001
 43
0.00000001
 40
0.0
 40
0.0
 40
0.0
 40
0.0
 40
0.0527643358087327
 40
0.3221960617715529
 40
0.5840344565476733
 40
0.853466182510493
 40
1.0
 40
1.0
 40
1.0
 40
1.0
 10
-28.57500000000003
 20
4.803241271758357
 30
0.0
 10
-28.57500000000003
 20
4.823502654269528
 30
0.0
 10
-28.57500000000003
 20
4.94722519433543
 30
0.0
 10
-28.57500000000003
 20
5.301871180489878
 30
0.0
 10
-28.57500000000003
 20
5.864712843905392
 30
0.0
 10
-28.57500000000003
 20
6.436246759034693
 30
0.0
 10
-28.57500000000003
 20
6.824888362965226
 30
0.0
 10
-28.57500000000003
 20
6.961796668846849
 30
0.0
  0
LINE
  5
38A
330
1F
100
AcDbEntity
  8
외형선
  6
Continuous
370
    15
100
AcDbLine
 10
-25.52466475472205
 20
-7.937500000000006
 30
0.0
 11
25.52466475472204
 21
-7.937499999999999
 31
0.0
  0
LINE
  5
3C0
330
1F
100
AcDbEntity
  8
외형선
  6
Continuous
370
    15
100
AcDbLine
 10
-5.092699999999979
 20
6.286499999999989
 30
0.0
 11
5.092699999999979
 21
6.286499999999989
 31
0.0
  0
LINE
  5
3C1
330
1F
100
AcDbEntity
  8
외형선
  6
Continuous
370
    15
100
AcDbLine
 10
5.092699999999979
 20
6.286499999999989
 30
0.0
 11
6.743700000000047
 21
7.937499999999985
 31
0.0
  0
LINE
  5
3C2
330
1F
100
AcDbEntity
  8
외형선
  6
Continuous
370
    15
100
AcDbLine
 10
-5.092699999999979
 20
6.286499999999989
 30
0.0
 11
-6.743699999999933
 21
7.937499999999985
 31
0.0
  0
LINE
  5
3C6
330
1F
100
AcDbEntity
  8
외형선
  6
Continuous
370
    15
100
AcDbLine
 10
-6.74369999999994
 20
7.937499999999996
 30
0.0
 11
-25.52466475472205
 21
7.937499999999994
 31
0.0
  0
ENDSEC
  0
SECTION
  2
OBJECTS
  0
DICTIONARY
  5
C
330
0
100
AcDbDictionary
281
     1
  3
ACAD_GROUP
350
D
  3
ACAD_IMAGE_VARS
350
146
  3
ACAD_LAYOUT
350
1A
  3
ACAD_MLINESTYLE
350
17
  3
ACAD_PLOTSETTINGS
350
19
  3
ACAD_PLOTSTYLENAME
350
E
  3
ACAD_SCALELIST
350
47
  3
APPDATA
350
144
  3
DWGPROPS
350
3EA
  0
DICTIONARY
  5
1ED
330
2
100
AcDbDictionary
280
     1
281
     1
  3
ACAD_LAYERSTATES
360
1EE
  0
DICTIONARY
  5
D
102
{ACAD_REACTORS
330
C
102
}
330
C
100
AcDbDictionary
281
     1
  0
RASTERVARIABLES
  5
146
102
{ACAD_REACTORS
330
C
102
}
330
C
100
AcDbRasterVariables
 90
        0
 70
     1
 71
     1
 72
     1
  0
DICTIONARY
  5
1A
102
{ACAD_REACTORS
330
C
102
}
330
C
100
AcDbDictionary
281
     1
  3
Layout1
350
1E
  3
Layout2
350
26
  3
Model
350
22
  0
DICTIONARY
  5
17
102
{ACAD_REACTORS
330
C
102
}
330
C
100
AcDbDictionary
281
     1
  3
Standard
350
18
  0
DICTIONARY
  5
19
102
{ACAD_REACTORS
330
C
102
}
330
C
100
AcDbDictionary
281
     1
  0
ACDBDICTIONARYWDFLT
  5
E
102
{ACAD_REACTORS
330
C
102
}
330
C
100
AcDbDictionary
281
     1
  3
Normal
350
F
100
AcDbDictionaryWithDefault
340
F
  0
DICTIONARY
  5
47
102
{ACAD_REACTORS
330
C
102
}
330
C
100
AcDbDictionary
281
     1
  3
A0
350
48
  3
A1
350
49
  3
A2
350
4A
  3
A3
350
4B
  3
A4
350
4C
  3
A5
350
4D
  3
A6
350
4E
  3
A7
350
4F
  3
A8
350
50
  3
A9
350
51
  3
B0
350
52
  3
B1
350
53
  3
B2
350
54
  3
B3
350
55
  3
B4
350
56
  3
B5
350
57
  3
B6
350
58
  3
B7
350
59
  3
B8
350
5A
  3
B9
350
5B
  3
C0
350
5C
  3
C1
350
5D
  3
C2
350
5E
  3
C3
350
5F
  3
C4
350
60
  3
C5
350
61
  3
C6
350
62
  3
C7
350
63
  3
C8
350
64
  3
C9
350
65
  3
D0
350
66
  3
D1
350
67
  3
D2
350
68
  0
DICTIONARY
  5
144
102
{ACAD_REACTORS
330
C
102
}
330
C
100
AcDbDictionary
281
     1
  0
XRECORD
  5
3EA
102
{ACAD_REACTORS
330
C
102
}
330
C
100
AcDbXrecord
280
     1
  1
DWGPROPS COOKIE
  2

  3

  4

  6

  7

  8
12016016
  9

300
=
301
=
302
=
303
=
304
=
305
=
306
=
307
=
308
=
309
=
 40
0.0
 41
2458319.369312454
 42
2458323.298717269
  1

 90
        0
  0
DICTIONARY
  5
1EE
102
{ACAD_REACTORS
330
1ED
102
}
330
1ED
100
AcDbDictionary
281
     1
  0
LAYOUT
  5
1E
102
{ACAD_REACTORS
330
1A
102
}
330
1A
100
AcDbPlotSettings
  1

  2
none_device
  4

  6

 40
0.0
 41
0.0
 42
0.0
 43
0.0
 44
0.0
 45
0.0
 46
0.0
 47
0.0
 48
0.0
 49
0.0
140
0.0
141
0.0
142
1.0
143
1.0
 70
   688
 72
     1
 73
     0
 74
     5
  7

 75
    16
147
1.0
148
0.0
149
0.0
100
AcDbLayout
  1
Layout1
 70
     1
 71
     1
 10
0.0
 20
0.0
 11
420.0
 21
297.0
 12
0.0
 22
0.0
 32
0.0
 14
1.000000000000000E+20
 24
1.000000000000000E+20
 34
1.000000000000000E+20
 15
-1.000000000000000E+20
 25
-1.000000000000000E+20
 35
-1.000000000000000E+20
146
0.0
 13
0.0
 23
0.0
 33
0.0
 16
1.0
 26
0.0
 36
0.0
 17
0.0
 27
1.0
 37
0.0
 76
     0
330
1B
  0
LAYOUT
  5
26
102
{ACAD_REACTORS
330
1A
102
}
330
1A
100
AcDbPlotSettings
  1

  2
none_device
  4

  6

 40
0.0
 41
0.0
 42
0.0
 43
0.0
 44
0.0
 45
0.0
 46
0.0
 47
0.0
 48
0.0
 49
0.0
140
0.0
141
0.0
142
1.0
143
1.0
 70
   688
 72
     1
 73
     0
 74
     5
  7

 75
    16
147
1.0
148
0.0
149
0.0
100
AcDbLayout
  1
Layout2
 70
     1
 71
     2
 10
0.0
 20
0.0
 11
0.0
 21
0.0
 12
0.0
 22
0.0
 32
0.0
 14
0.0
 24
0.0
 34
0.0
 15
0.0
 25
0.0
 35
0.0
146
0.0
 13
0.0
 23
0.0
 33
0.0
 16
1.0
 26
0.0
 36
0.0
 17
0.0
 27
1.0
 37
0.0
 76
     0
330
23
  0
LAYOUT
  5
22
102
{ACAD_REACTORS
330
1A
102
}
330
1A
100
AcDbPlotSettings
  1

  2
none_device
  4
ANSI_A_(11.00_x_8.50_Inches)
  6

 40
6.35
 41
19.05
 42
6.35000508
 43
19.05000254
 44
279.4
 45
215.9
 46
145.5904087183149
 47
48.7648832844619
 48
0.0
 49
0.0
140
0.0
141
0.0
142
0.0518070192276021
143
1.0
 70
  1696
 72
     0
 73
     0
 74
     0
  7

 75
     0
147
0.0235690232323232
148
0.0
149
0.0
100
AcDbLayout
  1
Model
 70
     1
 71
     0
 10
0.0
 20
0.0
 11
420.0
 21
297.0
 12
0.0
 22
0.0
 32
0.0
 14
-73.95500000000004
 24
-49.97180738881174
 34
0.0
 15
81.41936447236115
 25
39.23950000000009
 35
0.0
146
0.0
 13
0.0
 23
0.0
 33
0.0
 16
1.0
 26
0.0
 36
0.0
 17
0.0
 27
1.0
 37
0.0
 76
     0
330
1F
331
29
  0
MLINESTYLE
  5
18
102
{ACAD_REACTORS
330
17
102
}
330
17
100
AcDbMlineStyle
  2
Standard
 70
     0
  3

 62
   256
 51
90.0
 52
90.0
 71
     2
 49
0.5
 62
   256
  6
BYLAYER
 49
-0.5
 62
   256
  6
BYLAYER
  0
ACDBPLACEHOLDER
  5
F
102
{ACAD_REACTORS
330
E
102
}
330
E
  0
SCALE
  5
48
102
{ACAD_REACTORS
330
47
102
}
330
47
100
AcDbScale
 70
     0
300
1:1
140
1.0
141
1.0
290
     1
  0
SCALE
  5
49
102
{ACAD_REACTORS
330
47
102
}
330
47
100
AcDbScale
 70
     0
300
1:2
140
1.0
141
2.0
290
     0
  0
SCALE
  5
4A
102
{ACAD_REACTORS
330
47
102
}
330
47
100
AcDbScale
 70
     0
300
1:4
140
1.0
141
4.0
290
     0
  0
SCALE
  5
4B
102
{ACAD_REACTORS
330
47
102
}
330
47
100
AcDbScale
 70
     0
300
1:5
140
1.0
141
5.0
290
     0
  0
SCALE
  5
4C
102
{ACAD_REACTORS
330
47
102
}
330
47
100
AcDbScale
 70
     0
300
1:8
140
1.0
141
8.0
290
     0
  0
SCALE
  5
4D
102
{ACAD_REACTORS
330
47
102
}
330
47
100
AcDbScale
 70
     0
300
1:10
140
1.0
141
10.0
290
     0
  0
SCALE
  5
4E
102
{ACAD_REACTORS
330
47
102
}
330
47
100
AcDbScale
 70
     0
300
1:16
140
1.0
141
16.0
290
     0
  0
SCALE
  5
4F
102
{ACAD_REACTORS
330
47
102
}
330
47
100
AcDbScale
 70
     0
300
1:20
140
1.0
141
20.0
290
     0
  0
SCALE
  5
50
102
{ACAD_REACTORS
330
47
102
}
330
47
100
AcDbScale
 70
     0
300
1:30
140
1.0
141
30.0
290
     0
  0
SCALE
  5
51
102
{ACAD_REACTORS
330
47
102
}
330
47
100
AcDbScale
 70
     0
300
1:40
140
1.0
141
40.0
290
     0
  0
SCALE
  5
52
102
{ACAD_REACTORS
330
47
102
}
330
47
100
AcDbScale
 70
     0
300
1:50
140
1.0
141
50.0
290
     0
  0
SCALE
  5
53
102
{ACAD_REACTORS
330
47
102
}
330
47
100
AcDbScale
 70
     0
300
1:100
140
1.0
141
100.0
290
     0
  0
SCALE
  5
54
102
{ACAD_REACTORS
330
47
102
}
330
47
100
AcDbScale
 70
     0
300
2:1
140
2.0
141
1.0
290
     0
  0
SCALE
  5
55
102
{ACAD_REACTORS
330
47
102
}
330
47
100
AcDbScale
 70
     0
300
4:1
140
4.0
141
1.0
290
     0
  0
SCALE
  5
56
102
{ACAD_REACTORS
330
47
102
}
330
47
100
AcDbScale
 70
     0
300
8:1
140
8.0
141
1.0
290
     0
  0
SCALE
  5
57
102
{ACAD_REACTORS
330
47
102
}
330
47
100
AcDbScale
 70
     0
300
10:1
140
10.0
141
1.0
290
     0
  0
SCALE
  5
58
102
{ACAD_REACTORS
330
47
102
}
330
47
100
AcDbScale
 70
     0
300
100:1
140
100.0
141
1.0
290
     0
  0
SCALE
  5
59
102
{ACAD_REACTORS
330
47
102
}
330
47
100
AcDbScale
 70
     0
300
1/128" = 1'-0"
140
0.0078125
141
12.0
290
     0
  0
SCALE
  5
5A
102
{ACAD_REACTORS
330
47
102
}
330
47
100
AcDbScale
 70
     0
300
1/64" = 1'-0"
140
0.015625
141
12.0
290
     0
  0
SCALE
  5
5B
102
{ACAD_REACTORS
330
47
102
}
330
47
100
AcDbScale
 70
     0
300
1/32" = 1'-0"
140
0.03125
141
12.0
290
     0
  0
SCALE
  5
5C
102
{ACAD_REACTORS
330
47
102
}
330
47
100
AcDbScale
 70
     0
300
1/16" = 1'-0"
140
0.0625
141
12.0
290
     0
  0
SCALE
  5
5D
102
{ACAD_REACTORS
330
47
102
}
330
47
100
AcDbScale
 70
     0
300
3/32" = 1'-0"
140
0.09375
141
12.0
290
     0
  0
SCALE
  5
5E
102
{ACAD_REACTORS
330
47
102
}
330
47
100
AcDbScale
 70
     0
300
1/8" = 1'-0"
140
0.125
141
12.0
290
     0
  0
SCALE
  5
5F
102
{ACAD_REACTORS
330
47
102
}
330
47
100
AcDbScale
 70
     0
300
3/16" = 1'-0"
140
0.1875
141
12.0
290
     0
  0
SCALE
  5
60
102
{ACAD_REACTORS
330
47
102
}
330
47
100
AcDbScale
 70
     0
300
1/4" = 1'-0"
140
0.25
141
12.0
290
     0
  0
SCALE
  5
61
102
{ACAD_REACTORS
330
47
102
}
330
47
100
AcDbScale
 70
     0
300
3/8" = 1'-0"
140
0.375
141
12.0
290
     0
  0
SCALE
  5
62
102
{ACAD_REACTORS
330
47
102
}
330
47
100
AcDbScale
 70
     0
300
1/2" = 1'-0"
140
0.5
141
12.0
290
     0
  0
SCALE
  5
63
102
{ACAD_REACTORS
330
47
102
}
330
47
100
AcDbScale
 70
     0
300
3/4" = 1'-0"
140
0.75
141
12.0
290
     0
  0
SCALE
  5
64
102
{ACAD_REACTORS
330
47
102
}
330
47
100
AcDbScale
 70
     0
300
1" = 1'-0"
140
1.0
141
12.0
290
     0
  0
SCALE
  5
65
102
{ACAD_REACTORS
330
47
102
}
330
47
100
AcDbScale
 70
     0
300
1-1/2" = 1'-0"
140
1.5
141
12.0
290
     0
  0
SCALE
  5
66
102
{ACAD_REACTORS
330
47
102
}
330
47
100
AcDbScale
 70
     0
300
3" = 1'-0"
140
3.0
141
12.0
290
     0
  0
SCALE
  5
67
102
{ACAD_REACTORS
330
47
102
}
330
47
100
AcDbScale
 70
     0
300
6" = 1'-0"
140
6.0
141
12.0
290
     0
  0
SCALE
  5
68
102
{ACAD_REACTORS
330
47
102
}
330
47
100
AcDbScale
 70
     0
300
1'-0" = 1'-0"
140
12.0
141
12.0
290
     0
  0
ENDSEC
  0
EOF
