  0
SECTION
  2
HEADER
  9
$ACADVER
  1
AC1015
  9
$ACADMAINTVER
 70
     6
  9
$DWGCODEPAGE
  3
ANSI_949
  9
$INSBASE
 10
0.0
 20
0.0
 30
0.0
  9
$EXTMIN
 10
-64.43000000000004
 20
-49.97180738881174
 30
0.0
  9
$EXTMAX
 10
81.41936447236115
 20
34.15200000000007
 30
0.0
  9
$LIMMIN
 10
0.0
 20
0.0
  9
$LIMMAX
 10
420.0
 20
297.0
  9
$ORTHOMODE
 70
     1
  9
$REGENMODE
 70
     1
  9
$FILLMODE
 70
     1
  9
$QTEXTMODE
 70
     0
  9
$MIRRTEXT
 70
     1
  9
$LTSCALE
 40
1.0
  9
$ATTMODE
 70
     1
  9
$TEXTSIZE
 40
3.5
  9
$TRACEWID
 40
1.0
  9
$TEXTSTYLE
  7
Standard
  9
$CLAYER
  8
0
  9
$CELTYPE
  6
ByLayer
  9
$CECOLOR
 62
   256
  9
$CELTSCALE
 40
1.0
  9
$DISPSILH
 70
     0
  9
$DIMSCALE
 40
1.0
  9
$DIMASZ
 40
3.302
  9
$DIMEXO
 40
1.0
  9
$DIMDLI
 40
3.75
  9
$DIMRND
 40
0.0
  9
$DIMDLE
 40
0.0
  9
$DIMEXE
 40
1.0
  9
$DIMTP
 40
0.0
  9
$DIMTM
 40
0.0
  9
$DIMTXT
 40
3.5
  9
$DIMCEN
 40
2.5
  9
$DIMTSZ
 40
0.0
  9
$DIMTOL
 70
     0
  9
$DIMLIM
 70
     0
  9
$DIMTIH
 70
     1
  9
$DIMTOH
 70
     1
  9
$DIMSE1
 70
     0
  9
$DIMSE2
 70
     0
  9
$DIMTAD
 70
     1
  9
$DIMZIN
 70
     0
  9
$DIMBLK
  1

  9
$DIMASO
 70
     1
  9
$DIMSHO
 70
     1
  9
$DIMPOST
  1

  9
$DIMAPOST
  1

  9
$DIMALT
 70
     0
  9
$DIMALTD
 70
     3
  9
$DIMALTF
 40
0.0393700787401575
  9
$DIMLFAC
 40
1.0
  9
$DIMTOFL
 70
     1
  9
$DIMTVP
 40
0.0
  9
$DIMTIX
 70
     0
  9
$DIMSOXD
 70
     0
  9
$DIMSAH
 70
     0
  9
$DIMBLK1
  1

  9
$DIMBLK2
  1

  9
$DIMSTYLE
  2
ISO-25
  9
$DIMCLRD
 70
     0
  9
$DIMCLRE
 70
     0
  9
$DIMCLRT
 70
     0
  9
$DIMTFAC
 40
1.0
  9
$DIMGAP
 40
1.524
  9
$DIMJUST
 70
     0
  9
$DIMSD1
 70
     0
  9
$DIMSD2
 70
     0
  9
$DIMTOLJ
 70
     0
  9
$DIMTZIN
 70
     0
  9
$DIMALTZ
 70
     0
  9
$DIMALTTZ
 70
     0
  9
$DIMUPT
 70
     0
  9
$DIMDEC
 70
     2
  9
$DIMTDEC
 70
     2
  9
$DIMALTU
 70
     2
  9
$DIMALTTD
 70
     3
  9
$DIMTXSTY
  7
Standard
  9
$DIMAUNIT
 70
     0
  9
$DIMADEC
 70
     2
  9
$DIMALTRND
 40
0.0
  9
$DIMAZIN
 70
     0
  9
$DIMDSEP
 70
    44
  9
$DIMATFIT
 70
     3
  9
$DIMFRAC
 70
     0
  9
$DIMLDRBLK
  1

  9
$DIMLUNIT
 70
     2
  9
$DIMLWD
 70
    -2
  9
$DIMLWE
 70
    -2
  9
$DIMTMOVE
 70
     0
  9
$LUNITS
 70
     2
  9
$LUPREC
 70
     2
  9
$SKETCHINC
 40
1.0
  9
$FILLETRAD
 40
10.0
  9
$AUNITS
 70
     0
  9
$AUPREC
 70
     2
  9
$MENU
  1
.
  9
$ELEVATION
 40
0.0
  9
$PELEVATION
 40
0.0
  9
$THICKNESS
 40
0.0
  9
$LIMCHECK
 70
     0
  9
$CHAMFERA
 40
0.0
  9
$CHAMFERB
 40
0.0
  9
$CHAMFERC
 40
0.0
  9
$CHAMFERD
 40
0.0
  9
$SKPOLY
 70
     0
  9
$TDCREATE
 40
2458319.74410066
  9
$TDUCREATE
 40
2458319.36910066
  9
$TDUPDATE
 40
2458323.673767755
  9
$TDUUPDATE
 40
2458323.298767755
  9
$TDINDWG
 40
0.0003526157
  9
$TDUSRTIMER
 40
2458323.298724386
  9
$USRTIMER
 70
     1
  9
$ANGBASE
 50
0.0
  9
$ANGDIR
 70
     0
  9
$PDMODE
 70
     0
  9
$PDSIZE
 40
-1.0
  9
$PLINEWID
 40
0.0
  9
$SPLFRAME
 70
     0
  9
$SPLINETYPE
 70
     6
  9
$SPLINESEGS
 70
     8
  9
$HANDSEED
  5
4B0
  9
$SURFTAB1
 70
     6
  9
$SURFTAB2
 70
     6
  9
$SURFTYPE
 70
     6
  9
$SURFU
 70
     6
  9
$SURFV
 70
     6
  9
$UCSBASE
  2

  9
$UCSNAME
  2

  9
$UCSORG
 10
0.0
 20
0.0
 30
0.0
  9
$UCSXDIR
 10
1.0
 20
0.0
 30
0.0
  9
$UCSYDIR
 10
0.0
 20
1.0
 30
0.0
  9
$UCSORTHOREF
  2

  9
$UCSORTHOVIEW
 70
     0
  9
$UCSORGTOP
 10
0.0
 20
0.0
 30
0.0
  9
$UCSORGBOTTOM
 10
0.0
 20
0.0
 30
0.0
  9
$UCSORGLEFT
 10
0.0
 20
0.0
 30
0.0
  9
$UCSORGRIGHT
 10
0.0
 20
0.0
 30
0.0
  9
$UCSORGFRONT
 10
0.0
 20
0.0
 30
0.0
  9
$UCSORGBACK
 10
0.0
 20
0.0
 30
0.0
  9
$PUCSBASE
  2

  9
$PUCSNAME
  2

  9
$PUCSORG
 10
0.0
 20
0.0
 30
0.0
  9
$PUCSXDIR
 10
1.0
 20
0.0
 30
0.0
  9
$PUCSYDIR
 10
0.0
 20
1.0
 30
0.0
  9
$PUCSORTHOREF
  2

  9
$PUCSORTHOVIEW
 70
     0
  9
$PUCSORGTOP
 10
0.0
 20
0.0
 30
0.0
  9
$PUCSORGBOTTOM
 10
0.0
 20
0.0
 30
0.0
  9
$PUCSORGLEFT
 10
0.0
 20
0.0
 30
0.0
  9
$PUCSORGRIGHT
 10
0.0
 20
0.0
 30
0.0
  9
$PUCSORGFRONT
 10
0.0
 20
0.0
 30
0.0
  9
$PUCSORGBACK
 10
0.0
 20
0.0
 30
0.0
  9
$USERI1
 70
     0
  9
$USERI2
 70
     0
  9
$USERI3
 70
     0
  9
$USERI4
 70
     0
  9
$USERI5
 70
     0
  9
$USERR1
 40
0.0
  9
$USERR2
 40
0.0
  9
$USERR3
 40
0.0
  9
$USERR4
 40
0.0
  9
$USERR5
 40
0.0
  9
$WORLDVIEW
 70
     1
  9
$SHADEDGE
 70
     3
  9
$SHADEDIF
 70
    70
  9
$TILEMODE
 70
     1
  9
$MAXACTVP
 70
    64
  9
$PINSBASE
 10
0.0
 20
0.0
 30
0.0
  9
$PLIMCHECK
 70
     0
  9
$PEXTMIN
 10
1.000000000000000E+20
 20
1.000000000000000E+20
 30
1.000000000000000E+20
  9
$PEXTMAX
 10
-1.000000000000000E+20
 20
-1.000000000000000E+20
 30
-1.000000000000000E+20
  9
$PLIMMIN
 10
0.0
 20
0.0
  9
$PLIMMAX
 10
0.0
 20
0.0
  9
$UNITMODE
 70
     0
  9
$VISRETAIN
 70
     1
  9
$PLINEGEN
 70
     0
  9
$PSLTSCALE
 70
     1
  9
$TREEDEPTH
 70
  3020
  9
$CMLSTYLE
  2
Standard
  9
$CMLJUST
 70
     0
  9
$CMLSCALE
 40
20.0
  9
$PROXYGRAPHICS
 70
     1
  9
$MEASUREMENT
 70
     1
  9
$CELWEIGHT
370
    -1
  9
$ENDCAPS
280
     0
  9
$JOINSTYLE
280
     0
  9
$LWDISPLAY
290
     1
  9
$INSUNITS
 70
     4
  9
$HYPERLINKBASE
  1

  9
$STYLESHEET
  1

  9
$XEDIT
290
     1
  9
$CEPSNTYPE
380
     0
  9
$PSTYLEMODE
290
     1
  9
$FINGERPRINTGUID
  2
{4CD76792-D395-4B8E-A152-6A9FFB77F938}
  9
$VERSIONGUID
  2
{FAEB1C32-E019-11D5-929B-00C0DF256EC4}
  9
$EXTNAMES
290
     1
  9
$PSVPSCALE
 40
0.0
  9
$OLESTARTUP
290
     0
  0
ENDSEC
  0
SECTION
  2
CLASSES
  0
CLASS
  1
ACDBDICTIONARYWDFLT
  2
AcDbDictionaryWithDefault
  3
ObjectDBX Classes
 90
        0
280
     0
281
     0
  0
CLASS
  1
VISUALSTYLE
  2
AcDbVisualStyle
  3
ObjectDBX Classes
 90
     4095
280
     0
281
     0
  0
CLASS
  1
MATERIAL
  2
AcDbMaterial
  3
ObjectDBX Classes
 90
     1153
280
     0
281
     0
  0
CLASS
  1
SCALE
  2
AcDbScale
  3
ObjectDBX Classes
 90
     1153
280
     0
281
     0
  0
CLASS
  1
SUN
  2
AcDbSun
  3
SCENEOE
 90
     1153
280
     0
281
     0
  0
CLASS
  1
ACDBPLACEHOLDER
  2
AcDbPlaceHolder
  3
ObjectDBX Classes
 90
        0
280
     0
281
     0
  0
CLASS
  1
LAYOUT
  2
AcDbLayout
  3
ObjectDBX Classes
 90
        0
280
     0
281
     0
  0
CLASS
  1
TABLESTYLE
  2
AcDbTableStyle
  3
ObjectDBX Classes
 90
     4095
280
     0
281
     0
  0
CLASS
  1
MLEADERSTYLE
  2
AcDbMLeaderStyle
  3
ACDB_MLEADERSTYLE_CLASS
 90
     4095
280
     0
281
     0
  0
CLASS
  1
RASTERVARIABLES
  2
AcDbRasterVariables
  3
ISM
 90
        0
280
     0
281
     0
  0
ENDSEC
  0
SECTION
  2
TABLES
  0
TABLE
  2
VPORT
  5
8
330
0
100
AcDbSymbolTable
 70
     1
  0
VPORT
  5
29
330
8
100
AcDbSymbolTableRecord
100
AcDbViewportTableRecord
  2
*Active
 70
     0
 10
0.0
 20
0.0
 11
1.0
 21
1.0
 12
-23.96069754485676
 22
17.61965944031137
 13
0.0
 23
0.0
 14
10.0
 24
10.0
 15
10.0
 25
10.0
 16
0.0
 26
0.0
 36
1.0
 17
0.0
 27
0.0
 37
0.0
 40
182.5178196523008
 41
1.638506876227898
 42
50.0
 43
0.0
 44
0.0
 50
0.0
 51
0.0
 71
    16
 72
  2000
 73
     1
 74
     3
 75
     0
 76
     0
 77
     0
 78
     0
281
     0
 65
     1
110
0.0
120
0.0
130
0.0
111
1.0
121
0.0
131
0.0
112
0.0
122
1.0
132
0.0
 79
     0
146
0.0
  0
ENDTAB
  0
TABLE
  2
LTYPE
  5
5
330
0
100
AcDbSymbolTable
 70
     6
  0
LTYPE
  5
14
330
5
100
AcDbSymbolTableRecord
100
AcDbLinetypeTableRecord
  2
ByBlock
 70
     0
  3

 72
    65
 73
     0
 40
0.0
  0
LTYPE
  5
15
330
5
100
AcDbSymbolTableRecord
100
AcDbLinetypeTableRecord
  2
ByLayer
 70
     0
  3

 72
    65
 73
     0
 40
0.0
  0
LTYPE
  5
16
330
5
100
AcDbSymbolTableRecord
100
AcDbLinetypeTableRecord
  2
Continuous
 70
     0
  3
Solid line
 72
    65
 73
     0
 40
0.0
  0
LTYPE
  5
6A
330
5
100
AcDbSymbolTableRecord
100
AcDbLinetypeTableRecord
  2
HIDDEN
 70
     0
  3
Hidden __ __ __ __ __ __ __ __ __ __ __ __ __ __
 72
    65
 73
     2
 40
1.905
 49
1.27
 74
     0
 49
-0.635
 74
     0
  0
LTYPE
  5
6B
330
5
100
AcDbSymbolTableRecord
100
AcDbLinetypeTableRecord
  2
PHANTOM
 70
     0
  3
Phantom ______  __  __  ______  __  __  ______
 72
    65
 73
     6
 40
12.7
 49
6.35
 74
     0
 49
-1.27
 74
     0
 49
1.27
 74
     0
 49
-1.27
 74
     0
 49
1.27
 74
     0
 49
-1.27
 74
     0
  0
LTYPE
  5
6C
330
5
100
AcDbSymbolTableRecord
100
AcDbLinetypeTableRecord
  2
CENTER
 70
     0
  3
Center ____ _ ____ _ ____ _ ____ _ ____ _ ____
 72
    65
 73
     4
 40
10.16
 49
6.35
 74
     0
 49
-1.27
 74
     0
 49
1.27
 74
     0
 49
-1.27
 74
     0
  0
LTYPE
  5
6D
330
5
100
AcDbSymbolTableRecord
100
AcDbLinetypeTableRecord
  2
CENTERX2
 70
     0
  3
Center (2x) ________  __  ________  __  _____
 72
    65
 73
     4
 40
20.32
 49
12.7
 74
     0
 49
-2.54
 74
     0
 49
2.54
 74
     0
 49
-2.54
 74
     0
  0
LTYPE
  5
6E
330
5
100
AcDbSymbolTableRecord
100
AcDbLinetypeTableRecord
  2
DOT2
 70
     0
  3
Dot (.5x) ........................................
 72
    65
 73
     2
 40
0.635
 49
0.0
 74
     0
 49
-0.635
 74
     0
  0
ENDTAB
  0
TABLE
  2
LAYER
  5
2
102
{ACAD_XDICTIONARY
360
1FB
102
}
330
0
100
AcDbSymbolTable
 70
    18
  0
LAYER
  5
10
330
2
100
AcDbSymbolTableRecord
100
AcDbLayerTableRecord
  2
0
 70
     0
 62
     7
  6
Continuous
370
    -3
390
F
  0
LAYER
  5
6F
330
2
100
AcDbSymbolTableRecord
100
AcDbLayerTableRecord
  2
FORMAT
 70
     0
 62
     2
  6
Continuous
370
    -3
390
F
  0
LAYER
  5
70
330
2
100
AcDbSymbolTableRecord
100
AcDbLayerTableRecord
  2
외형선
 70
     0
 62
     4
  6
Continuous
370
    30
390
F
  0
LAYER
  5
71
330
2
100
AcDbSymbolTableRecord
100
AcDbLayerTableRecord
  2
숨은선
 70
     0
 62
     2
  6
HIDDEN
370
    15
390
F
  0
LAYER
  5
72
330
2
100
AcDbSymbolTableRecord
100
AcDbLayerTableRecord
  2
중심선
 70
     0
 62
     1
  6
CENTERX2
370
    -3
390
F
  0
LAYER
  5
73
330
2
100
AcDbSymbolTableRecord
100
AcDbLayerTableRecord
  2
파단선
 70
     0
 62
     4
  6
Continuous
370
    -3
390
F
  0
LAYER
  5
74
330
2
100
AcDbSymbolTableRecord
100
AcDbLayerTableRecord
  2
해칭선
 70
     0
 62
   100
  6
Continuous
370
    -3
390
F
  0
LAYER
  5
75
330
2
100
AcDbSymbolTableRecord
100
AcDbLayerTableRecord
  2
가는실선
 70
     0
 62
     4
  6
Continuous
370
    -3
390
F
  0
LAYER
  5
76
330
2
100
AcDbSymbolTableRecord
100
AcDbLayerTableRecord
  2
치수_보조선
 70
     0
 62
     4
  6
Continuous
370
    -3
390
F
  0
LAYER
  5
77
330
2
100
AcDbSymbolTableRecord
100
AcDbLayerTableRecord
  2
치수문자_일반주서
 70
     0
 62
     7
  6
Continuous
370
    15
390
F
  0
LAYER
  5
78
330
2
100
AcDbSymbolTableRecord
100
AcDbLayerTableRecord
  2
개별주서
 70
     0
 62
   100
  6
Continuous
370
    30
390
F
  0
LAYER
  5
79
330
2
100
AcDbSymbolTableRecord
100
AcDbLayerTableRecord
  2
중간선
 70
     0
 62
     2
  6
Continuous
370
    15
390
F
  0
LAYER
  5
7A
330
2
100
AcDbSymbolTableRecord
100
AcDbLayerTableRecord
  2
윤곽선
 70
     0
 62
     3
  6
Continuous
370
    40
390
F
  0
LAYER
  5
7B
330
2
100
AcDbSymbolTableRecord
100
AcDbLayerTableRecord
  2
중심마크
 70
     0
 62
   100
  6
Continuous
370
    30
390
F
  0
LAYER
  5
7C
330
2
100
AcDbSymbolTableRecord
100
AcDbLayerTableRecord
  2
가상선
 70
     0
 62
     4
  6
PHANTOM
370
    -3
390
F
  0
LAYER
  5
7D
330
2
100
AcDbSymbolTableRecord
100
AcDbLayerTableRecord
  2
특수지정선
 70
     0
 62
     5
  6
CENTERX2
370
    60
390
F
  0
LAYER
  5
7E
330
2
100
AcDbSymbolTableRecord
100
AcDbLayerTableRecord
  2
참조1
 70
     0
 62
    -4
  6
Continuous
370
    -3
390
F
  0
LAYER
  5
148
330
2
100
AcDbSymbolTableRecord
100
AcDbLayerTableRecord
  2
Defpoints
 70
     0
 62
     7
  6
Continuous
290
     0
370
    -3
390
F
  0
ENDTAB
  0
TABLE
  2
STYLE
  5
3
330
0
100
AcDbSymbolTable
 70
     2
  0
STYLE
  5
11
330
3
100
AcDbSymbolTableRecord
100
AcDbTextStyleTableRecord
  2
Standard
 70
     0
 40
0.0
 41
1.0
 50
0.0
 71
     0
 42
3.5
  3
txt
  4

  0
STYLE
  5
94
330
3
100
AcDbSymbolTableRecord
100
AcDbTextStyleTableRecord
  2
SLDTEXTSTYLE0
 70
     0
 40
0.0
 41
0.75
 50
0.0
 71
     0
 42
3.5
  3
TXT
  4

  0
ENDTAB
  0
TABLE
  2
VIEW
  5
6
330
0
100
AcDbSymbolTable
 70
     0
  0
ENDTAB
  0
TABLE
  2
UCS
  5
7
330
0
100
AcDbSymbolTable
 70
     0
  0
ENDTAB
  0
TABLE
  2
APPID
  5
9
330
0
100
AcDbSymbolTable
 70
     1
  0
APPID
  5
12
330
9
100
AcDbSymbolTableRecord
100
AcDbRegAppTableRecord
  2
ACAD
 70
     0
  0
ENDTAB
  0
TABLE
  2
DIMSTYLE
  5
A
330
0
100
AcDbSymbolTable
 70
     4
100
AcDbDimStyleTable
  0
DIMSTYLE
105
27
330
A
100
AcDbSymbolTableRecord
100
AcDbDimStyleTableRecord
  2
ISO-25
 70
     0
 41
2.5
 42
0.625
 43
3.75
 44
1.25
 73
     0
 74
     0
 77
     1
 78
     8
140
2.5
141
2.5
143
0.03937007874016
147
0.625
171
     3
172
     1
178
     0
271
     2
272
     2
274
     3
278
    44
283
     0
284
     8
340
11
  0
DIMSTYLE
105
C5
102
{ACAD_REACTORS
330
C4
330
D9
330
101
330
EC
102
}
330
A
100
AcDbSymbolTableRecord
100
AcDbDimStyleTableRecord
  2
SLDDIMSTYLE0
 70
     0
 41
3.302
 44
0.0
 45
0.000000001
 73
     0
 74
     0
 77
     1
 78
    12
 79
     3
140
3.5
143
0.0393700787401575
147
0.875
148
0.000000001
170
     1
173
     1
178
     0
271
     2
272
     2
276
     2
284
    12
340
94
  0
DIMSTYLE
105
ED
330
A
100
AcDbSymbolTableRecord
100
AcDbDimStyleTableRecord
  2
SLDDIMSTYLE1
 70
     0
 41
3.302
 44
0.0
 45
0.000000001
 73
     0
 74
     0
 77
     1
 78
     4
 79
     1
140
3.5
143
0.0393700787401575
147
0.875
148
0.000000001
170
     1
172
     1
173
     1
178
     0
271
     2
272
     2
276
     2
284
    12
289
     0
340
94
  0
DIMSTYLE
105
102
330
A
100
AcDbSymbolTableRecord
100
AcDbDimStyleTableRecord
  2
SLDDIMSTYLE2
 70
     0
 41
3.302
 44
0.0
 45
0.000000001
 73
     0
 74
     0
 77
     1
 78
     4
 79
     1
140
3.5
143
0.0393700787401575
147
0.875
148
0.000000001
170
     1
173
     1
178
     0
271
     2
272
     2
276
     2
284
    12
340
94
  0
ENDTAB
  0
TABLE
  2
BLOCK_RECORD
  5
1
330
0
100
AcDbSymbolTable
 70
    24
  0
BLOCK_RECORD
  5
1F
330
1
100
AcDbSymbolTableRecord
100
AcDbBlockTableRecord
  2
*Model_Space
340
22
  0
BLOCK_RECORD
  5
1B
330
1
100
AcDbSymbolTableRecord
100
AcDbBlockTableRecord
  2
*Paper_Space
340
1E
  0
BLOCK_RECORD
  5
23
330
1
100
AcDbSymbolTableRecord
100
AcDbBlockTableRecord
  2
*Paper_Space0
340
26
  0
BLOCK_RECORD
  5
7F
330
1
100
AcDbSymbolTableRecord
100
AcDbBlockTableRecord
  2
블럭10
340
0
102
{BLKREFS
331
BD
102
}
  0
BLOCK_RECORD
  5
C6
330
1
100
AcDbSymbolTableRecord
100
AcDbBlockTableRecord
  2
_D
340
0
  0
BLOCK_RECORD
  5
DA
330
1
100
AcDbSymbolTableRecord
100
AcDbBlockTableRecord
  2
_D_1
340
0
  0
BLOCK_RECORD
  5
EE
330
1
100
AcDbSymbolTableRecord
100
AcDbBlockTableRecord
  2
_D_2
340
0
  0
BLOCK_RECORD
  5
103
330
1
100
AcDbSymbolTableRecord
100
AcDbBlockTableRecord
  2
_D_3
340
0
  0
BLOCK_RECORD
  5
11C
330
1
100
AcDbSymbolTableRecord
100
AcDbBlockTableRecord
  2
SW_DOWELSYMBOL_0
340
0
102
{BLKREFS
331
122
102
}
  0
BLOCK_RECORD
  5
1FF
330
1
100
AcDbSymbolTableRecord
100
AcDbBlockTableRecord
  2
*D7
340
0
  0
BLOCK_RECORD
  5
20C
330
1
100
AcDbSymbolTableRecord
100
AcDbBlockTableRecord
  2
*D8
340
0
  0
BLOCK_RECORD
  5
218
330
1
100
AcDbSymbolTableRecord
100
AcDbBlockTableRecord
  2
*D9
340
0
  0
BLOCK_RECORD
  5
224
330
1
100
AcDbSymbolTableRecord
100
AcDbBlockTableRecord
  2
*D10
340
0
  0
BLOCK_RECORD
  5
285
330
1
100
AcDbSymbolTableRecord
100
AcDbBlockTableRecord
  2
*D11
340
0
  0
BLOCK_RECORD
  5
292
330
1
100
AcDbSymbolTableRecord
100
AcDbBlockTableRecord
  2
*D12
340
0
  0
BLOCK_RECORD
  5
29E
330
1
100
AcDbSymbolTableRecord
100
AcDbBlockTableRecord
  2
*D13
340
0
  0
BLOCK_RECORD
  5
2AA
330
1
100
AcDbSymbolTableRecord
100
AcDbBlockTableRecord
  2
*D14
340
0
  0
BLOCK_RECORD
  5
333
330
1
100
AcDbSymbolTableRecord
100
AcDbBlockTableRecord
  2
*D15
340
0
  0
BLOCK_RECORD
  5
340
330
1
100
AcDbSymbolTableRecord
100
AcDbBlockTableRecord
  2
*D16
340
0
  0
BLOCK_RECORD
  5
34C
330
1
100
AcDbSymbolTableRecord
100
AcDbBlockTableRecord
  2
*D17
340
0
  0
BLOCK_RECORD
  5
37E
330
1
100
AcDbSymbolTableRecord
100
AcDbBlockTableRecord
  2
*D18
340
0
  0
BLOCK_RECORD
  5
38B
330
1
100
AcDbSymbolTableRecord
100
AcDbBlockTableRecord
  2
*D19
340
0
  0
BLOCK_RECORD
  5
397
330
1
100
AcDbSymbolTableRecord
100
AcDbBlockTableRecord
  2
*D20
340
0
  0
BLOCK_RECORD
  5
41E
330
1
100
AcDbSymbolTableRecord
100
AcDbBlockTableRecord
  2
*D21
340
0
  0
BLOCK_RECORD
  5
42B
330
1
100
AcDbSymbolTableRecord
100
AcDbBlockTableRecord
  2
*D22
340
0
  0
BLOCK_RECORD
  5
437
330
1
100
AcDbSymbolTableRecord
100
AcDbBlockTableRecord
  2
*D23
340
0
  0
ENDTAB
  0
ENDSEC
  0
SECTION
  2
BLOCKS
  0
BLOCK
  5
20
330
1F
100
AcDbEntity
  8
0
100
AcDbBlockBegin
  2
*Model_Space
 70
     0
 10
0.0
 20
0.0
 30
0.0
  3
*Model_Space
  1
*Model_Space
  0
ENDBLK
  5
21
330
1F
100
AcDbEntity
  8
0
100
AcDbBlockEnd
  0
BLOCK
  5
1C
330
1B
100
AcDbEntity
 67
     1
  8
0
100
AcDbBlockBegin
  2
*Paper_Space
 70
     0
 10
0.0
 20
0.0
 30
0.0
  3
*Paper_Space
  1
*Paper_Space
  0
ENDBLK
  5
1D
330
1B
100
AcDbEntity
 67
     1
  8
0
100
AcDbBlockEnd
  0
BLOCK
  5
24
330
23
100
AcDbEntity
  8
0
100
AcDbBlockBegin
  2
*Paper_Space0
 70
     0
 10
0.0
 20
0.0
 30
0.0
  3
*Paper_Space0
  1
*Paper_Space0
  0
ENDBLK
  5
25
330
23
100
AcDbEntity
  8
0
100
AcDbBlockEnd
  0
BLOCK
  5
80
330
7F
100
AcDbEntity
  8
0
100
AcDbBlockBegin
  2
블럭10
 70
     2
 10
0.0
 20
0.0
 30
0.0
  3
블럭10
  1
블럭10
  0
ELLIPSE
  5
82
330
7F
100
AcDbEntity
  8
중심선
100
AcDbEllipse
 10
20.54032771741204
 20
12.0471743016438
 30
0.0
 11
6.600054785286829
 21
-1.261213355974178E-13
 31
0.0
210
0.0
220
0.0
230
1.0
 40
0.636358354079598
 41
0.9219305317359503
 42
6.513795318482858
  0
ELLIPSE
  5
83
330
7F
100
AcDbEntity
  8
중심선
100
AcDbEllipse
 10
20.54032771746488
 20
12.04717430159265
 30
0.0
 11
3.960054785062283
 21
1.540847449632565E-10
 31
0.0
210
0.0
220
0.0
230
1.0
 40
0.3939339440162632
 41
1.131841032648279
 42
5.62031148352944
  0
LINE
  5
84
330
7F
100
AcDbEntity
  8
중심선
100
AcDbLine
 10
2.268634060543552
 20
16.24717430164393
 30
0.0
 11
5.714909304380834
 21
16.24717430164393
 31
0.0
  0
LINE
  5
85
330
7F
100
AcDbEntity
  8
중심선
100
AcDbLine
 10
5.245725140726316
 20
7.84717430164391
 30
0.0
 11
8.692000384563599
 21
7.84717430164391
 31
0.0
  0
LINE
  5
86
330
7F
100
AcDbEntity
  8
중심선
100
AcDbLine
 10
15.74043728645272
 20
16.24717430164393
 30
0.0
 11
8.692000384563599
 21
7.84717430164391
 31
0.0
  0
LINE
  5
87
330
7F
100
AcDbEntity
  8
중심선
100
AcDbLine
 10
0.1404042013395286
 20
13.71084872107135
 30
0.0
 11
3.58671253028996
 21
13.71088815037384
 31
0.0
  0
LINE
  5
88
330
7F
100
AcDbEntity
  8
중심선
100
AcDbLine
 10
2.750260043222114
 20
10.84717430164391
 30
0.0
 11
6.196535287059397
 21
10.84717430164391
 31
0.0
  0
LINE
  5
89
330
7F
100
AcDbEntity
  8
중심선
100
AcDbLine
 10
12.29416204261559
 20
16.24717430164393
 30
0.0
 11
5.245725140726316
 21
7.84717430164391
 31
0.0
  0
LINE
  5
8A
330
7F
100
AcDbEntity
  8
중심선
100
AcDbLine
 10
10.72767329541681
 20
16.24717430164393
 30
0.0
 11
6.196535287059397
 21
10.84717430164391
 31
0.0
  0
LINE
  5
8B
330
7F
100
AcDbEntity
  8
중심선
100
AcDbLine
 10
7.28139805157953
 20
16.24717430164393
 30
0.0
 11
2.750260043222114
 21
10.84717430164391
 31
0.0
  0
LINE
  5
8C
330
7F
100
AcDbEntity
  8
중심선
100
AcDbLine
 10
5.714909304380834
 20
16.24717430164393
 30
0.0
 11
3.58671253028996
 21
13.71088815037384
 31
0.0
  0
LINE
  5
8D
330
7F
100
AcDbEntity
  8
중심선
100
AcDbLine
 10
2.268634060543552
 20
16.24717430164393
 30
0.0
 11
0.1404042013395286
 21
13.71084872107135
 31
0.0
  0
LINE
  5
8E
330
7F
100
AcDbEntity
  8
중심선
100
AcDbLine
 10
7.28139805157953
 20
16.24717430164393
 30
0.0
 11
10.72767329541681
 21
16.24717430164393
 31
0.0
  0
LINE
  5
8F
330
7F
100
AcDbEntity
  8
중심선
100
AcDbLine
 10
12.29416204261559
 20
16.24717430164393
 30
0.0
 11
15.74043728645272
 21
16.24717430164393
 31
0.0
  0
LINE
  5
90
330
7F
100
AcDbEntity
  8
중심선
100
AcDbLine
 10
19.22036997980202
 20
11.08717430171403
 30
0.0
 11
23.66174974927406
 21
11.08717430171406
 31
0.0
  0
LINE
  5
91
330
7F
100
AcDbEntity
  8
중심선
100
AcDbLine
 10
19.22039502424796
 20
13.00717430171391
 30
0.0
 11
19.22036997980202
 21
11.08717430171403
 31
0.0
  0
LINE
  5
92
330
7F
100
AcDbEntity
  8
중심선
100
AcDbLine
 10
19.22039502424796
 20
13.00717430171391
 30
0.0
 11
26.96566020931264
 21
13.00717430171391
 31
0.0
  0
LINE
  5
93
330
7F
100
AcDbEntity
  8
중심선
100
AcDbLine
 10
22.22332737316547
 20
13.45928029700563
 30
0.0
 11
24.52862924686651
 21
15.39360700705356
 31
0.0
  0
ATTDEF
  5
95
330
7F
100
AcDbEntity
  8
FORMAT
 62
     2
100
AcDbText
 10
4.408487351596664
 20
2.075366912832191
 30
0.0
 40
4.233333333333333
  1
E1112032
 41
0.75
  7
SLDTEXTSTYLE0
 11
4.408487351596664
 21
-0.0412997538344756
 31
0.0
100
AcDbAttributeDefinition
  3

  2
AUTOATTR0
 70
     0
 74
     1
  0
ENDBLK
  5
81
330
7F
100
AcDbEntity
  8
0
100
AcDbBlockEnd
  0
BLOCK
  5
C7
330
C6
100
AcDbEntity
  8
0
100
AcDbBlockBegin
  2
_D
 70
     0
 10
0.0
 20
0.0
 30
0.0
  3
_D
  1
_D
  0
LINE
  5
C9
330
C6
100
AcDbEntity
  8
0
  6
Continuous
 62
     0
370
    -2
100
AcDbLine
 10
47.6875
 20
6.412500000000025
 30
0.0
 11
47.6875
 21
15.23049030816912
 31
0.0
  0
LINE
  5
CA
330
C6
100
AcDbEntity
  8
0
  6
Continuous
 62
     0
370
    -2
100
AcDbLine
 10
26.9875
 20
4.906427656236894
 30
0.0
 11
26.9875
 21
15.23049030816912
 31
0.0
  0
LINE
  5
CB
330
C6
100
AcDbEntity
  8
0
  6
Continuous
 62
     0
370
    -2
100
AcDbLine
 10
26.9875
 20
15.23049030816912
 30
0.0
 11
-8.334624171437838
 21
15.23049030816912
 31
0.0
  0
LINE
  5
CC
330
C6
100
AcDbEntity
  8
0
  6
Continuous
 62
     0
370
    -2
100
AcDbLine
 10
44.3855
 20
15.23049030816912
 30
0.0
 11
30.2895
 21
15.23049030816912
 31
0.0
  0
SOLID
  5
CD
330
C6
100
AcDbEntity
  8
0
 62
     0
100
AcDbTrace
 10
44.3855
 20
14.68015697483578
 30
0.0
 11
44.3855
 21
15.78082364150245
 31
0.0
 12
47.6875
 22
15.23049030816912
 32
0.0
 13
47.6875
 23
15.23049030816912
 33
0.0
  0
SOLID
  5
CE
330
C6
100
AcDbEntity
  8
0
 62
     0
100
AcDbTrace
 10
30.2895
 20
15.78082364150245
 30
0.0
 11
30.2895
 21
14.68015697483578
 31
0.0
 12
26.9875
 22
15.23049030816912
 32
0.0
 13
26.9875
 23
15.23049030816912
 33
0.0
  0
MTEXT
  5
CF
330
C6
100
AcDbEntity
  8
0
 62
     0
370
    15
100
AcDbMText
 10
5.009125828562162
 20
19.60549030816912
 30
0.0
 40
3.5
 41
0.0
 71
     2
 72
     1
  1
\A1;20.7 [13/16]
  7
SLDTEXTSTYLE0
 73
     1
 44
1.0
  0
POINT
  5
D0
330
C6
100
AcDbEntity
  8
Defpoints
 62
     0
100
AcDbPoint
 10
47.6875
 20
6.350000000000025
 30
0.0
  0
POINT
  5
D1
330
C6
100
AcDbEntity
  8
Defpoints
 62
     0
100
AcDbPoint
 10
26.9875
 20
4.843927656236894
 30
0.0
  0
POINT
  5
D2
330
C6
100
AcDbEntity
  8
Defpoints
 62
     0
100
AcDbPoint
 10
26.9875
 20
15.23049030816912
 30
0.0
  0
ENDBLK
  5
C8
330
C6
100
AcDbEntity
  8
0
100
AcDbBlockEnd
  0
BLOCK
  5
DB
330
DA
100
AcDbEntity
  8
0
100
AcDbBlockBegin
  2
_D_1
 70
     0
 10
0.0
 20
0.0
 30
0.0
  3
_D_1
  1
_D_1
  0
LINE
  5
DD
330
DA
100
AcDbEntity
  8
0
  6
Continuous
 62
     0
370
    -2
100
AcDbLine
 10
47.6875
 20
6.412500000000025
 30
0.0
 11
47.6875
 21
29.28797898817498
 31
0.0
  0
LINE
  5
DE
330
DA
100
AcDbEntity
  8
0
  6
Continuous
 62
     0
370
    -2
100
AcDbLine
 10
-47.625
 20
6.412499999999993
 30
0.0
 11
-47.625
 21
29.28797898817498
 31
0.0
  0
LINE
  5
DF
330
DA
100
AcDbEntity
  8
0
  6
Continuous
 62
     0
370
    -2
100
AcDbLine
 10
44.3855
 20
29.28797898817498
 30
0.0
 11
-44.323
 21
29.28797898817498
 31
0.0
  0
SOLID
  5
E0
330
DA
100
AcDbEntity
  8
0
 62
     0
100
AcDbTrace
 10
44.3855
 20
28.73764565484164
 30
0.0
 11
44.3855
 21
29.83831232150831
 31
0.0
 12
47.6875
 22
29.28797898817498
 32
0.0
 13
47.6875
 23
29.28797898817498
 33
0.0
  0
SOLID
  5
E1
330
DA
100
AcDbEntity
  8
0
 62
     0
100
AcDbTrace
 10
-44.323
 20
29.83831232150831
 30
0.0
 11
-44.323
 21
28.73764565484164
 31
0.0
 12
-47.625
 22
29.28797898817498
 32
0.0
 13
-47.625
 23
29.28797898817498
 33
0.0
  0
MTEXT
  5
E2
330
DA
100
AcDbEntity
  8
0
 62
     0
370
    15
100
AcDbMText
 10
0.4168735043745606
 20
33.66297898817498
 30
0.0
 40
3.5
 41
0.0
 71
     2
 72
     1
  1
\A1;95.31 [3 3/4]
  7
SLDTEXTSTYLE0
 73
     1
 44
1.0
  0
POINT
  5
E3
330
DA
100
AcDbEntity
  8
Defpoints
 62
     0
100
AcDbPoint
 10
47.6875
 20
6.350000000000025
 30
0.0
  0
POINT
  5
E4
330
DA
100
AcDbEntity
  8
Defpoints
 62
     0
100
AcDbPoint
 10
-47.625
 20
6.349999999999993
 30
0.0
  0
POINT
  5
E5
330
DA
100
AcDbEntity
  8
Defpoints
 62
     0
100
AcDbPoint
 10
-47.625
 20
29.28797898817498
 30
0.0
  0
ENDBLK
  5
DC
330
DA
100
AcDbEntity
  8
0
100
AcDbBlockEnd
  0
BLOCK
  5
EF
330
EE
100
AcDbEntity
  8
0
100
AcDbBlockBegin
  2
_D_2
 70
     0
 10
0.0
 20
0.0
 30
0.0
  3
_D_2
  1
_D_2
  0
LINE
  5
F1
330
EE
100
AcDbEntity
  8
0
  6
Continuous
 62
     0
370
    -2
100
AcDbLine
 10
-25.01966055055583
 20
6.349999999999998
 30
0.0
 11
-60.05500000000001
 21
6.349999999999866
 31
0.0
  0
LINE
  5
F2
330
EE
100
AcDbEntity
  8
0
  6
Continuous
 62
     0
370
    -2
100
AcDbLine
 10
-25.01966055055583
 20
-6.350000000000003
 30
0.0
 11
-60.05499999999997
 21
-6.350000000000135
 31
0.0
  0
LINE
  5
F3
330
EE
100
AcDbEntity
  8
0
  6
Continuous
 62
     0
370
    -2
100
AcDbLine
 10
-60.055
 20
3.047999999999867
 30
0.0
 11
-60.05499999999999
 21
-3.048000000000135
 31
0.0
  0
SOLID
  5
F4
330
EE
100
AcDbEntity
  8
0
 62
     0
100
AcDbTrace
 10
-59.50466666666667
 20
3.047999999999869
 30
0.0
 11
-60.60533333333333
 21
3.047999999999865
 31
0.0
 12
-60.05500000000001
 22
6.349999999999866
 32
0.0
 13
-60.05500000000001
 23
6.349999999999866
 33
0.0
  0
SOLID
  5
F5
330
EE
100
AcDbEntity
  8
0
 62
     0
100
AcDbTrace
 10
-60.60533333333332
 20
-3.048000000000137
 30
0.0
 11
-59.50466666666665
 21
-3.048000000000133
 31
0.0
 12
-60.05499999999997
 22
-6.350000000000135
 32
0.0
 13
-60.05499999999997
 23
-6.350000000000135
 33
0.0
  0
MTEXT
  5
F6
330
EE
100
AcDbEntity
  8
0
 62
     0
370
    15
100
AcDbMText
 10
-64.42999999999999
 20
-0.0000000000000172
 30
0.0
 40
3.5
 41
0.0
 71
     2
 72
     1
  1
\A1;%%c12.7 [1/2]
  7
SLDTEXTSTYLE0
 11
-3.356894814614646E-15
 21
1.0
 31
0.0
 73
     1
 44
1.0
  0
POINT
  5
F7
330
EE
100
AcDbEntity
  8
Defpoints
 62
     0
100
AcDbPoint
 10
-24.95716055055583
 20
6.349999999999998
 30
0.0
  0
POINT
  5
F8
330
EE
100
AcDbEntity
  8
Defpoints
 62
     0
100
AcDbPoint
 10
-24.95716055055583
 20
-6.350000000000003
 30
0.0
  0
POINT
  5
F9
330
EE
100
AcDbEntity
  8
Defpoints
 62
     0
100
AcDbPoint
 10
-60.05499999999996
 20
-6.350000000000135
 30
0.0
  0
ENDBLK
  5
F0
330
EE
100
AcDbEntity
  8
0
100
AcDbBlockEnd
  0
BLOCK
  5
104
330
103
100
AcDbEntity
  8
0
100
AcDbBlockBegin
  2
_D_3
 70
     0
 10
0.0
 20
0.0
 30
0.0
  3
_D_3
  1
_D_3
  0
LINE
  5
106
330
103
100
AcDbEntity
  8
0
  6
Continuous
 62
     0
370
    -2
100
AcDbLine
 10
47.6875
 20
6.350000000000025
 30
0.0
 11
61.03743490650324
 21
6.350000000000074
 31
0.0
  0
LINE
  5
107
330
103
100
AcDbEntity
  8
0
  6
Continuous
 62
     0
370
    -2
100
AcDbLine
 10
47.68749999999999
 20
-6.349999999999977
 30
0.0
 11
61.03743490650329
 21
-6.349999999999927
 31
0.0
  0
LINE
  5
108
330
103
100
AcDbEntity
  8
0
  6
Continuous
 62
     0
370
    -2
100
AcDbLine
 10
61.03743490650324
 20
6.350000000000074
 30
0.0
 11
61.03743490650315
 21
34.15200000000007
 31
0.0
  0
LINE
  5
109
330
103
100
AcDbEntity
  8
0
  6
Continuous
 62
     0
370
    -2
100
AcDbLine
 10
61.03743490650326
 20
3.048000000000075
 30
0.0
 11
61.03743490650327
 21
-3.047999999999927
 31
0.0
  0
SOLID
  5
10A
330
103
100
AcDbEntity
  8
0
 62
     0
100
AcDbTrace
 10
61.58776823983659
 20
3.048000000000076
 30
0.0
 11
60.48710157316992
 21
3.048000000000073
 31
0.0
 12
61.03743490650324
 22
6.350000000000074
 32
0.0
 13
61.03743490650324
 23
6.350000000000074
 33
0.0
  0
SOLID
  5
10B
330
103
100
AcDbEntity
  8
0
 62
     0
100
AcDbTrace
 10
60.48710157316994
 20
-3.047999999999929
 30
0.0
 11
61.58776823983661
 21
-3.047999999999925
 31
0.0
 12
61.03743490650329
 22
-6.349999999999927
 32
0.0
 13
61.03743490650329
 23
-6.349999999999927
 33
0.0
  0
MTEXT
  5
10C
330
103
100
AcDbEntity
  8
0
 62
     0
370
    15
100
AcDbMText
 10
56.66243490650319
 20
21.90200000000006
 30
0.0
 40
3.5
 41
0.0
 71
     2
 72
     1
  1
\A1;%%c12.7 [1/2]
  7
SLDTEXTSTYLE0
 11
-3.356894814614646E-15
 21
1.0
 31
0.0
 73
     1
 44
1.0
  0
POINT
  5
10D
330
103
100
AcDbEntity
  8
Defpoints
 62
     0
100
AcDbPoint
 10
47.625
 20
6.350000000000025
 30
0.0
  0
POINT
  5
10E
330
103
100
AcDbEntity
  8
Defpoints
 62
     0
100
AcDbPoint
 10
47.62499999999999
 20
-6.349999999999977
 30
0.0
  0
POINT
  5
10F
330
103
100
AcDbEntity
  8
Defpoints
 62
     0
100
AcDbPoint
 10
61.03743490650329
 20
-6.349999999999927
 30
0.0
  0
ENDBLK
  5
105
330
103
100
AcDbEntity
  8
0
100
AcDbBlockEnd
  0
BLOCK
  5
11D
330
11C
100
AcDbEntity
  8
0
100
AcDbBlockBegin
  2
SW_DOWELSYMBOL_0
 70
     0
 10
0.0
 20
0.0
 30
0.0
  3
SW_DOWELSYMBOL_0
  1
SW_DOWELSYMBOL_0
  0
CIRCLE
  5
11F
330
11C
100
AcDbEntity
  8
해칭선
 62
     0
100
AcDbCircle
 10
0.0
 20
0.0
 30
0.0
 40
3.000000000000001
  0
HATCH
  5
120
330
11C
100
AcDbEntity
  8
0
  6
Continuous
 62
     0
370
     0
100
AcDbHatch
 10
0.0
 20
0.0
 30
0.0
210
0.0
220
0.0
230
1.0
  2
SOLID
 70
     1
 71
     0
 91
        1
 92
        0
 93
        3
 72
     2
 10
0.0
 20
0.0
 40
3.000000000000001
 50
0.0
 51
90.0
 73
     1
 72
     1
 10
0.0
 20
3.000000000000001
 11
0.0
 21
0.0
 72
     1
 10
0.0
 20
0.0
 11
3.000000000000001
 21
0.0
 97
        0
 75
     0
 76
     1
 98
        1
 10
0.0
 20
0.0
  0
HATCH
  5
121
330
11C
100
AcDbEntity
  8
0
  6
Continuous
 62
     0
370
     0
100
AcDbHatch
 10
0.0
 20
0.0
 30
0.0
210
0.0
220
0.0
230
1.0
  2
SOLID
 70
     1
 71
     0
 91
        1
 92
        0
 93
        3
 72
     2
 10
0.0
 20
0.0
 40
3.000000000000001
 50
180.0
 51
270.0000000000007
 73
     1
 72
     1
 10
0.0
 20
-3.000000000000001
 11
0.0
 21
0.0
 72
     1
 10
0.0
 20
0.0
 11
-3.000000000000001
 21
0.0
 97
        0
 75
     0
 76
     1
 98
        1
 10
0.0
 20
0.0
  0
ENDBLK
  5
11E
330
11C
100
AcDbEntity
  8
0
100
AcDbBlockEnd
  0
BLOCK
  5
200
330
1FF
100
AcDbEntity
  8
0
100
AcDbBlockBegin
  2
*D7
 70
     1
 10
0.0
 20
0.0
 30
0.0
  3
*D7
  1
*D8
  0
LINE
  5
202
330
1FF
100
AcDbEntity
  8
0
  6
Continuous
 62
     0
370
    -2
100
AcDbLine
 10
112.055
 20
16.99375000000003
 30
0.0
 11
112.055
 21
24.41328789224009
 31
0.0
  0
LINE
  5
203
330
1FF
100
AcDbEntity
  8
0
  6
Continuous
 62
     0
370
    -2
100
AcDbLine
 10
91.41750000000003
 20
16.47613005354381
 30
0.0
 11
91.41750000000003
 21
24.41328789224009
 31
0.0
  0
LINE
  5
204
330
1FF
100
AcDbEntity
  8
0
  6
Continuous
 62
     0
370
    -2
100
AcDbLine
 10
91.41750000000003
 20
24.41328789224009
 30
0.0
 11
58.80300000000003
 21
24.41328789224009
 31
0.0
  0
LINE
  5
205
330
1FF
100
AcDbEntity
  8
0
  6
Continuous
 62
     0
370
    -2
100
AcDbLine
 10
108.753
 20
24.41328789224009
 30
0.0
 11
94.71950000000004
 21
24.41328789224009
 31
0.0
  0
SOLID
  5
206
330
1FF
100
AcDbEntity
  8
0
 62
     0
100
AcDbTrace
 10
108.753
 20
23.86295455890676
 30
0.0
 11
108.753
 21
24.96362122557343
 31
0.0
 12
112.055
 22
24.41328789224009
 32
0.0
 13
112.055
 23
24.41328789224009
 33
0.0
  0
SOLID
  5
207
330
1FF
100
AcDbEntity
  8
0
 62
     0
100
AcDbTrace
 10
94.71950000000004
 20
24.96362122557343
 30
0.0
 11
94.71950000000004
 21
23.86295455890676
 31
0.0
 12
91.41750000000003
 22
24.41328789224009
 32
0.0
 13
91.41750000000003
 23
24.41328789224009
 33
0.0
  0
MTEXT
  5
208
330
1FF
100
AcDbEntity
  8
0
 62
     0
370
    15
100
AcDbMText
 10
73.45925000000003
 20
28.78828789224009
 30
0.0
 40
3.5
 41
0.0
 71
     2
 72
     1
  1
\A1;20.64 [13/16]
  7
SLDTEXTSTYLE0
 73
     1
 44
1.0
  0
POINT
  5
209
330
1FF
100
AcDbEntity
  8
Defpoints
 62
     0
100
AcDbPoint
 10
112.055
 20
16.93125000000003
 30
0.0
  0
POINT
  5
20A
330
1FF
100
AcDbEntity
  8
Defpoints
 62
     0
100
AcDbPoint
 10
91.41750000000003
 20
16.41363005354381
 30
0.0
  0
POINT
  5
20B
330
1FF
100
AcDbEntity
  8
Defpoints
 62
     0
100
AcDbPoint
 10
91.41750000000003
 20
24.41328789224009
 30
0.0
  0
ENDBLK
  5
201
330
1FF
100
AcDbEntity
  8
0
100
AcDbBlockEnd
  0
BLOCK
  5
20D
330
20C
100
AcDbEntity
  8
0
100
AcDbBlockBegin
  2
*D8
 70
     1
 10
0.0
 20
0.0
 30
0.0
  3
*D8
  1
*D9
  0
LINE
  5
20F
330
20C
100
AcDbEntity
  8
0
  6
Continuous
 62
     0
370
    -2
100
AcDbLine
 10
112.055
 20
16.99375000000003
 30
0.0
 11
112.055
 21
40.66297898817499
 31
0.0
  0
LINE
  5
210
330
20C
100
AcDbEntity
  8
0
  6
Continuous
 62
     0
370
    -2
100
AcDbLine
 10
16.80500000000004
 20
17.7875
 30
0.0
 11
16.80500000000004
 21
40.66297898817499
 31
0.0
  0
LINE
  5
211
330
20C
100
AcDbEntity
  8
0
  6
Continuous
 62
     0
370
    -2
100
AcDbLine
 10
108.753
 20
40.66297898817499
 30
0.0
 11
20.10700000000003
 21
40.66297898817499
 31
0.0
  0
SOLID
  5
212
330
20C
100
AcDbEntity
  8
0
 62
     0
100
AcDbTrace
 10
108.753
 20
40.11264565484166
 30
0.0
 11
108.753
 21
41.21331232150833
 31
0.0
 12
112.055
 22
40.66297898817499
 32
0.0
 13
112.055
 23
40.66297898817499
 33
0.0
  0
SOLID
  5
213
330
20C
100
AcDbEntity
  8
0
 62
     0
100
AcDbTrace
 10
20.10700000000003
 20
41.21331232150833
 30
0.0
 11
20.10700000000003
 21
40.11264565484166
 31
0.0
 12
16.80500000000004
 22
40.66297898817499
 32
0.0
 13
16.80500000000004
 23
40.66297898817499
 33
0.0
  0
MTEXT
  5
214
330
20C
100
AcDbEntity
  8
0
 62
     0
370
    15
100
AcDbMText
 10
64.8468735043746
 20
45.03797898817499
 30
0.0
 40
3.5
 41
0.0
 71
     2
 72
     1
  1
\A1;95.25 [3 3/4]
  7
SLDTEXTSTYLE0
 73
     1
 44
1.0
  0
POINT
  5
215
330
20C
100
AcDbEntity
  8
Defpoints
 62
     0
100
AcDbPoint
 10
112.055
 20
16.93125000000003
 30
0.0
  0
POINT
  5
216
330
20C
100
AcDbEntity
  8
Defpoints
 62
     0
100
AcDbPoint
 10
16.80500000000004
 20
17.725
 30
0.0
  0
POINT
  5
217
330
20C
100
AcDbEntity
  8
Defpoints
 62
     0
100
AcDbPoint
 10
16.80500000000004
 20
40.66297898817499
 30
0.0
  0
ENDBLK
  5
20E
330
20C
100
AcDbEntity
  8
0
100
AcDbBlockEnd
  0
BLOCK
  5
219
330
218
100
AcDbEntity
  8
0
100
AcDbBlockBegin
  2
*D9
 70
     1
 10
0.0
 20
0.0
 30
0.0
  3
*D9
  1
*D10
  0
LINE
  5
21B
330
218
100
AcDbEntity
  8
0
  6
Continuous
 62
     0
370
    -2
100
AcDbLine
 10
41.34231532850787
 20
17.72500000000001
 30
0.0
 11
4.37500000000002
 21
17.72499999999987
 31
0.0
  0
LINE
  5
21C
330
218
100
AcDbEntity
  8
0
  6
Continuous
 62
     0
370
    -2
100
AcDbLine
 10
41.34231532850787
 20
5.025000000000016
 30
0.0
 11
4.375000000000065
 21
5.024999999999878
 31
0.0
  0
LINE
  5
21D
330
218
100
AcDbEntity
  8
0
  6
Continuous
 62
     0
370
    -2
100
AcDbLine
 10
4.375000000000032
 20
14.42299999999987
 30
0.0
 11
4.375000000000053
 21
8.326999999999877
 31
0.0
  0
SOLID
  5
21E
330
218
100
AcDbEntity
  8
0
 62
     0
100
AcDbTrace
 10
4.925333333333366
 20
14.42299999999988
 30
0.0
 11
3.824666666666699
 21
14.42299999999987
 31
0.0
 12
4.37500000000002
 22
17.72499999999987
 32
0.0
 13
4.37500000000002
 23
17.72499999999987
 33
0.0
  0
SOLID
  5
21F
330
218
100
AcDbEntity
  8
0
 62
     0
100
AcDbTrace
 10
3.82466666666672
 20
8.326999999999876
 30
0.0
 11
4.925333333333387
 21
8.32699999999988
 31
0.0
 12
4.375000000000065
 22
5.024999999999878
 32
0.0
 13
4.375000000000065
 23
5.024999999999878
 33
0.0
  0
MTEXT
  5
220
330
218
100
AcDbEntity
  8
0
 62
     0
370
    15
100
AcDbMText
 10
0.0000000000000426
 20
11.37499999999999
 30
0.0
 40
3.5
 41
0.0
 71
     2
 72
     1
  1
\A1;%%c12.7 [1/2]
  7
SLDTEXTSTYLE0
 11
-3.496765431890258E-15
 21
1.0
 31
0.0
 73
     1
 44
1.0
  0
POINT
  5
221
330
218
100
AcDbEntity
  8
Defpoints
 62
     0
100
AcDbPoint
 10
41.40481532850787
 20
17.72500000000001
 30
0.0
  0
POINT
  5
222
330
218
100
AcDbEntity
  8
Defpoints
 62
     0
100
AcDbPoint
 10
41.40481532850787
 20
5.025000000000016
 30
0.0
  0
POINT
  5
223
330
218
100
AcDbEntity
  8
Defpoints
 62
     0
100
AcDbPoint
 10
4.375000000000064
 20
5.024999999999878
 30
0.0
  0
ENDBLK
  5
21A
330
218
100
AcDbEntity
  8
0
100
AcDbBlockEnd
  0
BLOCK
  5
225
330
224
100
AcDbEntity
  8
0
100
AcDbBlockBegin
  2
*D10
 70
     1
 10
0.0
 20
0.0
 30
0.0
  3
*D10
  1
*D11
  0
LINE
  5
227
330
224
100
AcDbEntity
  8
0
  6
Continuous
 62
     0
370
    -2
100
AcDbLine
 10
112.1175
 20
16.93125000000003
 30
0.0
 11
125.054116703234
 21
16.93125000000008
 31
0.0
  0
LINE
  5
228
330
224
100
AcDbEntity
  8
0
  6
Continuous
 62
     0
370
    -2
100
AcDbLine
 10
112.1175
 20
5.818750000000033
 30
0.0
 11
125.054116703234
 21
5.818750000000083
 31
0.0
  0
LINE
  5
229
330
224
100
AcDbEntity
  8
0
  6
Continuous
 62
     0
370
    -2
100
AcDbLine
 10
125.054116703234
 20
16.93125000000008
 30
0.0
 11
125.0541167032339
 21
47.3582500000001
 31
0.0
  0
LINE
  5
22A
330
224
100
AcDbEntity
  8
0
  6
Continuous
 62
     0
370
    -2
100
AcDbLine
 10
125.054116703234
 20
13.62925000000008
 30
0.0
 11
125.054116703234
 21
9.120750000000083
 31
0.0
  0
SOLID
  5
22B
330
224
100
AcDbEntity
  8
0
 62
     0
100
AcDbTrace
 10
125.6044500365673
 20
13.62925000000009
 30
0.0
 11
124.5037833699007
 21
13.62925000000008
 31
0.0
 12
125.054116703234
 22
16.93125000000008
 32
0.0
 13
125.054116703234
 23
16.93125000000008
 33
0.0
  0
SOLID
  5
22C
330
224
100
AcDbEntity
  8
0
 62
     0
100
AcDbTrace
 10
124.5037833699007
 20
9.120750000000081
 30
0.0
 11
125.6044500365674
 21
9.120750000000085
 31
0.0
 12
125.054116703234
 22
5.818750000000083
 32
0.0
 13
125.054116703234
 23
5.818750000000083
 33
0.0
  0
MTEXT
  5
22D
330
224
100
AcDbEntity
  8
0
 62
     0
370
    15
100
AcDbMText
 10
120.6791167032339
 20
33.79575000000008
 30
0.0
 40
3.5
 41
0.0
 71
     2
 72
     1
  1
\A1;%%c11.11 [7/16]
  7
SLDTEXTSTYLE0
 11
-3.836451216702453E-15
 21
1.0
 31
0.0
 73
     1
 44
1.0
  0
POINT
  5
22E
330
224
100
AcDbEntity
  8
Defpoints
 62
     0
100
AcDbPoint
 10
112.055
 20
16.93125000000003
 30
0.0
  0
POINT
  5
22F
330
224
100
AcDbEntity
  8
Defpoints
 62
     0
100
AcDbPoint
 10
112.055
 20
5.818750000000033
 30
0.0
  0
POINT
  5
230
330
224
100
AcDbEntity
  8
Defpoints
 62
     0
100
AcDbPoint
 10
125.054116703234
 20
5.818750000000081
 30
0.0
  0
ENDBLK
  5
226
330
224
100
AcDbEntity
  8
0
100
AcDbBlockEnd
  0
BLOCK
  5
286
330
285
100
AcDbEntity
  8
0
100
AcDbBlockBegin
  2
*D11
 70
     1
 10
0.0
 20
0.0
 30
0.0
  3
*D11
  1
*D12
  0
LINE
  5
288
330
285
100
AcDbEntity
  8
0
  6
Continuous
 62
     0
370
    -2
100
AcDbLine
 10
158.5106716405022
 20
-35.95143155279483
 30
0.0
 11
158.5106716405022
 21
-28.53189366055477
 31
0.0
  0
LINE
  5
289
330
285
100
AcDbEntity
  8
0
  6
Continuous
 62
     0
370
    -2
100
AcDbLine
 10
137.8731716405022
 20
-36.46905149925106
 30
0.0
 11
137.8731716405022
 21
-28.53189366055477
 31
0.0
  0
LINE
  5
28A
330
285
100
AcDbEntity
  8
0
  6
Continuous
 62
     0
370
    -2
100
AcDbLine
 10
137.8731716405022
 20
-28.53189366055477
 30
0.0
 11
105.2586716405022
 21
-28.53189366055477
 31
0.0
  0
LINE
  5
28B
330
285
100
AcDbEntity
  8
0
  6
Continuous
 62
     0
370
    -2
100
AcDbLine
 10
155.2086716405022
 20
-28.53189366055477
 30
0.0
 11
141.1751716405022
 21
-28.53189366055477
 31
0.0
  0
SOLID
  5
28C
330
285
100
AcDbEntity
  8
0
 62
     0
100
AcDbTrace
 10
155.2086716405022
 20
-29.08222699388811
 30
0.0
 11
155.2086716405022
 21
-27.98156032722144
 31
0.0
 12
158.5106716405022
 22
-28.53189366055477
 32
0.0
 13
158.5106716405022
 23
-28.53189366055477
 33
0.0
  0
SOLID
  5
28D
330
285
100
AcDbEntity
  8
0
 62
     0
100
AcDbTrace
 10
141.1751716405022
 20
-27.98156032722144
 30
0.0
 11
141.1751716405022
 21
-29.08222699388811
 31
0.0
 12
137.8731716405022
 22
-28.53189366055477
 32
0.0
 13
137.8731716405022
 23
-28.53189366055477
 33
0.0
  0
MTEXT
  5
28E
330
285
100
AcDbEntity
  8
0
 62
     0
370
    15
100
AcDbMText
 10
119.9149216405022
 20
-24.15689366055477
 30
0.0
 40
3.5
 41
0.0
 71
     2
 72
     1
  1
\A1;20.64 [13/16]
  7
SLDTEXTSTYLE0
 73
     1
 44
1.0
  0
POINT
  5
28F
330
285
100
AcDbEntity
  8
Defpoints
 62
     0
100
AcDbPoint
 10
158.5106716405022
 20
-36.01393155279483
 30
0.0
  0
POINT
  5
290
330
285
100
AcDbEntity
  8
Defpoints
 62
     0
100
AcDbPoint
 10
137.8731716405022
 20
-36.53155149925106
 30
0.0
  0
POINT
  5
291
330
285
100
AcDbEntity
  8
Defpoints
 62
     0
100
AcDbPoint
 10
137.8731716405022
 20
-28.53189366055477
 30
0.0
  0
ENDBLK
  5
287
330
285
100
AcDbEntity
  8
0
100
AcDbBlockEnd
  0
BLOCK
  5
293
330
292
100
AcDbEntity
  8
0
100
AcDbBlockBegin
  2
*D12
 70
     1
 10
0.0
 20
0.0
 30
0.0
  3
*D12
  1
*D13
  0
LINE
  5
295
330
292
100
AcDbEntity
  8
0
  6
Continuous
 62
     0
370
    -2
100
AcDbLine
 10
158.5106716405022
 20
-35.95143155279483
 30
0.0
 11
158.5106716405022
 21
-12.28220256461987
 31
0.0
  0
LINE
  5
296
330
292
100
AcDbEntity
  8
0
  6
Continuous
 62
     0
370
    -2
100
AcDbLine
 10
63.26067164050224
 20
-35.15768155279486
 30
0.0
 11
63.26067164050224
 21
-12.28220256461987
 31
0.0
  0
LINE
  5
297
330
292
100
AcDbEntity
  8
0
  6
Continuous
 62
     0
370
    -2
100
AcDbLine
 10
155.2086716405022
 20
-12.28220256461987
 30
0.0
 11
66.56267164050223
 21
-12.28220256461987
 31
0.0
  0
SOLID
  5
298
330
292
100
AcDbEntity
  8
0
 62
     0
100
AcDbTrace
 10
155.2086716405022
 20
-12.83253589795321
 30
0.0
 11
155.2086716405022
 21
-11.73186923128654
 31
0.0
 12
158.5106716405022
 22
-12.28220256461987
 32
0.0
 13
158.5106716405022
 23
-12.28220256461987
 33
0.0
  0
SOLID
  5
299
330
292
100
AcDbEntity
  8
0
 62
     0
100
AcDbTrace
 10
66.56267164050223
 20
-11.73186923128654
 30
0.0
 11
66.56267164050223
 21
-12.83253589795321
 31
0.0
 12
63.26067164050224
 22
-12.28220256461987
 32
0.0
 13
63.26067164050224
 23
-12.28220256461987
 33
0.0
  0
MTEXT
  5
29A
330
292
100
AcDbEntity
  8
0
 62
     0
370
    15
100
AcDbMText
 10
111.3025451448768
 20
-7.907202564619872
 30
0.0
 40
3.5
 41
0.0
 71
     2
 72
     1
  1
\A1;95.25 [3 3/4]
  7
SLDTEXTSTYLE0
 73
     1
 44
1.0
  0
POINT
  5
29B
330
292
100
AcDbEntity
  8
Defpoints
 62
     0
100
AcDbPoint
 10
158.5106716405022
 20
-36.01393155279483
 30
0.0
  0
POINT
  5
29C
330
292
100
AcDbEntity
  8
Defpoints
 62
     0
100
AcDbPoint
 10
63.26067164050224
 20
-35.22018155279486
 30
0.0
  0
POINT
  5
29D
330
292
100
AcDbEntity
  8
Defpoints
 62
     0
100
AcDbPoint
 10
63.26067164050224
 20
-12.28220256461987
 30
0.0
  0
ENDBLK
  5
294
330
292
100
AcDbEntity
  8
0
100
AcDbBlockEnd
  0
BLOCK
  5
29F
330
29E
100
AcDbEntity
  8
0
100
AcDbBlockBegin
  2
*D13
 70
     1
 10
0.0
 20
0.0
 30
0.0
  3
*D13
  1
*D14
  0
LINE
  5
2A1
330
29E
100
AcDbEntity
  8
0
  6
Continuous
 62
     0
370
    -2
100
AcDbLine
 10
87.79798696901007
 20
-35.22018155279486
 30
0.0
 11
50.83067164050222
 21
-35.220181552795
 31
0.0
  0
LINE
  5
2A2
330
29E
100
AcDbEntity
  8
0
  6
Continuous
 62
     0
370
    -2
100
AcDbLine
 10
87.79798696901007
 20
-47.92018155279484
 30
0.0
 11
50.83067164050227
 21
-47.92018155279499
 31
0.0
  0
LINE
  5
2A3
330
29E
100
AcDbEntity
  8
0
  6
Continuous
 62
     0
370
    -2
100
AcDbLine
 10
50.83067164050224
 20
-38.522181552795
 30
0.0
 11
50.83067164050225
 21
-44.61818155279499
 31
0.0
  0
SOLID
  5
2A4
330
29E
100
AcDbEntity
  8
0
 62
     0
100
AcDbTrace
 10
51.38100497383557
 20
-38.522181552795
 30
0.0
 11
50.2803383071689
 21
-38.522181552795
 31
0.0
 12
50.83067164050222
 22
-35.220181552795
 32
0.0
 13
50.83067164050222
 23
-35.220181552795
 33
0.0
  0
SOLID
  5
2A5
330
29E
100
AcDbEntity
  8
0
 62
     0
100
AcDbTrace
 10
50.28033830716892
 20
-44.61818155279499
 30
0.0
 11
51.38100497383559
 21
-44.61818155279499
 31
0.0
 12
50.83067164050227
 22
-47.92018155279499
 32
0.0
 13
50.83067164050227
 23
-47.92018155279499
 33
0.0
  0
MTEXT
  5
2A6
330
29E
100
AcDbEntity
  8
0
 62
     0
370
    15
100
AcDbMText
 10
46.45567164050225
 20
-41.57018155279487
 30
0.0
 40
3.5
 41
0.0
 71
     2
 72
     1
  1
\A1;%%c12.7 [1/2]
  7
SLDTEXTSTYLE0
 11
-3.356894814614651E-15
 21
1.0
 31
0.0
 73
     1
 44
1.0
  0
POINT
  5
2A7
330
29E
100
AcDbEntity
  8
Defpoints
 62
     0
100
AcDbPoint
 10
87.86048696901007
 20
-35.22018155279486
 30
0.0
  0
POINT
  5
2A8
330
29E
100
AcDbEntity
  8
Defpoints
 62
     0
100
AcDbPoint
 10
87.86048696901007
 20
-47.92018155279484
 30
0.0
  0
POINT
  5
2A9
330
29E
100
AcDbEntity
  8
Defpoints
 62
     0
100
AcDbPoint
 10
50.83067164050227
 20
-47.92018155279498
 30
0.0
  0
ENDBLK
  5
2A0
330
29E
100
AcDbEntity
  8
0
100
AcDbBlockEnd
  0
BLOCK
  5
2AB
330
2AA
100
AcDbEntity
  8
0
100
AcDbBlockBegin
  2
*D14
 70
     1
 10
0.0
 20
0.0
 30
0.0
  3
*D14
  1
*D15
  0
LINE
  5
2AD
330
2AA
100
AcDbEntity
  8
0
  6
Continuous
 62
     0
370
    -2
100
AcDbLine
 10
158.5731716405022
 20
-36.01393155279483
 30
0.0
 11
171.5097883437362
 21
-36.01393155279478
 31
0.0
  0
LINE
  5
2AE
330
2AA
100
AcDbEntity
  8
0
  6
Continuous
 62
     0
370
    -2
100
AcDbLine
 10
158.5731716405022
 20
-47.12643155279483
 30
0.0
 11
171.5097883437362
 21
-47.12643155279478
 31
0.0
  0
LINE
  5
2AF
330
2AA
100
AcDbEntity
  8
0
  6
Continuous
 62
     0
370
    -2
100
AcDbLine
 10
171.5097883437362
 20
-36.01393155279478
 30
0.0
 11
171.5097883437361
 21
-5.586931552794773
 31
0.0
  0
LINE
  5
2B0
330
2AA
100
AcDbEntity
  8
0
  6
Continuous
 62
     0
370
    -2
100
AcDbLine
 10
171.5097883437362
 20
-39.31593155279478
 30
0.0
 11
171.5097883437362
 21
-43.82443155279478
 31
0.0
  0
SOLID
  5
2B1
330
2AA
100
AcDbEntity
  8
0
 62
     0
100
AcDbTrace
 10
172.0601216770695
 20
-39.31593155279478
 30
0.0
 11
170.9594550104029
 21
-39.31593155279478
 31
0.0
 12
171.5097883437362
 22
-36.01393155279478
 32
0.0
 13
171.5097883437362
 23
-36.01393155279478
 33
0.0
  0
SOLID
  5
2B2
330
2AA
100
AcDbEntity
  8
0
 62
     0
100
AcDbTrace
 10
170.9594550104029
 20
-43.82443155279478
 30
0.0
 11
172.0601216770696
 21
-43.82443155279478
 31
0.0
 12
171.5097883437362
 22
-47.12643155279478
 32
0.0
 13
171.5097883437362
 23
-47.12643155279478
 33
0.0
  0
MTEXT
  5
2B3
330
2AA
100
AcDbEntity
  8
0
 62
     0
370
    15
100
AcDbMText
 10
167.1347883437361
 20
-19.14943155279478
 30
0.0
 40
3.5
 41
0.0
 71
     2
 72
     1
  1
\A1;%%c11.11 [7/16]
  7
SLDTEXTSTYLE0
 11
-2.557634144468301E-15
 21
1.0
 31
0.0
 73
     1
 44
1.0
  0
POINT
  5
2B4
330
2AA
100
AcDbEntity
  8
Defpoints
 62
     0
100
AcDbPoint
 10
158.5106716405022
 20
-36.01393155279483
 30
0.0
  0
POINT
  5
2B5
330
2AA
100
AcDbEntity
  8
Defpoints
 62
     0
100
AcDbPoint
 10
158.5106716405022
 20
-47.12643155279483
 30
0.0
  0
POINT
  5
2B6
330
2AA
100
AcDbEntity
  8
Defpoints
 62
     0
100
AcDbPoint
 10
171.5097883437363
 20
-47.12643155279478
 30
0.0
  0
ENDBLK
  5
2AC
330
2AA
100
AcDbEntity
  8
0
100
AcDbBlockEnd
  0
BLOCK
  5
334
330
333
100
AcDbEntity
  8
0
100
AcDbBlockBegin
  2
*D15
 70
     1
 10
0.0
 20
0.0
 30
0.0
  3
*D15
  1
*D17
  0
LINE
  5
336
330
333
100
AcDbEntity
  8
0
  6
Continuous
 62
     0
370
    -2
100
AcDbLine
 10
98.3125
 20
12.77529101832159
 30
0.0
 11
98.3125
 21
21.59328132649068
 31
0.0
  0
LINE
  5
337
330
333
100
AcDbEntity
  8
0
  6
Continuous
 62
     0
370
    -2
100
AcDbLine
 10
77.6125
 20
11.26921867455846
 30
0.0
 11
77.6125
 21
21.59328132649068
 31
0.0
  0
LINE
  5
338
330
333
100
AcDbEntity
  8
0
  6
Continuous
 62
     0
370
    -2
100
AcDbLine
 10
77.6125
 20
21.59328132649068
 30
0.0
 11
42.29037582856216
 21
21.59328132649068
 31
0.0
  0
LINE
  5
339
330
333
100
AcDbEntity
  8
0
  6
Continuous
 62
     0
370
    -2
100
AcDbLine
 10
95.01050000000001
 20
21.59328132649068
 30
0.0
 11
80.9145
 21
21.59328132649068
 31
0.0
  0
SOLID
  5
33A
330
333
100
AcDbEntity
  8
0
 62
     0
100
AcDbTrace
 10
95.01050000000001
 20
21.04294799315734
 30
0.0
 11
95.01050000000001
 21
22.14361465982401
 31
0.0
 12
98.3125
 22
21.59328132649068
 32
0.0
 13
98.3125
 23
21.59328132649068
 33
0.0
  0
SOLID
  5
33B
330
333
100
AcDbEntity
  8
0
 62
     0
100
AcDbTrace
 10
80.9145
 20
22.14361465982401
 30
0.0
 11
80.9145
 21
21.04294799315734
 31
0.0
 12
77.6125
 22
21.59328132649068
 32
0.0
 13
77.6125
 23
21.59328132649068
 33
0.0
  0
MTEXT
  5
33C
330
333
100
AcDbEntity
  8
0
 62
     0
370
    15
100
AcDbMText
 10
55.63412582856216
 20
25.96828132649068
 30
0.0
 40
3.5
 41
0.0
 71
     2
 72
     1
  1
\A1;20.7 [13/16]
  7
SLDTEXTSTYLE0
 73
     1
 44
1.0
  0
POINT
  5
33D
330
333
100
AcDbEntity
  8
Defpoints
 62
     0
100
AcDbPoint
 10
98.3125
 20
12.71279101832159
 30
0.0
  0
POINT
  5
33E
330
333
100
AcDbEntity
  8
Defpoints
 62
     0
100
AcDbPoint
 10
77.6125
 20
11.20671867455846
 30
0.0
  0
POINT
  5
33F
330
333
100
AcDbEntity
  8
Defpoints
 62
     0
100
AcDbPoint
 10
77.6125
 20
21.59328132649068
 30
0.0
  0
ENDBLK
  5
335
330
333
100
AcDbEntity
  8
0
100
AcDbBlockEnd
  0
BLOCK
  5
341
330
340
100
AcDbEntity
  8
0
100
AcDbBlockBegin
  2
*D16
 70
     1
 10
0.0
 20
0.0
 30
0.0
  3
*D16
  1
*D18
  0
LINE
  5
343
330
340
100
AcDbEntity
  8
0
  6
Continuous
 62
     0
370
    -2
100
AcDbLine
 10
98.3125
 20
12.77529101832159
 30
0.0
 11
98.3125
 21
35.65077000649654
 31
0.0
  0
LINE
  5
344
330
340
100
AcDbEntity
  8
0
  6
Continuous
 62
     0
370
    -2
100
AcDbLine
 10
3.0
 20
11.77529101832155
 30
0.0
 11
3.0
 21
35.65077000649654
 31
0.0
  0
LINE
  5
345
330
340
100
AcDbEntity
  8
0
  6
Continuous
 62
     0
370
    -2
100
AcDbLine
 10
95.01050000000001
 20
35.65077000649654
 30
0.0
 11
6.302
 21
35.65077000649654
 31
0.0
  0
SOLID
  5
346
330
340
100
AcDbEntity
  8
0
 62
     0
100
AcDbTrace
 10
95.01050000000001
 20
35.1004366731632
 30
0.0
 11
95.01050000000001
 21
36.20110333982987
 31
0.0
 12
98.3125
 22
35.65077000649654
 32
0.0
 13
98.3125
 23
35.65077000649654
 33
0.0
  0
SOLID
  5
347
330
340
100
AcDbEntity
  8
0
 62
     0
100
AcDbTrace
 10
6.302
 20
36.20110333982987
 30
0.0
 11
6.302
 21
35.1004366731632
 31
0.0
 12
3.0
 22
35.65077000649654
 32
0.0
 13
3.0
 23
35.65077000649654
 33
0.0
  0
MTEXT
  5
348
330
340
100
AcDbEntity
  8
0
 62
     0
370
    15
100
AcDbMText
 10
51.04187350437456
 20
40.02577000649654
 30
0.0
 40
3.5
 41
0.0
 71
     2
 72
     1
  1
\A1;95.31 [3 3/4]
  7
SLDTEXTSTYLE0
 73
     1
 44
1.0
  0
POINT
  5
349
330
340
100
AcDbEntity
  8
Defpoints
 62
     0
100
AcDbPoint
 10
98.3125
 20
12.71279101832159
 30
0.0
  0
POINT
  5
34A
330
340
100
AcDbEntity
  8
Defpoints
 62
     0
100
AcDbPoint
 10
3.0
 20
11.71279101832155
 30
0.0
  0
POINT
  5
34B
330
340
100
AcDbEntity
  8
Defpoints
 62
     0
100
AcDbPoint
 10
3.0
 20
35.65077000649654
 30
0.0
  0
ENDBLK
  5
342
330
340
100
AcDbEntity
  8
0
100
AcDbBlockEnd
  0
BLOCK
  5
34D
330
34C
100
AcDbEntity
  8
0
100
AcDbBlockBegin
  2
*D17
 70
     1
 10
0.0
 20
0.0
 30
0.0
  3
*D17
  1
*D19
  0
LINE
  5
34F
330
34C
100
AcDbEntity
  8
0
  6
Continuous
 62
     0
370
    -2
100
AcDbLine
 10
98.3125
 20
12.71279101832159
 30
0.0
 11
111.6624349065033
 21
12.71279101832164
 31
0.0
  0
LINE
  5
350
330
34C
100
AcDbEntity
  8
0
  6
Continuous
 62
     0
370
    -2
100
AcDbLine
 10
98.3125
 20
0.0127910183215845
 30
0.0
 11
111.6624349065033
 21
0.0127910183216358
 31
0.0
  0
LINE
  5
351
330
34C
100
AcDbEntity
  8
0
  6
Continuous
 62
     0
370
    -2
100
AcDbLine
 10
111.6624349065033
 20
12.71279101832164
 30
0.0
 11
111.6624349065032
 21
40.51479101832163
 31
0.0
  0
LINE
  5
352
330
34C
100
AcDbEntity
  8
0
  6
Continuous
 62
     0
370
    -2
100
AcDbLine
 10
111.6624349065033
 20
9.410791018321635
 30
0.0
 11
111.6624349065033
 21
3.314791018321635
 31
0.0
  0
SOLID
  5
353
330
34C
100
AcDbEntity
  8
0
 62
     0
100
AcDbTrace
 10
112.2127682398366
 20
9.410791018321637
 30
0.0
 11
111.1121015731699
 21
9.410791018321634
 31
0.0
 12
111.6624349065033
 22
12.71279101832164
 32
0.0
 13
111.6624349065033
 23
12.71279101832164
 33
0.0
  0
SOLID
  5
354
330
34C
100
AcDbEntity
  8
0
 62
     0
100
AcDbTrace
 10
111.11210157317
 20
3.314791018321634
 30
0.0
 11
112.2127682398366
 21
3.314791018321637
 31
0.0
 12
111.6624349065033
 22
0.0127910183216358
 32
0.0
 13
111.6624349065033
 23
0.0127910183216358
 33
0.0
  0
MTEXT
  5
355
330
34C
100
AcDbEntity
  8
0
 62
     0
370
    15
100
AcDbMText
 10
107.2874349065032
 20
28.26479101832162
 30
0.0
 40
3.5
 41
0.0
 71
     2
 72
     1
  1
\A1;%%c12.7 [1/2]
  7
SLDTEXTSTYLE0
 11
-3.356894814614646E-15
 21
1.0
 31
0.0
 73
     1
 44
1.0
  0
POINT
  5
356
330
34C
100
AcDbEntity
  8
Defpoints
 62
     0
100
AcDbPoint
 10
98.25
 20
12.71279101832159
 30
0.0
  0
POINT
  5
357
330
34C
100
AcDbEntity
  8
Defpoints
 62
     0
100
AcDbPoint
 10
98.25
 20
0.0127910183215842
 30
0.0
  0
POINT
  5
358
330
34C
100
AcDbEntity
  8
Defpoints
 62
     0
100
AcDbPoint
 10
111.6624349065033
 20
0.0127910183216344
 30
0.0
  0
ENDBLK
  5
34E
330
34C
100
AcDbEntity
  8
0
100
AcDbBlockEnd
  0
BLOCK
  5
37F
330
37E
100
AcDbEntity
  8
0
100
AcDbBlockBegin
  2
*D18
 70
     1
 10
0.0
 20
0.0
 30
0.0
  3
*D18
  1
*D20
  0
LINE
  5
381
330
37E
100
AcDbEntity
  8
0
  6
Continuous
 62
     0
370
    -2
100
AcDbLine
 10
228.2190828483058
 20
27.42080245955432
 30
0.0
 11
228.2190828483058
 21
36.23879276772341
 31
0.0
  0
LINE
  5
382
330
37E
100
AcDbEntity
  8
0
  6
Continuous
 62
     0
370
    -2
100
AcDbLine
 10
207.5190828483057
 20
25.91473011579119
 30
0.0
 11
207.5190828483057
 21
36.23879276772341
 31
0.0
  0
LINE
  5
383
330
37E
100
AcDbEntity
  8
0
  6
Continuous
 62
     0
370
    -2
100
AcDbLine
 10
207.5190828483057
 20
36.23879276772341
 30
0.0
 11
172.1969586768679
 21
36.23879276772341
 31
0.0
  0
LINE
  5
384
330
37E
100
AcDbEntity
  8
0
  6
Continuous
 62
     0
370
    -2
100
AcDbLine
 10
224.9170828483058
 20
36.23879276772341
 30
0.0
 11
210.8210828483057
 21
36.23879276772341
 31
0.0
  0
SOLID
  5
385
330
37E
100
AcDbEntity
  8
0
 62
     0
100
AcDbTrace
 10
224.9170828483058
 20
35.68845943439008
 30
0.0
 11
224.9170828483058
 21
36.78912610105674
 31
0.0
 12
228.2190828483058
 22
36.23879276772341
 32
0.0
 13
228.2190828483058
 23
36.23879276772341
 33
0.0
  0
SOLID
  5
386
330
37E
100
AcDbEntity
  8
0
 62
     0
100
AcDbTrace
 10
210.8210828483057
 20
36.78912610105674
 30
0.0
 11
210.8210828483057
 21
35.68845943439008
 31
0.0
 12
207.5190828483057
 22
36.23879276772341
 32
0.0
 13
207.5190828483057
 23
36.23879276772341
 33
0.0
  0
MTEXT
  5
387
330
37E
100
AcDbEntity
  8
0
 62
     0
370
    15
100
AcDbMText
 10
185.5407086768679
 20
40.61379276772341
 30
0.0
 40
3.5
 41
0.0
 71
     2
 72
     1
  1
\A1;20.7 [13/16]
  7
SLDTEXTSTYLE0
 73
     1
 44
1.0
  0
POINT
  5
388
330
37E
100
AcDbEntity
  8
Defpoints
 62
     0
100
AcDbPoint
 10
228.2190828483058
 20
27.35830245955432
 30
0.0
  0
POINT
  5
389
330
37E
100
AcDbEntity
  8
Defpoints
 62
     0
100
AcDbPoint
 10
207.5190828483057
 20
25.85223011579119
 30
0.0
  0
POINT
  5
38A
330
37E
100
AcDbEntity
  8
Defpoints
 62
     0
100
AcDbPoint
 10
207.5190828483057
 20
36.23879276772341
 30
0.0
  0
ENDBLK
  5
380
330
37E
100
AcDbEntity
  8
0
100
AcDbBlockEnd
  0
BLOCK
  5
38C
330
38B
100
AcDbEntity
  8
0
100
AcDbBlockBegin
  2
*D19
 70
     1
 10
0.0
 20
0.0
 30
0.0
  3
*D19
  1
*D21
  0
LINE
  5
38E
330
38B
100
AcDbEntity
  8
0
  6
Continuous
 62
     0
370
    -2
100
AcDbLine
 10
228.2190828483058
 20
27.42080245955432
 30
0.0
 11
228.2190828483058
 21
50.29628144772927
 31
0.0
  0
LINE
  5
38F
330
38B
100
AcDbEntity
  8
0
  6
Continuous
 62
     0
370
    -2
100
AcDbLine
 10
132.9065828483058
 20
26.42080245955429
 30
0.0
 11
132.9065828483058
 21
50.29628144772927
 31
0.0
  0
LINE
  5
390
330
38B
100
AcDbEntity
  8
0
  6
Continuous
 62
     0
370
    -2
100
AcDbLine
 10
224.9170828483058
 20
50.29628144772927
 30
0.0
 11
136.2085828483058
 21
50.29628144772927
 31
0.0
  0
SOLID
  5
391
330
38B
100
AcDbEntity
  8
0
 62
     0
100
AcDbTrace
 10
224.9170828483058
 20
49.74594811439594
 30
0.0
 11
224.9170828483058
 21
50.84661478106261
 31
0.0
 12
228.2190828483058
 22
50.29628144772927
 32
0.0
 13
228.2190828483058
 23
50.29628144772927
 33
0.0
  0
SOLID
  5
392
330
38B
100
AcDbEntity
  8
0
 62
     0
100
AcDbTrace
 10
136.2085828483058
 20
50.84661478106261
 30
0.0
 11
136.2085828483058
 21
49.74594811439594
 31
0.0
 12
132.9065828483058
 22
50.29628144772927
 32
0.0
 13
132.9065828483058
 23
50.29628144772927
 33
0.0
  0
MTEXT
  5
393
330
38B
100
AcDbEntity
  8
0
 62
     0
370
    15
100
AcDbMText
 10
180.9484563526803
 20
54.67128144772927
 30
0.0
 40
3.5
 41
0.0
 71
     2
 72
     1
  1
\A1;95.31 [3 3/4]
  7
SLDTEXTSTYLE0
 73
     1
 44
1.0
  0
POINT
  5
394
330
38B
100
AcDbEntity
  8
Defpoints
 62
     0
100
AcDbPoint
 10
228.2190828483058
 20
27.35830245955432
 30
0.0
  0
POINT
  5
395
330
38B
100
AcDbEntity
  8
Defpoints
 62
     0
100
AcDbPoint
 10
132.9065828483058
 20
26.35830245955429
 30
0.0
  0
POINT
  5
396
330
38B
100
AcDbEntity
  8
Defpoints
 62
     0
100
AcDbPoint
 10
132.9065828483058
 20
50.29628144772927
 30
0.0
  0
ENDBLK
  5
38D
330
38B
100
AcDbEntity
  8
0
100
AcDbBlockEnd
  0
BLOCK
  5
398
330
397
100
AcDbEntity
  8
0
100
AcDbBlockBegin
  2
*D20
 70
     1
 10
0.0
 20
0.0
 30
0.0
  3
*D20
  1
*D22
  0
LINE
  5
39A
330
397
100
AcDbEntity
  8
0
  6
Continuous
 62
     0
370
    -2
100
AcDbLine
 10
228.2190828483058
 20
27.35830245955432
 30
0.0
 11
241.569017754809
 21
27.35830245955437
 31
0.0
  0
LINE
  5
39B
330
397
100
AcDbEntity
  8
0
  6
Continuous
 62
     0
370
    -2
100
AcDbLine
 10
228.2190828483058
 20
14.65830245955432
 30
0.0
 11
241.5690177548091
 21
14.65830245955437
 31
0.0
  0
LINE
  5
39C
330
397
100
AcDbEntity
  8
0
  6
Continuous
 62
     0
370
    -2
100
AcDbLine
 10
241.569017754809
 20
27.35830245955437
 30
0.0
 11
241.5690177548089
 21
55.16030245955437
 31
0.0
  0
LINE
  5
39D
330
397
100
AcDbEntity
  8
0
  6
Continuous
 62
     0
370
    -2
100
AcDbLine
 10
241.569017754809
 20
24.05630245955437
 30
0.0
 11
241.569017754809
 21
17.96030245955437
 31
0.0
  0
SOLID
  5
39E
330
397
100
AcDbEntity
  8
0
 62
     0
100
AcDbTrace
 10
242.1193510881424
 20
24.05630245955437
 30
0.0
 11
241.0186844214757
 21
24.05630245955437
 31
0.0
 12
241.569017754809
 22
27.35830245955437
 32
0.0
 13
241.569017754809
 23
27.35830245955437
 33
0.0
  0
SOLID
  5
39F
330
397
100
AcDbEntity
  8
0
 62
     0
100
AcDbTrace
 10
241.0186844214757
 20
17.96030245955437
 30
0.0
 11
242.1193510881424
 21
17.96030245955437
 31
0.0
 12
241.5690177548091
 22
14.65830245955437
 32
0.0
 13
241.5690177548091
 23
14.65830245955437
 33
0.0
  0
MTEXT
  5
3A0
330
397
100
AcDbEntity
  8
0
 62
     0
370
    15
100
AcDbMText
 10
237.194017754809
 20
42.91030245955435
 30
0.0
 40
3.5
 41
0.0
 71
     2
 72
     1
  1
\A1;%%c12.7 [1/2]
  7
SLDTEXTSTYLE0
 11
-4.475859752819529E-15
 21
1.0
 31
0.0
 73
     1
 44
1.0
  0
POINT
  5
3A1
330
397
100
AcDbEntity
  8
Defpoints
 62
     0
100
AcDbPoint
 10
228.1565828483058
 20
27.35830245955432
 30
0.0
  0
POINT
  5
3A2
330
397
100
AcDbEntity
  8
Defpoints
 62
     0
100
AcDbPoint
 10
228.1565828483058
 20
14.65830245955432
 30
0.0
  0
POINT
  5
3A3
330
397
100
AcDbEntity
  8
Defpoints
 62
     0
100
AcDbPoint
 10
241.5690177548091
 20
14.65830245955437
 30
0.0
  0
ENDBLK
  5
399
330
397
100
AcDbEntity
  8
0
100
AcDbBlockEnd
  0
BLOCK
  5
41F
330
41E
100
AcDbEntity
  8
0
100
AcDbBlockBegin
  2
*D21
 70
     1
 10
0.0
 20
0.0
 30
0.0
  3
*D21
  1
*D24
  0
LINE
  5
421
330
41E
100
AcDbEntity
  8
0
  6
Continuous
 62
     0
370
    -2
100
AcDbLine
 10
98.3125
 20
12.77529101832159
 30
0.0
 11
98.3125
 21
21.59328132649068
 31
0.0
  0
LINE
  5
422
330
41E
100
AcDbEntity
  8
0
  6
Continuous
 62
     0
370
    -2
100
AcDbLine
 10
77.6125
 20
11.26921867455846
 30
0.0
 11
77.6125
 21
21.59328132649068
 31
0.0
  0
LINE
  5
423
330
41E
100
AcDbEntity
  8
0
  6
Continuous
 62
     0
370
    -2
100
AcDbLine
 10
77.6125
 20
21.59328132649068
 30
0.0
 11
42.29037582856216
 21
21.59328132649068
 31
0.0
  0
LINE
  5
424
330
41E
100
AcDbEntity
  8
0
  6
Continuous
 62
     0
370
    -2
100
AcDbLine
 10
95.01050000000001
 20
21.59328132649068
 30
0.0
 11
80.9145
 21
21.59328132649068
 31
0.0
  0
SOLID
  5
425
330
41E
100
AcDbEntity
  8
0
 62
     0
100
AcDbTrace
 10
95.01050000000001
 20
21.04294799315734
 30
0.0
 11
95.01050000000001
 21
22.14361465982401
 31
0.0
 12
98.3125
 22
21.59328132649068
 32
0.0
 13
98.3125
 23
21.59328132649068
 33
0.0
  0
SOLID
  5
426
330
41E
100
AcDbEntity
  8
0
 62
     0
100
AcDbTrace
 10
80.9145
 20
22.14361465982401
 30
0.0
 11
80.9145
 21
21.04294799315734
 31
0.0
 12
77.6125
 22
21.59328132649068
 32
0.0
 13
77.6125
 23
21.59328132649068
 33
0.0
  0
MTEXT
  5
427
330
41E
100
AcDbEntity
  8
0
 62
     0
370
    15
100
AcDbMText
 10
55.63412582856216
 20
25.96828132649068
 30
0.0
 40
3.5
 41
0.0
 71
     2
 72
     1
  1
\A1;20.7 [13/16]
  7
SLDTEXTSTYLE0
 73
     1
 44
1.0
  0
POINT
  5
428
330
41E
100
AcDbEntity
  8
Defpoints
 62
     0
100
AcDbPoint
 10
98.3125
 20
12.71279101832159
 30
0.0
  0
POINT
  5
429
330
41E
100
AcDbEntity
  8
Defpoints
 62
     0
100
AcDbPoint
 10
77.6125
 20
11.20671867455846
 30
0.0
  0
POINT
  5
42A
330
41E
100
AcDbEntity
  8
Defpoints
 62
     0
100
AcDbPoint
 10
77.6125
 20
21.59328132649068
 30
0.0
  0
ENDBLK
  5
420
330
41E
100
AcDbEntity
  8
0
100
AcDbBlockEnd
  0
BLOCK
  5
42C
330
42B
100
AcDbEntity
  8
0
100
AcDbBlockBegin
  2
*D22
 70
     1
 10
0.0
 20
0.0
 30
0.0
  3
*D22
  1
*D25
  0
LINE
  5
42E
330
42B
100
AcDbEntity
  8
0
  6
Continuous
 62
     0
370
    -2
100
AcDbLine
 10
98.3125
 20
12.77529101832159
 30
0.0
 11
98.3125
 21
35.65077000649654
 31
0.0
  0
LINE
  5
42F
330
42B
100
AcDbEntity
  8
0
  6
Continuous
 62
     0
370
    -2
100
AcDbLine
 10
3.0
 20
11.77529101832155
 30
0.0
 11
3.0
 21
35.65077000649654
 31
0.0
  0
LINE
  5
430
330
42B
100
AcDbEntity
  8
0
  6
Continuous
 62
     0
370
    -2
100
AcDbLine
 10
95.01050000000001
 20
35.65077000649654
 30
0.0
 11
6.302
 21
35.65077000649654
 31
0.0
  0
SOLID
  5
431
330
42B
100
AcDbEntity
  8
0
 62
     0
100
AcDbTrace
 10
95.01050000000001
 20
35.1004366731632
 30
0.0
 11
95.01050000000001
 21
36.20110333982987
 31
0.0
 12
98.3125
 22
35.65077000649654
 32
0.0
 13
98.3125
 23
35.65077000649654
 33
0.0
  0
SOLID
  5
432
330
42B
100
AcDbEntity
  8
0
 62
     0
100
AcDbTrace
 10
6.302
 20
36.20110333982987
 30
0.0
 11
6.302
 21
35.1004366731632
 31
0.0
 12
3.0
 22
35.65077000649654
 32
0.0
 13
3.0
 23
35.65077000649654
 33
0.0
  0
MTEXT
  5
433
330
42B
100
AcDbEntity
  8
0
 62
     0
370
    15
100
AcDbMText
 10
51.04187350437456
 20
40.02577000649654
 30
0.0
 40
3.5
 41
0.0
 71
     2
 72
     1
  1
\A1;95.31 [3 3/4]
  7
SLDTEXTSTYLE0
 73
     1
 44
1.0
  0
POINT
  5
434
330
42B
100
AcDbEntity
  8
Defpoints
 62
     0
100
AcDbPoint
 10
98.3125
 20
12.71279101832159
 30
0.0
  0
POINT
  5
435
330
42B
100
AcDbEntity
  8
Defpoints
 62
     0
100
AcDbPoint
 10
3.0
 20
11.71279101832155
 30
0.0
  0
POINT
  5
436
330
42B
100
AcDbEntity
  8
Defpoints
 62
     0
100
AcDbPoint
 10
3.0
 20
35.65077000649654
 30
0.0
  0
ENDBLK
  5
42D
330
42B
100
AcDbEntity
  8
0
100
AcDbBlockEnd
  0
BLOCK
  5
438
330
437
100
AcDbEntity
  8
0
100
AcDbBlockBegin
  2
*D23
 70
     1
 10
0.0
 20
0.0
 30
0.0
  3
*D23
  1
*D26
  0
LINE
  5
43A
330
437
100
AcDbEntity
  8
0
  6
Continuous
 62
     0
370
    -2
100
AcDbLine
 10
98.3125
 20
12.71279101832159
 30
0.0
 11
111.6624349065033
 21
12.71279101832164
 31
0.0
  0
LINE
  5
43B
330
437
100
AcDbEntity
  8
0
  6
Continuous
 62
     0
370
    -2
100
AcDbLine
 10
98.3125
 20
0.0127910183215845
 30
0.0
 11
111.6624349065033
 21
0.0127910183216358
 31
0.0
  0
LINE
  5
43C
330
437
100
AcDbEntity
  8
0
  6
Continuous
 62
     0
370
    -2
100
AcDbLine
 10
111.6624349065033
 20
12.71279101832164
 30
0.0
 11
111.6624349065032
 21
40.51479101832163
 31
0.0
  0
LINE
  5
43D
330
437
100
AcDbEntity
  8
0
  6
Continuous
 62
     0
370
    -2
100
AcDbLine
 10
111.6624349065033
 20
9.410791018321635
 30
0.0
 11
111.6624349065033
 21
3.314791018321635
 31
0.0
  0
SOLID
  5
43E
330
437
100
AcDbEntity
  8
0
 62
     0
100
AcDbTrace
 10
112.2127682398366
 20
9.410791018321637
 30
0.0
 11
111.1121015731699
 21
9.410791018321634
 31
0.0
 12
111.6624349065033
 22
12.71279101832164
 32
0.0
 13
111.6624349065033
 23
12.71279101832164
 33
0.0
  0
SOLID
  5
43F
330
437
100
AcDbEntity
  8
0
 62
     0
100
AcDbTrace
 10
111.11210157317
 20
3.314791018321634
 30
0.0
 11
112.2127682398366
 21
3.314791018321637
 31
0.0
 12
111.6624349065033
 22
0.0127910183216358
 32
0.0
 13
111.6624349065033
 23
0.0127910183216358
 33
0.0
  0
MTEXT
  5
440
330
437
100
AcDbEntity
  8
0
 62
     0
370
    15
100
AcDbMText
 10
107.2874349065032
 20
28.26479101832162
 30
0.0
 40
3.5
 41
0.0
 71
     2
 72
     1
  1
\A1;%%c12.7 [1/2]
  7
SLDTEXTSTYLE0
 11
-3.356894814614646E-15
 21
1.0
 31
0.0
 73
     1
 44
1.0
  0
POINT
  5
441
330
437
100
AcDbEntity
  8
Defpoints
 62
     0
100
AcDbPoint
 10
98.25
 20
12.71279101832159
 30
0.0
  0
POINT
  5
442
330
437
100
AcDbEntity
  8
Defpoints
 62
     0
100
AcDbPoint
 10
98.25
 20
0.0127910183215842
 30
0.0
  0
POINT
  5
443
330
437
100
AcDbEntity
  8
Defpoints
 62
     0
100
AcDbPoint
 10
111.6624349065033
 20
0.0127910183216344
 30
0.0
  0
ENDBLK
  5
439
330
437
100
AcDbEntity
  8
0
100
AcDbBlockEnd
  0
ENDSEC
  0
SECTION
  2
ENTITIES
  0
LINE
  5
96
330
1F
100
AcDbEntity
  8
외형선
  6
Continuous
370
    15
100
AcDbLine
 10
24.95716055055581
 20
6.350000000000001
 30
0.0
 11
5.727700000000031
 21
6.349999999999998
 31
0.0
  0
LINE
  5
9A
330
1F
100
AcDbEntity
  8
0
  6
Continuous
 62
     1
370
    15
100
AcDbLine
 10
40.00480918849604
 20
-6.349999999999998
 30
0.0
 11
41.27499999999999
 21
-6.349999999999998
 31
0.0
  0
ARC
  5
9B
330
1F
100
AcDbEntity
  8
0
  6
Continuous
 62
     1
370
    15
100
AcDbCircle
 10
41.27499999999999
 20
0.0000000000000016
 30
0.0
 40
6.35
100
AcDbArc
 50
270.0000000000007
 51
0.0
  0
ARC
  5
9C
330
1F
100
AcDbEntity
  8
0
  6
Continuous
 62
     1
370
    15
100
AcDbCircle
 10
41.27499999999999
 20
0.0000000000000016
 30
0.0
 40
6.35
100
AcDbArc
 50
0.0
 51
90.0
  0
LINE
  5
9D
330
1F
100
AcDbEntity
  8
0
  6
Continuous
 62
     1
370
    15
100
AcDbLine
 10
41.27499999999999
 20
6.350000000000001
 30
0.0
 11
40.00480918849604
 21
6.350000000000001
 31
0.0
  0
LINE
  5
9E
330
1F
100
AcDbEntity
  8
외형선
  6
Continuous
370
    15
100
AcDbLine
 10
24.95716055055581
 20
5.514983861245407
 30
0.0
 11
24.95716055055581
 21
6.350000000000001
 31
0.0
  0
SPLINE
  5
9F
330
1F
100
AcDbEntity
  8
외형선
  6
Continuous
370
    15
100
AcDbSpline
210
0.0
220
0.0
230
1.0
 70
     8
 71
     3
 72
     8
 73
     4
 74
     0
 42
0.000000001
 43
0.00000001
 40
0.0
 40
0.0
 40
0.0
 40
0.0
 40
1.0
 40
1.0
 40
1.0
 40
1.0
 10
26.98750000001311
 20
4.843927656251285
 30
0.0
 10
26.31378525736983
 20
5.09614290853751
 30
0.0
 10
25.63298651438278
 20
5.321630232765867
 30
0.0
 10
24.95716055055581
 20
5.515160092762759
 30
0.0
  0
SPLINE
  5
A0
330
1F
100
AcDbEntity
  8
외형선
  6
Continuous
370
    15
100
AcDbSpline
210
0.0
220
0.0
230
1.0
 70
     8
 71
     3
 72
     8
 73
     4
 74
     0
 42
0.000000001
 43
0.00000001
 40
0.0
 40
0.0
 40
0.0
 40
0.0
 40
1.0
 40
1.0
 40
1.0
 40
1.0
 10
24.95739681262584
 20
-1.278492346952423
 30
0.0
 10
25.63314557661754
 20
-1.660918163014905
 30
0.0
 10
26.31386376527358
 20
-2.03696445300852
 30
0.0
 10
26.98749999999999
 20
-2.398096896552214
 30
0.0
  0
LINE
  5
A1
330
1F
100
AcDbEntity
  8
외형선
  6
Continuous
370
    15
100
AcDbLine
 10
24.95716055055581
 20
-6.349999999999997
 30
0.0
 11
24.95716055055581
 21
-1.278168036435958
 31
0.0
  0
SPLINE
  5
A2
330
1F
100
AcDbEntity
  8
외형선
  6
Continuous
370
    15
100
AcDbSpline
210
0.0
220
0.0
230
1.0
 70
     8
 71
     3
 72
     8
 73
     4
 74
     0
 42
0.000000001
 43
0.00000001
 40
0.0
 40
0.0
 40
0.0
 40
0.0
 40
1.0
 40
1.0
 40
1.0
 40
1.0
 10
26.98750000001311
 20
-4.843927656251283
 30
0.0
 10
26.31378525736983
 20
-5.096142908537506
 30
0.0
 10
25.63298651438278
 20
-5.321630232765864
 30
0.0
 10
24.95716055055581
 20
-5.515160092762756
 30
0.0
  0
LINE
  5
A4
330
1F
100
AcDbEntity
  8
외형선
  6
Continuous
370
    15
100
AcDbLine
 10
26.98749999999999
 20
4.843927656256196
 30
0.0
 11
26.98749999999999
 21
-2.398096896552214
 31
0.0
  0
SPLINE
  5
A6
330
1F
100
AcDbEntity
  8
외형선
  6
Continuous
370
    15
100
AcDbSpline
210
0.0
220
0.0
230
1.0
 70
     8
 71
     3
 72
     8
 73
     4
 74
     0
 42
0.000000001
 43
0.00000001
 40
0.0
 40
0.0
 40
0.0
 40
0.0
 40
1.0
 40
1.0
 40
1.0
 40
1.0
 10
26.9875
 20
-4.123971628113987
 30
0.0
 10
26.31378525736121
 20
-4.044062824156396
 30
0.0
 10
25.6329865143784
 20
-3.94037714752684
 30
0.0
 10
24.95716055055581
 20
-3.815207262495902
 30
0.0
  0
SPLINE
  5
A7
330
1F
100
AcDbEntity
  8
외형선
  6
Continuous
370
    15
100
AcDbSpline
210
0.0
220
0.0
230
1.0
 70
    24
 71
     3
 72
    12
 73
     8
 74
     0
 42
0.000000001
 43
0.00000001
 40
0.0
 40
0.0
 40
0.0
 40
0.0
 40
0.0638664247482227
 40
0.2950458094940209
 40
0.5262251942398184
 40
0.7574045789856158
 40
1.0
 40
1.0
 40
1.0
 40
1.0
 10
26.98749999999999
 20
-2.398096896552213
 30
0.0
 10
26.98749999999999
 20
-2.413822676074418
 30
0.0
 10
26.98749999999999
 20
-2.486471573634361
 30
0.0
 10
26.98749999999999
 20
-2.718605263307909
 30
0.0
 10
26.98749999999999
 20
-3.092185849934033
 30
0.0
 10
26.98749999999999
 20
-3.559495468718722
 30
0.0
 10
26.98749999999999
 20
-3.932814421375173
 30
0.0
 10
26.98749999999999
 20
-4.123971628113988
 30
0.0
  0
SPLINE
  5
A8
330
1F
100
AcDbEntity
  8
외형선
  6
Continuous
370
    15
100
AcDbSpline
210
0.0
220
0.0
230
1.0
 70
    24
 71
     3
 72
    10
 73
     6
 74
     0
 42
0.000000001
 43
0.00000001
 40
0.0
 40
0.0
 40
0.0
 40
0.0
 40
0.6104317011018523
 40
0.8050049499351806
 40
1.0
 40
1.0
 40
1.0
 40
1.0
 10
26.98749999999999
 20
-4.19013486738619
 30
0.0
 10
26.98749999999999
 20
-4.309852983393365
 30
0.0
 10
26.98749999999999
 20
-4.467730884899352
 30
0.0
 10
26.98749999999999
 20
-4.700951297652178
 30
0.0
 10
26.98749999999999
 20
-4.796234481066367
 30
0.0
 10
26.98749999999999
 20
-4.843927656236771
 30
0.0
  0
SPLINE
  5
A9
330
1F
100
AcDbEntity
  8
0
  6
Continuous
 62
     1
370
    15
100
AcDbSpline
210
0.0
220
0.0
230
1.0
 70
     8
 71
     3
 72
    30
 73
    26
 74
     0
 42
0.000000001
 43
0.00000001
 40
0.0
 40
0.0
 40
0.0
 40
0.0
 40
0.0624999999999999
 40
0.0624999999999999
 40
0.1249999999999998
 40
0.1249999999999998
 40
0.2499999999999996
 40
0.2499999999999996
 40
0.3124999999999997
 40
0.3124999999999997
 40
0.3749999999999997
 40
0.3749999999999997
 40
0.4999999999999996
 40
0.4999999999999996
 40
0.5624999999999996
 40
0.5624999999999996
 40
0.6249999999999996
 40
0.6249999999999996
 40
0.7499999999999999
 40
0.7499999999999999
 40
0.8124999999999999
 40
0.8124999999999999
 40
0.8749999999999999
 40
0.8749999999999999
 40
1.0
 40
1.0
 40
1.0
 40
1.0
 10
41.27499999999999
 20
-2.655292159901795
 30
0.0
 10
40.97715539885178
 20
-2.499147807690405
 30
0.0
 10
40.68153172290297
 20
-2.340479828153208
 30
0.0
 10
40.08704398268632
 20
-2.017785842830657
 30
0.0
 10
39.78844579713174
 20
-1.853798106138147
 30
0.0
 10
38.89300744045461
 20
-1.356316018020495
 30
0.0
 10
38.30141891913335
 20
-1.018237124852988
 30
0.0
 10
37.40705199868713
 20
-0.5053285189171913
 30
0.0
 10
37.10819352744039
 20
-0.3334735487252613
 30
0.0
 10
36.51195889438387
 20
0.0103082167522889
 30
0.0
 10
36.21567827712931
 20
0.1820229924568523
 30
0.0
 10
35.32534693292243
 20
0.6962906317787733
 30
0.0
 10
34.72544101764139
 20
1.038787417877132
 30
0.0
 10
33.83373687850285
 20
1.541905901519965
 30
0.0
 10
33.53810444510437
 20
1.707806416982955
 30
0.0
 10
32.94240210203422
 20
2.036317424878289
 30
0.0
 10
32.64358035644757
 20
2.198689905335095
 30
0.0
 10
31.74863354654565
 20
2.677739787359421
 30
0.0
 10
31.15738987266321
 20
2.985784665197249
 30
0.0
 10
30.26217094309554
 20
3.427606888636005
 30
0.0
 10
29.96341530403829
 20
3.571321890527168
 30
0.0
 10
29.3681566305132
 20
3.850233428052022
 30
0.0
 10
29.072691044587
 20
3.985285158143507
 30
0.0
 10
28.18017355667371
 20
4.37780915120408
 30
0.0
 10
27.58035088364957
 20
4.621985006461821
 30
0.0
 10
26.98750000001296
 20
4.843927656251344
 30
0.0
  0
SPLINE
  5
AA
330
1F
100
AcDbEntity
  8
0
  6
Continuous
 62
     1
370
    15
100
AcDbSpline
210
0.0
220
0.0
230
1.0
 70
     8
 71
     3
 72
    16
 73
    12
 74
     0
 42
0.000000001
 43
0.00000001
 40
0.0
 40
0.0
 40
0.0
 40
0.0
 40
0.1135344467425736
 40
0.2270538198456623
 40
0.3351328563594668
 40
0.443268342044721
 40
0.5514808841435302
 40
0.6846071550487443
 40
0.8177331055440897
 40
0.9508587284782739
 40
1.0
 40
1.0
 40
1.0
 40
1.0
 10
45.92506103010793
 20
0.6654050732758772
 30
0.0
 10
45.26393180107917
 20
0.9201986519716819
 30
0.0
 10
43.9417611192335
 20
1.429751981158209
 30
0.0
 10
41.99024526701607
 20
2.130605231153616
 30
0.0
 10
40.07025179466838
 20
2.755991320725203
 30
0.0
 10
38.18103823604726
 20
3.289783145344431
 30
0.0
 10
36.14577902165509
 20
3.759566022912726
 30
0.0
 10
33.9650275722959
 20
4.125302954419804
 30
0.0
 10
31.63917709175733
 20
4.31888665053539
 30
0.0
 10
29.80243222934186
 20
4.356337504220162
 30
0.0
 10
28.74096928508055
 20
4.26334623883829
 30
0.0
 10
28.45478654789228
 20
4.238274713727158
 30
0.0
  0
SPLINE
  5
AB
330
1F
100
AcDbEntity
  8
0
  6
Continuous
 62
     1
370
    15
100
AcDbSpline
210
0.0
220
0.0
230
1.0
 70
     8
 71
     3
 72
    32
 73
    28
 74
     0
 42
0.000000001
 43
0.00000001
 40
0.0
 40
0.0
 40
0.0
 40
0.0
 40
0.1249999999999996
 40
0.1249999999999996
 40
0.1874999999999999
 40
0.1874999999999999
 40
0.2500000000000003
 40
0.2500000000000003
 40
0.3750000000000009
 40
0.3750000000000009
 40
0.4375000000000007
 40
0.4375000000000007
 40
0.5000000000000007
 40
0.5000000000000007
 40
0.5625000000000006
 40
0.5625000000000006
 40
0.6250000000000004
 40
0.6250000000000004
 40
0.6875000000000004
 40
0.6875000000000004
 40
0.7500000000000003
 40
0.7500000000000003
 40
0.8125000000000002
 40
0.8125000000000002
 40
0.8750000000000001
 40
0.8750000000000001
 40
1.0
 40
1.0
 40
1.0
 40
1.0
 10
41.27499999999999
 20
-2.655292159901884
 30
0.0
 10
41.6277287244264
 20
-2.840209388448526
 30
0.0
 10
41.97506010939729
 20
-3.005482272546792
 30
0.0
 10
42.49447605580353
 20
-3.214835064700728
 30
0.0
 10
42.66736099420744
 20
-3.278130430305345
 30
0.0
 10
43.01401638600569
 20
-3.389119343006973
 30
0.0
 10
43.18857030480511
 20
-3.436924169352514
 30
0.0
 10
43.70544506289554
 20
-3.547729612112958
 30
0.0
 10
44.0434408410548
 20
-3.581111802849213
 30
0.0
 10
44.55167409842087
 20
-3.542999303293494
 30
0.0
 10
44.71792507976957
 20
-3.515488374195124
 30
0.0
 10
45.04445924202264
 20
-3.425493299726339
 30
0.0
 10
45.20665608698837
 20
-3.362192547844014
 30
0.0
 10
45.5180105372815
 20
-3.194290499242921
 30
0.0
 10
45.66629725298057
 20
-3.090685291955375
 30
0.0
 10
45.94712233068198
 20
-2.833523886337008
 30
0.0
 10
46.07327119701071
 20
-2.685728224618626
 30
0.0
 10
46.29336529463814
 20
-2.346807302994665
 30
0.0
 10
46.38173384352052
 20
-2.163798011683849
 30
0.0
 10
46.51252669238625
 20
-1.776731512422539
 30
0.0
 10
46.55253455101685
 20
-1.579306825450518
 30
0.0
 10
46.58590185983475
 20
-1.186634249531052
 30
0.0
 10
46.57907539541183
 20
-0.9969474506611836
 30
0.0
 10
46.52840001068427
 20
-0.6297204604518757
 30
0.0
 10
46.48388927159941
 20
-0.4508758536197148
 30
0.0
 10
46.30892293689072
 20
0.0574377836329611
 30
0.0
 10
46.13616395998829
 20
0.3686861119172533
 30
0.0
 10
45.9250610301078
 20
0.665405073275933
 30
0.0
  0
SPLINE
  5
AC
330
1F
100
AcDbEntity
  8
0
  6
Continuous
 62
     1
370
    15
100
AcDbSpline
210
0.0
220
0.0
230
1.0
 70
     8
 71
     3
 72
    16
 73
    12
 74
     0
 42
0.000000001
 43
0.00000001
 40
0.0
 40
0.0
 40
0.0
 40
0.0
 40
0.1721152673465111
 40
0.2589897583717581
 40
0.3460949013497862
 40
0.486355500472237
 40
0.6275911644512402
 40
0.7436946509594932
 40
0.8603474552827359
 40
0.9786811947213732
 40
0.9999999999999999
 40
0.9999999999999999
 40
0.9999999999999999
 40
0.9999999999999999
 10
26.98749999999999
 20
-2.398096896552214
 30
0.0
 10
27.73454809058671
 20
-2.788254562025928
 30
0.0
 10
28.85866570929638
 20
-3.375342744647716
 30
0.0
 10
30.36016787119747
 20
-4.067731292147661
 30
0.0
 10
31.72338995959759
 20
-4.647532294451969
 30
0.0
 10
33.32324483966452
 20
-5.237711015390722
 30
0.0
 10
35.04850124916652
 20
-5.737605769937954
 30
0.0
 10
36.67052200613576
 20
-6.081697638665648
 30
0.0
 10
38.19458086670206
 20
-6.277287526995194
 30
0.0
 10
39.30649738829918
 20
-6.362791018321561
 30
0.0
 10
39.9123258161907
 20
-6.343665391433192
 30
0.0
 10
40.00480918849604
 20
-6.340745748856753
 30
0.0
  0
SPLINE
  5
AD
330
1F
100
AcDbEntity
  8
0
  6
Continuous
 62
     1
370
    15
100
AcDbSpline
210
0.0
220
0.0
230
1.0
 70
     8
 71
     3
 72
    12
 73
     8
 74
     0
 42
0.000000001
 43
0.00000001
 40
0.0
 40
0.0
 40
0.0
 40
0.0
 40
0.2499999999999999
 40
0.2499999999999999
 40
0.4999999999999998
 40
0.4999999999999998
 40
1.0
 40
1.0
 40
1.0
 40
1.0
 10
45.92506103010777
 20
0.6654050732759388
 30
0.0
 10
45.99809878065683
 20
0.7094150012263255
 30
0.0
 10
46.06316010359409
 20
0.7639776579473403
 30
0.0
 10
46.17727706885495
 20
0.8948209829803493
 30
0.0
 10
46.22670672479582
 20
0.9723440650913984
 30
0.0
 10
46.34363748031809
 20
1.227121401595667
 30
0.0
 10
46.38222579939172
 20
1.431769337843662
 30
0.0
 10
46.38577762452552
 20
1.644588386775613
 30
0.0
  0
ARC
  5
AE
330
1F
100
AcDbEntity
  8
0
  6
Continuous
 62
     1
370
    15
100
AcDbCircle
 10
44.58694250395698
 20
-1.103839521024575
 30
0.0
 40
3.284762359040007
100
AcDbArc
 50
23.84125279481877
 51
56.79541269263134
  0
ARC
  5
AF
330
1F
100
AcDbEntity
  8
0
  6
Continuous
 62
     1
370
    15
100
AcDbCircle
 10
41.89982781747342
 20
0.1074327361078414
 30
0.0
 40
5.692775582952177
100
AcDbArc
 50
1.172026359248008
 51
71.06103325458001
  0
SPLINE
  5
B0
330
1F
100
AcDbEntity
  8
0
  6
Continuous
 62
     1
370
    15
100
AcDbSpline
210
0.0
220
0.0
230
1.0
 70
     8
 71
     3
 72
    10
 73
     6
 74
     0
 42
0.000000001
 43
0.00000001
 40
0.0
 40
0.0
 40
0.0
 40
0.0
 40
0.5
 40
0.5
 40
1.0
 40
1.0
 40
1.0
 40
1.0
 10
43.74747946690542
 20
5.49202902740096
 30
0.0
 10
43.35452925494981
 20
5.731472423406087
 30
0.0
 10
42.95050155348028
 20
5.919789166307977
 30
0.0
 10
42.12568665513392
 20
6.193564261259987
 30
0.0
 10
41.70065752971411
 20
6.279335541042698
 30
0.0
 10
41.27499999999998
 20
6.307657477628186
 30
0.0
  0
SPLINE
  5
B1
330
1F
100
AcDbEntity
  8
0
  6
Continuous
 62
     1
370
    15
100
AcDbSpline
210
0.0
220
0.0
230
1.0
 70
     8
 71
     3
 72
     9
 73
     5
 74
     0
 42
0.000000001
 43
0.00000001
 40
0.0
 40
0.0
 40
0.0
 40
0.0
 40
0.4083652193433723
 40
1.0
 40
1.0
 40
1.0
 40
1.0
 10
30.91870056629024
 20
-4.297819518366586
 30
0.0
 10
30.38357860105963
 20
-4.309276193227587
 30
0.0
 10
29.07317815586241
 20
-4.337331165390553
 30
0.0
 10
27.76277819400561
 20
-4.20328060311989
 30
0.0
 10
26.9875
 20
-4.123971628113988
 30
0.0
  0
SPLINE
  5
B2
330
1F
100
AcDbEntity
  8
외형선
  6
Continuous
370
    15
100
AcDbSpline
210
0.0
220
0.0
230
1.0
 70
    24
 71
     3
 72
    12
 73
     8
 74
     0
 42
0.000000001
 43
0.00000001
 40
0.0
 40
0.0
 40
0.0
 40
0.0
 40
0.0638664247482218
 40
0.2950458094940203
 40
0.5262251942398178
 40
0.7574045789856155
 40
1.0
 40
1.0
 40
1.0
 40
1.0
 10
26.98749999999999
 20
-2.398096896552213
 30
0.0
 10
26.98749999999999
 20
-2.413822676074417
 30
0.0
 10
26.98749999999999
 20
-2.486471573634359
 30
0.0
 10
26.98749999999999
 20
-2.718605263307909
 30
0.0
 10
26.98749999999999
 20
-3.092185849934031
 30
0.0
 10
26.98749999999999
 20
-3.559495468718723
 30
0.0
 10
26.98749999999999
 20
-3.932814421375173
 30
0.0
 10
26.98749999999999
 20
-4.123971628113988
 30
0.0
  0
SPLINE
  5
B3
330
1F
100
AcDbEntity
  8
0
  6
Continuous
 62
     1
370
    15
100
AcDbSpline
210
0.0
220
0.0
230
1.0
 70
     8
 71
     3
 72
     8
 73
     4
 74
     0
 42
0.000000001
 43
0.00000001
 40
0.0
 40
0.0
 40
0.0
 40
0.0
 40
1.0
 40
1.0
 40
1.0
 40
1.0
 10
42.45943322515507
 20
2.84255635979595
 30
0.0
 10
43.75029225220714
 20
2.483789923399905
 30
0.0
 10
45.06636978110175
 20
2.079588910334716
 30
0.0
 10
46.38577762452553
 20
1.644588386775669
 30
0.0
  0
SPLINE
  5
B4
330
1F
100
AcDbEntity
  8
0
  6
Continuous
 62
     1
370
    15
100
AcDbSpline
210
0.0
220
0.0
230
1.0
 70
     8
 71
     3
 72
    15
 73
    11
 74
     0
 42
0.000000001
 43
0.00000001
 40
0.0
 40
0.0
 40
0.0
 40
0.0
 40
0.0554443729227873
 40
0.1435295670365297
 40
0.3204253678111431
 40
0.4092771904110417
 40
0.5552001828467842
 40
0.7018135774553845
 40
0.8505396311193288
 40
1.0
 40
1.0
 40
1.0
 40
1.0
 10
30.91870056629024
 20
4.297819518366589
 30
0.0
 10
31.11009720681533
 20
4.380192259827069
 30
0.0
 10
31.60556817165191
 20
4.593431643630714
 30
0.0
 10
32.71133192036595
 20
5.015279592060215
 30
0.0
 10
33.93294273694138
 20
5.422395655608401
 30
0.0
 10
35.35457661180642
 20
5.802219763737017
 30
0.0
 10
36.67047755978984
 20
6.080384143081405
 30
0.0
 10
38.19459441541005
 20
6.282737982973203
 30
0.0
 10
39.7298979240537
 20
6.3745068941302
 30
0.0
 10
40.75912111813884
 20
6.329977169495113
 30
0.0
 10
41.27500000000004
 20
6.307657477628127
 30
0.0
  0
SPLINE
  5
B5
330
1F
100
AcDbEntity
  8
0
  6
Continuous
 62
     1
370
    15
100
AcDbSpline
210
0.0
220
0.0
230
1.0
 70
     8
 71
     3
 72
    18
 73
    14
 74
     0
 42
0.000000001
 43
0.00000001
 40
0.0
 40
0.0
 40
0.0
 40
0.0
 40
0.2500000000000006
 40
0.2500000000000006
 40
0.3750000000000007
 40
0.3750000000000007
 40
0.5000000000000009
 40
0.5000000000000009
 40
0.6250000000000007
 40
0.6250000000000007
 40
0.7500000000000006
 40
0.7500000000000006
 40
1.0
 40
1.0
 40
1.0
 40
1.0
 10
43.74747946690543
 20
5.492029027400966
 30
0.0
 10
43.79260212148893
 20
5.225480991656762
 30
0.0
 10
43.81291088438159
 20
4.954212169312348
 30
0.0
 10
43.78341050006038
 20
4.54200530253654
 30
0.0
 10
43.76359041154566
 20
4.40689068766202
 30
0.0
 10
43.70050754465753
 20
4.14203156264108
 30
0.0
 10
43.65644913496183
 20
4.010774892994976
 30
0.0
 10
43.54450931103193
 20
3.76438789786731
 30
0.0
 10
43.47694227622005
 20
3.648947374876101
 30
0.0
 10
43.31822785513661
 20
3.433830399663119
 30
0.0
 10
43.22648972919262
 20
3.334131825211473
 30
0.0
 10
42.93049412018719
 20
3.071146238224591
 30
0.0
 10
42.69916902859539
 20
2.937820696220604
 30
0.0
 10
42.45943322515507
 20
2.84255635979595
 30
0.0
  0
LINE
  5
B6
330
1F
100
AcDbEntity
  8
0
  6
Continuous
 62
     1
370
    15
100
AcDbLine
 10
28.45478654789228
 20
-4.238274713727154
 30
0.0
 11
26.98750000001296
 21
-4.84392765625134
 31
0.0
  0
SPLINE
  5
B7
330
1F
100
AcDbEntity
  8
외형선
  6
Continuous
370
    15
100
AcDbSpline
210
0.0
220
0.0
230
1.0
 70
    24
 71
     3
 72
     9
 73
     5
 74
     0
 42
0.000000001
 43
0.00000001
 40
0.0
 40
0.0
 40
0.0
 40
0.0
 40
0.6104897331346089
 40
1.0
 40
1.0
 40
1.0
 40
1.0
 10
26.98749999999999
 20
-4.19014486738619
 30
0.0
 10
26.98749999999999
 20
-4.309625523213343
 30
0.0
 10
26.98749999999999
 20
-4.505338324497766
 30
0.0
 10
26.98749999999999
 20
-4.749013624935058
 30
0.0
 10
26.98749999999999
 20
-4.843927656236892
 30
0.0
  0
LINE
  5
B8
330
1F
100
AcDbEntity
  8
중심선
 48
0.8
100
AcDbLine
 10
-50.625
 20
-0.0000000000000062
 30
0.0
 11
50.625
 21
0.0000000000000062
 31
0.0
  0
LINE
  5
B9
330
1F
100
AcDbEntity
  8
참조1
100
AcDbLine
 10
-18.06286934298443
 20
0.0010749287238892
 30
0.0
 11
-18.06286934298442
 21
-39.99892507127611
 31
0.0
  0
LINE
  5
BA
330
1F
100
AcDbEntity
  8
참조1
100
AcDbLine
 10
29.56213065701557
 20
0.0010749287238892
 30
0.0
 11
29.56213065701557
 21
0.6320484065631995
 31
0.0
  0
LINE
  5
BB
330
1F
100
AcDbEntity
  8
참조1
100
AcDbLine
 10
-18.06286934298442
 20
-39.99892507127611
 30
0.0
 11
-29.25297615729311
 21
-39.9989250712761
 31
0.0
  0
CIRCLE
  5
BC
330
1F
100
AcDbEntity
  8
해칭선
100
AcDbCircle
 10
0.0
 20
0.0
 30
0.0
 40
3.000000000000001
  0
INSERT
  5
BD
330
1F
100
AcDbEntity
  8
0
  6
Continuous
 62
     7
100
AcDbBlockReference
 66
     1
  2
블럭10
 10
-13.9402729321252
 20
-52.04717430164393
 30
0.0
  0
ATTRIB
  5
BE
330
BD
100
AcDbEntity
  8
FORMAT
 62
     2
100
AcDbText
 10
-23.12156822086649
 20
-49.97180738881174
 30
0.0
 40
4.233333333333333
  1
E2112032 [ 2 FLUTE ]
 41
0.75
  7
SLDTEXTSTYLE0
 11
-23.12156822086649
 21
-52.08847405547841
 31
0.0
100
AcDbAttribute
  2
AUTOATTR0
 70
     0
 74
     1
  0
SEQEND
  5
BF
330
BD
100
AcDbEntity
  8
0
  6
Continuous
 62
     7
  0
HATCH
  5
C0
330
1F
100
AcDbEntity
  8
중심선
100
AcDbHatch
 10
0.0
 20
0.0
 30
0.0
210
0.0
220
0.0
230
1.0
  2
SOLID
 70
     1
 71
     0
 91
        1
 92
        0
 93
        4
 72
     1
 10
-8.225363627744372
 20
-35.8
 11
-11.67163887158165
 21
-35.8
 72
     1
 10
-11.67163887158165
 20
-35.8
 11
-13.79986873078568
 21
-38.3363255805726
 72
     1
 10
-13.79986873078568
 20
-38.3363255805726
 11
-10.35356040183524
 21
-38.33628615127011
 72
     1
 10
-10.35356040183524
 20
-38.33628615127011
 11
-8.225363627744372
 21
-35.8
 97
        0
 75
     0
 76
     1
 98
        1
 10
18.06286934298443
 20
-0.001074928723895
  0
HATCH
  5
C1
330
1F
100
AcDbEntity
  8
중심선
100
AcDbHatch
 10
0.0
 20
0.0
 30
0.0
210
0.0
220
0.0
230
1.0
  2
SOLID
 70
     1
 71
     0
 91
        1
 92
        0
 93
        4
 72
     1
 10
-3.212599636708418
 20
-35.8
 11
-6.658874880545703
 21
-35.80000000000003
 72
     1
 10
-6.658874880545703
 20
-35.80000000000003
 11
-11.19001288890309
 21
-41.20000000000002
 72
     1
 10
-11.19001288890309
 20
-41.20000000000002
 11
-7.743737645065806
 21
-41.20000000000002
 72
     1
 10
-7.743737645065806
 20
-41.20000000000002
 11
-3.212599636708418
 21
-35.8
 97
        0
 75
     0
 76
     1
 98
        1
 10
18.06286934298443
 20
-0.001074928723895
  0
HATCH
  5
C2
330
1F
100
AcDbEntity
  8
중심선
100
AcDbHatch
 10
0.0
 20
0.0
 30
0.0
210
0.0
220
0.0
230
1.0
  2
SOLID
 70
     1
 71
     0
 91
        1
 92
        0
 93
        4
 72
     1
 10
1.800164354327478
 20
-35.79999999999998
 11
-1.646110889509639
 21
-35.8
 72
     1
 10
-1.646110889509639
 20
-35.8
 11
-8.69454779139889
 21
-44.20000000000002
 72
     1
 10
-8.69454779139889
 20
-44.20000000000002
 11
-5.248272547561605
 21
-44.20000000000002
 72
     1
 10
-5.248272547561605
 20
-44.20000000000002
 11
1.800164354327478
 21
-35.79999999999998
 97
        0
 75
     0
 76
     1
 98
        1
 10
18.06286934298443
 20
-0.001074928723895
  0
HATCH
  5
C3
330
1F
100
AcDbEntity
  8
중심선
100
AcDbHatch
 10
0.0
 20
0.0
 30
0.0
210
0.0
220
0.0
230
1.0
  2
SOLID
 70
     1
 71
     0
 91
        1
 92
        0
 93
        6
 72
     3
 10
6.600054785339676
 20
-40.00000000005127
 11
3.960054785062283
 21
1.540882976769353E-10
 40
0.3939339440162628
 50
17.09539180608436
 51
320.0019657685078
 73
     0
 72
     1
 10
8.28305444104027
 20
-38.5878940046383
 11
10.58835631474131
 21
-36.65356729459038
 72
     3
 10
6.600054785286829
 20
-40.00000000000015
 11
6.600054785286829
 21
-1.278976924368180E-13
 40
0.636358354079598
 50
39.99873849337411
 51
368.4976242363724
 73
     1
 72
     1
 10
13.02538727718744
 20
-39.03999999993002
 11
5.280122092122752
 21
-39.03999999993002
 72
     1
 10
5.280122092122753
 20
-39.03999999993002
 11
5.280097047676819
 21
-40.95999999992991
 72
     1
 10
5.280097047676819
 20
-40.95999999992991
 11
9.721476817148854
 21
-40.95999999992988
 97
        0
 75
     0
 76
     1
 98
        1
 10
18.06286934298443
 20
-0.001074928723895
  0
DIMENSION
  5
C4
330
1F
100
AcDbEntity
  8
0
  6
Continuous
370
    15
100
AcDbDimension
  2
_D
 10
26.9875
 20
15.23049030816912
 30
0.0
 11
5.009125828562162
 21
15.23049030816912
 31
0.0
 70
   160
  1
<>
 71
     2
 42
20.7
  3
SLDDIMSTYLE0
100
AcDbAlignedDimension
 13
47.6875
 23
6.350000000000025
 33
0.0
 14
26.9875
 24
4.843927656236894
 34
0.0
100
AcDbRotatedDimension
1001
ACAD
1000
DSTYLE
1002
{
1070
   171
1070
     6
1070
   273
1070
     7
1002
}
  0
DIMENSION
  5
D9
330
1F
100
AcDbEntity
  8
0
  6
Continuous
370
    15
100
AcDbDimension
  2
_D_1
 10
-47.625
 20
29.28797898817498
 30
0.0
 11
0.4168735043745606
 21
29.28797898817498
 31
0.0
 70
   160
  1
<>
 71
     2
 42
95.3125
  3
SLDDIMSTYLE0
100
AcDbAlignedDimension
 13
47.6875
 23
6.350000000000025
 33
0.0
 14
-47.625
 24
6.349999999999993
 34
0.0
 50
0.0000000000000043
100
AcDbRotatedDimension
1001
ACAD
1000
DSTYLE
1002
{
1070
   171
1070
     6
1070
   273
1070
     7
1002
}
  0
DIMENSION
  5
EC
330
1F
100
AcDbEntity
  8
0
  6
Continuous
370
    15
100
AcDbDimension
  2
_D_2
 10
-60.05499999999997
 20
-6.350000000000135
 30
0.0
 11
-60.05499999999999
 21
-0.0000000000000027
 31
0.0
 70
   160
  1
%%c<>
 71
     2
 42
12.7
 52
-270.0
  3
SLDDIMSTYLE0
100
AcDbAlignedDimension
 13
-24.95716055055583
 23
6.349999999999998
 33
0.0
 14
-24.95716055055583
 24
-6.350000000000003
 34
0.0
 50
90.0000000000002
100
AcDbRotatedDimension
1001
ACAD
1000
DSTYLE
1002
{
1070
   171
1070
     6
1070
   273
1070
     7
1002
}
  0
DIMENSION
  5
101
330
1F
100
AcDbEntity
  8
0
  6
Continuous
370
    15
100
AcDbDimension
  2
_D_3
 10
61.03743490650329
 20
-6.349999999999927
 30
0.0
 11
61.03743490650319
 21
21.90200000000007
 31
0.0
 70
   160
  1
%%c<>
 71
     2
 42
12.7
 52
-270.0
  3
SLDDIMSTYLE0
100
AcDbAlignedDimension
 13
47.625
 23
6.350000000000025
 33
0.0
 14
47.62499999999999
 24
-6.349999999999977
 34
0.0
 50
90.0000000000002
100
AcDbRotatedDimension
1001
ACAD
1000
DSTYLE
1002
{
1070
   171
1070
     6
1070
   273
1070
     7
1002
}
  0
LINE
  5
115
330
1F
100
AcDbEntity
  8
참조1
100
AcDbLine
 10
68.71936447236115
 20
7.441074928723896
 30
0.0
 11
68.71936447236115
 21
-7.438925071276109
 31
0.0
  0
LINE
  5
116
330
1F
100
AcDbEntity
  8
참조1
100
AcDbLine
 10
81.41936447236115
 20
5.441074928723896
 30
0.0
 11
68.71936447236115
 21
5.441074928723896
 31
0.0
  0
SOLID
  5
117
330
1F
100
AcDbEntity
  8
참조1
100
AcDbTrace
 10
68.71936447236115
 20
5.441074928723896
 30
0.0
 11
75.06936447236114
 21
4.425074928723896
 31
0.0
 12
75.06936447236114
 22
6.457074928723896
 32
0.0
 13
75.06936447236114
 23
6.457074928723896
 33
0.0
  0
LINE
  5
118
330
1F
100
AcDbEntity
  8
참조1
100
AcDbLine
 10
81.41936447236115
 20
-5.438925071276109
 30
0.0
 11
68.71936447236115
 21
-5.438925071276109
 31
0.0
  0
SOLID
  5
119
330
1F
100
AcDbEntity
  8
참조1
100
AcDbTrace
 10
68.71936447236115
 20
-5.438925071276109
 30
0.0
 11
75.06936447236114
 21
-6.454925071276109
 31
0.0
 12
75.06936447236114
 22
-4.422925071276109
 32
0.0
 13
75.06936447236114
 23
-4.422925071276109
 33
0.0
  0
MTEXT
  5
11A
330
1F
100
AcDbEntity
  8
참조1
100
AcDbMText
 10
78.11685456483143
 20
10.98929157337383
 30
0.0
 40
3.5
 41
0.0
 71
     1
 72
     1
  1
A
  7
SLDTEXTSTYLE0
 73
     1
 44
1.0
  0
MTEXT
  5
11B
330
1F
100
AcDbEntity
  8
참조1
100
AcDbMText
 10
78.11685456483143
 20
0.1092915733738251
 30
0.0
 40
3.5
 41
0.0
 71
     1
 72
     1
  1
A
  7
SLDTEXTSTYLE0
 73
     1
 44
1.0
  0
INSERT
  5
122
330
1F
100
AcDbEntity
  8
해칭선
100
AcDbBlockReference
  2
SW_DOWELSYMBOL_0
 10
0.0
 20
0.0
 30
0.0
  0
LINE
  5
35C
330
1F
100
AcDbEntity
  8
0
  6
Continuous
 62
     1
370
    15
100
AcDbLine
 10
-40.00480918849605
 20
6.350000000000001
 30
0.0
 11
-41.27500000000002
 21
6.350000000000001
 31
0.0
  0
ARC
  5
35D
330
1F
100
AcDbEntity
  8
0
  6
Continuous
 62
     1
370
    15
100
AcDbCircle
 10
-41.27500000000002
 20
0.0000000000000037
 30
0.0
 40
6.35
100
AcDbArc
 50
90.00000000000053
 51
180.0
  0
ARC
  5
35E
330
1F
100
AcDbEntity
  8
0
  6
Continuous
 62
     1
370
    15
100
AcDbCircle
 10
-41.27500000000002
 20
0.0000000000000037
 30
0.0
 40
6.35
100
AcDbArc
 50
180.0
 51
270.0
  0
LINE
  5
35F
330
1F
100
AcDbEntity
  8
0
  6
Continuous
 62
     1
370
    15
100
AcDbLine
 10
-41.27500000000002
 20
-6.349999999999994
 30
0.0
 11
-40.00480918849605
 21
-6.349999999999994
 31
0.0
  0
LINE
  5
360
330
1F
100
AcDbEntity
  8
외형선
  6
Continuous
370
    15
100
AcDbLine
 10
-24.95716055055583
 20
-5.514983861245405
 30
0.0
 11
-24.95716055055583
 21
-6.349999999999998
 31
0.0
  0
SPLINE
  5
361
330
1F
100
AcDbEntity
  8
외형선
  6
Continuous
370
    15
100
AcDbSpline
210
0.0
220
0.0
230
1.0
 70
     8
 71
     3
 72
     8
 73
     4
 74
     0
 42
0.000000001
 43
0.00000001
 40
0.0
 40
0.0
 40
0.0
 40
0.0
 40
1.0
 40
1.0
 40
1.0
 40
1.0
 10
-26.98750000001313
 20
-4.843927656251285
 30
0.0
 10
-26.31378525736984
 20
-5.096142908537509
 30
0.0
 10
-25.63298651438281
 20
-5.321630232765866
 30
0.0
 10
-24.95716055055583
 20
-5.515160092762759
 30
0.0
  0
SPLINE
  5
362
330
1F
100
AcDbEntity
  8
외형선
  6
Continuous
370
    15
100
AcDbSpline
210
0.0
220
0.0
230
1.0
 70
     8
 71
     3
 72
     8
 73
     4
 74
     0
 42
0.000000001
 43
0.00000001
 40
0.0
 40
0.0
 40
0.0
 40
0.0
 40
1.0
 40
1.0
 40
1.0
 40
1.0
 10
-24.95739681262584
 20
1.278492346952426
 30
0.0
 10
-25.63314557661757
 20
1.660918163014909
 30
0.0
 10
-26.31386376527358
 20
2.036964453008522
 30
0.0
 10
-26.9875
 20
2.398096896552214
 30
0.0
  0
LINE
  5
363
330
1F
100
AcDbEntity
  8
외형선
  6
Continuous
370
    15
100
AcDbLine
 10
-24.95716055055583
 20
6.349999999999998
 30
0.0
 11
-24.95716055055583
 21
1.278168036435961
 31
0.0
  0
SPLINE
  5
364
330
1F
100
AcDbEntity
  8
외형선
  6
Continuous
370
    15
100
AcDbSpline
210
0.0
220
0.0
230
1.0
 70
     8
 71
     3
 72
     8
 73
     4
 74
     0
 42
0.000000001
 43
0.00000001
 40
0.0
 40
0.0
 40
0.0
 40
0.0
 40
1.0
 40
1.0
 40
1.0
 40
1.0
 10
-26.98750000001313
 20
4.843927656251285
 30
0.0
 10
-26.31378525736984
 20
5.096142908537509
 30
0.0
 10
-25.63298651438281
 20
5.321630232765866
 30
0.0
 10
-24.95716055055583
 20
5.515160092762756
 30
0.0
  0
LINE
  5
365
330
1F
100
AcDbEntity
  8
외형선
  6
Continuous
370
    15
100
AcDbLine
 10
-26.9875
 20
-4.843927656256195
 30
0.0
 11
-26.9875
 21
2.398096896552214
 31
0.0
  0
SPLINE
  5
366
330
1F
100
AcDbEntity
  8
외형선
  6
Continuous
370
    15
100
AcDbSpline
210
0.0
220
0.0
230
1.0
 70
     8
 71
     3
 72
     8
 73
     4
 74
     0
 42
0.000000001
 43
0.00000001
 40
0.0
 40
0.0
 40
0.0
 40
0.0
 40
1.0
 40
1.0
 40
1.0
 40
1.0
 10
-26.98750000000003
 20
4.123971628113988
 30
0.0
 10
-26.31378525736123
 20
4.044062824156399
 30
0.0
 10
-25.63298651437843
 20
3.940377147526842
 30
0.0
 10
-24.95716055055583
 20
3.815207262495903
 30
0.0
  0
SPLINE
  5
367
330
1F
100
AcDbEntity
  8
외형선
  6
Continuous
370
    15
100
AcDbSpline
210
0.0
220
0.0
230
1.0
 70
    24
 71
     3
 72
    12
 73
     8
 74
     0
 42
0.000000001
 43
0.00000001
 40
0.0
 40
0.0
 40
0.0
 40
0.0
 40
0.0638664247482227
 40
0.2950458094940209
 40
0.5262251942398184
 40
0.7574045789856158
 40
1.0
 40
1.0
 40
1.0
 40
1.0
 10
-26.9875
 20
2.398096896552214
 30
0.0
 10
-26.9875
 20
2.413822676074421
 30
0.0
 10
-26.9875
 20
2.486471573634361
 30
0.0
 10
-26.9875
 20
2.718605263307911
 30
0.0
 10
-26.9875
 20
3.092185849934033
 30
0.0
 10
-26.9875
 20
3.559495468718723
 30
0.0
 10
-26.9875
 20
3.932814421375173
 30
0.0
 10
-26.9875
 20
4.123971628113988
 30
0.0
  0
SPLINE
  5
368
330
1F
100
AcDbEntity
  8
외형선
  6
Continuous
370
    15
100
AcDbSpline
210
0.0
220
0.0
230
1.0
 70
    24
 71
     3
 72
    10
 73
     6
 74
     0
 42
0.000000001
 43
0.00000001
 40
0.0
 40
0.0
 40
0.0
 40
0.0
 40
0.6104317011018523
 40
0.8050049499351806
 40
1.0
 40
1.0
 40
1.0
 40
1.0
 10
-26.9875
 20
4.190134867386192
 30
0.0
 10
-26.9875
 20
4.309852983393366
 30
0.0
 10
-26.9875
 20
4.467730884899353
 30
0.0
 10
-26.9875
 20
4.700951297652178
 30
0.0
 10
-26.9875
 20
4.796234481066367
 30
0.0
 10
-26.9875
 20
4.843927656236772
 30
0.0
  0
SPLINE
  5
369
330
1F
100
AcDbEntity
  8
0
  6
Continuous
 62
     1
370
    15
100
AcDbSpline
210
0.0
220
0.0
230
1.0
 70
     8
 71
     3
 72
    30
 73
    26
 74
     0
 42
0.000000001
 43
0.00000001
 40
0.0
 40
0.0
 40
0.0
 40
0.0
 40
0.0624999999999999
 40
0.0624999999999999
 40
0.1249999999999998
 40
0.1249999999999998
 40
0.2499999999999996
 40
0.2499999999999996
 40
0.3124999999999997
 40
0.3124999999999997
 40
0.3749999999999997
 40
0.3749999999999997
 40
0.4999999999999996
 40
0.4999999999999996
 40
0.5624999999999996
 40
0.5624999999999996
 40
0.6249999999999996
 40
0.6249999999999996
 40
0.7499999999999999
 40
0.7499999999999999
 40
0.8124999999999999
 40
0.8124999999999999
 40
0.8749999999999999
 40
0.8749999999999999
 40
1.0
 40
1.0
 40
1.0
 40
1.0
 10
-41.27500000000002
 20
2.655292159901801
 30
0.0
 10
-40.97715539885179
 20
2.499147807690409
 30
0.0
 10
-40.68153172290299
 20
2.340479828153214
 30
0.0
 10
-40.08704398268632
 20
2.017785842830662
 30
0.0
 10
-39.78844579713176
 20
1.85379810613815
 30
0.0
 10
-38.89300744045464
 20
1.356316018020501
 30
0.0
 10
-38.30141891913335
 20
1.018237124852995
 30
0.0
 10
-37.40705199868715
 20
0.505328518917196
 30
0.0
 10
-37.10819352744041
 20
0.3334735487252659
 30
0.0
 10
-36.51195889438388
 20
-0.0103082167522891
 30
0.0
 10
-36.21567827712933
 20
-0.1820229924568507
 30
0.0
 10
-35.32534693292244
 20
-0.696290631778769
 30
0.0
 10
-34.72544101764139
 20
-1.038787417877127
 30
0.0
 10
-33.83373687850288
 20
-1.541905901519964
 30
0.0
 10
-33.53810444510439
 20
-1.707806416982951
 30
0.0
 10
-32.94240210203422
 20
-2.036317424878288
 30
0.0
 10
-32.6435803564476
 20
-2.198689905335094
 30
0.0
 10
-31.74863354654566
 20
-2.677739787359418
 30
0.0
 10
-31.15738987266325
 20
-2.985784665197247
 30
0.0
 10
-30.26217094309554
 20
-3.427606888636003
 30
0.0
 10
-29.96341530403832
 20
-3.571321890527166
 30
0.0
 10
-29.36815663051321
 20
-3.850233428052018
 30
0.0
 10
-29.07269104458702
 20
-3.985285158143505
 30
0.0
 10
-28.18017355667372
 20
-4.37780915120408
 30
0.0
 10
-27.58035088364959
 20
-4.62198500646182
 30
0.0
 10
-26.98750000001296
 20
-4.843927656251342
 30
0.0
  0
SPLINE
  5
36A
330
1F
100
AcDbEntity
  8
0
  6
Continuous
 62
     1
370
    15
100
AcDbSpline
210
0.0
220
0.0
230
1.0
 70
     8
 71
     3
 72
    16
 73
    12
 74
     0
 42
0.000000001
 43
0.00000001
 40
0.0
 40
0.0
 40
0.0
 40
0.0
 40
0.1135344467425736
 40
0.2270538198456623
 40
0.3351328563594668
 40
0.443268342044721
 40
0.5514808841435302
 40
0.6846071550487443
 40
0.8177331055440897
 40
0.9508587284782739
 40
1.0
 40
1.0
 40
1.0
 40
1.0
 10
-45.92506103010795
 20
-0.6654050732758704
 30
0.0
 10
-45.26393180107918
 20
-0.9201986519716775
 30
0.0
 10
-43.94176111923353
 20
-1.429751981158205
 30
0.0
 10
-41.99024526701608
 20
-2.130605231153609
 30
0.0
 10
-40.07025179466841
 20
-2.755991320725197
 30
0.0
 10
-38.18103823604729
 20
-3.289783145344426
 30
0.0
 10
-36.14577902165512
 20
-3.759566022912725
 30
0.0
 10
-33.96502757229591
 20
-4.125302954419801
 30
0.0
 10
-31.63917709175733
 20
-4.318886650535386
 30
0.0
 10
-29.80243222934187
 20
-4.356337504220161
 30
0.0
 10
-28.74096928508054
 20
-4.263346238838288
 30
0.0
 10
-28.45478654789228
 20
-4.238274713727154
 30
0.0
  0
SPLINE
  5
36B
330
1F
100
AcDbEntity
  8
0
  6
Continuous
 62
     1
370
    15
100
AcDbSpline
210
0.0
220
0.0
230
1.0
 70
     8
 71
     3
 72
    32
 73
    28
 74
     0
 42
0.000000001
 43
0.00000001
 40
0.0
 40
0.0
 40
0.0
 40
0.0
 40
0.1249999999999996
 40
0.1249999999999996
 40
0.1874999999999999
 40
0.1874999999999999
 40
0.2500000000000003
 40
0.2500000000000003
 40
0.3750000000000009
 40
0.3750000000000009
 40
0.4375000000000007
 40
0.4375000000000007
 40
0.5000000000000007
 40
0.5000000000000007
 40
0.5625000000000006
 40
0.5625000000000006
 40
0.6250000000000004
 40
0.6250000000000004
 40
0.6875000000000004
 40
0.6875000000000004
 40
0.7500000000000003
 40
0.7500000000000003
 40
0.8125000000000002
 40
0.8125000000000002
 40
0.8750000000000001
 40
0.8750000000000001
 40
1.0
 40
1.0
 40
1.0
 40
1.0
 10
-41.27500000000002
 20
2.65529215990189
 30
0.0
 10
-41.6277287244264
 20
2.840209388448532
 30
0.0
 10
-41.97506010939729
 20
3.005482272546796
 30
0.0
 10
-42.49447605580353
 20
3.214835064700733
 30
0.0
 10
-42.66736099420744
 20
3.27813043030535
 30
0.0
 10
-43.01401638600571
 20
3.389119343006978
 30
0.0
 10
-43.18857030480511
 20
3.436924169352519
 30
0.0
 10
-43.70544506289555
 20
3.547729612112963
 30
0.0
 10
-44.04344084105482
 20
3.581111802849218
 30
0.0
 10
-44.55167409842089
 20
3.542999303293499
 30
0.0
 10
-44.71792507976959
 20
3.515488374195129
 30
0.0
 10
-45.04445924202265
 20
3.425493299726345
 30
0.0
 10
-45.20665608698839
 20
3.362192547844021
 30
0.0
 10
-45.51801053728151
 20
3.194290499242925
 30
0.0
 10
-45.66629725298058
 20
3.090685291955381
 30
0.0
 10
-45.94712233068201
 20
2.833523886337012
 30
0.0
 10
-46.07327119701073
 20
2.685728224618632
 30
0.0
 10
-46.29336529463815
 20
2.346807302994669
 30
0.0
 10
-46.38173384352054
 20
2.163798011683852
 30
0.0
 10
-46.51252669238626
 20
1.776731512422544
 30
0.0
 10
-46.55253455101688
 20
1.579306825450523
 30
0.0
 10
-46.58590185983478
 20
1.186634249531057
 30
0.0
 10
-46.57907539541183
 20
0.996947450661189
 30
0.0
 10
-46.52840001068428
 20
0.6297204604518819
 30
0.0
 10
-46.48388927159941
 20
0.4508758536197207
 30
0.0
 10
-46.30892293689074
 20
-0.0574377836329559
 30
0.0
 10
-46.13616395998831
 20
-0.368686111917249
 30
0.0
 10
-45.92506103010781
 20
-0.6654050732759272
 30
0.0
  0
SPLINE
  5
36C
330
1F
100
AcDbEntity
  8
0
  6
Continuous
 62
     1
370
    15
100
AcDbSpline
210
0.0
220
0.0
230
1.0
 70
     8
 71
     3
 72
    16
 73
    12
 74
     0
 42
0.000000001
 43
0.00000001
 40
0.0
 40
0.0
 40
0.0
 40
0.0
 40
0.1721152673465111
 40
0.2589897583717581
 40
0.3460949013497862
 40
0.486355500472237
 40
0.6275911644512402
 40
0.7436946509594932
 40
0.8603474552827359
 40
0.9786811947213732
 40
0.9999999999999999
 40
0.9999999999999999
 40
0.9999999999999999
 40
0.9999999999999999
 10
-26.9875
 20
2.398096896552214
 30
0.0
 10
-27.73454809058673
 20
2.78825456202593
 30
0.0
 10
-28.8586657092964
 20
3.375342744647718
 30
0.0
 10
-30.36016787119748
 20
4.067731292147663
 30
0.0
 10
-31.72338995959761
 20
4.64753229445197
 30
0.0
 10
-33.32324483966453
 20
5.237711015390726
 30
0.0
 10
-35.04850124916653
 20
5.737605769937957
 30
0.0
 10
-36.67052200613578
 20
6.081697638665652
 30
0.0
 10
-38.19458086670208
 20
6.277287526995195
 30
0.0
 10
-39.30649738829918
 20
6.362791018321566
 30
0.0
 10
-39.91232581619072
 20
6.343665391433198
 30
0.0
 10
-40.00480918849605
 20
6.340745748856754
 30
0.0
  0
SPLINE
  5
36D
330
1F
100
AcDbEntity
  8
0
  6
Continuous
 62
     1
370
    15
100
AcDbSpline
210
0.0
220
0.0
230
1.0
 70
     8
 71
     3
 72
    12
 73
     8
 74
     0
 42
0.000000001
 43
0.00000001
 40
0.0
 40
0.0
 40
0.0
 40
0.0
 40
0.2499999999999999
 40
0.2499999999999999
 40
0.4999999999999998
 40
0.4999999999999998
 40
1.0
 40
1.0
 40
1.0
 40
1.0
 10
-45.92506103010778
 20
-0.6654050732759343
 30
0.0
 10
-45.99809878065683
 20
-0.7094150012263184
 30
0.0
 10
-46.06316010359409
 20
-0.7639776579473362
 30
0.0
 10
-46.17727706885496
 20
-0.8948209829803416
 30
0.0
 10
-46.22670672479585
 20
-0.9723440650913914
 30
0.0
 10
-46.34363748031812
 20
-1.22712140159566
 30
0.0
 10
-46.38222579939172
 20
-1.431769337843658
 30
0.0
 10
-46.38577762452555
 20
-1.644588386775609
 30
0.0
  0
ARC
  5
36E
330
1F
100
AcDbEntity
  8
0
  6
Continuous
 62
     1
370
    15
100
AcDbCircle
 10
-44.58694250395699
 20
1.103839521024583
 30
0.0
 40
3.284762359040007
100
AcDbArc
 50
203.8412527948187
 51
236.7954126926313
  0
ARC
  5
36F
330
1F
100
AcDbEntity
  8
0
  6
Continuous
 62
     1
370
    15
100
AcDbCircle
 10
-41.89982781747345
 20
-0.1074327361078352
 30
0.0
 40
5.692775582952177
100
AcDbArc
 50
181.172026359248
 51
251.06103325458
  0
SPLINE
  5
370
330
1F
100
AcDbEntity
  8
0
  6
Continuous
 62
     1
370
    15
100
AcDbSpline
210
0.0
220
0.0
230
1.0
 70
     8
 71
     3
 72
    10
 73
     6
 74
     0
 42
0.000000001
 43
0.00000001
 40
0.0
 40
0.0
 40
0.0
 40
0.0
 40
0.5
 40
0.5
 40
1.0
 40
1.0
 40
1.0
 40
1.0
 10
-43.74747946690543
 20
-5.492029027400953
 30
0.0
 10
-43.35452925494984
 20
-5.731472423406082
 30
0.0
 10
-42.95050155348029
 20
-5.919789166307972
 30
0.0
 10
-42.12568665513395
 20
-6.193564261259983
 30
0.0
 10
-41.70065752971412
 20
-6.279335541042691
 30
0.0
 10
-41.27499999999999
 20
-6.30765747762818
 30
0.0
  0
SPLINE
  5
371
330
1F
100
AcDbEntity
  8
0
  6
Continuous
 62
     1
370
    15
100
AcDbSpline
210
0.0
220
0.0
230
1.0
 70
     8
 71
     3
 72
     9
 73
     5
 74
     0
 42
0.000000001
 43
0.00000001
 40
0.0
 40
0.0
 40
0.0
 40
0.0
 40
0.4083652193433723
 40
1.0
 40
1.0
 40
1.0
 40
1.0
 10
-30.91870056629027
 20
4.297819518366587
 30
0.0
 10
-30.38357860105963
 20
4.309276193227589
 30
0.0
 10
-29.07317815586241
 20
4.337331165390555
 30
0.0
 10
-27.76277819400563
 20
4.203280603119893
 30
0.0
 10
-26.98750000000003
 20
4.123971628113988
 30
0.0
  0
SPLINE
  5
372
330
1F
100
AcDbEntity
  8
외형선
  6
Continuous
370
    15
100
AcDbSpline
210
0.0
220
0.0
230
1.0
 70
    24
 71
     3
 72
    12
 73
     8
 74
     0
 42
0.000000001
 43
0.00000001
 40
0.0
 40
0.0
 40
0.0
 40
0.0
 40
0.0638664247482218
 40
0.2950458094940203
 40
0.5262251942398178
 40
0.7574045789856155
 40
1.0
 40
1.0
 40
1.0
 40
1.0
 10
-26.9875
 20
2.398096896552214
 30
0.0
 10
-26.9875
 20
2.413822676074417
 30
0.0
 10
-26.9875
 20
2.486471573634361
 30
0.0
 10
-26.9875
 20
2.718605263307911
 30
0.0
 10
-26.9875
 20
3.092185849934033
 30
0.0
 10
-26.9875
 20
3.559495468718726
 30
0.0
 10
-26.9875
 20
3.932814421375173
 30
0.0
 10
-26.9875
 20
4.123971628113988
 30
0.0
  0
SPLINE
  5
373
330
1F
100
AcDbEntity
  8
0
  6
Continuous
 62
     1
370
    15
100
AcDbSpline
210
0.0
220
0.0
230
1.0
 70
     8
 71
     3
 72
     8
 73
     4
 74
     0
 42
0.000000001
 43
0.00000001
 40
0.0
 40
0.0
 40
0.0
 40
0.0
 40
1.0
 40
1.0
 40
1.0
 40
1.0
 10
-42.45943322515508
 20
-2.842556359795942
 30
0.0
 10
-43.75029225220716
 20
-2.4837899233999
 30
0.0
 10
-45.06636978110176
 20
-2.07958891033471
 30
0.0
 10
-46.38577762452555
 20
-1.644588386775663
 30
0.0
  0
SPLINE
  5
374
330
1F
100
AcDbEntity
  8
0
  6
Continuous
 62
     1
370
    15
100
AcDbSpline
210
0.0
220
0.0
230
1.0
 70
     8
 71
     3
 72
    15
 73
    11
 74
     0
 42
0.000000001
 43
0.00000001
 40
0.0
 40
0.0
 40
0.0
 40
0.0
 40
0.0554443729227873
 40
0.1435295670365297
 40
0.3204253678111431
 40
0.4092771904110417
 40
0.5552001828467842
 40
0.7018135774553845
 40
0.8505396311193288
 40
1.0
 40
1.0
 40
1.0
 40
1.0
 10
-30.91870056629027
 20
-4.297819518366587
 30
0.0
 10
-31.11009720681535
 20
-4.380192259827066
 30
0.0
 10
-31.60556817165194
 20
-4.593431643630712
 30
0.0
 10
-32.71133192036596
 20
-5.015279592060214
 30
0.0
 10
-33.9329427369414
 20
-5.422395655608401
 30
0.0
 10
-35.35457661180645
 20
-5.802219763737014
 30
0.0
 10
-36.67047755978986
 20
-6.080384143081403
 30
0.0
 10
-38.19459441541007
 20
-6.282737982973199
 30
0.0
 10
-39.7298979240537
 20
-6.374506894130196
 30
0.0
 10
-40.75912111813885
 20
-6.329977169495109
 30
0.0
 10
-41.27500000000005
 20
-6.307657477628123
 30
0.0
  0
SPLINE
  5
375
330
1F
100
AcDbEntity
  8
0
  6
Continuous
 62
     1
370
    15
100
AcDbSpline
210
0.0
220
0.0
230
1.0
 70
     8
 71
     3
 72
    18
 73
    14
 74
     0
 42
0.000000001
 43
0.00000001
 40
0.0
 40
0.0
 40
0.0
 40
0.0
 40
0.2500000000000006
 40
0.2500000000000006
 40
0.3750000000000007
 40
0.3750000000000007
 40
0.5000000000000009
 40
0.5000000000000009
 40
0.6250000000000007
 40
0.6250000000000007
 40
0.7500000000000006
 40
0.7500000000000006
 40
1.0
 40
1.0
 40
1.0
 40
1.0
 10
-43.74747946690546
 20
-5.49202902740096
 30
0.0
 10
-43.79260212148894
 20
-5.225480991656756
 30
0.0
 10
-43.81291088438159
 20
-4.954212169312342
 30
0.0
 10
-43.78341050006038
 20
-4.542005302536534
 30
0.0
 10
-43.76359041154568
 20
-4.406890687662013
 30
0.0
 10
-43.70050754465755
 20
-4.142031562641073
 30
0.0
 10
-43.65644913496185
 20
-4.01077489299497
 30
0.0
 10
-43.54450931103194
 20
-3.764387897867305
 30
0.0
 10
-43.47694227622007
 20
-3.648947374876094
 30
0.0
 10
-43.31822785513661
 20
-3.433830399663115
 30
0.0
 10
-43.22648972919264
 20
-3.334131825211468
 30
0.0
 10
-42.93049412018722
 20
-3.071146238224586
 30
0.0
 10
-42.69916902859539
 20
-2.937820696220598
 30
0.0
 10
-42.45943322515508
 20
-2.842556359795942
 30
0.0
  0
LINE
  5
376
330
1F
100
AcDbEntity
  8
0
  6
Continuous
 62
     1
370
    15
100
AcDbLine
 10
-28.45478654789228
 20
4.238274713727154
 30
0.0
 11
-26.98750000001296
 21
4.843927656251342
 31
0.0
  0
SPLINE
  5
377
330
1F
100
AcDbEntity
  8
외형선
  6
Continuous
370
    15
100
AcDbSpline
210
0.0
220
0.0
230
1.0
 70
    24
 71
     3
 72
     9
 73
     5
 74
     0
 42
0.000000001
 43
0.00000001
 40
0.0
 40
0.0
 40
0.0
 40
0.0
 40
0.6104897331346089
 40
1.0
 40
1.0
 40
1.0
 40
1.0
 10
-26.9875
 20
4.190144867386191
 30
0.0
 10
-26.9875
 20
4.309625523213345
 30
0.0
 10
-26.9875
 20
4.505338324497767
 30
0.0
 10
-26.9875
 20
4.74901362493506
 30
0.0
 10
-26.9875
 20
4.843927656236893
 30
0.0
  0
LINE
  5
445
330
1F
100
AcDbEntity
  8
외형선
  6
Continuous
370
    15
100
AcDbLine
 10
-24.95716055055583
 20
-6.350000000000003
 30
0.0
 11
24.95716055055581
 21
-6.349999999999997
 31
0.0
  0
LINE
  5
484
330
1F
100
AcDbEntity
  8
외형선
  6
Continuous
370
    15
100
AcDbLine
 10
-4.203700000000019
 20
4.826000000000001
 30
0.0
 11
4.203700000000033
 21
4.826000000000001
 31
0.0
  0
LINE
  5
485
330
1F
100
AcDbEntity
  8
외형선
  6
Continuous
370
    15
100
AcDbLine
 10
-4.203700000000019
 20
4.826000000000001
 30
0.0
 11
-5.72770000000002
 21
6.350000000000001
 31
0.0
  0
LINE
  5
486
330
1F
100
AcDbEntity
  8
외형선
  6
Continuous
370
    15
100
AcDbLine
 10
4.203700000000033
 20
4.826000000000001
 30
0.0
 11
5.727700000000034
 21
6.350000000000001
 31
0.0
  0
LINE
  5
48B
330
1F
100
AcDbEntity
  8
외형선
  6
Continuous
370
    15
100
AcDbLine
 10
-5.727700000000009
 20
6.349999999999997
 30
0.0
 11
-24.95716055055583
 21
6.349999999999994
 31
0.0
  0
ENDSEC
  0
SECTION
  2
OBJECTS
  0
DICTIONARY
  5
C
330
0
100
AcDbDictionary
281
     1
  3
ACAD_GROUP
350
D
  3
ACAD_IMAGE_VARS
350
146
  3
ACAD_LAYOUT
350
1A
  3
ACAD_MLINESTYLE
350
17
  3
ACAD_PLOTSETTINGS
350
19
  3
ACAD_PLOTSTYLENAME
350
E
  3
ACAD_SCALELIST
350
47
  3
APPDATA
350
144
  3
DWGPROPS
350
4AF
  0
DICTIONARY
  5
1FB
330
2
100
AcDbDictionary
280
     1
281
     1
  3
ACAD_LAYERSTATES
360
1FC
  0
DICTIONARY
  5
D
102
{ACAD_REACTORS
330
C
102
}
330
C
100
AcDbDictionary
281
     1
  0
RASTERVARIABLES
  5
146
102
{ACAD_REACTORS
330
C
102
}
330
C
100
AcDbRasterVariables
 90
        0
 70
     1
 71
     1
 72
     1
  0
DICTIONARY
  5
1A
102
{ACAD_REACTORS
330
C
102
}
330
C
100
AcDbDictionary
281
     1
  3
Layout1
350
1E
  3
Layout2
350
26
  3
Model
350
22
  0
DICTIONARY
  5
17
102
{ACAD_REACTORS
330
C
102
}
330
C
100
AcDbDictionary
281
     1
  3
Standard
350
18
  0
DICTIONARY
  5
19
102
{ACAD_REACTORS
330
C
102
}
330
C
100
AcDbDictionary
281
     1
  0
ACDBDICTIONARYWDFLT
  5
E
102
{ACAD_REACTORS
330
C
102
}
330
C
100
AcDbDictionary
281
     1
  3
Normal
350
F
100
AcDbDictionaryWithDefault
340
F
  0
DICTIONARY
  5
47
102
{ACAD_REACTORS
330
C
102
}
330
C
100
AcDbDictionary
281
     1
  3
A0
350
48
  3
A1
350
49
  3
A2
350
4A
  3
A3
350
4B
  3
A4
350
4C
  3
A5
350
4D
  3
A6
350
4E
  3
A7
350
4F
  3
A8
350
50
  3
A9
350
51
  3
B0
350
52
  3
B1
350
53
  3
B2
350
54
  3
B3
350
55
  3
B4
350
56
  3
B5
350
57
  3
B6
350
58
  3
B7
350
59
  3
B8
350
5A
  3
B9
350
5B
  3
C0
350
5C
  3
C1
350
5D
  3
C2
350
5E
  3
C3
350
5F
  3
C4
350
60
  3
C5
350
61
  3
C6
350
62
  3
C7
350
63
  3
C8
350
64
  3
C9
350
65
  3
D0
350
66
  3
D1
350
67
  3
D2
350
68
  0
DICTIONARY
  5
144
102
{ACAD_REACTORS
330
C
102
}
330
C
100
AcDbDictionary
281
     1
  0
XRECORD
  5
4AF
102
{ACAD_REACTORS
330
C
102
}
330
C
100
AcDbXrecord
280
     1
  1
DWGPROPS COOKIE
  2

  3

  4

  6

  7

  8
12016016
  9

300
=
301
=
302
=
303
=
304
=
305
=
306
=
307
=
308
=
309
=
 40
0.0
 41
2458319.36910066
 42
2458323.298767755
  1

 90
        0
  0
DICTIONARY
  5
1FC
102
{ACAD_REACTORS
330
1FB
102
}
330
1FB
100
AcDbDictionary
281
     1
  0
LAYOUT
  5
1E
102
{ACAD_REACTORS
330
1A
102
}
330
1A
100
AcDbPlotSettings
  1

  2
none_device
  4

  6

 40
0.0
 41
0.0
 42
0.0
 43
0.0
 44
0.0
 45
0.0
 46
0.0
 47
0.0
 48
0.0
 49
0.0
140
0.0
141
0.0
142
1.0
143
1.0
 70
   688
 72
     1
 73
     0
 74
     5
  7

 75
    16
147
1.0
148
0.0
149
0.0
100
AcDbLayout
  1
Layout1
 70
     1
 71
     1
 10
0.0
 20
0.0
 11
420.0
 21
297.0
 12
0.0
 22
0.0
 32
0.0
 14
1.000000000000000E+20
 24
1.000000000000000E+20
 34
1.000000000000000E+20
 15
-1.000000000000000E+20
 25
-1.000000000000000E+20
 35
-1.000000000000000E+20
146
0.0
 13
0.0
 23
0.0
 33
0.0
 16
1.0
 26
0.0
 36
0.0
 17
0.0
 27
1.0
 37
0.0
 76
     0
330
1B
  0
LAYOUT
  5
26
102
{ACAD_REACTORS
330
1A
102
}
330
1A
100
AcDbPlotSettings
  1

  2
none_device
  4

  6

 40
0.0
 41
0.0
 42
0.0
 43
0.0
 44
0.0
 45
0.0
 46
0.0
 47
0.0
 48
0.0
 49
0.0
140
0.0
141
0.0
142
1.0
143
1.0
 70
   688
 72
     1
 73
     0
 74
     5
  7

 75
    16
147
1.0
148
0.0
149
0.0
100
AcDbLayout
  1
Layout2
 70
     1
 71
     2
 10
0.0
 20
0.0
 11
0.0
 21
0.0
 12
0.0
 22
0.0
 32
0.0
 14
0.0
 24
0.0
 34
0.0
 15
0.0
 25
0.0
 35
0.0
146
0.0
 13
0.0
 23
0.0
 33
0.0
 16
1.0
 26
0.0
 36
0.0
 17
0.0
 27
1.0
 37
0.0
 76
     0
330
23
  0
LAYOUT
  5
22
102
{ACAD_REACTORS
330
1A
102
}
330
1A
100
AcDbPlotSettings
  1

  2
none_device
  4
ANSI_A_(11.00_x_8.50_Inches)
  6

 40
6.35
 41
19.05
 42
6.35000508
 43
19.05000254
 44
279.4
 45
215.9
 46
138.9968907466238
 47
58.48543528437602
 48
0.0
 49
0.0
140
0.0
141
0.0
142
0.0593531332977396
143
1.0
 70
  1696
 72
     0
 73
     0
 74
     0
  7

 75
     0
147
0.0235690232323232
148
0.0
149
0.0
100
AcDbLayout
  1
Model
 70
     1
 71
     0
 10
0.0
 20
0.0
 11
420.0
 21
297.0
 12
0.0
 22
0.0
 32
0.0
 14
-64.43000000000004
 24
-49.97180738881174
 34
0.0
 15
81.41936447236115
 25
34.15200000000007
 35
0.0
146
0.0
 13
0.0
 23
0.0
 33
0.0
 16
1.0
 26
0.0
 36
0.0
 17
0.0
 27
1.0
 37
0.0
 76
     0
330
1F
331
29
  0
MLINESTYLE
  5
18
102
{ACAD_REACTORS
330
17
102
}
330
17
100
AcDbMlineStyle
  2
Standard
 70
     0
  3

 62
   256
 51
90.0
 52
90.0
 71
     2
 49
0.5
 62
   256
  6
BYLAYER
 49
-0.5
 62
   256
  6
BYLAYER
  0
ACDBPLACEHOLDER
  5
F
102
{ACAD_REACTORS
330
E
102
}
330
E
  0
SCALE
  5
48
102
{ACAD_REACTORS
330
47
102
}
330
47
100
AcDbScale
 70
     0
300
1:1
140
1.0
141
1.0
290
     1
  0
SCALE
  5
49
102
{ACAD_REACTORS
330
47
102
}
330
47
100
AcDbScale
 70
     0
300
1:2
140
1.0
141
2.0
290
     0
  0
SCALE
  5
4A
102
{ACAD_REACTORS
330
47
102
}
330
47
100
AcDbScale
 70
     0
300
1:4
140
1.0
141
4.0
290
     0
  0
SCALE
  5
4B
102
{ACAD_REACTORS
330
47
102
}
330
47
100
AcDbScale
 70
     0
300
1:5
140
1.0
141
5.0
290
     0
  0
SCALE
  5
4C
102
{ACAD_REACTORS
330
47
102
}
330
47
100
AcDbScale
 70
     0
300
1:8
140
1.0
141
8.0
290
     0
  0
SCALE
  5
4D
102
{ACAD_REACTORS
330
47
102
}
330
47
100
AcDbScale
 70
     0
300
1:10
140
1.0
141
10.0
290
     0
  0
SCALE
  5
4E
102
{ACAD_REACTORS
330
47
102
}
330
47
100
AcDbScale
 70
     0
300
1:16
140
1.0
141
16.0
290
     0
  0
SCALE
  5
4F
102
{ACAD_REACTORS
330
47
102
}
330
47
100
AcDbScale
 70
     0
300
1:20
140
1.0
141
20.0
290
     0
  0
SCALE
  5
50
102
{ACAD_REACTORS
330
47
102
}
330
47
100
AcDbScale
 70
     0
300
1:30
140
1.0
141
30.0
290
     0
  0
SCALE
  5
51
102
{ACAD_REACTORS
330
47
102
}
330
47
100
AcDbScale
 70
     0
300
1:40
140
1.0
141
40.0
290
     0
  0
SCALE
  5
52
102
{ACAD_REACTORS
330
47
102
}
330
47
100
AcDbScale
 70
     0
300
1:50
140
1.0
141
50.0
290
     0
  0
SCALE
  5
53
102
{ACAD_REACTORS
330
47
102
}
330
47
100
AcDbScale
 70
     0
300
1:100
140
1.0
141
100.0
290
     0
  0
SCALE
  5
54
102
{ACAD_REACTORS
330
47
102
}
330
47
100
AcDbScale
 70
     0
300
2:1
140
2.0
141
1.0
290
     0
  0
SCALE
  5
55
102
{ACAD_REACTORS
330
47
102
}
330
47
100
AcDbScale
 70
     0
300
4:1
140
4.0
141
1.0
290
     0
  0
SCALE
  5
56
102
{ACAD_REACTORS
330
47
102
}
330
47
100
AcDbScale
 70
     0
300
8:1
140
8.0
141
1.0
290
     0
  0
SCALE
  5
57
102
{ACAD_REACTORS
330
47
102
}
330
47
100
AcDbScale
 70
     0
300
10:1
140
10.0
141
1.0
290
     0
  0
SCALE
  5
58
102
{ACAD_REACTORS
330
47
102
}
330
47
100
AcDbScale
 70
     0
300
100:1
140
100.0
141
1.0
290
     0
  0
SCALE
  5
59
102
{ACAD_REACTORS
330
47
102
}
330
47
100
AcDbScale
 70
     0
300
1/128" = 1'-0"
140
0.0078125
141
12.0
290
     0
  0
SCALE
  5
5A
102
{ACAD_REACTORS
330
47
102
}
330
47
100
AcDbScale
 70
     0
300
1/64" = 1'-0"
140
0.015625
141
12.0
290
     0
  0
SCALE
  5
5B
102
{ACAD_REACTORS
330
47
102
}
330
47
100
AcDbScale
 70
     0
300
1/32" = 1'-0"
140
0.03125
141
12.0
290
     0
  0
SCALE
  5
5C
102
{ACAD_REACTORS
330
47
102
}
330
47
100
AcDbScale
 70
     0
300
1/16" = 1'-0"
140
0.0625
141
12.0
290
     0
  0
SCALE
  5
5D
102
{ACAD_REACTORS
330
47
102
}
330
47
100
AcDbScale
 70
     0
300
3/32" = 1'-0"
140
0.09375
141
12.0
290
     0
  0
SCALE
  5
5E
102
{ACAD_REACTORS
330
47
102
}
330
47
100
AcDbScale
 70
     0
300
1/8" = 1'-0"
140
0.125
141
12.0
290
     0
  0
SCALE
  5
5F
102
{ACAD_REACTORS
330
47
102
}
330
47
100
AcDbScale
 70
     0
300
3/16" = 1'-0"
140
0.1875
141
12.0
290
     0
  0
SCALE
  5
60
102
{ACAD_REACTORS
330
47
102
}
330
47
100
AcDbScale
 70
     0
300
1/4" = 1'-0"
140
0.25
141
12.0
290
     0
  0
SCALE
  5
61
102
{ACAD_REACTORS
330
47
102
}
330
47
100
AcDbScale
 70
     0
300
3/8" = 1'-0"
140
0.375
141
12.0
290
     0
  0
SCALE
  5
62
102
{ACAD_REACTORS
330
47
102
}
330
47
100
AcDbScale
 70
     0
300
1/2" = 1'-0"
140
0.5
141
12.0
290
     0
  0
SCALE
  5
63
102
{ACAD_REACTORS
330
47
102
}
330
47
100
AcDbScale
 70
     0
300
3/4" = 1'-0"
140
0.75
141
12.0
290
     0
  0
SCALE
  5
64
102
{ACAD_REACTORS
330
47
102
}
330
47
100
AcDbScale
 70
     0
300
1" = 1'-0"
140
1.0
141
12.0
290
     0
  0
SCALE
  5
65
102
{ACAD_REACTORS
330
47
102
}
330
47
100
AcDbScale
 70
     0
300
1-1/2" = 1'-0"
140
1.5
141
12.0
290
     0
  0
SCALE
  5
66
102
{ACAD_REACTORS
330
47
102
}
330
47
100
AcDbScale
 70
     0
300
3" = 1'-0"
140
3.0
141
12.0
290
     0
  0
SCALE
  5
67
102
{ACAD_REACTORS
330
47
102
}
330
47
100
AcDbScale
 70
     0
300
6" = 1'-0"
140
6.0
141
12.0
290
     0
  0
SCALE
  5
68
102
{ACAD_REACTORS
330
47
102
}
330
47
100
AcDbScale
 70
     0
300
1'-0" = 1'-0"
140
12.0
141
12.0
290
     0
  0
ENDSEC
  0
EOF
