  0
SECTION
  2
HEADER
  9
$ACADVER
  1
AC1015
  9
$ACADMAINTVER
 70
     6
  9
$DWGCODEPAGE
  3
ANSI_949
  9
$INSBASE
 10
0.0
 20
0.0
 30
0.0
  9
$EXTMIN
 10
-64.43000000000004
 20
-49.97180738881174
 30
0.0
  9
$EXTMAX
 10
81.41936447236115
 20
35.98325000000007
 30
0.0
  9
$LIMMIN
 10
0.0
 20
0.0
  9
$LIMMAX
 10
420.0
 20
297.0
  9
$ORTHOMODE
 70
     1
  9
$REGENMODE
 70
     1
  9
$FILLMODE
 70
     1
  9
$QTEXTMODE
 70
     0
  9
$MIRRTEXT
 70
     1
  9
$LTSCALE
 40
1.0
  9
$ATTMODE
 70
     1
  9
$TEXTSIZE
 40
3.5
  9
$TRACEWID
 40
1.0
  9
$TEXTSTYLE
  7
Standard
  9
$CLAYER
  8
0
  9
$CELTYPE
  6
ByLayer
  9
$CECOLOR
 62
   256
  9
$CELTSCALE
 40
1.0
  9
$DISPSILH
 70
     0
  9
$DIMSCALE
 40
1.0
  9
$DIMASZ
 40
3.302
  9
$DIMEXO
 40
1.0
  9
$DIMDLI
 40
3.75
  9
$DIMRND
 40
0.0
  9
$DIMDLE
 40
0.0
  9
$DIMEXE
 40
1.0
  9
$DIMTP
 40
0.0
  9
$DIMTM
 40
0.0
  9
$DIMTXT
 40
3.5
  9
$DIMCEN
 40
2.5
  9
$DIMTSZ
 40
0.0
  9
$DIMTOL
 70
     0
  9
$DIMLIM
 70
     0
  9
$DIMTIH
 70
     1
  9
$DIMTOH
 70
     1
  9
$DIMSE1
 70
     0
  9
$DIMSE2
 70
     0
  9
$DIMTAD
 70
     1
  9
$DIMZIN
 70
     0
  9
$DIMBLK
  1

  9
$DIMASO
 70
     1
  9
$DIMSHO
 70
     1
  9
$DIMPOST
  1

  9
$DIMAPOST
  1

  9
$DIMALT
 70
     0
  9
$DIMALTD
 70
     3
  9
$DIMALTF
 40
0.0393700787401575
  9
$DIMLFAC
 40
1.0
  9
$DIMTOFL
 70
     1
  9
$DIMTVP
 40
0.0
  9
$DIMTIX
 70
     0
  9
$DIMSOXD
 70
     0
  9
$DIMSAH
 70
     0
  9
$DIMBLK1
  1

  9
$DIMBLK2
  1

  9
$DIMSTYLE
  2
ISO-25
  9
$DIMCLRD
 70
     0
  9
$DIMCLRE
 70
     0
  9
$DIMCLRT
 70
     0
  9
$DIMTFAC
 40
1.0
  9
$DIMGAP
 40
1.524
  9
$DIMJUST
 70
     0
  9
$DIMSD1
 70
     0
  9
$DIMSD2
 70
     0
  9
$DIMTOLJ
 70
     0
  9
$DIMTZIN
 70
     0
  9
$DIMALTZ
 70
     0
  9
$DIMALTTZ
 70
     0
  9
$DIMUPT
 70
     0
  9
$DIMDEC
 70
     2
  9
$DIMTDEC
 70
     2
  9
$DIMALTU
 70
     2
  9
$DIMALTTD
 70
     3
  9
$DIMTXSTY
  7
Standard
  9
$DIMAUNIT
 70
     0
  9
$DIMADEC
 70
     2
  9
$DIMALTRND
 40
0.0
  9
$DIMAZIN
 70
     0
  9
$DIMDSEP
 70
    44
  9
$DIMATFIT
 70
     3
  9
$DIMFRAC
 70
     0
  9
$DIMLDRBLK
  1

  9
$DIMLUNIT
 70
     2
  9
$DIMLWD
 70
    -2
  9
$DIMLWE
 70
    -2
  9
$DIMTMOVE
 70
     0
  9
$LUNITS
 70
     2
  9
$LUPREC
 70
     2
  9
$SKETCHINC
 40
1.0
  9
$FILLETRAD
 40
10.0
  9
$AUNITS
 70
     0
  9
$AUPREC
 70
     2
  9
$MENU
  1
.
  9
$ELEVATION
 40
0.0
  9
$PELEVATION
 40
0.0
  9
$THICKNESS
 40
0.0
  9
$LIMCHECK
 70
     0
  9
$CHAMFERA
 40
0.0
  9
$CHAMFERB
 40
0.0
  9
$CHAMFERC
 40
0.0
  9
$CHAMFERD
 40
0.0
  9
$SKPOLY
 70
     0
  9
$TDCREATE
 40
2458319.74388868
  9
$TDUCREATE
 40
2458319.36888868
  9
$TDUPDATE
 40
2458323.673833102
  9
$TDUUPDATE
 40
2458323.298833102
  9
$TDINDWG
 40
0.0004342708
  9
$TDUSRTIMER
 40
2458323.298774502
  9
$USRTIMER
 70
     1
  9
$ANGBASE
 50
0.0
  9
$ANGDIR
 70
     0
  9
$PDMODE
 70
     0
  9
$PDSIZE
 40
-1.0
  9
$PLINEWID
 40
0.0
  9
$SPLFRAME
 70
     0
  9
$SPLINETYPE
 70
     6
  9
$SPLINESEGS
 70
     8
  9
$HANDSEED
  5
43B
  9
$SURFTAB1
 70
     6
  9
$SURFTAB2
 70
     6
  9
$SURFTYPE
 70
     6
  9
$SURFU
 70
     6
  9
$SURFV
 70
     6
  9
$UCSBASE
  2

  9
$UCSNAME
  2

  9
$UCSORG
 10
0.0
 20
0.0
 30
0.0
  9
$UCSXDIR
 10
1.0
 20
0.0
 30
0.0
  9
$UCSYDIR
 10
0.0
 20
1.0
 30
0.0
  9
$UCSORTHOREF
  2

  9
$UCSORTHOVIEW
 70
     0
  9
$UCSORGTOP
 10
0.0
 20
0.0
 30
0.0
  9
$UCSORGBOTTOM
 10
0.0
 20
0.0
 30
0.0
  9
$UCSORGLEFT
 10
0.0
 20
0.0
 30
0.0
  9
$UCSORGRIGHT
 10
0.0
 20
0.0
 30
0.0
  9
$UCSORGFRONT
 10
0.0
 20
0.0
 30
0.0
  9
$UCSORGBACK
 10
0.0
 20
0.0
 30
0.0
  9
$PUCSBASE
  2

  9
$PUCSNAME
  2

  9
$PUCSORG
 10
0.0
 20
0.0
 30
0.0
  9
$PUCSXDIR
 10
1.0
 20
0.0
 30
0.0
  9
$PUCSYDIR
 10
0.0
 20
1.0
 30
0.0
  9
$PUCSORTHOREF
  2

  9
$PUCSORTHOVIEW
 70
     0
  9
$PUCSORGTOP
 10
0.0
 20
0.0
 30
0.0
  9
$PUCSORGBOTTOM
 10
0.0
 20
0.0
 30
0.0
  9
$PUCSORGLEFT
 10
0.0
 20
0.0
 30
0.0
  9
$PUCSORGRIGHT
 10
0.0
 20
0.0
 30
0.0
  9
$PUCSORGFRONT
 10
0.0
 20
0.0
 30
0.0
  9
$PUCSORGBACK
 10
0.0
 20
0.0
 30
0.0
  9
$USERI1
 70
     0
  9
$USERI2
 70
     0
  9
$USERI3
 70
     0
  9
$USERI4
 70
     0
  9
$USERI5
 70
     0
  9
$USERR1
 40
0.0
  9
$USERR2
 40
0.0
  9
$USERR3
 40
0.0
  9
$USERR4
 40
0.0
  9
$USERR5
 40
0.0
  9
$WORLDVIEW
 70
     1
  9
$SHADEDGE
 70
     3
  9
$SHADEDIF
 70
    70
  9
$TILEMODE
 70
     1
  9
$MAXACTVP
 70
    64
  9
$PINSBASE
 10
0.0
 20
0.0
 30
0.0
  9
$PLIMCHECK
 70
     0
  9
$PEXTMIN
 10
1.000000000000000E+20
 20
1.000000000000000E+20
 30
1.000000000000000E+20
  9
$PEXTMAX
 10
-1.000000000000000E+20
 20
-1.000000000000000E+20
 30
-1.000000000000000E+20
  9
$PLIMMIN
 10
0.0
 20
0.0
  9
$PLIMMAX
 10
0.0
 20
0.0
  9
$UNITMODE
 70
     0
  9
$VISRETAIN
 70
     1
  9
$PLINEGEN
 70
     0
  9
$PSLTSCALE
 70
     1
  9
$TREEDEPTH
 70
  3020
  9
$CMLSTYLE
  2
Standard
  9
$CMLJUST
 70
     0
  9
$CMLSCALE
 40
20.0
  9
$PROXYGRAPHICS
 70
     1
  9
$MEASUREMENT
 70
     1
  9
$CELWEIGHT
370
    -1
  9
$ENDCAPS
280
     0
  9
$JOINSTYLE
280
     0
  9
$LWDISPLAY
290
     1
  9
$INSUNITS
 70
     4
  9
$HYPERLINKBASE
  1

  9
$STYLESHEET
  1

  9
$XEDIT
290
     1
  9
$CEPSNTYPE
380
     0
  9
$PSTYLEMODE
290
     1
  9
$FINGERPRINTGUID
  2
{176B5DA6-43BB-4412-B178-380DF8F618B8}
  9
$VERSIONGUID
  2
{FAEB1C32-E019-11D5-929B-00C0DF256EC4}
  9
$EXTNAMES
290
     1
  9
$PSVPSCALE
 40
0.0
  9
$OLESTARTUP
290
     0
  0
ENDSEC
  0
SECTION
  2
CLASSES
  0
CLASS
  1
ACDBDICTIONARYWDFLT
  2
AcDbDictionaryWithDefault
  3
ObjectDBX Classes
 90
        0
280
     0
281
     0
  0
CLASS
  1
VISUALSTYLE
  2
AcDbVisualStyle
  3
ObjectDBX Classes
 90
     4095
280
     0
281
     0
  0
CLASS
  1
MATERIAL
  2
AcDbMaterial
  3
ObjectDBX Classes
 90
     1153
280
     0
281
     0
  0
CLASS
  1
SCALE
  2
AcDbScale
  3
ObjectDBX Classes
 90
     1153
280
     0
281
     0
  0
CLASS
  1
SUN
  2
AcDbSun
  3
SCENEOE
 90
     1153
280
     0
281
     0
  0
CLASS
  1
ACDBPLACEHOLDER
  2
AcDbPlaceHolder
  3
ObjectDBX Classes
 90
        0
280
     0
281
     0
  0
CLASS
  1
LAYOUT
  2
AcDbLayout
  3
ObjectDBX Classes
 90
        0
280
     0
281
     0
  0
CLASS
  1
TABLESTYLE
  2
AcDbTableStyle
  3
ObjectDBX Classes
 90
     4095
280
     0
281
     0
  0
CLASS
  1
MLEADERSTYLE
  2
AcDbMLeaderStyle
  3
ACDB_MLEADERSTYLE_CLASS
 90
     4095
280
     0
281
     0
  0
CLASS
  1
RASTERVARIABLES
  2
AcDbRasterVariables
  3
ISM
 90
        0
280
     0
281
     0
  0
ENDSEC
  0
SECTION
  2
TABLES
  0
TABLE
  2
VPORT
  5
8
330
0
100
AcDbSymbolTable
 70
     1
  0
VPORT
  5
29
330
8
100
AcDbSymbolTableRecord
100
AcDbViewportTableRecord
  2
*Active
 70
     0
 10
0.0
 20
0.0
 11
1.0
 21
1.0
 12
-15.38892169067698
 22
-17.37965444869614
 13
0.0
 23
0.0
 14
10.0
 24
10.0
 15
10.0
 25
10.0
 16
0.0
 26
0.0
 36
1.0
 17
0.0
 27
0.0
 37
0.0
 40
111.530562588546
 41
1.586073500967118
 42
50.0
 43
0.0
 44
0.0
 50
0.0
 51
0.0
 71
    16
 72
  2000
 73
     1
 74
     3
 75
     0
 76
     0
 77
     0
 78
     0
281
     0
 65
     1
110
0.0
120
0.0
130
0.0
111
1.0
121
0.0
131
0.0
112
0.0
122
1.0
132
0.0
 79
     0
146
0.0
  0
ENDTAB
  0
TABLE
  2
LTYPE
  5
5
330
0
100
AcDbSymbolTable
 70
     6
  0
LTYPE
  5
14
330
5
100
AcDbSymbolTableRecord
100
AcDbLinetypeTableRecord
  2
ByBlock
 70
     0
  3

 72
    65
 73
     0
 40
0.0
  0
LTYPE
  5
15
330
5
100
AcDbSymbolTableRecord
100
AcDbLinetypeTableRecord
  2
ByLayer
 70
     0
  3

 72
    65
 73
     0
 40
0.0
  0
LTYPE
  5
16
330
5
100
AcDbSymbolTableRecord
100
AcDbLinetypeTableRecord
  2
Continuous
 70
     0
  3
Solid line
 72
    65
 73
     0
 40
0.0
  0
LTYPE
  5
6A
330
5
100
AcDbSymbolTableRecord
100
AcDbLinetypeTableRecord
  2
HIDDEN
 70
     0
  3
Hidden __ __ __ __ __ __ __ __ __ __ __ __ __ __
 72
    65
 73
     2
 40
1.905
 49
1.27
 74
     0
 49
-0.635
 74
     0
  0
LTYPE
  5
6B
330
5
100
AcDbSymbolTableRecord
100
AcDbLinetypeTableRecord
  2
PHANTOM
 70
     0
  3
Phantom ______  __  __  ______  __  __  ______
 72
    65
 73
     6
 40
12.7
 49
6.35
 74
     0
 49
-1.27
 74
     0
 49
1.27
 74
     0
 49
-1.27
 74
     0
 49
1.27
 74
     0
 49
-1.27
 74
     0
  0
LTYPE
  5
6C
330
5
100
AcDbSymbolTableRecord
100
AcDbLinetypeTableRecord
  2
CENTER
 70
     0
  3
Center ____ _ ____ _ ____ _ ____ _ ____ _ ____
 72
    65
 73
     4
 40
10.16
 49
6.35
 74
     0
 49
-1.27
 74
     0
 49
1.27
 74
     0
 49
-1.27
 74
     0
  0
LTYPE
  5
6D
330
5
100
AcDbSymbolTableRecord
100
AcDbLinetypeTableRecord
  2
CENTERX2
 70
     0
  3
Center (2x) ________  __  ________  __  _____
 72
    65
 73
     4
 40
20.32
 49
12.7
 74
     0
 49
-2.54
 74
     0
 49
2.54
 74
     0
 49
-2.54
 74
     0
  0
LTYPE
  5
6E
330
5
100
AcDbSymbolTableRecord
100
AcDbLinetypeTableRecord
  2
DOT2
 70
     0
  3
Dot (.5x) ........................................
 72
    65
 73
     2
 40
0.635
 49
0.0
 74
     0
 49
-0.635
 74
     0
  0
ENDTAB
  0
TABLE
  2
LAYER
  5
2
102
{ACAD_XDICTIONARY
360
202
102
}
330
0
100
AcDbSymbolTable
 70
    18
  0
LAYER
  5
10
330
2
100
AcDbSymbolTableRecord
100
AcDbLayerTableRecord
  2
0
 70
     0
 62
     7
  6
Continuous
370
    -3
390
F
  0
LAYER
  5
6F
330
2
100
AcDbSymbolTableRecord
100
AcDbLayerTableRecord
  2
FORMAT
 70
     0
 62
     2
  6
Continuous
370
    -3
390
F
  0
LAYER
  5
70
330
2
100
AcDbSymbolTableRecord
100
AcDbLayerTableRecord
  2
외형선
 70
     0
 62
     4
  6
Continuous
370
    30
390
F
  0
LAYER
  5
71
330
2
100
AcDbSymbolTableRecord
100
AcDbLayerTableRecord
  2
숨은선
 70
     0
 62
     2
  6
HIDDEN
370
    15
390
F
  0
LAYER
  5
72
330
2
100
AcDbSymbolTableRecord
100
AcDbLayerTableRecord
  2
중심선
 70
     0
 62
     1
  6
CENTERX2
370
    -3
390
F
  0
LAYER
  5
73
330
2
100
AcDbSymbolTableRecord
100
AcDbLayerTableRecord
  2
파단선
 70
     0
 62
     4
  6
Continuous
370
    -3
390
F
  0
LAYER
  5
74
330
2
100
AcDbSymbolTableRecord
100
AcDbLayerTableRecord
  2
해칭선
 70
     0
 62
   100
  6
Continuous
370
    -3
390
F
  0
LAYER
  5
75
330
2
100
AcDbSymbolTableRecord
100
AcDbLayerTableRecord
  2
가는실선
 70
     0
 62
     4
  6
Continuous
370
    -3
390
F
  0
LAYER
  5
76
330
2
100
AcDbSymbolTableRecord
100
AcDbLayerTableRecord
  2
치수_보조선
 70
     0
 62
     4
  6
Continuous
370
    -3
390
F
  0
LAYER
  5
77
330
2
100
AcDbSymbolTableRecord
100
AcDbLayerTableRecord
  2
치수문자_일반주서
 70
     0
 62
     7
  6
Continuous
370
    15
390
F
  0
LAYER
  5
78
330
2
100
AcDbSymbolTableRecord
100
AcDbLayerTableRecord
  2
개별주서
 70
     0
 62
   100
  6
Continuous
370
    30
390
F
  0
LAYER
  5
79
330
2
100
AcDbSymbolTableRecord
100
AcDbLayerTableRecord
  2
중간선
 70
     0
 62
     2
  6
Continuous
370
    15
390
F
  0
LAYER
  5
7A
330
2
100
AcDbSymbolTableRecord
100
AcDbLayerTableRecord
  2
윤곽선
 70
     0
 62
     3
  6
Continuous
370
    40
390
F
  0
LAYER
  5
7B
330
2
100
AcDbSymbolTableRecord
100
AcDbLayerTableRecord
  2
중심마크
 70
     0
 62
   100
  6
Continuous
370
    30
390
F
  0
LAYER
  5
7C
330
2
100
AcDbSymbolTableRecord
100
AcDbLayerTableRecord
  2
가상선
 70
     0
 62
     4
  6
PHANTOM
370
    -3
390
F
  0
LAYER
  5
7D
330
2
100
AcDbSymbolTableRecord
100
AcDbLayerTableRecord
  2
특수지정선
 70
     0
 62
     5
  6
CENTERX2
370
    60
390
F
  0
LAYER
  5
7E
330
2
100
AcDbSymbolTableRecord
100
AcDbLayerTableRecord
  2
참조1
 70
     0
 62
    -4
  6
Continuous
370
    -3
390
F
  0
LAYER
  5
14E
330
2
100
AcDbSymbolTableRecord
100
AcDbLayerTableRecord
  2
Defpoints
 70
     0
 62
     7
  6
Continuous
290
     0
370
    -3
390
F
  0
ENDTAB
  0
TABLE
  2
STYLE
  5
3
330
0
100
AcDbSymbolTable
 70
     2
  0
STYLE
  5
11
330
3
100
AcDbSymbolTableRecord
100
AcDbTextStyleTableRecord
  2
Standard
 70
     0
 40
0.0
 41
1.0
 50
0.0
 71
     0
 42
3.5
  3
txt
  4

  0
STYLE
  5
94
330
3
100
AcDbSymbolTableRecord
100
AcDbTextStyleTableRecord
  2
SLDTEXTSTYLE0
 70
     0
 40
0.0
 41
0.75
 50
0.0
 71
     0
 42
3.5
  3
TXT
  4

  0
ENDTAB
  0
TABLE
  2
VIEW
  5
6
330
0
100
AcDbSymbolTable
 70
     0
  0
ENDTAB
  0
TABLE
  2
UCS
  5
7
330
0
100
AcDbSymbolTable
 70
     0
  0
ENDTAB
  0
TABLE
  2
APPID
  5
9
330
0
100
AcDbSymbolTable
 70
     1
  0
APPID
  5
12
330
9
100
AcDbSymbolTableRecord
100
AcDbRegAppTableRecord
  2
ACAD
 70
     0
  0
ENDTAB
  0
TABLE
  2
DIMSTYLE
  5
A
330
0
100
AcDbSymbolTable
 70
     3
100
AcDbDimStyleTable
  0
DIMSTYLE
105
27
330
A
100
AcDbSymbolTableRecord
100
AcDbDimStyleTableRecord
  2
ISO-25
 70
     0
 41
2.5
 42
0.625
 43
3.75
 44
1.25
 73
     0
 74
     0
 77
     1
 78
     8
140
2.5
141
2.5
143
0.03937007874016
147
0.625
171
     3
172
     1
178
     0
271
     2
272
     2
274
     3
278
    44
283
     0
284
     8
340
11
  0
DIMSTYLE
105
CC
102
{ACAD_REACTORS
330
CB
330
E0
330
108
330
F3
102
}
330
A
100
AcDbSymbolTableRecord
100
AcDbDimStyleTableRecord
  2
SLDDIMSTYLE0
 70
     0
 41
3.302
 44
0.0
 45
0.000000001
 73
     0
 74
     0
 77
     1
 78
    12
 79
     3
140
3.5
143
0.0393700787401575
147
0.875
148
0.000000001
170
     1
173
     1
178
     0
271
     2
272
     2
276
     2
284
    12
340
94
  0
DIMSTYLE
105
F4
330
A
100
AcDbSymbolTableRecord
100
AcDbDimStyleTableRecord
  2
SLDDIMSTYLE1
 70
     0
 41
3.302
 44
0.0
 45
0.000000001
 73
     0
 74
     0
 77
     1
 78
     4
 79
     1
140
3.5
143
0.0393700787401575
147
0.875
148
0.000000001
170
     1
172
     1
173
     1
178
     0
271
     2
272
     2
276
     2
284
    12
289
     0
340
94
  0
ENDTAB
  0
TABLE
  2
BLOCK_RECORD
  5
1
330
0
100
AcDbSymbolTable
 70
    23
  0
BLOCK_RECORD
  5
1F
330
1
100
AcDbSymbolTableRecord
100
AcDbBlockTableRecord
  2
*Model_Space
340
22
  0
BLOCK_RECORD
  5
1B
330
1
100
AcDbSymbolTableRecord
100
AcDbBlockTableRecord
  2
*Paper_Space
340
1E
  0
BLOCK_RECORD
  5
23
330
1
100
AcDbSymbolTableRecord
100
AcDbBlockTableRecord
  2
*Paper_Space0
340
26
  0
BLOCK_RECORD
  5
7F
330
1
100
AcDbSymbolTableRecord
100
AcDbBlockTableRecord
  2
블럭10
340
0
102
{BLKREFS
331
C4
102
}
  0
BLOCK_RECORD
  5
CD
330
1
100
AcDbSymbolTableRecord
100
AcDbBlockTableRecord
  2
_D
340
0
  0
BLOCK_RECORD
  5
E1
330
1
100
AcDbSymbolTableRecord
100
AcDbBlockTableRecord
  2
_D_1
340
0
  0
BLOCK_RECORD
  5
F5
330
1
100
AcDbSymbolTableRecord
100
AcDbBlockTableRecord
  2
_D_2
340
0
  0
BLOCK_RECORD
  5
109
330
1
100
AcDbSymbolTableRecord
100
AcDbBlockTableRecord
  2
_D_3
340
0
  0
BLOCK_RECORD
  5
122
330
1
100
AcDbSymbolTableRecord
100
AcDbBlockTableRecord
  2
SW_DOWELSYMBOL_0
340
0
102
{BLKREFS
331
128
102
}
  0
BLOCK_RECORD
  5
206
330
1
100
AcDbSymbolTableRecord
100
AcDbBlockTableRecord
  2
*D7
340
0
  0
BLOCK_RECORD
  5
213
330
1
100
AcDbSymbolTableRecord
100
AcDbBlockTableRecord
  2
*D8
340
0
  0
BLOCK_RECORD
  5
21F
330
1
100
AcDbSymbolTableRecord
100
AcDbBlockTableRecord
  2
*D9
340
0
  0
BLOCK_RECORD
  5
22B
330
1
100
AcDbSymbolTableRecord
100
AcDbBlockTableRecord
  2
*D10
340
0
  0
BLOCK_RECORD
  5
28D
330
1
100
AcDbSymbolTableRecord
100
AcDbBlockTableRecord
  2
*D11
340
0
  0
BLOCK_RECORD
  5
29A
330
1
100
AcDbSymbolTableRecord
100
AcDbBlockTableRecord
  2
*D12
340
0
  0
BLOCK_RECORD
  5
2A6
330
1
100
AcDbSymbolTableRecord
100
AcDbBlockTableRecord
  2
*D13
340
0
  0
BLOCK_RECORD
  5
2B2
330
1
100
AcDbSymbolTableRecord
100
AcDbBlockTableRecord
  2
*D14
340
0
  0
BLOCK_RECORD
  5
34F
330
1
100
AcDbSymbolTableRecord
100
AcDbBlockTableRecord
  2
*D15
340
0
  0
BLOCK_RECORD
  5
35C
330
1
100
AcDbSymbolTableRecord
100
AcDbBlockTableRecord
  2
*D16
340
0
  0
BLOCK_RECORD
  5
368
330
1
100
AcDbSymbolTableRecord
100
AcDbBlockTableRecord
  2
*D17
340
0
  0
BLOCK_RECORD
  5
374
330
1
100
AcDbSymbolTableRecord
100
AcDbBlockTableRecord
  2
*D18
340
0
  0
BLOCK_RECORD
  5
3AE
330
1
100
AcDbSymbolTableRecord
100
AcDbBlockTableRecord
  2
*D19
340
0
  0
BLOCK_RECORD
  5
3BB
330
1
100
AcDbSymbolTableRecord
100
AcDbBlockTableRecord
  2
*D20
340
0
  0
BLOCK_RECORD
  5
3C7
330
1
100
AcDbSymbolTableRecord
100
AcDbBlockTableRecord
  2
*D21
340
0
  0
BLOCK_RECORD
  5
3D3
330
1
100
AcDbSymbolTableRecord
100
AcDbBlockTableRecord
  2
*D22
340
0
  0
ENDTAB
  0
ENDSEC
  0
SECTION
  2
BLOCKS
  0
BLOCK
  5
20
330
1F
100
AcDbEntity
  8
0
100
AcDbBlockBegin
  2
*Model_Space
 70
     0
 10
0.0
 20
0.0
 30
0.0
  3
*Model_Space
  1
*Model_Space
  0
ENDBLK
  5
21
330
1F
100
AcDbEntity
  8
0
100
AcDbBlockEnd
  0
BLOCK
  5
1C
330
1B
100
AcDbEntity
 67
     1
  8
0
100
AcDbBlockBegin
  2
*Paper_Space
 70
     0
 10
0.0
 20
0.0
 30
0.0
  3
*Paper_Space
  1
*Paper_Space
  0
ENDBLK
  5
1D
330
1B
100
AcDbEntity
 67
     1
  8
0
100
AcDbBlockEnd
  0
BLOCK
  5
24
330
23
100
AcDbEntity
  8
0
100
AcDbBlockBegin
  2
*Paper_Space0
 70
     0
 10
0.0
 20
0.0
 30
0.0
  3
*Paper_Space0
  1
*Paper_Space0
  0
ENDBLK
  5
25
330
23
100
AcDbEntity
  8
0
100
AcDbBlockEnd
  0
BLOCK
  5
80
330
7F
100
AcDbEntity
  8
0
100
AcDbBlockBegin
  2
블럭10
 70
     2
 10
0.0
 20
0.0
 30
0.0
  3
블럭10
  1
블럭10
  0
ELLIPSE
  5
82
330
7F
100
AcDbEntity
  8
중심선
100
AcDbEllipse
 10
20.54032771741204
 20
12.0471743016438
 30
0.0
 11
6.600054785286829
 21
-1.261213355974178E-13
 31
0.0
210
0.0
220
0.0
230
1.0
 40
0.636358354079598
 41
0.9219305317359503
 42
6.513795318482858
  0
ELLIPSE
  5
83
330
7F
100
AcDbEntity
  8
중심선
100
AcDbEllipse
 10
20.54032771746488
 20
12.04717430159265
 30
0.0
 11
3.960054785062283
 21
1.540847449632565E-10
 31
0.0
210
0.0
220
0.0
230
1.0
 40
0.3939339440162632
 41
1.131841032648279
 42
5.62031148352944
  0
LINE
  5
84
330
7F
100
AcDbEntity
  8
중심선
100
AcDbLine
 10
2.268634060543552
 20
16.24717430164393
 30
0.0
 11
5.714909304380834
 21
16.24717430164393
 31
0.0
  0
LINE
  5
85
330
7F
100
AcDbEntity
  8
중심선
100
AcDbLine
 10
5.245725140726316
 20
7.84717430164391
 30
0.0
 11
8.692000384563599
 21
7.84717430164391
 31
0.0
  0
LINE
  5
86
330
7F
100
AcDbEntity
  8
중심선
100
AcDbLine
 10
15.74043728645272
 20
16.24717430164393
 30
0.0
 11
8.692000384563599
 21
7.84717430164391
 31
0.0
  0
LINE
  5
87
330
7F
100
AcDbEntity
  8
중심선
100
AcDbLine
 10
0.1404042013395286
 20
13.71084872107135
 30
0.0
 11
3.58671253028996
 21
13.71088815037384
 31
0.0
  0
LINE
  5
88
330
7F
100
AcDbEntity
  8
중심선
100
AcDbLine
 10
2.750260043222114
 20
10.84717430164391
 30
0.0
 11
6.196535287059397
 21
10.84717430164391
 31
0.0
  0
LINE
  5
89
330
7F
100
AcDbEntity
  8
중심선
100
AcDbLine
 10
12.29416204261559
 20
16.24717430164393
 30
0.0
 11
5.245725140726316
 21
7.84717430164391
 31
0.0
  0
LINE
  5
8A
330
7F
100
AcDbEntity
  8
중심선
100
AcDbLine
 10
10.72767329541681
 20
16.24717430164393
 30
0.0
 11
6.196535287059397
 21
10.84717430164391
 31
0.0
  0
LINE
  5
8B
330
7F
100
AcDbEntity
  8
중심선
100
AcDbLine
 10
7.28139805157953
 20
16.24717430164393
 30
0.0
 11
2.750260043222114
 21
10.84717430164391
 31
0.0
  0
LINE
  5
8C
330
7F
100
AcDbEntity
  8
중심선
100
AcDbLine
 10
5.714909304380834
 20
16.24717430164393
 30
0.0
 11
3.58671253028996
 21
13.71088815037384
 31
0.0
  0
LINE
  5
8D
330
7F
100
AcDbEntity
  8
중심선
100
AcDbLine
 10
2.268634060543552
 20
16.24717430164393
 30
0.0
 11
0.1404042013395286
 21
13.71084872107135
 31
0.0
  0
LINE
  5
8E
330
7F
100
AcDbEntity
  8
중심선
100
AcDbLine
 10
7.28139805157953
 20
16.24717430164393
 30
0.0
 11
10.72767329541681
 21
16.24717430164393
 31
0.0
  0
LINE
  5
8F
330
7F
100
AcDbEntity
  8
중심선
100
AcDbLine
 10
12.29416204261559
 20
16.24717430164393
 30
0.0
 11
15.74043728645272
 21
16.24717430164393
 31
0.0
  0
LINE
  5
90
330
7F
100
AcDbEntity
  8
중심선
100
AcDbLine
 10
19.22036997980202
 20
11.08717430171403
 30
0.0
 11
23.66174974927406
 21
11.08717430171406
 31
0.0
  0
LINE
  5
91
330
7F
100
AcDbEntity
  8
중심선
100
AcDbLine
 10
19.22039502424796
 20
13.00717430171391
 30
0.0
 11
19.22036997980202
 21
11.08717430171403
 31
0.0
  0
LINE
  5
92
330
7F
100
AcDbEntity
  8
중심선
100
AcDbLine
 10
19.22039502424796
 20
13.00717430171391
 30
0.0
 11
26.96566020931264
 21
13.00717430171391
 31
0.0
  0
LINE
  5
93
330
7F
100
AcDbEntity
  8
중심선
100
AcDbLine
 10
22.22332737316547
 20
13.45928029700563
 30
0.0
 11
24.52862924686651
 21
15.39360700705356
 31
0.0
  0
ATTDEF
  5
95
330
7F
100
AcDbEntity
  8
FORMAT
 62
     2
100
AcDbText
 10
4.408487351596664
 20
2.075366912832191
 30
0.0
 40
4.233333333333333
  1
E1112028
 41
0.75
  7
SLDTEXTSTYLE0
 11
4.408487351596664
 21
-0.0412997538344756
 31
0.0
100
AcDbAttributeDefinition
  3

  2
AUTOATTR0
 70
     0
 74
     1
  0
ENDBLK
  5
81
330
7F
100
AcDbEntity
  8
0
100
AcDbBlockEnd
  0
BLOCK
  5
CE
330
CD
100
AcDbEntity
  8
0
100
AcDbBlockBegin
  2
_D
 70
     0
 10
0.0
 20
0.0
 30
0.0
  3
_D
  1
_D
  0
LINE
  5
D0
330
CD
100
AcDbEntity
  8
0
  6
Continuous
 62
     0
370
    -2
100
AcDbLine
 10
47.62499999999999
 20
5.618750000000023
 30
0.0
 11
47.62499999999999
 21
13.03828789224008
 31
0.0
  0
LINE
  5
D1
330
CD
100
AcDbEntity
  8
0
  6
Continuous
 62
     0
370
    -2
100
AcDbLine
 10
26.9875
 20
5.101130053543795
 30
0.0
 11
26.9875
 21
13.03828789224008
 31
0.0
  0
LINE
  5
D2
330
CD
100
AcDbEntity
  8
0
  6
Continuous
 62
     0
370
    -2
100
AcDbLine
 10
26.9875
 20
13.03828789224008
 30
0.0
 11
-5.627000000000002
 21
13.03828789224008
 31
0.0
  0
LINE
  5
D3
330
CD
100
AcDbEntity
  8
0
  6
Continuous
 62
     0
370
    -2
100
AcDbLine
 10
44.32299999999999
 20
13.03828789224008
 30
0.0
 11
30.2895
 21
13.03828789224008
 31
0.0
  0
SOLID
  5
D4
330
CD
100
AcDbEntity
  8
0
 62
     0
100
AcDbTrace
 10
44.32299999999999
 20
12.48795455890675
 30
0.0
 11
44.32299999999999
 21
13.58862122557341
 31
0.0
 12
47.62499999999999
 22
13.03828789224008
 32
0.0
 13
47.62499999999999
 23
13.03828789224008
 33
0.0
  0
SOLID
  5
D5
330
CD
100
AcDbEntity
  8
0
 62
     0
100
AcDbTrace
 10
30.2895
 20
13.58862122557341
 30
0.0
 11
30.2895
 21
12.48795455890675
 31
0.0
 12
26.9875
 22
13.03828789224008
 32
0.0
 13
26.9875
 23
13.03828789224008
 33
0.0
  0
MTEXT
  5
D6
330
CD
100
AcDbEntity
  8
0
 62
     0
370
    15
100
AcDbMText
 10
9.029249999999998
 20
17.41328789224008
 30
0.0
 40
3.5
 41
0.0
 71
     2
 72
     1
  1
\A1;20.64 [13/16]
  7
SLDTEXTSTYLE0
 73
     1
 44
1.0
  0
POINT
  5
D7
330
CD
100
AcDbEntity
  8
Defpoints
 62
     0
100
AcDbPoint
 10
47.62499999999999
 20
5.556250000000023
 30
0.0
  0
POINT
  5
D8
330
CD
100
AcDbEntity
  8
Defpoints
 62
     0
100
AcDbPoint
 10
26.9875
 20
5.038630053543795
 30
0.0
  0
POINT
  5
D9
330
CD
100
AcDbEntity
  8
Defpoints
 62
     0
100
AcDbPoint
 10
26.9875
 20
13.03828789224008
 30
0.0
  0
ENDBLK
  5
CF
330
CD
100
AcDbEntity
  8
0
100
AcDbBlockEnd
  0
BLOCK
  5
E2
330
E1
100
AcDbEntity
  8
0
100
AcDbBlockBegin
  2
_D_1
 70
     0
 10
0.0
 20
0.0
 30
0.0
  3
_D_1
  1
_D_1
  0
LINE
  5
E4
330
E1
100
AcDbEntity
  8
0
  6
Continuous
 62
     0
370
    -2
100
AcDbLine
 10
47.62499999999999
 20
5.618750000000023
 30
0.0
 11
47.62499999999999
 21
29.28797898817498
 31
0.0
  0
LINE
  5
E5
330
E1
100
AcDbEntity
  8
0
  6
Continuous
 62
     0
370
    -2
100
AcDbLine
 10
-47.625
 20
6.412499999999993
 30
0.0
 11
-47.625
 21
29.28797898817498
 31
0.0
  0
LINE
  5
E6
330
E1
100
AcDbEntity
  8
0
  6
Continuous
 62
     0
370
    -2
100
AcDbLine
 10
44.32299999999999
 20
29.28797898817498
 30
0.0
 11
-44.323
 21
29.28797898817498
 31
0.0
  0
SOLID
  5
E7
330
E1
100
AcDbEntity
  8
0
 62
     0
100
AcDbTrace
 10
44.32299999999999
 20
28.73764565484164
 30
0.0
 11
44.32299999999999
 21
29.83831232150831
 31
0.0
 12
47.62499999999999
 22
29.28797898817498
 32
0.0
 13
47.62499999999999
 23
29.28797898817498
 33
0.0
  0
SOLID
  5
E8
330
E1
100
AcDbEntity
  8
0
 62
     0
100
AcDbTrace
 10
-44.323
 20
29.83831232150831
 30
0.0
 11
-44.323
 21
28.73764565484164
 31
0.0
 12
-47.625
 22
29.28797898817498
 32
0.0
 13
-47.625
 23
29.28797898817498
 33
0.0
  0
MTEXT
  5
E9
330
E1
100
AcDbEntity
  8
0
 62
     0
370
    15
100
AcDbMText
 10
0.4168735043745606
 20
33.66297898817498
 30
0.0
 40
3.5
 41
0.0
 71
     2
 72
     1
  1
\A1;95.25 [3 3/4]
  7
SLDTEXTSTYLE0
 73
     1
 44
1.0
  0
POINT
  5
EA
330
E1
100
AcDbEntity
  8
Defpoints
 62
     0
100
AcDbPoint
 10
47.62499999999999
 20
5.556250000000023
 30
0.0
  0
POINT
  5
EB
330
E1
100
AcDbEntity
  8
Defpoints
 62
     0
100
AcDbPoint
 10
-47.625
 20
6.349999999999993
 30
0.0
  0
POINT
  5
EC
330
E1
100
AcDbEntity
  8
Defpoints
 62
     0
100
AcDbPoint
 10
-47.625
 20
29.28797898817498
 30
0.0
  0
ENDBLK
  5
E3
330
E1
100
AcDbEntity
  8
0
100
AcDbBlockEnd
  0
BLOCK
  5
F6
330
F5
100
AcDbEntity
  8
0
100
AcDbBlockBegin
  2
_D_2
 70
     0
 10
0.0
 20
0.0
 30
0.0
  3
_D_2
  1
_D_2
  0
LINE
  5
F8
330
F5
100
AcDbEntity
  8
0
  6
Continuous
 62
     0
370
    -2
100
AcDbLine
 10
-23.08768467149217
 20
6.35
 30
0.0
 11
-60.05500000000001
 21
6.349999999999861
 31
0.0
  0
LINE
  5
F9
330
F5
100
AcDbEntity
  8
0
  6
Continuous
 62
     0
370
    -2
100
AcDbLine
 10
-23.08768467149217
 20
-6.349999999999996
 30
0.0
 11
-60.05499999999997
 21
-6.350000000000135
 31
0.0
  0
LINE
  5
FA
330
F5
100
AcDbEntity
  8
0
  6
Continuous
 62
     0
370
    -2
100
AcDbLine
 10
-60.055
 20
3.047999999999861
 30
0.0
 11
-60.05499999999999
 21
-3.048000000000135
 31
0.0
  0
SOLID
  5
FB
330
F5
100
AcDbEntity
  8
0
 62
     0
100
AcDbTrace
 10
-59.50466666666667
 20
3.047999999999863
 30
0.0
 11
-60.60533333333333
 21
3.04799999999986
 31
0.0
 12
-60.05500000000001
 22
6.349999999999861
 32
0.0
 13
-60.05500000000001
 23
6.349999999999861
 33
0.0
  0
SOLID
  5
FC
330
F5
100
AcDbEntity
  8
0
 62
     0
100
AcDbTrace
 10
-60.60533333333332
 20
-3.048000000000137
 30
0.0
 11
-59.50466666666665
 21
-3.048000000000133
 31
0.0
 12
-60.05499999999997
 22
-6.350000000000135
 32
0.0
 13
-60.05499999999997
 23
-6.350000000000135
 33
0.0
  0
MTEXT
  5
FD
330
F5
100
AcDbEntity
  8
0
 62
     0
370
    15
100
AcDbMText
 10
-64.42999999999999
 20
-0.0000000000000172
 30
0.0
 40
3.5
 41
0.0
 71
     2
 72
     1
  1
\A1;%%c12.7 [1/2]
  7
SLDTEXTSTYLE0
 11
-3.356894814614648E-15
 21
1.0
 31
0.0
 73
     1
 44
1.0
  0
POINT
  5
FE
330
F5
100
AcDbEntity
  8
Defpoints
 62
     0
100
AcDbPoint
 10
-23.02518467149217
 20
6.35
 30
0.0
  0
POINT
  5
FF
330
F5
100
AcDbEntity
  8
Defpoints
 62
     0
100
AcDbPoint
 10
-23.02518467149217
 20
-6.349999999999996
 30
0.0
  0
POINT
  5
100
330
F5
100
AcDbEntity
  8
Defpoints
 62
     0
100
AcDbPoint
 10
-60.05499999999996
 20
-6.350000000000135
 30
0.0
  0
ENDBLK
  5
F7
330
F5
100
AcDbEntity
  8
0
100
AcDbBlockEnd
  0
BLOCK
  5
10A
330
109
100
AcDbEntity
  8
0
100
AcDbBlockBegin
  2
_D_3
 70
     0
 10
0.0
 20
0.0
 30
0.0
  3
_D_3
  1
_D_3
  0
LINE
  5
10C
330
109
100
AcDbEntity
  8
0
  6
Continuous
 62
     0
370
    -2
100
AcDbLine
 10
47.6875
 20
5.556250000000023
 30
0.0
 11
60.62411670323395
 21
5.556250000000073
 31
0.0
  0
LINE
  5
10D
330
109
100
AcDbEntity
  8
0
  6
Continuous
 62
     0
370
    -2
100
AcDbLine
 10
47.68749999999999
 20
-5.55624999999998
 30
0.0
 11
60.62411670323399
 21
-5.556249999999931
 31
0.0
  0
LINE
  5
10E
330
109
100
AcDbEntity
  8
0
  6
Continuous
 62
     0
370
    -2
100
AcDbLine
 10
60.62411670323395
 20
5.556250000000073
 30
0.0
 11
60.62411670323385
 21
35.98325000000007
 31
0.0
  0
LINE
  5
10F
330
109
100
AcDbEntity
  8
0
  6
Continuous
 62
     0
370
    -2
100
AcDbLine
 10
60.62411670323396
 20
2.254250000000074
 30
0.0
 11
60.62411670323398
 21
-2.254249999999931
 31
0.0
  0
SOLID
  5
110
330
109
100
AcDbEntity
  8
0
 62
     0
100
AcDbTrace
 10
61.17445003656729
 20
2.254250000000075
 30
0.0
 11
60.07378336990062
 21
2.254250000000072
 31
0.0
 12
60.62411670323395
 22
5.556250000000073
 32
0.0
 13
60.62411670323395
 23
5.556250000000073
 33
0.0
  0
SOLID
  5
111
330
109
100
AcDbEntity
  8
0
 62
     0
100
AcDbTrace
 10
60.07378336990065
 20
-2.254249999999933
 30
0.0
 11
61.17445003656731
 21
-2.25424999999993
 31
0.0
 12
60.62411670323399
 22
-5.556249999999931
 32
0.0
 13
60.62411670323399
 23
-5.556249999999931
 33
0.0
  0
MTEXT
  5
112
330
109
100
AcDbEntity
  8
0
 62
     0
370
    15
100
AcDbMText
 10
56.2491167032339
 20
22.42075000000006
 30
0.0
 40
3.5
 41
0.0
 71
     2
 72
     1
  1
\A1;%%c11.11 [7/16]
  7
SLDTEXTSTYLE0
 11
-3.197042680585377E-15
 21
1.0
 31
0.0
 73
     1
 44
1.0
  0
POINT
  5
113
330
109
100
AcDbEntity
  8
Defpoints
 62
     0
100
AcDbPoint
 10
47.625
 20
5.556250000000023
 30
0.0
  0
POINT
  5
114
330
109
100
AcDbEntity
  8
Defpoints
 62
     0
100
AcDbPoint
 10
47.62499999999999
 20
-5.55624999999998
 30
0.0
  0
POINT
  5
115
330
109
100
AcDbEntity
  8
Defpoints
 62
     0
100
AcDbPoint
 10
60.62411670323399
 20
-5.556249999999931
 30
0.0
  0
ENDBLK
  5
10B
330
109
100
AcDbEntity
  8
0
100
AcDbBlockEnd
  0
BLOCK
  5
123
330
122
100
AcDbEntity
  8
0
100
AcDbBlockBegin
  2
SW_DOWELSYMBOL_0
 70
     0
 10
0.0
 20
0.0
 30
0.0
  3
SW_DOWELSYMBOL_0
  1
SW_DOWELSYMBOL_0
  0
CIRCLE
  5
125
330
122
100
AcDbEntity
  8
해칭선
 62
     0
100
AcDbCircle
 10
0.0
 20
0.0
 30
0.0
 40
3.000000000000001
  0
HATCH
  5
126
330
122
100
AcDbEntity
  8
0
  6
Continuous
 62
     0
370
     0
100
AcDbHatch
 10
0.0
 20
0.0
 30
0.0
210
0.0
220
0.0
230
1.0
  2
SOLID
 70
     1
 71
     0
 91
        1
 92
        0
 93
        3
 72
     2
 10
0.0
 20
0.0
 40
3.000000000000001
 50
0.0
 51
90.0
 73
     1
 72
     1
 10
0.0
 20
3.000000000000001
 11
0.0
 21
0.0
 72
     1
 10
0.0
 20
0.0
 11
3.000000000000001
 21
0.0
 97
        0
 75
     0
 76
     1
 98
        1
 10
0.0
 20
0.0
  0
HATCH
  5
127
330
122
100
AcDbEntity
  8
0
  6
Continuous
 62
     0
370
     0
100
AcDbHatch
 10
0.0
 20
0.0
 30
0.0
210
0.0
220
0.0
230
1.0
  2
SOLID
 70
     1
 71
     0
 91
        1
 92
        0
 93
        3
 72
     2
 10
0.0
 20
0.0
 40
3.000000000000001
 50
180.0
 51
270.0000000000007
 73
     1
 72
     1
 10
0.0
 20
-3.000000000000001
 11
0.0
 21
0.0
 72
     1
 10
0.0
 20
0.0
 11
-3.000000000000001
 21
0.0
 97
        0
 75
     0
 76
     1
 98
        1
 10
0.0
 20
0.0
  0
ENDBLK
  5
124
330
122
100
AcDbEntity
  8
0
100
AcDbBlockEnd
  0
BLOCK
  5
207
330
206
100
AcDbEntity
  8
0
100
AcDbBlockBegin
  2
*D7
 70
     1
 10
0.0
 20
0.0
 30
0.0
  3
*D7
  1
*D8
  0
LINE
  5
209
330
206
100
AcDbEntity
  8
0
  6
Continuous
 62
     0
370
    -2
100
AcDbLine
 10
94.78250000000003
 20
13.90000000000003
 30
0.0
 11
94.78250000000003
 21
26.9874598935649
 31
0.0
  0
LINE
  5
20A
330
206
100
AcDbEntity
  8
0
  6
Continuous
 62
     0
370
    -2
100
AcDbLine
 10
85.25750000000004
 20
13.90000000000001
 30
0.0
 11
85.25750000000004
 21
26.9874598935649
 31
0.0
  0
LINE
  5
20B
330
206
100
AcDbEntity
  8
0
  6
Continuous
 62
     0
370
    -2
100
AcDbLine
 10
85.25750000000004
 20
26.9874598935649
 30
0.0
 11
58.33050000000003
 21
26.9874598935649
 31
0.0
  0
LINE
  5
20C
330
206
100
AcDbEntity
  8
0
  6
Continuous
 62
     0
370
    -2
100
AcDbLine
 10
91.48050000000003
 20
26.9874598935649
 30
0.0
 11
88.55950000000004
 21
26.9874598935649
 31
0.0
  0
SOLID
  5
20D
330
206
100
AcDbEntity
  8
0
 62
     0
100
AcDbTrace
 10
91.48050000000003
 20
26.43712656023156
 30
0.0
 11
91.48050000000003
 21
27.53779322689823
 31
0.0
 12
94.78250000000003
 22
26.9874598935649
 32
0.0
 13
94.78250000000003
 23
26.9874598935649
 33
0.0
  0
SOLID
  5
20E
330
206
100
AcDbEntity
  8
0
 62
     0
100
AcDbTrace
 10
88.55950000000004
 20
27.53779322689823
 30
0.0
 11
88.55950000000004
 21
26.43712656023156
 31
0.0
 12
85.25750000000004
 22
26.9874598935649
 32
0.0
 13
85.25750000000004
 23
26.9874598935649
 33
0.0
  0
MTEXT
  5
20F
330
206
100
AcDbEntity
  8
0
 62
     0
370
    15
100
AcDbMText
 10
70.14300000000003
 20
31.3624598935649
 30
0.0
 40
3.5
 41
0.0
 71
     2
 72
     1
  1
\A1;9.53 [3/8]
  7
SLDTEXTSTYLE0
 73
     1
 44
1.0
  0
POINT
  5
210
330
206
100
AcDbEntity
  8
Defpoints
 62
     0
100
AcDbPoint
 10
94.78250000000003
 20
13.83750000000003
 30
0.0
  0
POINT
  5
211
330
206
100
AcDbEntity
  8
Defpoints
 62
     0
100
AcDbPoint
 10
85.25750000000004
 20
13.83750000000001
 30
0.0
  0
POINT
  5
212
330
206
100
AcDbEntity
  8
Defpoints
 62
     0
100
AcDbPoint
 10
85.25750000000004
 20
26.9874598935649
 30
0.0
  0
ENDBLK
  5
208
330
206
100
AcDbEntity
  8
0
100
AcDbBlockEnd
  0
BLOCK
  5
214
330
213
100
AcDbEntity
  8
0
100
AcDbBlockBegin
  2
*D8
 70
     1
 10
0.0
 20
0.0
 30
0.0
  3
*D8
  1
*D9
  0
LINE
  5
216
330
213
100
AcDbEntity
  8
0
  6
Continuous
 62
     0
370
    -2
100
AcDbLine
 10
94.78250000000003
 20
13.90000000000003
 30
0.0
 11
94.78250000000003
 21
41.537978988175
 31
0.0
  0
LINE
  5
217
330
213
100
AcDbEntity
  8
0
  6
Continuous
 62
     0
370
    -2
100
AcDbLine
 10
16.995
 20
17.07500000000002
 30
0.0
 11
16.995
 21
41.537978988175
 31
0.0
  0
LINE
  5
218
330
213
100
AcDbEntity
  8
0
  6
Continuous
 62
     0
370
    -2
100
AcDbLine
 10
91.48050000000003
 20
41.537978988175
 30
0.0
 11
20.297
 21
41.537978988175
 31
0.0
  0
SOLID
  5
219
330
213
100
AcDbEntity
  8
0
 62
     0
100
AcDbTrace
 10
91.48050000000003
 20
40.98764565484166
 30
0.0
 11
91.48050000000003
 21
42.08831232150833
 31
0.0
 12
94.78250000000003
 22
41.537978988175
 32
0.0
 13
94.78250000000003
 23
41.537978988175
 33
0.0
  0
SOLID
  5
21A
330
213
100
AcDbEntity
  8
0
 62
     0
100
AcDbTrace
 10
20.297
 20
42.08831232150833
 30
0.0
 11
20.297
 21
40.98764565484166
 31
0.0
 12
16.995
 22
41.537978988175
 32
0.0
 13
16.995
 23
41.537978988175
 33
0.0
  0
MTEXT
  5
21B
330
213
100
AcDbEntity
  8
0
 62
     0
370
    15
100
AcDbMText
 10
56.22919669523925
 20
45.912978988175
 30
0.0
 40
3.5
 41
0.0
 71
     2
 72
     1
  1
\A1;77.79 [3 1/16]
  7
SLDTEXTSTYLE0
 73
     1
 44
1.0
  0
POINT
  5
21C
330
213
100
AcDbEntity
  8
Defpoints
 62
     0
100
AcDbPoint
 10
94.78250000000003
 20
13.83750000000003
 30
0.0
  0
POINT
  5
21D
330
213
100
AcDbEntity
  8
Defpoints
 62
     0
100
AcDbPoint
 10
16.995
 20
17.01250000000002
 30
0.0
  0
POINT
  5
21E
330
213
100
AcDbEntity
  8
Defpoints
 62
     0
100
AcDbPoint
 10
16.995
 20
41.537978988175
 30
0.0
  0
ENDBLK
  5
215
330
213
100
AcDbEntity
  8
0
100
AcDbBlockEnd
  0
BLOCK
  5
220
330
21F
100
AcDbEntity
  8
0
100
AcDbBlockBegin
  2
*D9
 70
     1
 10
0.0
 20
0.0
 30
0.0
  3
*D9
  1
*D10
  0
LINE
  5
222
330
21F
100
AcDbEntity
  8
0
  6
Continuous
 62
     0
370
    -2
100
AcDbLine
 10
39.14981960011747
 20
17.01250000000002
 30
0.0
 11
4.375000000000027
 21
17.0124999999999
 31
0.0
  0
LINE
  5
223
330
21F
100
AcDbEntity
  8
0
  6
Continuous
 62
     0
370
    -2
100
AcDbLine
 10
39.30676131403116
 20
7.487500000000018
 30
0.0
 11
4.37500000000006
 21
7.487499999999889
 31
0.0
  0
LINE
  5
224
330
21F
100
AcDbEntity
  8
0
  6
Continuous
 62
     0
370
    -2
100
AcDbLine
 10
4.375000000000038
 20
13.7104999999999
 30
0.0
 11
4.375000000000048
 21
10.78949999999989
 31
0.0
  0
SOLID
  5
225
330
21F
100
AcDbEntity
  8
0
 62
     0
100
AcDbTrace
 10
4.925333333333372
 20
13.7104999999999
 30
0.0
 11
3.824666666666705
 21
13.71049999999989
 31
0.0
 12
4.375000000000027
 22
17.0124999999999
 32
0.0
 13
4.375000000000027
 23
17.0124999999999
 33
0.0
  0
SOLID
  5
226
330
21F
100
AcDbEntity
  8
0
 62
     0
100
AcDbTrace
 10
3.824666666666715
 20
10.78949999999989
 30
0.0
 11
4.925333333333382
 21
10.78949999999989
 31
0.0
 12
4.37500000000006
 22
7.487499999999889
 32
0.0
 13
4.37500000000006
 23
7.487499999999889
 33
0.0
  0
MTEXT
  5
227
330
21F
100
AcDbEntity
  8
0
 62
     0
370
    15
100
AcDbMText
 10
0.0000000000000426
 20
12.25000000000001
 30
0.0
 40
3.5
 41
0.0
 71
     2
 72
     1
  1
\A1;%%c9.53 [3/8]
  7
SLDTEXTSTYLE0
 11
-3.450141892798383E-15
 21
1.0
 31
0.0
 73
     1
 44
1.0
  0
POINT
  5
228
330
21F
100
AcDbEntity
  8
Defpoints
 62
     0
100
AcDbPoint
 10
39.21231960011747
 20
17.01250000000002
 30
0.0
  0
POINT
  5
229
330
21F
100
AcDbEntity
  8
Defpoints
 62
     0
100
AcDbPoint
 10
39.36926131403116
 20
7.487500000000018
 30
0.0
  0
POINT
  5
22A
330
21F
100
AcDbEntity
  8
Defpoints
 62
     0
100
AcDbPoint
 10
4.375000000000064
 20
7.487499999999887
 30
0.0
  0
ENDBLK
  5
221
330
21F
100
AcDbEntity
  8
0
100
AcDbBlockEnd
  0
BLOCK
  5
22C
330
22B
100
AcDbEntity
  8
0
100
AcDbBlockBegin
  2
*D10
 70
     1
 10
0.0
 20
0.0
 30
0.0
  3
*D10
  1
*D11
  0
LINE
  5
22E
330
22B
100
AcDbEntity
  8
0
  6
Continuous
 62
     0
370
    -2
100
AcDbLine
 10
94.84500000000004
 20
13.83750000000003
 30
0.0
 11
103.8856156479785
 21
13.83750000000006
 31
0.0
  0
LINE
  5
22F
330
22B
100
AcDbEntity
  8
0
  6
Continuous
 62
     0
370
    -2
100
AcDbLine
 10
94.84500000000003
 20
10.66250000000003
 30
0.0
 11
103.8856156479786
 21
10.66250000000006
 31
0.0
  0
LINE
  5
230
330
22B
100
AcDbEntity
  8
0
  6
Continuous
 62
     0
370
    -2
100
AcDbLine
 10
103.8856156479785
 20
13.83750000000006
 30
0.0
 11
103.8856156479784
 21
47.06632859961656
 31
0.0
  0
LINE
  5
231
330
22B
100
AcDbEntity
  8
0
  6
Continuous
 62
     0
370
    -2
100
AcDbLine
 10
103.8856156479785
 20
17.13950000000006
 30
0.0
 11
103.8856156479785
 21
20.44150000000006
 31
0.0
  0
LINE
  5
232
330
22B
100
AcDbEntity
  8
0
  6
Continuous
 62
     0
370
    -2
100
AcDbLine
 10
103.8856156479786
 20
7.360500000000062
 30
0.0
 11
103.8856156479786
 21
4.058500000000063
 31
0.0
  0
SOLID
  5
233
330
22B
100
AcDbEntity
  8
0
 62
     0
100
AcDbTrace
 10
103.3352823146452
 20
17.13950000000006
 30
0.0
 11
104.4359489813119
 21
17.13950000000006
 31
0.0
 12
103.8856156479785
 22
13.83750000000006
 32
0.0
 13
103.8856156479785
 23
13.83750000000006
 33
0.0
  0
SOLID
  5
234
330
22B
100
AcDbEntity
  8
0
 62
     0
100
AcDbTrace
 10
104.4359489813119
 20
7.360500000000065
 30
0.0
 11
103.3352823146452
 21
7.36050000000006
 31
0.0
 12
103.8856156479786
 22
10.66250000000006
 32
0.0
 13
103.8856156479786
 23
10.66250000000006
 33
0.0
  0
MTEXT
  5
235
330
22B
100
AcDbEntity
  8
0
 62
     0
370
    15
100
AcDbMText
 10
99.51061564797844
 20
34.81632859961654
 30
0.0
 40
3.5
 41
0.0
 71
     2
 72
     1
  1
\A1;%%c3.18 [1/8]
  7
SLDTEXTSTYLE0
 11
-4.475859752819530E-15
 21
1.0
 31
0.0
 73
     1
 44
1.0
  0
POINT
  5
236
330
22B
100
AcDbEntity
  8
Defpoints
 62
     0
100
AcDbPoint
 10
94.78250000000004
 20
13.83750000000003
 30
0.0
  0
POINT
  5
237
330
22B
100
AcDbEntity
  8
Defpoints
 62
     0
100
AcDbPoint
 10
94.78250000000003
 20
10.66250000000003
 30
0.0
  0
POINT
  5
238
330
22B
100
AcDbEntity
  8
Defpoints
 62
     0
100
AcDbPoint
 10
103.8856156479785
 20
10.66250000000006
 30
0.0
  0
ENDBLK
  5
22D
330
22B
100
AcDbEntity
  8
0
100
AcDbBlockEnd
  0
BLOCK
  5
28E
330
28D
100
AcDbEntity
  8
0
100
AcDbBlockBegin
  2
*D11
 70
     1
 10
0.0
 20
0.0
 30
0.0
  3
*D11
  1
*D12
  0
LINE
  5
290
330
28D
100
AcDbEntity
  8
0
  6
Continuous
 62
     0
370
    -2
100
AcDbLine
 10
127.8237884129224
 20
-42.63094939892152
 30
0.0
 11
127.8237884129224
 21
-29.54348950535665
 31
0.0
  0
LINE
  5
291
330
28D
100
AcDbEntity
  8
0
  6
Continuous
 62
     0
370
    -2
100
AcDbLine
 10
118.2987884129224
 20
-42.63094939892154
 30
0.0
 11
118.2987884129224
 21
-29.54348950535665
 31
0.0
  0
LINE
  5
292
330
28D
100
AcDbEntity
  8
0
  6
Continuous
 62
     0
370
    -2
100
AcDbLine
 10
118.2987884129224
 20
-29.54348950535665
 30
0.0
 11
91.3717884129224
 21
-29.54348950535665
 31
0.0
  0
LINE
  5
293
330
28D
100
AcDbEntity
  8
0
  6
Continuous
 62
     0
370
    -2
100
AcDbLine
 10
124.5217884129224
 20
-29.54348950535665
 30
0.0
 11
121.6007884129224
 21
-29.54348950535665
 31
0.0
  0
SOLID
  5
294
330
28D
100
AcDbEntity
  8
0
 62
     0
100
AcDbTrace
 10
124.5217884129224
 20
-30.09382283868999
 30
0.0
 11
124.5217884129224
 21
-28.99315617202332
 31
0.0
 12
127.8237884129224
 22
-29.54348950535665
 32
0.0
 13
127.8237884129224
 23
-29.54348950535665
 33
0.0
  0
SOLID
  5
295
330
28D
100
AcDbEntity
  8
0
 62
     0
100
AcDbTrace
 10
121.6007884129224
 20
-28.99315617202332
 30
0.0
 11
121.6007884129224
 21
-30.09382283868999
 31
0.0
 12
118.2987884129224
 22
-29.54348950535665
 32
0.0
 13
118.2987884129224
 23
-29.54348950535665
 33
0.0
  0
MTEXT
  5
296
330
28D
100
AcDbEntity
  8
0
 62
     0
370
    15
100
AcDbMText
 10
103.1842884129224
 20
-25.16848950535665
 30
0.0
 40
3.5
 41
0.0
 71
     2
 72
     1
  1
\A1;9.53 [3/8]
  7
SLDTEXTSTYLE0
 73
     1
 44
1.0
  0
POINT
  5
297
330
28D
100
AcDbEntity
  8
Defpoints
 62
     0
100
AcDbPoint
 10
127.8237884129224
 20
-42.69344939892152
 30
0.0
  0
POINT
  5
298
330
28D
100
AcDbEntity
  8
Defpoints
 62
     0
100
AcDbPoint
 10
118.2987884129224
 20
-42.69344939892154
 30
0.0
  0
POINT
  5
299
330
28D
100
AcDbEntity
  8
Defpoints
 62
     0
100
AcDbPoint
 10
118.2987884129224
 20
-29.54348950535665
 30
0.0
  0
ENDBLK
  5
28F
330
28D
100
AcDbEntity
  8
0
100
AcDbBlockEnd
  0
BLOCK
  5
29B
330
29A
100
AcDbEntity
  8
0
100
AcDbBlockBegin
  2
*D12
 70
     1
 10
0.0
 20
0.0
 30
0.0
  3
*D12
  1
*D13
  0
LINE
  5
29D
330
29A
100
AcDbEntity
  8
0
  6
Continuous
 62
     0
370
    -2
100
AcDbLine
 10
127.8237884129224
 20
-42.63094939892152
 30
0.0
 11
127.8237884129224
 21
-14.99297041074655
 31
0.0
  0
LINE
  5
29E
330
29A
100
AcDbEntity
  8
0
  6
Continuous
 62
     0
370
    -2
100
AcDbLine
 10
50.03628841292237
 20
-39.45594939892153
 30
0.0
 11
50.03628841292237
 21
-14.99297041074655
 31
0.0
  0
LINE
  5
29F
330
29A
100
AcDbEntity
  8
0
  6
Continuous
 62
     0
370
    -2
100
AcDbLine
 10
124.5217884129224
 20
-14.99297041074655
 30
0.0
 11
53.33828841292237
 21
-14.99297041074655
 31
0.0
  0
SOLID
  5
2A0
330
29A
100
AcDbEntity
  8
0
 62
     0
100
AcDbTrace
 10
124.5217884129224
 20
-15.54330374407988
 30
0.0
 11
124.5217884129224
 21
-14.44263707741322
 31
0.0
 12
127.8237884129224
 22
-14.99297041074655
 32
0.0
 13
127.8237884129224
 23
-14.99297041074655
 33
0.0
  0
SOLID
  5
2A1
330
29A
100
AcDbEntity
  8
0
 62
     0
100
AcDbTrace
 10
53.33828841292237
 20
-14.44263707741322
 30
0.0
 11
53.33828841292237
 21
-15.54330374407988
 31
0.0
 12
50.03628841292237
 22
-14.99297041074655
 32
0.0
 13
50.03628841292237
 23
-14.99297041074655
 33
0.0
  0
MTEXT
  5
2A2
330
29A
100
AcDbEntity
  8
0
 62
     0
370
    15
100
AcDbMText
 10
89.27048510816162
 20
-10.61797041074655
 30
0.0
 40
3.5
 41
0.0
 71
     2
 72
     1
  1
\A1;77.79 [3 1/16]
  7
SLDTEXTSTYLE0
 73
     1
 44
1.0
  0
POINT
  5
2A3
330
29A
100
AcDbEntity
  8
Defpoints
 62
     0
100
AcDbPoint
 10
127.8237884129224
 20
-42.69344939892152
 30
0.0
  0
POINT
  5
2A4
330
29A
100
AcDbEntity
  8
Defpoints
 62
     0
100
AcDbPoint
 10
50.03628841292237
 20
-39.51844939892153
 30
0.0
  0
POINT
  5
2A5
330
29A
100
AcDbEntity
  8
Defpoints
 62
     0
100
AcDbPoint
 10
50.03628841292237
 20
-14.99297041074655
 30
0.0
  0
ENDBLK
  5
29C
330
29A
100
AcDbEntity
  8
0
100
AcDbBlockEnd
  0
BLOCK
  5
2A7
330
2A6
100
AcDbEntity
  8
0
100
AcDbBlockBegin
  2
*D13
 70
     1
 10
0.0
 20
0.0
 30
0.0
  3
*D13
  1
*D14
  0
LINE
  5
2A9
330
2A6
100
AcDbEntity
  8
0
  6
Continuous
 62
     0
370
    -2
100
AcDbLine
 10
72.19110801303984
 20
-39.51844939892153
 30
0.0
 11
37.4162884129224
 21
-39.51844939892165
 31
0.0
  0
LINE
  5
2AA
330
2A6
100
AcDbEntity
  8
0
  6
Continuous
 62
     0
370
    -2
100
AcDbLine
 10
72.34804972695353
 20
-49.04344939892153
 30
0.0
 11
37.41628841292243
 21
-49.04344939892166
 31
0.0
  0
LINE
  5
2AB
330
2A6
100
AcDbEntity
  8
0
  6
Continuous
 62
     0
370
    -2
100
AcDbLine
 10
37.41628841292241
 20
-42.82044939892165
 30
0.0
 11
37.41628841292242
 21
-45.74144939892166
 31
0.0
  0
SOLID
  5
2AC
330
2A6
100
AcDbEntity
  8
0
 62
     0
100
AcDbTrace
 10
37.96662174625575
 20
-42.82044939892165
 30
0.0
 11
36.86595507958908
 21
-42.82044939892165
 31
0.0
 12
37.4162884129224
 22
-39.51844939892165
 32
0.0
 13
37.4162884129224
 23
-39.51844939892165
 33
0.0
  0
SOLID
  5
2AD
330
2A6
100
AcDbEntity
  8
0
 62
     0
100
AcDbTrace
 10
36.86595507958909
 20
-45.74144939892166
 30
0.0
 11
37.96662174625575
 21
-45.74144939892166
 31
0.0
 12
37.41628841292243
 22
-49.04344939892166
 32
0.0
 13
37.41628841292243
 23
-49.04344939892166
 33
0.0
  0
MTEXT
  5
2AE
330
2A6
100
AcDbEntity
  8
0
 62
     0
370
    15
100
AcDbMText
 10
33.04128841292241
 20
-44.28094939892154
 30
0.0
 40
3.5
 41
0.0
 71
     2
 72
     1
  1
\A1;%%c9.53 [3/8]
  7
SLDTEXTSTYLE0
 11
-3.729883127349605E-15
 21
1.0
 31
0.0
 73
     1
 44
1.0
  0
POINT
  5
2AF
330
2A6
100
AcDbEntity
  8
Defpoints
 62
     0
100
AcDbPoint
 10
72.25360801303984
 20
-39.51844939892153
 30
0.0
  0
POINT
  5
2B0
330
2A6
100
AcDbEntity
  8
Defpoints
 62
     0
100
AcDbPoint
 10
72.41054972695353
 20
-49.04344939892153
 30
0.0
  0
POINT
  5
2B1
330
2A6
100
AcDbEntity
  8
Defpoints
 62
     0
100
AcDbPoint
 10
37.41628841292243
 20
-49.04344939892166
 30
0.0
  0
ENDBLK
  5
2A8
330
2A6
100
AcDbEntity
  8
0
100
AcDbBlockEnd
  0
BLOCK
  5
2B3
330
2B2
100
AcDbEntity
  8
0
100
AcDbBlockBegin
  2
*D14
 70
     1
 10
0.0
 20
0.0
 30
0.0
  3
*D14
  1
*D15
  0
LINE
  5
2B5
330
2B2
100
AcDbEntity
  8
0
  6
Continuous
 62
     0
370
    -2
100
AcDbLine
 10
127.8862884129224
 20
-42.69344939892152
 30
0.0
 11
136.9269040609008
 21
-42.69344939892149
 31
0.0
  0
LINE
  5
2B6
330
2B2
100
AcDbEntity
  8
0
  6
Continuous
 62
     0
370
    -2
100
AcDbLine
 10
127.8862884129224
 20
-45.86844939892152
 30
0.0
 11
136.9269040609008
 21
-45.86844939892148
 31
0.0
  0
LINE
  5
2B7
330
2B2
100
AcDbEntity
  8
0
  6
Continuous
 62
     0
370
    -2
100
AcDbLine
 10
136.9269040609008
 20
-42.69344939892149
 30
0.0
 11
136.9269040609008
 21
-9.464620799304988
 31
0.0
  0
LINE
  5
2B8
330
2B2
100
AcDbEntity
  8
0
  6
Continuous
 62
     0
370
    -2
100
AcDbLine
 10
136.9269040609008
 20
-39.39144939892149
 30
0.0
 11
136.9269040609008
 21
-36.08944939892149
 31
0.0
  0
LINE
  5
2B9
330
2B2
100
AcDbEntity
  8
0
  6
Continuous
 62
     0
370
    -2
100
AcDbLine
 10
136.9269040609008
 20
-49.17044939892148
 30
0.0
 11
136.9269040609008
 21
-52.47244939892148
 31
0.0
  0
SOLID
  5
2BA
330
2B2
100
AcDbEntity
  8
0
 62
     0
100
AcDbTrace
 10
136.3765707275675
 20
-39.39144939892149
 30
0.0
 11
137.4772373942342
 21
-39.39144939892149
 31
0.0
 12
136.9269040609008
 22
-42.69344939892149
 32
0.0
 13
136.9269040609008
 23
-42.69344939892149
 33
0.0
  0
SOLID
  5
2BB
330
2B2
100
AcDbEntity
  8
0
 62
     0
100
AcDbTrace
 10
137.4772373942342
 20
-49.17044939892148
 30
0.0
 11
136.3765707275675
 21
-49.17044939892148
 31
0.0
 12
136.9269040609008
 22
-45.86844939892148
 32
0.0
 13
136.9269040609008
 23
-45.86844939892148
 33
0.0
  0
MTEXT
  5
2BC
330
2B2
100
AcDbEntity
  8
0
 62
     0
370
    15
100
AcDbMText
 10
132.5519040609008
 20
-21.71462079930499
 30
0.0
 40
3.5
 41
0.0
 71
     2
 72
     1
  1
\A1;%%c3.18 [1/8]
  7
SLDTEXTSTYLE0
 11
0.0
 21
1.0
 31
0.0
 73
     1
 44
1.0
  0
POINT
  5
2BD
330
2B2
100
AcDbEntity
  8
Defpoints
 62
     0
100
AcDbPoint
 10
127.8237884129224
 20
-42.69344939892152
 30
0.0
  0
POINT
  5
2BE
330
2B2
100
AcDbEntity
  8
Defpoints
 62
     0
100
AcDbPoint
 10
127.8237884129224
 20
-45.86844939892152
 30
0.0
  0
POINT
  5
2BF
330
2B2
100
AcDbEntity
  8
Defpoints
 62
     0
100
AcDbPoint
 10
136.9269040609009
 20
-45.86844939892148
 30
0.0
  0
ENDBLK
  5
2B4
330
2B2
100
AcDbEntity
  8
0
100
AcDbBlockEnd
  0
BLOCK
  5
350
330
34F
100
AcDbEntity
  8
0
100
AcDbBlockBegin
  2
*D15
 70
     1
 10
0.0
 20
0.0
 30
0.0
  3
*D15
  1
*D17
  0
LINE
  5
352
330
34F
100
AcDbEntity
  8
0
  6
Continuous
 62
     0
370
    -2
100
AcDbLine
 10
112.055
 20
12.06847347783931
 30
0.0
 11
112.055
 21
24.41328789224009
 31
0.0
  0
LINE
  5
353
330
34F
100
AcDbEntity
  8
0
  6
Continuous
 62
     0
370
    -2
100
AcDbLine
 10
91.41750000000003
 20
16.47613005354381
 30
0.0
 11
91.41750000000003
 21
24.41328789224009
 31
0.0
  0
LINE
  5
354
330
34F
100
AcDbEntity
  8
0
  6
Continuous
 62
     0
370
    -2
100
AcDbLine
 10
91.41750000000003
 20
24.41328789224009
 30
0.0
 11
58.80300000000003
 21
24.41328789224009
 31
0.0
  0
LINE
  5
355
330
34F
100
AcDbEntity
  8
0
  6
Continuous
 62
     0
370
    -2
100
AcDbLine
 10
108.753
 20
24.41328789224009
 30
0.0
 11
94.71950000000004
 21
24.41328789224009
 31
0.0
  0
SOLID
  5
356
330
34F
100
AcDbEntity
  8
0
 62
     0
100
AcDbTrace
 10
108.753
 20
23.86295455890676
 30
0.0
 11
108.753
 21
24.96362122557343
 31
0.0
 12
112.055
 22
24.41328789224009
 32
0.0
 13
112.055
 23
24.41328789224009
 33
0.0
  0
SOLID
  5
357
330
34F
100
AcDbEntity
  8
0
 62
     0
100
AcDbTrace
 10
94.71950000000004
 20
24.96362122557343
 30
0.0
 11
94.71950000000004
 21
23.86295455890676
 31
0.0
 12
91.41750000000003
 22
24.41328789224009
 32
0.0
 13
91.41750000000003
 23
24.41328789224009
 33
0.0
  0
MTEXT
  5
358
330
34F
100
AcDbEntity
  8
0
 62
     0
370
    15
100
AcDbMText
 10
73.45925000000003
 20
28.78828789224009
 30
0.0
 40
3.5
 41
0.0
 71
     2
 72
     1
  1
\A1;20.64 [13/16]
  7
SLDTEXTSTYLE0
 73
     1
 44
1.0
  0
POINT
  5
359
330
34F
100
AcDbEntity
  8
Defpoints
 62
     0
100
AcDbPoint
 10
112.055
 20
12.00597347783931
 30
0.0
  0
POINT
  5
35A
330
34F
100
AcDbEntity
  8
Defpoints
 62
     0
100
AcDbPoint
 10
91.41750000000003
 20
16.41363005354381
 30
0.0
  0
POINT
  5
35B
330
34F
100
AcDbEntity
  8
Defpoints
 62
     0
100
AcDbPoint
 10
91.41750000000003
 20
24.41328789224009
 30
0.0
  0
ENDBLK
  5
351
330
34F
100
AcDbEntity
  8
0
100
AcDbBlockEnd
  0
BLOCK
  5
35D
330
35C
100
AcDbEntity
  8
0
100
AcDbBlockBegin
  2
*D16
 70
     1
 10
0.0
 20
0.0
 30
0.0
  3
*D16
  1
*D18
  0
LINE
  5
35F
330
35C
100
AcDbEntity
  8
0
  6
Continuous
 62
     0
370
    -2
100
AcDbLine
 10
112.055
 20
12.06847347783931
 30
0.0
 11
112.055
 21
40.66297898817499
 31
0.0
  0
LINE
  5
360
330
35C
100
AcDbEntity
  8
0
  6
Continuous
 62
     0
370
    -2
100
AcDbLine
 10
16.80500000000004
 20
16.7875
 30
0.0
 11
16.80500000000004
 21
40.66297898817499
 31
0.0
  0
LINE
  5
361
330
35C
100
AcDbEntity
  8
0
  6
Continuous
 62
     0
370
    -2
100
AcDbLine
 10
108.753
 20
40.66297898817499
 30
0.0
 11
20.10700000000003
 21
40.66297898817499
 31
0.0
  0
SOLID
  5
362
330
35C
100
AcDbEntity
  8
0
 62
     0
100
AcDbTrace
 10
108.753
 20
40.11264565484166
 30
0.0
 11
108.753
 21
41.21331232150833
 31
0.0
 12
112.055
 22
40.66297898817499
 32
0.0
 13
112.055
 23
40.66297898817499
 33
0.0
  0
SOLID
  5
363
330
35C
100
AcDbEntity
  8
0
 62
     0
100
AcDbTrace
 10
20.10700000000003
 20
41.21331232150833
 30
0.0
 11
20.10700000000003
 21
40.11264565484166
 31
0.0
 12
16.80500000000004
 22
40.66297898817499
 32
0.0
 13
16.80500000000004
 23
40.66297898817499
 33
0.0
  0
MTEXT
  5
364
330
35C
100
AcDbEntity
  8
0
 62
     0
370
    15
100
AcDbMText
 10
64.8468735043746
 20
45.03797898817499
 30
0.0
 40
3.5
 41
0.0
 71
     2
 72
     1
  1
\A1;95.25 [3 3/4]
  7
SLDTEXTSTYLE0
 73
     1
 44
1.0
  0
POINT
  5
365
330
35C
100
AcDbEntity
  8
Defpoints
 62
     0
100
AcDbPoint
 10
112.055
 20
12.00597347783931
 30
0.0
  0
POINT
  5
366
330
35C
100
AcDbEntity
  8
Defpoints
 62
     0
100
AcDbPoint
 10
16.80500000000004
 20
16.725
 30
0.0
  0
POINT
  5
367
330
35C
100
AcDbEntity
  8
Defpoints
 62
     0
100
AcDbPoint
 10
16.80500000000004
 20
40.66297898817499
 30
0.0
  0
ENDBLK
  5
35E
330
35C
100
AcDbEntity
  8
0
100
AcDbBlockEnd
  0
BLOCK
  5
369
330
368
100
AcDbEntity
  8
0
100
AcDbBlockBegin
  2
*D17
 70
     1
 10
0.0
 20
0.0
 30
0.0
  3
*D17
  1
*D19
  0
LINE
  5
36B
330
368
100
AcDbEntity
  8
0
  6
Continuous
 62
     0
370
    -2
100
AcDbLine
 10
17.74250000000004
 20
17.72500000000001
 30
0.0
 11
4.37500000000002
 21
17.72499999999996
 31
0.0
  0
LINE
  5
36C
330
368
100
AcDbEntity
  8
0
  6
Continuous
 62
     0
370
    -2
100
AcDbLine
 10
17.74250000000004
 20
5.025000000000019
 30
0.0
 11
4.375000000000065
 21
5.024999999999969
 31
0.0
  0
LINE
  5
36D
330
368
100
AcDbEntity
  8
0
  6
Continuous
 62
     0
370
    -2
100
AcDbLine
 10
4.375000000000032
 20
14.42299999999996
 30
0.0
 11
4.375000000000053
 21
8.32699999999997
 31
0.0
  0
SOLID
  5
36E
330
368
100
AcDbEntity
  8
0
 62
     0
100
AcDbTrace
 10
4.925333333333366
 20
14.42299999999996
 30
0.0
 11
3.824666666666699
 21
14.42299999999996
 31
0.0
 12
4.37500000000002
 22
17.72499999999996
 32
0.0
 13
4.37500000000002
 23
17.72499999999996
 33
0.0
  0
SOLID
  5
36F
330
368
100
AcDbEntity
  8
0
 62
     0
100
AcDbTrace
 10
3.82466666666672
 20
8.326999999999968
 30
0.0
 11
4.925333333333387
 21
8.326999999999972
 31
0.0
 12
4.375000000000065
 22
5.024999999999969
 32
0.0
 13
4.375000000000065
 23
5.024999999999969
 33
0.0
  0
MTEXT
  5
370
330
368
100
AcDbEntity
  8
0
 62
     0
370
    15
100
AcDbMText
 10
0.0000000000000426
 20
11.37499999999999
 30
0.0
 40
3.5
 41
0.0
 71
     2
 72
     1
  1
\A1;%%c12.7 [1/2]
  7
SLDTEXTSTYLE0
 11
-3.496765431890260E-15
 21
1.0
 31
0.0
 73
     1
 44
1.0
  0
POINT
  5
371
330
368
100
AcDbEntity
  8
Defpoints
 62
     0
100
AcDbPoint
 10
17.80500000000004
 20
17.72500000000001
 30
0.0
  0
POINT
  5
372
330
368
100
AcDbEntity
  8
Defpoints
 62
     0
100
AcDbPoint
 10
17.80500000000004
 20
5.025000000000019
 30
0.0
  0
POINT
  5
373
330
368
100
AcDbEntity
  8
Defpoints
 62
     0
100
AcDbPoint
 10
4.375000000000071
 20
5.024999999999969
 30
0.0
  0
ENDBLK
  5
36A
330
368
100
AcDbEntity
  8
0
100
AcDbBlockEnd
  0
BLOCK
  5
375
330
374
100
AcDbEntity
  8
0
100
AcDbBlockBegin
  2
*D18
 70
     1
 10
0.0
 20
0.0
 30
0.0
  3
*D18
  1
*D20
  0
LINE
  5
377
330
374
100
AcDbEntity
  8
0
  6
Continuous
 62
     0
370
    -2
100
AcDbLine
 10
106.56125
 20
16.93125000000001
 30
0.0
 11
125.054116703234
 21
16.93125000000008
 31
0.0
  0
LINE
  5
378
330
374
100
AcDbEntity
  8
0
  6
Continuous
 62
     0
370
    -2
100
AcDbLine
 10
106.56125
 20
5.818750000000014
 30
0.0
 11
125.054116703234
 21
5.818750000000087
 31
0.0
  0
LINE
  5
379
330
374
100
AcDbEntity
  8
0
  6
Continuous
 62
     0
370
    -2
100
AcDbLine
 10
125.054116703234
 20
16.93125000000008
 30
0.0
 11
125.0541167032339
 21
47.3582500000001
 31
0.0
  0
LINE
  5
37A
330
374
100
AcDbEntity
  8
0
  6
Continuous
 62
     0
370
    -2
100
AcDbLine
 10
125.054116703234
 20
13.62925000000008
 30
0.0
 11
125.054116703234
 21
9.120750000000086
 31
0.0
  0
SOLID
  5
37B
330
374
100
AcDbEntity
  8
0
 62
     0
100
AcDbTrace
 10
125.6044500365673
 20
13.62925000000009
 30
0.0
 11
124.5037833699007
 21
13.62925000000008
 31
0.0
 12
125.054116703234
 22
16.93125000000008
 32
0.0
 13
125.054116703234
 23
16.93125000000008
 33
0.0
  0
SOLID
  5
37C
330
374
100
AcDbEntity
  8
0
 62
     0
100
AcDbTrace
 10
124.5037833699007
 20
9.120750000000085
 30
0.0
 11
125.6044500365674
 21
9.120750000000088
 31
0.0
 12
125.054116703234
 22
5.818750000000087
 32
0.0
 13
125.054116703234
 23
5.818750000000087
 33
0.0
  0
MTEXT
  5
37D
330
374
100
AcDbEntity
  8
0
 62
     0
370
    15
100
AcDbMText
 10
120.6791167032339
 20
33.79575000000008
 30
0.0
 40
3.5
 41
0.0
 71
     2
 72
     1
  1
\A1;%%c11.11 [7/16]
  7
SLDTEXTSTYLE0
 11
-3.836451216702453E-15
 21
1.0
 31
0.0
 73
     1
 44
1.0
  0
POINT
  5
37E
330
374
100
AcDbEntity
  8
Defpoints
 62
     0
100
AcDbPoint
 10
106.49875
 20
16.93125000000001
 30
0.0
  0
POINT
  5
37F
330
374
100
AcDbEntity
  8
Defpoints
 62
     0
100
AcDbPoint
 10
106.49875
 20
5.818750000000014
 30
0.0
  0
POINT
  5
380
330
374
100
AcDbEntity
  8
Defpoints
 62
     0
100
AcDbPoint
 10
125.054116703234
 20
5.818750000000083
 30
0.0
  0
ENDBLK
  5
376
330
374
100
AcDbEntity
  8
0
100
AcDbBlockEnd
  0
BLOCK
  5
3AF
330
3AE
100
AcDbEntity
  8
0
100
AcDbBlockBegin
  2
*D19
 70
     1
 10
0.0
 20
0.0
 30
0.0
  3
*D19
  1
*D21
  0
LINE
  5
3B1
330
3AE
100
AcDbEntity
  8
0
  6
Continuous
 62
     0
370
    -2
100
AcDbLine
 10
225.391439732177
 20
14.61396203448073
 30
0.0
 11
225.391439732177
 21
26.95877644888151
 31
0.0
  0
LINE
  5
3B2
330
3AE
100
AcDbEntity
  8
0
  6
Continuous
 62
     0
370
    -2
100
AcDbLine
 10
204.753939732177
 20
19.02161861018522
 30
0.0
 11
204.753939732177
 21
26.95877644888151
 31
0.0
  0
LINE
  5
3B3
330
3AE
100
AcDbEntity
  8
0
  6
Continuous
 62
     0
370
    -2
100
AcDbLine
 10
204.753939732177
 20
26.95877644888151
 30
0.0
 11
172.139439732177
 21
26.95877644888151
 31
0.0
  0
LINE
  5
3B4
330
3AE
100
AcDbEntity
  8
0
  6
Continuous
 62
     0
370
    -2
100
AcDbLine
 10
222.0894397321771
 20
26.95877644888151
 30
0.0
 11
208.055939732177
 21
26.95877644888151
 31
0.0
  0
SOLID
  5
3B5
330
3AE
100
AcDbEntity
  8
0
 62
     0
100
AcDbTrace
 10
222.0894397321771
 20
26.40844311554817
 30
0.0
 11
222.0894397321771
 21
27.50910978221484
 31
0.0
 12
225.391439732177
 22
26.95877644888151
 32
0.0
 13
225.391439732177
 23
26.95877644888151
 33
0.0
  0
SOLID
  5
3B6
330
3AE
100
AcDbEntity
  8
0
 62
     0
100
AcDbTrace
 10
208.055939732177
 20
27.50910978221484
 30
0.0
 11
208.055939732177
 21
26.40844311554817
 31
0.0
 12
204.753939732177
 22
26.95877644888151
 32
0.0
 13
204.753939732177
 23
26.95877644888151
 33
0.0
  0
MTEXT
  5
3B7
330
3AE
100
AcDbEntity
  8
0
 62
     0
370
    15
100
AcDbMText
 10
186.795689732177
 20
31.33377644888151
 30
0.0
 40
3.5
 41
0.0
 71
     2
 72
     1
  1
\A1;20.64 [13/16]
  7
SLDTEXTSTYLE0
 73
     1
 44
1.0
  0
POINT
  5
3B8
330
3AE
100
AcDbEntity
  8
Defpoints
 62
     0
100
AcDbPoint
 10
225.391439732177
 20
14.55146203448073
 30
0.0
  0
POINT
  5
3B9
330
3AE
100
AcDbEntity
  8
Defpoints
 62
     0
100
AcDbPoint
 10
204.753939732177
 20
18.95911861018522
 30
0.0
  0
POINT
  5
3BA
330
3AE
100
AcDbEntity
  8
Defpoints
 62
     0
100
AcDbPoint
 10
204.753939732177
 20
26.95877644888151
 30
0.0
  0
ENDBLK
  5
3B0
330
3AE
100
AcDbEntity
  8
0
100
AcDbBlockEnd
  0
BLOCK
  5
3BC
330
3BB
100
AcDbEntity
  8
0
100
AcDbBlockBegin
  2
*D20
 70
     1
 10
0.0
 20
0.0
 30
0.0
  3
*D20
  1
*D22
  0
LINE
  5
3BE
330
3BB
100
AcDbEntity
  8
0
  6
Continuous
 62
     0
370
    -2
100
AcDbLine
 10
225.391439732177
 20
14.61396203448073
 30
0.0
 11
225.391439732177
 21
43.20846754481641
 31
0.0
  0
LINE
  5
3BF
330
3BB
100
AcDbEntity
  8
0
  6
Continuous
 62
     0
370
    -2
100
AcDbLine
 10
130.141439732177
 20
19.33298855664142
 30
0.0
 11
130.141439732177
 21
43.20846754481641
 31
0.0
  0
LINE
  5
3C0
330
3BB
100
AcDbEntity
  8
0
  6
Continuous
 62
     0
370
    -2
100
AcDbLine
 10
222.0894397321771
 20
43.20846754481641
 30
0.0
 11
133.443439732177
 21
43.20846754481641
 31
0.0
  0
SOLID
  5
3C1
330
3BB
100
AcDbEntity
  8
0
 62
     0
100
AcDbTrace
 10
222.0894397321771
 20
42.65813421148307
 30
0.0
 11
222.0894397321771
 21
43.75880087814974
 31
0.0
 12
225.391439732177
 22
43.20846754481641
 32
0.0
 13
225.391439732177
 23
43.20846754481641
 33
0.0
  0
SOLID
  5
3C2
330
3BB
100
AcDbEntity
  8
0
 62
     0
100
AcDbTrace
 10
133.443439732177
 20
43.75880087814974
 30
0.0
 11
133.443439732177
 21
42.65813421148307
 31
0.0
 12
130.141439732177
 22
43.20846754481641
 32
0.0
 13
130.141439732177
 23
43.20846754481641
 33
0.0
  0
MTEXT
  5
3C3
330
3BB
100
AcDbEntity
  8
0
 62
     0
370
    15
100
AcDbMText
 10
178.1833132365516
 20
47.58346754481641
 30
0.0
 40
3.5
 41
0.0
 71
     2
 72
     1
  1
\A1;95.25 [3 3/4]
  7
SLDTEXTSTYLE0
 73
     1
 44
1.0
  0
POINT
  5
3C4
330
3BB
100
AcDbEntity
  8
Defpoints
 62
     0
100
AcDbPoint
 10
225.391439732177
 20
14.55146203448073
 30
0.0
  0
POINT
  5
3C5
330
3BB
100
AcDbEntity
  8
Defpoints
 62
     0
100
AcDbPoint
 10
130.141439732177
 20
19.27048855664142
 30
0.0
  0
POINT
  5
3C6
330
3BB
100
AcDbEntity
  8
Defpoints
 62
     0
100
AcDbPoint
 10
130.141439732177
 20
43.20846754481641
 30
0.0
  0
ENDBLK
  5
3BD
330
3BB
100
AcDbEntity
  8
0
100
AcDbBlockEnd
  0
BLOCK
  5
3C8
330
3C7
100
AcDbEntity
  8
0
100
AcDbBlockBegin
  2
*D21
 70
     1
 10
0.0
 20
0.0
 30
0.0
  3
*D21
  1
*D23
  0
LINE
  5
3CA
330
3C7
100
AcDbEntity
  8
0
  6
Continuous
 62
     0
370
    -2
100
AcDbLine
 10
131.078939732177
 20
20.27048855664142
 30
0.0
 11
117.711439732177
 21
20.27048855664138
 31
0.0
  0
LINE
  5
3CB
330
3C7
100
AcDbEntity
  8
0
  6
Continuous
 62
     0
370
    -2
100
AcDbLine
 10
131.078939732177
 20
7.570488556641435
 30
0.0
 11
117.7114397321771
 21
7.570488556641386
 31
0.0
  0
LINE
  5
3CC
330
3C7
100
AcDbEntity
  8
0
  6
Continuous
 62
     0
370
    -2
100
AcDbLine
 10
117.711439732177
 20
16.96848855664138
 30
0.0
 11
117.7114397321771
 21
10.87248855664139
 31
0.0
  0
SOLID
  5
3CD
330
3C7
100
AcDbEntity
  8
0
 62
     0
100
AcDbTrace
 10
118.2617730655104
 20
16.96848855664138
 30
0.0
 11
117.1611063988437
 21
16.96848855664137
 31
0.0
 12
117.711439732177
 22
20.27048855664138
 32
0.0
 13
117.711439732177
 23
20.27048855664138
 33
0.0
  0
SOLID
  5
3CE
330
3C7
100
AcDbEntity
  8
0
 62
     0
100
AcDbTrace
 10
117.1611063988437
 20
10.87248855664138
 30
0.0
 11
118.2617730655104
 21
10.87248855664139
 31
0.0
 12
117.7114397321771
 22
7.570488556641386
 32
0.0
 13
117.7114397321771
 23
7.570488556641386
 33
0.0
  0
MTEXT
  5
3CF
330
3C7
100
AcDbEntity
  8
0
 62
     0
370
    15
100
AcDbMText
 10
113.336439732177
 20
13.92048855664141
 30
0.0
 40
3.5
 41
0.0
 71
     2
 72
     1
  1
\A1;%%c12.7 [1/2]
  7
SLDTEXTSTYLE0
 11
-3.356894814614650E-15
 21
1.0
 31
0.0
 73
     1
 44
1.0
  0
POINT
  5
3D0
330
3C7
100
AcDbEntity
  8
Defpoints
 62
     0
100
AcDbPoint
 10
131.141439732177
 20
20.27048855664142
 30
0.0
  0
POINT
  5
3D1
330
3C7
100
AcDbEntity
  8
Defpoints
 62
     0
100
AcDbPoint
 10
131.141439732177
 20
7.570488556641435
 30
0.0
  0
POINT
  5
3D2
330
3C7
100
AcDbEntity
  8
Defpoints
 62
     0
100
AcDbPoint
 10
117.7114397321771
 20
7.570488556641386
 30
0.0
  0
ENDBLK
  5
3C9
330
3C7
100
AcDbEntity
  8
0
100
AcDbBlockEnd
  0
BLOCK
  5
3D4
330
3D3
100
AcDbEntity
  8
0
100
AcDbBlockBegin
  2
*D22
 70
     1
 10
0.0
 20
0.0
 30
0.0
  3
*D22
  1
*D24
  0
LINE
  5
3D6
330
3D3
100
AcDbEntity
  8
0
  6
Continuous
 62
     0
370
    -2
100
AcDbLine
 10
219.897689732177
 20
19.47673855664143
 30
0.0
 11
238.390556435411
 21
19.4767385566415
 31
0.0
  0
LINE
  5
3D7
330
3D3
100
AcDbEntity
  8
0
  6
Continuous
 62
     0
370
    -2
100
AcDbLine
 10
219.897689732177
 20
8.36423855664143
 30
0.0
 11
238.390556435411
 21
8.364238556641503
 31
0.0
  0
LINE
  5
3D8
330
3D3
100
AcDbEntity
  8
0
  6
Continuous
 62
     0
370
    -2
100
AcDbLine
 10
238.390556435411
 20
19.4767385566415
 30
0.0
 11
238.3905564354109
 21
49.90373855664151
 31
0.0
  0
LINE
  5
3D9
330
3D3
100
AcDbEntity
  8
0
  6
Continuous
 62
     0
370
    -2
100
AcDbLine
 10
238.390556435411
 20
16.1747385566415
 30
0.0
 11
238.390556435411
 21
11.6662385566415
 31
0.0
  0
SOLID
  5
3DA
330
3D3
100
AcDbEntity
  8
0
 62
     0
100
AcDbTrace
 10
238.9408897687443
 20
16.1747385566415
 30
0.0
 11
237.8402231020777
 21
16.1747385566415
 31
0.0
 12
238.390556435411
 22
19.4767385566415
 32
0.0
 13
238.390556435411
 23
19.4767385566415
 33
0.0
  0
SOLID
  5
3DB
330
3D3
100
AcDbEntity
  8
0
 62
     0
100
AcDbTrace
 10
237.8402231020777
 20
11.6662385566415
 30
0.0
 11
238.9408897687443
 21
11.6662385566415
 31
0.0
 12
238.390556435411
 22
8.364238556641503
 32
0.0
 13
238.390556435411
 23
8.364238556641503
 33
0.0
  0
MTEXT
  5
3DC
330
3D3
100
AcDbEntity
  8
0
 62
     0
370
    15
100
AcDbMText
 10
234.0155564354109
 20
36.34123855664149
 30
0.0
 40
3.5
 41
0.0
 71
     2
 72
     1
  1
\A1;%%c11.11 [7/16]
  7
SLDTEXTSTYLE0
 11
-2.557634144468302E-15
 21
1.0
 31
0.0
 73
     1
 44
1.0
  0
POINT
  5
3DD
330
3D3
100
AcDbEntity
  8
Defpoints
 62
     0
100
AcDbPoint
 10
219.835189732177
 20
19.47673855664143
 30
0.0
  0
POINT
  5
3DE
330
3D3
100
AcDbEntity
  8
Defpoints
 62
     0
100
AcDbPoint
 10
219.835189732177
 20
8.36423855664143
 30
0.0
  0
POINT
  5
3DF
330
3D3
100
AcDbEntity
  8
Defpoints
 62
     0
100
AcDbPoint
 10
238.390556435411
 20
8.3642385566415
 30
0.0
  0
ENDBLK
  5
3D5
330
3D3
100
AcDbEntity
  8
0
100
AcDbBlockEnd
  0
ENDSEC
  0
SECTION
  2
ENTITIES
  0
LINE
  5
96
330
1F
100
AcDbEntity
  8
외형선
  6
Continuous
370
    15
100
AcDbLine
 10
23.02518467149221
 20
-6.349999999999997
 30
0.0
 11
24.95750722838601
 21
-5.83223573136386
 31
0.0
  0
LINE
  5
97
330
1F
100
AcDbEntity
  8
외형선
  6
Continuous
370
    15
100
AcDbLine
 10
24.95750722838601
 20
5.832235731363864
 30
0.0
 11
23.02518467149221
 21
6.35
 31
0.0
  0
LINE
  5
98
330
1F
100
AcDbEntity
  8
외형선
  6
Continuous
370
    15
100
AcDbLine
 10
23.02518467149221
 20
6.349999999999999
 30
0.0
 11
5.72770000000002
 21
6.349999999999997
 31
0.0
  0
LINE
  5
99
330
1F
100
AcDbEntity
  8
외형선
  6
Continuous
370
    15
100
AcDbLine
 10
-23.02518467149218
 20
-6.350000000000002
 30
0.0
 11
23.02518467149221
 21
-6.349999999999997
 31
0.0
  0
LINE
  5
9C
330
1F
100
AcDbEntity
  8
0
  6
Continuous
 62
     1
370
    15
100
AcDbLine
 10
40.95747764331037
 20
-5.556249999999999
 30
0.0
 11
42.06874999999999
 21
-5.556249999999999
 31
0.0
  0
ARC
  5
9D
330
1F
100
AcDbEntity
  8
0
  6
Continuous
 62
     1
370
    15
100
AcDbCircle
 10
42.06874999999999
 20
0.0000000000000016
 30
0.0
 40
5.55625
100
AcDbArc
 50
270.0000000000007
 51
0.0
  0
ARC
  5
9E
330
1F
100
AcDbEntity
  8
0
  6
Continuous
 62
     1
370
    15
100
AcDbCircle
 10
42.06874999999999
 20
0.0000000000000016
 30
0.0
 40
5.55625
100
AcDbArc
 50
0.0
 51
90.0
  0
LINE
  5
9F
330
1F
100
AcDbEntity
  8
0
  6
Continuous
 62
     1
370
    15
100
AcDbLine
 10
42.06874999999999
 20
5.556250000000002
 30
0.0
 11
40.95747764331037
 21
5.556250000000002
 31
0.0
  0
LINE
  5
A0
330
1F
100
AcDbEntity
  8
외형선
  6
Continuous
370
    15
100
AcDbLine
 10
24.95750722838601
 20
5.687890967253836
 30
0.0
 11
24.95750722838601
 21
5.832235731363864
 31
0.0
  0
SPLINE
  5
A1
330
1F
100
AcDbEntity
  8
외형선
  6
Continuous
370
    15
100
AcDbSpline
210
0.0
220
0.0
230
1.0
 70
     8
 71
     3
 72
     8
 73
     4
 74
     0
 42
0.000000001
 43
0.00000001
 40
0.0
 40
0.0
 40
0.0
 40
0.0
 40
1.0
 40
1.0
 40
1.0
 40
1.0
 10
25.98749999999999
 20
5.254432311250063
 30
0.0
 10
25.64079138591465
 20
5.407198538238521
 30
0.0
 10
25.29769368741955
 20
5.552274862423064
 30
0.0
 10
24.95750722838601
 20
5.687904710592261
 30
0.0
  0
LINE
  5
A2
330
1F
100
AcDbEntity
  8
외형선
  6
Continuous
370
    15
100
AcDbLine
 10
25.98749999999999
 20
5.254432311250063
 30
0.0
 11
25.98749999999999
 21
-0.0847284143796841
 31
0.0
  0
SPLINE
  5
A3
330
1F
100
AcDbEntity
  8
외형선
  6
Continuous
370
    15
100
AcDbSpline
210
0.0
220
0.0
230
1.0
 70
     8
 71
     3
 72
     8
 73
     4
 74
     0
 42
0.000000001
 43
0.00000001
 40
0.0
 40
0.0
 40
0.0
 40
0.0
 40
1.0
 40
1.0
 40
1.0
 40
1.0
 10
24.95750219356555
 20
0.5395029551988102
 30
0.0
 10
25.30062795058737
 20
0.3265190595289605
 30
0.0
 10
25.64393753977072
 20
0.1184181925458738
 30
0.0
 10
25.98749999999999
 20
-0.0847284143796836
 30
0.0
  0
LINE
  5
A4
330
1F
100
AcDbEntity
  8
외형선
  6
Continuous
370
    15
100
AcDbLine
 10
24.95750722838601
 20
-5.83223573136386
 30
0.0
 11
24.95750722838601
 21
0.539574157614037
 31
0.0
  0
SPLINE
  5
A5
330
1F
100
AcDbEntity
  8
외형선
  6
Continuous
370
    15
100
AcDbSpline
210
0.0
220
0.0
230
1.0
 70
     8
 71
     3
 72
     8
 73
     4
 74
     0
 42
0.000000001
 43
0.00000001
 40
0.0
 40
0.0
 40
0.0
 40
0.0
 40
1.0
 40
1.0
 40
1.0
 40
1.0
 10
25.98749999999999
 20
-5.254432311250061
 30
0.0
 10
25.64079138591465
 20
-5.407198538238518
 30
0.0
 10
25.29769368741955
 20
-5.552274862423062
 30
0.0
 10
24.95750722838601
 20
-5.687904710592258
 30
0.0
  0
LINE
  5
A6
330
1F
100
AcDbEntity
  8
외형선
  6
Continuous
370
    15
100
AcDbLine
 10
23.02518467149221
 20
6.35
 30
0.0
 11
23.02518467149221
 21
-6.349999999999997
 31
0.0
  0
SPLINE
  5
A9
330
1F
100
AcDbEntity
  8
외형선
  6
Continuous
370
    15
100
AcDbSpline
210
0.0
220
0.0
230
1.0
 70
    24
 71
     3
 72
    15
 73
    11
 74
     0
 42
0.000000001
 43
0.00000001
 40
0.0
 40
0.0
 40
0.0
 40
0.0
 40
0.0243685713323588
 40
0.1764850266371175
 40
0.3330128694509026
 40
0.4851293247557045
 40
0.6416571675694464
 40
0.7937736228742461
 40
0.9503014656879861
 40
1.0
 40
1.0
 40
1.0
 40
1.0
 10
26.98749999999999
 20
-0.7445179328663315
 30
0.0
 10
26.98749999999999
 20
-0.7493432528570949
 30
0.0
 10
26.98749999999999
 20
-0.7842897712839529
 30
0.0
 10
26.98749999999998
 20
-0.9358030896770727
 30
0.0
 10
26.98749999999999
 20
-1.202691380603931
 30
0.0
 10
26.98749999999998
 20
-1.560749235194931
 30
0.0
 10
26.98749999999999
 20
-1.983014828751476
 30
0.0
 10
26.98749999999999
 20
-2.468077258219342
 30
0.0
 10
26.98749999999999
 20
-2.8756330983871
 30
0.0
 10
26.98749999999999
 20
-3.119384769714217
 30
0.0
 10
26.98749999999999
 20
-3.178126531897599
 30
0.0
  0
SPLINE
  5
AA
330
1F
100
AcDbEntity
  8
외형선
  6
Continuous
370
    15
100
AcDbSpline
210
0.0
220
0.0
230
1.0
 70
     8
 71
     3
 72
     8
 73
     4
 74
     0
 42
0.000000001
 43
0.00000001
 40
0.0
 40
0.0
 40
0.0
 40
0.0
 40
1.0
 40
1.0
 40
1.0
 40
1.0
 10
26.98749999999998
 20
-3.17812653189772
 30
0.0
 10
26.30864821235091
 20
-3.033576063165245
 30
0.0
 10
25.63643980836281
 20
-2.86588977274821
 30
0.0
 10
24.95750722838601
 20
-2.677686565328373
 30
0.0
  0
SPLINE
  5
AB
330
1F
100
AcDbEntity
  8
외형선
  6
Continuous
370
    15
100
AcDbSpline
210
0.0
220
0.0
230
1.0
 70
     8
 71
     3
 72
     8
 73
     4
 74
     0
 42
0.000000001
 43
0.00000001
 40
0.0
 40
0.0
 40
0.0
 40
0.0
 40
1.0
 40
1.0
 40
1.0
 40
1.0
 10
26.98749999999999
 20
-0.6607562741602382
 30
0.0
 10
26.65294540885589
 20
-0.4693586684281969
 30
0.0
 10
26.31918557981918
 20
-0.2769195276417041
 30
0.0
 10
25.98749999999999
 20
-0.0847284143796837
 30
0.0
  0
SPLINE
  5
AC
330
1F
100
AcDbEntity
  8
외형선
  6
Continuous
370
    15
100
AcDbSpline
210
0.0
220
0.0
230
1.0
 70
     8
 71
     3
 72
     8
 73
     4
 74
     0
 42
0.000000001
 43
0.00000001
 40
0.0
 40
0.0
 40
0.0
 40
0.0
 40
1.0
 40
1.0
 40
1.0
 40
1.0
 10
26.98749999999999
 20
5.038630053543798
 30
0.0
 10
26.65294540885589
 20
5.119875891571136
 30
0.0
 10
26.31918557981917
 20
5.191943692928914
 30
0.0
 10
25.98749999999999
 20
5.254432311249247
 30
0.0
  0
LINE
  5
AD
330
1F
100
AcDbEntity
  8
외형선
  6
Continuous
370
    15
100
AcDbLine
 10
26.98749999999999
 20
5.038630053543799
 30
0.0
 11
26.98749999999999
 21
-0.6607562741602382
 31
0.0
  0
SPLINE
  5
AE
330
1F
100
AcDbEntity
  8
외형선
  6
Continuous
370
    15
100
AcDbSpline
210
0.0
220
0.0
230
1.0
 70
     8
 71
     3
 72
     8
 73
     4
 74
     0
 42
0.000000001
 43
0.00000001
 40
0.0
 40
0.0
 40
0.0
 40
0.0
 40
1.0
 40
1.0
 40
1.0
 40
1.0
 10
26.98749999999999
 20
-5.038630053543796
 30
0.0
 10
26.65294540885589
 20
-5.119875891571134
 30
0.0
 10
26.31918557981917
 20
-5.191943692928911
 30
0.0
 10
25.98749999999999
 20
-5.254432311249245
 30
0.0
  0
SPLINE
  5
AF
330
1F
100
AcDbEntity
  8
외형선
  6
Continuous
370
    15
100
AcDbSpline
210
0.0
220
0.0
230
1.0
 70
    24
 71
     3
 72
    14
 73
    10
 74
     0
 42
0.000000001
 43
0.00000001
 40
0.0
 40
0.0
 40
0.0
 40
0.0
 40
0.050928640490611
 40
0.2564071709565751
 40
0.4678445927261561
 40
0.6733231231921201
 40
0.884760544961702
 40
0.9423177549944187
 40
1.0
 40
1.0
 40
1.0
 40
1.0
 10
26.98749999999999
 20
-3.178126531897721
 30
0.0
 10
26.98749999999999
 20
-3.19058865057956
 30
0.0
 10
26.98749999999999
 20
-3.253330882937494
 30
0.0
 10
26.98749999999999
 20
-3.464839962629576
 30
0.0
 10
26.98749999999999
 20
-3.80515140357724
 30
0.0
 10
26.98749999999999
 20
-4.236413299513303
 30
0.0
 10
26.98749999999999
 20
-4.612123431883536
 30
0.0
 10
26.98749999999999
 20
-4.887991891467068
 30
0.0
 10
26.98749999999999
 20
-4.98838102540045
 30
0.0
 10
26.98749999999999
 20
-5.038630053543798
 30
0.0
  0
SPLINE
  5
B0
330
1F
100
AcDbEntity
  8
0
  6
Continuous
 62
     1
370
    15
100
AcDbSpline
210
0.0
220
0.0
230
1.0
 70
     8
 71
     3
 72
    34
 73
    30
 74
     0
 42
0.000000001
 43
0.00000001
 40
0.0
 40
0.0
 40
0.0
 40
0.0
 40
0.1250000000000002
 40
0.1250000000000002
 40
0.1875000000000002
 40
0.1875000000000002
 40
0.2500000000000002
 40
0.2500000000000002
 40
0.3125000000000002
 40
0.3125000000000002
 40
0.3750000000000001
 40
0.3750000000000001
 40
0.4375000000000001
 40
0.4375000000000001
 40
0.5000000000000001
 40
0.5000000000000001
 40
0.6250000000000001
 40
0.6250000000000001
 40
0.6875000000000001
 40
0.6875000000000001
 40
0.75
 40
0.75
 40
0.8125
 40
0.8125
 40
0.875
 40
0.875
 40
0.9375
 40
0.9375
 40
1.0
 40
1.0
 40
1.0
 40
1.0
 10
42.06874999999999
 20
-2.323184551714879
 30
0.0
 10
41.4385042088459
 20
-1.993295002210444
 30
0.0
 10
40.81473197220174
 20
-1.64967093033239
 30
0.0
 10
39.86928040602884
 20
-1.119956637374803
 30
0.0
 10
39.5538491222169
 20
-0.9412518500048769
 30
0.0
 10
38.926949159819
 20
-0.5821599096784881
 30
0.0
 10
38.61476118063423
 20
-0.4016401024182988
 30
0.0
 10
37.98517459367253
 20
-0.0388941642011984
 30
0.0
 10
37.66943765937678
 20
0.1430126361694291
 30
0.0
 10
37.04061519559878
 20
0.5052790314083317
 30
0.0
 10
36.72907796796868
 20
0.6853434702339769
 30
0.0
 10
36.10097264274513
 20
1.043672267738554
 30
0.0
 10
35.78531729581002
 20
1.221755674749576
 30
0.0
 10
35.15533603218
 20
1.573190281821391
 30
0.0
 10
34.84220119397068
 20
1.746323918161456
 30
0.0
 10
33.90340628893401
 20
2.256448009818192
 30
0.0
 10
33.26851510964154
 20
2.58580218110966
 30
0.0
 10
32.32977536749162
 20
3.049663460218189
 30
0.0
 10
32.01660219674407
 20
3.199712706614292
 30
0.0
 10
31.38661014918817
 20
3.489662608310704
 30
0.0
 10
31.07095869613917
 20
3.629367760468328
 30
0.0
 10
30.44287954487653
 20
3.896265146111425
 30
0.0
 10
30.13133545934706
 20
4.023364810430613
 30
0.0
 10
29.5024914715766
 20
4.265083018762297
 30
0.0
 10
29.18675300467371
 20
4.379465243325487
 30
0.0
 10
28.55718188431469
 20
4.593615645669989
 30
0.0
 10
28.24501854960915
 20
4.693224984075287
 30
0.0
 10
27.61808641049682
 20
4.877449466659128
 30
0.0
 10
27.30264817386267
 20
4.96209702077119
 30
0.0
 10
26.98749999999999
 20
5.038630053543804
 30
0.0
  0
SPLINE
  5
B1
330
1F
100
AcDbEntity
  8
0
  6
Continuous
 62
     1
370
    15
100
AcDbSpline
210
0.0
220
0.0
230
1.0
 70
     8
 71
     3
 72
    15
 73
    11
 74
     0
 42
0.000000001
 43
0.00000001
 40
0.0
 40
0.0
 40
0.0
 40
0.0
 40
0.1366631475312362
 40
0.2733247267191589
 40
0.3967920852702486
 40
0.520259628548933
 40
0.6437465479362572
 40
0.7672719602452389
 40
0.8908548063846694
 40
1.0
 40
1.0
 40
1.0
 40
1.0
 10
46.13755340136011
 20
0.5822080399137807
 30
0.0
 10
45.44084861995562
 20
0.8502309664222409
 30
0.0
 10
44.04744705251559
 20
1.386273743613877
 30
0.0
 10
42.02454458199429
 20
2.094238577182933
 30
0.0
 10
40.06917752440273
 20
2.692138982920738
 30
0.0
 10
38.18091140523204
 20
3.165405112176641
 30
0.0
 10
36.29233255938083
 20
3.518242790831352
 30
0.0
 10
34.40311513195421
 20
3.732336953863543
 30
0.0
 10
32.58688772320068
 20
3.813312191538265
 30
0.0
 10
31.40043261945047
 20
3.749727803602371
 30
0.0
 10
30.84400687826702
 20
3.719907888737414
 30
0.0
  0
SPLINE
  5
B2
330
1F
100
AcDbEntity
  8
0
  6
Continuous
 62
     1
370
    15
100
AcDbSpline
210
0.0
220
0.0
230
1.0
 70
     8
 71
     3
 72
    32
 73
    28
 74
     0
 42
0.000000001
 43
0.00000001
 40
0.0
 40
0.0
 40
0.0
 40
0.0
 40
0.1249999999999999
 40
0.1249999999999999
 40
0.1874999999999999
 40
0.1874999999999999
 40
0.2499999999999999
 40
0.2499999999999999
 40
0.3749999999999999
 40
0.3749999999999999
 40
0.4374999999999999
 40
0.4374999999999999
 40
0.5
 40
0.5
 40
0.5625
 40
0.5625
 40
0.6250000000000001
 40
0.6250000000000001
 40
0.6875000000000001
 40
0.6875000000000001
 40
0.7500000000000001
 40
0.7500000000000001
 40
0.8125000000000001
 40
0.8125000000000001
 40
0.875
 40
0.875
 40
1.0
 40
1.0
 40
1.0
 40
1.0
 10
42.06874999999999
 20
-2.323184551714882
 30
0.0
 10
42.37749000471579
 20
-2.484788329953822
 30
0.0
 10
42.68136900609029
 20
-2.629426145350687
 30
0.0
 10
43.13561007205585
 20
-2.812963001784545
 30
0.0
 10
43.28670619549948
 20
-2.868622564717488
 30
0.0
 10
43.58995696780969
 20
-2.965818045017288
 30
0.0
 10
43.74282846685479
 20
-3.007421599355506
 30
0.0
 10
44.19528500841952
 20
-3.104104166213222
 30
0.0
 10
44.49106656763887
 20
-3.133253180679822
 30
0.0
 10
44.93567669936402
 20
-3.100018341147333
 30
0.0
 10
45.08121201036134
 20
-3.076000478208692
 30
0.0
 10
45.36692984479448
 20
-2.997414985488246
 30
0.0
 10
45.50883715185863
 20
-2.942165947890693
 30
0.0
 10
45.78130447976952
 20
-2.795156236825778
 30
0.0
 10
45.91105873865968
 20
-2.704469927109653
 30
0.0
 10
46.1567612543682
 20
-2.479444973238086
 30
0.0
 10
46.26717051368083
 20
-2.350088045934266
 30
0.0
 10
46.45974274498664
 20
-2.053565210387167
 30
0.0
 10
46.53709631854987
 20
-1.893388292552359
 30
0.0
 10
46.65154739460957
 20
-1.554742554215137
 30
0.0
 10
46.68657440444869
 20
-1.381952237827586
 30
0.0
 10
46.71578741276591
 20
-1.038383620442266
 30
0.0
 10
46.70982156351263
 20
-0.872360135180682
 30
0.0
 10
46.66549209688189
 20
-0.5510353489219487
 30
0.0
 10
46.6265478287489
 20
-0.3945330170793727
 30
0.0
 10
46.47344623808596
 20
0.0502779899841093
 30
0.0
 10
46.32228906202978
 20
0.3225950459363636
 30
0.0
 10
46.13755340134432
 20
0.5822080399199089
 30
0.0
  0
SPLINE
  5
B3
330
1F
100
AcDbEntity
  8
0
  6
Continuous
 62
     1
370
    15
100
AcDbSpline
210
0.0
220
0.0
230
1.0
 70
     8
 71
     3
 72
    16
 73
    12
 74
     0
 42
0.000000001
 43
0.00000001
 40
0.0
 40
0.0
 40
0.0
 40
0.0
 40
0.1208555674968452
 40
0.2418378224445309
 40
0.3628332052361683
 40
0.4836947582886802
 40
0.6045227313716875
 40
0.723263955858131
 40
0.842144564199284
 40
0.9608941270052962
 40
1.0
 40
1.0
 40
1.0
 40
1.0
 10
26.98749999999945
 20
-0.660756274159928
 30
0.0
 10
27.55019993728906
 20
-0.9815411444386585
 30
0.0
 10
28.67618966488144
 20
-1.623447149334829
 30
0.0
 10
30.36604358504675
 20
-2.530328532638825
 30
0.0
 10
32.0559951656534
 20
-3.360822072324344
 30
0.0
 10
33.74465553634963
 20
-4.088330614142023
 30
0.0
 10
35.42280045856192
 20
-4.685727940781671
 30
0.0
 10
37.09180978757166
 20
-5.141594207649942
 30
0.0
 10
38.75186828324923
 20
-5.430454729159992
 30
0.0
 10
40.04045466436999
 20
-5.563478257436213
 30
0.0
 10
40.77540643162425
 20
-5.543087588183431
 30
0.0
 10
40.95747764331037
 20
-5.538036163010574
 30
0.0
  0
SPLINE
  5
B4
330
1F
100
AcDbEntity
  8
0
  6
Continuous
 62
     1
370
    15
100
AcDbSpline
210
0.0
220
0.0
230
1.0
 70
     8
 71
     3
 72
    11
 73
     7
 74
     0
 42
0.000000001
 43
0.00000001
 40
0.0
 40
0.0
 40
0.0
 40
0.0
 40
0.086378066668768
 40
0.3988580218140239
 40
0.6994949209043401
 40
1.0
 40
1.0
 40
1.0
 40
1.0
 10
33.03575359744894
 20
-3.763546722179276
 30
0.0
 10
32.86159907549148
 20
-3.771577304593742
 30
0.0
 10
32.05742585424673
 20
-3.808659197479016
 30
0.0
 10
30.647082073626
 20
-3.728212372666287
 30
0.0
 10
28.80518257530371
 20
-3.534875662602564
 30
0.0
 10
27.59330561057809
 20
-3.297025523331219
 30
0.0
 10
26.98749999999999
 20
-3.178126531897722
 30
0.0
  0
SPLINE
  5
B5
330
1F
100
AcDbEntity
  8
외형선
  6
Continuous
370
    15
100
AcDbSpline
210
0.0
220
0.0
230
1.0
 70
    24
 71
     3
 72
    14
 73
    10
 74
     0
 42
0.000000001
 43
0.00000001
 40
0.0
 40
0.0
 40
0.0
 40
0.0
 40
0.1500126356511471
 40
0.309722853740547
 40
0.4694330718299465
 40
0.6291432899193461
 40
0.7888535080087442
 40
0.9485637260981423
 40
1.0
 40
1.0
 40
1.0
 40
1.0
 10
26.98749999999999
 20
-0.7712051555766716
 30
0.0
 10
26.98749999999999
 20
-0.8240662004188435
 30
0.0
 10
26.98749999999999
 20
-0.9332054978464152
 30
0.0
 10
26.98749999999999
 20
-1.208063776990731
 30
0.0
 10
26.98749999999999
 20
-1.562430329044308
 30
0.0
 10
26.98749999999999
 20
-1.987316592317
 30
0.0
 10
26.98749999999999
 20
-2.470808164330478
 30
0.0
 10
26.98749999999999
 20
-2.878231201623676
 30
0.0
 10
26.98749999999999
 20
-3.119381250967257
 30
0.0
 10
26.98749999999999
 20
-3.1781265318976
 30
0.0
  0
SPLINE
  5
B6
330
1F
100
AcDbEntity
  8
0
  6
Continuous
 62
     1
370
    15
100
AcDbSpline
210
0.0
220
0.0
230
1.0
 70
     8
 71
     3
 72
    12
 73
     8
 74
     0
 42
0.000000001
 43
0.00000001
 40
0.0
 40
0.0
 40
0.0
 40
0.0
 40
0.2499999999999992
 40
0.2499999999999992
 40
0.4999999999999984
 40
0.4999999999999984
 40
1.0
 40
1.0
 40
1.0
 40
1.0
 10
46.13755340134429
 20
0.5822080399199143
 30
0.0
 10
46.20145687715797
 20
0.6207296788556532
 30
0.0
 10
46.2583828249101
 20
0.6684798219895913
 30
0.0
 10
46.35823166068523
 20
0.7829764563796761
 30
0.0
 10
46.40148187000027
 20
0.8508097137994024
 30
0.0
 10
46.50379811555899
 20
1.073739099127918
 30
0.0
 10
46.53756776521783
 20
1.252801126269933
 30
0.0
 10
46.54067976337441
 20
1.439015348161288
 30
0.0
  0
ARC
  5
B7
330
1F
100
AcDbEntity
  8
0
  6
Continuous
 62
     1
370
    15
100
AcDbCircle
 10
44.96669878475839
 20
-0.9658601970478073
 30
0.0
 40
2.874168142087379
100
AcDbArc
 50
23.84125672760691
 51
56.7954208451842
  0
ARC
  5
B8
330
1F
100
AcDbEntity
  8
0
  6
Continuous
 62
     1
370
    15
100
AcDbCircle
 10
42.62881374700046
 20
0.1037409491212992
 30
0.0
 40
4.967651861489298
100
AcDbArc
 50
1.062888871613337
 51
71.16807011954815
  0
SPLINE
  5
B9
330
1F
100
AcDbEntity
  8
0
  6
Continuous
 62
     1
370
    15
100
AcDbSpline
210
0.0
220
0.0
230
1.0
 70
     8
 71
     3
 72
    10
 73
     6
 74
     0
 42
0.000000001
 43
0.00000001
 40
0.0
 40
0.0
 40
0.0
 40
0.0
 40
0.5
 40
0.5
 40
1.0
 40
1.0
 40
1.0
 40
1.0
 10
44.23233796461948
 20
4.805472023998652
 30
0.0
 10
43.88841261622657
 20
5.01499973250557
 30
0.0
 10
43.53456855800022
 20
5.179735637432291
 30
0.0
 10
42.81325549249998
 20
5.419413304107683
 30
0.0
 10
42.44138344520277
 20
5.494478700664766
 30
0.0
 10
42.06874999999999
 20
5.519225175822648
 30
0.0
  0
SPLINE
  5
BA
330
1F
100
AcDbEntity
  8
0
  6
Continuous
 62
     1
370
    15
100
AcDbSpline
210
0.0
220
0.0
230
1.0
 70
     8
 71
     3
 72
     8
 73
     4
 74
     0
 42
0.000000001
 43
0.00000001
 40
0.0
 40
0.0
 40
0.0
 40
0.0
 40
1.0
 40
1.0
 40
1.0
 40
1.0
 10
43.10512638731971
 20
2.487238184731866
 30
0.0
 10
44.23462120115243
 20
2.173342499757354
 30
0.0
 10
45.38621766364199
 20
1.819633248603187
 30
0.0
 10
46.54067976337442
 20
1.439015348161328
 30
0.0
  0
SPLINE
  5
BB
330
1F
100
AcDbEntity
  8
0
  6
Continuous
 62
     1
370
    15
100
AcDbSpline
210
0.0
220
0.0
230
1.0
 70
     8
 71
     3
 72
    13
 73
     9
 74
     0
 42
0.000000001
 43
0.00000001
 40
0.0
 40
0.0
 40
0.0
 40
0.0
 40
0.0784999335879206
 40
0.265359204895639
 40
0.4489913400344142
 40
0.6328390309328239
 40
0.8164840612007552
 40
1.0
 40
1.0
 40
1.0
 40
1.0
 10
33.03575359744895
 20
3.763546722179282
 30
0.0
 10
33.27210769949177
 20
3.866990745620679
 30
0.0
 10
34.07107317277669
 20
4.216670325678813
 30
0.0
 10
35.42279064671385
 20
4.681876702518208
 30
0.0
 10
37.0918112891157
 20
5.141317088868677
 30
0.0
 10
38.75187204071794
 20
5.435403731593236
 30
0.0
 10
40.41090024269889
 20
5.582235466777739
 30
0.0
 10
41.51626296041632
 20
5.54022368244808
 30
0.0
 10
42.06875000001362
 20
5.519225175821746
 30
0.0
  0
SPLINE
  5
BC
330
1F
100
AcDbEntity
  8
0
  6
Continuous
 62
     1
370
    15
100
AcDbSpline
210
0.0
220
0.0
230
1.0
 70
     8
 71
     3
 72
    18
 73
    14
 74
     0
 42
0.000000001
 43
0.00000001
 40
0.0
 40
0.0
 40
0.0
 40
0.0
 40
0.2500000000000007
 40
0.2500000000000007
 40
0.375000000000001
 40
0.375000000000001
 40
0.5000000000000013
 40
0.5000000000000013
 40
0.6250000000000017
 40
0.6250000000000017
 40
0.750000000000002
 40
0.750000000000002
 40
1.0
 40
1.0
 40
1.0
 40
1.0
 10
44.23233796461949
 20
4.805472023998653
 30
0.0
 10
44.27183204731811
 20
4.572246723497729
 30
0.0
 10
44.28959819978913
 20
4.334863504786896
 30
0.0
 10
44.2637568850465
 20
3.974203248539405
 30
0.0
 10
44.24640174317261
 20
3.85598369383555
 30
0.0
 10
44.19116935249529
 20
3.624241228524931
 30
0.0
 10
44.15259456368489
 20
3.509396355014098
 30
0.0
 10
44.05460531595487
 20
3.293844624188252
 30
0.0
 10
43.99546050155912
 20
3.192851793515796
 30
0.0
 10
43.85653496755569
 20
3.004656421282519
 30
0.0
 10
43.77624751499251
 20
2.917446187540485
 30
0.0
 10
43.51721559518484
 20
2.687382250659268
 30
0.0
 10
43.31487766755514
 20
2.570608374697625
 30
0.0
 10
43.1051263873197
 20
2.487238184731866
 30
0.0
  0
SPLINE
  5
BD
330
1F
100
AcDbEntity
  8
0
  6
Continuous
 62
     1
370
    15
100
AcDbSpline
210
0.0
220
0.0
230
1.0
 70
     8
 71
     3
 72
    11
 73
     7
 74
     0
 42
0.000000001
 43
0.00000001
 40
0.0
 40
0.0
 40
0.0
 40
0.0
 40
0.1275295356304385
 40
0.4160832712137254
 40
0.7075440850022849
 40
1.0
 40
1.0
 40
1.0
 40
1.0
 10
30.84414541145163
 20
-3.719913186805182
 30
0.0
 10
30.68020096946301
 20
-3.791520824037891
 30
0.0
 10
30.14530888048365
 20
-4.02515093800625
 30
0.0
 10
29.23569158408541
 20
-4.366865212224038
 30
0.0
 10
28.11429951487895
 20
-4.745146382529613
 30
0.0
 10
27.36352632336858
 20
-4.940691081860768
 30
0.0
 10
26.98749999999999
 20
-5.038630053543797
 30
0.0
  0
SPLINE
  5
BE
330
1F
100
AcDbEntity
  8
외형선
  6
Continuous
370
    15
100
AcDbSpline
210
0.0
220
0.0
230
1.0
 70
    24
 71
     3
 72
    13
 73
     9
 74
     0
 42
0.000000001
 43
0.00000001
 40
0.0
 40
0.0
 40
0.0
 40
0.0
 40
0.0509302318577211
 40
0.2564151829108508
 40
0.4678592114650594
 40
0.6733441625181884
 40
0.8847881910723968
 40
1.0
 40
1.0
 40
1.0
 40
1.0
 10
26.98749999999999
 20
-3.178126531897722
 30
0.0
 10
26.98749999999999
 20
-3.190588370439087
 30
0.0
 10
26.98749999999999
 20
-3.253329192391682
 30
0.0
 10
26.98749999999999
 20
-3.46487456775768
 30
0.0
 10
26.98749999999999
 20
-3.805024458017265
 30
0.0
 10
26.98749999999999
 20
-4.236876205888693
 30
0.0
 10
26.98749999999999
 20
-4.656333692164124
 30
0.0
 10
26.98749999999999
 20
-4.938950758852502
 30
0.0
 10
26.98749999999999
 20
-5.038630053543797
 30
0.0
  0
LINE
  5
BF
330
1F
100
AcDbEntity
  8
중심선
 48
0.8
100
AcDbLine
 10
-50.625
 20
-0.0000000000000062
 30
0.0
 11
50.625
 21
0.0000000000000062
 31
0.0
  0
LINE
  5
C0
330
1F
100
AcDbEntity
  8
참조1
100
AcDbLine
 10
-18.06286934298443
 20
0.0010749287238892
 30
0.0
 11
-18.06286934298442
 21
-39.99892507127611
 31
0.0
  0
LINE
  5
C1
330
1F
100
AcDbEntity
  8
참조1
100
AcDbLine
 10
29.56213065701557
 20
0.0010749287238892
 30
0.0
 11
29.56213065701557
 21
0.6320484065631995
 31
0.0
  0
LINE
  5
C2
330
1F
100
AcDbEntity
  8
참조1
100
AcDbLine
 10
-18.06286934298442
 20
-39.99892507127611
 30
0.0
 11
-29.25297615729311
 21
-39.9989250712761
 31
0.0
  0
CIRCLE
  5
C3
330
1F
100
AcDbEntity
  8
해칭선
100
AcDbCircle
 10
0.0
 20
0.0
 30
0.0
 40
3.000000000000001
  0
INSERT
  5
C4
330
1F
100
AcDbEntity
  8
0
  6
Continuous
 62
     7
100
AcDbBlockReference
 66
     1
  2
블럭10
 10
-13.9402729321252
 20
-52.04717430164393
 30
0.0
  0
ATTRIB
  5
C5
330
C4
100
AcDbEntity
  8
FORMAT
 62
     2
100
AcDbText
 10
-23.12156822086649
 20
-49.97180738881174
 30
0.0
 40
4.233333333333333
  1
E2112028 [ 2 FLUTE ]
 41
0.75
  7
SLDTEXTSTYLE0
 11
-23.12156822086649
 21
-52.08847405547841
 31
0.0
100
AcDbAttribute
  2
AUTOATTR0
 70
     0
 74
     1
  0
SEQEND
  5
C6
330
C4
100
AcDbEntity
  8
0
  6
Continuous
 62
     7
  0
HATCH
  5
C7
330
1F
100
AcDbEntity
  8
중심선
100
AcDbHatch
 10
0.0
 20
0.0
 30
0.0
210
0.0
220
0.0
230
1.0
  2
SOLID
 70
     1
 71
     0
 91
        1
 92
        0
 93
        4
 72
     1
 10
-8.225363627744372
 20
-35.8
 11
-11.67163887158165
 21
-35.8
 72
     1
 10
-11.67163887158165
 20
-35.8
 11
-13.79986873078568
 21
-38.3363255805726
 72
     1
 10
-13.79986873078568
 20
-38.3363255805726
 11
-10.35356040183524
 21
-38.33628615127011
 72
     1
 10
-10.35356040183524
 20
-38.33628615127011
 11
-8.225363627744372
 21
-35.8
 97
        0
 75
     0
 76
     1
 98
        1
 10
18.06286934298443
 20
-0.001074928723895
  0
HATCH
  5
C8
330
1F
100
AcDbEntity
  8
중심선
100
AcDbHatch
 10
0.0
 20
0.0
 30
0.0
210
0.0
220
0.0
230
1.0
  2
SOLID
 70
     1
 71
     0
 91
        1
 92
        0
 93
        4
 72
     1
 10
-3.212599636708418
 20
-35.8
 11
-6.658874880545703
 21
-35.80000000000003
 72
     1
 10
-6.658874880545703
 20
-35.80000000000003
 11
-11.19001288890309
 21
-41.20000000000002
 72
     1
 10
-11.19001288890309
 20
-41.20000000000002
 11
-7.743737645065806
 21
-41.20000000000002
 72
     1
 10
-7.743737645065806
 20
-41.20000000000002
 11
-3.212599636708418
 21
-35.8
 97
        0
 75
     0
 76
     1
 98
        1
 10
18.06286934298443
 20
-0.001074928723895
  0
HATCH
  5
C9
330
1F
100
AcDbEntity
  8
중심선
100
AcDbHatch
 10
0.0
 20
0.0
 30
0.0
210
0.0
220
0.0
230
1.0
  2
SOLID
 70
     1
 71
     0
 91
        1
 92
        0
 93
        4
 72
     1
 10
1.800164354327478
 20
-35.79999999999998
 11
-1.646110889509639
 21
-35.8
 72
     1
 10
-1.646110889509639
 20
-35.8
 11
-8.69454779139889
 21
-44.20000000000002
 72
     1
 10
-8.69454779139889
 20
-44.20000000000002
 11
-5.248272547561605
 21
-44.20000000000002
 72
     1
 10
-5.248272547561605
 20
-44.20000000000002
 11
1.800164354327478
 21
-35.79999999999998
 97
        0
 75
     0
 76
     1
 98
        1
 10
18.06286934298443
 20
-0.001074928723895
  0
HATCH
  5
CA
330
1F
100
AcDbEntity
  8
중심선
100
AcDbHatch
 10
0.0
 20
0.0
 30
0.0
210
0.0
220
0.0
230
1.0
  2
SOLID
 70
     1
 71
     0
 91
        1
 92
        0
 93
        6
 72
     3
 10
6.600054785339676
 20
-40.00000000005127
 11
3.960054785062283
 21
1.540882976769353E-10
 40
0.3939339440162628
 50
17.09539180608436
 51
320.0019657685078
 73
     0
 72
     1
 10
8.28305444104027
 20
-38.5878940046383
 11
10.58835631474131
 21
-36.65356729459038
 72
     3
 10
6.600054785286829
 20
-40.00000000000015
 11
6.600054785286829
 21
-1.278976924368180E-13
 40
0.636358354079598
 50
39.99873849337411
 51
368.4976242363724
 73
     1
 72
     1
 10
13.02538727718744
 20
-39.03999999993002
 11
5.280122092122752
 21
-39.03999999993002
 72
     1
 10
5.280122092122753
 20
-39.03999999993002
 11
5.280097047676819
 21
-40.95999999992991
 72
     1
 10
5.280097047676819
 20
-40.95999999992991
 11
9.721476817148854
 21
-40.95999999992988
 97
        0
 75
     0
 76
     1
 98
        1
 10
18.06286934298443
 20
-0.001074928723895
  0
DIMENSION
  5
CB
330
1F
100
AcDbEntity
  8
0
  6
Continuous
370
    15
100
AcDbDimension
  2
_D
 10
26.9875
 20
13.03828789224008
 30
0.0
 11
9.029249999999998
 21
13.03828789224008
 31
0.0
 70
   160
  1
<>
 71
     2
 42
20.63749999999999
  3
SLDDIMSTYLE0
100
AcDbAlignedDimension
 13
47.62499999999999
 23
5.556250000000023
 33
0.0
 14
26.9875
 24
5.038630053543795
 34
0.0
 50
0.0000000000000049
100
AcDbRotatedDimension
1001
ACAD
1000
DSTYLE
1002
{
1070
   171
1070
     6
1070
   273
1070
     7
1002
}
  0
DIMENSION
  5
E0
330
1F
100
AcDbEntity
  8
0
  6
Continuous
370
    15
100
AcDbDimension
  2
_D_1
 10
-47.625
 20
29.28797898817498
 30
0.0
 11
0.4168735043745606
 21
29.28797898817498
 31
0.0
 70
   160
  1
<>
 71
     2
 42
95.24999999999999
  3
SLDDIMSTYLE0
100
AcDbAlignedDimension
 13
47.62499999999999
 23
5.556250000000023
 33
0.0
 14
-47.625
 24
6.349999999999993
 34
0.0
 50
0.0000000000000043
100
AcDbRotatedDimension
1001
ACAD
1000
DSTYLE
1002
{
1070
   171
1070
     6
1070
   273
1070
     7
1002
}
  0
DIMENSION
  5
F3
330
1F
100
AcDbEntity
  8
0
  6
Continuous
370
    15
100
AcDbDimension
  2
_D_2
 10
-60.05499999999997
 20
-6.350000000000135
 30
0.0
 11
-60.05499999999999
 21
-0.0000000000000027
 31
0.0
 70
   160
  1
%%c<>
 71
     2
 42
12.7
 52
-270.0
  3
SLDDIMSTYLE0
100
AcDbAlignedDimension
 13
-23.02518467149217
 23
6.35
 33
0.0
 14
-23.02518467149217
 24
-6.349999999999996
 34
0.0
 50
90.0000000000002
100
AcDbRotatedDimension
1001
ACAD
1000
DSTYLE
1002
{
1070
   171
1070
     6
1070
   273
1070
     7
1002
}
  0
DIMENSION
  5
108
330
1F
100
AcDbEntity
  8
0
  6
Continuous
370
    15
100
AcDbDimension
  2
_D_3
 10
60.62411670323399
 20
-5.556249999999931
 30
0.0
 11
60.6241167032339
 21
22.42075000000007
 31
0.0
 70
   160
  1
%%c<>
 71
     2
 42
11.1125
 52
-270.0
  3
SLDDIMSTYLE0
100
AcDbAlignedDimension
 13
47.625
 23
5.556250000000023
 33
0.0
 14
47.62499999999999
 24
-5.55624999999998
 34
0.0
 50
90.0000000000002
100
AcDbRotatedDimension
1001
ACAD
1000
DSTYLE
1002
{
1070
   171
1070
     6
1070
   273
1070
     7
1002
}
  0
LINE
  5
11B
330
1F
100
AcDbEntity
  8
참조1
100
AcDbLine
 10
68.71936447236115
 20
7.441074928723896
 30
0.0
 11
68.71936447236115
 21
-7.438925071276109
 31
0.0
  0
LINE
  5
11C
330
1F
100
AcDbEntity
  8
참조1
100
AcDbLine
 10
81.41936447236115
 20
5.441074928723896
 30
0.0
 11
68.71936447236115
 21
5.441074928723896
 31
0.0
  0
SOLID
  5
11D
330
1F
100
AcDbEntity
  8
참조1
100
AcDbTrace
 10
68.71936447236115
 20
5.441074928723896
 30
0.0
 11
75.06936447236114
 21
4.425074928723896
 31
0.0
 12
75.06936447236114
 22
6.457074928723896
 32
0.0
 13
75.06936447236114
 23
6.457074928723896
 33
0.0
  0
LINE
  5
11E
330
1F
100
AcDbEntity
  8
참조1
100
AcDbLine
 10
81.41936447236115
 20
-5.438925071276109
 30
0.0
 11
68.71936447236115
 21
-5.438925071276109
 31
0.0
  0
SOLID
  5
11F
330
1F
100
AcDbEntity
  8
참조1
100
AcDbTrace
 10
68.71936447236115
 20
-5.438925071276109
 30
0.0
 11
75.06936447236114
 21
-6.454925071276109
 31
0.0
 12
75.06936447236114
 22
-4.422925071276109
 32
0.0
 13
75.06936447236114
 23
-4.422925071276109
 33
0.0
  0
MTEXT
  5
120
330
1F
100
AcDbEntity
  8
참조1
100
AcDbMText
 10
78.11685456483143
 20
10.98929157337383
 30
0.0
 40
3.5
 41
0.0
 71
     1
 72
     1
  1
A
  7
SLDTEXTSTYLE0
 73
     1
 44
1.0
  0
MTEXT
  5
121
330
1F
100
AcDbEntity
  8
참조1
100
AcDbMText
 10
78.11685456483143
 20
0.1092915733738251
 30
0.0
 40
3.5
 41
0.0
 71
     1
 72
     1
  1
A
  7
SLDTEXTSTYLE0
 73
     1
 44
1.0
  0
INSERT
  5
128
330
1F
100
AcDbEntity
  8
해칭선
100
AcDbBlockReference
  2
SW_DOWELSYMBOL_0
 10
0.0
 20
0.0
 30
0.0
  0
LINE
  5
382
330
1F
100
AcDbEntity
  8
외형선
  6
Continuous
370
    15
100
AcDbLine
 10
-23.02518467149217
 20
6.35
 30
0.0
 11
-24.95750722838598
 21
5.832235731363864
 31
0.0
  0
LINE
  5
383
330
1F
100
AcDbEntity
  8
외형선
  6
Continuous
370
    15
100
AcDbLine
 10
-24.95750722838598
 20
-5.832235731363861
 30
0.0
 11
-23.02518467149217
 21
-6.349999999999996
 31
0.0
  0
LINE
  5
386
330
1F
100
AcDbEntity
  8
0
  6
Continuous
 62
     1
370
    15
100
AcDbLine
 10
-40.95747764331036
 20
5.556250000000004
 30
0.0
 11
-42.06874999999995
 21
5.556250000000004
 31
0.0
  0
ARC
  5
387
330
1F
100
AcDbEntity
  8
0
  6
Continuous
 62
     1
370
    15
100
AcDbCircle
 10
-42.06874999999995
 20
0.0000000000000037
 30
0.0
 40
5.55625
100
AcDbArc
 50
90.0000000000009
 51
180.0
  0
ARC
  5
388
330
1F
100
AcDbEntity
  8
0
  6
Continuous
 62
     1
370
    15
100
AcDbCircle
 10
-42.06874999999995
 20
0.0000000000000037
 30
0.0
 40
5.55625
100
AcDbArc
 50
180.0
 51
270.0
  0
LINE
  5
389
330
1F
100
AcDbEntity
  8
0
  6
Continuous
 62
     1
370
    15
100
AcDbLine
 10
-42.06874999999995
 20
-5.556249999999993
 30
0.0
 11
-40.95747764331036
 21
-5.556249999999993
 31
0.0
  0
LINE
  5
38A
330
1F
100
AcDbEntity
  8
외형선
  6
Continuous
370
    15
100
AcDbLine
 10
-24.95750722838598
 20
-5.687890967253834
 30
0.0
 11
-24.95750722838598
 21
-5.832235731363861
 31
0.0
  0
SPLINE
  5
38B
330
1F
100
AcDbEntity
  8
외형선
  6
Continuous
370
    15
100
AcDbSpline
210
0.0
220
0.0
230
1.0
 70
     8
 71
     3
 72
     8
 73
     4
 74
     0
 42
0.000000001
 43
0.00000001
 40
0.0
 40
0.0
 40
0.0
 40
0.0
 40
1.0
 40
1.0
 40
1.0
 40
1.0
 10
-25.98749999999994
 20
-5.254432311250062
 30
0.0
 10
-25.64079138591462
 20
-5.407198538238516
 30
0.0
 10
-25.29769368741954
 20
-5.55227486242306
 30
0.0
 10
-24.95750722838598
 20
-5.687904710592258
 30
0.0
  0
LINE
  5
38C
330
1F
100
AcDbEntity
  8
외형선
  6
Continuous
370
    15
100
AcDbLine
 10
-25.98749999999994
 20
-5.254432311250062
 30
0.0
 11
-25.98749999999994
 21
0.0847284143796882
 31
0.0
  0
SPLINE
  5
38D
330
1F
100
AcDbEntity
  8
외형선
  6
Continuous
370
    15
100
AcDbSpline
210
0.0
220
0.0
230
1.0
 70
     8
 71
     3
 72
     8
 73
     4
 74
     0
 42
0.000000001
 43
0.00000001
 40
0.0
 40
0.0
 40
0.0
 40
0.0
 40
1.0
 40
1.0
 40
1.0
 40
1.0
 10
-24.9575021935655
 20
-0.5395029551988059
 30
0.0
 10
-25.30062795058733
 20
-0.326519059528957
 30
0.0
 10
-25.6439375397707
 20
-0.1184181925458708
 30
0.0
 10
-25.98749999999994
 20
0.0847284143796882
 30
0.0
  0
LINE
  5
38E
330
1F
100
AcDbEntity
  8
외형선
  6
Continuous
370
    15
100
AcDbLine
 10
-24.95750722838598
 20
5.832235731363864
 30
0.0
 11
-24.95750722838598
 21
-0.5395741576140337
 31
0.0
  0
SPLINE
  5
38F
330
1F
100
AcDbEntity
  8
외형선
  6
Continuous
370
    15
100
AcDbSpline
210
0.0
220
0.0
230
1.0
 70
     8
 71
     3
 72
     8
 73
     4
 74
     0
 42
0.000000001
 43
0.00000001
 40
0.0
 40
0.0
 40
0.0
 40
0.0
 40
1.0
 40
1.0
 40
1.0
 40
1.0
 10
-25.98749999999994
 20
5.254432311250065
 30
0.0
 10
-25.64079138591462
 20
5.40719853823852
 30
0.0
 10
-25.29769368741954
 20
5.552274862423063
 30
0.0
 10
-24.95750722838598
 20
5.687904710592262
 30
0.0
  0
LINE
  5
390
330
1F
100
AcDbEntity
  8
외형선
  6
Continuous
370
    15
100
AcDbLine
 10
-23.02518467149217
 20
-6.349999999999996
 30
0.0
 11
-23.02518467149217
 21
6.35
 31
0.0
  0
SPLINE
  5
391
330
1F
100
AcDbEntity
  8
외형선
  6
Continuous
370
    15
100
AcDbSpline
210
0.0
220
0.0
230
1.0
 70
    24
 71
     3
 72
    15
 73
    11
 74
     0
 42
0.000000001
 43
0.00000001
 40
0.0
 40
0.0
 40
0.0
 40
0.0
 40
0.0243685713323588
 40
0.1764850266371175
 40
0.3330128694509026
 40
0.4851293247557045
 40
0.6416571675694464
 40
0.7937736228742461
 40
0.9503014656879861
 40
1.0
 40
1.0
 40
1.0
 40
1.0
 10
-26.98749999999994
 20
0.7445179328663355
 30
0.0
 10
-26.98749999999994
 20
0.7493432528570986
 30
0.0
 10
-26.98749999999994
 20
0.784289771283957
 30
0.0
 10
-26.98749999999994
 20
0.9358030896770765
 30
0.0
 10
-26.98749999999994
 20
1.202691380603936
 30
0.0
 10
-26.98749999999994
 20
1.560749235194935
 30
0.0
 10
-26.98749999999994
 20
1.983014828751479
 30
0.0
 10
-26.98749999999994
 20
2.468077258219347
 30
0.0
 10
-26.98749999999994
 20
2.875633098387103
 30
0.0
 10
-26.98749999999994
 20
3.119384769714218
 30
0.0
 10
-26.98749999999994
 20
3.178126531897602
 30
0.0
  0
SPLINE
  5
392
330
1F
100
AcDbEntity
  8
외형선
  6
Continuous
370
    15
100
AcDbSpline
210
0.0
220
0.0
230
1.0
 70
     8
 71
     3
 72
     8
 73
     4
 74
     0
 42
0.000000001
 43
0.00000001
 40
0.0
 40
0.0
 40
0.0
 40
0.0
 40
1.0
 40
1.0
 40
1.0
 40
1.0
 10
-26.98749999999994
 20
3.178126531897723
 30
0.0
 10
-26.30864821235089
 20
3.033576063165251
 30
0.0
 10
-25.63643980836279
 20
2.865889772748213
 30
0.0
 10
-24.95750722838598
 20
2.677686565328374
 30
0.0
  0
SPLINE
  5
393
330
1F
100
AcDbEntity
  8
외형선
  6
Continuous
370
    15
100
AcDbSpline
210
0.0
220
0.0
230
1.0
 70
     8
 71
     3
 72
     8
 73
     4
 74
     0
 42
0.000000001
 43
0.00000001
 40
0.0
 40
0.0
 40
0.0
 40
0.0
 40
1.0
 40
1.0
 40
1.0
 40
1.0
 10
-26.98749999999994
 20
0.6607562741602423
 30
0.0
 10
-26.65294540885587
 20
0.4693586684282015
 30
0.0
 10
-26.31918557981915
 20
0.2769195276417077
 30
0.0
 10
-25.98749999999994
 20
0.0847284143796882
 30
0.0
  0
SPLINE
  5
394
330
1F
100
AcDbEntity
  8
외형선
  6
Continuous
370
    15
100
AcDbSpline
210
0.0
220
0.0
230
1.0
 70
     8
 71
     3
 72
     8
 73
     4
 74
     0
 42
0.000000001
 43
0.00000001
 40
0.0
 40
0.0
 40
0.0
 40
0.0
 40
1.0
 40
1.0
 40
1.0
 40
1.0
 10
-26.98749999999994
 20
-5.038630053543796
 30
0.0
 10
-26.65294540885587
 20
-5.119875891571132
 30
0.0
 10
-26.31918557981915
 20
-5.191943692928911
 30
0.0
 10
-25.98749999999994
 20
-5.254432311249245
 30
0.0
  0
LINE
  5
395
330
1F
100
AcDbEntity
  8
외형선
  6
Continuous
370
    15
100
AcDbLine
 10
-26.98749999999994
 20
-5.038630053543796
 30
0.0
 11
-26.98749999999994
 21
0.6607562741602423
 31
0.0
  0
SPLINE
  5
396
330
1F
100
AcDbEntity
  8
외형선
  6
Continuous
370
    15
100
AcDbSpline
210
0.0
220
0.0
230
1.0
 70
     8
 71
     3
 72
     8
 73
     4
 74
     0
 42
0.000000001
 43
0.00000001
 40
0.0
 40
0.0
 40
0.0
 40
0.0
 40
1.0
 40
1.0
 40
1.0
 40
1.0
 10
-26.98749999999994
 20
5.0386300535438
 30
0.0
 10
-26.65294540885587
 20
5.119875891571136
 30
0.0
 10
-26.31918557981915
 20
5.191943692928914
 30
0.0
 10
-25.98749999999994
 20
5.254432311249248
 30
0.0
  0
SPLINE
  5
397
330
1F
100
AcDbEntity
  8
외형선
  6
Continuous
370
    15
100
AcDbSpline
210
0.0
220
0.0
230
1.0
 70
    24
 71
     3
 72
    14
 73
    10
 74
     0
 42
0.000000001
 43
0.00000001
 40
0.0
 40
0.0
 40
0.0
 40
0.0
 40
0.050928640490611
 40
0.2564071709565751
 40
0.4678445927261561
 40
0.6733231231921201
 40
0.884760544961702
 40
0.9423177549944187
 40
1.0
 40
1.0
 40
1.0
 40
1.0
 10
-26.98749999999994
 20
3.178126531897727
 30
0.0
 10
-26.98749999999994
 20
3.190588650579565
 30
0.0
 10
-26.98749999999994
 20
3.253330882937499
 30
0.0
 10
-26.98749999999994
 20
3.464839962629581
 30
0.0
 10
-26.98749999999994
 20
3.805151403577243
 30
0.0
 10
-26.98749999999994
 20
4.236413299513307
 30
0.0
 10
-26.98749999999994
 20
4.612123431883541
 30
0.0
 10
-26.98749999999994
 20
4.887991891467072
 30
0.0
 10
-26.98749999999994
 20
4.988381025400452
 30
0.0
 10
-26.98749999999994
 20
5.0386300535438
 30
0.0
  0
SPLINE
  5
398
330
1F
100
AcDbEntity
  8
0
  6
Continuous
 62
     1
370
    15
100
AcDbSpline
210
0.0
220
0.0
230
1.0
 70
     8
 71
     3
 72
    34
 73
    30
 74
     0
 42
0.000000001
 43
0.00000001
 40
0.0
 40
0.0
 40
0.0
 40
0.0
 40
0.1250000000000002
 40
0.1250000000000002
 40
0.1875000000000002
 40
0.1875000000000002
 40
0.2500000000000002
 40
0.2500000000000002
 40
0.3125000000000002
 40
0.3125000000000002
 40
0.3750000000000001
 40
0.3750000000000001
 40
0.4375000000000001
 40
0.4375000000000001
 40
0.5000000000000001
 40
0.5000000000000001
 40
0.6250000000000001
 40
0.6250000000000001
 40
0.6875000000000001
 40
0.6875000000000001
 40
0.75
 40
0.75
 40
0.8125
 40
0.8125
 40
0.875
 40
0.875
 40
0.9375
 40
0.9375
 40
1.0
 40
1.0
 40
1.0
 40
1.0
 10
-42.06874999999995
 20
2.323184551714883
 30
0.0
 10
-41.43850420884586
 20
1.993295002210449
 30
0.0
 10
-40.81473197220173
 20
1.649670930332395
 30
0.0
 10
-39.86928040602884
 20
1.119956637374809
 30
0.0
 10
-39.55384912221687
 20
0.941251850004882
 30
0.0
 10
-38.92694915981899
 20
0.5821599096784934
 30
0.0
 10
-38.6147611806342
 20
0.4016401024183037
 30
0.0
 10
-37.98517459367251
 20
0.0388941642012048
 30
0.0
 10
-37.66943765937673
 20
-0.1430126361694234
 30
0.0
 10
-37.04061519559876
 20
-0.5052790314083263
 30
0.0
 10
-36.72907796796865
 20
-0.6853434702339721
 30
0.0
 10
-36.10097264274511
 20
-1.043672267738548
 30
0.0
 10
-35.78531729580997
 20
-1.22175567474957
 30
0.0
 10
-35.15533603217999
 20
-1.573190281821386
 30
0.0
 10
-34.84220119397064
 20
-1.746323918161451
 30
0.0
 10
-33.90340628893397
 20
-2.256448009818188
 30
0.0
 10
-33.26851510964151
 20
-2.585802181109655
 30
0.0
 10
-32.32977536749159
 20
-3.049663460218186
 30
0.0
 10
-32.01660219674405
 20
-3.199712706614291
 30
0.0
 10
-31.38661014918812
 20
-3.489662608310701
 30
0.0
 10
-31.07095869613913
 20
-3.629367760468325
 30
0.0
 10
-30.4428795448765
 20
-3.896265146111423
 30
0.0
 10
-30.13133545934703
 20
-4.023364810430609
 30
0.0
 10
-29.50249147157659
 20
-4.265083018762295
 30
0.0
 10
-29.18675300467366
 20
-4.379465243325482
 30
0.0
 10
-28.55718188431466
 20
-4.593615645669987
 30
0.0
 10
-28.24501854960913
 20
-4.693224984075284
 30
0.0
 10
-27.61808641049679
 20
-4.877449466659124
 30
0.0
 10
-27.30264817386266
 20
-4.962097020771187
 30
0.0
 10
-26.98749999999994
 20
-5.0386300535438
 30
0.0
  0
SPLINE
  5
399
330
1F
100
AcDbEntity
  8
0
  6
Continuous
 62
     1
370
    15
100
AcDbSpline
210
0.0
220
0.0
230
1.0
 70
     8
 71
     3
 72
    15
 73
    11
 74
     0
 42
0.000000001
 43
0.00000001
 40
0.0
 40
0.0
 40
0.0
 40
0.0
 40
0.1366631475312362
 40
0.2733247267191589
 40
0.3967920852702486
 40
0.520259628548933
 40
0.6437465479362572
 40
0.7672719602452389
 40
0.8908548063846694
 40
1.0
 40
1.0
 40
1.0
 40
1.0
 10
-46.13755340136008
 20
-0.5822080399137749
 30
0.0
 10
-45.44084861995559
 20
-0.8502309664222362
 30
0.0
 10
-44.04744705251555
 20
-1.386273743613872
 30
0.0
 10
-42.02454458199428
 20
-2.094238577182926
 30
0.0
 10
-40.06917752440272
 20
-2.692138982920733
 30
0.0
 10
-38.18091140523201
 20
-3.165405112176638
 30
0.0
 10
-36.29233255938082
 20
-3.51824279083135
 30
0.0
 10
-34.40311513195418
 20
-3.732336953863539
 30
0.0
 10
-32.58688772320066
 20
-3.813312191538261
 30
0.0
 10
-31.40043261945043
 20
-3.749727803602367
 30
0.0
 10
-30.844006878267
 20
-3.719907888737408
 30
0.0
  0
SPLINE
  5
39A
330
1F
100
AcDbEntity
  8
0
  6
Continuous
 62
     1
370
    15
100
AcDbSpline
210
0.0
220
0.0
230
1.0
 70
     8
 71
     3
 72
    32
 73
    28
 74
     0
 42
0.000000001
 43
0.00000001
 40
0.0
 40
0.0
 40
0.0
 40
0.0
 40
0.1249999999999999
 40
0.1249999999999999
 40
0.1874999999999999
 40
0.1874999999999999
 40
0.2499999999999999
 40
0.2499999999999999
 40
0.3749999999999999
 40
0.3749999999999999
 40
0.4374999999999999
 40
0.4374999999999999
 40
0.5
 40
0.5
 40
0.5625
 40
0.5625
 40
0.6250000000000001
 40
0.6250000000000001
 40
0.6875000000000001
 40
0.6875000000000001
 40
0.7500000000000001
 40
0.7500000000000001
 40
0.8125000000000001
 40
0.8125000000000001
 40
0.875
 40
0.875
 40
1.0
 40
1.0
 40
1.0
 40
1.0
 10
-42.06874999999995
 20
2.32318455171489
 30
0.0
 10
-42.37749000471574
 20
2.484788329953828
 30
0.0
 10
-42.68136900609026
 20
2.629426145350694
 30
0.0
 10
-43.13561007205583
 20
2.812963001784548
 30
0.0
 10
-43.28670619549943
 20
2.868622564717493
 30
0.0
 10
-43.58995696780964
 20
2.965818045017295
 30
0.0
 10
-43.74282846685476
 20
3.007421599355512
 30
0.0
 10
-44.19528500841948
 20
3.104104166213228
 30
0.0
 10
-44.49106656763887
 20
3.133253180679825
 30
0.0
 10
-44.93567669936401
 20
3.100018341147338
 30
0.0
 10
-45.08121201036131
 20
3.0760004782087
 30
0.0
 10
-45.36692984479446
 20
2.99741498548825
 30
0.0
 10
-45.5088371518586
 20
2.942165947890699
 30
0.0
 10
-45.7813044797695
 20
2.795156236825784
 30
0.0
 10
-45.91105873865966
 20
2.704469927109658
 30
0.0
 10
-46.15676125436816
 20
2.47944497323809
 30
0.0
 10
-46.2671705136808
 20
2.350088045934273
 30
0.0
 10
-46.4597427449866
 20
2.053565210387172
 30
0.0
 10
-46.53709631854984
 20
1.893388292552365
 30
0.0
 10
-46.65154739460955
 20
1.554742554215143
 30
0.0
 10
-46.68657440444865
 20
1.381952237827591
 30
0.0
 10
-46.71578741276589
 20
1.038383620442272
 30
0.0
 10
-46.70982156351259
 20
0.8723601351806868
 30
0.0
 10
-46.66549209688186
 20
0.5510353489219534
 30
0.0
 10
-46.62654782874885
 20
0.3945330170793789
 30
0.0
 10
-46.47344623808594
 20
-0.0502779899841029
 30
0.0
 10
-46.32228906202975
 20
-0.3225950459363583
 30
0.0
 10
-46.13755340134428
 20
-0.5822080399199033
 30
0.0
  0
SPLINE
  5
39B
330
1F
100
AcDbEntity
  8
0
  6
Continuous
 62
     1
370
    15
100
AcDbSpline
210
0.0
220
0.0
230
1.0
 70
     8
 71
     3
 72
    16
 73
    12
 74
     0
 42
0.000000001
 43
0.00000001
 40
0.0
 40
0.0
 40
0.0
 40
0.0
 40
0.1208555674968452
 40
0.2418378224445309
 40
0.3628332052361683
 40
0.4836947582886802
 40
0.6045227313716875
 40
0.723263955858131
 40
0.842144564199284
 40
0.9608941270052962
 40
1.0
 40
1.0
 40
1.0
 40
1.0
 10
-26.98749999999943
 20
0.6607562741599314
 30
0.0
 10
-27.55019993728904
 20
0.981541144438662
 30
0.0
 10
-28.67618966488139
 20
1.623447149334833
 30
0.0
 10
-30.36604358504671
 20
2.530328532638828
 30
0.0
 10
-32.05599516565336
 20
3.360822072324348
 30
0.0
 10
-33.74465553634961
 20
4.088330614142029
 30
0.0
 10
-35.42280045856187
 20
4.685727940781677
 30
0.0
 10
-37.09180978757165
 20
5.141594207649947
 30
0.0
 10
-38.75186828324921
 20
5.430454729159999
 30
0.0
 10
-40.04045466436996
 20
5.563478257436218
 30
0.0
 10
-40.77540643162421
 20
5.543087588183434
 30
0.0
 10
-40.95747764331036
 20
5.538036163010579
 30
0.0
  0
SPLINE
  5
39C
330
1F
100
AcDbEntity
  8
0
  6
Continuous
 62
     1
370
    15
100
AcDbSpline
210
0.0
220
0.0
230
1.0
 70
     8
 71
     3
 72
    11
 73
     7
 74
     0
 42
0.000000001
 43
0.00000001
 40
0.0
 40
0.0
 40
0.0
 40
0.0
 40
0.086378066668768
 40
0.3988580218140239
 40
0.6994949209043401
 40
1.0
 40
1.0
 40
1.0
 40
1.0
 10
-33.03575359744893
 20
3.76354672217928
 30
0.0
 10
-32.86159907549147
 20
3.77157730459375
 30
0.0
 10
-32.05742585424672
 20
3.808659197479018
 30
0.0
 10
-30.64708207362598
 20
3.72821237266629
 30
0.0
 10
-28.8051825753037
 20
3.534875662602568
 30
0.0
 10
-27.59330561057807
 20
3.297025523331223
 30
0.0
 10
-26.98749999999997
 20
3.178126531897727
 30
0.0
  0
SPLINE
  5
39D
330
1F
100
AcDbEntity
  8
외형선
  6
Continuous
370
    15
100
AcDbSpline
210
0.0
220
0.0
230
1.0
 70
    24
 71
     3
 72
    14
 73
    10
 74
     0
 42
0.000000001
 43
0.00000001
 40
0.0
 40
0.0
 40
0.0
 40
0.0
 40
0.1500126356511471
 40
0.309722853740547
 40
0.4694330718299465
 40
0.6291432899193461
 40
0.7888535080087442
 40
0.9485637260981423
 40
1.0
 40
1.0
 40
1.0
 40
1.0
 10
-26.98749999999994
 20
0.7712051555766753
 30
0.0
 10
-26.98749999999994
 20
0.824066200418848
 30
0.0
 10
-26.98749999999994
 20
0.9332054978464194
 30
0.0
 10
-26.98749999999994
 20
1.208063776990734
 30
0.0
 10
-26.98749999999994
 20
1.562430329044311
 30
0.0
 10
-26.98749999999997
 20
1.987316592317004
 30
0.0
 10
-26.98749999999997
 20
2.47080816433048
 30
0.0
 10
-26.98749999999997
 20
2.878231201623679
 30
0.0
 10
-26.98749999999997
 20
3.11938125096726
 30
0.0
 10
-26.98749999999997
 20
3.178126531897606
 30
0.0
  0
SPLINE
  5
39E
330
1F
100
AcDbEntity
  8
0
  6
Continuous
 62
     1
370
    15
100
AcDbSpline
210
0.0
220
0.0
230
1.0
 70
     8
 71
     3
 72
    12
 73
     8
 74
     0
 42
0.000000001
 43
0.00000001
 40
0.0
 40
0.0
 40
0.0
 40
0.0
 40
0.2499999999999992
 40
0.2499999999999992
 40
0.4999999999999984
 40
0.4999999999999984
 40
1.0
 40
1.0
 40
1.0
 40
1.0
 10
-46.13755340134428
 20
-0.5822080399199087
 30
0.0
 10
-46.20145687715795
 20
-0.6207296788556479
 30
0.0
 10
-46.25838282491007
 20
-0.6684798219895852
 30
0.0
 10
-46.35823166068518
 20
-0.7829764563796714
 30
0.0
 10
-46.40148187000027
 20
-0.8508097137993963
 30
0.0
 10
-46.50379811555898
 20
-1.073739099127913
 30
0.0
 10
-46.53756776521782
 20
-1.252801126269927
 30
0.0
 10
-46.54067976337437
 20
-1.439015348161282
 30
0.0
  0
ARC
  5
39F
330
1F
100
AcDbEntity
  8
0
  6
Continuous
 62
     1
370
    15
100
AcDbCircle
 10
-44.96669878475835
 20
0.9658601970478121
 30
0.0
 40
2.874168142087379
100
AcDbArc
 50
203.8412567276066
 51
236.7954208451844
  0
ARC
  5
3A0
330
1F
100
AcDbEntity
  8
0
  6
Continuous
 62
     1
370
    15
100
AcDbCircle
 10
-42.62881374700042
 20
-0.1037409491212936
 30
0.0
 40
4.967651861489298
100
AcDbArc
 50
181.0628888716133
 51
251.1680701195479
  0
SPLINE
  5
3A1
330
1F
100
AcDbEntity
  8
0
  6
Continuous
 62
     1
370
    15
100
AcDbSpline
210
0.0
220
0.0
230
1.0
 70
     8
 71
     3
 72
    10
 73
     6
 74
     0
 42
0.000000001
 43
0.00000001
 40
0.0
 40
0.0
 40
0.0
 40
0.0
 40
0.5
 40
0.5
 40
1.0
 40
1.0
 40
1.0
 40
1.0
 10
-44.23233796461945
 20
-4.805472023998645
 30
0.0
 10
-43.88841261622655
 20
-5.014999732505563
 30
0.0
 10
-43.5345685580002
 20
-5.179735637432282
 30
0.0
 10
-42.81325549249995
 20
-5.419413304107676
 30
0.0
 10
-42.44138344520273
 20
-5.494478700664759
 30
0.0
 10
-42.06874999999995
 20
-5.519225175822642
 30
0.0
  0
SPLINE
  5
3A2
330
1F
100
AcDbEntity
  8
0
  6
Continuous
 62
     1
370
    15
100
AcDbSpline
210
0.0
220
0.0
230
1.0
 70
     8
 71
     3
 72
     8
 73
     4
 74
     0
 42
0.000000001
 43
0.00000001
 40
0.0
 40
0.0
 40
0.0
 40
0.0
 40
1.0
 40
1.0
 40
1.0
 40
1.0
 10
-43.10512638731969
 20
-2.48723818473186
 30
0.0
 10
-44.23462120115242
 20
-2.173342499757348
 30
0.0
 10
-45.38621766364194
 20
-1.819633248603182
 30
0.0
 10
-46.54067976337437
 20
-1.439015348161323
 30
0.0
  0
SPLINE
  5
3A3
330
1F
100
AcDbEntity
  8
0
  6
Continuous
 62
     1
370
    15
100
AcDbSpline
210
0.0
220
0.0
230
1.0
 70
     8
 71
     3
 72
    13
 73
     9
 74
     0
 42
0.000000001
 43
0.00000001
 40
0.0
 40
0.0
 40
0.0
 40
0.0
 40
0.0784999335879206
 40
0.265359204895639
 40
0.4489913400344142
 40
0.6328390309328239
 40
0.8164840612007552
 40
1.0
 40
1.0
 40
1.0
 40
1.0
 10
-33.03575359744893
 20
-3.763546722179276
 30
0.0
 10
-33.27210769949174
 20
-3.866990745620674
 30
0.0
 10
-34.07107317277665
 20
-4.216670325678811
 30
0.0
 10
-35.42279064671384
 20
-4.681876702518204
 30
0.0
 10
-37.09181128911568
 20
-5.141317088868673
 30
0.0
 10
-38.75187204071791
 20
-5.435403731593231
 30
0.0
 10
-40.41090024269884
 20
-5.582235466777734
 30
0.0
 10
-41.51626296041631
 20
-5.540223682448074
 30
0.0
 10
-42.06875000001359
 20
-5.51922517582174
 30
0.0
  0
SPLINE
  5
3A4
330
1F
100
AcDbEntity
  8
0
  6
Continuous
 62
     1
370
    15
100
AcDbSpline
210
0.0
220
0.0
230
1.0
 70
     8
 71
     3
 72
    18
 73
    14
 74
     0
 42
0.000000001
 43
0.00000001
 40
0.0
 40
0.0
 40
0.0
 40
0.0
 40
0.2500000000000007
 40
0.2500000000000007
 40
0.375000000000001
 40
0.375000000000001
 40
0.5000000000000013
 40
0.5000000000000013
 40
0.6250000000000017
 40
0.6250000000000017
 40
0.750000000000002
 40
0.750000000000002
 40
1.0
 40
1.0
 40
1.0
 40
1.0
 10
-44.23233796461948
 20
-4.805472023998645
 30
0.0
 10
-44.27183204731809
 20
-4.572246723497722
 30
0.0
 10
-44.2895981997891
 20
-4.33486350478689
 30
0.0
 10
-44.26375688504645
 20
-3.974203248539398
 30
0.0
 10
-44.2464017431726
 20
-3.855983693835542
 30
0.0
 10
-44.19116935249527
 20
-3.624241228524925
 30
0.0
 10
-44.15259456368487
 20
-3.509396355014092
 30
0.0
 10
-44.05460531595484
 20
-3.293844624188244
 30
0.0
 10
-43.99546050155909
 20
-3.192851793515787
 30
0.0
 10
-43.85653496755565
 20
-3.004656421282514
 30
0.0
 10
-43.77624751499248
 20
-2.917446187540479
 30
0.0
 10
-43.51721559518482
 20
-2.687382250659264
 30
0.0
 10
-43.31487766755511
 20
-2.570608374697619
 30
0.0
 10
-43.10512638731966
 20
-2.48723818473186
 30
0.0
  0
SPLINE
  5
3A5
330
1F
100
AcDbEntity
  8
0
  6
Continuous
 62
     1
370
    15
100
AcDbSpline
210
0.0
220
0.0
230
1.0
 70
     8
 71
     3
 72
    11
 73
     7
 74
     0
 42
0.000000001
 43
0.00000001
 40
0.0
 40
0.0
 40
0.0
 40
0.0
 40
0.1275295356304385
 40
0.4160832712137254
 40
0.7075440850022849
 40
1.0
 40
1.0
 40
1.0
 40
1.0
 10
-30.84414541145161
 20
3.719913186805185
 30
0.0
 10
-30.68020096946297
 20
3.791520824037894
 30
0.0
 10
-30.14530888048363
 20
4.025150938006254
 30
0.0
 10
-29.23569158408536
 20
4.366865212224043
 30
0.0
 10
-28.11429951487894
 20
4.745146382529617
 30
0.0
 10
-27.36352632336853
 20
4.940691081860772
 30
0.0
 10
-26.98749999999994
 20
5.0386300535438
 30
0.0
  0
SPLINE
  5
3A6
330
1F
100
AcDbEntity
  8
외형선
  6
Continuous
370
    15
100
AcDbSpline
210
0.0
220
0.0
230
1.0
 70
    24
 71
     3
 72
    13
 73
     9
 74
     0
 42
0.000000001
 43
0.00000001
 40
0.0
 40
0.0
 40
0.0
 40
0.0
 40
0.0509302318577211
 40
0.2564151829108508
 40
0.4678592114650594
 40
0.6733441625181884
 40
0.8847881910723968
 40
1.0
 40
1.0
 40
1.0
 40
1.0
 10
-26.98749999999997
 20
3.178126531897727
 30
0.0
 10
-26.98749999999997
 20
3.190588370439089
 30
0.0
 10
-26.98749999999997
 20
3.253329192391684
 30
0.0
 10
-26.98749999999997
 20
3.464874567757684
 30
0.0
 10
-26.98749999999997
 20
3.80502445801727
 30
0.0
 10
-26.98749999999997
 20
4.236876205888697
 30
0.0
 10
-26.98749999999997
 20
4.656333692164127
 30
0.0
 10
-26.98749999999997
 20
4.938950758852505
 30
0.0
 10
-26.98749999999997
 20
5.0386300535438
 30
0.0
  0
LINE
  5
40F
330
1F
100
AcDbEntity
  8
외형선
  6
Continuous
370
    15
100
AcDbLine
 10
-4.203700000000026
 20
4.826000000000001
 30
0.0
 11
4.203700000000026
 21
4.826000000000001
 31
0.0
  0
LINE
  5
410
330
1F
100
AcDbEntity
  8
외형선
  6
Continuous
370
    15
100
AcDbLine
 10
-4.203700000000026
 20
4.826000000000001
 30
0.0
 11
-5.727700000000027
 21
6.350000000000001
 31
0.0
  0
LINE
  5
411
330
1F
100
AcDbEntity
  8
외형선
  6
Continuous
370
    15
100
AcDbLine
 10
4.203700000000026
 20
4.826000000000001
 30
0.0
 11
5.727700000000027
 21
6.350000000000001
 31
0.0
  0
LINE
  5
416
330
1F
100
AcDbEntity
  8
외형선
  6
Continuous
370
    15
100
AcDbLine
 10
-5.727700000000016
 20
6.349999999999995
 30
0.0
 11
-23.02518467149216
 21
6.349999999999993
 31
0.0
  0
ENDSEC
  0
SECTION
  2
OBJECTS
  0
DICTIONARY
  5
C
330
0
100
AcDbDictionary
281
     1
  3
ACAD_GROUP
350
D
  3
ACAD_IMAGE_VARS
350
14C
  3
ACAD_LAYOUT
350
1A
  3
ACAD_MLINESTYLE
350
17
  3
ACAD_PLOTSETTINGS
350
19
  3
ACAD_PLOTSTYLENAME
350
E
  3
ACAD_SCALELIST
350
47
  3
APPDATA
350
14A
  3
DWGPROPS
350
43A
  0
DICTIONARY
  5
202
330
2
100
AcDbDictionary
280
     1
281
     1
  3
ACAD_LAYERSTATES
360
203
  0
DICTIONARY
  5
D
102
{ACAD_REACTORS
330
C
102
}
330
C
100
AcDbDictionary
281
     1
  0
RASTERVARIABLES
  5
14C
102
{ACAD_REACTORS
330
C
102
}
330
C
100
AcDbRasterVariables
 90
        0
 70
     1
 71
     1
 72
     1
  0
DICTIONARY
  5
1A
102
{ACAD_REACTORS
330
C
102
}
330
C
100
AcDbDictionary
281
     1
  3
Layout1
350
1E
  3
Layout2
350
26
  3
Model
350
22
  0
DICTIONARY
  5
17
102
{ACAD_REACTORS
330
C
102
}
330
C
100
AcDbDictionary
281
     1
  3
Standard
350
18
  0
DICTIONARY
  5
19
102
{ACAD_REACTORS
330
C
102
}
330
C
100
AcDbDictionary
281
     1
  0
ACDBDICTIONARYWDFLT
  5
E
102
{ACAD_REACTORS
330
C
102
}
330
C
100
AcDbDictionary
281
     1
  3
Normal
350
F
100
AcDbDictionaryWithDefault
340
F
  0
DICTIONARY
  5
47
102
{ACAD_REACTORS
330
C
102
}
330
C
100
AcDbDictionary
281
     1
  3
A0
350
48
  3
A1
350
49
  3
A2
350
4A
  3
A3
350
4B
  3
A4
350
4C
  3
A5
350
4D
  3
A6
350
4E
  3
A7
350
4F
  3
A8
350
50
  3
A9
350
51
  3
B0
350
52
  3
B1
350
53
  3
B2
350
54
  3
B3
350
55
  3
B4
350
56
  3
B5
350
57
  3
B6
350
58
  3
B7
350
59
  3
B8
350
5A
  3
B9
350
5B
  3
C0
350
5C
  3
C1
350
5D
  3
C2
350
5E
  3
C3
350
5F
  3
C4
350
60
  3
C5
350
61
  3
C6
350
62
  3
C7
350
63
  3
C8
350
64
  3
C9
350
65
  3
D0
350
66
  3
D1
350
67
  3
D2
350
68
  0
DICTIONARY
  5
14A
102
{ACAD_REACTORS
330
C
102
}
330
C
100
AcDbDictionary
281
     1
  0
XRECORD
  5
43A
102
{ACAD_REACTORS
330
C
102
}
330
C
100
AcDbXrecord
280
     1
  1
DWGPROPS COOKIE
  2

  3

  4

  6

  7

  8
12016016
  9

300
=
301
=
302
=
303
=
304
=
305
=
306
=
307
=
308
=
309
=
 40
0.0
 41
2458319.36888868
 42
2458323.298833102
  1

 90
        0
  0
DICTIONARY
  5
203
102
{ACAD_REACTORS
330
202
102
}
330
202
100
AcDbDictionary
281
     1
  0
LAYOUT
  5
1E
102
{ACAD_REACTORS
330
1A
102
}
330
1A
100
AcDbPlotSettings
  1

  2
none_device
  4

  6

 40
0.0
 41
0.0
 42
0.0
 43
0.0
 44
0.0
 45
0.0
 46
0.0
 47
0.0
 48
0.0
 49
0.0
140
0.0
141
0.0
142
1.0
143
1.0
 70
   688
 72
     1
 73
     0
 74
     5
  7

 75
    16
147
1.0
148
0.0
149
0.0
100
AcDbLayout
  1
Layout1
 70
     1
 71
     1
 10
0.0
 20
0.0
 11
420.0
 21
297.0
 12
0.0
 22
0.0
 32
0.0
 14
1.000000000000000E+20
 24
1.000000000000000E+20
 34
1.000000000000000E+20
 15
-1.000000000000000E+20
 25
-1.000000000000000E+20
 35
-1.000000000000000E+20
146
0.0
 13
0.0
 23
0.0
 33
0.0
 16
1.0
 26
0.0
 36
0.0
 17
0.0
 27
1.0
 37
0.0
 76
     0
330
1B
  0
LAYOUT
  5
26
102
{ACAD_REACTORS
330
1A
102
}
330
1A
100
AcDbPlotSettings
  1

  2
none_device
  4

  6

 40
0.0
 41
0.0
 42
0.0
 43
0.0
 44
0.0
 45
0.0
 46
0.0
 47
0.0
 48
0.0
 49
0.0
140
0.0
141
0.0
142
1.0
143
1.0
 70
   688
 72
     1
 73
     0
 74
     5
  7

 75
    16
147
1.0
148
0.0
149
0.0
100
AcDbLayout
  1
Layout2
 70
     1
 71
     2
 10
0.0
 20
0.0
 11
0.0
 21
0.0
 12
0.0
 22
0.0
 32
0.0
 14
0.0
 24
0.0
 34
0.0
 15
0.0
 25
0.0
 35
0.0
146
0.0
 13
0.0
 23
0.0
 33
0.0
 16
1.0
 26
0.0
 36
0.0
 17
0.0
 27
1.0
 37
0.0
 76
     0
330
23
  0
LAYOUT
  5
22
102
{ACAD_REACTORS
330
1A
102
}
330
1A
100
AcDbPlotSettings
  1

  2
none_device
  4
ANSI_A_(11.00_x_8.50_Inches)
  6

 40
6.35
 41
19.05
 42
6.35000508
 43
19.05000254
 44
279.4
 45
215.9
 46
139.4327810937887
 47
64.52177891581061
 48
0.0
 49
0.0
140
0.0
141
0.0
142
0.0639346715994753
143
1.0
 70
  1696
 72
     0
 73
     0
 74
     0
  7

 75
     0
147
0.0235690232323232
148
0.0
149
0.0
100
AcDbLayout
  1
Model
 70
     1
 71
     0
 10
0.0
 20
0.0
 11
420.0
 21
297.0
 12
0.0
 22
0.0
 32
0.0
 14
-64.43000000000004
 24
-49.97180738881174
 34
0.0
 15
81.41936447236115
 25
35.98325000000007
 35
0.0
146
0.0
 13
0.0
 23
0.0
 33
0.0
 16
1.0
 26
0.0
 36
0.0
 17
0.0
 27
1.0
 37
0.0
 76
     0
330
1F
331
29
  0
MLINESTYLE
  5
18
102
{ACAD_REACTORS
330
17
102
}
330
17
100
AcDbMlineStyle
  2
Standard
 70
     0
  3

 62
   256
 51
90.0
 52
90.0
 71
     2
 49
0.5
 62
   256
  6
BYLAYER
 49
-0.5
 62
   256
  6
BYLAYER
  0
ACDBPLACEHOLDER
  5
F
102
{ACAD_REACTORS
330
E
102
}
330
E
  0
SCALE
  5
48
102
{ACAD_REACTORS
330
47
102
}
330
47
100
AcDbScale
 70
     0
300
1:1
140
1.0
141
1.0
290
     1
  0
SCALE
  5
49
102
{ACAD_REACTORS
330
47
102
}
330
47
100
AcDbScale
 70
     0
300
1:2
140
1.0
141
2.0
290
     0
  0
SCALE
  5
4A
102
{ACAD_REACTORS
330
47
102
}
330
47
100
AcDbScale
 70
     0
300
1:4
140
1.0
141
4.0
290
     0
  0
SCALE
  5
4B
102
{ACAD_REACTORS
330
47
102
}
330
47
100
AcDbScale
 70
     0
300
1:5
140
1.0
141
5.0
290
     0
  0
SCALE
  5
4C
102
{ACAD_REACTORS
330
47
102
}
330
47
100
AcDbScale
 70
     0
300
1:8
140
1.0
141
8.0
290
     0
  0
SCALE
  5
4D
102
{ACAD_REACTORS
330
47
102
}
330
47
100
AcDbScale
 70
     0
300
1:10
140
1.0
141
10.0
290
     0
  0
SCALE
  5
4E
102
{ACAD_REACTORS
330
47
102
}
330
47
100
AcDbScale
 70
     0
300
1:16
140
1.0
141
16.0
290
     0
  0
SCALE
  5
4F
102
{ACAD_REACTORS
330
47
102
}
330
47
100
AcDbScale
 70
     0
300
1:20
140
1.0
141
20.0
290
     0
  0
SCALE
  5
50
102
{ACAD_REACTORS
330
47
102
}
330
47
100
AcDbScale
 70
     0
300
1:30
140
1.0
141
30.0
290
     0
  0
SCALE
  5
51
102
{ACAD_REACTORS
330
47
102
}
330
47
100
AcDbScale
 70
     0
300
1:40
140
1.0
141
40.0
290
     0
  0
SCALE
  5
52
102
{ACAD_REACTORS
330
47
102
}
330
47
100
AcDbScale
 70
     0
300
1:50
140
1.0
141
50.0
290
     0
  0
SCALE
  5
53
102
{ACAD_REACTORS
330
47
102
}
330
47
100
AcDbScale
 70
     0
300
1:100
140
1.0
141
100.0
290
     0
  0
SCALE
  5
54
102
{ACAD_REACTORS
330
47
102
}
330
47
100
AcDbScale
 70
     0
300
2:1
140
2.0
141
1.0
290
     0
  0
SCALE
  5
55
102
{ACAD_REACTORS
330
47
102
}
330
47
100
AcDbScale
 70
     0
300
4:1
140
4.0
141
1.0
290
     0
  0
SCALE
  5
56
102
{ACAD_REACTORS
330
47
102
}
330
47
100
AcDbScale
 70
     0
300
8:1
140
8.0
141
1.0
290
     0
  0
SCALE
  5
57
102
{ACAD_REACTORS
330
47
102
}
330
47
100
AcDbScale
 70
     0
300
10:1
140
10.0
141
1.0
290
     0
  0
SCALE
  5
58
102
{ACAD_REACTORS
330
47
102
}
330
47
100
AcDbScale
 70
     0
300
100:1
140
100.0
141
1.0
290
     0
  0
SCALE
  5
59
102
{ACAD_REACTORS
330
47
102
}
330
47
100
AcDbScale
 70
     0
300
1/128" = 1'-0"
140
0.0078125
141
12.0
290
     0
  0
SCALE
  5
5A
102
{ACAD_REACTORS
330
47
102
}
330
47
100
AcDbScale
 70
     0
300
1/64" = 1'-0"
140
0.015625
141
12.0
290
     0
  0
SCALE
  5
5B
102
{ACAD_REACTORS
330
47
102
}
330
47
100
AcDbScale
 70
     0
300
1/32" = 1'-0"
140
0.03125
141
12.0
290
     0
  0
SCALE
  5
5C
102
{ACAD_REACTORS
330
47
102
}
330
47
100
AcDbScale
 70
     0
300
1/16" = 1'-0"
140
0.0625
141
12.0
290
     0
  0
SCALE
  5
5D
102
{ACAD_REACTORS
330
47
102
}
330
47
100
AcDbScale
 70
     0
300
3/32" = 1'-0"
140
0.09375
141
12.0
290
     0
  0
SCALE
  5
5E
102
{ACAD_REACTORS
330
47
102
}
330
47
100
AcDbScale
 70
     0
300
1/8" = 1'-0"
140
0.125
141
12.0
290
     0
  0
SCALE
  5
5F
102
{ACAD_REACTORS
330
47
102
}
330
47
100
AcDbScale
 70
     0
300
3/16" = 1'-0"
140
0.1875
141
12.0
290
     0
  0
SCALE
  5
60
102
{ACAD_REACTORS
330
47
102
}
330
47
100
AcDbScale
 70
     0
300
1/4" = 1'-0"
140
0.25
141
12.0
290
     0
  0
SCALE
  5
61
102
{ACAD_REACTORS
330
47
102
}
330
47
100
AcDbScale
 70
     0
300
3/8" = 1'-0"
140
0.375
141
12.0
290
     0
  0
SCALE
  5
62
102
{ACAD_REACTORS
330
47
102
}
330
47
100
AcDbScale
 70
     0
300
1/2" = 1'-0"
140
0.5
141
12.0
290
     0
  0
SCALE
  5
63
102
{ACAD_REACTORS
330
47
102
}
330
47
100
AcDbScale
 70
     0
300
3/4" = 1'-0"
140
0.75
141
12.0
290
     0
  0
SCALE
  5
64
102
{ACAD_REACTORS
330
47
102
}
330
47
100
AcDbScale
 70
     0
300
1" = 1'-0"
140
1.0
141
12.0
290
     0
  0
SCALE
  5
65
102
{ACAD_REACTORS
330
47
102
}
330
47
100
AcDbScale
 70
     0
300
1-1/2" = 1'-0"
140
1.5
141
12.0
290
     0
  0
SCALE
  5
66
102
{ACAD_REACTORS
330
47
102
}
330
47
100
AcDbScale
 70
     0
300
3" = 1'-0"
140
3.0
141
12.0
290
     0
  0
SCALE
  5
67
102
{ACAD_REACTORS
330
47
102
}
330
47
100
AcDbScale
 70
     0
300
6" = 1'-0"
140
6.0
141
12.0
290
     0
  0
SCALE
  5
68
102
{ACAD_REACTORS
330
47
102
}
330
47
100
AcDbScale
 70
     0
300
1'-0" = 1'-0"
140
12.0
141
12.0
290
     0
  0
ENDSEC
  0
EOF
