  0
SECTION
  2
HEADER
  9
$ACADVER
  1
AC1015
  9
$ACADMAINTVER
 70
     6
  9
$DWGCODEPAGE
  3
ANSI_949
  9
$INSBASE
 10
0.0
 20
0.0
 30
0.0
  9
$EXTMIN
 10
-56.68250000000003
 20
-49.97073246008785
 30
0.0
  9
$EXTMAX
 10
81.41936447236115
 20
35.15400000000005
 30
0.0
  9
$LIMMIN
 10
0.0
 20
0.0
  9
$LIMMAX
 10
420.0
 20
297.0
  9
$ORTHOMODE
 70
     1
  9
$REGENMODE
 70
     1
  9
$FILLMODE
 70
     1
  9
$QTEXTMODE
 70
     0
  9
$MIRRTEXT
 70
     1
  9
$LTSCALE
 40
1.0
  9
$ATTMODE
 70
     1
  9
$TEXTSIZE
 40
3.5
  9
$TRACEWID
 40
1.0
  9
$TEXTSTYLE
  7
Standard
  9
$CLAYER
  8
0
  9
$CELTYPE
  6
ByLayer
  9
$CECOLOR
 62
   256
  9
$CELTSCALE
 40
1.0
  9
$DISPSILH
 70
     0
  9
$DIMSCALE
 40
1.0
  9
$DIMASZ
 40
3.302
  9
$DIMEXO
 40
1.0
  9
$DIMDLI
 40
3.75
  9
$DIMRND
 40
0.0
  9
$DIMDLE
 40
0.0
  9
$DIMEXE
 40
1.0
  9
$DIMTP
 40
0.0
  9
$DIMTM
 40
0.0
  9
$DIMTXT
 40
3.5
  9
$DIMCEN
 40
2.5
  9
$DIMTSZ
 40
0.0
  9
$DIMTOL
 70
     0
  9
$DIMLIM
 70
     0
  9
$DIMTIH
 70
     1
  9
$DIMTOH
 70
     1
  9
$DIMSE1
 70
     0
  9
$DIMSE2
 70
     0
  9
$DIMTAD
 70
     1
  9
$DIMZIN
 70
     0
  9
$DIMBLK
  1

  9
$DIMASO
 70
     1
  9
$DIMSHO
 70
     1
  9
$DIMPOST
  1

  9
$DIMAPOST
  1

  9
$DIMALT
 70
     0
  9
$DIMALTD
 70
     3
  9
$DIMALTF
 40
0.0393700787401575
  9
$DIMLFAC
 40
1.0
  9
$DIMTOFL
 70
     1
  9
$DIMTVP
 40
0.0
  9
$DIMTIX
 70
     0
  9
$DIMSOXD
 70
     0
  9
$DIMSAH
 70
     0
  9
$DIMBLK1
  1

  9
$DIMBLK2
  1

  9
$DIMSTYLE
  2
ISO-25
  9
$DIMCLRD
 70
     0
  9
$DIMCLRE
 70
     0
  9
$DIMCLRT
 70
     0
  9
$DIMTFAC
 40
1.0
  9
$DIMGAP
 40
1.524
  9
$DIMJUST
 70
     0
  9
$DIMSD1
 70
     0
  9
$DIMSD2
 70
     0
  9
$DIMTOLJ
 70
     0
  9
$DIMTZIN
 70
     0
  9
$DIMALTZ
 70
     0
  9
$DIMALTTZ
 70
     0
  9
$DIMUPT
 70
     0
  9
$DIMDEC
 70
     2
  9
$DIMTDEC
 70
     2
  9
$DIMALTU
 70
     2
  9
$DIMALTTD
 70
     3
  9
$DIMTXSTY
  7
Standard
  9
$DIMAUNIT
 70
     0
  9
$DIMADEC
 70
     2
  9
$DIMALTRND
 40
0.0
  9
$DIMAZIN
 70
     0
  9
$DIMDSEP
 70
    44
  9
$DIMATFIT
 70
     3
  9
$DIMFRAC
 70
     0
  9
$DIMLDRBLK
  1

  9
$DIMLUNIT
 70
     2
  9
$DIMLWD
 70
    -2
  9
$DIMLWE
 70
    -2
  9
$DIMTMOVE
 70
     0
  9
$LUNITS
 70
     2
  9
$LUPREC
 70
     2
  9
$SKETCHINC
 40
1.0
  9
$FILLETRAD
 40
10.0
  9
$AUNITS
 70
     0
  9
$AUPREC
 70
     2
  9
$MENU
  1
.
  9
$ELEVATION
 40
0.0
  9
$PELEVATION
 40
0.0
  9
$THICKNESS
 40
0.0
  9
$LIMCHECK
 70
     0
  9
$CHAMFERA
 40
0.0
  9
$CHAMFERB
 40
0.0
  9
$CHAMFERC
 40
0.0
  9
$CHAMFERD
 40
0.0
  9
$SKPOLY
 70
     0
  9
$TDCREATE
 40
2458319.742829711
  9
$TDUCREATE
 40
2458319.367829711
  9
$TDUPDATE
 40
2458323.674074549
  9
$TDUUPDATE
 40
2458323.299074549
  9
$TDINDWG
 40
0.0019178241
  9
$TDUSRTIMER
 40
2458323.299033229
  9
$USRTIMER
 70
     1
  9
$ANGBASE
 50
0.0
  9
$ANGDIR
 70
     0
  9
$PDMODE
 70
     0
  9
$PDSIZE
 40
-1.0
  9
$PLINEWID
 40
0.0
  9
$SPLFRAME
 70
     0
  9
$SPLINETYPE
 70
     6
  9
$SPLINESEGS
 70
     8
  9
$HANDSEED
  5
40D
  9
$SURFTAB1
 70
     6
  9
$SURFTAB2
 70
     6
  9
$SURFTYPE
 70
     6
  9
$SURFU
 70
     6
  9
$SURFV
 70
     6
  9
$UCSBASE
  2

  9
$UCSNAME
  2

  9
$UCSORG
 10
0.0
 20
0.0
 30
0.0
  9
$UCSXDIR
 10
1.0
 20
0.0
 30
0.0
  9
$UCSYDIR
 10
0.0
 20
1.0
 30
0.0
  9
$UCSORTHOREF
  2

  9
$UCSORTHOVIEW
 70
     0
  9
$UCSORGTOP
 10
0.0
 20
0.0
 30
0.0
  9
$UCSORGBOTTOM
 10
0.0
 20
0.0
 30
0.0
  9
$UCSORGLEFT
 10
0.0
 20
0.0
 30
0.0
  9
$UCSORGRIGHT
 10
0.0
 20
0.0
 30
0.0
  9
$UCSORGFRONT
 10
0.0
 20
0.0
 30
0.0
  9
$UCSORGBACK
 10
0.0
 20
0.0
 30
0.0
  9
$PUCSBASE
  2

  9
$PUCSNAME
  2

  9
$PUCSORG
 10
0.0
 20
0.0
 30
0.0
  9
$PUCSXDIR
 10
1.0
 20
0.0
 30
0.0
  9
$PUCSYDIR
 10
0.0
 20
1.0
 30
0.0
  9
$PUCSORTHOREF
  2

  9
$PUCSORTHOVIEW
 70
     0
  9
$PUCSORGTOP
 10
0.0
 20
0.0
 30
0.0
  9
$PUCSORGBOTTOM
 10
0.0
 20
0.0
 30
0.0
  9
$PUCSORGLEFT
 10
0.0
 20
0.0
 30
0.0
  9
$PUCSORGRIGHT
 10
0.0
 20
0.0
 30
0.0
  9
$PUCSORGFRONT
 10
0.0
 20
0.0
 30
0.0
  9
$PUCSORGBACK
 10
0.0
 20
0.0
 30
0.0
  9
$USERI1
 70
     0
  9
$USERI2
 70
     0
  9
$USERI3
 70
     0
  9
$USERI4
 70
     0
  9
$USERI5
 70
     0
  9
$USERR1
 40
0.0
  9
$USERR2
 40
0.0
  9
$USERR3
 40
0.0
  9
$USERR4
 40
0.0
  9
$USERR5
 40
0.0
  9
$WORLDVIEW
 70
     1
  9
$SHADEDGE
 70
     3
  9
$SHADEDIF
 70
    70
  9
$TILEMODE
 70
     1
  9
$MAXACTVP
 70
    64
  9
$PINSBASE
 10
0.0
 20
0.0
 30
0.0
  9
$PLIMCHECK
 70
     0
  9
$PEXTMIN
 10
1.000000000000000E+20
 20
1.000000000000000E+20
 30
1.000000000000000E+20
  9
$PEXTMAX
 10
-1.000000000000000E+20
 20
-1.000000000000000E+20
 30
-1.000000000000000E+20
  9
$PLIMMIN
 10
0.0
 20
0.0
  9
$PLIMMAX
 10
0.0
 20
0.0
  9
$UNITMODE
 70
     0
  9
$VISRETAIN
 70
     1
  9
$PLINEGEN
 70
     0
  9
$PSLTSCALE
 70
     1
  9
$TREEDEPTH
 70
  3020
  9
$CMLSTYLE
  2
Standard
  9
$CMLJUST
 70
     0
  9
$CMLSCALE
 40
20.0
  9
$PROXYGRAPHICS
 70
     1
  9
$MEASUREMENT
 70
     1
  9
$CELWEIGHT
370
    -1
  9
$ENDCAPS
280
     0
  9
$JOINSTYLE
280
     0
  9
$LWDISPLAY
290
     1
  9
$INSUNITS
 70
     4
  9
$HYPERLINKBASE
  1

  9
$STYLESHEET
  1

  9
$XEDIT
290
     1
  9
$CEPSNTYPE
380
     0
  9
$PSTYLEMODE
290
     1
  9
$FINGERPRINTGUID
  2
{F118C41D-46CA-48F4-B9FF-DA0F2C998E63}
  9
$VERSIONGUID
  2
{FAEB1C32-E019-11D5-929B-00C0DF256EC4}
  9
$EXTNAMES
290
     1
  9
$PSVPSCALE
 40
0.0
  9
$OLESTARTUP
290
     0
  0
ENDSEC
  0
SECTION
  2
CLASSES
  0
CLASS
  1
ACDBDICTIONARYWDFLT
  2
AcDbDictionaryWithDefault
  3
ObjectDBX Classes
 90
        0
280
     0
281
     0
  0
CLASS
  1
VISUALSTYLE
  2
AcDbVisualStyle
  3
ObjectDBX Classes
 90
     4095
280
     0
281
     0
  0
CLASS
  1
MATERIAL
  2
AcDbMaterial
  3
ObjectDBX Classes
 90
     1153
280
     0
281
     0
  0
CLASS
  1
SCALE
  2
AcDbScale
  3
ObjectDBX Classes
 90
     1153
280
     0
281
     0
  0
CLASS
  1
SUN
  2
AcDbSun
  3
SCENEOE
 90
     1153
280
     0
281
     0
  0
CLASS
  1
ACDBPLACEHOLDER
  2
AcDbPlaceHolder
  3
ObjectDBX Classes
 90
        0
280
     0
281
     0
  0
CLASS
  1
LAYOUT
  2
AcDbLayout
  3
ObjectDBX Classes
 90
        0
280
     0
281
     0
  0
CLASS
  1
TABLESTYLE
  2
AcDbTableStyle
  3
ObjectDBX Classes
 90
     4095
280
     0
281
     0
  0
CLASS
  1
MLEADERSTYLE
  2
AcDbMLeaderStyle
  3
ACDB_MLEADERSTYLE_CLASS
 90
     4095
280
     0
281
     0
  0
CLASS
  1
RASTERVARIABLES
  2
AcDbRasterVariables
  3
ISM
 90
        0
280
     0
281
     0
  0
ENDSEC
  0
SECTION
  2
TABLES
  0
TABLE
  2
VPORT
  5
8
330
0
100
AcDbSymbolTable
 70
     1
  0
VPORT
  5
29
330
8
100
AcDbSymbolTableRecord
100
AcDbViewportTableRecord
  2
*Active
 70
     0
 10
0.0
 20
0.0
 11
1.0
 21
1.0
 12
1.738574372549493
 22
0.7307820796505453
 13
0.0
 23
0.0
 14
10.0
 24
10.0
 15
10.0
 25
10.0
 16
0.0
 26
0.0
 36
1.0
 17
0.0
 27
0.0
 37
0.0
 40
102.5668974375871
 41
1.632093933463796
 42
50.0
 43
0.0
 44
0.0
 50
0.0
 51
0.0
 71
    16
 72
  2000
 73
     1
 74
     3
 75
     0
 76
     0
 77
     0
 78
     0
281
     0
 65
     1
110
0.0
120
0.0
130
0.0
111
1.0
121
0.0
131
0.0
112
0.0
122
1.0
132
0.0
 79
     0
146
0.0
  0
ENDTAB
  0
TABLE
  2
LTYPE
  5
5
330
0
100
AcDbSymbolTable
 70
     6
  0
LTYPE
  5
14
330
5
100
AcDbSymbolTableRecord
100
AcDbLinetypeTableRecord
  2
ByBlock
 70
     0
  3

 72
    65
 73
     0
 40
0.0
  0
LTYPE
  5
15
330
5
100
AcDbSymbolTableRecord
100
AcDbLinetypeTableRecord
  2
ByLayer
 70
     0
  3

 72
    65
 73
     0
 40
0.0
  0
LTYPE
  5
16
330
5
100
AcDbSymbolTableRecord
100
AcDbLinetypeTableRecord
  2
Continuous
 70
     0
  3
Solid line
 72
    65
 73
     0
 40
0.0
  0
LTYPE
  5
6A
330
5
100
AcDbSymbolTableRecord
100
AcDbLinetypeTableRecord
  2
HIDDEN
 70
     0
  3
Hidden __ __ __ __ __ __ __ __ __ __ __ __ __ __
 72
    65
 73
     2
 40
1.905
 49
1.27
 74
     0
 49
-0.635
 74
     0
  0
LTYPE
  5
6B
330
5
100
AcDbSymbolTableRecord
100
AcDbLinetypeTableRecord
  2
PHANTOM
 70
     0
  3
Phantom ______  __  __  ______  __  __  ______
 72
    65
 73
     6
 40
12.7
 49
6.35
 74
     0
 49
-1.27
 74
     0
 49
1.27
 74
     0
 49
-1.27
 74
     0
 49
1.27
 74
     0
 49
-1.27
 74
     0
  0
LTYPE
  5
6C
330
5
100
AcDbSymbolTableRecord
100
AcDbLinetypeTableRecord
  2
CENTER
 70
     0
  3
Center ____ _ ____ _ ____ _ ____ _ ____ _ ____
 72
    65
 73
     4
 40
10.16
 49
6.35
 74
     0
 49
-1.27
 74
     0
 49
1.27
 74
     0
 49
-1.27
 74
     0
  0
LTYPE
  5
6D
330
5
100
AcDbSymbolTableRecord
100
AcDbLinetypeTableRecord
  2
CENTERX2
 70
     0
  3
Center (2x) ________  __  ________  __  _____
 72
    65
 73
     4
 40
20.32
 49
12.7
 74
     0
 49
-2.54
 74
     0
 49
2.54
 74
     0
 49
-2.54
 74
     0
  0
LTYPE
  5
6E
330
5
100
AcDbSymbolTableRecord
100
AcDbLinetypeTableRecord
  2
DOT2
 70
     0
  3
Dot (.5x) ........................................
 72
    65
 73
     2
 40
0.635
 49
0.0
 74
     0
 49
-0.635
 74
     0
  0
ENDTAB
  0
TABLE
  2
LAYER
  5
2
102
{ACAD_XDICTIONARY
360
204
102
}
330
0
100
AcDbSymbolTable
 70
    18
  0
LAYER
  5
10
330
2
100
AcDbSymbolTableRecord
100
AcDbLayerTableRecord
  2
0
 70
     0
 62
     7
  6
Continuous
370
    -3
390
F
  0
LAYER
  5
6F
330
2
100
AcDbSymbolTableRecord
100
AcDbLayerTableRecord
  2
FORMAT
 70
     0
 62
     2
  6
Continuous
370
    -3
390
F
  0
LAYER
  5
70
330
2
100
AcDbSymbolTableRecord
100
AcDbLayerTableRecord
  2
외형선
 70
     0
 62
     4
  6
Continuous
370
    30
390
F
  0
LAYER
  5
71
330
2
100
AcDbSymbolTableRecord
100
AcDbLayerTableRecord
  2
숨은선
 70
     0
 62
     2
  6
HIDDEN
370
    15
390
F
  0
LAYER
  5
72
330
2
100
AcDbSymbolTableRecord
100
AcDbLayerTableRecord
  2
중심선
 70
     0
 62
     1
  6
CENTERX2
370
    -3
390
F
  0
LAYER
  5
73
330
2
100
AcDbSymbolTableRecord
100
AcDbLayerTableRecord
  2
파단선
 70
     0
 62
     4
  6
Continuous
370
    -3
390
F
  0
LAYER
  5
74
330
2
100
AcDbSymbolTableRecord
100
AcDbLayerTableRecord
  2
해칭선
 70
     0
 62
   100
  6
Continuous
370
    -3
390
F
  0
LAYER
  5
75
330
2
100
AcDbSymbolTableRecord
100
AcDbLayerTableRecord
  2
가는실선
 70
     0
 62
     4
  6
Continuous
370
    -3
390
F
  0
LAYER
  5
76
330
2
100
AcDbSymbolTableRecord
100
AcDbLayerTableRecord
  2
치수_보조선
 70
     0
 62
     4
  6
Continuous
370
    -3
390
F
  0
LAYER
  5
77
330
2
100
AcDbSymbolTableRecord
100
AcDbLayerTableRecord
  2
치수문자_일반주서
 70
     0
 62
     7
  6
Continuous
370
    15
390
F
  0
LAYER
  5
78
330
2
100
AcDbSymbolTableRecord
100
AcDbLayerTableRecord
  2
개별주서
 70
     0
 62
   100
  6
Continuous
370
    30
390
F
  0
LAYER
  5
79
330
2
100
AcDbSymbolTableRecord
100
AcDbLayerTableRecord
  2
중간선
 70
     0
 62
     2
  6
Continuous
370
    15
390
F
  0
LAYER
  5
7A
330
2
100
AcDbSymbolTableRecord
100
AcDbLayerTableRecord
  2
윤곽선
 70
     0
 62
     3
  6
Continuous
370
    40
390
F
  0
LAYER
  5
7B
330
2
100
AcDbSymbolTableRecord
100
AcDbLayerTableRecord
  2
중심마크
 70
     0
 62
   100
  6
Continuous
370
    30
390
F
  0
LAYER
  5
7C
330
2
100
AcDbSymbolTableRecord
100
AcDbLayerTableRecord
  2
가상선
 70
     0
 62
     4
  6
PHANTOM
370
    -3
390
F
  0
LAYER
  5
7D
330
2
100
AcDbSymbolTableRecord
100
AcDbLayerTableRecord
  2
특수지정선
 70
     0
 62
     5
  6
CENTERX2
370
    60
390
F
  0
LAYER
  5
7E
330
2
100
AcDbSymbolTableRecord
100
AcDbLayerTableRecord
  2
참조1
 70
     0
 62
    -4
  6
Continuous
370
    -3
390
F
  0
LAYER
  5
150
330
2
100
AcDbSymbolTableRecord
100
AcDbLayerTableRecord
  2
Defpoints
 70
     0
 62
     7
  6
Continuous
290
     0
370
    -3
390
F
  0
ENDTAB
  0
TABLE
  2
STYLE
  5
3
330
0
100
AcDbSymbolTable
 70
     2
  0
STYLE
  5
11
330
3
100
AcDbSymbolTableRecord
100
AcDbTextStyleTableRecord
  2
Standard
 70
     0
 40
0.0
 41
1.0
 50
0.0
 71
     0
 42
3.5
  3
txt
  4

  0
STYLE
  5
94
330
3
100
AcDbSymbolTableRecord
100
AcDbTextStyleTableRecord
  2
SLDTEXTSTYLE0
 70
     0
 40
0.0
 41
0.75
 50
0.0
 71
     0
 42
3.5
  3
TXT
  4

  0
ENDTAB
  0
TABLE
  2
VIEW
  5
6
330
0
100
AcDbSymbolTable
 70
     0
  0
ENDTAB
  0
TABLE
  2
UCS
  5
7
330
0
100
AcDbSymbolTable
 70
     0
  0
ENDTAB
  0
TABLE
  2
APPID
  5
9
330
0
100
AcDbSymbolTable
 70
     1
  0
APPID
  5
12
330
9
100
AcDbSymbolTableRecord
100
AcDbRegAppTableRecord
  2
ACAD
 70
     0
  0
ENDTAB
  0
TABLE
  2
DIMSTYLE
  5
A
330
0
100
AcDbSymbolTable
 70
     4
100
AcDbDimStyleTable
  0
DIMSTYLE
105
27
330
A
100
AcDbSymbolTableRecord
100
AcDbDimStyleTableRecord
  2
ISO-25
 70
     0
 41
2.5
 42
0.625
 43
3.75
 44
1.25
 73
     0
 74
     0
 77
     1
 78
     8
140
2.5
141
2.5
143
0.03937007874016
147
0.625
171
     3
172
     1
178
     0
271
     2
272
     2
274
     3
278
    44
283
     0
284
     8
340
11
  0
DIMSTYLE
105
CC
102
{ACAD_REACTORS
330
CB
330
E0
330
109
330
F4
102
}
330
A
100
AcDbSymbolTableRecord
100
AcDbDimStyleTableRecord
  2
SLDDIMSTYLE0
 70
     0
 41
3.302
 44
0.0
 45
0.000000001
 73
     0
 74
     0
 77
     1
 78
     4
 79
     1
140
3.5
143
0.0393700787401575
147
0.875
148
0.000000001
170
     1
173
     1
178
     0
271
     2
272
     2
276
     2
284
    12
340
94
  0
DIMSTYLE
105
E1
330
A
100
AcDbSymbolTableRecord
100
AcDbDimStyleTableRecord
  2
SLDDIMSTYLE1
 70
     0
 41
3.302
 44
0.0
 45
0.000000001
 73
     0
 74
     0
 77
     1
 78
    12
 79
     3
140
3.5
143
0.0393700787401575
147
0.875
148
0.000000001
170
     1
173
     1
178
     0
271
     2
272
     2
276
     2
284
    12
340
94
  0
DIMSTYLE
105
F5
330
A
100
AcDbSymbolTableRecord
100
AcDbDimStyleTableRecord
  2
SLDDIMSTYLE2
 70
     0
 41
3.302
 44
0.0
 45
0.000000001
 73
     0
 74
     0
 77
     1
 78
    12
 79
     3
140
3.5
143
0.0393700787401575
147
0.875
148
0.000000001
170
     1
172
     1
173
     1
178
     0
271
     2
272
     2
276
     2
284
    12
289
     0
340
94
  0
ENDTAB
  0
TABLE
  2
BLOCK_RECORD
  5
1
330
0
100
AcDbSymbolTable
 70
    23
  0
BLOCK_RECORD
  5
1F
330
1
100
AcDbSymbolTableRecord
100
AcDbBlockTableRecord
  2
*Model_Space
340
22
  0
BLOCK_RECORD
  5
1B
330
1
100
AcDbSymbolTableRecord
100
AcDbBlockTableRecord
  2
*Paper_Space
340
1E
  0
BLOCK_RECORD
  5
23
330
1
100
AcDbSymbolTableRecord
100
AcDbBlockTableRecord
  2
*Paper_Space0
340
26
  0
BLOCK_RECORD
  5
7F
330
1
100
AcDbSymbolTableRecord
100
AcDbBlockTableRecord
  2
블럭10
340
0
102
{BLKREFS
331
C4
102
}
  0
BLOCK_RECORD
  5
CD
330
1
100
AcDbSymbolTableRecord
100
AcDbBlockTableRecord
  2
_D
340
0
  0
BLOCK_RECORD
  5
E2
330
1
100
AcDbSymbolTableRecord
100
AcDbBlockTableRecord
  2
_D_1
340
0
  0
BLOCK_RECORD
  5
F6
330
1
100
AcDbSymbolTableRecord
100
AcDbBlockTableRecord
  2
_D_2
340
0
  0
BLOCK_RECORD
  5
10A
330
1
100
AcDbSymbolTableRecord
100
AcDbBlockTableRecord
  2
_D_3
340
0
  0
BLOCK_RECORD
  5
124
330
1
100
AcDbSymbolTableRecord
100
AcDbBlockTableRecord
  2
SW_DOWELSYMBOL_0
340
0
102
{BLKREFS
331
12A
102
}
  0
BLOCK_RECORD
  5
208
330
1
100
AcDbSymbolTableRecord
100
AcDbBlockTableRecord
  2
*D7
340
0
  0
BLOCK_RECORD
  5
215
330
1
100
AcDbSymbolTableRecord
100
AcDbBlockTableRecord
  2
*D8
340
0
  0
BLOCK_RECORD
  5
221
330
1
100
AcDbSymbolTableRecord
100
AcDbBlockTableRecord
  2
*D9
340
0
  0
BLOCK_RECORD
  5
22D
330
1
100
AcDbSymbolTableRecord
100
AcDbBlockTableRecord
  2
*D10
340
0
  0
BLOCK_RECORD
  5
28F
330
1
100
AcDbSymbolTableRecord
100
AcDbBlockTableRecord
  2
*D11
340
0
  0
BLOCK_RECORD
  5
29C
330
1
100
AcDbSymbolTableRecord
100
AcDbBlockTableRecord
  2
*D12
340
0
  0
BLOCK_RECORD
  5
2A8
330
1
100
AcDbSymbolTableRecord
100
AcDbBlockTableRecord
  2
*D13
340
0
  0
BLOCK_RECORD
  5
2B4
330
1
100
AcDbSymbolTableRecord
100
AcDbBlockTableRecord
  2
*D14
340
0
  0
BLOCK_RECORD
  5
355
330
1
100
AcDbSymbolTableRecord
100
AcDbBlockTableRecord
  2
*D15
340
0
  0
BLOCK_RECORD
  5
362
330
1
100
AcDbSymbolTableRecord
100
AcDbBlockTableRecord
  2
*D16
340
0
  0
BLOCK_RECORD
  5
36E
330
1
100
AcDbSymbolTableRecord
100
AcDbBlockTableRecord
  2
*D17
340
0
  0
BLOCK_RECORD
  5
37A
330
1
100
AcDbSymbolTableRecord
100
AcDbBlockTableRecord
  2
*D18
340
0
  0
BLOCK_RECORD
  5
3B5
330
1
100
AcDbSymbolTableRecord
100
AcDbBlockTableRecord
  2
*D19
340
0
  0
BLOCK_RECORD
  5
3C2
330
1
100
AcDbSymbolTableRecord
100
AcDbBlockTableRecord
  2
*D20
340
0
  0
BLOCK_RECORD
  5
3CE
330
1
100
AcDbSymbolTableRecord
100
AcDbBlockTableRecord
  2
*D21
340
0
  0
BLOCK_RECORD
  5
3DA
330
1
100
AcDbSymbolTableRecord
100
AcDbBlockTableRecord
  2
*D22
340
0
  0
ENDTAB
  0
ENDSEC
  0
SECTION
  2
BLOCKS
  0
BLOCK
  5
20
330
1F
100
AcDbEntity
  8
0
100
AcDbBlockBegin
  2
*Model_Space
 70
     0
 10
0.0
 20
0.0
 30
0.0
  3
*Model_Space
  1
*Model_Space
  0
ENDBLK
  5
21
330
1F
100
AcDbEntity
  8
0
100
AcDbBlockEnd
  0
BLOCK
  5
1C
330
1B
100
AcDbEntity
 67
     1
  8
0
100
AcDbBlockBegin
  2
*Paper_Space
 70
     0
 10
0.0
 20
0.0
 30
0.0
  3
*Paper_Space
  1
*Paper_Space
  0
ENDBLK
  5
1D
330
1B
100
AcDbEntity
 67
     1
  8
0
100
AcDbBlockEnd
  0
BLOCK
  5
24
330
23
100
AcDbEntity
  8
0
100
AcDbBlockBegin
  2
*Paper_Space0
 70
     0
 10
0.0
 20
0.0
 30
0.0
  3
*Paper_Space0
  1
*Paper_Space0
  0
ENDBLK
  5
25
330
23
100
AcDbEntity
  8
0
100
AcDbBlockEnd
  0
BLOCK
  5
80
330
7F
100
AcDbEntity
  8
0
100
AcDbBlockBegin
  2
블럭10
 70
     2
 10
0.0
 20
0.0
 30
0.0
  3
블럭10
  1
블럭10
  0
ELLIPSE
  5
82
330
7F
100
AcDbEntity
  8
중심선
100
AcDbEllipse
 10
20.54032771741204
 20
12.0471743016438
 30
0.0
 11
6.600054785286829
 21
-1.261213355974178E-13
 31
0.0
210
0.0
220
0.0
230
1.0
 40
0.636358354079598
 41
0.9219305317359503
 42
6.513795318482858
  0
ELLIPSE
  5
83
330
7F
100
AcDbEntity
  8
중심선
100
AcDbEllipse
 10
20.54032771746488
 20
12.04717430159265
 30
0.0
 11
3.960054785062283
 21
1.540847449632565E-10
 31
0.0
210
0.0
220
0.0
230
1.0
 40
0.3939339440162632
 41
1.131841032648279
 42
5.62031148352944
  0
LINE
  5
84
330
7F
100
AcDbEntity
  8
중심선
100
AcDbLine
 10
2.268634060543552
 20
16.24717430164393
 30
0.0
 11
5.714909304380834
 21
16.24717430164393
 31
0.0
  0
LINE
  5
85
330
7F
100
AcDbEntity
  8
중심선
100
AcDbLine
 10
5.245725140726316
 20
7.84717430164391
 30
0.0
 11
8.692000384563599
 21
7.84717430164391
 31
0.0
  0
LINE
  5
86
330
7F
100
AcDbEntity
  8
중심선
100
AcDbLine
 10
15.74043728645272
 20
16.24717430164393
 30
0.0
 11
8.692000384563599
 21
7.84717430164391
 31
0.0
  0
LINE
  5
87
330
7F
100
AcDbEntity
  8
중심선
100
AcDbLine
 10
0.1404042013395286
 20
13.71084872107135
 30
0.0
 11
3.58671253028996
 21
13.71088815037384
 31
0.0
  0
LINE
  5
88
330
7F
100
AcDbEntity
  8
중심선
100
AcDbLine
 10
2.750260043222114
 20
10.84717430164391
 30
0.0
 11
6.196535287059397
 21
10.84717430164391
 31
0.0
  0
LINE
  5
89
330
7F
100
AcDbEntity
  8
중심선
100
AcDbLine
 10
12.29416204261559
 20
16.24717430164393
 30
0.0
 11
5.245725140726316
 21
7.84717430164391
 31
0.0
  0
LINE
  5
8A
330
7F
100
AcDbEntity
  8
중심선
100
AcDbLine
 10
10.72767329541681
 20
16.24717430164393
 30
0.0
 11
6.196535287059397
 21
10.84717430164391
 31
0.0
  0
LINE
  5
8B
330
7F
100
AcDbEntity
  8
중심선
100
AcDbLine
 10
7.28139805157953
 20
16.24717430164393
 30
0.0
 11
2.750260043222114
 21
10.84717430164391
 31
0.0
  0
LINE
  5
8C
330
7F
100
AcDbEntity
  8
중심선
100
AcDbLine
 10
5.714909304380834
 20
16.24717430164393
 30
0.0
 11
3.58671253028996
 21
13.71088815037384
 31
0.0
  0
LINE
  5
8D
330
7F
100
AcDbEntity
  8
중심선
100
AcDbLine
 10
2.268634060543552
 20
16.24717430164393
 30
0.0
 11
0.1404042013395286
 21
13.71084872107135
 31
0.0
  0
LINE
  5
8E
330
7F
100
AcDbEntity
  8
중심선
100
AcDbLine
 10
7.28139805157953
 20
16.24717430164393
 30
0.0
 11
10.72767329541681
 21
16.24717430164393
 31
0.0
  0
LINE
  5
8F
330
7F
100
AcDbEntity
  8
중심선
100
AcDbLine
 10
12.29416204261559
 20
16.24717430164393
 30
0.0
 11
15.74043728645272
 21
16.24717430164393
 31
0.0
  0
LINE
  5
90
330
7F
100
AcDbEntity
  8
중심선
100
AcDbLine
 10
19.22036997980202
 20
11.08717430171403
 30
0.0
 11
23.66174974927406
 21
11.08717430171406
 31
0.0
  0
LINE
  5
91
330
7F
100
AcDbEntity
  8
중심선
100
AcDbLine
 10
19.22039502424796
 20
13.00717430171391
 30
0.0
 11
19.22036997980202
 21
11.08717430171403
 31
0.0
  0
LINE
  5
92
330
7F
100
AcDbEntity
  8
중심선
100
AcDbLine
 10
19.22039502424796
 20
13.00717430171391
 30
0.0
 11
26.96566020931264
 21
13.00717430171391
 31
0.0
  0
LINE
  5
93
330
7F
100
AcDbEntity
  8
중심선
100
AcDbLine
 10
22.22332737316547
 20
13.45928029700563
 30
0.0
 11
24.52862924686651
 21
15.39360700705356
 31
0.0
  0
ATTDEF
  5
95
330
7F
100
AcDbEntity
  8
FORMAT
 62
     2
100
AcDbText
 10
4.408487351596664
 20
2.075366912832191
 30
0.0
 40
4.233333333333333
  1
E1112016
 41
0.75
  7
SLDTEXTSTYLE0
 11
4.408487351596664
 21
-0.0412997538344756
 31
0.0
100
AcDbAttributeDefinition
  3

  2
AUTOATTR0
 70
     0
 74
     1
  0
ENDBLK
  5
81
330
7F
100
AcDbEntity
  8
0
100
AcDbBlockEnd
  0
BLOCK
  5
CE
330
CD
100
AcDbEntity
  8
0
100
AcDbBlockBegin
  2
_D
 70
     0
 10
0.0
 20
0.0
 30
0.0
  3
_D
  1
_D
  0
LINE
  5
D0
330
CD
100
AcDbEntity
  8
0
  6
Continuous
 62
     0
370
    -2
100
AcDbLine
 10
39.68749999999998
 20
3.237500000000004
 30
0.0
 11
39.68749999999998
 21
8.262384888510832
 31
0.0
  0
LINE
  5
D1
330
CD
100
AcDbEntity
  8
0
  6
Continuous
 62
     0
370
    -2
100
AcDbLine
 10
26.9875
 20
3.122278491685343
 30
0.0
 11
26.9875
 21
8.262384888510832
 31
0.0
  0
LINE
  5
D2
330
CD
100
AcDbEntity
  8
0
  6
Continuous
 62
     0
370
    -2
100
AcDbLine
 10
26.9875
 20
8.262384888510832
 30
0.0
 11
-0.3770000000000024
 21
8.262384888510832
 31
0.0
  0
LINE
  5
D3
330
CD
100
AcDbEntity
  8
0
  6
Continuous
 62
     0
370
    -2
100
AcDbLine
 10
36.38549999999998
 20
8.262384888510832
 30
0.0
 11
30.2895
 21
8.262384888510832
 31
0.0
  0
SOLID
  5
D4
330
CD
100
AcDbEntity
  8
0
 62
     0
100
AcDbTrace
 10
36.38549999999998
 20
7.712051555177498
 30
0.0
 11
36.38549999999998
 21
8.812718221844165
 31
0.0
 12
39.68749999999998
 22
8.262384888510832
 32
0.0
 13
39.68749999999998
 23
8.262384888510832
 33
0.0
  0
SOLID
  5
D5
330
CD
100
AcDbEntity
  8
0
 62
     0
100
AcDbTrace
 10
30.2895
 20
8.812718221844165
 30
0.0
 11
30.2895
 21
7.712051555177498
 31
0.0
 12
26.9875
 22
8.262384888510832
 32
0.0
 13
26.9875
 23
8.262384888510832
 33
0.0
  0
MTEXT
  5
D6
330
CD
100
AcDbEntity
  8
0
 62
     0
370
    15
100
AcDbMText
 10
11.65425
 20
12.63738488851083
 30
0.0
 40
3.5
 41
0.0
 71
     2
 72
     1
  1
\A1;12.70 [1/2]
  7
SLDTEXTSTYLE0
 73
     1
 44
1.0
  0
POINT
  5
D7
330
CD
100
AcDbEntity
  8
Defpoints
 62
     0
100
AcDbPoint
 10
39.68749999999998
 20
3.175000000000004
 30
0.0
  0
POINT
  5
D8
330
CD
100
AcDbEntity
  8
Defpoints
 62
     0
100
AcDbPoint
 10
26.9875
 20
3.059778491685343
 30
0.0
  0
POINT
  5
D9
330
CD
100
AcDbEntity
  8
Defpoints
 62
     0
100
AcDbPoint
 10
26.9875
 20
8.262384888510832
 30
0.0
  0
ENDBLK
  5
CF
330
CD
100
AcDbEntity
  8
0
100
AcDbBlockEnd
  0
BLOCK
  5
E3
330
E2
100
AcDbEntity
  8
0
100
AcDbBlockBegin
  2
_D_1
 70
     0
 10
0.0
 20
0.0
 30
0.0
  3
_D_1
  1
_D_1
  0
LINE
  5
E5
330
E2
100
AcDbEntity
  8
0
  6
Continuous
 62
     0
370
    -2
100
AcDbLine
 10
39.68749999999998
 20
3.237500000000004
 30
0.0
 11
39.68749999999999
 21
29.28797898817498
 31
0.0
  0
LINE
  5
E6
330
E2
100
AcDbEntity
  8
0
  6
Continuous
 62
     0
370
    -2
100
AcDbLine
 10
-39.68749999999999
 20
4.824999999999936
 30
0.0
 11
-39.68749999999998
 21
29.28797898817498
 31
0.0
  0
LINE
  5
E7
330
E2
100
AcDbEntity
  8
0
  6
Continuous
 62
     0
370
    -2
100
AcDbLine
 10
36.38549999999999
 20
29.28797898817498
 30
0.0
 11
-36.38549999999998
 21
29.28797898817498
 31
0.0
  0
SOLID
  5
E8
330
E2
100
AcDbEntity
  8
0
 62
     0
100
AcDbTrace
 10
36.38549999999999
 20
28.73764565484164
 30
0.0
 11
36.38549999999999
 21
29.83831232150831
 31
0.0
 12
39.68749999999999
 22
29.28797898817498
 32
0.0
 13
39.68749999999999
 23
29.28797898817498
 33
0.0
  0
SOLID
  5
E9
330
E2
100
AcDbEntity
  8
0
 62
     0
100
AcDbTrace
 10
-36.38549999999998
 20
29.83831232150831
 30
0.0
 11
-36.38549999999998
 21
28.73764565484164
 31
0.0
 12
-39.68749999999998
 22
29.28797898817498
 32
0.0
 13
-39.68749999999998
 23
29.28797898817498
 33
0.0
  0
MTEXT
  5
EA
330
E2
100
AcDbEntity
  8
0
 62
     0
370
    15
100
AcDbMText
 10
0.3473945869788011
 20
33.66297898817498
 30
0.0
 40
3.5
 41
0.0
 71
     2
 72
     1
  1
\A1;79.38 [3 1/8]
  7
SLDTEXTSTYLE0
 73
     1
 44
1.0
  0
POINT
  5
EB
330
E2
100
AcDbEntity
  8
Defpoints
 62
     0
100
AcDbPoint
 10
39.68749999999998
 20
3.175000000000004
 30
0.0
  0
POINT
  5
EC
330
E2
100
AcDbEntity
  8
Defpoints
 62
     0
100
AcDbPoint
 10
-39.68749999999999
 20
4.762499999999936
 30
0.0
  0
POINT
  5
ED
330
E2
100
AcDbEntity
  8
Defpoints
 62
     0
100
AcDbPoint
 10
-39.68749999999999
 20
29.28797898817498
 30
0.0
  0
ENDBLK
  5
E4
330
E2
100
AcDbEntity
  8
0
100
AcDbBlockEnd
  0
BLOCK
  5
F7
330
F6
100
AcDbEntity
  8
0
100
AcDbBlockBegin
  2
_D_2
 70
     0
 10
0.0
 20
0.0
 30
0.0
  3
_D_2
  1
_D_2
  0
LINE
  5
F9
330
F6
100
AcDbEntity
  8
0
  6
Continuous
 62
     0
370
    -2
100
AcDbLine
 10
-20.1253693429844
 20
4.762500000000004
 30
0.0
 11
-52.30749999999999
 21
4.762499999999883
 31
0.0
  0
LINE
  5
FA
330
F6
100
AcDbEntity
  8
0
  6
Continuous
 62
     0
370
    -2
100
AcDbLine
 10
-20.1253693429844
 20
-4.762500000000002
 30
0.0
 11
-52.30749999999995
 21
-4.762500000000123
 31
0.0
  0
LINE
  5
FB
330
F6
100
AcDbEntity
  8
0
  6
Continuous
 62
     0
370
    -2
100
AcDbLine
 10
-52.30749999999998
 20
1.460499999999883
 30
0.0
 11
-52.30749999999997
 21
-1.460500000000123
 31
0.0
  0
SOLID
  5
FC
330
F6
100
AcDbEntity
  8
0
 62
     0
100
AcDbTrace
 10
-51.75716666666664
 20
1.460499999999885
 30
0.0
 11
-52.85783333333331
 21
1.460499999999881
 31
0.0
 12
-52.30749999999999
 22
4.762499999999883
 32
0.0
 13
-52.30749999999999
 23
4.762499999999883
 33
0.0
  0
SOLID
  5
FD
330
F6
100
AcDbEntity
  8
0
 62
     0
100
AcDbTrace
 10
-52.8578333333333
 20
-1.460500000000125
 30
0.0
 11
-51.75716666666663
 21
-1.460500000000121
 31
0.0
 12
-52.30749999999995
 22
-4.762500000000123
 32
0.0
 13
-52.30749999999995
 23
-4.762500000000123
 33
0.0
  0
MTEXT
  5
FE
330
F6
100
AcDbEntity
  8
0
 62
     0
370
    15
100
AcDbMText
 10
-56.68249999999998
 20
-0.0000000000000102
 30
0.0
 40
3.5
 41
0.0
 71
     2
 72
     1
  1
\A1;%%c9.53 [3/8]
  7
SLDTEXTSTYLE0
 11
-3.729883127349605E-15
 21
1.0
 31
0.0
 73
     1
 44
1.0
  0
POINT
  5
FF
330
F6
100
AcDbEntity
  8
Defpoints
 62
     0
100
AcDbPoint
 10
-20.0628693429844
 20
4.762500000000004
 30
0.0
  0
POINT
  5
100
330
F6
100
AcDbEntity
  8
Defpoints
 62
     0
100
AcDbPoint
 10
-20.0628693429844
 20
-4.762500000000002
 30
0.0
  0
POINT
  5
101
330
F6
100
AcDbEntity
  8
Defpoints
 62
     0
100
AcDbPoint
 10
-52.30749999999996
 20
-4.762500000000123
 30
0.0
  0
ENDBLK
  5
F8
330
F6
100
AcDbEntity
  8
0
100
AcDbBlockEnd
  0
BLOCK
  5
10B
330
10A
100
AcDbEntity
  8
0
100
AcDbBlockBegin
  2
_D_3
 70
     0
 10
0.0
 20
0.0
 30
0.0
  3
_D_3
  1
_D_3
  0
LINE
  5
10D
330
10A
100
AcDbEntity
  8
0
  6
Continuous
 62
     0
370
    -2
100
AcDbLine
 10
39.74999999999998
 20
3.175000000000005
 30
0.0
 11
50.1544020289063
 21
3.175000000000043
 31
0.0
  0
LINE
  5
10E
330
10A
100
AcDbEntity
  8
0
  6
Continuous
 62
     0
370
    -2
100
AcDbLine
 10
39.74999999999999
 20
-3.174999999999995
 30
0.0
 11
50.15440202890632
 21
-3.174999999999958
 31
0.0
  0
LINE
  5
10F
330
10A
100
AcDbEntity
  8
0
  6
Continuous
 62
     0
370
    -2
100
AcDbLine
 10
50.1544020289063
 20
3.175000000000043
 30
0.0
 11
50.15440202890619
 21
35.15400000000005
 31
0.0
  0
LINE
  5
110
330
10A
100
AcDbEntity
  8
0
  6
Continuous
 62
     0
370
    -2
100
AcDbLine
 10
50.15440202890628
 20
6.477000000000043
 30
0.0
 11
50.15440202890627
 21
9.779000000000043
 31
0.0
  0
LINE
  5
111
330
10A
100
AcDbEntity
  8
0
  6
Continuous
 62
     0
370
    -2
100
AcDbLine
 10
50.15440202890633
 20
-6.476999999999958
 30
0.0
 11
50.15440202890635
 21
-9.778999999999957
 31
0.0
  0
SOLID
  5
112
330
10A
100
AcDbEntity
  8
0
 62
     0
100
AcDbTrace
 10
49.60406869557295
 20
6.477000000000041
 30
0.0
 11
50.70473536223962
 21
6.477000000000045
 31
0.0
 12
50.1544020289063
 22
3.175000000000043
 32
0.0
 13
50.1544020289063
 23
3.175000000000043
 33
0.0
  0
SOLID
  5
113
330
10A
100
AcDbEntity
  8
0
 62
     0
100
AcDbTrace
 10
50.70473536223967
 20
-6.476999999999956
 30
0.0
 11
49.604068695573
 21
-6.476999999999959
 31
0.0
 12
50.15440202890632
 22
-3.174999999999958
 32
0.0
 13
50.15440202890632
 23
-3.174999999999958
 33
0.0
  0
MTEXT
  5
114
330
10A
100
AcDbEntity
  8
0
 62
     0
370
    15
100
AcDbMText
 10
45.77940202890623
 20
22.46650000000003
 30
0.0
 40
3.5
 41
0.0
 71
     2
 72
     1
  1
\A1;%%c6.35 [1/4]
  7
SLDTEXTSTYLE0
 11
-3.356894814614647E-15
 21
1.0
 31
0.0
 73
     1
 44
1.0
  0
POINT
  5
115
330
10A
100
AcDbEntity
  8
Defpoints
 62
     0
100
AcDbPoint
 10
39.68749999999998
 20
3.175000000000005
 30
0.0
  0
POINT
  5
116
330
10A
100
AcDbEntity
  8
Defpoints
 62
     0
100
AcDbPoint
 10
39.68749999999999
 20
-3.174999999999995
 30
0.0
  0
POINT
  5
117
330
10A
100
AcDbEntity
  8
Defpoints
 62
     0
100
AcDbPoint
 10
50.15440202890632
 20
-3.174999999999956
 30
0.0
  0
ENDBLK
  5
10C
330
10A
100
AcDbEntity
  8
0
100
AcDbBlockEnd
  0
BLOCK
  5
125
330
124
100
AcDbEntity
  8
0
100
AcDbBlockBegin
  2
SW_DOWELSYMBOL_0
 70
     0
 10
0.0
 20
0.0
 30
0.0
  3
SW_DOWELSYMBOL_0
  1
SW_DOWELSYMBOL_0
  0
CIRCLE
  5
127
330
124
100
AcDbEntity
  8
해칭선
 62
     0
100
AcDbCircle
 10
0.0
 20
0.0
 30
0.0
 40
3.000000000000003
  0
HATCH
  5
128
330
124
100
AcDbEntity
  8
0
  6
Continuous
 62
     0
370
     0
100
AcDbHatch
 10
0.0
 20
0.0
 30
0.0
210
0.0
220
0.0
230
1.0
  2
SOLID
 70
     1
 71
     0
 91
        1
 92
        0
 93
        3
 72
     2
 10
-0.0000000000000087
 20
0.0
 40
3.000000000000003
 50
0.0
 51
90.0
 73
     1
 72
     1
 10
-0.0000000000000087
 20
3.000000000000003
 11
-0.0000000000000087
 21
0.0
 72
     1
 10
-0.0000000000000087
 20
0.0
 11
2.999999999999994
 21
0.0
 97
        0
 75
     0
 76
     1
 98
        1
 10
0.0
 20
0.0
  0
HATCH
  5
129
330
124
100
AcDbEntity
  8
0
  6
Continuous
 62
     0
370
     0
100
AcDbHatch
 10
0.0
 20
0.0
 30
0.0
210
0.0
220
0.0
230
1.0
  2
SOLID
 70
     1
 71
     0
 91
        1
 92
        0
 93
        3
 72
     2
 10
-0.0000000000000087
 20
0.0
 40
3.000000000000003
 50
180.0
 51
270.0000000000007
 73
     1
 72
     1
 10
-0.0000000000000087
 20
-3.000000000000003
 11
-0.0000000000000087
 21
0.0
 72
     1
 10
-0.0000000000000087
 20
0.0
 11
-3.000000000000012
 21
0.0
 97
        0
 75
     0
 76
     1
 98
        1
 10
0.0
 20
0.0
  0
ENDBLK
  5
126
330
124
100
AcDbEntity
  8
0
100
AcDbBlockEnd
  0
BLOCK
  5
209
330
208
100
AcDbEntity
  8
0
100
AcDbBlockBegin
  2
*D7
 70
     1
 10
0.0
 20
0.0
 30
0.0
  3
*D7
  1
*D8
  0
LINE
  5
20B
330
208
100
AcDbEntity
  8
0
  6
Continuous
 62
     0
370
    -2
100
AcDbLine
 10
96.37000000000002
 20
15.884375
 30
0.0
 11
96.37000000000002
 21
25.24892507127612
 31
0.0
  0
LINE
  5
20C
330
208
100
AcDbEntity
  8
0
  6
Continuous
 62
     0
370
    -2
100
AcDbLine
 10
82.08250000000002
 20
15.75475080314603
 30
0.0
 11
82.08250000000002
 21
25.24892507127612
 31
0.0
  0
LINE
  5
20D
330
208
100
AcDbEntity
  8
0
  6
Continuous
 62
     0
370
    -2
100
AcDbLine
 10
82.08250000000002
 20
25.24892507127612
 30
0.0
 11
51.65550000000002
 21
25.24892507127612
 31
0.0
  0
LINE
  5
20E
330
208
100
AcDbEntity
  8
0
  6
Continuous
 62
     0
370
    -2
100
AcDbLine
 10
93.06800000000001
 20
25.24892507127612
 30
0.0
 11
85.38450000000003
 21
25.24892507127612
 31
0.0
  0
SOLID
  5
20F
330
208
100
AcDbEntity
  8
0
 62
     0
100
AcDbTrace
 10
93.06800000000001
 20
24.69859173794278
 30
0.0
 11
93.06800000000001
 21
25.79925840460945
 31
0.0
 12
96.37000000000002
 22
25.24892507127612
 32
0.0
 13
96.37000000000002
 23
25.24892507127612
 33
0.0
  0
SOLID
  5
210
330
208
100
AcDbEntity
  8
0
 62
     0
100
AcDbTrace
 10
85.38450000000003
 20
25.79925840460945
 30
0.0
 11
85.38450000000003
 21
24.69859173794278
 31
0.0
 12
82.08250000000002
 22
25.24892507127612
 32
0.0
 13
82.08250000000002
 23
25.24892507127612
 33
0.0
  0
MTEXT
  5
211
330
208
100
AcDbEntity
  8
0
 62
     0
370
    15
100
AcDbMText
 10
65.21800000000002
 20
29.62392507127612
 30
0.0
 40
3.5
 41
0.0
 71
     2
 72
     1
  1
\A1;14.29 [9/16]
  7
SLDTEXTSTYLE0
 73
     1
 44
1.0
  0
POINT
  5
212
330
208
100
AcDbEntity
  8
Defpoints
 62
     0
100
AcDbPoint
 10
96.37000000000002
 20
15.821875
 30
0.0
  0
POINT
  5
213
330
208
100
AcDbEntity
  8
Defpoints
 62
     0
100
AcDbPoint
 10
82.08250000000002
 20
15.69225080314603
 30
0.0
  0
POINT
  5
214
330
208
100
AcDbEntity
  8
Defpoints
 62
     0
100
AcDbPoint
 10
82.08250000000002
 20
25.24892507127612
 30
0.0
  0
ENDBLK
  5
20A
330
208
100
AcDbEntity
  8
0
100
AcDbBlockEnd
  0
BLOCK
  5
216
330
215
100
AcDbEntity
  8
0
100
AcDbBlockBegin
  2
*D8
 70
     1
 10
0.0
 20
0.0
 30
0.0
  3
*D8
  1
*D9
  0
LINE
  5
218
330
215
100
AcDbEntity
  8
0
  6
Continuous
 62
     0
370
    -2
100
AcDbLine
 10
96.37000000000002
 20
15.884375
 30
0.0
 11
96.37000000000002
 21
41.53797898817498
 31
0.0
  0
LINE
  5
219
330
215
100
AcDbEntity
  8
0
  6
Continuous
 62
     0
370
    -2
100
AcDbLine
 10
16.99500000000003
 20
17.075
 30
0.0
 11
16.99500000000003
 21
41.53797898817498
 31
0.0
  0
LINE
  5
21A
330
215
100
AcDbEntity
  8
0
  6
Continuous
 62
     0
370
    -2
100
AcDbLine
 10
93.06800000000001
 20
41.53797898817498
 30
0.0
 11
20.29700000000003
 21
41.53797898817498
 31
0.0
  0
SOLID
  5
21B
330
215
100
AcDbEntity
  8
0
 62
     0
100
AcDbTrace
 10
93.06800000000001
 20
40.98764565484164
 30
0.0
 11
93.06800000000001
 21
42.08831232150831
 31
0.0
 12
96.37000000000002
 22
41.53797898817498
 32
0.0
 13
96.37000000000002
 23
41.53797898817498
 33
0.0
  0
SOLID
  5
21C
330
215
100
AcDbEntity
  8
0
 62
     0
100
AcDbTrace
 10
20.29700000000003
 20
42.08831232150831
 30
0.0
 11
20.29700000000003
 21
40.98764565484164
 31
0.0
 12
16.99500000000003
 22
41.53797898817498
 32
0.0
 13
16.99500000000003
 23
41.53797898817498
 33
0.0
  0
MTEXT
  5
21D
330
215
100
AcDbEntity
  8
0
 62
     0
370
    15
100
AcDbMText
 10
57.02989458697882
 20
45.91297898817498
 30
0.0
 40
3.5
 41
0.0
 71
     2
 72
     1
  1
\A1;79.38 [3 1/8]
  7
SLDTEXTSTYLE0
 73
     1
 44
1.0
  0
POINT
  5
21E
330
215
100
AcDbEntity
  8
Defpoints
 62
     0
100
AcDbPoint
 10
96.37000000000002
 20
15.821875
 30
0.0
  0
POINT
  5
21F
330
215
100
AcDbEntity
  8
Defpoints
 62
     0
100
AcDbPoint
 10
16.99500000000003
 20
17.0125
 30
0.0
  0
POINT
  5
220
330
215
100
AcDbEntity
  8
Defpoints
 62
     0
100
AcDbPoint
 10
16.99500000000003
 20
41.53797898817498
 30
0.0
  0
ENDBLK
  5
217
330
215
100
AcDbEntity
  8
0
100
AcDbBlockEnd
  0
BLOCK
  5
222
330
221
100
AcDbEntity
  8
0
100
AcDbBlockBegin
  2
*D9
 70
     1
 10
0.0
 20
0.0
 30
0.0
  3
*D9
  1
*D10
  0
LINE
  5
224
330
221
100
AcDbEntity
  8
0
  6
Continuous
 62
     0
370
    -2
100
AcDbLine
 10
36.6634729927617
 20
17.0125
 30
0.0
 11
4.375000000000027
 21
17.01249999999987
 31
0.0
  0
LINE
  5
225
330
221
100
AcDbEntity
  8
0
  6
Continuous
 62
     0
370
    -2
100
AcDbLine
 10
36.6634729927617
 20
7.487499999999989
 30
0.0
 11
4.37500000000006
 21
7.487499999999868
 31
0.0
  0
LINE
  5
226
330
221
100
AcDbEntity
  8
0
  6
Continuous
 62
     0
370
    -2
100
AcDbLine
 10
4.375000000000038
 20
13.71049999999988
 30
0.0
 11
4.375000000000048
 21
10.78949999999987
 31
0.0
  0
SOLID
  5
227
330
221
100
AcDbEntity
  8
0
 62
     0
100
AcDbTrace
 10
4.925333333333372
 20
13.71049999999988
 30
0.0
 11
3.824666666666705
 21
13.71049999999987
 31
0.0
 12
4.375000000000027
 22
17.01249999999987
 32
0.0
 13
4.375000000000027
 23
17.01249999999987
 33
0.0
  0
SOLID
  5
228
330
221
100
AcDbEntity
  8
0
 62
     0
100
AcDbTrace
 10
3.824666666666715
 20
10.78949999999987
 30
0.0
 11
4.925333333333382
 21
10.78949999999987
 31
0.0
 12
4.37500000000006
 22
7.487499999999868
 32
0.0
 13
4.37500000000006
 23
7.487499999999868
 33
0.0
  0
MTEXT
  5
229
330
221
100
AcDbEntity
  8
0
 62
     0
370
    15
100
AcDbMText
 10
0.0000000000000426
 20
12.24999999999999
 30
0.0
 40
3.5
 41
0.0
 71
     2
 72
     1
  1
\A1;%%c9.53 [3/8]
  7
SLDTEXTSTYLE0
 11
-3.450141892798385E-15
 21
1.0
 31
0.0
 73
     1
 44
1.0
  0
POINT
  5
22A
330
221
100
AcDbEntity
  8
Defpoints
 62
     0
100
AcDbPoint
 10
36.7259729927617
 20
17.0125
 30
0.0
  0
POINT
  5
22B
330
221
100
AcDbEntity
  8
Defpoints
 62
     0
100
AcDbPoint
 10
36.7259729927617
 20
7.487499999999989
 30
0.0
  0
POINT
  5
22C
330
221
100
AcDbEntity
  8
Defpoints
 62
     0
100
AcDbPoint
 10
4.375000000000064
 20
7.487499999999868
 30
0.0
  0
ENDBLK
  5
223
330
221
100
AcDbEntity
  8
0
100
AcDbBlockEnd
  0
BLOCK
  5
22E
330
22D
100
AcDbEntity
  8
0
100
AcDbBlockBegin
  2
*D10
 70
     1
 10
0.0
 20
0.0
 30
0.0
  3
*D10
  1
*D11
  0
LINE
  5
230
330
22D
100
AcDbEntity
  8
0
  6
Continuous
 62
     0
370
    -2
100
AcDbLine
 10
96.43249999999999
 20
15.821875
 30
0.0
 11
104.2677732298976
 21
15.82187500000003
 31
0.0
  0
LINE
  5
231
330
22D
100
AcDbEntity
  8
0
  6
Continuous
 62
     0
370
    -2
100
AcDbLine
 10
96.43250000000002
 20
8.678125000000003
 30
0.0
 11
104.2677732298976
 21
8.67812500000003
 31
0.0
  0
LINE
  5
232
330
22D
100
AcDbEntity
  8
0
  6
Continuous
 62
     0
370
    -2
100
AcDbLine
 10
104.2677732298976
 20
15.82187500000003
 30
0.0
 11
104.2677732298975
 21
50.42587500000003
 31
0.0
  0
LINE
  5
233
330
22D
100
AcDbEntity
  8
0
  6
Continuous
 62
     0
370
    -2
100
AcDbLine
 10
104.2677732298976
 20
19.12387500000003
 30
0.0
 11
104.2677732298976
 21
22.42587500000003
 31
0.0
  0
LINE
  5
234
330
22D
100
AcDbEntity
  8
0
  6
Continuous
 62
     0
370
    -2
100
AcDbLine
 10
104.2677732298977
 20
5.37612500000003
 30
0.0
 11
104.2677732298977
 21
2.074125000000031
 31
0.0
  0
SOLID
  5
235
330
22D
100
AcDbEntity
  8
0
 62
     0
100
AcDbTrace
 10
103.7174398965643
 20
19.12387500000003
 30
0.0
 11
104.8181065632309
 21
19.12387500000003
 31
0.0
 12
104.2677732298976
 22
15.82187500000003
 32
0.0
 13
104.2677732298976
 23
15.82187500000003
 33
0.0
  0
SOLID
  5
236
330
22D
100
AcDbEntity
  8
0
 62
     0
100
AcDbTrace
 10
104.818106563231
 20
5.376125000000032
 30
0.0
 11
103.7174398965643
 21
5.376125000000028
 31
0.0
 12
104.2677732298976
 22
8.67812500000003
 32
0.0
 13
104.2677732298976
 23
8.67812500000003
 33
0.0
  0
MTEXT
  5
237
330
22D
100
AcDbEntity
  8
0
 62
     0
370
    15
100
AcDbMText
 10
99.89277322989753
 20
36.42587500000002
 30
0.0
 40
3.5
 41
0.0
 71
     2
 72
     1
  1
\A1;%%c7.14 [9/32]
  7
SLDTEXTSTYLE0
 11
-3.978542002506250E-15
 21
1.0
 31
0.0
 73
     1
 44
1.0
  0
POINT
  5
238
330
22D
100
AcDbEntity
  8
Defpoints
 62
     0
100
AcDbPoint
 10
96.36999999999999
 20
15.821875
 30
0.0
  0
POINT
  5
239
330
22D
100
AcDbEntity
  8
Defpoints
 62
     0
100
AcDbPoint
 10
96.37000000000002
 20
8.678125000000003
 30
0.0
  0
POINT
  5
23A
330
22D
100
AcDbEntity
  8
Defpoints
 62
     0
100
AcDbPoint
 10
104.2677732298976
 20
8.678125000000033
 30
0.0
  0
ENDBLK
  5
22F
330
22D
100
AcDbEntity
  8
0
100
AcDbBlockEnd
  0
BLOCK
  5
290
330
28F
100
AcDbEntity
  8
0
100
AcDbBlockBegin
  2
*D11
 70
     1
 10
0.0
 20
0.0
 30
0.0
  3
*D11
  1
*D12
  0
LINE
  5
292
330
28F
100
AcDbEntity
  8
0
  6
Continuous
 62
     0
370
    -2
100
AcDbLine
 10
163.1615220911263
 20
-33.6082028395123
 30
0.0
 11
163.1615220911263
 21
-24.24365276823619
 31
0.0
  0
LINE
  5
293
330
28F
100
AcDbEntity
  8
0
  6
Continuous
 62
     0
370
    -2
100
AcDbLine
 10
148.8740220911263
 20
-33.73782703636628
 30
0.0
 11
148.8740220911263
 21
-24.24365276823619
 31
0.0
  0
LINE
  5
294
330
28F
100
AcDbEntity
  8
0
  6
Continuous
 62
     0
370
    -2
100
AcDbLine
 10
148.8740220911263
 20
-24.24365276823619
 30
0.0
 11
118.4470220911263
 21
-24.24365276823619
 31
0.0
  0
LINE
  5
295
330
28F
100
AcDbEntity
  8
0
  6
Continuous
 62
     0
370
    -2
100
AcDbLine
 10
159.8595220911263
 20
-24.24365276823619
 30
0.0
 11
152.1760220911263
 21
-24.24365276823619
 31
0.0
  0
SOLID
  5
296
330
28F
100
AcDbEntity
  8
0
 62
     0
100
AcDbTrace
 10
159.8595220911263
 20
-24.79398610156953
 30
0.0
 11
159.8595220911263
 21
-23.69331943490286
 31
0.0
 12
163.1615220911263
 22
-24.24365276823619
 32
0.0
 13
163.1615220911263
 23
-24.24365276823619
 33
0.0
  0
SOLID
  5
297
330
28F
100
AcDbEntity
  8
0
 62
     0
100
AcDbTrace
 10
152.1760220911263
 20
-23.69331943490286
 30
0.0
 11
152.1760220911263
 21
-24.79398610156953
 31
0.0
 12
148.8740220911263
 22
-24.24365276823619
 32
0.0
 13
148.8740220911263
 23
-24.24365276823619
 33
0.0
  0
MTEXT
  5
298
330
28F
100
AcDbEntity
  8
0
 62
     0
370
    15
100
AcDbMText
 10
132.0095220911263
 20
-19.86865276823619
 30
0.0
 40
3.5
 41
0.0
 71
     2
 72
     1
  1
\A1;14.29 [9/16]
  7
SLDTEXTSTYLE0
 73
     1
 44
1.0
  0
POINT
  5
299
330
28F
100
AcDbEntity
  8
Defpoints
 62
     0
100
AcDbPoint
 10
163.1615220911263
 20
-33.6707028395123
 30
0.0
  0
POINT
  5
29A
330
28F
100
AcDbEntity
  8
Defpoints
 62
     0
100
AcDbPoint
 10
148.8740220911263
 20
-33.80032703636628
 30
0.0
  0
POINT
  5
29B
330
28F
100
AcDbEntity
  8
Defpoints
 62
     0
100
AcDbPoint
 10
148.8740220911263
 20
-24.24365276823619
 30
0.0
  0
ENDBLK
  5
291
330
28F
100
AcDbEntity
  8
0
100
AcDbBlockEnd
  0
BLOCK
  5
29D
330
29C
100
AcDbEntity
  8
0
100
AcDbBlockBegin
  2
*D12
 70
     1
 10
0.0
 20
0.0
 30
0.0
  3
*D12
  1
*D13
  0
LINE
  5
29F
330
29C
100
AcDbEntity
  8
0
  6
Continuous
 62
     0
370
    -2
100
AcDbLine
 10
163.1615220911263
 20
-33.6082028395123
 30
0.0
 11
163.1615220911263
 21
-7.95459885133733
 31
0.0
  0
LINE
  5
2A0
330
29C
100
AcDbEntity
  8
0
  6
Continuous
 62
     0
370
    -2
100
AcDbLine
 10
83.78652209112629
 20
-32.4175778395123
 30
0.0
 11
83.78652209112629
 21
-7.95459885133733
 31
0.0
  0
LINE
  5
2A1
330
29C
100
AcDbEntity
  8
0
  6
Continuous
 62
     0
370
    -2
100
AcDbLine
 10
159.8595220911263
 20
-7.95459885133733
 30
0.0
 11
87.0885220911263
 21
-7.95459885133733
 31
0.0
  0
SOLID
  5
2A2
330
29C
100
AcDbEntity
  8
0
 62
     0
100
AcDbTrace
 10
159.8595220911263
 20
-8.504932184670663
 30
0.0
 11
159.8595220911263
 21
-7.404265518003997
 31
0.0
 12
163.1615220911263
 22
-7.95459885133733
 32
0.0
 13
163.1615220911263
 23
-7.95459885133733
 33
0.0
  0
SOLID
  5
2A3
330
29C
100
AcDbEntity
  8
0
 62
     0
100
AcDbTrace
 10
87.0885220911263
 20
-7.404265518003997
 30
0.0
 11
87.0885220911263
 21
-8.504932184670663
 31
0.0
 12
83.78652209112629
 22
-7.95459885133733
 32
0.0
 13
83.78652209112629
 23
-7.95459885133733
 33
0.0
  0
MTEXT
  5
2A4
330
29C
100
AcDbEntity
  8
0
 62
     0
370
    15
100
AcDbMText
 10
123.8214166781051
 20
-3.57959885133733
 30
0.0
 40
3.5
 41
0.0
 71
     2
 72
     1
  1
\A1;79.38 [3 1/8]
  7
SLDTEXTSTYLE0
 73
     1
 44
1.0
  0
POINT
  5
2A5
330
29C
100
AcDbEntity
  8
Defpoints
 62
     0
100
AcDbPoint
 10
163.1615220911263
 20
-33.6707028395123
 30
0.0
  0
POINT
  5
2A6
330
29C
100
AcDbEntity
  8
Defpoints
 62
     0
100
AcDbPoint
 10
83.78652209112629
 20
-32.4800778395123
 30
0.0
  0
POINT
  5
2A7
330
29C
100
AcDbEntity
  8
Defpoints
 62
     0
100
AcDbPoint
 10
83.78652209112629
 20
-7.95459885133733
 30
0.0
  0
ENDBLK
  5
29E
330
29C
100
AcDbEntity
  8
0
100
AcDbBlockEnd
  0
BLOCK
  5
2A9
330
2A8
100
AcDbEntity
  8
0
100
AcDbBlockBegin
  2
*D13
 70
     1
 10
0.0
 20
0.0
 30
0.0
  3
*D13
  1
*D14
  0
LINE
  5
2AB
330
2A8
100
AcDbEntity
  8
0
  6
Continuous
 62
     0
370
    -2
100
AcDbLine
 10
103.454995083888
 20
-32.48007783951231
 30
0.0
 11
71.16652209112628
 21
-32.48007783951243
 31
0.0
  0
LINE
  5
2AC
330
2A8
100
AcDbEntity
  8
0
  6
Continuous
 62
     0
370
    -2
100
AcDbLine
 10
103.454995083888
 20
-42.00507783951232
 30
0.0
 11
71.16652209112631
 21
-42.00507783951244
 31
0.0
  0
LINE
  5
2AD
330
2A8
100
AcDbEntity
  8
0
  6
Continuous
 62
     0
370
    -2
100
AcDbLine
 10
71.1665220911263
 20
-35.78207783951243
 30
0.0
 11
71.1665220911263
 21
-38.70307783951244
 31
0.0
  0
SOLID
  5
2AE
330
2A8
100
AcDbEntity
  8
0
 62
     0
100
AcDbTrace
 10
71.71685542445962
 20
-35.78207783951243
 30
0.0
 11
70.61618875779297
 21
-35.78207783951243
 31
0.0
 12
71.16652209112628
 22
-32.48007783951243
 32
0.0
 13
71.16652209112628
 23
-32.48007783951243
 33
0.0
  0
SOLID
  5
2AF
330
2A8
100
AcDbEntity
  8
0
 62
     0
100
AcDbTrace
 10
70.61618875779297
 20
-38.70307783951244
 30
0.0
 11
71.71685542445962
 21
-38.70307783951244
 31
0.0
 12
71.16652209112631
 22
-42.00507783951244
 32
0.0
 13
71.16652209112631
 23
-42.00507783951244
 33
0.0
  0
MTEXT
  5
2B0
330
2A8
100
AcDbEntity
  8
0
 62
     0
370
    15
100
AcDbMText
 10
66.7915220911263
 20
-37.24257783951232
 30
0.0
 40
3.5
 41
0.0
 71
     2
 72
     1
  1
\A1;%%c9.53 [3/8]
  7
SLDTEXTSTYLE0
 11
-2.983906501879684E-15
 21
1.0
 31
0.0
 73
     1
 44
1.0
  0
POINT
  5
2B1
330
2A8
100
AcDbEntity
  8
Defpoints
 62
     0
100
AcDbPoint
 10
103.517495083888
 20
-32.48007783951231
 30
0.0
  0
POINT
  5
2B2
330
2A8
100
AcDbEntity
  8
Defpoints
 62
     0
100
AcDbPoint
 10
103.517495083888
 20
-42.00507783951232
 30
0.0
  0
POINT
  5
2B3
330
2A8
100
AcDbEntity
  8
Defpoints
 62
     0
100
AcDbPoint
 10
71.16652209112631
 20
-42.00507783951244
 30
0.0
  0
ENDBLK
  5
2AA
330
2A8
100
AcDbEntity
  8
0
100
AcDbBlockEnd
  0
BLOCK
  5
2B5
330
2B4
100
AcDbEntity
  8
0
100
AcDbBlockBegin
  2
*D14
 70
     1
 10
0.0
 20
0.0
 30
0.0
  3
*D14
  1
*D15
  0
LINE
  5
2B7
330
2B4
100
AcDbEntity
  8
0
  6
Continuous
 62
     0
370
    -2
100
AcDbLine
 10
163.2240220911262
 20
-33.6707028395123
 30
0.0
 11
171.0592953210239
 21
-33.67070283951227
 31
0.0
  0
LINE
  5
2B8
330
2B4
100
AcDbEntity
  8
0
  6
Continuous
 62
     0
370
    -2
100
AcDbLine
 10
163.2240220911263
 20
-40.81445283951231
 30
0.0
 11
171.0592953210239
 21
-40.81445283951228
 31
0.0
  0
LINE
  5
2B9
330
2B4
100
AcDbEntity
  8
0
  6
Continuous
 62
     0
370
    -2
100
AcDbLine
 10
171.0592953210239
 20
-33.67070283951227
 30
0.0
 11
171.0592953210237
 21
0.9332971604877258
 31
0.0
  0
LINE
  5
2BA
330
2B4
100
AcDbEntity
  8
0
  6
Continuous
 62
     0
370
    -2
100
AcDbLine
 10
171.0592953210239
 20
-30.36870283951227
 30
0.0
 11
171.0592953210239
 21
-27.06670283951227
 31
0.0
  0
LINE
  5
2BB
330
2B4
100
AcDbEntity
  8
0
  6
Continuous
 62
     0
370
    -2
100
AcDbLine
 10
171.0592953210239
 20
-44.11645283951228
 30
0.0
 11
171.0592953210239
 21
-47.41845283951228
 31
0.0
  0
SOLID
  5
2BC
330
2B4
100
AcDbEntity
  8
0
 62
     0
100
AcDbTrace
 10
170.5089619876906
 20
-30.36870283951228
 30
0.0
 11
171.6096286543572
 21
-30.36870283951227
 31
0.0
 12
171.0592953210239
 22
-33.67070283951227
 32
0.0
 13
171.0592953210239
 23
-33.67070283951227
 33
0.0
  0
SOLID
  5
2BD
330
2B4
100
AcDbEntity
  8
0
 62
     0
100
AcDbTrace
 10
171.6096286543572
 20
-44.11645283951228
 30
0.0
 11
170.5089619876906
 21
-44.11645283951228
 31
0.0
 12
171.0592953210239
 22
-40.81445283951228
 32
0.0
 13
171.0592953210239
 23
-40.81445283951228
 33
0.0
  0
MTEXT
  5
2BE
330
2B4
100
AcDbEntity
  8
0
 62
     0
370
    15
100
AcDbMText
 10
166.6842953210238
 20
-13.06670283951229
 30
0.0
 40
3.5
 41
0.0
 71
     2
 72
     1
  1
\A1;%%c7.14 [9/32]
  7
SLDTEXTSTYLE0
 11
-3.978542002506246E-15
 21
1.0
 31
0.0
 73
     1
 44
1.0
  0
POINT
  5
2BF
330
2B4
100
AcDbEntity
  8
Defpoints
 62
     0
100
AcDbPoint
 10
163.1615220911262
 20
-33.6707028395123
 30
0.0
  0
POINT
  5
2C0
330
2B4
100
AcDbEntity
  8
Defpoints
 62
     0
100
AcDbPoint
 10
163.1615220911263
 20
-40.81445283951231
 30
0.0
  0
POINT
  5
2C1
330
2B4
100
AcDbEntity
  8
Defpoints
 62
     0
100
AcDbPoint
 10
171.0592953210239
 20
-40.81445283951228
 30
0.0
  0
ENDBLK
  5
2B6
330
2B4
100
AcDbEntity
  8
0
100
AcDbBlockEnd
  0
BLOCK
  5
356
330
355
100
AcDbEntity
  8
0
100
AcDbBlockBegin
  2
*D15
 70
     1
 10
0.0
 20
0.0
 30
0.0
  3
*D15
  1
*D17
  0
LINE
  5
358
330
355
100
AcDbEntity
  8
0
  6
Continuous
 62
     0
370
    -2
100
AcDbLine
 10
96.36999999999998
 20
15.48750000000001
 30
0.0
 11
96.36999999999998
 21
20.51238488851084
 31
0.0
  0
LINE
  5
359
330
355
100
AcDbEntity
  8
0
  6
Continuous
 62
     0
370
    -2
100
AcDbLine
 10
83.67
 20
15.37227849168535
 30
0.0
 11
83.67
 21
20.51238488851084
 31
0.0
  0
LINE
  5
35A
330
355
100
AcDbEntity
  8
0
  6
Continuous
 62
     0
370
    -2
100
AcDbLine
 10
83.67
 20
20.51238488851084
 30
0.0
 11
56.30549999999999
 21
20.51238488851084
 31
0.0
  0
LINE
  5
35B
330
355
100
AcDbEntity
  8
0
  6
Continuous
 62
     0
370
    -2
100
AcDbLine
 10
93.06799999999998
 20
20.51238488851084
 30
0.0
 11
86.97200000000001
 21
20.51238488851084
 31
0.0
  0
SOLID
  5
35C
330
355
100
AcDbEntity
  8
0
 62
     0
100
AcDbTrace
 10
93.06799999999998
 20
19.96205155517751
 30
0.0
 11
93.06799999999998
 21
21.06271822184418
 31
0.0
 12
96.36999999999998
 22
20.51238488851084
 32
0.0
 13
96.36999999999998
 23
20.51238488851084
 33
0.0
  0
SOLID
  5
35D
330
355
100
AcDbEntity
  8
0
 62
     0
100
AcDbTrace
 10
86.97200000000001
 20
21.06271822184418
 30
0.0
 11
86.97200000000001
 21
19.96205155517751
 31
0.0
 12
83.67
 22
20.51238488851084
 32
0.0
 13
83.67
 23
20.51238488851084
 33
0.0
  0
MTEXT
  5
35E
330
355
100
AcDbEntity
  8
0
 62
     0
370
    15
100
AcDbMText
 10
68.33675
 20
24.88738488851084
 30
0.0
 40
3.5
 41
0.0
 71
     2
 72
     1
  1
\A1;12.70 [1/2]
  7
SLDTEXTSTYLE0
 73
     1
 44
1.0
  0
POINT
  5
35F
330
355
100
AcDbEntity
  8
Defpoints
 62
     0
100
AcDbPoint
 10
96.36999999999998
 20
15.42500000000001
 30
0.0
  0
POINT
  5
360
330
355
100
AcDbEntity
  8
Defpoints
 62
     0
100
AcDbPoint
 10
83.67
 20
15.30977849168535
 30
0.0
  0
POINT
  5
361
330
355
100
AcDbEntity
  8
Defpoints
 62
     0
100
AcDbPoint
 10
83.67
 20
20.51238488851084
 30
0.0
  0
ENDBLK
  5
357
330
355
100
AcDbEntity
  8
0
100
AcDbBlockEnd
  0
BLOCK
  5
363
330
362
100
AcDbEntity
  8
0
100
AcDbBlockBegin
  2
*D16
 70
     1
 10
0.0
 20
0.0
 30
0.0
  3
*D16
  1
*D18
  0
LINE
  5
365
330
362
100
AcDbEntity
  8
0
  6
Continuous
 62
     0
370
    -2
100
AcDbLine
 10
96.36999999999998
 20
15.48750000000001
 30
0.0
 11
96.36999999999998
 21
41.53797898817498
 31
0.0
  0
LINE
  5
366
330
362
100
AcDbEntity
  8
0
  6
Continuous
 62
     0
370
    -2
100
AcDbLine
 10
16.99500000000002
 20
16.26500000000001
 30
0.0
 11
16.99500000000002
 21
41.53797898817498
 31
0.0
  0
LINE
  5
367
330
362
100
AcDbEntity
  8
0
  6
Continuous
 62
     0
370
    -2
100
AcDbLine
 10
93.06799999999998
 20
41.53797898817498
 30
0.0
 11
20.29700000000002
 21
41.53797898817498
 31
0.0
  0
SOLID
  5
368
330
362
100
AcDbEntity
  8
0
 62
     0
100
AcDbTrace
 10
93.06799999999998
 20
40.98764565484165
 30
0.0
 11
93.06799999999998
 21
42.08831232150832
 31
0.0
 12
96.36999999999998
 22
41.53797898817498
 32
0.0
 13
96.36999999999998
 23
41.53797898817498
 33
0.0
  0
SOLID
  5
369
330
362
100
AcDbEntity
  8
0
 62
     0
100
AcDbTrace
 10
20.29700000000002
 20
42.08831232150832
 30
0.0
 11
20.29700000000002
 21
40.98764565484165
 31
0.0
 12
16.99500000000002
 22
41.53797898817498
 32
0.0
 13
16.99500000000002
 23
41.53797898817498
 33
0.0
  0
MTEXT
  5
36A
330
362
100
AcDbEntity
  8
0
 62
     0
370
    15
100
AcDbMText
 10
57.02989458697881
 20
45.91297898817498
 30
0.0
 40
3.5
 41
0.0
 71
     2
 72
     1
  1
\A1;79.38 [3 1/8]
  7
SLDTEXTSTYLE0
 73
     1
 44
1.0
  0
POINT
  5
36B
330
362
100
AcDbEntity
  8
Defpoints
 62
     0
100
AcDbPoint
 10
96.36999999999998
 20
15.42500000000001
 30
0.0
  0
POINT
  5
36C
330
362
100
AcDbEntity
  8
Defpoints
 62
     0
100
AcDbPoint
 10
16.99500000000002
 20
16.20250000000001
 30
0.0
  0
POINT
  5
36D
330
362
100
AcDbEntity
  8
Defpoints
 62
     0
100
AcDbPoint
 10
16.99500000000002
 20
41.53797898817498
 30
0.0
  0
ENDBLK
  5
364
330
362
100
AcDbEntity
  8
0
100
AcDbBlockEnd
  0
BLOCK
  5
36F
330
36E
100
AcDbEntity
  8
0
100
AcDbBlockBegin
  2
*D17
 70
     1
 10
0.0
 20
0.0
 30
0.0
  3
*D17
  1
*D19
  0
LINE
  5
371
330
36E
100
AcDbEntity
  8
0
  6
Continuous
 62
     0
370
    -2
100
AcDbLine
 10
17.74250000000001
 20
17.01250000000002
 30
0.0
 11
4.375000000000012
 21
17.01249999999997
 31
0.0
  0
LINE
  5
372
330
36E
100
AcDbEntity
  8
0
  6
Continuous
 62
     0
370
    -2
100
AcDbLine
 10
17.74250000000001
 20
7.48750000000001
 30
0.0
 11
4.375000000000045
 21
7.48749999999996
 31
0.0
  0
LINE
  5
373
330
36E
100
AcDbEntity
  8
0
  6
Continuous
 62
     0
370
    -2
100
AcDbLine
 10
4.375000000000024
 20
13.71049999999997
 30
0.0
 11
4.375000000000034
 21
10.78949999999996
 31
0.0
  0
SOLID
  5
374
330
36E
100
AcDbEntity
  8
0
 62
     0
100
AcDbTrace
 10
4.925333333333358
 20
13.71049999999997
 30
0.0
 11
3.824666666666691
 21
13.71049999999997
 31
0.0
 12
4.375000000000012
 22
17.01249999999997
 32
0.0
 13
4.375000000000012
 23
17.01249999999997
 33
0.0
  0
SOLID
  5
375
330
36E
100
AcDbEntity
  8
0
 62
     0
100
AcDbTrace
 10
3.824666666666701
 20
10.78949999999996
 30
0.0
 11
4.925333333333367
 21
10.78949999999996
 31
0.0
 12
4.375000000000045
 22
7.48749999999996
 32
0.0
 13
4.375000000000045
 23
7.48749999999996
 33
0.0
  0
MTEXT
  5
376
330
36E
100
AcDbEntity
  8
0
 62
     0
370
    15
100
AcDbMText
 10
0.0000000000000284
 20
12.25
 30
0.0
 40
3.5
 41
0.0
 71
     2
 72
     1
  1
\A1;%%c9.53 [3/8]
  7
SLDTEXTSTYLE0
 11
-3.450141892798384E-15
 21
1.0
 31
0.0
 73
     1
 44
1.0
  0
POINT
  5
377
330
36E
100
AcDbEntity
  8
Defpoints
 62
     0
100
AcDbPoint
 10
17.80500000000001
 20
17.01250000000002
 30
0.0
  0
POINT
  5
378
330
36E
100
AcDbEntity
  8
Defpoints
 62
     0
100
AcDbPoint
 10
17.80500000000001
 20
7.48750000000001
 30
0.0
  0
POINT
  5
379
330
36E
100
AcDbEntity
  8
Defpoints
 62
     0
100
AcDbPoint
 10
4.375000000000043
 20
7.48749999999996
 30
0.0
  0
ENDBLK
  5
370
330
36E
100
AcDbEntity
  8
0
100
AcDbBlockEnd
  0
BLOCK
  5
37B
330
37A
100
AcDbEntity
  8
0
100
AcDbBlockBegin
  2
*D18
 70
     1
 10
0.0
 20
0.0
 30
0.0
  3
*D18
  1
*D20
  0
LINE
  5
37D
330
37A
100
AcDbEntity
  8
0
  6
Continuous
 62
     0
370
    -2
100
AcDbLine
 10
96.43249999999998
 20
15.42500000000001
 30
0.0
 11
106.8369020289063
 21
15.42500000000005
 31
0.0
  0
LINE
  5
37E
330
37A
100
AcDbEntity
  8
0
  6
Continuous
 62
     0
370
    -2
100
AcDbLine
 10
96.43249999999999
 20
9.075000000000014
 30
0.0
 11
106.8369020289064
 21
9.075000000000053
 31
0.0
  0
LINE
  5
37F
330
37A
100
AcDbEntity
  8
0
  6
Continuous
 62
     0
370
    -2
100
AcDbLine
 10
106.8369020289063
 20
15.42500000000005
 30
0.0
 11
106.8369020289062
 21
47.40400000000005
 31
0.0
  0
LINE
  5
380
330
37A
100
AcDbEntity
  8
0
  6
Continuous
 62
     0
370
    -2
100
AcDbLine
 10
106.8369020289063
 20
18.72700000000005
 30
0.0
 11
106.8369020289063
 21
22.02900000000005
 31
0.0
  0
LINE
  5
381
330
37A
100
AcDbEntity
  8
0
  6
Continuous
 62
     0
370
    -2
100
AcDbLine
 10
106.8369020289064
 20
5.773000000000053
 30
0.0
 11
106.8369020289064
 21
2.471000000000053
 31
0.0
  0
SOLID
  5
382
330
37A
100
AcDbEntity
  8
0
 62
     0
100
AcDbTrace
 10
106.286568695573
 20
18.72700000000005
 30
0.0
 11
107.3872353622396
 21
18.72700000000006
 31
0.0
 12
106.8369020289063
 22
15.42500000000005
 32
0.0
 13
106.8369020289063
 23
15.42500000000005
 33
0.0
  0
SOLID
  5
383
330
37A
100
AcDbEntity
  8
0
 62
     0
100
AcDbTrace
 10
107.3872353622397
 20
5.773000000000056
 30
0.0
 11
106.286568695573
 21
5.77300000000005
 31
0.0
 12
106.8369020289064
 22
9.075000000000053
 32
0.0
 13
106.8369020289064
 23
9.075000000000053
 33
0.0
  0
MTEXT
  5
384
330
37A
100
AcDbEntity
  8
0
 62
     0
370
    15
100
AcDbMText
 10
102.4619020289062
 20
34.71650000000003
 30
0.0
 40
3.5
 41
0.0
 71
     2
 72
     1
  1
\A1;%%c6.35 [1/4]
  7
SLDTEXTSTYLE0
 11
-4.475859752819528E-15
 21
1.0
 31
0.0
 73
     1
 44
1.0
  0
POINT
  5
385
330
37A
100
AcDbEntity
  8
Defpoints
 62
     0
100
AcDbPoint
 10
96.36999999999998
 20
15.42500000000001
 30
0.0
  0
POINT
  5
386
330
37A
100
AcDbEntity
  8
Defpoints
 62
     0
100
AcDbPoint
 10
96.36999999999999
 20
9.075000000000014
 30
0.0
  0
POINT
  5
387
330
37A
100
AcDbEntity
  8
Defpoints
 62
     0
100
AcDbPoint
 10
106.8369020289063
 20
9.075000000000053
 30
0.0
  0
ENDBLK
  5
37C
330
37A
100
AcDbEntity
  8
0
100
AcDbBlockEnd
  0
BLOCK
  5
3B6
330
3B5
100
AcDbEntity
  8
0
100
AcDbBlockBegin
  2
*D19
 70
     1
 10
0.0
 20
0.0
 30
0.0
  3
*D19
  1
*D21
  0
LINE
  5
3B8
330
3B5
100
AcDbEntity
  8
0
  6
Continuous
 62
     0
370
    -2
100
AcDbLine
 10
160.6217990742127
 20
39.31278675167526
 30
0.0
 11
160.6217990742127
 21
44.33767164018609
 31
0.0
  0
LINE
  5
3B9
330
3B5
100
AcDbEntity
  8
0
  6
Continuous
 62
     0
370
    -2
100
AcDbLine
 10
147.9217990742127
 20
39.1975652433606
 30
0.0
 11
147.9217990742127
 21
44.33767164018609
 31
0.0
  0
LINE
  5
3BA
330
3B5
100
AcDbEntity
  8
0
  6
Continuous
 62
     0
370
    -2
100
AcDbLine
 10
147.9217990742127
 20
44.33767164018609
 30
0.0
 11
120.5572990742127
 21
44.33767164018609
 31
0.0
  0
LINE
  5
3BB
330
3B5
100
AcDbEntity
  8
0
  6
Continuous
 62
     0
370
    -2
100
AcDbLine
 10
157.3197990742127
 20
44.33767164018609
 30
0.0
 11
151.2237990742127
 21
44.33767164018609
 31
0.0
  0
SOLID
  5
3BC
330
3B5
100
AcDbEntity
  8
0
 62
     0
100
AcDbTrace
 10
157.3197990742127
 20
43.78733830685275
 30
0.0
 11
157.3197990742127
 21
44.88800497351942
 31
0.0
 12
160.6217990742127
 22
44.33767164018609
 32
0.0
 13
160.6217990742127
 23
44.33767164018609
 33
0.0
  0
SOLID
  5
3BD
330
3B5
100
AcDbEntity
  8
0
 62
     0
100
AcDbTrace
 10
151.2237990742127
 20
44.88800497351942
 30
0.0
 11
151.2237990742127
 21
43.78733830685275
 31
0.0
 12
147.9217990742127
 22
44.33767164018609
 32
0.0
 13
147.9217990742127
 23
44.33767164018609
 33
0.0
  0
MTEXT
  5
3BE
330
3B5
100
AcDbEntity
  8
0
 62
     0
370
    15
100
AcDbMText
 10
132.5885490742127
 20
48.71267164018609
 30
0.0
 40
3.5
 41
0.0
 71
     2
 72
     1
  1
\A1;12.70 [1/2]
  7
SLDTEXTSTYLE0
 73
     1
 44
1.0
  0
POINT
  5
3BF
330
3B5
100
AcDbEntity
  8
Defpoints
 62
     0
100
AcDbPoint
 10
160.6217990742127
 20
39.25028675167526
 30
0.0
  0
POINT
  5
3C0
330
3B5
100
AcDbEntity
  8
Defpoints
 62
     0
100
AcDbPoint
 10
147.9217990742127
 20
39.1350652433606
 30
0.0
  0
POINT
  5
3C1
330
3B5
100
AcDbEntity
  8
Defpoints
 62
     0
100
AcDbPoint
 10
147.9217990742127
 20
44.33767164018609
 30
0.0
  0
ENDBLK
  5
3B7
330
3B5
100
AcDbEntity
  8
0
100
AcDbBlockEnd
  0
BLOCK
  5
3C3
330
3C2
100
AcDbEntity
  8
0
100
AcDbBlockBegin
  2
*D20
 70
     1
 10
0.0
 20
0.0
 30
0.0
  3
*D20
  1
*D22
  0
LINE
  5
3C5
330
3C2
100
AcDbEntity
  8
0
  6
Continuous
 62
     0
370
    -2
100
AcDbLine
 10
160.6217990742127
 20
39.31278675167526
 30
0.0
 11
160.6217990742127
 21
65.36326573985023
 31
0.0
  0
LINE
  5
3C6
330
3C2
100
AcDbEntity
  8
0
  6
Continuous
 62
     0
370
    -2
100
AcDbLine
 10
81.24679907421276
 20
40.09028675167526
 30
0.0
 11
81.24679907421276
 21
65.36326573985023
 31
0.0
  0
LINE
  5
3C7
330
3C2
100
AcDbEntity
  8
0
  6
Continuous
 62
     0
370
    -2
100
AcDbLine
 10
157.3197990742127
 20
65.36326573985023
 30
0.0
 11
84.54879907421275
 21
65.36326573985023
 31
0.0
  0
SOLID
  5
3C8
330
3C2
100
AcDbEntity
  8
0
 62
     0
100
AcDbTrace
 10
157.3197990742127
 20
64.81293240651691
 30
0.0
 11
157.3197990742127
 21
65.91359907318356
 31
0.0
 12
160.6217990742127
 22
65.36326573985023
 32
0.0
 13
160.6217990742127
 23
65.36326573985023
 33
0.0
  0
SOLID
  5
3C9
330
3C2
100
AcDbEntity
  8
0
 62
     0
100
AcDbTrace
 10
84.54879907421275
 20
65.91359907318356
 30
0.0
 11
84.54879907421275
 21
64.81293240651691
 31
0.0
 12
81.24679907421276
 22
65.36326573985023
 32
0.0
 13
81.24679907421276
 23
65.36326573985023
 33
0.0
  0
MTEXT
  5
3CA
330
3C2
100
AcDbEntity
  8
0
 62
     0
370
    15
100
AcDbMText
 10
121.2816936611916
 20
69.73826573985023
 30
0.0
 40
3.5
 41
0.0
 71
     2
 72
     1
  1
\A1;79.38 [3 1/8]
  7
SLDTEXTSTYLE0
 73
     1
 44
1.0
  0
POINT
  5
3CB
330
3C2
100
AcDbEntity
  8
Defpoints
 62
     0
100
AcDbPoint
 10
160.6217990742127
 20
39.25028675167526
 30
0.0
  0
POINT
  5
3CC
330
3C2
100
AcDbEntity
  8
Defpoints
 62
     0
100
AcDbPoint
 10
81.24679907421276
 20
40.02778675167526
 30
0.0
  0
POINT
  5
3CD
330
3C2
100
AcDbEntity
  8
Defpoints
 62
     0
100
AcDbPoint
 10
81.24679907421276
 20
65.36326573985023
 30
0.0
  0
ENDBLK
  5
3C4
330
3C2
100
AcDbEntity
  8
0
100
AcDbBlockEnd
  0
BLOCK
  5
3CF
330
3CE
100
AcDbEntity
  8
0
100
AcDbBlockBegin
  2
*D21
 70
     1
 10
0.0
 20
0.0
 30
0.0
  3
*D21
  1
*D23
  0
LINE
  5
3D1
330
3CE
100
AcDbEntity
  8
0
  6
Continuous
 62
     0
370
    -2
100
AcDbLine
 10
81.99429907421276
 20
40.83778675167527
 30
0.0
 11
68.62679907421276
 21
40.83778675167522
 31
0.0
  0
LINE
  5
3D2
330
3CE
100
AcDbEntity
  8
0
  6
Continuous
 62
     0
370
    -2
100
AcDbLine
 10
81.99429907421276
 20
31.31278675167526
 30
0.0
 11
68.62679907421278
 21
31.31278675167521
 31
0.0
  0
LINE
  5
3D3
330
3CE
100
AcDbEntity
  8
0
  6
Continuous
 62
     0
370
    -2
100
AcDbLine
 10
68.62679907421277
 20
37.53578675167522
 30
0.0
 11
68.62679907421277
 21
34.61478675167521
 31
0.0
  0
SOLID
  5
3D4
330
3CE
100
AcDbEntity
  8
0
 62
     0
100
AcDbTrace
 10
69.1771324075461
 20
37.53578675167522
 30
0.0
 11
68.07646574087944
 21
37.53578675167522
 31
0.0
 12
68.62679907421276
 22
40.83778675167522
 32
0.0
 13
68.62679907421276
 23
40.83778675167522
 33
0.0
  0
SOLID
  5
3D5
330
3CE
100
AcDbEntity
  8
0
 62
     0
100
AcDbTrace
 10
68.07646574087944
 20
34.61478675167521
 30
0.0
 11
69.1771324075461
 21
34.61478675167521
 31
0.0
 12
68.62679907421278
 22
31.31278675167521
 32
0.0
 13
68.62679907421278
 23
31.31278675167521
 33
0.0
  0
MTEXT
  5
3D6
330
3CE
100
AcDbEntity
  8
0
 62
     0
370
    15
100
AcDbMText
 10
64.25179907421277
 20
36.07528675167525
 30
0.0
 40
3.5
 41
0.0
 71
     2
 72
     1
  1
\A1;%%c9.53 [3/8]
  7
SLDTEXTSTYLE0
 11
-2.983906501879684E-15
 21
1.0
 31
0.0
 73
     1
 44
1.0
  0
POINT
  5
3D7
330
3CE
100
AcDbEntity
  8
Defpoints
 62
     0
100
AcDbPoint
 10
82.05679907421276
 20
40.83778675167527
 30
0.0
  0
POINT
  5
3D8
330
3CE
100
AcDbEntity
  8
Defpoints
 62
     0
100
AcDbPoint
 10
82.05679907421276
 20
31.31278675167526
 30
0.0
  0
POINT
  5
3D9
330
3CE
100
AcDbEntity
  8
Defpoints
 62
     0
100
AcDbPoint
 10
68.62679907421278
 20
31.31278675167521
 30
0.0
  0
ENDBLK
  5
3D0
330
3CE
100
AcDbEntity
  8
0
100
AcDbBlockEnd
  0
BLOCK
  5
3DB
330
3DA
100
AcDbEntity
  8
0
100
AcDbBlockBegin
  2
*D22
 70
     1
 10
0.0
 20
0.0
 30
0.0
  3
*D22
  1
*D24
  0
LINE
  5
3DD
330
3DA
100
AcDbEntity
  8
0
  6
Continuous
 62
     0
370
    -2
100
AcDbLine
 10
160.6842990742127
 20
39.25028675167526
 30
0.0
 11
171.0887011031191
 21
39.2502867516753
 31
0.0
  0
LINE
  5
3DE
330
3DA
100
AcDbEntity
  8
0
  6
Continuous
 62
     0
370
    -2
100
AcDbLine
 10
160.6842990742127
 20
32.90028675167527
 30
0.0
 11
171.0887011031191
 21
32.90028675167531
 31
0.0
  0
LINE
  5
3DF
330
3DA
100
AcDbEntity
  8
0
  6
Continuous
 62
     0
370
    -2
100
AcDbLine
 10
171.0887011031191
 20
39.2502867516753
 30
0.0
 11
171.0887011031189
 21
71.2292867516753
 31
0.0
  0
LINE
  5
3E0
330
3DA
100
AcDbEntity
  8
0
  6
Continuous
 62
     0
370
    -2
100
AcDbLine
 10
171.088701103119
 20
42.5522867516753
 30
0.0
 11
171.088701103119
 21
45.8542867516753
 31
0.0
  0
LINE
  5
3E1
330
3DA
100
AcDbEntity
  8
0
  6
Continuous
 62
     0
370
    -2
100
AcDbLine
 10
171.0887011031191
 20
29.59828675167531
 30
0.0
 11
171.0887011031191
 21
26.29628675167531
 31
0.0
  0
SOLID
  5
3E2
330
3DA
100
AcDbEntity
  8
0
 62
     0
100
AcDbTrace
 10
170.5383677697857
 20
42.5522867516753
 30
0.0
 11
171.6390344364524
 21
42.5522867516753
 31
0.0
 12
171.0887011031191
 22
39.2502867516753
 32
0.0
 13
171.0887011031191
 23
39.2502867516753
 33
0.0
  0
SOLID
  5
3E3
330
3DA
100
AcDbEntity
  8
0
 62
     0
100
AcDbTrace
 10
171.6390344364524
 20
29.59828675167531
 30
0.0
 11
170.5383677697858
 21
29.59828675167531
 31
0.0
 12
171.0887011031191
 22
32.90028675167531
 32
0.0
 13
171.0887011031191
 23
32.90028675167531
 33
0.0
  0
MTEXT
  5
3E4
330
3DA
100
AcDbEntity
  8
0
 62
     0
370
    15
100
AcDbMText
 10
166.713701103119
 20
58.54178675167528
 30
0.0
 40
3.5
 41
0.0
 71
     2
 72
     1
  1
\A1;%%c6.35 [1/4]
  7
SLDTEXTSTYLE0
 11
-4.475859752819533E-15
 21
1.0
 31
0.0
 73
     1
 44
1.0
  0
POINT
  5
3E5
330
3DA
100
AcDbEntity
  8
Defpoints
 62
     0
100
AcDbPoint
 10
160.6217990742127
 20
39.25028675167526
 30
0.0
  0
POINT
  5
3E6
330
3DA
100
AcDbEntity
  8
Defpoints
 62
     0
100
AcDbPoint
 10
160.6217990742127
 20
32.90028675167527
 30
0.0
  0
POINT
  5
3E7
330
3DA
100
AcDbEntity
  8
Defpoints
 62
     0
100
AcDbPoint
 10
171.0887011031191
 20
32.90028675167531
 30
0.0
  0
ENDBLK
  5
3DC
330
3DA
100
AcDbEntity
  8
0
100
AcDbBlockEnd
  0
ENDSEC
  0
SECTION
  2
ENTITIES
  0
LINE
  5
98
330
1F
100
AcDbEntity
  8
외형선
  6
Continuous
370
    15
100
AcDbLine
 10
20.06286934298441
 20
4.762500000000002
 30
0.0
 11
4.838699999999999
 21
4.7625
 31
0.0
  0
LINE
  5
99
330
1F
100
AcDbEntity
  8
외형선
  6
Continuous
370
    15
100
AcDbLine
 10
-20.0628693429844
 20
-4.762500000000003
 30
0.0
 11
20.06286934298441
 21
-4.762499999999998
 31
0.0
  0
LINE
  5
9A
330
1F
100
AcDbEntity
  8
외형선
  6
Continuous
370
    15
100
AcDbLine
 10
20.06286934298441
 20
-4.762499999999998
 30
0.0
 11
25.50642495218726
 21
-3.303903670560182
 31
0.0
  0
LINE
  5
9B
330
1F
100
AcDbEntity
  8
외형선
  6
Continuous
370
    15
100
AcDbLine
 10
25.50577425883235
 20
3.304078023319156
 30
0.0
 11
20.06286934298441
 21
4.762500000000002
 31
0.0
  0
LINE
  5
9C
330
1F
100
AcDbEntity
  8
0
  6
Continuous
 62
     1
370
    15
100
AcDbLine
 10
35.87702810332401
 20
-3.174999999999998
 30
0.0
 11
36.51249999999999
 21
-3.174999999999998
 31
0.0
  0
ARC
  5
9D
330
1F
100
AcDbEntity
  8
0
  6
Continuous
 62
     1
370
    15
100
AcDbCircle
 10
36.51249999999999
 20
0.0000000000000026
 30
0.0
 40
3.175
100
AcDbArc
 50
270.0000000000007
 51
0.0
  0
ARC
  5
9E
330
1F
100
AcDbEntity
  8
0
  6
Continuous
 62
     1
370
    15
100
AcDbCircle
 10
36.51249999999999
 20
0.0000000000000026
 30
0.0
 40
3.175
100
AcDbArc
 50
0.0
 51
90.0
  0
LINE
  5
9F
330
1F
100
AcDbEntity
  8
0
  6
Continuous
 62
     1
370
    15
100
AcDbLine
 10
36.51249999999999
 20
3.175000000000002
 30
0.0
 11
35.87702810332402
 21
3.175000000000002
 31
0.0
  0
LINE
  5
A2
330
1F
100
AcDbEntity
  8
외형선
  6
Continuous
370
    15
100
AcDbLine
 10
20.06286934298441
 20
4.762500000000002
 30
0.0
 11
20.06286934298441
 21
-4.762500000000002
 31
0.0
  0
SPLINE
  5
A3
330
1F
100
AcDbEntity
  8
외형선
  6
Continuous
370
    15
100
AcDbSpline
210
0.0
220
0.0
230
1.0
 70
     8
 71
     3
 72
    10
 73
     6
 74
     0
 42
0.000000001
 43
0.00000001
 40
0.0
 40
0.0
 40
0.0
 40
0.0
 40
0.5399157491379522
 40
0.8102054805276901
 40
1.0
 40
1.0
 40
1.0
 40
1.0
 10
25.98749999999999
 20
3.162642521745749
 30
0.0
 10
25.90025224787048
 20
3.189720587084344
 30
0.0
 10
25.76932699323231
 20
3.230354328505011
 30
0.0
 10
25.60918339764263
 20
3.276108791350605
 30
0.0
 10
25.53593941014038
 20
3.295778807525803
 30
0.0
 10
25.50572471058008
 20
3.303893106724242
 30
0.0
  0
LINE
  5
A4
330
1F
100
AcDbEntity
  8
외형선
  6
Continuous
370
    15
100
AcDbLine
 10
25.98749999999999
 20
3.162642521745749
 30
0.0
 11
25.98749999999999
 21
0.7164406806710611
 31
0.0
  0
SPLINE
  5
A5
330
1F
100
AcDbEntity
  8
외형선
  6
Continuous
370
    15
100
AcDbSpline
210
0.0
220
0.0
230
1.0
 70
     8
 71
     3
 72
     8
 73
     4
 74
     0
 42
0.000000001
 43
0.00000001
 40
0.0
 40
0.0
 40
0.0
 40
0.0
 40
1.0
 40
1.0
 40
1.0
 40
1.0
 10
25.46741002016511
 20
1.052184578902967
 30
0.0
 10
25.64047059362893
 20
0.9389703818625686
 30
0.0
 10
25.81382375582761
 20
0.8270473945692137
 30
0.0
 10
25.987499999999
 20
0.7164406806716904
 30
0.0
  0
LINE
  5
A6
330
1F
100
AcDbEntity
  8
외형선
  6
Continuous
370
    15
100
AcDbLine
 10
25.46720423472038
 20
-3.314329696533989
 30
0.0
 11
25.46720423472038
 21
1.052247557538319
 31
0.0
  0
SPLINE
  5
A7
330
1F
100
AcDbEntity
  8
외형선
  6
Continuous
370
    15
100
AcDbSpline
210
0.0
220
0.0
230
1.0
 70
     8
 71
     3
 72
     9
 73
     5
 74
     0
 42
0.000000001
 43
0.00000001
 40
0.0
 40
0.0
 40
0.0
 40
0.0
 40
0.5960939979915009
 40
1.0
 40
1.0
 40
1.0
 40
1.0
 10
25.98749999999999
 20
-3.162642521745744
 30
0.0
 10
25.90017813117309
 20
-3.189959590984083
 30
0.0
 10
25.75368803209285
 20
-3.23578637221386
 30
0.0
 10
25.60929347424555
 20
-3.275142034391732
 30
0.0
 10
25.55097164567366
 20
-3.291038022558392
 30
0.0
  0
LINE
  5
A8
330
1F
100
AcDbEntity
  8
외형선
  6
Continuous
370
    15
100
AcDbLine
 10
25.5063053594284
 20
-3.303457344307871
 30
0.0
 11
25.46720423472038
 21
-3.314329290228088
 31
0.0
  0
SPLINE
  5
A9
330
1F
100
AcDbEntity
  8
외형선
  6
Continuous
370
    15
100
AcDbSpline
210
0.0
220
0.0
230
1.0
 70
    24
 71
     3
 72
    14
 73
    10
 74
     0
 42
0.000000001
 43
0.00000001
 40
0.0
 40
0.0
 40
0.0
 40
0.0
 40
0.25
 40
0.25
 40
0.5
 40
0.5
 40
0.75
 40
0.75
 40
1.0
 40
1.0
 40
1.0
 40
1.0
 10
26.98749999999999
 20
0.1448525189747055
 30
0.0
 10
26.98749999999999
 20
0.1192534443751667
 30
0.0
 10
26.98749999999999
 20
0.0453559872480173
 30
0.0
 10
26.98749999999999
 20
-0.1837302434455813
 30
0.0
 10
26.98749999999999
 20
-0.338009532737535
 30
0.0
 10
26.98749999999999
 20
-0.6828680568533393
 30
0.0
 10
26.98749999999999
 20
-0.8725113518185103
 30
0.0
 10
26.98749999999999
 20
-1.245786297706644
 30
0.0
 10
26.98749999999999
 20
-1.429268838538422
 30
0.0
 10
26.98749999999999
 20
-1.598912244754976
 30
0.0
  0
SPLINE
  5
AA
330
1F
100
AcDbEntity
  8
외형선
  6
Continuous
370
    15
100
AcDbSpline
210
0.0
220
0.0
230
1.0
 70
     8
 71
     3
 72
    10
 73
     6
 74
     0
 42
0.000000001
 43
0.00000001
 40
0.0
 40
0.0
 40
0.0
 40
0.0
 40
0.5
 40
0.5
 40
1.0
 40
1.0
 40
1.0
 40
1.0
 10
26.98749999999999
 20
-1.598912244754975
 30
0.0
 10
26.73434535485648
 20
-1.531866549800702
 30
0.0
 10
26.48348550683787
 20
-1.459950149874069
 30
0.0
 10
25.9750914770451
 20
-1.306644495292037
 30
0.0
 10
25.71984954896313
 20
-1.225452171178378
 30
0.0
 10
25.46720423472038
 20
-1.140904253743789
 30
0.0
  0
SPLINE
  5
AB
330
1F
100
AcDbEntity
  8
외형선
  6
Continuous
370
    15
100
AcDbSpline
210
0.0
220
0.0
230
1.0
 70
     8
 71
     3
 72
    10
 73
     6
 74
     0
 42
0.000000001
 43
0.00000001
 40
0.0
 40
0.0
 40
0.0
 40
0.0
 40
0.5
 40
0.5
 40
1.0
 40
1.0
 40
1.0
 40
1.0
 10
25.98750000000002
 20
0.7164406806710435
 30
0.0
 10
26.15505931802706
 20
0.6224634732832474
 30
0.0
 10
26.32266475443475
 20
0.5274840773448607
 30
0.0
 10
26.65589079257433
 20
0.3367089474102675
 30
0.0
 10
26.82082296506693
 20
0.2410479487825561
 30
0.0
 10
26.9874999999997
 20
0.1448525189741772
 30
0.0
  0
SPLINE
  5
AC
330
1F
100
AcDbEntity
  8
외형선
  6
Continuous
370
    15
100
AcDbSpline
210
0.0
220
0.0
230
1.0
 70
     8
 71
     3
 72
    10
 73
     6
 74
     0
 42
0.000000001
 43
0.00000001
 40
0.0
 40
0.0
 40
0.0
 40
0.0
 40
0.5000000000000001
 40
0.5000000000000001
 40
1.0
 40
1.0
 40
1.0
 40
1.0
 10
26.98749999999999
 20
3.059778491685332
 30
0.0
 10
26.82082296506717
 20
3.085484843851249
 30
0.0
 10
26.65589079257451
 20
3.106896043485652
 30
0.0
 10
26.32266475443482
 20
3.141248178963009
 30
0.0
 10
26.15505931802708
 20
3.154139842827011
 30
0.0
 10
25.98749999999999
 20
3.162642521745754
 30
0.0
  0
LINE
  5
AD
330
1F
100
AcDbEntity
  8
외형선
  6
Continuous
370
    15
100
AcDbLine
 10
26.98749999999999
 20
3.05977849168533
 30
0.0
 11
26.98749999999999
 21
0.1448525189750089
 31
0.0
  0
SPLINE
  5
AE
330
1F
100
AcDbEntity
  8
외형선
  6
Continuous
370
    15
100
AcDbSpline
210
0.0
220
0.0
230
1.0
 70
     8
 71
     3
 72
    10
 73
     6
 74
     0
 42
0.000000001
 43
0.00000001
 40
0.0
 40
0.0
 40
0.0
 40
0.0
 40
0.5000000000000001
 40
0.5000000000000001
 40
1.0
 40
1.0
 40
1.0
 40
1.0
 10
26.98749999999999
 20
-3.059778491685327
 30
0.0
 10
26.82082296506717
 20
-3.085484843851244
 30
0.0
 10
26.65589079257451
 20
-3.106896043485647
 30
0.0
 10
26.32266475443483
 20
-3.141248178963004
 30
0.0
 10
26.15505931802708
 20
-3.154139842827007
 30
0.0
 10
25.98749999999999
 20
-3.162642521745749
 30
0.0
  0
SPLINE
  5
AF
330
1F
100
AcDbEntity
  8
외형선
  6
Continuous
370
    15
100
AcDbSpline
210
0.0
220
0.0
230
1.0
 70
    24
 71
     3
 72
    16
 73
    12
 74
     0
 42
0.000000001
 43
0.00000001
 40
0.0
 40
0.0
 40
0.0
 40
0.0
 40
0.0383055395534979
 40
0.1829310925220319
 40
0.3317507963242846
 40
0.4763763492928188
 40
0.6251960530950716
 40
0.7698216060636065
 40
0.9186413098658592
 40
0.9592762476666987
 40
1.0
 40
1.0
 40
1.0
 40
1.0
 10
26.98749999999999
 20
-1.598912244754975
 30
0.0
 10
26.98749999999999
 20
-1.601338222682828
 30
0.0
 10
26.98749999999999
 20
-1.612923669538542
 30
0.0
 10
26.98749999999999
 20
-1.692127306461882
 30
0.0
 10
26.98749999999999
 20
-1.834437685918854
 30
0.0
 10
26.98749999999999
 20
-2.034184276525374
 30
0.0
 10
26.98749999999999
 20
-2.276219773382188
 30
0.0
 10
26.98749999999999
 20
-2.559510995768123
 30
0.0
 10
26.98749999999999
 20
-2.797061265001983
 30
0.0
 10
26.98749999999999
 20
-2.967549821670151
 30
0.0
 10
26.98749999999999
 20
-3.02901323633972
 30
0.0
 10
26.98749999999999
 20
-3.059778491685347
 30
0.0
  0
SPLINE
  5
B0
330
1F
100
AcDbEntity
  8
0
  6
Continuous
 62
     1
370
    15
100
AcDbSpline
210
0.0
220
0.0
230
1.0
 70
     8
 71
     3
 72
    28
 73
    24
 74
     0
 42
0.000000001
 43
0.00000001
 40
0.0
 40
0.0
 40
0.0
 40
0.0
 40
0.1250000000000002
 40
0.1250000000000002
 40
0.2500000000000004
 40
0.2500000000000004
 40
0.3125000000000003
 40
0.3125000000000003
 40
0.3750000000000001
 40
0.3750000000000001
 40
0.4375
 40
0.4375
 40
0.4999999999999999
 40
0.4999999999999999
 40
0.6249999999999999
 40
0.6249999999999999
 40
0.6874999999999999
 40
0.6874999999999999
 40
0.7499999999999999
 40
0.7499999999999999
 40
0.875
 40
0.875
 40
1.0
 40
1.0
 40
1.0
 40
1.0
 10
36.51249999999999
 20
-1.327021745504508
 30
0.0
 10
36.11578805350381
 20
-1.118922233704443
 30
0.0
 10
35.71537580250749
 20
-0.8997367457090828
 30
0.0
 10
34.92731995529579
 20
-0.453130862792908
 30
0.0
 10
34.52541276309911
 20
-0.2230416606983455
 30
0.0
 10
33.93166301891333
 20
0.1203047026152495
 30
0.0
 10
33.73531121406665
 20
0.2344417491553545
 30
0.0
 10
33.33788566395108
 20
0.4622621878527585
 30
0.0
 10
33.13821108110253
 20
0.5756727117372193
 30
0.0
 10
32.74044347466101
 20
0.7995017163575158
 30
0.0
 10
32.54364599871666
 20
0.9096824195316101
 30
0.0
 10
32.14843789013278
 20
1.126380848184345
 30
0.0
 10
31.94914566200764
 20
1.233050054397327
 30
0.0
 10
31.35142892020049
 20
1.545157427344495
 30
0.0
 10
30.95850216180285
 20
1.741809993430221
 30
0.0
 10
30.36156737396462
 20
2.015404508575655
 30
0.0
 10
30.16191121661604
 20
2.102930740436496
 30
0.0
 10
29.76474721636131
 20
2.269118933012738
 30
0.0
 10
29.56857548793113
 20
2.347623123149051
 30
0.0
 10
28.9742618985056
 20
2.569742245970986
 30
0.0
 10
28.57242997596721
 20
2.699392831633252
 30
0.0
 10
27.78541003056525
 20
2.913109858933885
 30
0.0
 10
27.3838781671601
 20
2.998645674197878
 30
0.0
 10
26.98749999999999
 20
3.059778491685332
 30
0.0
  0
SPLINE
  5
B1
330
1F
100
AcDbEntity
  8
0
  6
Continuous
 62
     1
370
    15
100
AcDbSpline
210
0.0
220
0.0
230
1.0
 70
     8
 71
     3
 72
    15
 73
    11
 74
     0
 42
0.000000001
 43
0.00000001
 40
0.0
 40
0.0
 40
0.0
 40
0.0
 40
0.1544731402171503
 40
0.308944605799751
 40
0.4442130238136646
 40
0.5795820330113605
 40
0.7151070695423662
 40
0.8505232094706168
 40
0.9858130397164898
 40
1.0
 40
1.0
 40
1.0
 40
1.0
 10
38.83753051505452
 20
0.3327135945565681
 30
0.0
 10
38.38675503268188
 20
0.5059236913814744
 30
0.0
 10
37.48520895476801
 20
0.852342007270454
 30
0.0
 10
36.18885459340989
 20
1.295988261865778
 30
0.0
 10
34.948528889275
 20
1.654165736223898
 30
0.0
 10
33.7633428152739
 20
1.918619760432794
 30
0.0
 10
32.57751952719983
 20
2.096956233376559
 30
0.0
 10
31.39209093147038
 20
2.168420255424743
 30
0.0
 10
30.56081799208406
 20
2.17433363286915
 30
0.0
 10
30.12467741701565
 20
2.128646274058207
 30
0.0
 10
30.08328297046238
 20
2.124310050738092
 30
0.0
  0
SPLINE
  5
B2
330
1F
100
AcDbEntity
  8
0
  6
Continuous
 62
     1
370
    15
100
AcDbSpline
210
0.0
220
0.0
230
1.0
 70
     8
 71
     3
 72
    24
 73
    20
 74
     0
 42
0.000000001
 43
0.00000001
 40
0.0
 40
0.0
 40
0.0
 40
0.0
 40
0.1250000000000001
 40
0.1250000000000001
 40
0.2500000000000001
 40
0.2500000000000001
 40
0.3750000000000002
 40
0.3750000000000002
 40
0.4375000000000002
 40
0.4375000000000002
 40
0.5000000000000002
 40
0.5000000000000002
 40
0.6250000000000001
 40
0.6250000000000001
 40
0.7500000000000001
 40
0.7500000000000001
 40
0.875
 40
0.875
 40
1.0
 40
1.0
 40
1.0
 40
1.0
 10
36.51249999999999
 20
-1.327021745504678
 30
0.0
 10
36.68881527825796
 20
-1.419509818153962
 30
0.0
 10
36.86201716956927
 20
-1.50287864820182
 30
0.0
 10
37.2080809076524
 20
-1.642756157959761
 30
0.0
 10
37.38270241105208
 20
-1.699952890085475
 30
0.0
 10
37.72755826218652
 20
-1.773375137620698
 30
0.0
 10
37.89655704379152
 20
-1.790099359052416
 30
0.0
 10
38.15047853981419
 20
-1.771474994661275
 30
0.0
 10
38.23362542777095
 20
-1.757966198588239
 30
0.0
 10
38.39687673594672
 20
-1.713238736544591
 30
0.0
 10
38.47800781796248
 20
-1.681565199469522
 30
0.0
 10
38.71158081492542
 20
-1.555425874459764
 30
0.0
 10
38.85638016970883
 20
-1.427806358293118
 30
0.0
 10
39.07653122608261
 20
-1.088947516046618
 30
0.0
 10
39.14285124774835
 20
-0.8880112873895035
 30
0.0
 10
39.17631501951119
 20
-0.4953223578841476
 30
0.0
 10
39.14615839693629
 20
-0.310231286881633
 30
0.0
 10
39.02951176670356
 20
0.0287477644812155
 30
0.0
 10
38.94312837895404
 20
0.1843699170421254
 30
0.0
 10
38.83753051505388
 20
0.3327135945568145
 30
0.0
  0
SPLINE
  5
B3
330
1F
100
AcDbEntity
  8
0
  6
Continuous
 62
     1
370
    15
100
AcDbSpline
210
0.0
220
0.0
230
1.0
 70
     8
 71
     3
 72
    11
 73
     7
 74
     0
 42
0.000000001
 43
0.00000001
 40
0.0
 40
0.0
 40
0.0
 40
0.0
 40
0.2641642338917086
 40
0.5347229534401704
 40
0.7670974926709103
 40
1.0
 40
1.0
 40
1.0
 40
1.0
 10
31.3634014401858
 20
-2.157427994471845
 30
0.0
 10
30.97808903869289
 20
-2.157435855617159
 30
0.0
 10
30.19813717962376
 20
-2.15745176819843
 30
0.0
 10
29.07925434748624
 20
-2.036549768878305
 30
0.0
 10
28.00610199248731
 20
-1.852434641153765
 30
0.0
 10
27.32729075539992
 20
-1.683483615337895
 30
0.0
 10
26.98749999999999
 20
-1.598912244754975
 30
0.0
  0
SPLINE
  5
B4
330
1F
100
AcDbEntity
  8
0
  6
Continuous
 62
     1
370
    15
100
AcDbSpline
210
0.0
220
0.0
230
1.0
 70
     8
 71
     3
 72
    17
 73
    13
 74
     0
 42
0.000000001
 43
0.00000001
 40
0.0
 40
0.0
 40
0.0
 40
0.0
 40
0.1257912854129376
 40
0.2528943070667514
 40
0.3557513787147388
 40
0.459323712581173
 40
0.5619165848988533
 40
0.6652227863796761
 40
0.7651084386756791
 40
0.8656479705029112
 40
0.9682003227861009
 40
1.0
 40
1.0
 40
1.0
 40
1.0
 10
26.98749999999999
 20
0.1448525189761634
 30
0.0
 10
27.36036123307147
 20
-0.0705604141059031
 30
0.0
 10
28.10997185085096
 20
-0.5036325801639405
 30
0.0
 10
29.16457255986273
 20
-1.094853210187207
 30
0.0
 10
30.15220018776676
 20
-1.612184028889805
 30
0.0
 10
31.06803305239527
 20
-2.045750193677437
 30
0.0
 10
31.9853999104284
 20
-2.423218553061264
 30
0.0
 10
32.89069849522826
 20
-2.730606138547289
 30
0.0
 10
33.79137884176851
 20
-2.962918281733586
 30
0.0
 10
34.68885370401097
 20
-3.111232354464321
 30
0.0
 10
35.38446790184121
 20
-3.17959115794025
 30
0.0
 10
35.78275729668816
 20
-3.168282738875844
 30
0.0
 10
35.87702810332401
 20
-3.1656061579757
 30
0.0
  0
SPLINE
  5
B5
330
1F
100
AcDbEntity
  8
외형선
  6
Continuous
370
    15
100
AcDbSpline
210
0.0
220
0.0
230
1.0
 70
    24
 71
     3
 72
    14
 73
    10
 74
     0
 42
0.000000001
 43
0.00000001
 40
0.0
 40
0.0
 40
0.0
 40
0.0
 40
0.25
 40
0.25
 40
0.5
 40
0.5
 40
0.75
 40
0.75
 40
1.0
 40
1.0
 40
1.0
 40
1.0
 10
26.98749999999999
 20
0.1448525189747062
 30
0.0
 10
26.98749999999999
 20
0.1192534443751681
 30
0.0
 10
26.98749999999999
 20
0.0453559872480194
 30
0.0
 10
26.98749999999999
 20
-0.1837302434455787
 30
0.0
 10
26.98749999999999
 20
-0.3380095327375328
 30
0.0
 10
26.98749999999999
 20
-0.6828680568533374
 30
0.0
 10
26.98749999999999
 20
-0.8725113518185088
 30
0.0
 10
26.98749999999999
 20
-1.245786297706644
 30
0.0
 10
26.98749999999999
 20
-1.429268838538422
 30
0.0
 10
26.98749999999999
 20
-1.598912244754976
 30
0.0
  0
SPLINE
  5
B6
330
1F
100
AcDbEntity
  8
0
  6
Continuous
 62
     1
370
    15
100
AcDbSpline
210
0.0
220
0.0
230
1.0
 70
     8
 71
     3
 72
    10
 73
     6
 74
     0
 42
0.000000001
 43
0.00000001
 40
0.0
 40
0.0
 40
0.0
 40
0.0
 40
0.5000000000000002
 40
0.5000000000000002
 40
1.0
 40
1.0
 40
1.0
 40
1.0
 10
38.83753051505388
 20
0.3327135945568155
 30
0.0
 10
38.91054688662041
 20
0.3767665439002842
 30
0.0
 10
38.96883578540356
 20
0.4437631440585005
 30
0.0
 10
39.04679420150548
 20
0.6135945363276849
 30
0.0
 10
39.06609963175634
 20
0.7158996076812125
 30
0.0
 10
39.06788697796853
 20
0.8222956141747106
 30
0.0
  0
ARC
  5
B7
330
1F
100
AcDbEntity
  8
0
  6
Continuous
 62
     1
370
    15
100
AcDbCircle
 10
38.16846872609935
 20
-0.5519214779228988
 30
0.0
 40
1.6423841840473
100
AcDbArc
 50
23.84127197819469
 51
56.79545245917799
  0
ARC
  5
B8
330
1F
100
AcDbEntity
  8
0
  6
Continuous
 62
     1
370
    15
100
AcDbCircle
 10
36.83200999872821
 20
0.0589080879773786
 30
0.0
 40
2.839191476244565
100
AcDbArc
 50
1.070206761154471
 51
71.15049063980975
  0
SPLINE
  5
B9
330
1F
100
AcDbEntity
  8
0
  6
Continuous
 62
     1
370
    15
100
AcDbSpline
210
0.0
220
0.0
230
1.0
 70
     8
 71
     3
 72
    10
 73
     6
 74
     0
 42
0.000000001
 43
0.00000001
 40
0.0
 40
0.0
 40
0.0
 40
0.0
 40
0.5
 40
0.5
 40
1.0
 40
1.0
 40
1.0
 40
1.0
 10
37.74930613301345
 20
2.745834964690832
 30
0.0
 10
37.55269162763107
 20
2.865650022546145
 30
0.0
 10
37.35018570773403
 20
2.959768233867763
 30
0.0
 10
36.93750200343284
 20
3.096733595775765
 30
0.0
 10
36.72543401584353
 20
3.13975931944973
 30
0.0
 10
36.51249999999978
 20
3.153907900777766
 30
0.0
  0
SPLINE
  5
BA
330
1F
100
AcDbEntity
  8
0
  6
Continuous
 62
     1
370
    15
100
AcDbSpline
210
0.0
220
0.0
230
1.0
 70
     8
 71
     3
 72
     8
 73
     4
 74
     0
 42
0.000000001
 43
0.00000001
 40
0.0
 40
0.0
 40
0.0
 40
0.0
 40
1.0
 40
1.0
 40
1.0
 40
1.0
 10
37.10467302342694
 20
1.421300422022653
 30
0.0
 10
37.75012600409674
 20
1.241906286902252
 30
0.0
 10
38.40819561614634
 20
1.039789687382146
 30
0.0
 10
39.06788697796854
 20
0.8222956141747338
 30
0.0
  0
SPLINE
  5
BB
330
1F
100
AcDbEntity
  8
0
  6
Continuous
 62
     1
370
    15
100
AcDbSpline
210
0.0
220
0.0
230
1.0
 70
     8
 71
     3
 72
    13
 73
     9
 74
     0
 42
0.000000001
 43
0.00000001
 40
0.0
 40
0.0
 40
0.0
 40
0.0
 40
0.12033130599955
 40
0.2986780853196936
 40
0.4711196631913835
 40
0.6446900920593008
 40
0.8217354337642412
 40
1.0
 40
1.0
 40
1.0
 40
1.0
 10
31.3634014401858
 20
2.157427994471851
 30
0.0
 10
31.56999970840435
 20
2.244571106832662
 30
0.0
 10
32.08280370956854
 20
2.460871742253534
 30
0.0
 10
32.89068926360373
 20
2.729433870623805
 30
0.0
 10
33.79138706374954
 20
2.962530338471391
 30
0.0
 10
34.68882952316415
 20
3.11399822223945
 30
0.0
 10
35.59617878888187
 20
3.189446799561782
 30
0.0
 10
36.20636166104588
 20
3.16578126931926
 30
0.0
 10
36.5124999999997
 20
3.153907900777771
 30
0.0
  0
SPLINE
  5
BC
330
1F
100
AcDbEntity
  8
0
  6
Continuous
 62
     1
370
    15
100
AcDbSpline
210
0.0
220
0.0
230
1.0
 70
     8
 71
     3
 72
    14
 73
    10
 74
     0
 42
0.000000001
 43
0.00000001
 40
0.0
 40
0.0
 40
0.0
 40
0.0
 40
0.2500000000000002
 40
0.2500000000000002
 40
0.5000000000000003
 40
0.5000000000000003
 40
0.7500000000000001
 40
0.7500000000000001
 40
1.0
 40
1.0
 40
1.0
 40
1.0
 10
37.74930613301346
 20
2.745834964690834
 30
0.0
 10
37.77185599609673
 20
2.612544322476124
 30
0.0
 10
37.78197811097652
 20
2.476835981654212
 30
0.0
 10
37.76221525516242
 20
2.202072074915469
 30
0.0
 10
37.73155871870914
 20
2.0667231757689
 30
0.0
 10
37.61945726739381
 20
1.820463414477468
 30
0.0
 10
37.53763814151904
 20
1.710828110182165
 30
0.0
 10
37.34016708228354
 20
1.535668418786684
 30
0.0
 10
37.22452174395707
 20
1.468988956236267
 30
0.0
 10
37.10467302342694
 20
1.421300422022651
 30
0.0
  0
SPLINE
  5
BD
330
1F
100
AcDbEntity
  8
0
  6
Continuous
 62
     1
370
    15
100
AcDbSpline
210
0.0
220
0.0
230
1.0
 70
     8
 71
     3
 72
    10
 73
     6
 74
     0
 42
0.000000001
 43
0.00000001
 40
0.0
 40
0.0
 40
0.0
 40
0.0
 40
0.0976471399652761
 40
0.5488298125059883
 40
1.0
 40
1.0
 40
1.0
 40
1.0
 10
30.08328297046238
 20
-2.124310050738086
 30
0.0
 10
29.98251734454202
 20
-2.170664009482708
 30
0.0
 10
29.41615995198977
 20
-2.431198363031294
 30
0.0
 10
28.38423162252201
 20
-2.781186104486281
 30
0.0
 10
27.45307291297154
 20
-2.966915219208003
 30
0.0
 10
26.98749999999999
 20
-3.059778491685327
 30
0.0
  0
SPLINE
  5
BE
330
1F
100
AcDbEntity
  8
외형선
  6
Continuous
370
    15
100
AcDbSpline
210
0.0
220
0.0
230
1.0
 70
    24
 71
     3
 72
    15
 73
    11
 74
     0
 42
0.000000001
 43
0.00000001
 40
0.0
 40
0.0
 40
0.0
 40
0.0
 40
0.1009491852308447
 40
0.2361571202443381
 40
0.3752860945328591
 40
0.5104940295463526
 40
0.6496230038348738
 40
0.7848309388483679
 40
0.923959913136889
 40
1.0
 40
1.0
 40
1.0
 40
1.0
 10
26.98749999999999
 20
-1.583114963629102
 30
0.0
 10
26.98749999999999
 20
-1.588661015951328
 30
0.0
 10
26.98749999999999
 20
-1.601635263758742
 30
0.0
 10
26.98749999999999
 20
-1.690471105785983
 30
0.0
 10
26.98749999999999
 20
-1.834869054108572
 30
0.0
 10
26.98749999999999
 20
-2.034078314714651
 30
0.0
 10
26.98749999999999
 20
-2.276201484459895
 30
0.0
 10
26.98749999999999
 20
-2.559683471285464
 30
0.0
 10
26.98749999999999
 20
-2.825439196503085
 30
0.0
 10
26.98749999999999
 20
-2.998588173721167
 30
0.0
 10
26.98749999999999
 20
-3.059778491685345
 30
0.0
  0
LINE
  5
BF
330
1F
100
AcDbEntity
  8
중심선
 48
0.8
100
AcDbLine
 10
-42.68749999999999
 20
-0.0000000000000052
 30
0.0
 11
42.68749999999999
 21
0.0000000000000052
 31
0.0
  0
LINE
  5
C0
330
1F
100
AcDbEntity
  8
참조1
100
AcDbLine
 10
-18.06286934298443
 20
0.0010749287238892
 30
0.0
 11
-18.06286934298442
 21
-39.99892507127611
 31
0.0
  0
LINE
  5
C1
330
1F
100
AcDbEntity
  8
참조1
100
AcDbLine
 10
21.62463065701557
 20
0.0010749287238892
 30
0.0
 11
21.62463065701557
 21
0.6320484065631995
 31
0.0
  0
LINE
  5
C2
330
1F
100
AcDbEntity
  8
참조1
100
AcDbLine
 10
-18.06286934298442
 20
-39.99892507127611
 30
0.0
 11
-29.25297615729311
 21
-39.9989250712761
 31
0.0
  0
CIRCLE
  5
C3
330
1F
100
AcDbEntity
  8
해칭선
100
AcDbCircle
 10
0.0
 20
0.0
 30
0.0
 40
3.000000000000003
  0
INSERT
  5
C4
330
1F
100
AcDbEntity
  8
0
  6
Continuous
 62
     7
100
AcDbBlockReference
 66
     1
  2
블럭10
 10
-14.75393924469349
 20
-52.04609937292004
 30
0.0
  0
ATTRIB
  5
C5
330
C4
100
AcDbEntity
  8
FORMAT
 62
     2
100
AcDbText
 10
-23.93523453343477
 20
-49.97073246008785
 30
0.0
 40
4.233333333333333
  1
E2112016 [ 2 FLUTE ]
 41
0.75
  7
SLDTEXTSTYLE0
 11
-23.93523453343477
 21
-52.08739912675452
 31
0.0
100
AcDbAttribute
  2
AUTOATTR0
 70
     0
 74
     1
  0
SEQEND
  5
C6
330
C4
100
AcDbEntity
  8
0
  6
Continuous
 62
     7
  0
HATCH
  5
C7
330
1F
100
AcDbEntity
  8
중심선
100
AcDbHatch
 10
0.0
 20
0.0
 30
0.0
210
0.0
220
0.0
230
1.0
  2
SOLID
 70
     1
 71
     0
 91
        1
 92
        0
 93
        4
 72
     1
 10
-9.039029940312659
 20
-35.7989250712761
 11
-12.48530518414994
 21
-35.7989250712761
 72
     1
 10
-12.48530518414994
 20
-35.7989250712761
 11
-14.61353504335396
 21
-38.3352506518487
 72
     1
 10
-14.61353504335396
 20
-38.3352506518487
 11
-11.16722671440353
 21
-38.33521122254621
 72
     1
 10
-11.16722671440353
 20
-38.33521122254621
 11
-9.039029940312659
 21
-35.7989250712761
 97
        0
 75
     0
 76
     1
 98
        1
 10
17.24920303041614
 20
0.0
  0
HATCH
  5
C8
330
1F
100
AcDbEntity
  8
중심선
100
AcDbHatch
 10
0.0
 20
0.0
 30
0.0
210
0.0
220
0.0
230
1.0
  2
SOLID
 70
     1
 71
     0
 91
        1
 92
        0
 93
        4
 72
     1
 10
-4.026265949276706
 20
-35.7989250712761
 11
-7.47254119311399
 21
-35.79892507127613
 72
     1
 10
-7.47254119311399
 20
-35.79892507127613
 11
-12.00367920147138
 21
-41.19892507127612
 72
     1
 10
-12.00367920147138
 20
-41.19892507127612
 11
-8.557403957634094
 21
-41.19892507127612
 72
     1
 10
-8.557403957634094
 20
-41.19892507127612
 11
-4.026265949276706
 21
-35.7989250712761
 97
        0
 75
     0
 76
     1
 98
        1
 10
17.24920303041614
 20
0.0
  0
HATCH
  5
C9
330
1F
100
AcDbEntity
  8
중심선
100
AcDbHatch
 10
0.0
 20
0.0
 30
0.0
210
0.0
220
0.0
230
1.0
  2
SOLID
 70
     1
 71
     0
 91
        1
 92
        0
 93
        4
 72
     1
 10
0.9864980417591909
 20
-35.79892507127608
 11
-2.459777202077927
 21
-35.7989250712761
 72
     1
 10
-2.459777202077927
 20
-35.7989250712761
 11
-9.508214103967177
 21
-44.19892507127612
 72
     1
 10
-9.508214103967177
 20
-44.19892507127612
 11
-6.061938860129892
 21
-44.19892507127612
 72
     1
 10
-6.061938860129892
 20
-44.19892507127612
 11
0.9864980417591909
 21
-35.79892507127608
 97
        0
 75
     0
 76
     1
 98
        1
 10
17.24920303041614
 20
0.0
  0
HATCH
  5
CA
330
1F
100
AcDbEntity
  8
중심선
100
AcDbHatch
 10
0.0
 20
0.0
 30
0.0
210
0.0
220
0.0
230
1.0
  2
SOLID
 70
     1
 71
     0
 91
        1
 92
        0
 93
        6
 72
     3
 10
5.786388472771389
 20
-39.99892507132738
 11
3.960054785062283
 21
1.540882976769353E-10
 40
0.3939339440162628
 50
17.09539180608436
 51
320.0019657685078
 73
     0
 72
     1
 10
7.469388128471984
 20
-38.58681907591441
 11
9.774690002173022
 21
-36.65249236586649
 72
     3
 10
5.786388472718542
 20
-39.99892507127625
 11
6.600054785286829
 21
-1.278976924368180E-13
 40
0.636358354079598
 50
39.99873849337411
 51
368.4976242363724
 73
     1
 72
     1
 10
12.21172096461915
 20
-39.03892507120613
 11
4.466455779554464
 21
-39.03892507120613
 72
     1
 10
4.466455779554465
 20
-39.03892507120613
 11
4.466430735108531
 21
-40.95892507120602
 72
     1
 10
4.466430735108531
 20
-40.95892507120602
 11
8.907810504580567
 21
-40.95892507120599
 97
        0
 75
     0
 76
     1
 98
        1
 10
17.24920303041614
 20
0.0
  0
DIMENSION
  5
CB
330
1F
100
AcDbEntity
  8
0
  6
Continuous
370
    15
100
AcDbDimension
  2
_D
 10
26.9875
 20
8.262384888510832
 30
0.0
 11
11.65425
 21
8.262384888510832
 31
0.0
 70
   160
  1
<>
 71
     2
 42
12.69999999999998
  3
SLDDIMSTYLE0
100
AcDbAlignedDimension
 13
39.68749999999998
 23
3.175000000000004
 33
0.0
 14
26.9875
 24
3.059778491685343
 34
0.0
 50
0.000000000000008
100
AcDbRotatedDimension
1001
ACAD
1000
DSTYLE
1002
{
1070
   171
1070
     6
1070
   273
1070
     7
1002
}
  0
DIMENSION
  5
E0
330
1F
100
AcDbEntity
  8
0
  6
Continuous
370
    15
100
AcDbDimension
  2
_D_1
 10
-39.68749999999998
 20
29.28797898817498
 30
0.0
 11
0.3473945869788011
 21
29.28797898817498
 31
0.0
 70
   160
  1
<>
 71
     2
 42
79.37499999999997
  3
SLDDIMSTYLE0
100
AcDbAlignedDimension
 13
39.68749999999998
 23
3.175000000000004
 33
0.0
 14
-39.68749999999999
 24
4.762499999999936
 34
0.0
 50
0.0000000000000051
100
AcDbRotatedDimension
1001
ACAD
1000
DSTYLE
1002
{
1070
   171
1070
     6
1070
   273
1070
     7
1002
}
  0
DIMENSION
  5
F4
330
1F
100
AcDbEntity
  8
0
  6
Continuous
370
    15
100
AcDbDimension
  2
_D_2
 10
-52.30749999999995
 20
-4.762500000000123
 30
0.0
 11
-52.30749999999998
 21
0.0000000000000061
 31
0.0
 70
   160
  1
%%c<>
 71
     2
 42
9.525000000000006
 52
-270.0
  3
SLDDIMSTYLE0
100
AcDbAlignedDimension
 13
-20.0628693429844
 23
4.762500000000004
 33
0.0
 14
-20.0628693429844
 24
-4.762500000000002
 34
0.0
 50
90.0000000000002
100
AcDbRotatedDimension
1001
ACAD
1000
DSTYLE
1002
{
1070
   171
1070
     6
1070
   273
1070
     7
1002
}
  0
DIMENSION
  5
109
330
1F
100
AcDbEntity
  8
0
  6
Continuous
370
    15
100
AcDbDimension
  2
_D_3
 10
50.15440202890632
 20
-3.174999999999958
 30
0.0
 11
50.15440202890623
 21
22.46650000000005
 31
0.0
 70
   160
  1
%%c<>
 71
     2
 42
6.35
 52
-270.0
  3
SLDDIMSTYLE0
100
AcDbAlignedDimension
 13
39.68749999999998
 23
3.175000000000005
 33
0.0
 14
39.68749999999999
 24
-3.174999999999995
 34
0.0
 50
90.0000000000002
100
AcDbRotatedDimension
1001
ACAD
1000
DSTYLE
1002
{
1070
   171
1070
     6
1070
   273
1070
     7
1002
}
  0
LINE
  5
11D
330
1F
100
AcDbEntity
  8
참조1
100
AcDbLine
 10
68.71936447236115
 20
7.441074928723896
 30
0.0
 11
68.71936447236115
 21
-7.438925071276109
 31
0.0
  0
LINE
  5
11E
330
1F
100
AcDbEntity
  8
참조1
100
AcDbLine
 10
81.41936447236115
 20
5.441074928723896
 30
0.0
 11
68.71936447236115
 21
5.441074928723896
 31
0.0
  0
SOLID
  5
11F
330
1F
100
AcDbEntity
  8
참조1
100
AcDbTrace
 10
68.71936447236115
 20
5.441074928723896
 30
0.0
 11
75.06936447236114
 21
4.425074928723896
 31
0.0
 12
75.06936447236114
 22
6.457074928723896
 32
0.0
 13
75.06936447236114
 23
6.457074928723896
 33
0.0
  0
LINE
  5
120
330
1F
100
AcDbEntity
  8
참조1
100
AcDbLine
 10
81.41936447236115
 20
-5.438925071276109
 30
0.0
 11
68.71936447236115
 21
-5.438925071276109
 31
0.0
  0
SOLID
  5
121
330
1F
100
AcDbEntity
  8
참조1
100
AcDbTrace
 10
68.71936447236115
 20
-5.438925071276109
 30
0.0
 11
75.06936447236114
 21
-6.454925071276109
 31
0.0
 12
75.06936447236114
 22
-4.422925071276109
 32
0.0
 13
75.06936447236114
 23
-4.422925071276109
 33
0.0
  0
MTEXT
  5
122
330
1F
100
AcDbEntity
  8
참조1
100
AcDbMText
 10
78.11685456483143
 20
10.98929157337383
 30
0.0
 40
3.5
 41
0.0
 71
     1
 72
     1
  1
A
  7
SLDTEXTSTYLE0
 73
     1
 44
1.0
  0
MTEXT
  5
123
330
1F
100
AcDbEntity
  8
참조1
100
AcDbMText
 10
78.11685456483143
 20
0.1092915733738251
 30
0.0
 40
3.5
 41
0.0
 71
     1
 72
     1
  1
A
  7
SLDTEXTSTYLE0
 73
     1
 44
1.0
  0
INSERT
  5
12A
330
1F
100
AcDbEntity
  8
해칭선
100
AcDbBlockReference
  2
SW_DOWELSYMBOL_0
 10
0.0
 20
0.0
 30
0.0
  0
LINE
  5
266
330
1F
100
AcDbEntity
  8
외형선
  6
Continuous
370
    15
100
AcDbLine
 10
-3.568700000000049
 20
3.492500000000022
 30
0.0
 11
3.568700000000021
 21
3.492500000000022
 31
0.0
  0
LINE
  5
267
330
1F
100
AcDbEntity
  8
외형선
  6
Continuous
370
    15
100
AcDbLine
 10
3.568700000000021
 20
3.492500000000022
 30
0.0
 11
4.838700000000003
 21
4.762500000000004
 31
0.0
  0
LINE
  5
268
330
1F
100
AcDbEntity
  8
외형선
  6
Continuous
370
    15
100
AcDbLine
 10
-3.568700000000049
 20
3.492500000000022
 30
0.0
 11
-4.838700000000031
 21
4.762500000000004
 31
0.0
  0
LINE
  5
38B
330
1F
100
AcDbEntity
  8
외형선
  6
Continuous
370
    15
100
AcDbLine
 10
-20.0628693429844
 20
4.762499999999997
 30
0.0
 11
-25.50642495218726
 21
3.30390367056019
 31
0.0
  0
LINE
  5
38C
330
1F
100
AcDbEntity
  8
외형선
  6
Continuous
370
    15
100
AcDbLine
 10
-25.50577425883235
 20
-3.304078023319149
 30
0.0
 11
-20.0628693429844
 21
-4.762500000000002
 31
0.0
  0
LINE
  5
38D
330
1F
100
AcDbEntity
  8
0
  6
Continuous
 62
     1
370
    15
100
AcDbLine
 10
-35.87702810332401
 20
3.175000000000005
 30
0.0
 11
-36.51249999999997
 21
3.175000000000005
 31
0.0
  0
ARC
  5
38E
330
1F
100
AcDbEntity
  8
0
  6
Continuous
 62
     1
370
    15
100
AcDbCircle
 10
-36.51249999999997
 20
0.0000000000000011
 30
0.0
 40
3.175
100
AcDbArc
 50
90.00000000000104
 51
180.0
  0
ARC
  5
38F
330
1F
100
AcDbEntity
  8
0
  6
Continuous
 62
     1
370
    15
100
AcDbCircle
 10
-36.51249999999997
 20
0.0000000000000011
 30
0.0
 40
3.175
100
AcDbArc
 50
180.0
 51
270.0
  0
LINE
  5
390
330
1F
100
AcDbEntity
  8
0
  6
Continuous
 62
     1
370
    15
100
AcDbLine
 10
-36.51249999999997
 20
-3.174999999999996
 30
0.0
 11
-35.87702810332404
 21
-3.174999999999996
 31
0.0
  0
LINE
  5
391
330
1F
100
AcDbEntity
  8
외형선
  6
Continuous
370
    15
100
AcDbLine
 10
-20.0628693429844
 20
-4.762500000000002
 30
0.0
 11
-20.0628693429844
 21
4.762500000000004
 31
0.0
  0
SPLINE
  5
392
330
1F
100
AcDbEntity
  8
외형선
  6
Continuous
370
    15
100
AcDbSpline
210
0.0
220
0.0
230
1.0
 70
     8
 71
     3
 72
    10
 73
     6
 74
     0
 42
0.000000001
 43
0.00000001
 40
0.0
 40
0.0
 40
0.0
 40
0.0
 40
0.5399157491379522
 40
0.8102054805276901
 40
1.0
 40
1.0
 40
1.0
 40
1.0
 10
-25.9875
 20
-3.162642521745744
 30
0.0
 10
-25.90025224787048
 20
-3.189720587084337
 30
0.0
 10
-25.7693269932323
 20
-3.230354328505007
 30
0.0
 10
-25.60918339764264
 20
-3.276108791350601
 30
0.0
 10
-25.53593941014036
 20
-3.295778807525799
 30
0.0
 10
-25.50572471058005
 20
-3.303893106724238
 30
0.0
  0
LINE
  5
393
330
1F
100
AcDbEntity
  8
외형선
  6
Continuous
370
    15
100
AcDbLine
 10
-25.9875
 20
-3.162642521745744
 30
0.0
 11
-25.9875
 21
-0.7164406806710548
 31
0.0
  0
SPLINE
  5
394
330
1F
100
AcDbEntity
  8
외형선
  6
Continuous
370
    15
100
AcDbSpline
210
0.0
220
0.0
230
1.0
 70
     8
 71
     3
 72
     8
 73
     4
 74
     0
 42
0.000000001
 43
0.00000001
 40
0.0
 40
0.0
 40
0.0
 40
0.0
 40
1.0
 40
1.0
 40
1.0
 40
1.0
 10
-25.4674100201651
 20
-1.052184578902966
 30
0.0
 10
-25.64047059362893
 20
-0.9389703818625594
 30
0.0
 10
-25.81382375582761
 20
-0.827047394569205
 30
0.0
 10
-25.987499999999
 20
-0.7164406806716872
 30
0.0
  0
LINE
  5
395
330
1F
100
AcDbEntity
  8
외형선
  6
Continuous
370
    15
100
AcDbLine
 10
-25.46720423472037
 20
3.314329696533989
 30
0.0
 11
-25.46720423472037
 21
-1.052247557538314
 31
0.0
  0
SPLINE
  5
396
330
1F
100
AcDbEntity
  8
외형선
  6
Continuous
370
    15
100
AcDbSpline
210
0.0
220
0.0
230
1.0
 70
     8
 71
     3
 72
     9
 73
     5
 74
     0
 42
0.000000001
 43
0.00000001
 40
0.0
 40
0.0
 40
0.0
 40
0.0
 40
0.5960939979915009
 40
1.0
 40
1.0
 40
1.0
 40
1.0
 10
-25.9875
 20
3.162642521745753
 30
0.0
 10
-25.90017813117309
 20
3.189959590984089
 30
0.0
 10
-25.75368803209285
 20
3.235786372213867
 30
0.0
 10
-25.60929347424555
 20
3.275142034391735
 30
0.0
 10
-25.55097164567364
 20
3.291038022558397
 30
0.0
  0
LINE
  5
397
330
1F
100
AcDbEntity
  8
외형선
  6
Continuous
370
    15
100
AcDbLine
 10
-25.5063053594284
 20
3.303457344307874
 30
0.0
 11
-25.46720423472037
 21
3.314329290228089
 31
0.0
  0
SPLINE
  5
398
330
1F
100
AcDbEntity
  8
외형선
  6
Continuous
370
    15
100
AcDbSpline
210
0.0
220
0.0
230
1.0
 70
    24
 71
     3
 72
    14
 73
    10
 74
     0
 42
0.000000001
 43
0.00000001
 40
0.0
 40
0.0
 40
0.0
 40
0.0
 40
0.25
 40
0.25
 40
0.5
 40
0.5
 40
0.75
 40
0.75
 40
1.0
 40
1.0
 40
1.0
 40
1.0
 10
-26.9875
 20
-0.1448525189747005
 30
0.0
 10
-26.9875
 20
-0.1192534443751601
 30
0.0
 10
-26.9875
 20
-0.0453559872480145
 30
0.0
 10
-26.9875
 20
0.183730243445589
 30
0.0
 10
-26.9875
 20
0.3380095327375383
 30
0.0
 10
-26.9875
 20
0.6828680568533454
 30
0.0
 10
-26.9875
 20
0.8725113518185179
 30
0.0
 10
-26.9875
 20
1.245786297706652
 30
0.0
 10
-26.9875
 20
1.429268838538428
 30
0.0
 10
-26.9875
 20
1.598912244754986
 30
0.0
  0
SPLINE
  5
399
330
1F
100
AcDbEntity
  8
외형선
  6
Continuous
370
    15
100
AcDbSpline
210
0.0
220
0.0
230
1.0
 70
     8
 71
     3
 72
    10
 73
     6
 74
     0
 42
0.000000001
 43
0.00000001
 40
0.0
 40
0.0
 40
0.0
 40
0.0
 40
0.5
 40
0.5
 40
1.0
 40
1.0
 40
1.0
 40
1.0
 10
-26.9875
 20
1.598912244754979
 30
0.0
 10
-26.73434535485647
 20
1.531866549800712
 30
0.0
 10
-26.48348550683788
 20
1.459950149874076
 30
0.0
 10
-25.9750914770451
 20
1.306644495292042
 30
0.0
 10
-25.71984954896313
 20
1.225452171178383
 30
0.0
 10
-25.46720423472037
 20
1.140904253743792
 30
0.0
  0
SPLINE
  5
39A
330
1F
100
AcDbEntity
  8
외형선
  6
Continuous
370
    15
100
AcDbSpline
210
0.0
220
0.0
230
1.0
 70
     8
 71
     3
 72
    10
 73
     6
 74
     0
 42
0.000000001
 43
0.00000001
 40
0.0
 40
0.0
 40
0.0
 40
0.0
 40
0.5
 40
0.5
 40
1.0
 40
1.0
 40
1.0
 40
1.0
 10
-25.9875
 20
-0.7164406806710406
 30
0.0
 10
-26.15505931802706
 20
-0.6224634732832459
 30
0.0
 10
-26.32266475443474
 20
-0.5274840773448506
 30
0.0
 10
-26.65589079257431
 20
-0.3367089474102574
 30
0.0
 10
-26.82082296506694
 20
-0.2410479487825501
 30
0.0
 10
-26.98749999999971
 20
-0.1448525189741747
 30
0.0
  0
SPLINE
  5
39B
330
1F
100
AcDbEntity
  8
외형선
  6
Continuous
370
    15
100
AcDbSpline
210
0.0
220
0.0
230
1.0
 70
     8
 71
     3
 72
    10
 73
     6
 74
     0
 42
0.000000001
 43
0.00000001
 40
0.0
 40
0.0
 40
0.0
 40
0.0
 40
0.5000000000000001
 40
0.5000000000000001
 40
1.0
 40
1.0
 40
1.0
 40
1.0
 10
-26.9875
 20
-3.059778491685328
 30
0.0
 10
-26.82082296506717
 20
-3.085484843851247
 30
0.0
 10
-26.65589079257451
 20
-3.106896043485647
 30
0.0
 10
-26.32266475443483
 20
-3.141248178963003
 30
0.0
 10
-26.15505931802709
 20
-3.154139842827006
 30
0.0
 10
-25.9875
 20
-3.162642521745751
 30
0.0
  0
LINE
  5
39C
330
1F
100
AcDbEntity
  8
외형선
  6
Continuous
370
    15
100
AcDbLine
 10
-26.9875
 20
-3.059778491685321
 30
0.0
 11
-26.9875
 21
-0.144852518974999
 31
0.0
  0
SPLINE
  5
39D
330
1F
100
AcDbEntity
  8
외형선
  6
Continuous
370
    15
100
AcDbSpline
210
0.0
220
0.0
230
1.0
 70
     8
 71
     3
 72
    10
 73
     6
 74
     0
 42
0.000000001
 43
0.00000001
 40
0.0
 40
0.0
 40
0.0
 40
0.0
 40
0.5000000000000001
 40
0.5000000000000001
 40
1.0
 40
1.0
 40
1.0
 40
1.0
 10
-26.9875
 20
3.059778491685337
 30
0.0
 10
-26.82082296506717
 20
3.085484843851249
 30
0.0
 10
-26.65589079257451
 20
3.106896043485649
 30
0.0
 10
-26.32266475443483
 20
3.141248178963012
 30
0.0
 10
-26.15505931802709
 20
3.154139842827008
 30
0.0
 10
-25.9875
 20
3.162642521745753
 30
0.0
  0
SPLINE
  5
39E
330
1F
100
AcDbEntity
  8
외형선
  6
Continuous
370
    15
100
AcDbSpline
210
0.0
220
0.0
230
1.0
 70
    24
 71
     3
 72
    16
 73
    12
 74
     0
 42
0.000000001
 43
0.00000001
 40
0.0
 40
0.0
 40
0.0
 40
0.0
 40
0.0383055395534979
 40
0.1829310925220319
 40
0.3317507963242846
 40
0.4763763492928188
 40
0.6251960530950716
 40
0.7698216060636065
 40
0.9186413098658592
 40
0.9592762476666987
 40
1.0
 40
1.0
 40
1.0
 40
1.0
 10
-26.9875
 20
1.598912244754979
 30
0.0
 10
-26.9875
 20
1.601338222682835
 30
0.0
 10
-26.9875
 20
1.612923669538547
 30
0.0
 10
-26.9875
 20
1.692127306461886
 30
0.0
 10
-26.9875
 20
1.834437685918858
 30
0.0
 10
-26.9875
 20
2.034184276525381
 30
0.0
 10
-26.9875
 20
2.276219773382196
 30
0.0
 10
-26.9875
 20
2.55951099576813
 30
0.0
 10
-26.9875
 20
2.797061265001987
 30
0.0
 10
-26.9875
 20
2.967549821670155
 30
0.0
 10
-26.9875
 20
3.029013236339723
 30
0.0
 10
-26.9875
 20
3.059778491685351
 30
0.0
  0
SPLINE
  5
39F
330
1F
100
AcDbEntity
  8
0
  6
Continuous
 62
     1
370
    15
100
AcDbSpline
210
0.0
220
0.0
230
1.0
 70
     8
 71
     3
 72
    28
 73
    24
 74
     0
 42
0.000000001
 43
0.00000001
 40
0.0
 40
0.0
 40
0.0
 40
0.0
 40
0.1250000000000002
 40
0.1250000000000002
 40
0.2500000000000004
 40
0.2500000000000004
 40
0.3125000000000003
 40
0.3125000000000003
 40
0.3750000000000001
 40
0.3750000000000001
 40
0.4375
 40
0.4375
 40
0.4999999999999999
 40
0.4999999999999999
 40
0.6249999999999999
 40
0.6249999999999999
 40
0.6874999999999999
 40
0.6874999999999999
 40
0.7499999999999999
 40
0.7499999999999999
 40
0.875
 40
0.875
 40
1.0
 40
1.0
 40
1.0
 40
1.0
 10
-36.51249999999997
 20
1.327021745504511
 30
0.0
 10
-36.11578805350381
 20
1.118922233704447
 30
0.0
 10
-35.71537580250749
 20
0.8997367457090928
 30
0.0
 10
-34.92731995529577
 20
0.4531308627929118
 30
0.0
 10
-34.52541276309911
 20
0.2230416606983507
 30
0.0
 10
-33.93166301891334
 20
-0.1203047026152422
 30
0.0
 10
-33.73531121406664
 20
-0.2344417491553503
 30
0.0
 10
-33.3378856639511
 20
-0.4622621878527571
 30
0.0
 10
-33.13821108110254
 20
-0.5756727117372111
 30
0.0
 10
-32.74044347466101
 20
-0.7995017163575102
 30
0.0
 10
-32.54364599871666
 20
-0.9096824195316049
 30
0.0
 10
-32.1484378901328
 20
-1.126380848184339
 30
0.0
 10
-31.94914566200764
 20
-1.233050054397323
 30
0.0
 10
-31.35142892020049
 20
-1.545157427344491
 30
0.0
 10
-30.95850216180285
 20
-1.741809993430215
 30
0.0
 10
-30.36156737396463
 20
-2.015404508575648
 30
0.0
 10
-30.16191121661602
 20
-2.102930740436491
 30
0.0
 10
-29.76474721636133
 20
-2.269118933012733
 30
0.0
 10
-29.56857548793111
 20
-2.347623123149048
 30
0.0
 10
-28.97426189850562
 20
-2.569742245970985
 30
0.0
 10
-28.57242997596721
 20
-2.699392831633246
 30
0.0
 10
-27.78541003056525
 20
-2.913109858933878
 30
0.0
 10
-27.38387816716009
 20
-2.998645674197873
 30
0.0
 10
-26.9875
 20
-3.059778491685328
 30
0.0
  0
SPLINE
  5
3A0
330
1F
100
AcDbEntity
  8
0
  6
Continuous
 62
     1
370
    15
100
AcDbSpline
210
0.0
220
0.0
230
1.0
 70
     8
 71
     3
 72
    15
 73
    11
 74
     0
 42
0.000000001
 43
0.00000001
 40
0.0
 40
0.0
 40
0.0
 40
0.0
 40
0.1544731402171503
 40
0.308944605799751
 40
0.4442130238136646
 40
0.5795820330113605
 40
0.7151070695423662
 40
0.8505232094706168
 40
0.9858130397164898
 40
1.0
 40
1.0
 40
1.0
 40
1.0
 10
-38.83753051505452
 20
-0.3327135945565647
 30
0.0
 10
-38.38675503268188
 20
-0.5059236913814675
 30
0.0
 10
-37.48520895476803
 20
-0.85234200727045
 30
0.0
 10
-36.18885459340989
 20
-1.295988261865772
 30
0.0
 10
-34.94852888927498
 20
-1.654165736223894
 30
0.0
 10
-33.7633428152739
 20
-1.918619760432789
 30
0.0
 10
-32.57751952719984
 20
-2.096956233376559
 30
0.0
 10
-31.39209093147041
 20
-2.168420255424734
 30
0.0
 10
-30.56081799208407
 20
-2.174333632869149
 30
0.0
 10
-30.12467741701566
 20
-2.128646274058197
 30
0.0
 10
-30.08328297046238
 20
-2.124310050738088
 30
0.0
  0
SPLINE
  5
3A1
330
1F
100
AcDbEntity
  8
0
  6
Continuous
 62
     1
370
    15
100
AcDbSpline
210
0.0
220
0.0
230
1.0
 70
     8
 71
     3
 72
    24
 73
    20
 74
     0
 42
0.000000001
 43
0.00000001
 40
0.0
 40
0.0
 40
0.0
 40
0.0
 40
0.1250000000000001
 40
0.1250000000000001
 40
0.2500000000000001
 40
0.2500000000000001
 40
0.3750000000000002
 40
0.3750000000000002
 40
0.4375000000000002
 40
0.4375000000000002
 40
0.5000000000000002
 40
0.5000000000000002
 40
0.6250000000000001
 40
0.6250000000000001
 40
0.7500000000000001
 40
0.7500000000000001
 40
0.875
 40
0.875
 40
1.0
 40
1.0
 40
1.0
 40
1.0
 10
-36.51249999999997
 20
1.327021745504682
 30
0.0
 10
-36.68881527825796
 20
1.41950981815397
 30
0.0
 10
-36.86201716956928
 20
1.50287864820183
 30
0.0
 10
-37.20808090765239
 20
1.642756157959768
 30
0.0
 10
-37.38270241105208
 20
1.699952890085478
 30
0.0
 10
-37.72755826218652
 20
1.773375137620705
 30
0.0
 10
-37.8965570437915
 20
1.790099359052421
 30
0.0
 10
-38.15047853981419
 20
1.771474994661277
 30
0.0
 10
-38.23362542777095
 20
1.757966198588244
 30
0.0
 10
-38.39687673594672
 20
1.713238736544598
 30
0.0
 10
-38.47800781796248
 20
1.681565199469526
 30
0.0
 10
-38.7115808149254
 20
1.555425874459773
 30
0.0
 10
-38.85638016970883
 20
1.427806358293126
 30
0.0
 10
-39.07653122608262
 20
1.088947516046624
 30
0.0
 10
-39.14285124774834
 20
0.8880112873895112
 30
0.0
 10
-39.17631501951119
 20
0.4953223578841499
 30
0.0
 10
-39.14615839693629
 20
0.3102312868816395
 30
0.0
 10
-39.02951176670358
 20
-0.0287477644812089
 30
0.0
 10
-38.94312837895403
 20
-0.1843699170421178
 30
0.0
 10
-38.8375305150539
 20
-0.3327135945568063
 30
0.0
  0
SPLINE
  5
3A2
330
1F
100
AcDbEntity
  8
0
  6
Continuous
 62
     1
370
    15
100
AcDbSpline
210
0.0
220
0.0
230
1.0
 70
     8
 71
     3
 72
    11
 73
     7
 74
     0
 42
0.000000001
 43
0.00000001
 40
0.0
 40
0.0
 40
0.0
 40
0.0
 40
0.2641642338917086
 40
0.5347229534401704
 40
0.7670974926709103
 40
1.0
 40
1.0
 40
1.0
 40
1.0
 10
-31.3634014401858
 20
2.157427994471846
 30
0.0
 10
-30.97808903869289
 20
2.157435855617167
 30
0.0
 10
-30.19813717962374
 20
2.157451768198436
 30
0.0
 10
-29.07925434748624
 20
2.03654976887831
 30
0.0
 10
-28.00610199248733
 20
1.852434641153772
 30
0.0
 10
-27.32729075539991
 20
1.6834836153379
 30
0.0
 10
-26.9875
 20
1.598912244754979
 30
0.0
  0
SPLINE
  5
3A3
330
1F
100
AcDbEntity
  8
0
  6
Continuous
 62
     1
370
    15
100
AcDbSpline
210
0.0
220
0.0
230
1.0
 70
     8
 71
     3
 72
    17
 73
    13
 74
     0
 42
0.000000001
 43
0.00000001
 40
0.0
 40
0.0
 40
0.0
 40
0.0
 40
0.1257912854129376
 40
0.2528943070667514
 40
0.3557513787147388
 40
0.459323712581173
 40
0.5619165848988533
 40
0.6652227863796761
 40
0.7651084386756791
 40
0.8656479705029112
 40
0.9682003227861009
 40
1.0
 40
1.0
 40
1.0
 40
1.0
 10
-26.9875
 20
-0.1448525189761571
 30
0.0
 10
-27.36036123307149
 20
0.0705604141059066
 30
0.0
 10
-28.10997185085095
 20
0.5036325801639461
 30
0.0
 10
-29.16457255986272
 20
1.094853210187211
 30
0.0
 10
-30.15220018776675
 20
1.612184028889815
 30
0.0
 10
-31.06803305239525
 20
2.045750193677443
 30
0.0
 10
-31.9853999104284
 20
2.423218553061269
 30
0.0
 10
-32.89069849522825
 20
2.730606138547295
 30
0.0
 10
-33.79137884176849
 20
2.962918281733594
 30
0.0
 10
-34.68885370401095
 20
3.111232354464328
 30
0.0
 10
-35.38446790184121
 20
3.179591157940252
 30
0.0
 10
-35.78275729668816
 20
3.168282738875846
 30
0.0
 10
-35.87702810332401
 20
3.165606157975703
 30
0.0
  0
SPLINE
  5
3A4
330
1F
100
AcDbEntity
  8
외형선
  6
Continuous
370
    15
100
AcDbSpline
210
0.0
220
0.0
230
1.0
 70
    24
 71
     3
 72
    14
 73
    10
 74
     0
 42
0.000000001
 43
0.00000001
 40
0.0
 40
0.0
 40
0.0
 40
0.0
 40
0.25
 40
0.25
 40
0.5
 40
0.5
 40
0.75
 40
0.75
 40
1.0
 40
1.0
 40
1.0
 40
1.0
 10
-26.9875
 20
-0.1448525189747005
 30
0.0
 10
-26.9875
 20
-0.1192534443751601
 30
0.0
 10
-26.9875
 20
-0.0453559872480145
 30
0.0
 10
-26.9875
 20
0.1837302434455819
 30
0.0
 10
-26.9875
 20
0.3380095327375383
 30
0.0
 10
-26.9875
 20
0.6828680568533454
 30
0.0
 10
-26.9875
 20
0.8725113518185179
 30
0.0
 10
-26.9875
 20
1.245786297706645
 30
0.0
 10
-26.9875
 20
1.429268838538428
 30
0.0
 10
-26.9875
 20
1.598912244754986
 30
0.0
  0
SPLINE
  5
3A5
330
1F
100
AcDbEntity
  8
0
  6
Continuous
 62
     1
370
    15
100
AcDbSpline
210
0.0
220
0.0
230
1.0
 70
     8
 71
     3
 72
    10
 73
     6
 74
     0
 42
0.000000001
 43
0.00000001
 40
0.0
 40
0.0
 40
0.0
 40
0.0
 40
0.5000000000000002
 40
0.5000000000000002
 40
1.0
 40
1.0
 40
1.0
 40
1.0
 10
-38.8375305150539
 20
-0.3327135945568063
 30
0.0
 10
-38.91054688662039
 20
-0.3767665439002801
 30
0.0
 10
-38.96883578540356
 20
-0.4437631440584926
 30
0.0
 10
-39.04679420150548
 20
-0.6135945363276807
 30
0.0
 10
-39.06609963175633
 20
-0.7158996076812076
 30
0.0
 10
-39.06788697796854
 20
-0.8222956141747051
 30
0.0
  0
ARC
  5
3A6
330
1F
100
AcDbEntity
  8
0
  6
Continuous
 62
     1
370
    15
100
AcDbCircle
 10
-38.16846872609936
 20
0.5519214779229042
 30
0.0
 40
1.6423841840473
100
AcDbArc
 50
203.841271978195
 51
236.7954524591788
  0
ARC
  5
3A7
330
1F
100
AcDbEntity
  8
0
  6
Continuous
 62
     1
370
    15
100
AcDbCircle
 10
-36.8320099987282
 20
-0.0589080879773707
 30
0.0
 40
2.839191476244565
100
AcDbArc
 50
181.0702067611545
 51
251.1504906398094
  0
SPLINE
  5
3A8
330
1F
100
AcDbEntity
  8
0
  6
Continuous
 62
     1
370
    15
100
AcDbSpline
210
0.0
220
0.0
230
1.0
 70
     8
 71
     3
 72
    10
 73
     6
 74
     0
 42
0.000000001
 43
0.00000001
 40
0.0
 40
0.0
 40
0.0
 40
0.0
 40
0.5
 40
0.5
 40
1.0
 40
1.0
 40
1.0
 40
1.0
 10
-37.74930613301346
 20
-2.745834964690828
 30
0.0
 10
-37.55269162763106
 20
-2.865650022546141
 30
0.0
 10
-37.35018570773404
 20
-2.959768233867762
 30
0.0
 10
-36.93750200343284
 20
-3.096733595775759
 30
0.0
 10
-36.72543401584353
 20
-3.139759319449722
 30
0.0
 10
-36.5124999999998
 20
-3.153907900777759
 30
0.0
  0
SPLINE
  5
3A9
330
1F
100
AcDbEntity
  8
0
  6
Continuous
 62
     1
370
    15
100
AcDbSpline
210
0.0
220
0.0
230
1.0
 70
     8
 71
     3
 72
     8
 73
     4
 74
     0
 42
0.000000001
 43
0.00000001
 40
0.0
 40
0.0
 40
0.0
 40
0.0
 40
1.0
 40
1.0
 40
1.0
 40
1.0
 10
-37.10467302342694
 20
-1.421300422022646
 30
0.0
 10
-37.75012600409674
 20
-1.241906286902249
 30
0.0
 10
-38.40819561614636
 20
-1.039789687382138
 30
0.0
 10
-39.06788697796854
 20
-0.8222956141747264
 30
0.0
  0
SPLINE
  5
3AA
330
1F
100
AcDbEntity
  8
0
  6
Continuous
 62
     1
370
    15
100
AcDbSpline
210
0.0
220
0.0
230
1.0
 70
     8
 71
     3
 72
    13
 73
     9
 74
     0
 42
0.000000001
 43
0.00000001
 40
0.0
 40
0.0
 40
0.0
 40
0.0
 40
0.12033130599955
 40
0.2986780853196936
 40
0.4711196631913835
 40
0.6446900920593008
 40
0.8217354337642412
 40
1.0
 40
1.0
 40
1.0
 40
1.0
 10
-31.3634014401858
 20
-2.157427994471845
 30
0.0
 10
-31.56999970840432
 20
-2.244571106832658
 30
0.0
 10
-32.08280370956855
 20
-2.46087174225353
 30
0.0
 10
-32.89068926360373
 20
-2.7294338706238
 30
0.0
 10
-33.79138706374953
 20
-2.962530338471381
 30
0.0
 10
-34.68882952316413
 20
-3.113998222239444
 30
0.0
 10
-35.59617878888189
 20
-3.189446799561778
 30
0.0
 10
-36.20636166104588
 20
-3.165781269319253
 30
0.0
 10
-36.51249999999969
 20
-3.153907900777766
 30
0.0
  0
SPLINE
  5
3AB
330
1F
100
AcDbEntity
  8
0
  6
Continuous
 62
     1
370
    15
100
AcDbSpline
210
0.0
220
0.0
230
1.0
 70
     8
 71
     3
 72
    14
 73
    10
 74
     0
 42
0.000000001
 43
0.00000001
 40
0.0
 40
0.0
 40
0.0
 40
0.0
 40
0.2500000000000002
 40
0.2500000000000002
 40
0.5000000000000003
 40
0.5000000000000003
 40
0.7500000000000001
 40
0.7500000000000001
 40
1.0
 40
1.0
 40
1.0
 40
1.0
 10
-37.74930613301346
 20
-2.745834964690828
 30
0.0
 10
-37.77185599609673
 20
-2.612544322476118
 30
0.0
 10
-37.78197811097651
 20
-2.476835981654204
 30
0.0
 10
-37.76221525516242
 20
-2.202072074915463
 30
0.0
 10
-37.73155871870914
 20
-2.066723175768899
 30
0.0
 10
-37.61945726739383
 20
-1.820463414477458
 30
0.0
 10
-37.53763814151903
 20
-1.710828110182162
 30
0.0
 10
-37.34016708228351
 20
-1.535668418786676
 30
0.0
 10
-37.22452174395708
 20
-1.468988956236258
 30
0.0
 10
-37.10467302342694
 20
-1.421300422022646
 30
0.0
  0
SPLINE
  5
3AC
330
1F
100
AcDbEntity
  8
0
  6
Continuous
 62
     1
370
    15
100
AcDbSpline
210
0.0
220
0.0
230
1.0
 70
     8
 71
     3
 72
    10
 73
     6
 74
     0
 42
0.000000001
 43
0.00000001
 40
0.0
 40
0.0
 40
0.0
 40
0.0
 40
0.0976471399652761
 40
0.5488298125059883
 40
1.0
 40
1.0
 40
1.0
 40
1.0
 10
-30.08328297046238
 20
2.12431005073809
 30
0.0
 10
-29.98251734454202
 20
2.170664009482715
 30
0.0
 10
-29.41615995198977
 20
2.4311983630313
 30
0.0
 10
-28.38423162252199
 20
2.781186104486282
 30
0.0
 10
-27.45307291297154
 20
2.966915219208006
 30
0.0
 10
-26.9875
 20
3.059778491685337
 30
0.0
  0
SPLINE
  5
3AD
330
1F
100
AcDbEntity
  8
외형선
  6
Continuous
370
    15
100
AcDbSpline
210
0.0
220
0.0
230
1.0
 70
    24
 71
     3
 72
    15
 73
    11
 74
     0
 42
0.000000001
 43
0.00000001
 40
0.0
 40
0.0
 40
0.0
 40
0.0
 40
0.1009491852308447
 40
0.2361571202443381
 40
0.3752860945328591
 40
0.5104940295463526
 40
0.6496230038348738
 40
0.7848309388483679
 40
0.923959913136889
 40
1.0
 40
1.0
 40
1.0
 40
1.0
 10
-26.9875
 20
1.583114963629108
 30
0.0
 10
-26.9875
 20
1.588661015951332
 30
0.0
 10
-26.9875
 20
1.601635263758746
 30
0.0
 10
-26.9875
 20
1.69047110578599
 30
0.0
 10
-26.9875
 20
1.834869054108581
 30
0.0
 10
-26.9875
 20
2.034078314714656
 30
0.0
 10
-26.9875
 20
2.276201484459905
 30
0.0
 10
-26.9875
 20
2.559683471285468
 30
0.0
 10
-26.9875
 20
2.825439196503091
 30
0.0
 10
-26.9875
 20
2.998588173721175
 30
0.0
 10
-26.9875
 20
3.059778491685351
 30
0.0
  0
LINE
  5
3E8
330
1F
100
AcDbEntity
  8
외형선
  6
Continuous
370
    15
100
AcDbLine
 10
-4.838700000000028
 20
4.762499999999999
 30
0.0
 11
-20.0628693429844
 21
4.762499999999998
 31
0.0
  0
ENDSEC
  0
SECTION
  2
OBJECTS
  0
DICTIONARY
  5
C
330
0
100
AcDbDictionary
281
     1
  3
ACAD_GROUP
350
D
  3
ACAD_IMAGE_VARS
350
14E
  3
ACAD_LAYOUT
350
1A
  3
ACAD_MLINESTYLE
350
17
  3
ACAD_PLOTSETTINGS
350
19
  3
ACAD_PLOTSTYLENAME
350
E
  3
ACAD_SCALELIST
350
47
  3
APPDATA
350
14C
  3
DWGPROPS
350
40C
  0
DICTIONARY
  5
204
330
2
100
AcDbDictionary
280
     1
281
     1
  3
ACAD_LAYERSTATES
360
205
  0
DICTIONARY
  5
D
102
{ACAD_REACTORS
330
C
102
}
330
C
100
AcDbDictionary
281
     1
  0
RASTERVARIABLES
  5
14E
102
{ACAD_REACTORS
330
C
102
}
330
C
100
AcDbRasterVariables
 90
        0
 70
     1
 71
     1
 72
     1
  0
DICTIONARY
  5
1A
102
{ACAD_REACTORS
330
C
102
}
330
C
100
AcDbDictionary
281
     1
  3
Layout1
350
1E
  3
Layout2
350
26
  3
Model
350
22
  0
DICTIONARY
  5
17
102
{ACAD_REACTORS
330
C
102
}
330
C
100
AcDbDictionary
281
     1
  3
Standard
350
18
  0
DICTIONARY
  5
19
102
{ACAD_REACTORS
330
C
102
}
330
C
100
AcDbDictionary
281
     1
  0
ACDBDICTIONARYWDFLT
  5
E
102
{ACAD_REACTORS
330
C
102
}
330
C
100
AcDbDictionary
281
     1
  3
Normal
350
F
100
AcDbDictionaryWithDefault
340
F
  0
DICTIONARY
  5
47
102
{ACAD_REACTORS
330
C
102
}
330
C
100
AcDbDictionary
281
     1
  3
A0
350
48
  3
A1
350
49
  3
A2
350
4A
  3
A3
350
4B
  3
A4
350
4C
  3
A5
350
4D
  3
A6
350
4E
  3
A7
350
4F
  3
A8
350
50
  3
A9
350
51
  3
B0
350
52
  3
B1
350
53
  3
B2
350
54
  3
B3
350
55
  3
B4
350
56
  3
B5
350
57
  3
B6
350
58
  3
B7
350
59
  3
B8
350
5A
  3
B9
350
5B
  3
C0
350
5C
  3
C1
350
5D
  3
C2
350
5E
  3
C3
350
5F
  3
C4
350
60
  3
C5
350
61
  3
C6
350
62
  3
C7
350
63
  3
C8
350
64
  3
C9
350
65
  3
D0
350
66
  3
D1
350
67
  3
D2
350
68
  0
DICTIONARY
  5
14C
102
{ACAD_REACTORS
330
C
102
}
330
C
100
AcDbDictionary
281
     1
  0
XRECORD
  5
40C
102
{ACAD_REACTORS
330
C
102
}
330
C
100
AcDbXrecord
280
     1
  1
DWGPROPS COOKIE
  2

  3

  4

  6

  7

  8
12016016
  9

300
=
301
=
302
=
303
=
304
=
305
=
306
=
307
=
308
=
309
=
 40
0.0
 41
2458319.367829711
 42
2458323.299074549
  1

 90
        0
  0
DICTIONARY
  5
205
102
{ACAD_REACTORS
330
204
102
}
330
204
100
AcDbDictionary
281
     1
  0
LAYOUT
  5
1E
102
{ACAD_REACTORS
330
1A
102
}
330
1A
100
AcDbPlotSettings
  1

  2
none_device
  4

  6

 40
0.0
 41
0.0
 42
0.0
 43
0.0
 44
0.0
 45
0.0
 46
0.0
 47
0.0
 48
0.0
 49
0.0
140
0.0
141
0.0
142
1.0
143
1.0
 70
   688
 72
     1
 73
     0
 74
     5
  7

 75
    16
147
1.0
148
0.0
149
0.0
100
AcDbLayout
  1
Layout1
 70
     1
 71
     1
 10
0.0
 20
0.0
 11
420.0
 21
297.0
 12
0.0
 22
0.0
 32
0.0
 14
1.000000000000000E+20
 24
1.000000000000000E+20
 34
1.000000000000000E+20
 15
-1.000000000000000E+20
 25
-1.000000000000000E+20
 35
-1.000000000000000E+20
146
0.0
 13
0.0
 23
0.0
 33
0.0
 16
1.0
 26
0.0
 36
0.0
 17
0.0
 27
1.0
 37
0.0
 76
     0
330
1B
  0
LAYOUT
  5
26
102
{ACAD_REACTORS
330
1A
102
}
330
1A
100
AcDbPlotSettings
  1

  2
none_device
  4

  6

 40
0.0
 41
0.0
 42
0.0
 43
0.0
 44
0.0
 45
0.0
 46
0.0
 47
0.0
 48
0.0
 49
0.0
140
0.0
141
0.0
142
1.0
143
1.0
 70
   688
 72
     1
 73
     0
 74
     5
  7

 75
    16
147
1.0
148
0.0
149
0.0
100
AcDbLayout
  1
Layout2
 70
     1
 71
     2
 10
0.0
 20
0.0
 11
0.0
 21
0.0
 12
0.0
 22
0.0
 32
0.0
 14
0.0
 24
0.0
 34
0.0
 15
0.0
 25
0.0
 35
0.0
146
0.0
 13
0.0
 23
0.0
 33
0.0
 16
1.0
 26
0.0
 36
0.0
 17
0.0
 27
1.0
 37
0.0
 76
     0
330
23
  0
LAYOUT
  5
22
102
{ACAD_REACTORS
330
1A
102
}
330
1A
100
AcDbPlotSettings
  1

  2
none_device
  4
ANSI_A_(11.00_x_8.50_Inches)
  6

 40
6.35
 41
19.05
 42
6.35000508
 43
19.05000254
 44
279.4
 45
215.9
 46
133.1321312798518
 47
90.81085601805768
 48
0.0
 49
0.0
140
0.0
141
0.0
142
0.0669813310876252
143
1.0
 70
  1696
 72
     0
 73
     0
 74
     0
  7

 75
     0
147
0.0235690232323232
148
0.0
149
0.0
100
AcDbLayout
  1
Model
 70
     1
 71
     0
 10
0.0
 20
0.0
 11
420.0
 21
297.0
 12
0.0
 22
0.0
 32
0.0
 14
-56.68250000000003
 24
-49.97073246008785
 34
0.0
 15
81.41936447236115
 25
35.15400000000005
 35
0.0
146
0.0
 13
0.0
 23
0.0
 33
0.0
 16
1.0
 26
0.0
 36
0.0
 17
0.0
 27
1.0
 37
0.0
 76
     0
330
1F
331
29
  0
MLINESTYLE
  5
18
102
{ACAD_REACTORS
330
17
102
}
330
17
100
AcDbMlineStyle
  2
Standard
 70
     0
  3

 62
   256
 51
90.0
 52
90.0
 71
     2
 49
0.5
 62
   256
  6
BYLAYER
 49
-0.5
 62
   256
  6
BYLAYER
  0
ACDBPLACEHOLDER
  5
F
102
{ACAD_REACTORS
330
E
102
}
330
E
  0
SCALE
  5
48
102
{ACAD_REACTORS
330
47
102
}
330
47
100
AcDbScale
 70
     0
300
1:1
140
1.0
141
1.0
290
     1
  0
SCALE
  5
49
102
{ACAD_REACTORS
330
47
102
}
330
47
100
AcDbScale
 70
     0
300
1:2
140
1.0
141
2.0
290
     0
  0
SCALE
  5
4A
102
{ACAD_REACTORS
330
47
102
}
330
47
100
AcDbScale
 70
     0
300
1:4
140
1.0
141
4.0
290
     0
  0
SCALE
  5
4B
102
{ACAD_REACTORS
330
47
102
}
330
47
100
AcDbScale
 70
     0
300
1:5
140
1.0
141
5.0
290
     0
  0
SCALE
  5
4C
102
{ACAD_REACTORS
330
47
102
}
330
47
100
AcDbScale
 70
     0
300
1:8
140
1.0
141
8.0
290
     0
  0
SCALE
  5
4D
102
{ACAD_REACTORS
330
47
102
}
330
47
100
AcDbScale
 70
     0
300
1:10
140
1.0
141
10.0
290
     0
  0
SCALE
  5
4E
102
{ACAD_REACTORS
330
47
102
}
330
47
100
AcDbScale
 70
     0
300
1:16
140
1.0
141
16.0
290
     0
  0
SCALE
  5
4F
102
{ACAD_REACTORS
330
47
102
}
330
47
100
AcDbScale
 70
     0
300
1:20
140
1.0
141
20.0
290
     0
  0
SCALE
  5
50
102
{ACAD_REACTORS
330
47
102
}
330
47
100
AcDbScale
 70
     0
300
1:30
140
1.0
141
30.0
290
     0
  0
SCALE
  5
51
102
{ACAD_REACTORS
330
47
102
}
330
47
100
AcDbScale
 70
     0
300
1:40
140
1.0
141
40.0
290
     0
  0
SCALE
  5
52
102
{ACAD_REACTORS
330
47
102
}
330
47
100
AcDbScale
 70
     0
300
1:50
140
1.0
141
50.0
290
     0
  0
SCALE
  5
53
102
{ACAD_REACTORS
330
47
102
}
330
47
100
AcDbScale
 70
     0
300
1:100
140
1.0
141
100.0
290
     0
  0
SCALE
  5
54
102
{ACAD_REACTORS
330
47
102
}
330
47
100
AcDbScale
 70
     0
300
2:1
140
2.0
141
1.0
290
     0
  0
SCALE
  5
55
102
{ACAD_REACTORS
330
47
102
}
330
47
100
AcDbScale
 70
     0
300
4:1
140
4.0
141
1.0
290
     0
  0
SCALE
  5
56
102
{ACAD_REACTORS
330
47
102
}
330
47
100
AcDbScale
 70
     0
300
8:1
140
8.0
141
1.0
290
     0
  0
SCALE
  5
57
102
{ACAD_REACTORS
330
47
102
}
330
47
100
AcDbScale
 70
     0
300
10:1
140
10.0
141
1.0
290
     0
  0
SCALE
  5
58
102
{ACAD_REACTORS
330
47
102
}
330
47
100
AcDbScale
 70
     0
300
100:1
140
100.0
141
1.0
290
     0
  0
SCALE
  5
59
102
{ACAD_REACTORS
330
47
102
}
330
47
100
AcDbScale
 70
     0
300
1/128" = 1'-0"
140
0.0078125
141
12.0
290
     0
  0
SCALE
  5
5A
102
{ACAD_REACTORS
330
47
102
}
330
47
100
AcDbScale
 70
     0
300
1/64" = 1'-0"
140
0.015625
141
12.0
290
     0
  0
SCALE
  5
5B
102
{ACAD_REACTORS
330
47
102
}
330
47
100
AcDbScale
 70
     0
300
1/32" = 1'-0"
140
0.03125
141
12.0
290
     0
  0
SCALE
  5
5C
102
{ACAD_REACTORS
330
47
102
}
330
47
100
AcDbScale
 70
     0
300
1/16" = 1'-0"
140
0.0625
141
12.0
290
     0
  0
SCALE
  5
5D
102
{ACAD_REACTORS
330
47
102
}
330
47
100
AcDbScale
 70
     0
300
3/32" = 1'-0"
140
0.09375
141
12.0
290
     0
  0
SCALE
  5
5E
102
{ACAD_REACTORS
330
47
102
}
330
47
100
AcDbScale
 70
     0
300
1/8" = 1'-0"
140
0.125
141
12.0
290
     0
  0
SCALE
  5
5F
102
{ACAD_REACTORS
330
47
102
}
330
47
100
AcDbScale
 70
     0
300
3/16" = 1'-0"
140
0.1875
141
12.0
290
     0
  0
SCALE
  5
60
102
{ACAD_REACTORS
330
47
102
}
330
47
100
AcDbScale
 70
     0
300
1/4" = 1'-0"
140
0.25
141
12.0
290
     0
  0
SCALE
  5
61
102
{ACAD_REACTORS
330
47
102
}
330
47
100
AcDbScale
 70
     0
300
3/8" = 1'-0"
140
0.375
141
12.0
290
     0
  0
SCALE
  5
62
102
{ACAD_REACTORS
330
47
102
}
330
47
100
AcDbScale
 70
     0
300
1/2" = 1'-0"
140
0.5
141
12.0
290
     0
  0
SCALE
  5
63
102
{ACAD_REACTORS
330
47
102
}
330
47
100
AcDbScale
 70
     0
300
3/4" = 1'-0"
140
0.75
141
12.0
290
     0
  0
SCALE
  5
64
102
{ACAD_REACTORS
330
47
102
}
330
47
100
AcDbScale
 70
     0
300
1" = 1'-0"
140
1.0
141
12.0
290
     0
  0
SCALE
  5
65
102
{ACAD_REACTORS
330
47
102
}
330
47
100
AcDbScale
 70
     0
300
1-1/2" = 1'-0"
140
1.5
141
12.0
290
     0
  0
SCALE
  5
66
102
{ACAD_REACTORS
330
47
102
}
330
47
100
AcDbScale
 70
     0
300
3" = 1'-0"
140
3.0
141
12.0
290
     0
  0
SCALE
  5
67
102
{ACAD_REACTORS
330
47
102
}
330
47
100
AcDbScale
 70
     0
300
6" = 1'-0"
140
6.0
141
12.0
290
     0
  0
SCALE
  5
68
102
{ACAD_REACTORS
330
47
102
}
330
47
100
AcDbScale
 70
     0
300
1'-0" = 1'-0"
140
12.0
141
12.0
290
     0
  0
ENDSEC
  0
EOF
