  0
SECTION
  2
HEADER
  9
$ACADVER
  1
AC1015
  9
$ACADMAINTVER
 70
     6
  9
$DWGCODEPAGE
  3
ANSI_949
  9
$INSBASE
 10
0.0
 20
0.0
 30
0.0
  9
$EXTMIN
 10
-56.68250000000004
 20
-49.97180738881174
 30
0.0
  9
$EXTMAX
 10
81.41936447236115
 20
44.97679553807914
 30
0.0
  9
$LIMMIN
 10
0.0
 20
0.0
  9
$LIMMAX
 10
420.0
 20
297.0
  9
$ORTHOMODE
 70
     1
  9
$REGENMODE
 70
     1
  9
$FILLMODE
 70
     1
  9
$QTEXTMODE
 70
     0
  9
$MIRRTEXT
 70
     1
  9
$LTSCALE
 40
1.0
  9
$ATTMODE
 70
     1
  9
$TEXTSIZE
 40
3.5
  9
$TRACEWID
 40
1.0
  9
$TEXTSTYLE
  7
Standard
  9
$CLAYER
  8
0
  9
$CELTYPE
  6
ByLayer
  9
$CECOLOR
 62
   256
  9
$CELTSCALE
 40
1.0
  9
$DISPSILH
 70
     0
  9
$DIMSCALE
 40
1.0
  9
$DIMASZ
 40
3.302
  9
$DIMEXO
 40
1.0
  9
$DIMDLI
 40
3.75
  9
$DIMRND
 40
0.0
  9
$DIMDLE
 40
0.0
  9
$DIMEXE
 40
1.0
  9
$DIMTP
 40
0.0
  9
$DIMTM
 40
0.0
  9
$DIMTXT
 40
3.5
  9
$DIMCEN
 40
2.5
  9
$DIMTSZ
 40
0.0
  9
$DIMTOL
 70
     0
  9
$DIMLIM
 70
     0
  9
$DIMTIH
 70
     1
  9
$DIMTOH
 70
     1
  9
$DIMSE1
 70
     0
  9
$DIMSE2
 70
     0
  9
$DIMTAD
 70
     1
  9
$DIMZIN
 70
     0
  9
$DIMBLK
  1

  9
$DIMASO
 70
     1
  9
$DIMSHO
 70
     1
  9
$DIMPOST
  1

  9
$DIMAPOST
  1

  9
$DIMALT
 70
     0
  9
$DIMALTD
 70
     3
  9
$DIMALTF
 40
0.0393700787401575
  9
$DIMLFAC
 40
1.0
  9
$DIMTOFL
 70
     1
  9
$DIMTVP
 40
0.0
  9
$DIMTIX
 70
     0
  9
$DIMSOXD
 70
     0
  9
$DIMSAH
 70
     0
  9
$DIMBLK1
  1

  9
$DIMBLK2
  1

  9
$DIMSTYLE
  2
ISO-25
  9
$DIMCLRD
 70
     0
  9
$DIMCLRE
 70
     0
  9
$DIMCLRT
 70
     0
  9
$DIMTFAC
 40
1.0
  9
$DIMGAP
 40
1.524
  9
$DIMJUST
 70
     0
  9
$DIMSD1
 70
     0
  9
$DIMSD2
 70
     0
  9
$DIMTOLJ
 70
     0
  9
$DIMTZIN
 70
     0
  9
$DIMALTZ
 70
     0
  9
$DIMALTTZ
 70
     0
  9
$DIMUPT
 70
     0
  9
$DIMDEC
 70
     2
  9
$DIMTDEC
 70
     2
  9
$DIMALTU
 70
     2
  9
$DIMALTTD
 70
     3
  9
$DIMTXSTY
  7
Standard
  9
$DIMAUNIT
 70
     0
  9
$DIMADEC
 70
     2
  9
$DIMALTRND
 40
0.0
  9
$DIMAZIN
 70
     0
  9
$DIMDSEP
 70
    44
  9
$DIMATFIT
 70
     3
  9
$DIMFRAC
 70
     0
  9
$DIMLDRBLK
  1

  9
$DIMLUNIT
 70
     2
  9
$DIMLWD
 70
    -2
  9
$DIMLWE
 70
    -2
  9
$DIMTMOVE
 70
     0
  9
$LUNITS
 70
     2
  9
$LUPREC
 70
     2
  9
$SKETCHINC
 40
1.0
  9
$FILLETRAD
 40
10.0
  9
$AUNITS
 70
     0
  9
$AUPREC
 70
     2
  9
$MENU
  1
.
  9
$ELEVATION
 40
0.0
  9
$PELEVATION
 40
0.0
  9
$THICKNESS
 40
0.0
  9
$LIMCHECK
 70
     0
  9
$CHAMFERA
 40
0.0
  9
$CHAMFERB
 40
0.0
  9
$CHAMFERC
 40
0.0
  9
$CHAMFERD
 40
0.0
  9
$SKPOLY
 70
     0
  9
$TDCREATE
 40
2458319.742406308
  9
$TDUCREATE
 40
2458319.367406308
  9
$TDUPDATE
 40
2458323.673438021
  9
$TDUUPDATE
 40
2458323.298438021
  9
$TDINDWG
 40
0.001821875
  9
$TDUSRTIMER
 40
2458323.298019097
  9
$USRTIMER
 70
     1
  9
$ANGBASE
 50
0.0
  9
$ANGDIR
 70
     0
  9
$PDMODE
 70
     0
  9
$PDSIZE
 40
-1.0
  9
$PLINEWID
 40
0.0
  9
$SPLFRAME
 70
     0
  9
$SPLINETYPE
 70
     6
  9
$SPLINESEGS
 70
     8
  9
$HANDSEED
  5
4E0
  9
$SURFTAB1
 70
     6
  9
$SURFTAB2
 70
     6
  9
$SURFTYPE
 70
     6
  9
$SURFU
 70
     6
  9
$SURFV
 70
     6
  9
$UCSBASE
  2

  9
$UCSNAME
  2

  9
$UCSORG
 10
0.0
 20
0.0
 30
0.0
  9
$UCSXDIR
 10
1.0
 20
0.0
 30
0.0
  9
$UCSYDIR
 10
0.0
 20
1.0
 30
0.0
  9
$UCSORTHOREF
  2

  9
$UCSORTHOVIEW
 70
     0
  9
$UCSORGTOP
 10
0.0
 20
0.0
 30
0.0
  9
$UCSORGBOTTOM
 10
0.0
 20
0.0
 30
0.0
  9
$UCSORGLEFT
 10
0.0
 20
0.0
 30
0.0
  9
$UCSORGRIGHT
 10
0.0
 20
0.0
 30
0.0
  9
$UCSORGFRONT
 10
0.0
 20
0.0
 30
0.0
  9
$UCSORGBACK
 10
0.0
 20
0.0
 30
0.0
  9
$PUCSBASE
  2

  9
$PUCSNAME
  2

  9
$PUCSORG
 10
0.0
 20
0.0
 30
0.0
  9
$PUCSXDIR
 10
1.0
 20
0.0
 30
0.0
  9
$PUCSYDIR
 10
0.0
 20
1.0
 30
0.0
  9
$PUCSORTHOREF
  2

  9
$PUCSORTHOVIEW
 70
     0
  9
$PUCSORGTOP
 10
0.0
 20
0.0
 30
0.0
  9
$PUCSORGBOTTOM
 10
0.0
 20
0.0
 30
0.0
  9
$PUCSORGLEFT
 10
0.0
 20
0.0
 30
0.0
  9
$PUCSORGRIGHT
 10
0.0
 20
0.0
 30
0.0
  9
$PUCSORGFRONT
 10
0.0
 20
0.0
 30
0.0
  9
$PUCSORGBACK
 10
0.0
 20
0.0
 30
0.0
  9
$USERI1
 70
     0
  9
$USERI2
 70
     0
  9
$USERI3
 70
     0
  9
$USERI4
 70
     0
  9
$USERI5
 70
     0
  9
$USERR1
 40
0.0
  9
$USERR2
 40
0.0
  9
$USERR3
 40
0.0
  9
$USERR4
 40
0.0
  9
$USERR5
 40
0.0
  9
$WORLDVIEW
 70
     1
  9
$SHADEDGE
 70
     3
  9
$SHADEDIF
 70
    70
  9
$TILEMODE
 70
     1
  9
$MAXACTVP
 70
    64
  9
$PINSBASE
 10
0.0
 20
0.0
 30
0.0
  9
$PLIMCHECK
 70
     0
  9
$PEXTMIN
 10
1.000000000000000E+20
 20
1.000000000000000E+20
 30
1.000000000000000E+20
  9
$PEXTMAX
 10
-1.000000000000000E+20
 20
-1.000000000000000E+20
 30
-1.000000000000000E+20
  9
$PLIMMIN
 10
0.0
 20
0.0
  9
$PLIMMAX
 10
0.0
 20
0.0
  9
$UNITMODE
 70
     0
  9
$VISRETAIN
 70
     1
  9
$PLINEGEN
 70
     0
  9
$PSLTSCALE
 70
     1
  9
$TREEDEPTH
 70
  3020
  9
$CMLSTYLE
  2
Standard
  9
$CMLJUST
 70
     0
  9
$CMLSCALE
 40
20.0
  9
$PROXYGRAPHICS
 70
     1
  9
$MEASUREMENT
 70
     1
  9
$CELWEIGHT
370
    -1
  9
$ENDCAPS
280
     0
  9
$JOINSTYLE
280
     0
  9
$LWDISPLAY
290
     1
  9
$INSUNITS
 70
     4
  9
$HYPERLINKBASE
  1

  9
$STYLESHEET
  1

  9
$XEDIT
290
     1
  9
$CEPSNTYPE
380
     0
  9
$PSTYLEMODE
290
     1
  9
$FINGERPRINTGUID
  2
{F9995992-FE64-4B45-B1AC-F2FA92E23813}
  9
$VERSIONGUID
  2
{FAEB1C32-E019-11D5-929B-00C0DF256EC4}
  9
$EXTNAMES
290
     1
  9
$PSVPSCALE
 40
0.0
  9
$OLESTARTUP
290
     0
  0
ENDSEC
  0
SECTION
  2
CLASSES
  0
CLASS
  1
ACDBDICTIONARYWDFLT
  2
AcDbDictionaryWithDefault
  3
ObjectDBX Classes
 90
        0
280
     0
281
     0
  0
CLASS
  1
VISUALSTYLE
  2
AcDbVisualStyle
  3
ObjectDBX Classes
 90
     4095
280
     0
281
     0
  0
CLASS
  1
MATERIAL
  2
AcDbMaterial
  3
ObjectDBX Classes
 90
     1153
280
     0
281
     0
  0
CLASS
  1
SCALE
  2
AcDbScale
  3
ObjectDBX Classes
 90
     1153
280
     0
281
     0
  0
CLASS
  1
SUN
  2
AcDbSun
  3
SCENEOE
 90
     1153
280
     0
281
     0
  0
CLASS
  1
ACDBPLACEHOLDER
  2
AcDbPlaceHolder
  3
ObjectDBX Classes
 90
        0
280
     0
281
     0
  0
CLASS
  1
LAYOUT
  2
AcDbLayout
  3
ObjectDBX Classes
 90
        0
280
     0
281
     0
  0
CLASS
  1
TABLESTYLE
  2
AcDbTableStyle
  3
ObjectDBX Classes
 90
     4095
280
     0
281
     0
  0
CLASS
  1
MLEADERSTYLE
  2
AcDbMLeaderStyle
  3
ACDB_MLEADERSTYLE_CLASS
 90
     4095
280
     0
281
     0
  0
CLASS
  1
RASTERVARIABLES
  2
AcDbRasterVariables
  3
ISM
 90
        0
280
     0
281
     0
  0
ENDSEC
  0
SECTION
  2
TABLES
  0
TABLE
  2
VPORT
  5
8
330
0
100
AcDbSymbolTable
 70
     1
  0
VPORT
  5
29
330
8
100
AcDbSymbolTableRecord
100
AcDbViewportTableRecord
  2
*Active
 70
     0
 10
0.0
 20
0.0
 11
1.0
 21
1.0
 12
5.324673349554814
 22
-5.294024753550559
 13
0.0
 23
0.0
 14
10.0
 24
10.0
 15
10.0
 25
10.0
 16
0.0
 26
0.0
 36
1.0
 17
0.0
 27
0.0
 37
0.0
 40
102.6004168072785
 41
1.632093933463796
 42
50.0
 43
0.0
 44
0.0
 50
0.0
 51
0.0
 71
    16
 72
  2000
 73
     1
 74
     3
 75
     0
 76
     0
 77
     0
 78
     0
281
     0
 65
     1
110
0.0
120
0.0
130
0.0
111
1.0
121
0.0
131
0.0
112
0.0
122
1.0
132
0.0
 79
     0
146
0.0
  0
ENDTAB
  0
TABLE
  2
LTYPE
  5
5
330
0
100
AcDbSymbolTable
 70
     6
  0
LTYPE
  5
14
330
5
100
AcDbSymbolTableRecord
100
AcDbLinetypeTableRecord
  2
ByBlock
 70
     0
  3

 72
    65
 73
     0
 40
0.0
  0
LTYPE
  5
15
330
5
100
AcDbSymbolTableRecord
100
AcDbLinetypeTableRecord
  2
ByLayer
 70
     0
  3

 72
    65
 73
     0
 40
0.0
  0
LTYPE
  5
16
330
5
100
AcDbSymbolTableRecord
100
AcDbLinetypeTableRecord
  2
Continuous
 70
     0
  3
Solid line
 72
    65
 73
     0
 40
0.0
  0
LTYPE
  5
6A
330
5
100
AcDbSymbolTableRecord
100
AcDbLinetypeTableRecord
  2
HIDDEN
 70
     0
  3
Hidden __ __ __ __ __ __ __ __ __ __ __ __ __ __
 72
    65
 73
     2
 40
1.905
 49
1.27
 74
     0
 49
-0.635
 74
     0
  0
LTYPE
  5
6B
330
5
100
AcDbSymbolTableRecord
100
AcDbLinetypeTableRecord
  2
PHANTOM
 70
     0
  3
Phantom ______  __  __  ______  __  __  ______
 72
    65
 73
     6
 40
12.7
 49
6.35
 74
     0
 49
-1.27
 74
     0
 49
1.27
 74
     0
 49
-1.27
 74
     0
 49
1.27
 74
     0
 49
-1.27
 74
     0
  0
LTYPE
  5
6C
330
5
100
AcDbSymbolTableRecord
100
AcDbLinetypeTableRecord
  2
CENTER
 70
     0
  3
Center ____ _ ____ _ ____ _ ____ _ ____ _ ____
 72
    65
 73
     4
 40
10.16
 49
6.35
 74
     0
 49
-1.27
 74
     0
 49
1.27
 74
     0
 49
-1.27
 74
     0
  0
LTYPE
  5
6D
330
5
100
AcDbSymbolTableRecord
100
AcDbLinetypeTableRecord
  2
CENTERX2
 70
     0
  3
Center (2x) ________  __  ________  __  _____
 72
    65
 73
     4
 40
20.32
 49
12.7
 74
     0
 49
-2.54
 74
     0
 49
2.54
 74
     0
 49
-2.54
 74
     0
  0
LTYPE
  5
6E
330
5
100
AcDbSymbolTableRecord
100
AcDbLinetypeTableRecord
  2
DOT2
 70
     0
  3
Dot (.5x) ........................................
 72
    65
 73
     2
 40
0.635
 49
0.0
 74
     0
 49
-0.635
 74
     0
  0
ENDTAB
  0
TABLE
  2
LAYER
  5
2
102
{ACAD_XDICTIONARY
360
203
102
}
330
0
100
AcDbSymbolTable
 70
    18
  0
LAYER
  5
10
330
2
100
AcDbSymbolTableRecord
100
AcDbLayerTableRecord
  2
0
 70
     0
 62
     7
  6
Continuous
370
    -3
390
F
  0
LAYER
  5
6F
330
2
100
AcDbSymbolTableRecord
100
AcDbLayerTableRecord
  2
FORMAT
 70
     0
 62
     2
  6
Continuous
370
    -3
390
F
  0
LAYER
  5
70
330
2
100
AcDbSymbolTableRecord
100
AcDbLayerTableRecord
  2
외형선
 70
     0
 62
     4
  6
Continuous
370
    30
390
F
  0
LAYER
  5
71
330
2
100
AcDbSymbolTableRecord
100
AcDbLayerTableRecord
  2
숨은선
 70
     0
 62
     2
  6
HIDDEN
370
    15
390
F
  0
LAYER
  5
72
330
2
100
AcDbSymbolTableRecord
100
AcDbLayerTableRecord
  2
중심선
 70
     0
 62
     1
  6
CENTERX2
370
    -3
390
F
  0
LAYER
  5
73
330
2
100
AcDbSymbolTableRecord
100
AcDbLayerTableRecord
  2
파단선
 70
     0
 62
     4
  6
Continuous
370
    -3
390
F
  0
LAYER
  5
74
330
2
100
AcDbSymbolTableRecord
100
AcDbLayerTableRecord
  2
해칭선
 70
     0
 62
   100
  6
Continuous
370
    -3
390
F
  0
LAYER
  5
75
330
2
100
AcDbSymbolTableRecord
100
AcDbLayerTableRecord
  2
가는실선
 70
     0
 62
     4
  6
Continuous
370
    -3
390
F
  0
LAYER
  5
76
330
2
100
AcDbSymbolTableRecord
100
AcDbLayerTableRecord
  2
치수_보조선
 70
     0
 62
     4
  6
Continuous
370
    -3
390
F
  0
LAYER
  5
77
330
2
100
AcDbSymbolTableRecord
100
AcDbLayerTableRecord
  2
치수문자_일반주서
 70
     0
 62
     7
  6
Continuous
370
    15
390
F
  0
LAYER
  5
78
330
2
100
AcDbSymbolTableRecord
100
AcDbLayerTableRecord
  2
개별주서
 70
     0
 62
   100
  6
Continuous
370
    30
390
F
  0
LAYER
  5
79
330
2
100
AcDbSymbolTableRecord
100
AcDbLayerTableRecord
  2
중간선
 70
     0
 62
     2
  6
Continuous
370
    15
390
F
  0
LAYER
  5
7A
330
2
100
AcDbSymbolTableRecord
100
AcDbLayerTableRecord
  2
윤곽선
 70
     0
 62
     3
  6
Continuous
370
    40
390
F
  0
LAYER
  5
7B
330
2
100
AcDbSymbolTableRecord
100
AcDbLayerTableRecord
  2
중심마크
 70
     0
 62
   100
  6
Continuous
370
    30
390
F
  0
LAYER
  5
7C
330
2
100
AcDbSymbolTableRecord
100
AcDbLayerTableRecord
  2
가상선
 70
     0
 62
     4
  6
PHANTOM
370
    -3
390
F
  0
LAYER
  5
7D
330
2
100
AcDbSymbolTableRecord
100
AcDbLayerTableRecord
  2
특수지정선
 70
     0
 62
     5
  6
CENTERX2
370
    60
390
F
  0
LAYER
  5
7E
330
2
100
AcDbSymbolTableRecord
100
AcDbLayerTableRecord
  2
참조1
 70
     0
 62
    -4
  6
Continuous
370
    -3
390
F
  0
LAYER
  5
14F
330
2
100
AcDbSymbolTableRecord
100
AcDbLayerTableRecord
  2
Defpoints
 70
     0
 62
     7
  6
Continuous
290
     0
370
    -3
390
F
  0
ENDTAB
  0
TABLE
  2
STYLE
  5
3
330
0
100
AcDbSymbolTable
 70
     2
  0
STYLE
  5
11
330
3
100
AcDbSymbolTableRecord
100
AcDbTextStyleTableRecord
  2
Standard
 70
     0
 40
0.0
 41
1.0
 50
0.0
 71
     0
 42
3.5
  3
txt
  4

  0
STYLE
  5
94
330
3
100
AcDbSymbolTableRecord
100
AcDbTextStyleTableRecord
  2
SLDTEXTSTYLE0
 70
     0
 40
0.0
 41
0.75
 50
0.0
 71
     0
 42
3.5
  3
TXT
  4

  0
ENDTAB
  0
TABLE
  2
VIEW
  5
6
330
0
100
AcDbSymbolTable
 70
     0
  0
ENDTAB
  0
TABLE
  2
UCS
  5
7
330
0
100
AcDbSymbolTable
 70
     0
  0
ENDTAB
  0
TABLE
  2
APPID
  5
9
330
0
100
AcDbSymbolTable
 70
     1
  0
APPID
  5
12
330
9
100
AcDbSymbolTableRecord
100
AcDbRegAppTableRecord
  2
ACAD
 70
     0
  0
ENDTAB
  0
TABLE
  2
DIMSTYLE
  5
A
330
0
100
AcDbSymbolTable
 70
     3
100
AcDbDimStyleTable
  0
DIMSTYLE
105
27
330
A
100
AcDbSymbolTableRecord
100
AcDbDimStyleTableRecord
  2
ISO-25
 70
     0
 41
2.5
 42
0.625
 43
3.75
 44
1.25
 73
     0
 74
     0
 77
     1
 78
     8
140
2.5
141
2.5
143
0.03937007874016
147
0.625
171
     3
172
     1
178
     0
271
     2
272
     2
274
     3
278
    44
283
     0
284
     8
340
11
  0
DIMSTYLE
105
CC
102
{ACAD_REACTORS
330
CB
330
E0
330
108
330
F3
102
}
330
A
100
AcDbSymbolTableRecord
100
AcDbDimStyleTableRecord
  2
SLDDIMSTYLE0
 70
     0
 41
3.302
 44
0.0
 45
0.000000001
 73
     0
 74
     0
 77
     1
 78
    12
 79
     3
140
3.5
143
0.0393700787401575
147
0.875
148
0.000000001
170
     1
173
     1
178
     0
271
     2
272
     2
276
     2
284
    12
340
94
  0
DIMSTYLE
105
F4
330
A
100
AcDbSymbolTableRecord
100
AcDbDimStyleTableRecord
  2
SLDDIMSTYLE1
 70
     0
 41
3.302
 44
0.0
 45
0.000000001
 73
     0
 74
     0
 77
     1
 78
    12
 79
     3
140
3.5
143
0.0393700787401575
147
0.875
148
0.000000001
170
     1
172
     1
173
     1
178
     0
271
     2
272
     2
276
     2
284
    12
289
     0
340
94
  0
ENDTAB
  0
TABLE
  2
BLOCK_RECORD
  5
1
330
0
100
AcDbSymbolTable
 70
    27
  0
BLOCK_RECORD
  5
1F
330
1
100
AcDbSymbolTableRecord
100
AcDbBlockTableRecord
  2
*Model_Space
340
22
  0
BLOCK_RECORD
  5
1B
330
1
100
AcDbSymbolTableRecord
100
AcDbBlockTableRecord
  2
*Paper_Space
340
1E
  0
BLOCK_RECORD
  5
23
330
1
100
AcDbSymbolTableRecord
100
AcDbBlockTableRecord
  2
*Paper_Space0
340
26
  0
BLOCK_RECORD
  5
7F
330
1
100
AcDbSymbolTableRecord
100
AcDbBlockTableRecord
  2
블럭10
340
0
102
{BLKREFS
331
C4
102
}
  0
BLOCK_RECORD
  5
CD
330
1
100
AcDbSymbolTableRecord
100
AcDbBlockTableRecord
  2
_D
340
0
  0
BLOCK_RECORD
  5
E1
330
1
100
AcDbSymbolTableRecord
100
AcDbBlockTableRecord
  2
_D_1
340
0
  0
BLOCK_RECORD
  5
F5
330
1
100
AcDbSymbolTableRecord
100
AcDbBlockTableRecord
  2
_D_2
340
0
  0
BLOCK_RECORD
  5
109
330
1
100
AcDbSymbolTableRecord
100
AcDbBlockTableRecord
  2
_D_3
340
0
  0
BLOCK_RECORD
  5
123
330
1
100
AcDbSymbolTableRecord
100
AcDbBlockTableRecord
  2
SW_DOWELSYMBOL_0
340
0
102
{BLKREFS
331
129
102
}
  0
BLOCK_RECORD
  5
207
330
1
100
AcDbSymbolTableRecord
100
AcDbBlockTableRecord
  2
*D7
340
0
  0
BLOCK_RECORD
  5
214
330
1
100
AcDbSymbolTableRecord
100
AcDbBlockTableRecord
  2
*D8
340
0
  0
BLOCK_RECORD
  5
220
330
1
100
AcDbSymbolTableRecord
100
AcDbBlockTableRecord
  2
*D9
340
0
  0
BLOCK_RECORD
  5
22C
330
1
100
AcDbSymbolTableRecord
100
AcDbBlockTableRecord
  2
*D10
340
0
  0
BLOCK_RECORD
  5
28E
330
1
100
AcDbSymbolTableRecord
100
AcDbBlockTableRecord
  2
*D11
340
0
  0
BLOCK_RECORD
  5
29B
330
1
100
AcDbSymbolTableRecord
100
AcDbBlockTableRecord
  2
*D12
340
0
  0
BLOCK_RECORD
  5
2A7
330
1
100
AcDbSymbolTableRecord
100
AcDbBlockTableRecord
  2
*D13
340
0
  0
BLOCK_RECORD
  5
2B3
330
1
100
AcDbSymbolTableRecord
100
AcDbBlockTableRecord
  2
*D14
340
0
  0
BLOCK_RECORD
  5
344
330
1
100
AcDbSymbolTableRecord
100
AcDbBlockTableRecord
  2
*D15
340
0
  0
BLOCK_RECORD
  5
351
330
1
100
AcDbSymbolTableRecord
100
AcDbBlockTableRecord
  2
*D16
340
0
  0
BLOCK_RECORD
  5
35D
330
1
100
AcDbSymbolTableRecord
100
AcDbBlockTableRecord
  2
*D17
340
0
  0
BLOCK_RECORD
  5
397
330
1
100
AcDbSymbolTableRecord
100
AcDbBlockTableRecord
  2
*D18
340
0
  0
BLOCK_RECORD
  5
3A4
330
1
100
AcDbSymbolTableRecord
100
AcDbBlockTableRecord
  2
*D19
340
0
  0
BLOCK_RECORD
  5
3B0
330
1
100
AcDbSymbolTableRecord
100
AcDbBlockTableRecord
  2
*D20
340
0
  0
BLOCK_RECORD
  5
441
330
1
100
AcDbSymbolTableRecord
100
AcDbBlockTableRecord
  2
*D21
340
0
  0
BLOCK_RECORD
  5
44E
330
1
100
AcDbSymbolTableRecord
100
AcDbBlockTableRecord
  2
*D22
340
0
  0
BLOCK_RECORD
  5
45A
330
1
100
AcDbSymbolTableRecord
100
AcDbBlockTableRecord
  2
*D23
340
0
  0
BLOCK_RECORD
  5
494
330
1
100
AcDbSymbolTableRecord
100
AcDbBlockTableRecord
  2
*D24
340
0
  0
BLOCK_RECORD
  5
4A1
330
1
100
AcDbSymbolTableRecord
100
AcDbBlockTableRecord
  2
*D25
340
0
  0
BLOCK_RECORD
  5
4AD
330
1
100
AcDbSymbolTableRecord
100
AcDbBlockTableRecord
  2
*D26
340
0
  0
ENDTAB
  0
ENDSEC
  0
SECTION
  2
BLOCKS
  0
BLOCK
  5
20
330
1F
100
AcDbEntity
  8
0
100
AcDbBlockBegin
  2
*Model_Space
 70
     0
 10
0.0
 20
0.0
 30
0.0
  3
*Model_Space
  1
*Model_Space
  0
ENDBLK
  5
21
330
1F
100
AcDbEntity
  8
0
100
AcDbBlockEnd
  0
BLOCK
  5
1C
330
1B
100
AcDbEntity
 67
     1
  8
0
100
AcDbBlockBegin
  2
*Paper_Space
 70
     0
 10
0.0
 20
0.0
 30
0.0
  3
*Paper_Space
  1
*Paper_Space
  0
ENDBLK
  5
1D
330
1B
100
AcDbEntity
 67
     1
  8
0
100
AcDbBlockEnd
  0
BLOCK
  5
24
330
23
100
AcDbEntity
  8
0
100
AcDbBlockBegin
  2
*Paper_Space0
 70
     0
 10
0.0
 20
0.0
 30
0.0
  3
*Paper_Space0
  1
*Paper_Space0
  0
ENDBLK
  5
25
330
23
100
AcDbEntity
  8
0
100
AcDbBlockEnd
  0
BLOCK
  5
80
330
7F
100
AcDbEntity
  8
0
100
AcDbBlockBegin
  2
블럭10
 70
     2
 10
0.0
 20
0.0
 30
0.0
  3
블럭10
  1
블럭10
  0
ELLIPSE
  5
82
330
7F
100
AcDbEntity
  8
중심선
100
AcDbEllipse
 10
20.54032771741204
 20
12.0471743016438
 30
0.0
 11
6.600054785286829
 21
-1.261213355974178E-13
 31
0.0
210
0.0
220
0.0
230
1.0
 40
0.636358354079598
 41
0.9219305317359503
 42
6.513795318482858
  0
ELLIPSE
  5
83
330
7F
100
AcDbEntity
  8
중심선
100
AcDbEllipse
 10
20.54032771746488
 20
12.04717430159265
 30
0.0
 11
3.960054785062283
 21
1.540847449632565E-10
 31
0.0
210
0.0
220
0.0
230
1.0
 40
0.3939339440162632
 41
1.131841032648279
 42
5.62031148352944
  0
LINE
  5
84
330
7F
100
AcDbEntity
  8
중심선
100
AcDbLine
 10
2.268634060543552
 20
16.24717430164393
 30
0.0
 11
5.714909304380834
 21
16.24717430164393
 31
0.0
  0
LINE
  5
85
330
7F
100
AcDbEntity
  8
중심선
100
AcDbLine
 10
5.245725140726316
 20
7.84717430164391
 30
0.0
 11
8.692000384563599
 21
7.84717430164391
 31
0.0
  0
LINE
  5
86
330
7F
100
AcDbEntity
  8
중심선
100
AcDbLine
 10
15.74043728645272
 20
16.24717430164393
 30
0.0
 11
8.692000384563599
 21
7.84717430164391
 31
0.0
  0
LINE
  5
87
330
7F
100
AcDbEntity
  8
중심선
100
AcDbLine
 10
0.1404042013395286
 20
13.71084872107135
 30
0.0
 11
3.58671253028996
 21
13.71088815037384
 31
0.0
  0
LINE
  5
88
330
7F
100
AcDbEntity
  8
중심선
100
AcDbLine
 10
2.750260043222114
 20
10.84717430164391
 30
0.0
 11
6.196535287059397
 21
10.84717430164391
 31
0.0
  0
LINE
  5
89
330
7F
100
AcDbEntity
  8
중심선
100
AcDbLine
 10
12.29416204261559
 20
16.24717430164393
 30
0.0
 11
5.245725140726316
 21
7.84717430164391
 31
0.0
  0
LINE
  5
8A
330
7F
100
AcDbEntity
  8
중심선
100
AcDbLine
 10
10.72767329541681
 20
16.24717430164393
 30
0.0
 11
6.196535287059397
 21
10.84717430164391
 31
0.0
  0
LINE
  5
8B
330
7F
100
AcDbEntity
  8
중심선
100
AcDbLine
 10
7.28139805157953
 20
16.24717430164393
 30
0.0
 11
2.750260043222114
 21
10.84717430164391
 31
0.0
  0
LINE
  5
8C
330
7F
100
AcDbEntity
  8
중심선
100
AcDbLine
 10
5.714909304380834
 20
16.24717430164393
 30
0.0
 11
3.58671253028996
 21
13.71088815037384
 31
0.0
  0
LINE
  5
8D
330
7F
100
AcDbEntity
  8
중심선
100
AcDbLine
 10
2.268634060543552
 20
16.24717430164393
 30
0.0
 11
0.1404042013395286
 21
13.71084872107135
 31
0.0
  0
LINE
  5
8E
330
7F
100
AcDbEntity
  8
중심선
100
AcDbLine
 10
7.28139805157953
 20
16.24717430164393
 30
0.0
 11
10.72767329541681
 21
16.24717430164393
 31
0.0
  0
LINE
  5
8F
330
7F
100
AcDbEntity
  8
중심선
100
AcDbLine
 10
12.29416204261559
 20
16.24717430164393
 30
0.0
 11
15.74043728645272
 21
16.24717430164393
 31
0.0
  0
LINE
  5
90
330
7F
100
AcDbEntity
  8
중심선
100
AcDbLine
 10
19.22036997980202
 20
11.08717430171403
 30
0.0
 11
23.66174974927406
 21
11.08717430171406
 31
0.0
  0
LINE
  5
91
330
7F
100
AcDbEntity
  8
중심선
100
AcDbLine
 10
19.22039502424796
 20
13.00717430171391
 30
0.0
 11
19.22036997980202
 21
11.08717430171403
 31
0.0
  0
LINE
  5
92
330
7F
100
AcDbEntity
  8
중심선
100
AcDbLine
 10
19.22039502424796
 20
13.00717430171391
 30
0.0
 11
26.96566020931264
 21
13.00717430171391
 31
0.0
  0
LINE
  5
93
330
7F
100
AcDbEntity
  8
중심선
100
AcDbLine
 10
22.22332737316547
 20
13.45928029700563
 30
0.0
 11
24.52862924686651
 21
15.39360700705356
 31
0.0
  0
ATTDEF
  5
95
330
7F
100
AcDbEntity
  8
FORMAT
 62
     2
100
AcDbText
 10
4.408487351596664
 20
2.075366912832191
 30
0.0
 40
4.233333333333333
  1
E1112012
 41
0.75
  7
SLDTEXTSTYLE0
 11
4.408487351596664
 21
-0.0412997538344756
 31
0.0
100
AcDbAttributeDefinition
  3

  2
AUTOATTR0
 70
     0
 74
     1
  0
ENDBLK
  5
81
330
7F
100
AcDbEntity
  8
0
100
AcDbBlockEnd
  0
BLOCK
  5
CE
330
CD
100
AcDbEntity
  8
0
100
AcDbBlockBegin
  2
_D
 70
     0
 10
0.0
 20
0.0
 30
0.0
  3
_D
  1
_D
  0
LINE
  5
D0
330
CD
100
AcDbEntity
  8
0
  6
Continuous
 62
     0
370
    -2
100
AcDbLine
 10
39.68749999999999
 20
2.443750000000011
 30
0.0
 11
39.68749999999999
 21
12.99892507127612
 31
0.0
  0
LINE
  5
D1
330
CD
100
AcDbEntity
  8
0
  6
Continuous
 62
     0
370
    -2
100
AcDbLine
 10
28.575
 20
2.443750000000001
 30
0.0
 11
28.575
 21
12.99892507127612
 31
0.0
  0
LINE
  5
D2
330
CD
100
AcDbEntity
  8
0
  6
Continuous
 62
     0
370
    -2
100
AcDbLine
 10
28.575
 20
12.99892507127612
 30
0.0
 11
-5.132665411112804
 21
12.99892507127612
 31
0.0
  0
LINE
  5
D3
330
CD
100
AcDbEntity
  8
0
  6
Continuous
 62
     0
370
    -2
100
AcDbLine
 10
36.38549999999999
 20
12.99892507127612
 30
0.0
 11
31.877
 21
12.99892507127612
 31
0.0
  0
SOLID
  5
D4
330
CD
100
AcDbEntity
  8
0
 62
     0
100
AcDbTrace
 10
36.38549999999999
 20
12.44859173794278
 30
0.0
 11
36.38549999999999
 21
13.54925840460945
 31
0.0
 12
39.68749999999999
 22
12.99892507127612
 32
0.0
 13
39.68749999999999
 23
12.99892507127612
 33
0.0
  0
SOLID
  5
D5
330
CD
100
AcDbEntity
  8
0
 62
     0
100
AcDbTrace
 10
31.877
 20
13.54925840460945
 30
0.0
 11
31.877
 21
12.44859173794278
 31
0.0
 12
28.575
 22
12.99892507127612
 32
0.0
 13
28.575
 23
12.99892507127612
 33
0.0
  0
MTEXT
  5
D6
330
CD
100
AcDbEntity
  8
0
 62
     0
370
    15
100
AcDbMText
 10
7.117334588887196
 20
17.37392507127612
 30
0.0
 40
3.5
 41
0.0
 71
     2
 72
     1
  1
\A1;11.11 [7/16]
  7
SLDTEXTSTYLE0
 73
     1
 44
1.0
  0
POINT
  5
D7
330
CD
100
AcDbEntity
  8
Defpoints
 62
     0
100
AcDbPoint
 10
39.68749999999999
 20
2.381250000000011
 30
0.0
  0
POINT
  5
D8
330
CD
100
AcDbEntity
  8
Defpoints
 62
     0
100
AcDbPoint
 10
28.575
 20
2.381250000000001
 30
0.0
  0
POINT
  5
D9
330
CD
100
AcDbEntity
  8
Defpoints
 62
     0
100
AcDbPoint
 10
28.575
 20
12.99892507127612
 30
0.0
  0
ENDBLK
  5
CF
330
CD
100
AcDbEntity
  8
0
100
AcDbBlockEnd
  0
BLOCK
  5
E2
330
E1
100
AcDbEntity
  8
0
100
AcDbBlockBegin
  2
_D_1
 70
     0
 10
0.0
 20
0.0
 30
0.0
  3
_D_1
  1
_D_1
  0
LINE
  5
E4
330
E1
100
AcDbEntity
  8
0
  6
Continuous
 62
     0
370
    -2
100
AcDbLine
 10
39.68749999999999
 20
2.443750000000011
 30
0.0
 11
39.6875
 21
29.28797898817498
 31
0.0
  0
LINE
  5
E5
330
E1
100
AcDbEntity
  8
0
  6
Continuous
 62
     0
370
    -2
100
AcDbLine
 10
-39.68750000000003
 20
4.825000000000003
 30
0.0
 11
-39.68750000000002
 21
29.28797898817498
 31
0.0
  0
LINE
  5
E6
330
E1
100
AcDbEntity
  8
0
  6
Continuous
 62
     0
370
    -2
100
AcDbLine
 10
36.3855
 20
29.28797898817498
 30
0.0
 11
-36.38550000000002
 21
29.28797898817498
 31
0.0
  0
SOLID
  5
E7
330
E1
100
AcDbEntity
  8
0
 62
     0
100
AcDbTrace
 10
36.3855
 20
28.73764565484164
 30
0.0
 11
36.3855
 21
29.83831232150831
 31
0.0
 12
39.6875
 22
29.28797898817498
 32
0.0
 13
39.6875
 23
29.28797898817498
 33
0.0
  0
SOLID
  5
E8
330
E1
100
AcDbEntity
  8
0
 62
     0
100
AcDbTrace
 10
-36.38550000000002
 20
29.83831232150831
 30
0.0
 11
-36.38550000000002
 21
28.73764565484164
 31
0.0
 12
-39.68750000000002
 22
29.28797898817498
 32
0.0
 13
-39.68750000000002
 23
29.28797898817498
 33
0.0
  0
MTEXT
  5
E9
330
E1
100
AcDbEntity
  8
0
 62
     0
370
    15
100
AcDbMText
 10
0.3473945869787869
 20
33.66297898817498
 30
0.0
 40
3.5
 41
0.0
 71
     2
 72
     1
  1
\A1;79.38 [3 1/8]
  7
SLDTEXTSTYLE0
 73
     1
 44
1.0
  0
POINT
  5
EA
330
E1
100
AcDbEntity
  8
Defpoints
 62
     0
100
AcDbPoint
 10
39.68749999999999
 20
2.381250000000011
 30
0.0
  0
POINT
  5
EB
330
E1
100
AcDbEntity
  8
Defpoints
 62
     0
100
AcDbPoint
 10
-39.68750000000003
 20
4.762500000000003
 30
0.0
  0
POINT
  5
EC
330
E1
100
AcDbEntity
  8
Defpoints
 62
     0
100
AcDbPoint
 10
-39.68750000000003
 20
29.28797898817498
 30
0.0
  0
ENDBLK
  5
E3
330
E1
100
AcDbEntity
  8
0
100
AcDbBlockEnd
  0
BLOCK
  5
F6
330
F5
100
AcDbEntity
  8
0
100
AcDbBlockBegin
  2
_D_2
 70
     0
 10
0.0
 20
0.0
 30
0.0
  3
_D_2
  1
_D_2
  0
LINE
  5
F8
330
F5
100
AcDbEntity
  8
0
  6
Continuous
 62
     0
370
    -2
100
AcDbLine
 10
-18.75055401447662
 20
4.762499999999997
 30
0.0
 11
-52.3075
 21
4.762499999999871
 31
0.0
  0
LINE
  5
F9
330
F5
100
AcDbEntity
  8
0
  6
Continuous
 62
     0
370
    -2
100
AcDbLine
 10
-18.75055401447658
 20
-4.762500000000005
 30
0.0
 11
-52.30749999999997
 21
-4.762500000000131
 31
0.0
  0
LINE
  5
FA
330
F5
100
AcDbEntity
  8
0
  6
Continuous
 62
     0
370
    -2
100
AcDbLine
 10
-52.30749999999999
 20
1.460499999999871
 30
0.0
 11
-52.30749999999998
 21
-1.460500000000131
 31
0.0
  0
SOLID
  5
FB
330
F5
100
AcDbEntity
  8
0
 62
     0
100
AcDbTrace
 10
-51.75716666666666
 20
1.460499999999873
 30
0.0
 11
-52.85783333333332
 21
1.460499999999869
 31
0.0
 12
-52.3075
 22
4.762499999999871
 32
0.0
 13
-52.3075
 23
4.762499999999871
 33
0.0
  0
SOLID
  5
FC
330
F5
100
AcDbEntity
  8
0
 62
     0
100
AcDbTrace
 10
-52.85783333333332
 20
-1.460500000000133
 30
0.0
 11
-51.75716666666665
 21
-1.460500000000129
 31
0.0
 12
-52.30749999999997
 22
-4.762500000000131
 32
0.0
 13
-52.30749999999997
 23
-4.762500000000131
 33
0.0
  0
MTEXT
  5
FD
330
F5
100
AcDbEntity
  8
0
 62
     0
370
    15
100
AcDbMText
 10
-56.68249999999999
 20
-0.0000000000000128
 30
0.0
 40
3.5
 41
0.0
 71
     2
 72
     1
  1
\A1;%%c9.53 [3/8]
  7
SLDTEXTSTYLE0
 11
-3.729883127349607E-15
 21
1.0
 31
0.0
 73
     1
 44
1.0
  0
POINT
  5
FE
330
F5
100
AcDbEntity
  8
Defpoints
 62
     0
100
AcDbPoint
 10
-18.68805401447662
 20
4.762499999999997
 30
0.0
  0
POINT
  5
FF
330
F5
100
AcDbEntity
  8
Defpoints
 62
     0
100
AcDbPoint
 10
-18.68805401447658
 20
-4.762500000000005
 30
0.0
  0
POINT
  5
100
330
F5
100
AcDbEntity
  8
Defpoints
 62
     0
100
AcDbPoint
 10
-52.30749999999998
 20
-4.76250000000013
 30
0.0
  0
ENDBLK
  5
F7
330
F5
100
AcDbEntity
  8
0
100
AcDbBlockEnd
  0
BLOCK
  5
10A
330
109
100
AcDbEntity
  8
0
100
AcDbBlockBegin
  2
_D_3
 70
     0
 10
0.0
 20
0.0
 30
0.0
  3
_D_3
  1
_D_3
  0
LINE
  5
10C
330
109
100
AcDbEntity
  8
0
  6
Continuous
 62
     0
370
    -2
100
AcDbLine
 10
39.75
 20
2.381250000000012
 30
0.0
 11
48.27797146851947
 21
2.381250000000044
 31
0.0
  0
LINE
  5
10D
330
109
100
AcDbEntity
  8
0
  6
Continuous
 62
     0
370
    -2
100
AcDbLine
 10
39.75
 20
-2.381249999999989
 30
0.0
 11
48.27797146851948
 21
-2.381249999999959
 31
0.0
  0
LINE
  5
10E
330
109
100
AcDbEntity
  8
0
  6
Continuous
 62
     0
370
    -2
100
AcDbLine
 10
48.27797146851947
 20
2.381250000000044
 30
0.0
 11
48.27797146851934
 21
44.97679553807914
 31
0.0
  0
LINE
  5
10F
330
109
100
AcDbEntity
  8
0
  6
Continuous
 62
     0
370
    -2
100
AcDbLine
 10
48.27797146851946
 20
5.683250000000044
 30
0.0
 11
48.27797146851945
 21
8.985250000000043
 31
0.0
  0
LINE
  5
110
330
109
100
AcDbEntity
  8
0
  6
Continuous
 62
     0
370
    -2
100
AcDbLine
 10
48.27797146851949
 20
-5.683249999999958
 30
0.0
 11
48.2779714685195
 21
-8.985249999999958
 31
0.0
  0
SOLID
  5
111
330
109
100
AcDbEntity
  8
0
 62
     0
100
AcDbTrace
 10
47.72763813518613
 20
5.683250000000042
 30
0.0
 11
48.82830480185279
 21
5.683250000000045
 31
0.0
 12
48.27797146851947
 22
2.381250000000044
 32
0.0
 13
48.27797146851947
 23
2.381250000000044
 33
0.0
  0
SOLID
  5
112
330
109
100
AcDbEntity
  8
0
 62
     0
100
AcDbTrace
 10
48.82830480185282
 20
-5.683249999999957
 30
0.0
 11
47.72763813518615
 21
-5.68324999999996
 31
0.0
 12
48.27797146851948
 22
-2.381249999999959
 32
0.0
 13
48.27797146851948
 23
-2.381249999999959
 33
0.0
  0
MTEXT
  5
113
330
109
100
AcDbEntity
  8
0
 62
     0
370
    15
100
AcDbMText
 10
43.90297146851938
 20
30.97679553807912
 30
0.0
 40
3.5
 41
0.0
 71
     2
 72
     1
  1
\A1;%%c4.76 [3/16]
  7
SLDTEXTSTYLE0
 11
-2.983906501879686E-15
 21
1.0
 31
0.0
 73
     1
 44
1.0
  0
POINT
  5
114
330
109
100
AcDbEntity
  8
Defpoints
 62
     0
100
AcDbPoint
 10
39.6875
 20
2.381250000000011
 30
0.0
  0
POINT
  5
115
330
109
100
AcDbEntity
  8
Defpoints
 62
     0
100
AcDbPoint
 10
39.6875
 20
-2.381249999999989
 30
0.0
  0
POINT
  5
116
330
109
100
AcDbEntity
  8
Defpoints
 62
     0
100
AcDbPoint
 10
48.2779714685195
 20
-2.381249999999957
 30
0.0
  0
ENDBLK
  5
10B
330
109
100
AcDbEntity
  8
0
100
AcDbBlockEnd
  0
BLOCK
  5
124
330
123
100
AcDbEntity
  8
0
100
AcDbBlockBegin
  2
SW_DOWELSYMBOL_0
 70
     0
 10
0.0
 20
0.0
 30
0.0
  3
SW_DOWELSYMBOL_0
  1
SW_DOWELSYMBOL_0
  0
CIRCLE
  5
126
330
123
100
AcDbEntity
  8
해칭선
 62
     0
100
AcDbCircle
 10
0.0
 20
0.0
 30
0.0
 40
3.000000000000001
  0
HATCH
  5
127
330
123
100
AcDbEntity
  8
0
  6
Continuous
 62
     0
370
     0
100
AcDbHatch
 10
0.0
 20
0.0
 30
0.0
210
0.0
220
0.0
230
1.0
  2
SOLID
 70
     1
 71
     0
 91
        1
 92
        0
 93
        3
 72
     2
 10
0.0
 20
0.0
 40
3.000000000000001
 50
0.0
 51
90.0
 73
     1
 72
     1
 10
0.0
 20
3.000000000000001
 11
0.0
 21
0.0
 72
     1
 10
0.0
 20
0.0
 11
3.000000000000001
 21
0.0
 97
        0
 75
     0
 76
     1
 98
        1
 10
0.0
 20
0.0
  0
HATCH
  5
128
330
123
100
AcDbEntity
  8
0
  6
Continuous
 62
     0
370
     0
100
AcDbHatch
 10
0.0
 20
0.0
 30
0.0
210
0.0
220
0.0
230
1.0
  2
SOLID
 70
     1
 71
     0
 91
        1
 92
        0
 93
        3
 72
     2
 10
0.0
 20
0.0
 40
3.000000000000001
 50
180.0
 51
270.0000000000007
 73
     1
 72
     1
 10
0.0
 20
-3.000000000000001
 11
0.0
 21
0.0
 72
     1
 10
0.0
 20
0.0
 11
-3.000000000000001
 21
0.0
 97
        0
 75
     0
 76
     1
 98
        1
 10
0.0
 20
0.0
  0
ENDBLK
  5
125
330
123
100
AcDbEntity
  8
0
100
AcDbBlockEnd
  0
BLOCK
  5
208
330
207
100
AcDbEntity
  8
0
100
AcDbBlockBegin
  2
*D7
 70
     1
 10
0.0
 20
0.0
 30
0.0
  3
*D7
  1
*D8
  0
LINE
  5
20A
330
207
100
AcDbEntity
  8
0
  6
Continuous
 62
     0
370
    -2
100
AcDbLine
 10
96.37
 20
15.09062500000001
 30
0.0
 11
96.37
 21
25.24892507127612
 31
0.0
  0
LINE
  5
20B
330
207
100
AcDbEntity
  8
0
  6
Continuous
 62
     0
370
    -2
100
AcDbLine
 10
83.67000000000002
 20
15.090625
 30
0.0
 11
83.67000000000002
 21
25.24892507127612
 31
0.0
  0
LINE
  5
20C
330
207
100
AcDbEntity
  8
0
  6
Continuous
 62
     0
370
    -2
100
AcDbLine
 10
83.67000000000002
 20
25.24892507127612
 30
0.0
 11
48.51515708788868
 21
25.24892507127612
 31
0.0
  0
LINE
  5
20D
330
207
100
AcDbEntity
  8
0
  6
Continuous
 62
     0
370
    -2
100
AcDbLine
 10
93.06800000000001
 20
25.24892507127612
 30
0.0
 11
86.97200000000001
 21
25.24892507127612
 31
0.0
  0
SOLID
  5
20E
330
207
100
AcDbEntity
  8
0
 62
     0
100
AcDbTrace
 10
93.06800000000001
 20
24.69859173794279
 30
0.0
 11
93.06800000000001
 21
25.79925840460946
 31
0.0
 12
96.37
 22
25.24892507127612
 32
0.0
 13
96.37
 23
25.24892507127612
 33
0.0
  0
SOLID
  5
20F
330
207
100
AcDbEntity
  8
0
 62
     0
100
AcDbTrace
 10
86.97200000000001
 20
25.79925840460946
 30
0.0
 11
86.97200000000001
 21
24.69859173794279
 31
0.0
 12
83.67000000000002
 22
25.24892507127612
 32
0.0
 13
83.67000000000002
 23
25.24892507127612
 33
0.0
  0
MTEXT
  5
210
330
207
100
AcDbEntity
  8
0
 62
     0
370
    15
100
AcDbMText
 10
59.45265708788868
 20
29.62392507127612
 30
0.0
 40
3.5
 41
0.0
 71
     2
 72
     1
  1
\A1;12.7 [1/2]
  7
SLDTEXTSTYLE0
 73
     1
 44
1.0
  0
POINT
  5
211
330
207
100
AcDbEntity
  8
Defpoints
 62
     0
100
AcDbPoint
 10
96.37
 20
15.02812500000001
 30
0.0
  0
POINT
  5
212
330
207
100
AcDbEntity
  8
Defpoints
 62
     0
100
AcDbPoint
 10
83.67000000000002
 20
15.028125
 30
0.0
  0
POINT
  5
213
330
207
100
AcDbEntity
  8
Defpoints
 62
     0
100
AcDbPoint
 10
83.67000000000002
 20
25.24892507127612
 30
0.0
  0
ENDBLK
  5
209
330
207
100
AcDbEntity
  8
0
100
AcDbBlockEnd
  0
BLOCK
  5
215
330
214
100
AcDbEntity
  8
0
100
AcDbBlockBegin
  2
*D8
 70
     1
 10
0.0
 20
0.0
 30
0.0
  3
*D8
  1
*D9
  0
LINE
  5
217
330
214
100
AcDbEntity
  8
0
  6
Continuous
 62
     0
370
    -2
100
AcDbLine
 10
96.37
 20
15.09062500000001
 30
0.0
 11
96.37
 21
41.53797898817498
 31
0.0
  0
LINE
  5
218
330
214
100
AcDbEntity
  8
0
  6
Continuous
 62
     0
370
    -2
100
AcDbLine
 10
16.99500000000003
 20
17.07500000000001
 30
0.0
 11
16.99500000000003
 21
41.53797898817498
 31
0.0
  0
LINE
  5
219
330
214
100
AcDbEntity
  8
0
  6
Continuous
 62
     0
370
    -2
100
AcDbLine
 10
93.06800000000001
 20
41.53797898817498
 30
0.0
 11
20.29700000000003
 21
41.53797898817498
 31
0.0
  0
SOLID
  5
21A
330
214
100
AcDbEntity
  8
0
 62
     0
100
AcDbTrace
 10
93.06800000000001
 20
40.98764565484165
 30
0.0
 11
93.06800000000001
 21
42.08831232150832
 31
0.0
 12
96.37
 22
41.53797898817498
 32
0.0
 13
96.37
 23
41.53797898817498
 33
0.0
  0
SOLID
  5
21B
330
214
100
AcDbEntity
  8
0
 62
     0
100
AcDbTrace
 10
20.29700000000003
 20
42.08831232150832
 30
0.0
 11
20.29700000000003
 21
40.98764565484165
 31
0.0
 12
16.99500000000003
 22
41.53797898817498
 32
0.0
 13
16.99500000000003
 23
41.53797898817498
 33
0.0
  0
MTEXT
  5
21C
330
214
100
AcDbEntity
  8
0
 62
     0
370
    15
100
AcDbMText
 10
57.02989458697882
 20
45.91297898817498
 30
0.0
 40
3.5
 41
0.0
 71
     2
 72
     1
  1
\A1;79.38 [3 1/8]
  7
SLDTEXTSTYLE0
 73
     1
 44
1.0
  0
POINT
  5
21D
330
214
100
AcDbEntity
  8
Defpoints
 62
     0
100
AcDbPoint
 10
96.37
 20
15.02812500000001
 30
0.0
  0
POINT
  5
21E
330
214
100
AcDbEntity
  8
Defpoints
 62
     0
100
AcDbPoint
 10
16.99500000000003
 20
17.01250000000001
 30
0.0
  0
POINT
  5
21F
330
214
100
AcDbEntity
  8
Defpoints
 62
     0
100
AcDbPoint
 10
16.99500000000003
 20
41.53797898817498
 30
0.0
  0
ENDBLK
  5
216
330
214
100
AcDbEntity
  8
0
100
AcDbBlockEnd
  0
BLOCK
  5
221
330
220
100
AcDbEntity
  8
0
100
AcDbBlockBegin
  2
*D9
 70
     1
 10
0.0
 20
0.0
 30
0.0
  3
*D9
  1
*D10
  0
LINE
  5
223
330
220
100
AcDbEntity
  8
0
  6
Continuous
 62
     0
370
    -2
100
AcDbLine
 10
38.03828832126951
 20
17.0125
 30
0.0
 11
4.375000000000027
 21
17.01249999999987
 31
0.0
  0
LINE
  5
224
330
220
100
AcDbEntity
  8
0
  6
Continuous
 62
     0
370
    -2
100
AcDbLine
 10
38.0382883212695
 20
7.487500000000002
 30
0.0
 11
4.37500000000006
 21
7.487499999999875
 31
0.0
  0
LINE
  5
225
330
220
100
AcDbEntity
  8
0
  6
Continuous
 62
     0
370
    -2
100
AcDbLine
 10
4.375000000000038
 20
13.71049999999988
 30
0.0
 11
4.375000000000048
 21
10.78949999999987
 31
0.0
  0
SOLID
  5
226
330
220
100
AcDbEntity
  8
0
 62
     0
100
AcDbTrace
 10
4.925333333333372
 20
13.71049999999988
 30
0.0
 11
3.824666666666705
 21
13.71049999999987
 31
0.0
 12
4.375000000000027
 22
17.01249999999987
 32
0.0
 13
4.375000000000027
 23
17.01249999999987
 33
0.0
  0
SOLID
  5
227
330
220
100
AcDbEntity
  8
0
 62
     0
100
AcDbTrace
 10
3.824666666666715
 20
10.78949999999987
 30
0.0
 11
4.925333333333382
 21
10.78949999999988
 31
0.0
 12
4.37500000000006
 22
7.487499999999875
 32
0.0
 13
4.37500000000006
 23
7.487499999999875
 33
0.0
  0
MTEXT
  5
228
330
220
100
AcDbEntity
  8
0
 62
     0
370
    15
100
AcDbMText
 10
0.0000000000000426
 20
12.25
 30
0.0
 40
3.5
 41
0.0
 71
     2
 72
     1
  1
\A1;%%c9.53 [3/8]
  7
SLDTEXTSTYLE0
 11
-3.450141892798387E-15
 21
1.0
 31
0.0
 73
     1
 44
1.0
  0
POINT
  5
229
330
220
100
AcDbEntity
  8
Defpoints
 62
     0
100
AcDbPoint
 10
38.10078832126951
 20
17.0125
 30
0.0
  0
POINT
  5
22A
330
220
100
AcDbEntity
  8
Defpoints
 62
     0
100
AcDbPoint
 10
38.1007883212695
 20
7.487500000000002
 30
0.0
  0
POINT
  5
22B
330
220
100
AcDbEntity
  8
Defpoints
 62
     0
100
AcDbPoint
 10
4.375000000000064
 20
7.487499999999876
 30
0.0
  0
ENDBLK
  5
222
330
220
100
AcDbEntity
  8
0
100
AcDbBlockEnd
  0
BLOCK
  5
22D
330
22C
100
AcDbEntity
  8
0
100
AcDbBlockBegin
  2
*D10
 70
     1
 10
0.0
 20
0.0
 30
0.0
  3
*D10
  1
*D11
  0
LINE
  5
22F
330
22C
100
AcDbEntity
  8
0
  6
Continuous
 62
     0
370
    -2
100
AcDbLine
 10
96.4325
 20
15.02812500000001
 30
0.0
 11
107.174748553217
 21
15.02812500000005
 31
0.0
  0
LINE
  5
230
330
22C
100
AcDbEntity
  8
0
  6
Continuous
 62
     0
370
    -2
100
AcDbLine
 10
96.4325
 20
9.471875000000011
 30
0.0
 11
107.174748553217
 21
9.471875000000047
 31
0.0
  0
LINE
  5
231
330
22C
100
AcDbEntity
  8
0
  6
Continuous
 62
     0
370
    -2
100
AcDbLine
 10
107.174748553217
 20
15.02812500000005
 30
0.0
 11
107.1747485532169
 21
62.82709479442561
 31
0.0
  0
LINE
  5
232
330
22C
100
AcDbEntity
  8
0
  6
Continuous
 62
     0
370
    -2
100
AcDbLine
 10
107.174748553217
 20
18.33012500000005
 30
0.0
 11
107.174748553217
 21
21.63212500000004
 31
0.0
  0
LINE
  5
233
330
22C
100
AcDbEntity
  8
0
  6
Continuous
 62
     0
370
    -2
100
AcDbLine
 10
107.174748553217
 20
6.169875000000047
 30
0.0
 11
107.1747485532171
 21
2.867875000000048
 31
0.0
  0
SOLID
  5
234
330
22C
100
AcDbEntity
  8
0
 62
     0
100
AcDbTrace
 10
106.6244152198837
 20
18.33012500000005
 30
0.0
 11
107.7250818865503
 21
18.33012500000005
 31
0.0
 12
107.174748553217
 22
15.02812500000005
 32
0.0
 13
107.174748553217
 23
15.02812500000005
 33
0.0
  0
SOLID
  5
235
330
22C
100
AcDbEntity
  8
0
 62
     0
100
AcDbTrace
 10
107.7250818865504
 20
6.169875000000049
 30
0.0
 11
106.6244152198837
 21
6.169875000000046
 31
0.0
 12
107.174748553217
 22
9.471875000000047
 32
0.0
 13
107.174748553217
 23
9.471875000000047
 33
0.0
  0
MTEXT
  5
236
330
22C
100
AcDbEntity
  8
0
 62
     0
370
    15
100
AcDbMText
 10
102.7997485532169
 20
48.3895947944256
 30
0.0
 40
3.5
 41
0.0
 71
     2
 72
     1
  1
\A1;%%c5.56 [7/32]
  7
SLDTEXTSTYLE0
 11
-2.557634144468304E-15
 21
1.0
 31
0.0
 73
     1
 44
1.0
  0
POINT
  5
237
330
22C
100
AcDbEntity
  8
Defpoints
 62
     0
100
AcDbPoint
 10
96.37
 20
15.02812500000001
 30
0.0
  0
POINT
  5
238
330
22C
100
AcDbEntity
  8
Defpoints
 62
     0
100
AcDbPoint
 10
96.37
 20
9.471875000000011
 30
0.0
  0
POINT
  5
239
330
22C
100
AcDbEntity
  8
Defpoints
 62
     0
100
AcDbPoint
 10
107.1747485532171
 20
9.471875000000052
 30
0.0
  0
ENDBLK
  5
22E
330
22C
100
AcDbEntity
  8
0
100
AcDbBlockEnd
  0
BLOCK
  5
28F
330
28E
100
AcDbEntity
  8
0
100
AcDbBlockBegin
  2
*D11
 70
     1
 10
0.0
 20
0.0
 30
0.0
  3
*D11
  1
*D12
  0
LINE
  5
291
330
28E
100
AcDbEntity
  8
0
  6
Continuous
 62
     0
370
    -2
100
AcDbLine
 10
154.7472324745541
 20
-28.533932772863
 30
0.0
 11
154.7472324745541
 21
-18.37563270158689
 31
0.0
  0
LINE
  5
292
330
28E
100
AcDbEntity
  8
0
  6
Continuous
 62
     0
370
    -2
100
AcDbLine
 10
142.0472324745541
 20
-28.53393277286302
 30
0.0
 11
142.0472324745541
 21
-18.37563270158689
 31
0.0
  0
LINE
  5
293
330
28E
100
AcDbEntity
  8
0
  6
Continuous
 62
     0
370
    -2
100
AcDbLine
 10
142.0472324745541
 20
-18.37563270158689
 30
0.0
 11
106.8923895624428
 21
-18.37563270158689
 31
0.0
  0
LINE
  5
294
330
28E
100
AcDbEntity
  8
0
  6
Continuous
 62
     0
370
    -2
100
AcDbLine
 10
151.4452324745541
 20
-18.37563270158689
 30
0.0
 11
145.3492324745541
 21
-18.37563270158689
 31
0.0
  0
SOLID
  5
295
330
28E
100
AcDbEntity
  8
0
 62
     0
100
AcDbTrace
 10
151.4452324745541
 20
-18.92596603492023
 30
0.0
 11
151.4452324745541
 21
-17.82529936825356
 31
0.0
 12
154.7472324745541
 22
-18.37563270158689
 32
0.0
 13
154.7472324745541
 23
-18.37563270158689
 33
0.0
  0
SOLID
  5
296
330
28E
100
AcDbEntity
  8
0
 62
     0
100
AcDbTrace
 10
145.3492324745541
 20
-17.82529936825356
 30
0.0
 11
145.3492324745541
 21
-18.92596603492023
 31
0.0
 12
142.0472324745541
 22
-18.37563270158689
 32
0.0
 13
142.0472324745541
 23
-18.37563270158689
 33
0.0
  0
MTEXT
  5
297
330
28E
100
AcDbEntity
  8
0
 62
     0
370
    15
100
AcDbMText
 10
117.8298895624428
 20
-14.00063270158689
 30
0.0
 40
3.5
 41
0.0
 71
     2
 72
     1
  1
\A1;12.7 [1/2]
  7
SLDTEXTSTYLE0
 73
     1
 44
1.0
  0
POINT
  5
298
330
28E
100
AcDbEntity
  8
Defpoints
 62
     0
100
AcDbPoint
 10
154.7472324745541
 20
-28.596432772863
 30
0.0
  0
POINT
  5
299
330
28E
100
AcDbEntity
  8
Defpoints
 62
     0
100
AcDbPoint
 10
142.0472324745541
 20
-28.59643277286302
 30
0.0
  0
POINT
  5
29A
330
28E
100
AcDbEntity
  8
Defpoints
 62
     0
100
AcDbPoint
 10
142.0472324745541
 20
-18.37563270158689
 30
0.0
  0
ENDBLK
  5
290
330
28E
100
AcDbEntity
  8
0
100
AcDbBlockEnd
  0
BLOCK
  5
29C
330
29B
100
AcDbEntity
  8
0
100
AcDbBlockBegin
  2
*D12
 70
     1
 10
0.0
 20
0.0
 30
0.0
  3
*D12
  1
*D13
  0
LINE
  5
29E
330
29B
100
AcDbEntity
  8
0
  6
Continuous
 62
     0
370
    -2
100
AcDbLine
 10
154.7472324745541
 20
-28.533932772863
 30
0.0
 11
154.7472324745541
 21
-2.086578784688029
 31
0.0
  0
LINE
  5
29F
330
29B
100
AcDbEntity
  8
0
  6
Continuous
 62
     0
370
    -2
100
AcDbLine
 10
75.37223247455412
 20
-26.549557772863
 30
0.0
 11
75.37223247455412
 21
-2.086578784688029
 31
0.0
  0
LINE
  5
2A0
330
29B
100
AcDbEntity
  8
0
  6
Continuous
 62
     0
370
    -2
100
AcDbLine
 10
151.4452324745541
 20
-2.086578784688029
 30
0.0
 11
78.67423247455412
 21
-2.086578784688029
 31
0.0
  0
SOLID
  5
2A1
330
29B
100
AcDbEntity
  8
0
 62
     0
100
AcDbTrace
 10
151.4452324745541
 20
-2.636912118021363
 30
0.0
 11
151.4452324745541
 21
-1.536245451354696
 31
0.0
 12
154.7472324745541
 22
-2.086578784688029
 32
0.0
 13
154.7472324745541
 23
-2.086578784688029
 33
0.0
  0
SOLID
  5
2A2
330
29B
100
AcDbEntity
  8
0
 62
     0
100
AcDbTrace
 10
78.67423247455412
 20
-1.536245451354696
 30
0.0
 11
78.67423247455412
 21
-2.636912118021363
 31
0.0
 12
75.37223247455412
 22
-2.086578784688029
 32
0.0
 13
75.37223247455412
 23
-2.086578784688029
 33
0.0
  0
MTEXT
  5
2A3
330
29B
100
AcDbEntity
  8
0
 62
     0
370
    15
100
AcDbMText
 10
115.4071270615329
 20
2.288421215311971
 30
0.0
 40
3.5
 41
0.0
 71
     2
 72
     1
  1
\A1;79.38 [3 1/8]
  7
SLDTEXTSTYLE0
 73
     1
 44
1.0
  0
POINT
  5
2A4
330
29B
100
AcDbEntity
  8
Defpoints
 62
     0
100
AcDbPoint
 10
154.7472324745541
 20
-28.596432772863
 30
0.0
  0
POINT
  5
2A5
330
29B
100
AcDbEntity
  8
Defpoints
 62
     0
100
AcDbPoint
 10
75.37223247455412
 20
-26.612057772863
 30
0.0
  0
POINT
  5
2A6
330
29B
100
AcDbEntity
  8
Defpoints
 62
     0
100
AcDbPoint
 10
75.37223247455412
 20
-2.086578784688029
 30
0.0
  0
ENDBLK
  5
29D
330
29B
100
AcDbEntity
  8
0
100
AcDbBlockEnd
  0
BLOCK
  5
2A8
330
2A7
100
AcDbEntity
  8
0
100
AcDbBlockBegin
  2
*D13
 70
     1
 10
0.0
 20
0.0
 30
0.0
  3
*D13
  1
*D14
  0
LINE
  5
2AA
330
2A7
100
AcDbEntity
  8
0
  6
Continuous
 62
     0
370
    -2
100
AcDbLine
 10
96.4155207958236
 20
-26.61205777286301
 30
0.0
 11
62.75223247455411
 21
-26.61205777286314
 31
0.0
  0
LINE
  5
2AB
330
2A7
100
AcDbEntity
  8
0
  6
Continuous
 62
     0
370
    -2
100
AcDbLine
 10
96.4155207958236
 20
-36.13705777286301
 30
0.0
 11
62.75223247455415
 21
-36.13705777286314
 31
0.0
  0
LINE
  5
2AC
330
2A7
100
AcDbEntity
  8
0
  6
Continuous
 62
     0
370
    -2
100
AcDbLine
 10
62.75223247455413
 20
-29.91405777286314
 30
0.0
 11
62.75223247455413
 21
-32.83505777286314
 31
0.0
  0
SOLID
  5
2AD
330
2A7
100
AcDbEntity
  8
0
 62
     0
100
AcDbTrace
 10
63.30256580788746
 20
-29.91405777286313
 30
0.0
 11
62.20189914122079
 21
-29.91405777286314
 31
0.0
 12
62.75223247455411
 22
-26.61205777286314
 32
0.0
 13
62.75223247455411
 23
-26.61205777286314
 33
0.0
  0
SOLID
  5
2AE
330
2A7
100
AcDbEntity
  8
0
 62
     0
100
AcDbTrace
 10
62.2018991412208
 20
-32.83505777286314
 30
0.0
 11
63.30256580788747
 21
-32.83505777286314
 31
0.0
 12
62.75223247455415
 22
-36.13705777286314
 32
0.0
 13
62.75223247455415
 23
-36.13705777286314
 33
0.0
  0
MTEXT
  5
2AF
330
2A7
100
AcDbEntity
  8
0
 62
     0
370
    15
100
AcDbMText
 10
58.37723247455413
 20
-31.37455777286302
 30
0.0
 40
3.5
 41
0.0
 71
     2
 72
     1
  1
\A1;%%c9.53 [3/8]
  7
SLDTEXTSTYLE0
 11
-3.729883127349608E-15
 21
1.0
 31
0.0
 73
     1
 44
1.0
  0
POINT
  5
2B0
330
2A7
100
AcDbEntity
  8
Defpoints
 62
     0
100
AcDbPoint
 10
96.4780207958236
 20
-26.61205777286301
 30
0.0
  0
POINT
  5
2B1
330
2A7
100
AcDbEntity
  8
Defpoints
 62
     0
100
AcDbPoint
 10
96.4780207958236
 20
-36.13705777286301
 30
0.0
  0
POINT
  5
2B2
330
2A7
100
AcDbEntity
  8
Defpoints
 62
     0
100
AcDbPoint
 10
62.75223247455414
 20
-36.13705777286314
 30
0.0
  0
ENDBLK
  5
2A9
330
2A7
100
AcDbEntity
  8
0
100
AcDbBlockEnd
  0
BLOCK
  5
2B4
330
2B3
100
AcDbEntity
  8
0
100
AcDbBlockBegin
  2
*D14
 70
     1
 10
0.0
 20
0.0
 30
0.0
  3
*D14
  1
*D15
  0
LINE
  5
2B6
330
2B3
100
AcDbEntity
  8
0
  6
Continuous
 62
     0
370
    -2
100
AcDbLine
 10
154.8097324745541
 20
-28.596432772863
 30
0.0
 11
165.5519810277712
 21
-28.59643277286297
 31
0.0
  0
LINE
  5
2B7
330
2B3
100
AcDbEntity
  8
0
  6
Continuous
 62
     0
370
    -2
100
AcDbLine
 10
154.8097324745541
 20
-34.152682772863
 30
0.0
 11
165.5519810277712
 21
-34.15268277286297
 31
0.0
  0
LINE
  5
2B8
330
2B3
100
AcDbEntity
  8
0
  6
Continuous
 62
     0
370
    -2
100
AcDbLine
 10
165.5519810277712
 20
-28.59643277286297
 30
0.0
 11
165.5519810277709
 21
19.2025370215626
 31
0.0
  0
LINE
  5
2B9
330
2B3
100
AcDbEntity
  8
0
  6
Continuous
 62
     0
370
    -2
100
AcDbLine
 10
165.5519810277711
 20
-25.29443277286297
 30
0.0
 11
165.5519810277711
 21
-21.99243277286297
 31
0.0
  0
LINE
  5
2BA
330
2B3
100
AcDbEntity
  8
0
  6
Continuous
 62
     0
370
    -2
100
AcDbLine
 10
165.5519810277712
 20
-37.45468277286297
 30
0.0
 11
165.5519810277713
 21
-40.75668277286297
 31
0.0
  0
SOLID
  5
2BB
330
2B3
100
AcDbEntity
  8
0
 62
     0
100
AcDbTrace
 10
165.0016476944378
 20
-25.29443277286297
 30
0.0
 11
166.1023143611045
 21
-25.29443277286297
 31
0.0
 12
165.5519810277712
 22
-28.59643277286297
 32
0.0
 13
165.5519810277712
 23
-28.59643277286297
 33
0.0
  0
SOLID
  5
2BC
330
2B3
100
AcDbEntity
  8
0
 62
     0
100
AcDbTrace
 10
166.1023143611046
 20
-37.45468277286297
 30
0.0
 11
165.0016476944379
 21
-37.45468277286297
 31
0.0
 12
165.5519810277712
 22
-34.15268277286297
 32
0.0
 13
165.5519810277712
 23
-34.15268277286297
 33
0.0
  0
MTEXT
  5
2BD
330
2B3
100
AcDbEntity
  8
0
 62
     0
370
    15
100
AcDbMText
 10
161.176981027771
 20
4.765037021562576
 30
0.0
 40
3.5
 41
0.0
 71
     2
 72
     1
  1
\A1;%%c5.56 [7/32]
  7
SLDTEXTSTYLE0
 11
-5.115268288936609E-15
 21
1.0
 31
0.0
 73
     1
 44
1.0
  0
POINT
  5
2BE
330
2B3
100
AcDbEntity
  8
Defpoints
 62
     0
100
AcDbPoint
 10
154.7472324745541
 20
-28.596432772863
 30
0.0
  0
POINT
  5
2BF
330
2B3
100
AcDbEntity
  8
Defpoints
 62
     0
100
AcDbPoint
 10
154.7472324745541
 20
-34.152682772863
 30
0.0
  0
POINT
  5
2C0
330
2B3
100
AcDbEntity
  8
Defpoints
 62
     0
100
AcDbPoint
 10
165.5519810277711
 20
-34.15268277286296
 30
0.0
  0
ENDBLK
  5
2B5
330
2B3
100
AcDbEntity
  8
0
100
AcDbBlockEnd
  0
BLOCK
  5
345
330
344
100
AcDbEntity
  8
0
100
AcDbBlockBegin
  2
*D15
 70
     1
 10
0.0
 20
0.0
 30
0.0
  3
*D15
  1
*D17
  0
LINE
  5
347
330
344
100
AcDbEntity
  8
0
  6
Continuous
 62
     0
370
    -2
100
AcDbLine
 10
82.37500000000001
 20
9.67872347783926
 30
0.0
 11
82.37500000000001
 21
21.98417507127607
 31
0.0
  0
LINE
  5
348
330
344
100
AcDbEntity
  8
0
  6
Continuous
 62
     0
370
    -2
100
AcDbLine
 10
71.26250000000002
 20
11.42899999999996
 30
0.0
 11
71.26250000000002
 21
21.98417507127607
 31
0.0
  0
LINE
  5
349
330
344
100
AcDbEntity
  8
0
  6
Continuous
 62
     0
370
    -2
100
AcDbLine
 10
71.26250000000002
 20
21.98417507127607
 30
0.0
 11
37.55483458888721
 21
21.98417507127607
 31
0.0
  0
LINE
  5
34A
330
344
100
AcDbEntity
  8
0
  6
Continuous
 62
     0
370
    -2
100
AcDbLine
 10
79.07300000000001
 20
21.98417507127607
 30
0.0
 11
74.56450000000001
 21
21.98417507127607
 31
0.0
  0
SOLID
  5
34B
330
344
100
AcDbEntity
  8
0
 62
     0
100
AcDbTrace
 10
79.07300000000001
 20
21.43384173794274
 30
0.0
 11
79.07300000000001
 21
22.53450840460941
 31
0.0
 12
82.37500000000001
 22
21.98417507127607
 32
0.0
 13
82.37500000000001
 23
21.98417507127607
 33
0.0
  0
SOLID
  5
34C
330
344
100
AcDbEntity
  8
0
 62
     0
100
AcDbTrace
 10
74.56450000000001
 20
22.53450840460941
 30
0.0
 11
74.56450000000001
 21
21.43384173794274
 31
0.0
 12
71.26250000000002
 22
21.98417507127607
 32
0.0
 13
71.26250000000002
 23
21.98417507127607
 33
0.0
  0
MTEXT
  5
34D
330
344
100
AcDbEntity
  8
0
 62
     0
370
    15
100
AcDbMText
 10
49.80483458888721
 20
26.35917507127607
 30
0.0
 40
3.5
 41
0.0
 71
     2
 72
     1
  1
\A1;11.11 [7/16]
  7
SLDTEXTSTYLE0
 73
     1
 44
1.0
  0
POINT
  5
34E
330
344
100
AcDbEntity
  8
Defpoints
 62
     0
100
AcDbPoint
 10
82.37500000000001
 20
9.61622347783926
 30
0.0
  0
POINT
  5
34F
330
344
100
AcDbEntity
  8
Defpoints
 62
     0
100
AcDbPoint
 10
71.26250000000002
 20
11.36649999999996
 30
0.0
  0
POINT
  5
350
330
344
100
AcDbEntity
  8
Defpoints
 62
     0
100
AcDbPoint
 10
71.26250000000002
 20
21.98417507127607
 30
0.0
  0
ENDBLK
  5
346
330
344
100
AcDbEntity
  8
0
100
AcDbBlockEnd
  0
BLOCK
  5
352
330
351
100
AcDbEntity
  8
0
100
AcDbBlockBegin
  2
*D16
 70
     1
 10
0.0
 20
0.0
 30
0.0
  3
*D16
  1
*D18
  0
LINE
  5
354
330
351
100
AcDbEntity
  8
0
  6
Continuous
 62
     0
370
    -2
100
AcDbLine
 10
82.37500000000001
 20
9.67872347783926
 30
0.0
 11
82.37500000000001
 21
38.27322898817494
 31
0.0
  0
LINE
  5
355
330
351
100
AcDbEntity
  8
0
  6
Continuous
 62
     0
370
    -2
100
AcDbLine
 10
2.999999999999986
 20
13.00024999999995
 30
0.0
 11
2.999999999999986
 21
38.27322898817494
 31
0.0
  0
LINE
  5
356
330
351
100
AcDbEntity
  8
0
  6
Continuous
 62
     0
370
    -2
100
AcDbLine
 10
79.07300000000001
 20
38.27322898817494
 30
0.0
 11
6.301999999999985
 21
38.27322898817494
 31
0.0
  0
SOLID
  5
357
330
351
100
AcDbEntity
  8
0
 62
     0
100
AcDbTrace
 10
79.07300000000001
 20
37.7228956548416
 30
0.0
 11
79.07300000000001
 21
38.82356232150827
 31
0.0
 12
82.37500000000001
 22
38.27322898817494
 32
0.0
 13
82.37500000000001
 23
38.27322898817494
 33
0.0
  0
SOLID
  5
358
330
351
100
AcDbEntity
  8
0
 62
     0
100
AcDbTrace
 10
6.301999999999985
 20
38.82356232150827
 30
0.0
 11
6.301999999999985
 21
37.7228956548416
 31
0.0
 12
2.999999999999986
 22
38.27322898817494
 32
0.0
 13
2.999999999999986
 23
38.27322898817494
 33
0.0
  0
MTEXT
  5
359
330
351
100
AcDbEntity
  8
0
 62
     0
370
    15
100
AcDbMText
 10
43.0348945869788
 20
42.64822898817494
 30
0.0
 40
3.5
 41
0.0
 71
     2
 72
     1
  1
\A1;79.38 [3 1/8]
  7
SLDTEXTSTYLE0
 73
     1
 44
1.0
  0
POINT
  5
35A
330
351
100
AcDbEntity
  8
Defpoints
 62
     0
100
AcDbPoint
 10
82.37500000000001
 20
9.61622347783926
 30
0.0
  0
POINT
  5
35B
330
351
100
AcDbEntity
  8
Defpoints
 62
     0
100
AcDbPoint
 10
2.999999999999986
 20
12.93774999999995
 30
0.0
  0
POINT
  5
35C
330
351
100
AcDbEntity
  8
Defpoints
 62
     0
100
AcDbPoint
 10
2.999999999999986
 20
38.27322898817494
 30
0.0
  0
ENDBLK
  5
353
330
351
100
AcDbEntity
  8
0
100
AcDbBlockEnd
  0
BLOCK
  5
35E
330
35D
100
AcDbEntity
  8
0
100
AcDbBlockBegin
  2
*D17
 70
     1
 10
0.0
 20
0.0
 30
0.0
  3
*D17
  1
*D19
  0
LINE
  5
360
330
35D
100
AcDbEntity
  8
0
  6
Continuous
 62
     0
370
    -2
100
AcDbLine
 10
80.05625
 20
11.36649999999996
 30
0.0
 11
90.96547146851948
 21
11.3665
 31
0.0
  0
LINE
  5
361
330
35D
100
AcDbEntity
  8
0
  6
Continuous
 62
     0
370
    -2
100
AcDbLine
 10
80.05625
 20
6.60399999999996
 30
0.0
 11
90.9654714685195
 21
6.603999999999999
 31
0.0
  0
LINE
  5
362
330
35D
100
AcDbEntity
  8
0
  6
Continuous
 62
     0
370
    -2
100
AcDbLine
 10
90.96547146851948
 20
11.3665
 30
0.0
 11
90.96547146851935
 21
53.9620455380791
 31
0.0
  0
LINE
  5
363
330
35D
100
AcDbEntity
  8
0
  6
Continuous
 62
     0
370
    -2
100
AcDbLine
 10
90.96547146851947
 20
14.6685
 30
0.0
 11
90.96547146851945
 21
17.9705
 31
0.0
  0
LINE
  5
364
330
35D
100
AcDbEntity
  8
0
  6
Continuous
 62
     0
370
    -2
100
AcDbLine
 10
90.96547146851951
 20
3.302
 30
0.0
 11
90.96547146851952
 21
0.0
 31
0.0
  0
SOLID
  5
365
330
35D
100
AcDbEntity
  8
0
 62
     0
100
AcDbTrace
 10
90.41513813518614
 20
14.6685
 30
0.0
 11
91.5158048018528
 21
14.6685
 31
0.0
 12
90.96547146851948
 22
11.3665
 32
0.0
 13
90.96547146851948
 23
11.3665
 33
0.0
  0
SOLID
  5
366
330
35D
100
AcDbEntity
  8
0
 62
     0
100
AcDbTrace
 10
91.51580480185284
 20
3.302000000000001
 30
0.0
 11
90.41513813518618
 21
3.301999999999998
 31
0.0
 12
90.9654714685195
 22
6.603999999999999
 32
0.0
 13
90.9654714685195
 23
6.603999999999999
 33
0.0
  0
MTEXT
  5
367
330
35D
100
AcDbEntity
  8
0
 62
     0
370
    15
100
AcDbMText
 10
86.5904714685194
 20
39.96204553807908
 30
0.0
 40
3.5
 41
0.0
 71
     2
 72
     1
  1
\A1;%%c4.76 [3/16]
  7
SLDTEXTSTYLE0
 11
-2.983906501879686E-15
 21
1.0
 31
0.0
 73
     1
 44
1.0
  0
POINT
  5
368
330
35D
100
AcDbEntity
  8
Defpoints
 62
     0
100
AcDbPoint
 10
79.99375
 20
11.36649999999996
 30
0.0
  0
POINT
  5
369
330
35D
100
AcDbEntity
  8
Defpoints
 62
     0
100
AcDbPoint
 10
79.99375
 20
6.60399999999996
 30
0.0
  0
POINT
  5
36A
330
35D
100
AcDbEntity
  8
Defpoints
 62
     0
100
AcDbPoint
 10
90.96547146851952
 20
6.604000000000001
 30
0.0
  0
ENDBLK
  5
35F
330
35D
100
AcDbEntity
  8
0
100
AcDbBlockEnd
  0
BLOCK
  5
398
330
397
100
AcDbEntity
  8
0
100
AcDbBlockBegin
  2
*D18
 70
     1
 10
0.0
 20
0.0
 30
0.0
  3
*D18
  1
*D20
  0
LINE
  5
39A
330
397
100
AcDbEntity
  8
0
  6
Continuous
 62
     0
370
    -2
100
AcDbLine
 10
139.1551307342245
 20
56.95477213605091
 30
0.0
 11
139.1551307342245
 21
69.26022372948772
 31
0.0
  0
LINE
  5
39B
330
397
100
AcDbEntity
  8
0
  6
Continuous
 62
     0
370
    -2
100
AcDbLine
 10
128.0426307342245
 20
58.7050486582116
 30
0.0
 11
128.0426307342245
 21
69.26022372948772
 31
0.0
  0
LINE
  5
39C
330
397
100
AcDbEntity
  8
0
  6
Continuous
 62
     0
370
    -2
100
AcDbLine
 10
128.0426307342245
 20
69.26022372948772
 30
0.0
 11
94.33496532311173
 21
69.26022372948772
 31
0.0
  0
LINE
  5
39D
330
397
100
AcDbEntity
  8
0
  6
Continuous
 62
     0
370
    -2
100
AcDbLine
 10
135.8531307342245
 20
69.26022372948772
 30
0.0
 11
131.3446307342245
 21
69.26022372948772
 31
0.0
  0
SOLID
  5
39E
330
397
100
AcDbEntity
  8
0
 62
     0
100
AcDbTrace
 10
135.8531307342245
 20
68.70989039615439
 30
0.0
 11
135.8531307342245
 21
69.81055706282105
 31
0.0
 12
139.1551307342245
 22
69.26022372948772
 32
0.0
 13
139.1551307342245
 23
69.26022372948772
 33
0.0
  0
SOLID
  5
39F
330
397
100
AcDbEntity
  8
0
 62
     0
100
AcDbTrace
 10
131.3446307342245
 20
69.81055706282105
 30
0.0
 11
131.3446307342245
 21
68.70989039615439
 31
0.0
 12
128.0426307342245
 22
69.26022372948772
 32
0.0
 13
128.0426307342245
 23
69.26022372948772
 33
0.0
  0
MTEXT
  5
3A0
330
397
100
AcDbEntity
  8
0
 62
     0
370
    15
100
AcDbMText
 10
106.5849653231117
 20
73.63522372948772
 30
0.0
 40
3.5
 41
0.0
 71
     2
 72
     1
  1
\A1;11.11 [7/16]
  7
SLDTEXTSTYLE0
 73
     1
 44
1.0
  0
POINT
  5
3A1
330
397
100
AcDbEntity
  8
Defpoints
 62
     0
100
AcDbPoint
 10
139.1551307342245
 20
56.89227213605091
 30
0.0
  0
POINT
  5
3A2
330
397
100
AcDbEntity
  8
Defpoints
 62
     0
100
AcDbPoint
 10
128.0426307342245
 20
58.6425486582116
 30
0.0
  0
POINT
  5
3A3
330
397
100
AcDbEntity
  8
Defpoints
 62
     0
100
AcDbPoint
 10
128.0426307342245
 20
69.26022372948772
 30
0.0
  0
ENDBLK
  5
399
330
397
100
AcDbEntity
  8
0
100
AcDbBlockEnd
  0
BLOCK
  5
3A5
330
3A4
100
AcDbEntity
  8
0
100
AcDbBlockBegin
  2
*D19
 70
     1
 10
0.0
 20
0.0
 30
0.0
  3
*D19
  1
*D21
  0
LINE
  5
3A7
330
3A4
100
AcDbEntity
  8
0
  6
Continuous
 62
     0
370
    -2
100
AcDbLine
 10
139.1551307342245
 20
56.95477213605091
 30
0.0
 11
139.1551307342245
 21
85.54927764638657
 31
0.0
  0
LINE
  5
3A8
330
3A4
100
AcDbEntity
  8
0
  6
Continuous
 62
     0
370
    -2
100
AcDbLine
 10
59.78013073422451
 20
60.27629865821159
 30
0.0
 11
59.78013073422451
 21
85.54927764638657
 31
0.0
  0
LINE
  5
3A9
330
3A4
100
AcDbEntity
  8
0
  6
Continuous
 62
     0
370
    -2
100
AcDbLine
 10
135.8531307342245
 20
85.54927764638657
 30
0.0
 11
63.08213073422451
 21
85.54927764638657
 31
0.0
  0
SOLID
  5
3AA
330
3A4
100
AcDbEntity
  8
0
 62
     0
100
AcDbTrace
 10
135.8531307342245
 20
84.99894431305324
 30
0.0
 11
135.8531307342245
 21
86.0996109797199
 31
0.0
 12
139.1551307342245
 22
85.54927764638657
 32
0.0
 13
139.1551307342245
 23
85.54927764638657
 33
0.0
  0
SOLID
  5
3AB
330
3A4
100
AcDbEntity
  8
0
 62
     0
100
AcDbTrace
 10
63.08213073422451
 20
86.0996109797199
 30
0.0
 11
63.08213073422451
 21
84.99894431305324
 31
0.0
 12
59.78013073422451
 22
85.54927764638657
 32
0.0
 13
59.78013073422451
 23
85.54927764638657
 33
0.0
  0
MTEXT
  5
3AC
330
3A4
100
AcDbEntity
  8
0
 62
     0
370
    15
100
AcDbMText
 10
99.81502532120334
 20
89.92427764638657
 30
0.0
 40
3.5
 41
0.0
 71
     2
 72
     1
  1
\A1;79.38 [3 1/8]
  7
SLDTEXTSTYLE0
 73
     1
 44
1.0
  0
POINT
  5
3AD
330
3A4
100
AcDbEntity
  8
Defpoints
 62
     0
100
AcDbPoint
 10
139.1551307342245
 20
56.89227213605091
 30
0.0
  0
POINT
  5
3AE
330
3A4
100
AcDbEntity
  8
Defpoints
 62
     0
100
AcDbPoint
 10
59.78013073422451
 20
60.21379865821159
 30
0.0
  0
POINT
  5
3AF
330
3A4
100
AcDbEntity
  8
Defpoints
 62
     0
100
AcDbPoint
 10
59.78013073422451
 20
85.54927764638657
 30
0.0
  0
ENDBLK
  5
3A6
330
3A4
100
AcDbEntity
  8
0
100
AcDbBlockEnd
  0
BLOCK
  5
3B1
330
3B0
100
AcDbEntity
  8
0
100
AcDbBlockBegin
  2
*D20
 70
     1
 10
0.0
 20
0.0
 30
0.0
  3
*D20
  1
*D22
  0
LINE
  5
3B3
330
3B0
100
AcDbEntity
  8
0
  6
Continuous
 62
     0
370
    -2
100
AcDbLine
 10
136.8363807342245
 20
58.6425486582116
 30
0.0
 11
147.7456022027441
 21
58.64254865821164
 31
0.0
  0
LINE
  5
3B4
330
3B0
100
AcDbEntity
  8
0
  6
Continuous
 62
     0
370
    -2
100
AcDbLine
 10
136.8363807342245
 20
53.88004865821161
 30
0.0
 11
147.7456022027441
 21
53.88004865821165
 31
0.0
  0
LINE
  5
3B5
330
3B0
100
AcDbEntity
  8
0
  6
Continuous
 62
     0
370
    -2
100
AcDbLine
 10
147.7456022027441
 20
58.64254865821164
 30
0.0
 11
147.7456022027438
 21
101.2380941962907
 31
0.0
  0
LINE
  5
3B6
330
3B0
100
AcDbEntity
  8
0
  6
Continuous
 62
     0
370
    -2
100
AcDbLine
 10
147.7456022027441
 20
61.94454865821164
 30
0.0
 11
147.745602202744
 21
65.24654865821165
 31
0.0
  0
LINE
  5
3B7
330
3B0
100
AcDbEntity
  8
0
  6
Continuous
 62
     0
370
    -2
100
AcDbLine
 10
147.7456022027442
 20
50.57804865821165
 30
0.0
 11
147.7456022027442
 21
47.27604865821165
 31
0.0
  0
SOLID
  5
3B8
330
3B0
100
AcDbEntity
  8
0
 62
     0
100
AcDbTrace
 10
147.1952688694107
 20
61.94454865821164
 30
0.0
 11
148.2959355360774
 21
61.94454865821164
 31
0.0
 12
147.7456022027441
 22
58.64254865821164
 32
0.0
 13
147.7456022027441
 23
58.64254865821164
 33
0.0
  0
SOLID
  5
3B9
330
3B0
100
AcDbEntity
  8
0
 62
     0
100
AcDbTrace
 10
148.2959355360775
 20
50.57804865821165
 30
0.0
 11
147.1952688694108
 21
50.57804865821165
 31
0.0
 12
147.7456022027441
 22
53.88004865821165
 32
0.0
 13
147.7456022027441
 23
53.88004865821165
 33
0.0
  0
MTEXT
  5
3BA
330
3B0
100
AcDbEntity
  8
0
 62
     0
370
    15
100
AcDbMText
 10
143.3706022027439
 20
87.23809419629072
 30
0.0
 40
3.5
 41
0.0
 71
     2
 72
     1
  1
\A1;%%c4.76 [3/16]
  7
SLDTEXTSTYLE0
 11
-5.967813003759377E-15
 21
1.0
 31
0.0
 73
     1
 44
1.0
  0
POINT
  5
3BB
330
3B0
100
AcDbEntity
  8
Defpoints
 62
     0
100
AcDbPoint
 10
136.7738807342245
 20
58.6425486582116
 30
0.0
  0
POINT
  5
3BC
330
3B0
100
AcDbEntity
  8
Defpoints
 62
     0
100
AcDbPoint
 10
136.7738807342245
 20
53.88004865821161
 30
0.0
  0
POINT
  5
3BD
330
3B0
100
AcDbEntity
  8
Defpoints
 62
     0
100
AcDbPoint
 10
147.745602202744
 20
53.88004865821165
 30
0.0
  0
ENDBLK
  5
3B2
330
3B0
100
AcDbEntity
  8
0
100
AcDbBlockEnd
  0
BLOCK
  5
442
330
441
100
AcDbEntity
  8
0
100
AcDbBlockBegin
  2
*D21
 70
     1
 10
0.0
 20
0.0
 30
0.0
  3
*D21
  1
*D24
  0
LINE
  5
444
330
441
100
AcDbEntity
  8
0
  6
Continuous
 62
     0
370
    -2
100
AcDbLine
 10
82.375
 20
11.42899999999997
 30
0.0
 11
82.375
 21
21.98417507127607
 31
0.0
  0
LINE
  5
445
330
441
100
AcDbEntity
  8
0
  6
Continuous
 62
     0
370
    -2
100
AcDbLine
 10
71.26250000000002
 20
11.42899999999996
 30
0.0
 11
71.26250000000002
 21
21.98417507127607
 31
0.0
  0
LINE
  5
446
330
441
100
AcDbEntity
  8
0
  6
Continuous
 62
     0
370
    -2
100
AcDbLine
 10
71.26250000000002
 20
21.98417507127607
 30
0.0
 11
37.55483458888721
 21
21.98417507127607
 31
0.0
  0
LINE
  5
447
330
441
100
AcDbEntity
  8
0
  6
Continuous
 62
     0
370
    -2
100
AcDbLine
 10
79.07300000000001
 20
21.98417507127607
 30
0.0
 11
74.56450000000001
 21
21.98417507127607
 31
0.0
  0
SOLID
  5
448
330
441
100
AcDbEntity
  8
0
 62
     0
100
AcDbTrace
 10
79.07300000000001
 20
21.43384173794274
 30
0.0
 11
79.07300000000001
 21
22.53450840460941
 31
0.0
 12
82.375
 22
21.98417507127607
 32
0.0
 13
82.375
 23
21.98417507127607
 33
0.0
  0
SOLID
  5
449
330
441
100
AcDbEntity
  8
0
 62
     0
100
AcDbTrace
 10
74.56450000000001
 20
22.53450840460941
 30
0.0
 11
74.56450000000001
 21
21.43384173794274
 31
0.0
 12
71.26250000000002
 22
21.98417507127607
 32
0.0
 13
71.26250000000002
 23
21.98417507127607
 33
0.0
  0
MTEXT
  5
44A
330
441
100
AcDbEntity
  8
0
 62
     0
370
    15
100
AcDbMText
 10
49.80483458888721
 20
26.35917507127607
 30
0.0
 40
3.5
 41
0.0
 71
     2
 72
     1
  1
\A1;11.11 [7/16]
  7
SLDTEXTSTYLE0
 73
     1
 44
1.0
  0
POINT
  5
44B
330
441
100
AcDbEntity
  8
Defpoints
 62
     0
100
AcDbPoint
 10
82.375
 20
11.36649999999997
 30
0.0
  0
POINT
  5
44C
330
441
100
AcDbEntity
  8
Defpoints
 62
     0
100
AcDbPoint
 10
71.26250000000002
 20
11.36649999999996
 30
0.0
  0
POINT
  5
44D
330
441
100
AcDbEntity
  8
Defpoints
 62
     0
100
AcDbPoint
 10
71.26250000000002
 20
21.98417507127607
 30
0.0
  0
ENDBLK
  5
443
330
441
100
AcDbEntity
  8
0
100
AcDbBlockEnd
  0
BLOCK
  5
44F
330
44E
100
AcDbEntity
  8
0
100
AcDbBlockBegin
  2
*D22
 70
     1
 10
0.0
 20
0.0
 30
0.0
  3
*D22
  1
*D25
  0
LINE
  5
451
330
44E
100
AcDbEntity
  8
0
  6
Continuous
 62
     0
370
    -2
100
AcDbLine
 10
82.375
 20
11.42899999999997
 30
0.0
 11
82.375
 21
38.27322898817494
 31
0.0
  0
LINE
  5
452
330
44E
100
AcDbEntity
  8
0
  6
Continuous
 62
     0
370
    -2
100
AcDbLine
 10
2.999999999999986
 20
13.00024999999995
 30
0.0
 11
2.999999999999986
 21
38.27322898817494
 31
0.0
  0
LINE
  5
453
330
44E
100
AcDbEntity
  8
0
  6
Continuous
 62
     0
370
    -2
100
AcDbLine
 10
79.07300000000001
 20
38.27322898817494
 30
0.0
 11
6.301999999999985
 21
38.27322898817494
 31
0.0
  0
SOLID
  5
454
330
44E
100
AcDbEntity
  8
0
 62
     0
100
AcDbTrace
 10
79.07300000000001
 20
37.7228956548416
 30
0.0
 11
79.07300000000001
 21
38.82356232150827
 31
0.0
 12
82.375
 22
38.27322898817494
 32
0.0
 13
82.375
 23
38.27322898817494
 33
0.0
  0
SOLID
  5
455
330
44E
100
AcDbEntity
  8
0
 62
     0
100
AcDbTrace
 10
6.301999999999985
 20
38.82356232150827
 30
0.0
 11
6.301999999999985
 21
37.7228956548416
 31
0.0
 12
2.999999999999986
 22
38.27322898817494
 32
0.0
 13
2.999999999999986
 23
38.27322898817494
 33
0.0
  0
MTEXT
  5
456
330
44E
100
AcDbEntity
  8
0
 62
     0
370
    15
100
AcDbMText
 10
43.0348945869788
 20
42.64822898817494
 30
0.0
 40
3.5
 41
0.0
 71
     2
 72
     1
  1
\A1;79.38 [3 1/8]
  7
SLDTEXTSTYLE0
 73
     1
 44
1.0
  0
POINT
  5
457
330
44E
100
AcDbEntity
  8
Defpoints
 62
     0
100
AcDbPoint
 10
82.375
 20
11.36649999999997
 30
0.0
  0
POINT
  5
458
330
44E
100
AcDbEntity
  8
Defpoints
 62
     0
100
AcDbPoint
 10
2.999999999999986
 20
12.93774999999995
 30
0.0
  0
POINT
  5
459
330
44E
100
AcDbEntity
  8
Defpoints
 62
     0
100
AcDbPoint
 10
2.999999999999986
 20
38.27322898817494
 30
0.0
  0
ENDBLK
  5
450
330
44E
100
AcDbEntity
  8
0
100
AcDbBlockEnd
  0
BLOCK
  5
45B
330
45A
100
AcDbEntity
  8
0
100
AcDbBlockBegin
  2
*D23
 70
     1
 10
0.0
 20
0.0
 30
0.0
  3
*D23
  1
*D26
  0
LINE
  5
45D
330
45A
100
AcDbEntity
  8
0
  6
Continuous
 62
     0
370
    -2
100
AcDbLine
 10
82.43750000000001
 20
11.36649999999997
 30
0.0
 11
90.96547146851948
 21
11.3665
 31
0.0
  0
LINE
  5
45E
330
45A
100
AcDbEntity
  8
0
  6
Continuous
 62
     0
370
    -2
100
AcDbLine
 10
82.43750000000001
 20
6.603999999999969
 30
0.0
 11
90.9654714685195
 21
6.603999999999999
 31
0.0
  0
LINE
  5
45F
330
45A
100
AcDbEntity
  8
0
  6
Continuous
 62
     0
370
    -2
100
AcDbLine
 10
90.96547146851948
 20
11.3665
 30
0.0
 11
90.96547146851935
 21
53.9620455380791
 31
0.0
  0
LINE
  5
460
330
45A
100
AcDbEntity
  8
0
  6
Continuous
 62
     0
370
    -2
100
AcDbLine
 10
90.96547146851947
 20
14.6685
 30
0.0
 11
90.96547146851945
 21
17.9705
 31
0.0
  0
LINE
  5
461
330
45A
100
AcDbEntity
  8
0
  6
Continuous
 62
     0
370
    -2
100
AcDbLine
 10
90.96547146851951
 20
3.302
 30
0.0
 11
90.96547146851952
 21
0.0
 31
0.0
  0
SOLID
  5
462
330
45A
100
AcDbEntity
  8
0
 62
     0
100
AcDbTrace
 10
90.41513813518614
 20
14.6685
 30
0.0
 11
91.5158048018528
 21
14.6685
 31
0.0
 12
90.96547146851948
 22
11.3665
 32
0.0
 13
90.96547146851948
 23
11.3665
 33
0.0
  0
SOLID
  5
463
330
45A
100
AcDbEntity
  8
0
 62
     0
100
AcDbTrace
 10
91.51580480185284
 20
3.302000000000001
 30
0.0
 11
90.41513813518618
 21
3.301999999999998
 31
0.0
 12
90.9654714685195
 22
6.603999999999999
 32
0.0
 13
90.9654714685195
 23
6.603999999999999
 33
0.0
  0
MTEXT
  5
464
330
45A
100
AcDbEntity
  8
0
 62
     0
370
    15
100
AcDbMText
 10
86.5904714685194
 20
39.96204553807908
 30
0.0
 40
3.5
 41
0.0
 71
     2
 72
     1
  1
\A1;%%c4.76 [3/16]
  7
SLDTEXTSTYLE0
 11
-2.983906501879686E-15
 21
1.0
 31
0.0
 73
     1
 44
1.0
  0
POINT
  5
465
330
45A
100
AcDbEntity
  8
Defpoints
 62
     0
100
AcDbPoint
 10
82.37500000000001
 20
11.36649999999997
 30
0.0
  0
POINT
  5
466
330
45A
100
AcDbEntity
  8
Defpoints
 62
     0
100
AcDbPoint
 10
82.37500000000001
 20
6.603999999999969
 30
0.0
  0
POINT
  5
467
330
45A
100
AcDbEntity
  8
Defpoints
 62
     0
100
AcDbPoint
 10
90.96547146851952
 20
6.604000000000001
 30
0.0
  0
ENDBLK
  5
45C
330
45A
100
AcDbEntity
  8
0
100
AcDbBlockEnd
  0
BLOCK
  5
495
330
494
100
AcDbEntity
  8
0
100
AcDbBlockBegin
  2
*D24
 70
     1
 10
0.0
 20
0.0
 30
0.0
  3
*D24
  1
*D27
  0
LINE
  5
497
330
494
100
AcDbEntity
  8
0
  6
Continuous
 62
     0
370
    -2
100
AcDbLine
 10
144.740727235437
 20
49.64560063410195
 30
0.0
 11
144.740727235437
 21
60.20077570537805
 31
0.0
  0
LINE
  5
498
330
494
100
AcDbEntity
  8
0
  6
Continuous
 62
     0
370
    -2
100
AcDbLine
 10
133.6282272354371
 20
49.64560063410194
 30
0.0
 11
133.6282272354371
 21
60.20077570537805
 31
0.0
  0
LINE
  5
499
330
494
100
AcDbEntity
  8
0
  6
Continuous
 62
     0
370
    -2
100
AcDbLine
 10
133.6282272354371
 20
60.20077570537805
 30
0.0
 11
99.92056182432424
 21
60.20077570537805
 31
0.0
  0
LINE
  5
49A
330
494
100
AcDbEntity
  8
0
  6
Continuous
 62
     0
370
    -2
100
AcDbLine
 10
141.438727235437
 20
60.20077570537805
 30
0.0
 11
136.9302272354371
 21
60.20077570537805
 31
0.0
  0
SOLID
  5
49B
330
494
100
AcDbEntity
  8
0
 62
     0
100
AcDbTrace
 10
141.438727235437
 20
59.65044237204472
 30
0.0
 11
141.438727235437
 21
60.75110903871138
 31
0.0
 12
144.740727235437
 22
60.20077570537805
 32
0.0
 13
144.740727235437
 23
60.20077570537805
 33
0.0
  0
SOLID
  5
49C
330
494
100
AcDbEntity
  8
0
 62
     0
100
AcDbTrace
 10
136.9302272354371
 20
60.75110903871138
 30
0.0
 11
136.9302272354371
 21
59.65044237204472
 31
0.0
 12
133.6282272354371
 22
60.20077570537805
 32
0.0
 13
133.6282272354371
 23
60.20077570537805
 33
0.0
  0
MTEXT
  5
49D
330
494
100
AcDbEntity
  8
0
 62
     0
370
    15
100
AcDbMText
 10
112.1705618243242
 20
64.57577570537805
 30
0.0
 40
3.5
 41
0.0
 71
     2
 72
     1
  1
\A1;11.11 [7/16]
  7
SLDTEXTSTYLE0
 73
     1
 44
1.0
  0
POINT
  5
49E
330
494
100
AcDbEntity
  8
Defpoints
 62
     0
100
AcDbPoint
 10
144.740727235437
 20
49.58310063410195
 30
0.0
  0
POINT
  5
49F
330
494
100
AcDbEntity
  8
Defpoints
 62
     0
100
AcDbPoint
 10
133.6282272354371
 20
49.58310063410194
 30
0.0
  0
POINT
  5
4A0
330
494
100
AcDbEntity
  8
Defpoints
 62
     0
100
AcDbPoint
 10
133.6282272354371
 20
60.20077570537805
 30
0.0
  0
ENDBLK
  5
496
330
494
100
AcDbEntity
  8
0
100
AcDbBlockEnd
  0
BLOCK
  5
4A2
330
4A1
100
AcDbEntity
  8
0
100
AcDbBlockBegin
  2
*D25
 70
     1
 10
0.0
 20
0.0
 30
0.0
  3
*D25
  1
*D28
  0
LINE
  5
4A4
330
4A1
100
AcDbEntity
  8
0
  6
Continuous
 62
     0
370
    -2
100
AcDbLine
 10
144.740727235437
 20
49.64560063410195
 30
0.0
 11
144.740727235437
 21
76.48982962227691
 31
0.0
  0
LINE
  5
4A5
330
4A1
100
AcDbEntity
  8
0
  6
Continuous
 62
     0
370
    -2
100
AcDbLine
 10
65.36572723543702
 20
51.21685063410193
 30
0.0
 11
65.36572723543702
 21
76.48982962227691
 31
0.0
  0
LINE
  5
4A6
330
4A1
100
AcDbEntity
  8
0
  6
Continuous
 62
     0
370
    -2
100
AcDbLine
 10
141.438727235437
 20
76.48982962227691
 30
0.0
 11
68.66772723543701
 21
76.48982962227691
 31
0.0
  0
SOLID
  5
4A7
330
4A1
100
AcDbEntity
  8
0
 62
     0
100
AcDbTrace
 10
141.438727235437
 20
75.93949628894359
 30
0.0
 11
141.438727235437
 21
77.04016295561024
 31
0.0
 12
144.740727235437
 22
76.48982962227691
 32
0.0
 13
144.740727235437
 23
76.48982962227691
 33
0.0
  0
SOLID
  5
4A8
330
4A1
100
AcDbEntity
  8
0
 62
     0
100
AcDbTrace
 10
68.66772723543701
 20
77.04016295561024
 30
0.0
 11
68.66772723543701
 21
75.93949628894359
 31
0.0
 12
65.36572723543702
 22
76.48982962227691
 32
0.0
 13
65.36572723543702
 23
76.48982962227691
 33
0.0
  0
MTEXT
  5
4A9
330
4A1
100
AcDbEntity
  8
0
 62
     0
370
    15
100
AcDbMText
 10
105.4006218224158
 20
80.86482962227691
 30
0.0
 40
3.5
 41
0.0
 71
     2
 72
     1
  1
\A1;79.38 [3 1/8]
  7
SLDTEXTSTYLE0
 73
     1
 44
1.0
  0
POINT
  5
4AA
330
4A1
100
AcDbEntity
  8
Defpoints
 62
     0
100
AcDbPoint
 10
144.740727235437
 20
49.58310063410195
 30
0.0
  0
POINT
  5
4AB
330
4A1
100
AcDbEntity
  8
Defpoints
 62
     0
100
AcDbPoint
 10
65.36572723543702
 20
51.15435063410193
 30
0.0
  0
POINT
  5
4AC
330
4A1
100
AcDbEntity
  8
Defpoints
 62
     0
100
AcDbPoint
 10
65.36572723543702
 20
76.48982962227691
 30
0.0
  0
ENDBLK
  5
4A3
330
4A1
100
AcDbEntity
  8
0
100
AcDbBlockEnd
  0
BLOCK
  5
4AE
330
4AD
100
AcDbEntity
  8
0
100
AcDbBlockBegin
  2
*D26
 70
     1
 10
0.0
 20
0.0
 30
0.0
  3
*D26
  1
*D29
  0
LINE
  5
4B0
330
4AD
100
AcDbEntity
  8
0
  6
Continuous
 62
     0
370
    -2
100
AcDbLine
 10
144.803227235437
 20
49.58310063410195
 30
0.0
 11
153.3311987039566
 21
49.58310063410198
 31
0.0
  0
LINE
  5
4B1
330
4AD
100
AcDbEntity
  8
0
  6
Continuous
 62
     0
370
    -2
100
AcDbLine
 10
144.803227235437
 20
44.82060063410195
 30
0.0
 11
153.3311987039566
 21
44.82060063410199
 31
0.0
  0
LINE
  5
4B2
330
4AD
100
AcDbEntity
  8
0
  6
Continuous
 62
     0
370
    -2
100
AcDbLine
 10
153.3311987039566
 20
49.58310063410198
 30
0.0
 11
153.3311987039563
 21
92.17864617218108
 31
0.0
  0
LINE
  5
4B3
330
4AD
100
AcDbEntity
  8
0
  6
Continuous
 62
     0
370
    -2
100
AcDbLine
 10
153.3311987039566
 20
52.88510063410198
 30
0.0
 11
153.3311987039565
 21
56.18710063410198
 31
0.0
  0
LINE
  5
4B4
330
4AD
100
AcDbEntity
  8
0
  6
Continuous
 62
     0
370
    -2
100
AcDbLine
 10
153.3311987039567
 20
41.51860063410199
 30
0.0
 11
153.3311987039567
 21
38.21660063410199
 31
0.0
  0
SOLID
  5
4B5
330
4AD
100
AcDbEntity
  8
0
 62
     0
100
AcDbTrace
 10
152.7808653706232
 20
52.88510063410198
 30
0.0
 11
153.8815320372899
 21
52.88510063410198
 31
0.0
 12
153.3311987039566
 22
49.58310063410198
 32
0.0
 13
153.3311987039566
 23
49.58310063410198
 33
0.0
  0
SOLID
  5
4B6
330
4AD
100
AcDbEntity
  8
0
 62
     0
100
AcDbTrace
 10
153.88153203729
 20
41.51860063410199
 30
0.0
 11
152.7808653706233
 21
41.51860063410199
 31
0.0
 12
153.3311987039566
 22
44.82060063410199
 32
0.0
 13
153.3311987039566
 23
44.82060063410199
 33
0.0
  0
MTEXT
  5
4B7
330
4AD
100
AcDbEntity
  8
0
 62
     0
370
    15
100
AcDbMText
 10
148.9561987039564
 20
78.17864617218105
 30
0.0
 40
3.5
 41
0.0
 71
     2
 72
     1
  1
\A1;%%c4.76 [3/16]
  7
SLDTEXTSTYLE0
 11
-5.967813003759377E-15
 21
1.0
 31
0.0
 73
     1
 44
1.0
  0
POINT
  5
4B8
330
4AD
100
AcDbEntity
  8
Defpoints
 62
     0
100
AcDbPoint
 10
144.740727235437
 20
49.58310063410195
 30
0.0
  0
POINT
  5
4B9
330
4AD
100
AcDbEntity
  8
Defpoints
 62
     0
100
AcDbPoint
 10
144.740727235437
 20
44.82060063410195
 30
0.0
  0
POINT
  5
4BA
330
4AD
100
AcDbEntity
  8
Defpoints
 62
     0
100
AcDbPoint
 10
153.3311987039565
 20
44.82060063410199
 30
0.0
  0
ENDBLK
  5
4AF
330
4AD
100
AcDbEntity
  8
0
100
AcDbBlockEnd
  0
ENDSEC
  0
SECTION
  2
ENTITIES
  0
LINE
  5
96
330
1F
100
AcDbEntity
  8
외형선
  6
Continuous
370
    15
100
AcDbLine
 10
18.68805401447663
 20
4.762500000000003
 30
0.0
 11
4.838699999999999
 21
4.762500000000001
 31
0.0
  0
LINE
  5
97
330
1F
100
AcDbEntity
  8
외형선
  6
Continuous
370
    15
100
AcDbLine
 10
-18.68805401447658
 20
-4.762500000000005
 30
0.0
 11
18.68805401447663
 21
-4.762499999999999
 31
0.0
  0
LINE
  5
9A
330
1F
100
AcDbEntity
  8
외형선
  6
Continuous
370
    15
100
AcDbLine
 10
18.68805401447663
 20
-4.762499999999998
 30
0.0
 11
27.575
 21
-2.381249999999998
 31
0.0
  0
LINE
  5
9B
330
1F
100
AcDbEntity
  8
외형선
  6
Continuous
370
    15
100
AcDbLine
 10
27.575
 20
2.381250000000002
 30
0.0
 11
18.68805401447663
 21
4.762500000000001
 31
0.0
  0
LINE
  5
9C
330
1F
100
AcDbEntity
  8
외형선
  6
Continuous
370
    15
100
AcDbLine
 10
28.575
 20
2.381250000000002
 30
0.0
 11
27.575
 21
2.381250000000002
 31
0.0
  0
LINE
  5
9D
330
1F
100
AcDbEntity
  8
외형선
  6
Continuous
370
    15
100
AcDbLine
 10
27.575
 20
-2.381249999999998
 30
0.0
 11
28.575
 21
-2.381249999999998
 31
0.0
  0
LINE
  5
9E
330
1F
100
AcDbEntity
  8
0
  6
Continuous
 62
     1
370
    15
100
AcDbLine
 10
36.82970864874442
 20
-2.381249999999997
 30
0.0
 11
37.30625
 21
-2.381249999999997
 31
0.0
  0
LINE
  5
9F
330
1F
100
AcDbEntity
  8
외형선
  6
Continuous
370
    15
100
AcDbLine
 10
29.04825909795845
 20
2.381250000000002
 30
0.0
 11
28.575
 21
2.381250000000002
 31
0.0
  0
ARC
  5
A0
330
1F
100
AcDbEntity
  8
0
  6
Continuous
 62
     1
370
    15
100
AcDbCircle
 10
37.30625
 20
0.0000000000000026
 30
0.0
 40
2.381250000000001
100
AcDbArc
 50
270.0000000000009
 51
0.0
  0
ARC
  5
A1
330
1F
100
AcDbEntity
  8
0
  6
Continuous
 62
     1
370
    15
100
AcDbCircle
 10
37.30625
 20
0.0000000000000026
 30
0.0
 40
2.381250000000001
100
AcDbArc
 50
0.0
 51
90.0
  0
LINE
  5
A2
330
1F
100
AcDbEntity
  8
외형선
  6
Continuous
370
    15
100
AcDbLine
 10
28.575
 20
-2.381249999999997
 30
0.0
 11
29.04825909795844
 21
-2.381249999999997
 31
0.0
  0
LINE
  5
A3
330
1F
100
AcDbEntity
  8
0
  6
Continuous
 62
     1
370
    15
100
AcDbLine
 10
37.30625
 20
2.381250000000002
 30
0.0
 11
36.82970864874443
 21
2.381250000000002
 31
0.0
  0
LINE
  5
A4
330
1F
100
AcDbEntity
  8
외형선
  6
Continuous
370
    15
100
AcDbLine
 10
18.68805401447663
 20
4.762500000000002
 30
0.0
 11
18.68805401447663
 21
-4.762500000000002
 31
0.0
  0
LINE
  5
A7
330
1F
100
AcDbEntity
  8
외형선
  6
Continuous
370
    15
100
AcDbLine
 10
27.575
 20
2.381250000000002
 30
0.0
 11
27.575
 21
-2.381249999999998
 31
0.0
  0
LINE
  5
A8
330
1F
100
AcDbEntity
  8
외형선
  6
Continuous
370
    15
100
AcDbLine
 10
28.575
 20
2.381250000000002
 30
0.0
 11
28.57499999999999
 21
0.9942820707110789
 31
0.0
  0
SPLINE
  5
A9
330
1F
100
AcDbEntity
  8
외형선
  6
Continuous
370
    15
100
AcDbSpline
210
0.0
220
0.0
230
1.0
 70
     8
 71
     3
 72
    10
 73
     6
 74
     0
 42
0.000000001
 43
0.00000001
 40
0.0
 40
0.0
 40
0.0
 40
0.0
 40
0.5
 40
0.5
 40
1.0
 40
1.0
 40
1.0
 40
1.0
 10
28.57499999999996
 20
0.9942820707110982
 30
0.0
 10
28.42583772675921
 20
1.072282624588817
 30
0.0
 10
28.27644906042483
 20
1.148378116690515
 30
0.0
 10
27.97982503340326
 20
1.295454438681366
 30
0.0
 10
27.83342887613047
 20
1.366314943950535
 30
0.0
 10
27.68510253489998
 20
1.434698812710704
 30
0.0
  0
SPLINE
  5
AA
330
1F
100
AcDbEntity
  8
외형선
  6
Continuous
370
    15
100
AcDbSpline
210
0.0
220
0.0
230
1.0
 70
     8
 71
     3
 72
    10
 73
     6
 74
     0
 42
0.000000001
 43
0.00000001
 40
0.0
 40
0.0
 40
0.0
 40
0.0
 40
0.5000000000000001
 40
0.5000000000000001
 40
1.0
 40
1.0
 40
1.0
 40
1.0
 10
28.57500000000011
 20
-2.365555340756591
 30
0.0
 10
28.42587708197166
 20
-2.355718505130949
 30
0.0
 10
28.27652788887361
 20
-2.341254648046757
 30
0.0
 10
27.97998099067379
 20
-2.303377358362165
 30
0.0
 10
27.83362342413093
 20
-2.280034430482123
 30
0.0
 10
27.68533734196199
 20
-2.252220500595906
 30
0.0
  0
LINE
  5
AB
330
1F
100
AcDbEntity
  8
외형선
  6
Continuous
370
    15
100
AcDbLine
 10
28.575
 20
-2.365555340756624
 30
0.0
 11
28.575
 21
-2.381249999999998
 31
0.0
  0
LINE
  5
AC
330
1F
100
AcDbEntity
  8
외형선
  6
Continuous
370
    15
100
AcDbLine
 10
27.68533734196199
 20
-2.252266653166299
 30
0.0
 11
27.68533734196198
 21
1.434793821927439
 31
0.0
  0
SPLINE
  5
AD
330
1F
100
AcDbEntity
  8
외형선
  6
Continuous
370
    15
100
AcDbSpline
210
0.0
220
0.0
230
1.0
 70
     8
 71
     3
 72
    10
 73
     6
 74
     0
 42
0.000000001
 43
0.00000001
 40
0.0
 40
0.0
 40
0.0
 40
0.0
 40
0.5
 40
0.5
 40
1.0
 40
1.0
 40
1.0
 40
1.0
 10
28.575
 20
-0.7012931816719844
 30
0.0
 10
28.42587708197157
 20
-0.6485990996889015
 30
0.0
 10
28.27652788887353
 20
-0.5945085804030923
 30
0.0
 10
27.97998099067375
 20
-0.4844927062967918
 30
0.0
 10
27.83362342413091
 20
-0.4286792634287636
 30
0.0
 10
27.68533734196198
 20
-0.3719016165472557
 30
0.0
  0
SPLINE
  5
AE
330
1F
100
AcDbEntity
  8
외형선
  6
Continuous
370
    15
100
AcDbSpline
210
0.0
220
0.0
230
1.0
 70
    24
 71
     3
 72
    14
 73
    10
 74
     0
 42
0.000000001
 43
0.00000001
 40
0.0
 40
0.0
 40
0.0
 40
0.0
 40
0.25
 40
0.25
 40
0.5
 40
0.5
 40
0.75
 40
0.75
 40
1.0
 40
1.0
 40
1.0
 40
1.0
 10
28.575
 20
0.9942820707140726
 30
0.0
 10
28.575
 20
0.9081020088259605
 30
0.0
 10
28.575
 20
0.7885238501689299
 30
0.0
 10
28.575
 20
0.5076555743060283
 30
0.0
 10
28.575
 20
0.3472250447549791
 30
0.0
 10
28.575
 20
0.0234756669543924
 30
0.0
 10
28.575
 20
-0.139292356408965
 30
0.0
 10
28.575
 20
-0.4405390972987198
 30
0.0
 10
28.575
 20
-0.5791061167179061
 30
0.0
 10
28.575
 20
-0.7012931816719846
 30
0.0
  0
SPLINE
  5
AF
330
1F
100
AcDbEntity
  8
외형선
  6
Continuous
370
    15
100
AcDbSpline
210
0.0
220
0.0
230
1.0
 70
    24
 71
     3
 72
    14
 73
    10
 74
     0
 42
0.000000001
 43
0.00000001
 40
0.0
 40
0.0
 40
0.0
 40
0.0
 40
0.25
 40
0.25
 40
0.5
 40
0.5
 40
0.75
 40
0.75
 40
1.0
 40
1.0
 40
1.0
 40
1.0
 10
28.57500000000006
 20
-0.7012931816720067
 30
0.0
 10
28.57500000000006
 20
-0.7332619240876108
 30
0.0
 10
28.57500000000006
 20
-0.7872652688019309
 30
0.0
 10
28.57500000000006
 20
-0.9569642087372675
 30
0.0
 10
28.57500000000006
 20
-1.073326041335785
 30
0.0
 10
28.57500000000006
 20
-1.370295085505347
 30
0.0
 10
28.57500000000006
 20
-1.551110150606674
 30
0.0
 10
28.57500000000006
 20
-1.94682150753558
 30
0.0
 10
28.57500000000006
 20
-2.160695808347136
 30
0.0
 10
28.57500000000006
 20
-2.365555340755296
 30
0.0
  0
SPLINE
  5
B0
330
1F
100
AcDbEntity
  8
0
  6
Continuous
 62
     1
370
    15
100
AcDbSpline
210
0.0
220
0.0
230
1.0
 70
     8
 71
     3
 72
    19
 73
    15
 74
     0
 42
0.000000001
 43
0.00000001
 40
0.0
 40
0.0
 40
0.0
 40
0.0
 40
0.1078176949970539
 40
0.2169109572991447
 40
0.2999411474723132
 40
0.3835460192520823
 40
0.4664747361711608
 40
0.549977239457992
 40
0.6327048780144819
 40
0.7160052649930861
 40
0.7998078654638419
 40
0.884207078918113
 40
0.9704458055351761
 40
1.0
 40
1.0
 40
1.0
 40
1.0
 10
37.30625
 20
-0.99549260409
 30
0.0
 10
37.00933031979137
 20
-0.8355113360282809
 30
0.0
 10
36.41197816830297
 20
-0.5136560969031373
 30
0.0
 10
35.58626216502678
 20
-0.033973881140115
 30
0.0
 10
34.82791535432044
 20
0.4044442488679706
 30
0.0
 10
34.14011326241408
 20
0.7884714322259377
 30
0.0
 10
33.45285041639052
 20
1.154055347255566
 30
0.0
 10
32.76617206452684
 20
1.483747357902054
 30
0.0
 10
32.07986137851703
 20
1.774980427449135
 30
0.0
 10
31.3922474561116
 20
2.016348770294456
 30
0.0
 10
30.69947788136922
 20
2.203915971902382
 30
0.0
 10
29.99998613462664
 20
2.326733535686144
 30
0.0
 10
29.44812625065168
 20
2.384039077571177
 30
0.0
 10
29.12956619198876
 20
2.375366360851606
 30
0.0
 10
29.04825909795845
 20
2.373152795859258
 30
0.0
  0
SPLINE
  5
B1
330
1F
100
AcDbEntity
  8
0
  6
Continuous
 62
     1
370
    15
100
AcDbSpline
210
0.0
220
0.0
230
1.0
 70
     8
 71
     3
 72
    14
 73
    10
 74
     0
 42
0.000000001
 43
0.00000001
 40
0.0
 40
0.0
 40
0.0
 40
0.0
 40
0.1803542475676765
 40
0.3607084855428906
 40
0.5132558664808063
 40
0.6658506557660933
 40
0.818561656608153
 40
0.971425718682957
 40
1.0
 40
1.0
 40
1.0
 40
1.0
 10
39.0500228863081
 20
0.2495763127871529
 30
0.0
 10
38.65609041061177
 20
0.4006186849525771
 30
0.0
 10
37.86822548017109
 20
0.7027034212499674
 30
0.0
 10
36.74705198274582
 20
1.073087463658969
 30
0.0
 10
35.6869092612435
 20
1.350575812555142
 30
0.0
 10
34.68700599587666
 20
1.535021615306144
 30
0.0
 10
33.68638158347782
 20
1.621482437540174
 30
0.0
 10
32.95646254128221
 20
1.637721716203097
 30
0.0
 10
32.56018968095492
 20
1.596952764891025
 30
0.0
 10
32.49778163656021
 20
1.590532162376615
 30
0.0
  0
SPLINE
  5
B2
330
1F
100
AcDbEntity
  8
0
  6
Continuous
 62
     1
370
    15
100
AcDbSpline
210
0.0
220
0.0
230
1.0
 70
     8
 71
     3
 72
    22
 73
    18
 74
     0
 42
0.000000001
 43
0.00000001
 40
0.0
 40
0.0
 40
0.0
 40
0.0
 40
0.125
 40
0.125
 40
0.25
 40
0.25
 40
0.375
 40
0.375
 40
0.5
 40
0.5
 40
0.625
 40
0.625
 40
0.75
 40
0.75
 40
0.875
 40
0.875
 40
1.0
 40
1.0
 40
1.0
 40
1.0
 10
37.30625
 20
-0.9954926040893863
 30
0.0
 10
37.43831214279417
 20
-1.065170229699247
 30
0.0
 10
37.5683999360816
 20
-1.127412207592371
 30
0.0
 10
37.82817373941536
 20
-1.23199932716263
 30
0.0
 10
37.95920149514309
 20
-1.274820498497196
 30
0.0
 10
38.2178302287594
 20
-1.329886617268544
 30
0.0
 10
38.34454976206673
 20
-1.342515236564894
 30
0.0
 10
38.59839102795047
 20
-1.324189254553754
 30
0.0
 10
38.72219286891998
 20
-1.29272309030496
 30
0.0
 10
38.95567549020264
 20
-1.166458473358288
 30
0.0
 10
39.06424657799847
 20
-1.070726803781002
 30
0.0
 10
39.22933457542571
 20
-0.8165168988943252
 30
0.0
 10
39.27902966991273
 20
-0.6658824806324947
 30
0.0
 10
39.30410626109675
 20
-0.3713665044497114
 30
0.0
 10
39.28148543543249
 20
-0.2325789296373809
 30
0.0
 10
39.19400946787157
 20
0.0216209836670727
 30
0.0
 10
39.1292211569571
 20
0.1383400725801736
 30
0.0
 10
39.05002288629042
 20
0.2495763127939993
 30
0.0
  0
SPLINE
  5
B3
330
1F
100
AcDbEntity
  8
0
  6
Continuous
 62
     1
370
    15
100
AcDbSpline
210
0.0
220
0.0
230
1.0
 70
     8
 71
     3
 72
    12
 73
     8
 74
     0
 42
0.000000001
 43
0.00000001
 40
0.0
 40
0.0
 40
0.0
 40
0.0
 40
0.1516938000319716
 40
0.3582625079536558
 40
0.5646500350058972
 40
0.7823307064957866
 40
1.0
 40
1.0
 40
1.0
 40
1.0
 10
33.42004993917491
 20
-1.61017601558305
 30
0.0
 10
33.17503311189063
 20
-1.613844820627013
 30
0.0
 10
32.59636514381802
 20
-1.622509613096883
 30
0.0
 10
31.68440786636176
 20
-1.525236582216233
 30
0.0
 10
30.66600276632174
 20
-1.337032435676004
 30
0.0
 10
29.62959770928453
 20
-1.061829598876299
 30
0.0
 10
28.92652644477746
 20
-0.8214698934520798
 30
0.0
 10
28.575
 20
-0.7012931816719848
 30
0.0
  0
SPLINE
  5
B4
330
1F
100
AcDbEntity
  8
외형선
  6
Continuous
370
    15
100
AcDbSpline
210
0.0
220
0.0
230
1.0
 70
    24
 71
     3
 72
    14
 73
    10
 74
     0
 42
0.000000001
 43
0.00000001
 40
0.0
 40
0.0
 40
0.0
 40
0.0
 40
0.25
 40
0.25
 40
0.5
 40
0.5
 40
0.75
 40
0.75
 40
1.0
 40
1.0
 40
1.0
 40
1.0
 10
28.575
 20
0.9942820707140533
 30
0.0
 10
28.575
 20
0.9081020088259383
 30
0.0
 10
28.575
 20
0.7885238501689065
 30
0.0
 10
28.575
 20
0.5076555743060056
 30
0.0
 10
28.575
 20
0.3472250447549585
 30
0.0
 10
28.575
 20
0.0234756669543773
 30
0.0
 10
28.575
 20
-0.1392923564089764
 30
0.0
 10
28.575
 20
-0.4405390972987248
 30
0.0
 10
28.575
 20
-0.5791061167179085
 30
0.0
 10
28.575
 20
-0.7012931816719846
 30
0.0
  0
SPLINE
  5
B5
330
1F
100
AcDbEntity
  8
0
  6
Continuous
 62
     1
370
    15
100
AcDbSpline
210
0.0
220
0.0
230
1.0
 70
     8
 71
     3
 72
    15
 73
    11
 74
     0
 42
0.000000001
 43
0.00000001
 40
0.0
 40
0.0
 40
0.0
 40
0.0
 40
0.1480820586497645
 40
0.29616195467945
 40
0.4442389017479106
 40
0.5923121151681613
 40
0.7085989311192566
 40
0.8248696844859181
 40
0.9412165112870255
 40
1.0
 40
1.0
 40
1.0
 40
1.0
 10
28.57499999999953
 20
0.9942820707113221
 30
0.0
 10
28.98253331945418
 20
0.7720488177871384
 30
0.0
 10
29.79759400666518
 20
0.3275855574777606
 30
0.0
 10
31.02019100064139
 20
-0.3908619273033515
 30
0.0
 10
32.24267402278131
 20
-1.069190412460682
 30
0.0
 10
33.37795512888777
 20
-1.613272914205538
 30
0.0
 10
34.42477089026512
 20
-2.006776390345733
 30
0.0
 10
35.38447167132
 20
-2.252758817948471
 30
0.0
 10
36.18602077202888
 20
-2.377264669840678
 30
0.0
 10
36.66794727189615
 20
-2.368166951242098
 30
0.0
 10
36.82970864874442
 20
-2.365113250133962
 30
0.0
  0
SPLINE
  5
B6
330
1F
100
AcDbEntity
  8
0
  6
Continuous
 62
     1
370
    15
100
AcDbSpline
210
0.0
220
0.0
230
1.0
 70
     8
 71
     3
 72
    10
 73
     6
 74
     0
 42
0.000000001
 43
0.00000001
 40
0.0
 40
0.0
 40
0.0
 40
0.0
 40
0.5
 40
0.5
 40
1.0
 40
1.0
 40
1.0
 40
1.0
 10
39.05002288629041
 20
0.2495763127940008
 30
0.0
 10
39.10477568137338
 20
0.2826246161959331
 30
0.0
 10
39.14848852688785
 20
0.3328658661545645
 30
0.0
 10
39.2069586833455
 20
0.4602199967100005
 30
0.0
 10
39.22144266252872
 20
0.5369360668298133
 30
0.0
 10
39.22278924506799
 20
0.6167224762204796
 30
0.0
  0
ARC
  5
B7
330
1F
100
AcDbEntity
  8
0
  6
Continuous
 62
     1
370
    15
100
AcDbCircle
 10
38.54822518350675
 20
-0.4139420338681294
 30
0.0
 40
1.231789757022777
100
AcDbArc
 50
23.84128576077698
 51
56.79548103001358
  0
ARC
  5
B8
330
1F
100
AcDbEntity
  8
0
  6
Continuous
 62
     1
370
    15
100
AcDbCircle
 10
37.54586360640722
 20
0.044172474803934
 30
0.0
 40
2.129412657004794
100
AcDbArc
 50
1.070428387799415
 51
71.14416676675764
  0
SPLINE
  5
B9
330
1F
100
AcDbEntity
  8
0
  6
Continuous
 62
     1
370
    15
100
AcDbSpline
210
0.0
220
0.0
230
1.0
 70
     8
 71
     3
 72
    10
 73
     6
 74
     0
 42
0.000000001
 43
0.00000001
 40
0.0
 40
0.0
 40
0.0
 40
0.0
 40
0.5
 40
0.5
 40
1.0
 40
1.0
 40
1.0
 40
1.0
 10
38.234064281543
 20
2.059309714436723
 30
0.0
 10
38.08664610379786
 20
2.149201946605625
 30
0.0
 10
37.93477285421034
 20
2.219795152015682
 30
0.0
 10
37.62506315674152
 20
2.322510980956159
 30
0.0
 10
37.46571939350176
 20
2.354734387094762
 30
0.0
 10
37.30624999999868
 20
2.365402247280477
 30
0.0
  0
SPLINE
  5
BA
330
1F
100
AcDbEntity
  8
0
  6
Continuous
 62
     1
370
    15
100
AcDbSpline
210
0.0
220
0.0
230
1.0
 70
     8
 71
     3
 72
     8
 73
     4
 74
     0
 42
0.000000001
 43
0.00000001
 40
0.0
 40
0.0
 40
0.0
 40
0.0
 40
1.0
 40
1.0
 40
1.0
 40
1.0
 10
37.7503821231997
 20
1.065974114515944
 30
0.0
 10
38.23447969007938
 20
0.9314157853935895
 30
0.0
 10
38.72803444749263
 20
0.7798378322808082
 30
0.0
 10
39.22278924506799
 20
0.6167224762204991
 30
0.0
  0
SPLINE
  5
BB
330
1F
100
AcDbEntity
  8
0
  6
Continuous
 62
     1
370
    15
100
AcDbSpline
210
0.0
220
0.0
230
1.0
 70
     8
 71
     3
 72
    12
 73
     8
 74
     0
 42
0.000000001
 43
0.00000001
 40
0.0
 40
0.0
 40
0.0
 40
0.0
 40
0.0116267002545008
 40
0.2585778677045886
 40
0.5054949240308511
 40
0.7525735328365977
 40
1.0
 40
1.0
 40
1.0
 40
1.0
 10
33.4200499391749
 20
1.610176015583057
 30
0.0
 10
33.43511732873797
 20
1.617326756942333
 30
0.0
 10
33.77021614265839
 20
1.776359278011487
 30
0.0
 10
34.42473444972759
 20
1.999003561750115
 30
0.0
 10
35.38447555707396
 20
2.257279613731686
 30
0.0
 10
36.3448302174131
 20
2.391609714021897
 30
0.0
 10
36.98562648362798
 20
2.374142165362019
 30
0.0
 10
37.30625
 20
2.365402247280392
 30
0.0
  0
SPLINE
  5
BC
330
1F
100
AcDbEntity
  8
0
  6
Continuous
 62
     1
370
    15
100
AcDbSpline
210
0.0
220
0.0
230
1.0
 70
     8
 71
     3
 72
    14
 73
    10
 74
     0
 42
0.000000001
 43
0.00000001
 40
0.0
 40
0.0
 40
0.0
 40
0.0
 40
0.25
 40
0.25
 40
0.5
 40
0.5
 40
0.75
 40
0.75
 40
1.0
 40
1.0
 40
1.0
 40
1.0
 10
38.234064281543
 20
2.059309714436724
 30
0.0
 10
38.25095426833113
 20
1.959324798384331
 30
0.0
 10
38.25852605428478
 20
1.857507827934053
 30
0.0
 10
38.24368102799403
 20
1.651445059296238
 30
0.0
 10
38.22068117473617
 20
1.549912348418713
 30
0.0
 10
38.1365873131188
 20
1.365238316764231
 30
0.0
 10
38.07519119256386
 20
1.283016166461238
 30
0.0
 10
37.9270340687779
 20
1.151703916881576
 30
0.0
 10
37.84027705170701
 20
1.101732572601479
 30
0.0
 10
37.75038212320084
 20
1.065974114515716
 30
0.0
  0
SPLINE
  5
BD
330
1F
100
AcDbEntity
  8
0
  6
Continuous
 62
     1
370
    15
100
AcDbSpline
210
0.0
220
0.0
230
1.0
 70
     8
 71
     3
 72
    13
 73
     9
 74
     0
 42
0.000000001
 43
0.00000001
 40
0.0
 40
0.0
 40
0.0
 40
0.0
 40
0.1061845899675214
 40
0.2815272254813272
 40
0.4579269921862165
 40
0.6355825957089859
 40
0.8171102711119154
 40
1.0
 40
1.0
 40
1.0
 40
1.0
 10
32.49778163656021
 20
-1.590532162376608
 30
0.0
 10
32.3589765311285
 20
-1.65059048389864
 30
0.0
 10
31.99096252620761
 20
-1.809823124250075
 30
0.0
 10
31.39226062555341
 20
-2.015312260929014
 30
0.0
 10
30.6994823939996
 20
-2.203669231374297
 30
0.0
 10
29.99995426422185
 20
-2.328800843211032
 30
0.0
 10
29.29020930423431
 20
-2.392209749182652
 30
0.0
 10
28.8139964022394
 20
-2.374462254690668
 30
0.0
 10
28.57500000000032
 20
-2.36555534075664
 30
0.0
  0
SPLINE
  5
BE
330
1F
100
AcDbEntity
  8
외형선
  6
Continuous
370
    15
100
AcDbSpline
210
0.0
220
0.0
230
1.0
 70
    24
 71
     3
 72
    14
 73
    10
 74
     0
 42
0.000000001
 43
0.00000001
 40
0.0
 40
0.0
 40
0.0
 40
0.0
 40
0.25
 40
0.25
 40
0.5
 40
0.5
 40
0.75
 40
0.75
 40
1.0
 40
1.0
 40
1.0
 40
1.0
 10
28.575
 20
-0.7012931816719844
 30
0.0
 10
28.575
 20
-0.7332619240875907
 30
0.0
 10
28.575
 20
-0.7872652688019126
 30
0.0
 10
28.575
 20
-0.9569642087372535
 30
0.0
 10
28.575
 20
-1.073326041335773
 30
0.0
 10
28.575
 20
-1.37029508550534
 30
0.0
 10
28.575
 20
-1.551110150606667
 30
0.0
 10
28.575
 20
-1.946821507535575
 30
0.0
 10
28.575
 20
-2.160695808347131
 30
0.0
 10
28.575
 20
-2.365555340755292
 30
0.0
  0
LINE
  5
BF
330
1F
100
AcDbEntity
  8
중심선
 48
0.8
100
AcDbLine
 10
-42.68750000000001
 20
-0.0000000000000052
 30
0.0
 11
42.68750000000001
 21
0.0000000000000052
 31
0.0
  0
LINE
  5
C0
330
1F
100
AcDbEntity
  8
참조1
100
AcDbLine
 10
-19.65036934298443
 20
0.0010749287238892
 30
0.0
 11
-19.65036934298443
 21
-39.99892507127611
 31
0.0
  0
LINE
  5
C1
330
1F
100
AcDbEntity
  8
참조1
100
AcDbLine
 10
20.03713065701557
 20
0.0010749287238892
 30
0.0
 11
20.03713065701557
 21
0.6320484065631995
 31
0.0
  0
LINE
  5
C2
330
1F
100
AcDbEntity
  8
참조1
100
AcDbLine
 10
-19.65036934298443
 20
-39.99892507127611
 30
0.0
 11
-29.25297615729311
 21
-39.9989250712761
 31
0.0
  0
CIRCLE
  5
C3
330
1F
100
AcDbEntity
  8
해칭선
100
AcDbCircle
 10
0.0
 20
0.0
 30
0.0
 40
3.000000000000001
  0
INSERT
  5
C4
330
1F
100
AcDbEntity
  8
0
  6
Continuous
 62
     7
100
AcDbBlockReference
 66
     1
  2
블럭10
 10
-13.9402729321252
 20
-52.04717430164393
 30
0.0
  0
ATTRIB
  5
C5
330
C4
100
AcDbEntity
  8
FORMAT
 62
     2
100
AcDbText
 10
-23.12156822086649
 20
-49.97180738881174
 30
0.0
 40
4.233333333333333
  1
E2112012 [ 2 FLUTE ]
 41
0.75
  7
SLDTEXTSTYLE0
 11
-23.12156822086649
 21
-52.08847405547841
 31
0.0
100
AcDbAttribute
  2
AUTOATTR0
 70
     0
 74
     1
  0
SEQEND
  5
C6
330
C4
100
AcDbEntity
  8
0
  6
Continuous
 62
     7
  0
HATCH
  5
C7
330
1F
100
AcDbEntity
  8
중심선
100
AcDbHatch
 10
0.0
 20
0.0
 30
0.0
210
0.0
220
0.0
230
1.0
  2
SOLID
 70
     1
 71
     0
 91
        1
 92
        0
 93
        4
 72
     1
 10
-8.225363627744358
 20
-35.8
 11
-11.67163887158164
 21
-35.8
 72
     1
 10
-11.67163887158164
 20
-35.8
 11
-13.79986873078566
 21
-38.33632558057257
 72
     1
 10
-13.79986873078566
 20
-38.33632558057257
 11
-10.35356040183523
 21
-38.33628615127008
 72
     1
 10
-10.35356040183523
 20
-38.33628615127008
 11
-8.225363627744358
 21
-35.8
 97
        0
 75
     0
 76
     1
 98
        1
 10
19.65036934298443
 20
-0.001074928723894
  0
HATCH
  5
C8
330
1F
100
AcDbEntity
  8
중심선
100
AcDbHatch
 10
0.0
 20
0.0
 30
0.0
210
0.0
220
0.0
230
1.0
  2
SOLID
 70
     1
 71
     0
 91
        1
 92
        0
 93
        4
 72
     1
 10
-3.212599636708404
 20
-35.8
 11
-6.65887488054566
 21
-35.8
 72
     1
 10
-6.65887488054566
 20
-35.8
 11
-11.19001288890308
 21
-41.20000000000002
 72
     1
 10
-11.19001288890308
 20
-41.20000000000002
 11
-7.743737645065792
 21
-41.20000000000002
 72
     1
 10
-7.743737645065792
 20
-41.20000000000002
 11
-3.212599636708404
 21
-35.8
 97
        0
 75
     0
 76
     1
 98
        1
 10
19.65036934298443
 20
-0.001074928723894
  0
HATCH
  5
C9
330
1F
100
AcDbEntity
  8
중심선
100
AcDbHatch
 10
0.0
 20
0.0
 30
0.0
210
0.0
220
0.0
230
1.0
  2
SOLID
 70
     1
 71
     0
 91
        1
 92
        0
 93
        4
 72
     1
 10
1.800164354327492
 20
-35.8
 11
-1.646110889509597
 21
-35.80000000000003
 72
     1
 10
-1.646110889509597
 20
-35.80000000000003
 11
-8.694547791398875
 21
-44.20000000000002
 72
     1
 10
-8.694547791398875
 20
-44.20000000000002
 11
-5.248272547561591
 21
-44.20000000000002
 72
     1
 10
-5.248272547561591
 20
-44.20000000000002
 11
1.800164354327492
 21
-35.8
 97
        0
 75
     0
 76
     1
 98
        1
 10
19.65036934298443
 20
-0.001074928723894
  0
HATCH
  5
CA
330
1F
100
AcDbEntity
  8
중심선
100
AcDbHatch
 10
0.0
 20
0.0
 30
0.0
210
0.0
220
0.0
230
1.0
  2
SOLID
 70
     1
 71
     0
 91
        1
 92
        0
 93
        6
 72
     3
 10
6.60005478533969
 20
-40.00000000005127
 11
3.960054785062283
 21
1.540882976769353E-10
 40
0.3939339440162628
 50
17.09539180608436
 51
320.0019657685086
 73
     0
 72
     1
 10
8.283054441040285
 20
-38.58789400463833
 11
10.58835631474135
 21
-36.65356729459038
 72
     3
 10
6.600054785286844
 20
-40.00000000000015
 11
6.600054785286829
 21
-1.278976924368180E-13
 40
0.636358354079598
 50
39.99873849337385
 51
368.4976242363724
 73
     1
 72
     1
 10
13.02538727718745
 20
-39.03999999993002
 11
5.280122092122766
 21
-39.03999999993002
 72
     1
 10
5.280122092122767
 20
-39.03999999993002
 11
5.280097047676833
 21
-40.95999999992991
 72
     1
 10
5.280097047676833
 20
-40.95999999992991
 11
9.721476817148869
 21
-40.95999999992988
 97
        0
 75
     0
 76
     1
 98
        1
 10
19.65036934298443
 20
-0.001074928723894
  0
DIMENSION
  5
CB
330
1F
100
AcDbEntity
  8
0
  6
Continuous
370
    15
100
AcDbDimension
  2
_D
 10
28.575
 20
12.99892507127612
 30
0.0
 11
7.117334588887196
 21
12.99892507127612
 31
0.0
 70
   160
  1
<>
 71
     2
 42
11.11249999999999
  3
SLDDIMSTYLE0
100
AcDbAlignedDimension
 13
39.68749999999999
 23
2.381250000000011
 33
0.0
 14
28.575
 24
2.381250000000001
 34
0.0
 50
0.0000000000000092
100
AcDbRotatedDimension
1001
ACAD
1000
DSTYLE
1002
{
1070
   171
1070
     6
1070
   273
1070
     7
1002
}
  0
DIMENSION
  5
E0
330
1F
100
AcDbEntity
  8
0
  6
Continuous
370
    15
100
AcDbDimension
  2
_D_1
 10
-39.68750000000002
 20
29.28797898817498
 30
0.0
 11
0.3473945869787869
 21
29.28797898817498
 31
0.0
 70
   160
  1
<>
 71
     2
 42
79.37500000000003
  3
SLDDIMSTYLE0
100
AcDbAlignedDimension
 13
39.68749999999999
 23
2.381250000000011
 33
0.0
 14
-39.68750000000003
 24
4.762500000000003
 34
0.0
 50
0.0000000000000051
100
AcDbRotatedDimension
1001
ACAD
1000
DSTYLE
1002
{
1070
   171
1070
     6
1070
   273
1070
     7
1002
}
  0
DIMENSION
  5
F3
330
1F
100
AcDbEntity
  8
0
  6
Continuous
370
    15
100
AcDbDimension
  2
_D_2
 10
-52.30749999999997
 20
-4.762500000000131
 30
0.0
 11
-52.30749999999999
 21
0.0000000000000035
 31
0.0
 70
   160
  1
%%c<>
 71
     2
 42
9.525000000000002
 52
-270.0
  3
SLDDIMSTYLE0
100
AcDbAlignedDimension
 13
-18.68805401447662
 23
4.762499999999997
 33
0.0
 14
-18.68805401447658
 24
-4.762500000000005
 34
0.0
 50
90.0000000000002
100
AcDbRotatedDimension
1001
ACAD
1000
DSTYLE
1002
{
1070
   171
1070
     6
1070
   273
1070
     7
1002
}
  0
DIMENSION
  5
108
330
1F
100
AcDbEntity
  8
0
  6
Continuous
370
    15
100
AcDbDimension
  2
_D_3
 10
48.27797146851948
 20
-2.381249999999959
 30
0.0
 11
48.27797146851938
 21
30.97679553807914
 31
0.0
 70
   160
  1
%%c<>
 71
     2
 42
4.762499999999999
 52
-270.0
  3
SLDDIMSTYLE0
100
AcDbAlignedDimension
 13
39.6875
 23
2.381250000000011
 33
0.0
 14
39.6875
 24
-2.381249999999989
 34
0.0
 50
90.0000000000002
100
AcDbRotatedDimension
1001
ACAD
1000
DSTYLE
1002
{
1070
   171
1070
     6
1070
   273
1070
     7
1002
}
  0
LINE
  5
11C
330
1F
100
AcDbEntity
  8
참조1
100
AcDbLine
 10
68.71936447236115
 20
7.441074928723896
 30
0.0
 11
68.71936447236115
 21
-7.438925071276109
 31
0.0
  0
LINE
  5
11D
330
1F
100
AcDbEntity
  8
참조1
100
AcDbLine
 10
81.41936447236115
 20
5.441074928723896
 30
0.0
 11
68.71936447236115
 21
5.441074928723896
 31
0.0
  0
SOLID
  5
11E
330
1F
100
AcDbEntity
  8
참조1
100
AcDbTrace
 10
68.71936447236115
 20
5.441074928723896
 30
0.0
 11
75.06936447236114
 21
4.425074928723896
 31
0.0
 12
75.06936447236114
 22
6.457074928723896
 32
0.0
 13
75.06936447236114
 23
6.457074928723896
 33
0.0
  0
LINE
  5
11F
330
1F
100
AcDbEntity
  8
참조1
100
AcDbLine
 10
81.41936447236115
 20
-5.438925071276109
 30
0.0
 11
68.71936447236115
 21
-5.438925071276109
 31
0.0
  0
SOLID
  5
120
330
1F
100
AcDbEntity
  8
참조1
100
AcDbTrace
 10
68.71936447236115
 20
-5.438925071276109
 30
0.0
 11
75.06936447236114
 21
-6.454925071276109
 31
0.0
 12
75.06936447236114
 22
-4.422925071276109
 32
0.0
 13
75.06936447236114
 23
-4.422925071276109
 33
0.0
  0
MTEXT
  5
121
330
1F
100
AcDbEntity
  8
참조1
100
AcDbMText
 10
78.11685456483143
 20
10.98929157337383
 30
0.0
 40
3.5
 41
0.0
 71
     1
 72
     1
  1
A
  7
SLDTEXTSTYLE0
 73
     1
 44
1.0
  0
MTEXT
  5
122
330
1F
100
AcDbEntity
  8
참조1
100
AcDbMText
 10
78.11685456483143
 20
0.1092915733738251
 30
0.0
 40
3.5
 41
0.0
 71
     1
 72
     1
  1
A
  7
SLDTEXTSTYLE0
 73
     1
 44
1.0
  0
INSERT
  5
129
330
1F
100
AcDbEntity
  8
해칭선
100
AcDbBlockReference
  2
SW_DOWELSYMBOL_0
 10
0.0
 20
0.0
 30
0.0
  0
LINE
  5
265
330
1F
100
AcDbEntity
  8
외형선
  6
Continuous
370
    15
100
AcDbLine
 10
-3.568700000000049
 20
3.492500000000022
 30
0.0
 11
3.568700000000021
 21
3.492500000000022
 31
0.0
  0
LINE
  5
266
330
1F
100
AcDbEntity
  8
외형선
  6
Continuous
370
    15
100
AcDbLine
 10
3.568700000000021
 20
3.492500000000022
 30
0.0
 11
4.838700000000003
 21
4.762500000000004
 31
0.0
  0
LINE
  5
267
330
1F
100
AcDbEntity
  8
외형선
  6
Continuous
370
    15
100
AcDbLine
 10
-3.568700000000049
 20
3.492500000000022
 30
0.0
 11
-4.838700000000031
 21
4.762500000000004
 31
0.0
  0
LINE
  5
46B
330
1F
100
AcDbEntity
  8
외형선
  6
Continuous
370
    15
100
AcDbLine
 10
-18.68805401447662
 20
4.762499999999997
 30
0.0
 11
-27.57499999999999
 21
2.381250000000002
 31
0.0
  0
LINE
  5
46C
330
1F
100
AcDbEntity
  8
외형선
  6
Continuous
370
    15
100
AcDbLine
 10
-27.57499999999999
 20
-2.381250000000001
 30
0.0
 11
-18.68805401447662
 21
-4.762499999999995
 31
0.0
  0
LINE
  5
46D
330
1F
100
AcDbEntity
  8
외형선
  6
Continuous
370
    15
100
AcDbLine
 10
-28.57500000000002
 20
-2.381250000000001
 30
0.0
 11
-27.57499999999999
 21
-2.381250000000001
 31
0.0
  0
LINE
  5
46E
330
1F
100
AcDbEntity
  8
외형선
  6
Continuous
370
    15
100
AcDbLine
 10
-27.57499999999999
 20
2.381250000000002
 30
0.0
 11
-28.57500000000002
 21
2.381250000000002
 31
0.0
  0
LINE
  5
46F
330
1F
100
AcDbEntity
  8
0
  6
Continuous
 62
     1
370
    15
100
AcDbLine
 10
-36.8297086487444
 20
2.381250000000002
 30
0.0
 11
-37.30625000000001
 21
2.381250000000002
 31
0.0
  0
LINE
  5
470
330
1F
100
AcDbEntity
  8
외형선
  6
Continuous
370
    15
100
AcDbLine
 10
-29.04825909795844
 20
-2.381250000000001
 30
0.0
 11
-28.57500000000002
 21
-2.381250000000001
 31
0.0
  0
ARC
  5
471
330
1F
100
AcDbEntity
  8
0
  6
Continuous
 62
     1
370
    15
100
AcDbCircle
 10
-37.30625000000001
 20
0.0000000000000011
 30
0.0
 40
2.381250000000001
100
AcDbArc
 50
90.00000000000068
 51
180.0
  0
ARC
  5
472
330
1F
100
AcDbEntity
  8
0
  6
Continuous
 62
     1
370
    15
100
AcDbCircle
 10
-37.30625000000001
 20
0.0000000000000011
 30
0.0
 40
2.381250000000001
100
AcDbArc
 50
180.0
 51
270.0
  0
LINE
  5
473
330
1F
100
AcDbEntity
  8
외형선
  6
Continuous
370
    15
100
AcDbLine
 10
-28.57500000000002
 20
2.381250000000002
 30
0.0
 11
-29.04825909795844
 21
2.381250000000002
 31
0.0
  0
LINE
  5
474
330
1F
100
AcDbEntity
  8
0
  6
Continuous
 62
     1
370
    15
100
AcDbLine
 10
-37.30625000000001
 20
-2.381250000000001
 30
0.0
 11
-36.82970864874443
 21
-2.381250000000001
 31
0.0
  0
LINE
  5
475
330
1F
100
AcDbEntity
  8
외형선
  6
Continuous
370
    15
100
AcDbLine
 10
-18.68805401447662
 20
-4.762500000000002
 30
0.0
 11
-18.68805401447662
 21
4.762500000000004
 31
0.0
  0
LINE
  5
476
330
1F
100
AcDbEntity
  8
외형선
  6
Continuous
370
    15
100
AcDbLine
 10
-27.57499999999999
 20
-2.381250000000001
 30
0.0
 11
-27.57499999999999
 21
2.381250000000002
 31
0.0
  0
LINE
  5
477
330
1F
100
AcDbEntity
  8
외형선
  6
Continuous
370
    15
100
AcDbLine
 10
-28.57500000000002
 20
-2.381250000000001
 30
0.0
 11
-28.57499999999999
 21
-0.9942820707110787
 31
0.0
  0
SPLINE
  5
478
330
1F
100
AcDbEntity
  8
외형선
  6
Continuous
370
    15
100
AcDbSpline
210
0.0
220
0.0
230
1.0
 70
     8
 71
     3
 72
    10
 73
     6
 74
     0
 42
0.000000001
 43
0.00000001
 40
0.0
 40
0.0
 40
0.0
 40
0.0
 40
0.5
 40
0.5
 40
1.0
 40
1.0
 40
1.0
 40
1.0
 10
-28.57499999999996
 20
-0.9942820707111
 30
0.0
 10
-28.42583772675923
 20
-1.072282624588815
 30
0.0
 10
-28.27644906042482
 20
-1.148378116690515
 30
0.0
 10
-27.97982503340327
 20
-1.295454438681367
 30
0.0
 10
-27.83342887613045
 20
-1.366314943950534
 30
0.0
 10
-27.68510253489998
 20
-1.434698812710699
 30
0.0
  0
SPLINE
  5
479
330
1F
100
AcDbEntity
  8
외형선
  6
Continuous
370
    15
100
AcDbSpline
210
0.0
220
0.0
230
1.0
 70
     8
 71
     3
 72
    10
 73
     6
 74
     0
 42
0.000000001
 43
0.00000001
 40
0.0
 40
0.0
 40
0.0
 40
0.0
 40
0.5000000000000001
 40
0.5000000000000001
 40
1.0
 40
1.0
 40
1.0
 40
1.0
 10
-28.57500000000013
 20
2.365555340756594
 30
0.0
 10
-28.42587708197166
 20
2.355718505130953
 30
0.0
 10
-28.27652788887363
 20
2.341254648046758
 30
0.0
 10
-27.97998099067379
 20
2.303377358362163
 30
0.0
 10
-27.83362342413093
 20
2.280034430482126
 30
0.0
 10
-27.68533734196197
 20
2.252220500595905
 30
0.0
  0
LINE
  5
47A
330
1F
100
AcDbEntity
  8
외형선
  6
Continuous
370
    15
100
AcDbLine
 10
-28.57500000000002
 20
2.365555340756623
 30
0.0
 11
-28.57500000000002
 21
2.381250000000002
 31
0.0
  0
LINE
  5
47B
330
1F
100
AcDbEntity
  8
외형선
  6
Continuous
370
    15
100
AcDbLine
 10
-27.68533734196197
 20
2.252266653166303
 30
0.0
 11
-27.68533734196197
 21
-1.434793821927434
 31
0.0
  0
SPLINE
  5
47C
330
1F
100
AcDbEntity
  8
외형선
  6
Continuous
370
    15
100
AcDbSpline
210
0.0
220
0.0
230
1.0
 70
     8
 71
     3
 72
    10
 73
     6
 74
     0
 42
0.000000001
 43
0.00000001
 40
0.0
 40
0.0
 40
0.0
 40
0.0
 40
0.5
 40
0.5
 40
1.0
 40
1.0
 40
1.0
 40
1.0
 10
-28.57500000000002
 20
0.7012931816719867
 30
0.0
 10
-28.42587708197155
 20
0.6485990996889026
 30
0.0
 10
-28.27652788887352
 20
0.594508580403095
 30
0.0
 10
-27.97998099067374
 20
0.4844927062967923
 30
0.0
 10
-27.83362342413091
 20
0.4286792634287633
 30
0.0
 10
-27.68533734196197
 20
0.3719016165472564
 30
0.0
  0
SPLINE
  5
47D
330
1F
100
AcDbEntity
  8
외형선
  6
Continuous
370
    15
100
AcDbSpline
210
0.0
220
0.0
230
1.0
 70
    24
 71
     3
 72
    14
 73
    10
 74
     0
 42
0.000000001
 43
0.00000001
 40
0.0
 40
0.0
 40
0.0
 40
0.0
 40
0.25
 40
0.25
 40
0.5
 40
0.5
 40
0.75
 40
0.75
 40
1.0
 40
1.0
 40
1.0
 40
1.0
 10
-28.57500000000002
 20
-0.99428207071407
 30
0.0
 10
-28.57500000000002
 20
-0.9081020088259553
 30
0.0
 10
-28.57500000000002
 20
-0.7885238501689276
 30
0.0
 10
-28.57500000000002
 20
-0.5076555743060271
 30
0.0
 10
-28.57500000000002
 20
-0.3472250447549772
 30
0.0
 10
-28.57500000000002
 20
-0.0234756669543887
 30
0.0
 10
-28.57500000000002
 20
0.1392923564089668
 30
0.0
 10
-28.57500000000002
 20
0.4405390972987189
 30
0.0
 10
-28.57500000000002
 20
0.5791061167179106
 30
0.0
 10
-28.57500000000002
 20
0.7012931816719867
 30
0.0
  0
SPLINE
  5
47E
330
1F
100
AcDbEntity
  8
외형선
  6
Continuous
370
    15
100
AcDbSpline
210
0.0
220
0.0
230
1.0
 70
    24
 71
     3
 72
    14
 73
    10
 74
     0
 42
0.000000001
 43
0.00000001
 40
0.0
 40
0.0
 40
0.0
 40
0.0
 40
0.25
 40
0.25
 40
0.5
 40
0.5
 40
0.75
 40
0.75
 40
1.0
 40
1.0
 40
1.0
 40
1.0
 10
-28.57500000000007
 20
0.701293181672008
 30
0.0
 10
-28.57500000000007
 20
0.7332619240876153
 30
0.0
 10
-28.57500000000007
 20
0.7872652688019326
 30
0.0
 10
-28.57500000000007
 20
0.9569642087372696
 30
0.0
 10
-28.57500000000007
 20
1.073326041335784
 30
0.0
 10
-28.57500000000007
 20
1.370295085505348
 30
0.0
 10
-28.57500000000007
 20
1.551110150606676
 30
0.0
 10
-28.57500000000007
 20
1.946821507535583
 30
0.0
 10
-28.57500000000007
 20
2.160695808347136
 30
0.0
 10
-28.57500000000007
 20
2.365555340755301
 30
0.0
  0
SPLINE
  5
47F
330
1F
100
AcDbEntity
  8
0
  6
Continuous
 62
     1
370
    15
100
AcDbSpline
210
0.0
220
0.0
230
1.0
 70
     8
 71
     3
 72
    19
 73
    15
 74
     0
 42
0.000000001
 43
0.00000001
 40
0.0
 40
0.0
 40
0.0
 40
0.0
 40
0.1078176949970539
 40
0.2169109572991447
 40
0.2999411474723132
 40
0.3835460192520823
 40
0.4664747361711608
 40
0.549977239457992
 40
0.6327048780144819
 40
0.7160052649930861
 40
0.7998078654638419
 40
0.884207078918113
 40
0.9704458055351761
 40
1.0
 40
1.0
 40
1.0
 40
1.0
 10
-37.30625000000001
 20
0.9954926040900045
 30
0.0
 10
-37.00933031979136
 20
0.835511336028284
 30
0.0
 10
-36.41197816830297
 20
0.5136560969031418
 30
0.0
 10
-35.5862621650268
 20
0.0339738811401216
 30
0.0
 10
-34.82791535432042
 20
-0.4044442488679667
 30
0.0
 10
-34.14011326241408
 20
-0.7884714322259387
 30
0.0
 10
-33.45285041639053
 20
-1.154055347255563
 30
0.0
 10
-32.76617206452684
 20
-1.483747357902053
 30
0.0
 10
-32.07986137851702
 20
-1.774980427449136
 30
0.0
 10
-31.39224745611162
 20
-2.016348770294456
 30
0.0
 10
-30.69947788136923
 20
-2.203915971902382
 30
0.0
 10
-29.99998613462665
 20
-2.326733535686144
 30
0.0
 10
-29.44812625065168
 20
-2.384039077571173
 30
0.0
 10
-29.12956619198874
 20
-2.375366360851607
 30
0.0
 10
-29.04825909795844
 20
-2.373152795859254
 30
0.0
  0
SPLINE
  5
480
330
1F
100
AcDbEntity
  8
0
  6
Continuous
 62
     1
370
    15
100
AcDbSpline
210
0.0
220
0.0
230
1.0
 70
     8
 71
     3
 72
    14
 73
    10
 74
     0
 42
0.000000001
 43
0.00000001
 40
0.0
 40
0.0
 40
0.0
 40
0.0
 40
0.1803542475676765
 40
0.3607084855428906
 40
0.5132558664808063
 40
0.6658506557660933
 40
0.818561656608153
 40
0.971425718682957
 40
1.0
 40
1.0
 40
1.0
 40
1.0
 10
-39.05002288630808
 20
-0.2495763127871473
 30
0.0
 10
-38.65609041061177
 20
-0.400618684952575
 30
0.0
 10
-37.86822548017111
 20
-0.7027034212499632
 30
0.0
 10
-36.74705198274583
 20
-1.073087463658971
 30
0.0
 10
-35.6869092612435
 20
-1.350575812555141
 30
0.0
 10
-34.68700599587666
 20
-1.535021615306141
 30
0.0
 10
-33.68638158347781
 20
-1.621482437540172
 30
0.0
 10
-32.95646254128221
 20
-1.637721716203095
 30
0.0
 10
-32.56018968095492
 20
-1.59695276489102
 30
0.0
 10
-32.49778163656021
 20
-1.59053216237661
 30
0.0
  0
SPLINE
  5
481
330
1F
100
AcDbEntity
  8
0
  6
Continuous
 62
     1
370
    15
100
AcDbSpline
210
0.0
220
0.0
230
1.0
 70
     8
 71
     3
 72
    22
 73
    18
 74
     0
 42
0.000000001
 43
0.00000001
 40
0.0
 40
0.0
 40
0.0
 40
0.0
 40
0.125
 40
0.125
 40
0.25
 40
0.25
 40
0.375
 40
0.375
 40
0.5
 40
0.5
 40
0.625
 40
0.625
 40
0.75
 40
0.75
 40
0.875
 40
0.875
 40
1.0
 40
1.0
 40
1.0
 40
1.0
 10
-37.30625000000001
 20
0.9954926040893863
 30
0.0
 10
-37.43831214279416
 20
1.065170229699249
 30
0.0
 10
-37.56839993608159
 20
1.127412207592372
 30
0.0
 10
-37.82817373941535
 20
1.231999327162634
 30
0.0
 10
-37.95920149514311
 20
1.2748204984972
 30
0.0
 10
-38.2178302287594
 20
1.329886617268543
 30
0.0
 10
-38.34454976206675
 20
1.342515236564894
 30
0.0
 10
-38.59839102795047
 20
1.324189254553752
 30
0.0
 10
-38.72219286891996
 20
1.292723090304962
 30
0.0
 10
-38.95567549020265
 20
1.166458473358291
 30
0.0
 10
-39.06424657799849
 20
1.070726803781008
 30
0.0
 10
-39.22933457542572
 20
0.816516898894329
 30
0.0
 10
-39.27902966991272
 20
0.6658824806324983
 30
0.0
 10
-39.30410626109673
 20
0.3713665044497116
 30
0.0
 10
-39.28148543543247
 20
0.2325789296373852
 30
0.0
 10
-39.19400946787155
 20
-0.0216209836670689
 30
0.0
 10
-39.1292211569571
 20
-0.1383400725801696
 30
0.0
 10
-39.05002288629041
 20
-0.2495763127939969
 30
0.0
  0
SPLINE
  5
482
330
1F
100
AcDbEntity
  8
0
  6
Continuous
 62
     1
370
    15
100
AcDbSpline
210
0.0
220
0.0
230
1.0
 70
     8
 71
     3
 72
    12
 73
     8
 74
     0
 42
0.000000001
 43
0.00000001
 40
0.0
 40
0.0
 40
0.0
 40
0.0
 40
0.1516938000319716
 40
0.3582625079536558
 40
0.5646500350058972
 40
0.7823307064957866
 40
1.0
 40
1.0
 40
1.0
 40
1.0
 10
-33.4200499391749
 20
1.610176015583052
 30
0.0
 10
-33.17503311189063
 20
1.613844820627017
 30
0.0
 10
-32.59636514381802
 20
1.622509613096889
 30
0.0
 10
-31.68440786636174
 20
1.525236582216231
 30
0.0
 10
-30.66600276632172
 20
1.337032435676002
 30
0.0
 10
-29.62959770928452
 20
1.061829598876302
 30
0.0
 10
-28.92652644477747
 20
0.8214698934520837
 30
0.0
 10
-28.57500000000002
 20
0.7012931816719867
 30
0.0
  0
SPLINE
  5
483
330
1F
100
AcDbEntity
  8
외형선
  6
Continuous
370
    15
100
AcDbSpline
210
0.0
220
0.0
230
1.0
 70
    24
 71
     3
 72
    14
 73
    10
 74
     0
 42
0.000000001
 43
0.00000001
 40
0.0
 40
0.0
 40
0.0
 40
0.0
 40
0.25
 40
0.25
 40
0.5
 40
0.5
 40
0.75
 40
0.75
 40
1.0
 40
1.0
 40
1.0
 40
1.0
 10
-28.57500000000002
 20
-0.9942820707140487
 30
0.0
 10
-28.57500000000002
 20
-0.908102008825934
 30
0.0
 10
-28.57500000000002
 20
-0.7885238501689062
 30
0.0
 10
-28.57500000000002
 20
-0.5076555743060058
 30
0.0
 10
-28.57500000000002
 20
-0.3472250447549559
 30
0.0
 10
-28.57500000000002
 20
-0.0234756669543745
 30
0.0
 10
-28.57500000000002
 20
0.139292356408981
 30
0.0
 10
-28.57500000000002
 20
0.440539097298726
 30
0.0
 10
-28.57500000000002
 20
0.5791061167179106
 30
0.0
 10
-28.57500000000002
 20
0.7012931816719867
 30
0.0
  0
SPLINE
  5
484
330
1F
100
AcDbEntity
  8
0
  6
Continuous
 62
     1
370
    15
100
AcDbSpline
210
0.0
220
0.0
230
1.0
 70
     8
 71
     3
 72
    15
 73
    11
 74
     0
 42
0.000000001
 43
0.00000001
 40
0.0
 40
0.0
 40
0.0
 40
0.0
 40
0.1480820586497645
 40
0.29616195467945
 40
0.4442389017479106
 40
0.5923121151681613
 40
0.7085989311192566
 40
0.8248696844859181
 40
0.9412165112870255
 40
1.0
 40
1.0
 40
1.0
 40
1.0
 10
-28.57499999999953
 20
-0.9942820707113202
 30
0.0
 10
-28.98253331945418
 20
-0.7720488177871363
 30
0.0
 10
-29.79759400666518
 20
-0.3275855574777597
 30
0.0
 10
-31.0201910006414
 20
0.3908619273033562
 30
0.0
 10
-32.2426740227813
 20
1.069190412460686
 30
0.0
 10
-33.37795512888775
 20
1.613272914205539
 30
0.0
 10
-34.42477089026514
 20
2.006776390345736
 30
0.0
 10
-35.38447167132
 20
2.252758817948469
 30
0.0
 10
-36.18602077202888
 20
2.377264669840678
 30
0.0
 10
-36.66794727189617
 20
2.368166951242096
 30
0.0
 10
-36.8297086487444
 20
2.365113250133967
 30
0.0
  0
SPLINE
  5
485
330
1F
100
AcDbEntity
  8
0
  6
Continuous
 62
     1
370
    15
100
AcDbSpline
210
0.0
220
0.0
230
1.0
 70
     8
 71
     3
 72
    10
 73
     6
 74
     0
 42
0.000000001
 43
0.00000001
 40
0.0
 40
0.0
 40
0.0
 40
0.0
 40
0.5
 40
0.5
 40
1.0
 40
1.0
 40
1.0
 40
1.0
 10
-39.05002288629041
 20
-0.2495763127939969
 30
0.0
 10
-39.10477568137338
 20
-0.2826246161959307
 30
0.0
 10
-39.14848852688786
 20
-0.332865866154562
 30
0.0
 10
-39.2069586833455
 20
-0.4602199967100009
 30
0.0
 10
-39.22144266252872
 20
-0.5369360668298089
 30
0.0
 10
-39.22278924506799
 20
-0.6167224762204799
 30
0.0
  0
ARC
  5
486
330
1F
100
AcDbEntity
  8
0
  6
Continuous
 62
     1
370
    15
100
AcDbCircle
 10
-38.54822518350673
 20
0.413942033868133
 30
0.0
 40
1.231789757022777
100
AcDbArc
 50
203.8412857607769
 51
236.7954810300112
  0
ARC
  5
487
330
1F
100
AcDbEntity
  8
0
  6
Continuous
 62
     1
370
    15
100
AcDbCircle
 10
-37.54586360640721
 20
-0.0441724748039352
 30
0.0
 40
2.129412657004794
100
AcDbArc
 50
181.0704283877994
 51
251.1441667667574
  0
SPLINE
  5
488
330
1F
100
AcDbEntity
  8
0
  6
Continuous
 62
     1
370
    15
100
AcDbSpline
210
0.0
220
0.0
230
1.0
 70
     8
 71
     3
 72
    10
 73
     6
 74
     0
 42
0.000000001
 43
0.00000001
 40
0.0
 40
0.0
 40
0.0
 40
0.0
 40
0.5
 40
0.5
 40
1.0
 40
1.0
 40
1.0
 40
1.0
 10
-38.234064281543
 20
-2.059309714436721
 30
0.0
 10
-38.08664610379785
 20
-2.149201946605621
 30
0.0
 10
-37.93477285421034
 20
-2.219795152015684
 30
0.0
 10
-37.6250631567415
 20
-2.322510980956159
 30
0.0
 10
-37.46571939350176
 20
-2.354734387094758
 30
0.0
 10
-37.3062499999987
 20
-2.365402247280477
 30
0.0
  0
SPLINE
  5
489
330
1F
100
AcDbEntity
  8
0
  6
Continuous
 62
     1
370
    15
100
AcDbSpline
210
0.0
220
0.0
230
1.0
 70
     8
 71
     3
 72
     8
 73
     4
 74
     0
 42
0.000000001
 43
0.00000001
 40
0.0
 40
0.0
 40
0.0
 40
0.0
 40
1.0
 40
1.0
 40
1.0
 40
1.0
 10
-37.7503821231997
 20
-1.065974114515945
 30
0.0
 10
-38.23447969007938
 20
-0.9314157853935885
 30
0.0
 10
-38.72803444749263
 20
-0.7798378322808037
 30
0.0
 10
-39.22278924506801
 20
-0.6167224762204941
 30
0.0
  0
SPLINE
  5
48A
330
1F
100
AcDbEntity
  8
0
  6
Continuous
 62
     1
370
    15
100
AcDbSpline
210
0.0
220
0.0
230
1.0
 70
     8
 71
     3
 72
    12
 73
     8
 74
     0
 42
0.000000001
 43
0.00000001
 40
0.0
 40
0.0
 40
0.0
 40
0.0
 40
0.0116267002545008
 40
0.2585778677045886
 40
0.5054949240308511
 40
0.7525735328365977
 40
1.0
 40
1.0
 40
1.0
 40
1.0
 10
-33.4200499391749
 20
-1.610176015583056
 30
0.0
 10
-33.43511732873796
 20
-1.617326756942332
 30
0.0
 10
-33.77021614265837
 20
-1.776359278011482
 30
0.0
 10
-34.42473444972759
 20
-1.999003561750114
 30
0.0
 10
-35.38447555707396
 20
-2.257279613731682
 30
0.0
 10
-36.34483021741309
 20
-2.391609714021896
 30
0.0
 10
-36.98562648362798
 20
-2.374142165362016
 30
0.0
 10
-37.30625000000001
 20
-2.365402247280392
 30
0.0
  0
SPLINE
  5
48B
330
1F
100
AcDbEntity
  8
0
  6
Continuous
 62
     1
370
    15
100
AcDbSpline
210
0.0
220
0.0
230
1.0
 70
     8
 71
     3
 72
    14
 73
    10
 74
     0
 42
0.000000001
 43
0.00000001
 40
0.0
 40
0.0
 40
0.0
 40
0.0
 40
0.25
 40
0.25
 40
0.5
 40
0.5
 40
0.75
 40
0.75
 40
1.0
 40
1.0
 40
1.0
 40
1.0
 10
-38.234064281543
 20
-2.059309714436721
 30
0.0
 10
-38.25095426833113
 20
-1.959324798384329
 30
0.0
 10
-38.25852605428477
 20
-1.857507827934049
 30
0.0
 10
-38.24368102799403
 20
-1.651445059296235
 30
0.0
 10
-38.22068117473617
 20
-1.549912348418707
 30
0.0
 10
-38.13658731311878
 20
-1.365238316764226
 30
0.0
 10
-38.07519119256384
 20
-1.283016166461237
 30
0.0
 10
-37.92703406877789
 20
-1.151703916881572
 30
0.0
 10
-37.84027705170701
 20
-1.101732572601476
 30
0.0
 10
-37.75038212320084
 20
-1.065974114515717
 30
0.0
  0
SPLINE
  5
48C
330
1F
100
AcDbEntity
  8
0
  6
Continuous
 62
     1
370
    15
100
AcDbSpline
210
0.0
220
0.0
230
1.0
 70
     8
 71
     3
 72
    13
 73
     9
 74
     0
 42
0.000000001
 43
0.00000001
 40
0.0
 40
0.0
 40
0.0
 40
0.0
 40
0.1061845899675214
 40
0.2815272254813272
 40
0.4579269921862165
 40
0.6355825957089859
 40
0.8171102711119154
 40
1.0
 40
1.0
 40
1.0
 40
1.0
 10
-32.49778163656021
 20
1.590532162376612
 30
0.0
 10
-32.35897653112849
 20
1.650590483898641
 30
0.0
 10
-31.9909625262076
 20
1.809823124250074
 30
0.0
 10
-31.3922606255534
 20
2.015312260929016
 30
0.0
 10
-30.6994823939996
 20
2.2036692313743
 30
0.0
 10
-29.99995426422183
 20
2.328800843211035
 30
0.0
 10
-29.29020930423431
 20
2.392209749182656
 30
0.0
 10
-28.81399640223938
 20
2.374462254690671
 30
0.0
 10
-28.5750000000003
 20
2.365555340756644
 30
0.0
  0
SPLINE
  5
48D
330
1F
100
AcDbEntity
  8
외형선
  6
Continuous
370
    15
100
AcDbSpline
210
0.0
220
0.0
230
1.0
 70
    24
 71
     3
 72
    14
 73
    10
 74
     0
 42
0.000000001
 43
0.00000001
 40
0.0
 40
0.0
 40
0.0
 40
0.0
 40
0.25
 40
0.25
 40
0.5
 40
0.5
 40
0.75
 40
0.75
 40
1.0
 40
1.0
 40
1.0
 40
1.0
 10
-28.57500000000002
 20
0.7012931816719867
 30
0.0
 10
-28.57500000000002
 20
0.7332619240875939
 30
0.0
 10
-28.57500000000002
 20
0.7872652688019113
 30
0.0
 10
-28.57500000000002
 20
0.9569642087372554
 30
0.0
 10
-28.57500000000002
 20
1.073326041335777
 30
0.0
 10
-28.57500000000002
 20
1.370295085505341
 30
0.0
 10
-28.57500000000002
 20
1.551110150606669
 30
0.0
 10
-28.57500000000002
 20
1.946821507535575
 30
0.0
 10
-28.57500000000002
 20
2.160695808347136
 30
0.0
 10
-28.57500000000002
 20
2.365555340755294
 30
0.0
  0
LINE
  5
4BB
330
1F
100
AcDbEntity
  8
외형선
  6
Continuous
370
    15
100
AcDbLine
 10
-4.838700000000031
 20
4.762499999999999
 30
0.0
 11
-18.68805401447662
 21
4.762499999999998
 31
0.0
  0
ENDSEC
  0
SECTION
  2
OBJECTS
  0
DICTIONARY
  5
C
330
0
100
AcDbDictionary
281
     1
  3
ACAD_GROUP
350
D
  3
ACAD_IMAGE_VARS
350
14D
  3
ACAD_LAYOUT
350
1A
  3
ACAD_MLINESTYLE
350
17
  3
ACAD_PLOTSETTINGS
350
19
  3
ACAD_PLOTSTYLENAME
350
E
  3
ACAD_SCALELIST
350
47
  3
APPDATA
350
14B
  3
DWGPROPS
350
4DF
  0
DICTIONARY
  5
203
330
2
100
AcDbDictionary
280
     1
281
     1
  3
ACAD_LAYERSTATES
360
204
  0
DICTIONARY
  5
D
102
{ACAD_REACTORS
330
C
102
}
330
C
100
AcDbDictionary
281
     1
  0
RASTERVARIABLES
  5
14D
102
{ACAD_REACTORS
330
C
102
}
330
C
100
AcDbRasterVariables
 90
        0
 70
     1
 71
     1
 72
     1
  0
DICTIONARY
  5
1A
102
{ACAD_REACTORS
330
C
102
}
330
C
100
AcDbDictionary
281
     1
  3
Layout1
350
1E
  3
Layout2
350
26
  3
Model
350
22
  0
DICTIONARY
  5
17
102
{ACAD_REACTORS
330
C
102
}
330
C
100
AcDbDictionary
281
     1
  3
Standard
350
18
  0
DICTIONARY
  5
19
102
{ACAD_REACTORS
330
C
102
}
330
C
100
AcDbDictionary
281
     1
  0
ACDBDICTIONARYWDFLT
  5
E
102
{ACAD_REACTORS
330
C
102
}
330
C
100
AcDbDictionary
281
     1
  3
Normal
350
F
100
AcDbDictionaryWithDefault
340
F
  0
DICTIONARY
  5
47
102
{ACAD_REACTORS
330
C
102
}
330
C
100
AcDbDictionary
281
     1
  3
A0
350
48
  3
A1
350
49
  3
A2
350
4A
  3
A3
350
4B
  3
A4
350
4C
  3
A5
350
4D
  3
A6
350
4E
  3
A7
350
4F
  3
A8
350
50
  3
A9
350
51
  3
B0
350
52
  3
B1
350
53
  3
B2
350
54
  3
B3
350
55
  3
B4
350
56
  3
B5
350
57
  3
B6
350
58
  3
B7
350
59
  3
B8
350
5A
  3
B9
350
5B
  3
C0
350
5C
  3
C1
350
5D
  3
C2
350
5E
  3
C3
350
5F
  3
C4
350
60
  3
C5
350
61
  3
C6
350
62
  3
C7
350
63
  3
C8
350
64
  3
C9
350
65
  3
D0
350
66
  3
D1
350
67
  3
D2
350
68
  0
DICTIONARY
  5
14B
102
{ACAD_REACTORS
330
C
102
}
330
C
100
AcDbDictionary
281
     1
  0
XRECORD
  5
4DF
102
{ACAD_REACTORS
330
C
102
}
330
C
100
AcDbXrecord
280
     1
  1
DWGPROPS COOKIE
  2

  3

  4

  6

  7

  8
12016016
  9

300
=
301
=
302
=
303
=
304
=
305
=
306
=
307
=
308
=
309
=
 40
0.0
 41
2458319.367406308
 42
2458323.298438021
  1

 90
        0
  0
DICTIONARY
  5
204
102
{ACAD_REACTORS
330
203
102
}
330
203
100
AcDbDictionary
281
     1
  0
LAYOUT
  5
1E
102
{ACAD_REACTORS
330
1A
102
}
330
1A
100
AcDbPlotSettings
  1

  2
none_device
  4

  6

 40
0.0
 41
0.0
 42
0.0
 43
0.0
 44
0.0
 45
0.0
 46
0.0
 47
0.0
 48
0.0
 49
0.0
140
0.0
141
0.0
142
1.0
143
1.0
 70
   688
 72
     1
 73
     0
 74
     5
  7

 75
    16
147
1.0
148
0.0
149
0.0
100
AcDbLayout
  1
Layout1
 70
     1
 71
     1
 10
0.0
 20
0.0
 11
420.0
 21
297.0
 12
0.0
 22
0.0
 32
0.0
 14
1.000000000000000E+20
 24
1.000000000000000E+20
 34
1.000000000000000E+20
 15
-1.000000000000000E+20
 25
-1.000000000000000E+20
 35
-1.000000000000000E+20
146
0.0
 13
0.0
 23
0.0
 33
0.0
 16
1.0
 26
0.0
 36
0.0
 17
0.0
 27
1.0
 37
0.0
 76
     0
330
1B
  0
LAYOUT
  5
26
102
{ACAD_REACTORS
330
1A
102
}
330
1A
100
AcDbPlotSettings
  1

  2
none_device
  4

  6

 40
0.0
 41
0.0
 42
0.0
 43
0.0
 44
0.0
 45
0.0
 46
0.0
 47
0.0
 48
0.0
 49
0.0
140
0.0
141
0.0
142
1.0
143
1.0
 70
   688
 72
     1
 73
     0
 74
     5
  7

 75
    16
147
1.0
148
0.0
149
0.0
100
AcDbLayout
  1
Layout2
 70
     1
 71
     2
 10
0.0
 20
0.0
 11
0.0
 21
0.0
 12
0.0
 22
0.0
 32
0.0
 14
0.0
 24
0.0
 34
0.0
 15
0.0
 25
0.0
 35
0.0
146
0.0
 13
0.0
 23
0.0
 33
0.0
 16
1.0
 26
0.0
 36
0.0
 17
0.0
 27
1.0
 37
0.0
 76
     0
330
23
  0
LAYOUT
  5
22
102
{ACAD_REACTORS
330
1A
102
}
330
1A
100
AcDbPlotSettings
  1

  2
none_device
  4
ANSI_A_(11.00_x_8.50_Inches)
  6

 40
6.35
 41
19.05
 42
6.35000508
 43
19.05000254
 44
279.4
 45
215.9
 46
134.4716069472059
 47
97.85743264706906
 48
0.0
 49
0.0
140
0.0
141
0.0
142
0.0663336318230092
143
1.0
 70
  1696
 72
     0
 73
     0
 74
     0
  7

 75
     0
147
0.0235690232323232
148
0.0
149
0.0
100
AcDbLayout
  1
Model
 70
     1
 71
     0
 10
0.0
 20
0.0
 11
420.0
 21
297.0
 12
0.0
 22
0.0
 32
0.0
 14
-56.68250000000004
 24
-49.97180738881174
 34
0.0
 15
81.41936447236115
 25
44.97679553807914
 35
0.0
146
0.0
 13
0.0
 23
0.0
 33
0.0
 16
1.0
 26
0.0
 36
0.0
 17
0.0
 27
1.0
 37
0.0
 76
     0
330
1F
331
29
  0
MLINESTYLE
  5
18
102
{ACAD_REACTORS
330
17
102
}
330
17
100
AcDbMlineStyle
  2
Standard
 70
     0
  3

 62
   256
 51
90.0
 52
90.0
 71
     2
 49
0.5
 62
   256
  6
BYLAYER
 49
-0.5
 62
   256
  6
BYLAYER
  0
ACDBPLACEHOLDER
  5
F
102
{ACAD_REACTORS
330
E
102
}
330
E
  0
SCALE
  5
48
102
{ACAD_REACTORS
330
47
102
}
330
47
100
AcDbScale
 70
     0
300
1:1
140
1.0
141
1.0
290
     1
  0
SCALE
  5
49
102
{ACAD_REACTORS
330
47
102
}
330
47
100
AcDbScale
 70
     0
300
1:2
140
1.0
141
2.0
290
     0
  0
SCALE
  5
4A
102
{ACAD_REACTORS
330
47
102
}
330
47
100
AcDbScale
 70
     0
300
1:4
140
1.0
141
4.0
290
     0
  0
SCALE
  5
4B
102
{ACAD_REACTORS
330
47
102
}
330
47
100
AcDbScale
 70
     0
300
1:5
140
1.0
141
5.0
290
     0
  0
SCALE
  5
4C
102
{ACAD_REACTORS
330
47
102
}
330
47
100
AcDbScale
 70
     0
300
1:8
140
1.0
141
8.0
290
     0
  0
SCALE
  5
4D
102
{ACAD_REACTORS
330
47
102
}
330
47
100
AcDbScale
 70
     0
300
1:10
140
1.0
141
10.0
290
     0
  0
SCALE
  5
4E
102
{ACAD_REACTORS
330
47
102
}
330
47
100
AcDbScale
 70
     0
300
1:16
140
1.0
141
16.0
290
     0
  0
SCALE
  5
4F
102
{ACAD_REACTORS
330
47
102
}
330
47
100
AcDbScale
 70
     0
300
1:20
140
1.0
141
20.0
290
     0
  0
SCALE
  5
50
102
{ACAD_REACTORS
330
47
102
}
330
47
100
AcDbScale
 70
     0
300
1:30
140
1.0
141
30.0
290
     0
  0
SCALE
  5
51
102
{ACAD_REACTORS
330
47
102
}
330
47
100
AcDbScale
 70
     0
300
1:40
140
1.0
141
40.0
290
     0
  0
SCALE
  5
52
102
{ACAD_REACTORS
330
47
102
}
330
47
100
AcDbScale
 70
     0
300
1:50
140
1.0
141
50.0
290
     0
  0
SCALE
  5
53
102
{ACAD_REACTORS
330
47
102
}
330
47
100
AcDbScale
 70
     0
300
1:100
140
1.0
141
100.0
290
     0
  0
SCALE
  5
54
102
{ACAD_REACTORS
330
47
102
}
330
47
100
AcDbScale
 70
     0
300
2:1
140
2.0
141
1.0
290
     0
  0
SCALE
  5
55
102
{ACAD_REACTORS
330
47
102
}
330
47
100
AcDbScale
 70
     0
300
4:1
140
4.0
141
1.0
290
     0
  0
SCALE
  5
56
102
{ACAD_REACTORS
330
47
102
}
330
47
100
AcDbScale
 70
     0
300
8:1
140
8.0
141
1.0
290
     0
  0
SCALE
  5
57
102
{ACAD_REACTORS
330
47
102
}
330
47
100
AcDbScale
 70
     0
300
10:1
140
10.0
141
1.0
290
     0
  0
SCALE
  5
58
102
{ACAD_REACTORS
330
47
102
}
330
47
100
AcDbScale
 70
     0
300
100:1
140
100.0
141
1.0
290
     0
  0
SCALE
  5
59
102
{ACAD_REACTORS
330
47
102
}
330
47
100
AcDbScale
 70
     0
300
1/128" = 1'-0"
140
0.0078125
141
12.0
290
     0
  0
SCALE
  5
5A
102
{ACAD_REACTORS
330
47
102
}
330
47
100
AcDbScale
 70
     0
300
1/64" = 1'-0"
140
0.015625
141
12.0
290
     0
  0
SCALE
  5
5B
102
{ACAD_REACTORS
330
47
102
}
330
47
100
AcDbScale
 70
     0
300
1/32" = 1'-0"
140
0.03125
141
12.0
290
     0
  0
SCALE
  5
5C
102
{ACAD_REACTORS
330
47
102
}
330
47
100
AcDbScale
 70
     0
300
1/16" = 1'-0"
140
0.0625
141
12.0
290
     0
  0
SCALE
  5
5D
102
{ACAD_REACTORS
330
47
102
}
330
47
100
AcDbScale
 70
     0
300
3/32" = 1'-0"
140
0.09375
141
12.0
290
     0
  0
SCALE
  5
5E
102
{ACAD_REACTORS
330
47
102
}
330
47
100
AcDbScale
 70
     0
300
1/8" = 1'-0"
140
0.125
141
12.0
290
     0
  0
SCALE
  5
5F
102
{ACAD_REACTORS
330
47
102
}
330
47
100
AcDbScale
 70
     0
300
3/16" = 1'-0"
140
0.1875
141
12.0
290
     0
  0
SCALE
  5
60
102
{ACAD_REACTORS
330
47
102
}
330
47
100
AcDbScale
 70
     0
300
1/4" = 1'-0"
140
0.25
141
12.0
290
     0
  0
SCALE
  5
61
102
{ACAD_REACTORS
330
47
102
}
330
47
100
AcDbScale
 70
     0
300
3/8" = 1'-0"
140
0.375
141
12.0
290
     0
  0
SCALE
  5
62
102
{ACAD_REACTORS
330
47
102
}
330
47
100
AcDbScale
 70
     0
300
1/2" = 1'-0"
140
0.5
141
12.0
290
     0
  0
SCALE
  5
63
102
{ACAD_REACTORS
330
47
102
}
330
47
100
AcDbScale
 70
     0
300
3/4" = 1'-0"
140
0.75
141
12.0
290
     0
  0
SCALE
  5
64
102
{ACAD_REACTORS
330
47
102
}
330
47
100
AcDbScale
 70
     0
300
1" = 1'-0"
140
1.0
141
12.0
290
     0
  0
SCALE
  5
65
102
{ACAD_REACTORS
330
47
102
}
330
47
100
AcDbScale
 70
     0
300
1-1/2" = 1'-0"
140
1.5
141
12.0
290
     0
  0
SCALE
  5
66
102
{ACAD_REACTORS
330
47
102
}
330
47
100
AcDbScale
 70
     0
300
3" = 1'-0"
140
3.0
141
12.0
290
     0
  0
SCALE
  5
67
102
{ACAD_REACTORS
330
47
102
}
330
47
100
AcDbScale
 70
     0
300
6" = 1'-0"
140
6.0
141
12.0
290
     0
  0
SCALE
  5
68
102
{ACAD_REACTORS
330
47
102
}
330
47
100
AcDbScale
 70
     0
300
1'-0" = 1'-0"
140
12.0
141
12.0
290
     0
  0
ENDSEC
  0
EOF
