  0
SECTION
  2
HEADER
  9
$ACADVER
  1
AC1015
  9
$ACADMAINTVER
 70
     6
  9
$DWGCODEPAGE
  3
ANSI_949
  9
$INSBASE
 10
0.0
 20
0.0
 30
0.0
  9
$EXTMIN
 10
-81.97249590974714
 20
-50.28867796974447
 30
0.0
  9
$EXTMAX
 10
99.58865412182985
 20
55.24239583758197
 30
0.0
  9
$LIMMIN
 10
0.0
 20
0.0
  9
$LIMMAX
 10
420.0
 20
297.0
  9
$ORTHOMODE
 70
     1
  9
$REGENMODE
 70
     1
  9
$FILLMODE
 70
     1
  9
$QTEXTMODE
 70
     0
  9
$MIRRTEXT
 70
     1
  9
$LTSCALE
 40
1.0
  9
$ATTMODE
 70
     1
  9
$TEXTSIZE
 40
3.5
  9
$TRACEWID
 40
1.0
  9
$TEXTSTYLE
  7
Standard
  9
$CLAYER
  8
0
  9
$CELTYPE
  6
ByLayer
  9
$CECOLOR
 62
   256
  9
$CELTSCALE
 40
1.0
  9
$DISPSILH
 70
     0
  9
$DIMSCALE
 40
1.0
  9
$DIMASZ
 40
3.302
  9
$DIMEXO
 40
1.0
  9
$DIMDLI
 40
3.75
  9
$DIMRND
 40
0.0
  9
$DIMDLE
 40
0.0
  9
$DIMEXE
 40
1.0
  9
$DIMTP
 40
0.0
  9
$DIMTM
 40
0.0
  9
$DIMTXT
 40
3.5
  9
$DIMCEN
 40
2.5
  9
$DIMTSZ
 40
0.0
  9
$DIMTOL
 70
     0
  9
$DIMLIM
 70
     0
  9
$DIMTIH
 70
     1
  9
$DIMTOH
 70
     1
  9
$DIMSE1
 70
     0
  9
$DIMSE2
 70
     0
  9
$DIMTAD
 70
     1
  9
$DIMZIN
 70
     0
  9
$DIMBLK
  1

  9
$DIMASO
 70
     1
  9
$DIMSHO
 70
     1
  9
$DIMPOST
  1

  9
$DIMAPOST
  1

  9
$DIMALT
 70
     0
  9
$DIMALTD
 70
     3
  9
$DIMALTF
 40
0.0393700787401575
  9
$DIMLFAC
 40
1.0
  9
$DIMTOFL
 70
     1
  9
$DIMTVP
 40
0.0
  9
$DIMTIX
 70
     0
  9
$DIMSOXD
 70
     0
  9
$DIMSAH
 70
     0
  9
$DIMBLK1
  1

  9
$DIMBLK2
  1

  9
$DIMSTYLE
  2
ISO-25
  9
$DIMCLRD
 70
     0
  9
$DIMCLRE
 70
     0
  9
$DIMCLRT
 70
     0
  9
$DIMTFAC
 40
1.0
  9
$DIMGAP
 40
1.524
  9
$DIMJUST
 70
     0
  9
$DIMSD1
 70
     0
  9
$DIMSD2
 70
     0
  9
$DIMTOLJ
 70
     0
  9
$DIMTZIN
 70
     0
  9
$DIMALTZ
 70
     0
  9
$DIMALTTZ
 70
     0
  9
$DIMUPT
 70
     0
  9
$DIMDEC
 70
     2
  9
$DIMTDEC
 70
     2
  9
$DIMALTU
 70
     2
  9
$DIMALTTD
 70
     3
  9
$DIMTXSTY
  7
Standard
  9
$DIMAUNIT
 70
     0
  9
$DIMADEC
 70
     2
  9
$DIMALTRND
 40
0.0
  9
$DIMAZIN
 70
     0
  9
$DIMDSEP
 70
    44
  9
$DIMATFIT
 70
     3
  9
$DIMFRAC
 70
     0
  9
$DIMLDRBLK
  1

  9
$DIMLUNIT
 70
     2
  9
$DIMLWD
 70
    -2
  9
$DIMLWE
 70
    -2
  9
$DIMTMOVE
 70
     0
  9
$LUNITS
 70
     2
  9
$LUPREC
 70
     2
  9
$SKETCHINC
 40
1.0
  9
$FILLETRAD
 40
10.0
  9
$AUNITS
 70
     0
  9
$AUPREC
 70
     2
  9
$MENU
  1
.
  9
$ELEVATION
 40
0.0
  9
$PELEVATION
 40
0.0
  9
$THICKNESS
 40
0.0
  9
$LIMCHECK
 70
     0
  9
$CHAMFERA
 40
0.0
  9
$CHAMFERB
 40
0.0
  9
$CHAMFERC
 40
0.0
  9
$CHAMFERD
 40
0.0
  9
$SKPOLY
 70
     0
  9
$TDCREATE
 40
2458299.343695776
  9
$TDUCREATE
 40
2458298.968695776
  9
$TDUPDATE
 40
2458331.558573993
  9
$TDUUPDATE
 40
2458331.183573993
  9
$TDINDWG
 40
0.0037656019
  9
$TDUSRTIMER
 40
2458331.183114028
  9
$USRTIMER
 70
     1
  9
$ANGBASE
 50
0.0
  9
$ANGDIR
 70
     0
  9
$PDMODE
 70
     0
  9
$PDSIZE
 40
-1.0
  9
$PLINEWID
 40
0.0
  9
$SPLFRAME
 70
     0
  9
$SPLINETYPE
 70
     6
  9
$SPLINESEGS
 70
     8
  9
$HANDSEED
  5
3B5
  9
$SURFTAB1
 70
     6
  9
$SURFTAB2
 70
     6
  9
$SURFTYPE
 70
     6
  9
$SURFU
 70
     6
  9
$SURFV
 70
     6
  9
$UCSBASE
  2

  9
$UCSNAME
  2

  9
$UCSORG
 10
0.0
 20
0.0
 30
0.0
  9
$UCSXDIR
 10
1.0
 20
0.0
 30
0.0
  9
$UCSYDIR
 10
0.0
 20
1.0
 30
0.0
  9
$UCSORTHOREF
  2

  9
$UCSORTHOVIEW
 70
     0
  9
$UCSORGTOP
 10
0.0
 20
0.0
 30
0.0
  9
$UCSORGBOTTOM
 10
0.0
 20
0.0
 30
0.0
  9
$UCSORGLEFT
 10
0.0
 20
0.0
 30
0.0
  9
$UCSORGRIGHT
 10
0.0
 20
0.0
 30
0.0
  9
$UCSORGFRONT
 10
0.0
 20
0.0
 30
0.0
  9
$UCSORGBACK
 10
0.0
 20
0.0
 30
0.0
  9
$PUCSBASE
  2

  9
$PUCSNAME
  2

  9
$PUCSORG
 10
0.0
 20
0.0
 30
0.0
  9
$PUCSXDIR
 10
1.0
 20
0.0
 30
0.0
  9
$PUCSYDIR
 10
0.0
 20
1.0
 30
0.0
  9
$PUCSORTHOREF
  2

  9
$PUCSORTHOVIEW
 70
     0
  9
$PUCSORGTOP
 10
0.0
 20
0.0
 30
0.0
  9
$PUCSORGBOTTOM
 10
0.0
 20
0.0
 30
0.0
  9
$PUCSORGLEFT
 10
0.0
 20
0.0
 30
0.0
  9
$PUCSORGRIGHT
 10
0.0
 20
0.0
 30
0.0
  9
$PUCSORGFRONT
 10
0.0
 20
0.0
 30
0.0
  9
$PUCSORGBACK
 10
0.0
 20
0.0
 30
0.0
  9
$USERI1
 70
     0
  9
$USERI2
 70
     0
  9
$USERI3
 70
     0
  9
$USERI4
 70
     0
  9
$USERI5
 70
     0
  9
$USERR1
 40
0.0
  9
$USERR2
 40
0.0
  9
$USERR3
 40
0.0
  9
$USERR4
 40
0.0
  9
$USERR5
 40
0.0
  9
$WORLDVIEW
 70
     1
  9
$SHADEDGE
 70
     3
  9
$SHADEDIF
 70
    70
  9
$TILEMODE
 70
     1
  9
$MAXACTVP
 70
    64
  9
$PINSBASE
 10
0.0
 20
0.0
 30
0.0
  9
$PLIMCHECK
 70
     0
  9
$PEXTMIN
 10
1.000000000000000E+20
 20
1.000000000000000E+20
 30
1.000000000000000E+20
  9
$PEXTMAX
 10
-1.000000000000000E+20
 20
-1.000000000000000E+20
 30
-1.000000000000000E+20
  9
$PLIMMIN
 10
0.0
 20
0.0
  9
$PLIMMAX
 10
0.0
 20
0.0
  9
$UNITMODE
 70
     0
  9
$VISRETAIN
 70
     1
  9
$PLINEGEN
 70
     0
  9
$PSLTSCALE
 70
     1
  9
$TREEDEPTH
 70
  3020
  9
$CMLSTYLE
  2
Standard
  9
$CMLJUST
 70
     0
  9
$CMLSCALE
 40
20.0
  9
$PROXYGRAPHICS
 70
     1
  9
$MEASUREMENT
 70
     1
  9
$CELWEIGHT
370
    -1
  9
$ENDCAPS
280
     0
  9
$JOINSTYLE
280
     0
  9
$LWDISPLAY
290
     1
  9
$INSUNITS
 70
     4
  9
$HYPERLINKBASE
  1

  9
$STYLESHEET
  1

  9
$XEDIT
290
     1
  9
$CEPSNTYPE
380
     0
  9
$PSTYLEMODE
290
     1
  9
$FINGERPRINTGUID
  2
{B0543242-4841-4EA6-881E-243BD7D56D9A}
  9
$VERSIONGUID
  2
{FAEB1C32-E019-11D5-929B-00C0DF256EC4}
  9
$EXTNAMES
290
     1
  9
$PSVPSCALE
 40
0.0
  9
$OLESTARTUP
290
     0
  0
ENDSEC
  0
SECTION
  2
CLASSES
  0
CLASS
  1
ACDBDICTIONARYWDFLT
  2
AcDbDictionaryWithDefault
  3
ObjectDBX Classes
 90
        0
280
     0
281
     0
  0
CLASS
  1
VISUALSTYLE
  2
AcDbVisualStyle
  3
ObjectDBX Classes
 90
     4095
280
     0
281
     0
  0
CLASS
  1
MATERIAL
  2
AcDbMaterial
  3
ObjectDBX Classes
 90
     1153
280
     0
281
     0
  0
CLASS
  1
SCALE
  2
AcDbScale
  3
ObjectDBX Classes
 90
     1153
280
     0
281
     0
  0
CLASS
  1
SUN
  2
AcDbSun
  3
SCENEOE
 90
     1153
280
     0
281
     0
  0
CLASS
  1
ACDBPLACEHOLDER
  2
AcDbPlaceHolder
  3
ObjectDBX Classes
 90
        0
280
     0
281
     0
  0
CLASS
  1
LAYOUT
  2
AcDbLayout
  3
ObjectDBX Classes
 90
        0
280
     0
281
     0
  0
CLASS
  1
TABLESTYLE
  2
AcDbTableStyle
  3
ObjectDBX Classes
 90
     4095
280
     0
281
     0
  0
CLASS
  1
MLEADERSTYLE
  2
AcDbMLeaderStyle
  3
ACDB_MLEADERSTYLE_CLASS
 90
     4095
280
     0
281
     0
  0
CLASS
  1
RASTERVARIABLES
  2
AcDbRasterVariables
  3
ISM
 90
        0
280
     0
281
     0
  0
ENDSEC
  0
SECTION
  2
TABLES
  0
TABLE
  2
VPORT
  5
8
330
0
100
AcDbSymbolTable
 70
     1
  0
VPORT
  5
29
330
8
100
AcDbSymbolTableRecord
100
AcDbViewportTableRecord
  2
*Active
 70
     0
 10
0.0
 20
0.0
 11
1.0
 21
1.0
 12
-14.73115002928991
 22
-14.98901890945268
 13
0.0
 23
0.0
 14
10.0
 24
10.0
 15
10.0
 25
10.0
 16
0.0
 26
0.0
 36
1.0
 17
0.0
 27
0.0
 37
0.0
 40
179.9678588832855
 41
1.516441005802708
 42
50.0
 43
0.0
 44
0.0
 50
0.0
 51
0.0
 71
    16
 72
  2000
 73
     1
 74
     3
 75
     0
 76
     0
 77
     0
 78
     0
281
     0
 65
     1
110
0.0
120
0.0
130
0.0
111
1.0
121
0.0
131
0.0
112
0.0
122
1.0
132
0.0
 79
     0
146
0.0
  0
ENDTAB
  0
TABLE
  2
LTYPE
  5
5
330
0
100
AcDbSymbolTable
 70
     6
  0
LTYPE
  5
14
330
5
100
AcDbSymbolTableRecord
100
AcDbLinetypeTableRecord
  2
ByBlock
 70
     0
  3

 72
    65
 73
     0
 40
0.0
  0
LTYPE
  5
15
330
5
100
AcDbSymbolTableRecord
100
AcDbLinetypeTableRecord
  2
ByLayer
 70
     0
  3

 72
    65
 73
     0
 40
0.0
  0
LTYPE
  5
16
330
5
100
AcDbSymbolTableRecord
100
AcDbLinetypeTableRecord
  2
Continuous
 70
     0
  3
Solid line
 72
    65
 73
     0
 40
0.0
  0
LTYPE
  5
6A
330
5
100
AcDbSymbolTableRecord
100
AcDbLinetypeTableRecord
  2
HIDDEN
 70
     0
  3
Hidden __ __ __ __ __ __ __ __ __ __ __ __ __ __
 72
    65
 73
     2
 40
1.905
 49
1.27
 74
     0
 49
-0.635
 74
     0
  0
LTYPE
  5
6B
330
5
100
AcDbSymbolTableRecord
100
AcDbLinetypeTableRecord
  2
PHANTOM
 70
     0
  3
Phantom ______  __  __  ______  __  __  ______
 72
    65
 73
     6
 40
12.7
 49
6.35
 74
     0
 49
-1.27
 74
     0
 49
1.27
 74
     0
 49
-1.27
 74
     0
 49
1.27
 74
     0
 49
-1.27
 74
     0
  0
LTYPE
  5
6C
330
5
100
AcDbSymbolTableRecord
100
AcDbLinetypeTableRecord
  2
CENTER
 70
     0
  3
Center ____ _ ____ _ ____ _ ____ _ ____ _ ____
 72
    65
 73
     4
 40
10.16
 49
6.35
 74
     0
 49
-1.27
 74
     0
 49
1.27
 74
     0
 49
-1.27
 74
     0
  0
LTYPE
  5
6D
330
5
100
AcDbSymbolTableRecord
100
AcDbLinetypeTableRecord
  2
CENTERX2
 70
     0
  3
Center (2x) ________  __  ________  __  _____
 72
    65
 73
     4
 40
20.32
 49
12.7
 74
     0
 49
-2.54
 74
     0
 49
2.54
 74
     0
 49
-2.54
 74
     0
  0
LTYPE
  5
6E
330
5
100
AcDbSymbolTableRecord
100
AcDbLinetypeTableRecord
  2
DOT2
 70
     0
  3
Dot (.5x) ........................................
 72
    65
 73
     2
 40
0.635
 49
0.0
 74
     0
 49
-0.635
 74
     0
  0
ENDTAB
  0
TABLE
  2
LAYER
  5
2
102
{ACAD_XDICTIONARY
360
242
102
}
330
0
100
AcDbSymbolTable
 70
    18
  0
LAYER
  5
10
330
2
100
AcDbSymbolTableRecord
100
AcDbLayerTableRecord
  2
0
 70
     0
 62
     7
  6
Continuous
370
    -3
390
F
  0
LAYER
  5
6F
330
2
100
AcDbSymbolTableRecord
100
AcDbLayerTableRecord
  2
FORMAT
 70
     0
 62
     2
  6
Continuous
370
    -3
390
F
  0
LAYER
  5
70
330
2
100
AcDbSymbolTableRecord
100
AcDbLayerTableRecord
  2
외형선
 70
     0
 62
     4
  6
Continuous
370
    30
390
F
  0
LAYER
  5
71
330
2
100
AcDbSymbolTableRecord
100
AcDbLayerTableRecord
  2
숨은선
 70
     0
 62
     2
  6
HIDDEN
370
    15
390
F
  0
LAYER
  5
72
330
2
100
AcDbSymbolTableRecord
100
AcDbLayerTableRecord
  2
중심선
 70
     0
 62
     1
  6
CENTERX2
370
    -3
390
F
  0
LAYER
  5
73
330
2
100
AcDbSymbolTableRecord
100
AcDbLayerTableRecord
  2
파단선
 70
     0
 62
     4
  6
Continuous
370
    -3
390
F
  0
LAYER
  5
74
330
2
100
AcDbSymbolTableRecord
100
AcDbLayerTableRecord
  2
해칭선
 70
     0
 62
   100
  6
Continuous
370
    -3
390
F
  0
LAYER
  5
75
330
2
100
AcDbSymbolTableRecord
100
AcDbLayerTableRecord
  2
가는실선
 70
     0
 62
     4
  6
Continuous
370
    -3
390
F
  0
LAYER
  5
76
330
2
100
AcDbSymbolTableRecord
100
AcDbLayerTableRecord
  2
치수_보조선
 70
     0
 62
     4
  6
Continuous
370
    -3
390
F
  0
LAYER
  5
77
330
2
100
AcDbSymbolTableRecord
100
AcDbLayerTableRecord
  2
치수문자_일반주서
 70
     0
 62
     7
  6
Continuous
370
    15
390
F
  0
LAYER
  5
78
330
2
100
AcDbSymbolTableRecord
100
AcDbLayerTableRecord
  2
개별주서
 70
     0
 62
   100
  6
Continuous
370
    30
390
F
  0
LAYER
  5
79
330
2
100
AcDbSymbolTableRecord
100
AcDbLayerTableRecord
  2
중간선
 70
     0
 62
     2
  6
Continuous
370
    15
390
F
  0
LAYER
  5
7A
330
2
100
AcDbSymbolTableRecord
100
AcDbLayerTableRecord
  2
윤곽선
 70
     0
 62
     3
  6
Continuous
370
    40
390
F
  0
LAYER
  5
7B
330
2
100
AcDbSymbolTableRecord
100
AcDbLayerTableRecord
  2
중심마크
 70
     0
 62
   100
  6
Continuous
370
    30
390
F
  0
LAYER
  5
7C
330
2
100
AcDbSymbolTableRecord
100
AcDbLayerTableRecord
  2
가상선
 70
     0
 62
     4
  6
PHANTOM
370
    -3
390
F
  0
LAYER
  5
7D
330
2
100
AcDbSymbolTableRecord
100
AcDbLayerTableRecord
  2
특수지정선
 70
     0
 62
     5
  6
CENTERX2
370
    60
390
F
  0
LAYER
  5
7E
330
2
100
AcDbSymbolTableRecord
100
AcDbLayerTableRecord
  2
참조1
 70
     0
 62
    -4
  6
Continuous
370
    -3
390
F
  0
LAYER
  5
1EB
330
2
100
AcDbSymbolTableRecord
100
AcDbLayerTableRecord
  2
Defpoints
 70
     0
 62
     7
  6
Continuous
290
     0
370
    -3
390
F
  0
ENDTAB
  0
TABLE
  2
STYLE
  5
3
330
0
100
AcDbSymbolTable
 70
     2
  0
STYLE
  5
11
330
3
100
AcDbSymbolTableRecord
100
AcDbTextStyleTableRecord
  2
Standard
 70
     0
 40
0.0
 41
1.0
 50
0.0
 71
     0
 42
3.5
  3
txt
  4

  0
STYLE
  5
94
330
3
100
AcDbSymbolTableRecord
100
AcDbTextStyleTableRecord
  2
SLDTEXTSTYLE0
 70
     0
 40
0.0
 41
0.75
 50
0.0
 71
     0
 42
3.5
  3
TXT
  4

  0
ENDTAB
  0
TABLE
  2
VIEW
  5
6
330
0
100
AcDbSymbolTable
 70
     0
  0
ENDTAB
  0
TABLE
  2
UCS
  5
7
330
0
100
AcDbSymbolTable
 70
     0
  0
ENDTAB
  0
TABLE
  2
APPID
  5
9
330
0
100
AcDbSymbolTable
 70
     1
  0
APPID
  5
12
330
9
100
AcDbSymbolTableRecord
100
AcDbRegAppTableRecord
  2
ACAD
 70
     0
  0
ENDTAB
  0
TABLE
  2
DIMSTYLE
  5
A
330
0
100
AcDbSymbolTable
 70
     4
100
AcDbDimStyleTable
  0
DIMSTYLE
105
27
330
A
100
AcDbSymbolTableRecord
100
AcDbDimStyleTableRecord
  2
ISO-25
 70
     0
 41
2.5
 42
0.625
 43
3.75
 44
1.25
 73
     0
 74
     0
 77
     1
 78
     8
140
2.5
141
2.5
143
0.03937007874016
147
0.625
171
     3
172
     1
178
     0
271
     2
272
     2
274
     3
278
    44
283
     0
284
     8
340
11
  0
DIMSTYLE
105
16A
102
{ACAD_REACTORS
330
169
330
191
102
}
330
A
100
AcDbSymbolTableRecord
100
AcDbDimStyleTableRecord
  2
SLDDIMSTYLE0
 70
     0
 41
3.302
 44
0.0
 45
0.000000001
 73
     0
 74
     0
 77
     1
 78
    12
 79
     3
140
3.5
143
0.0393700787401575
147
0.875
148
0.000000001
170
     1
173
     1
178
     0
271
     2
272
     2
276
     2
284
    12
340
94
  0
DIMSTYLE
105
17D
102
{ACAD_REACTORS
330
17C
102
}
330
A
100
AcDbSymbolTableRecord
100
AcDbDimStyleTableRecord
  2
SLDDIMSTYLE1
 70
     0
 41
3.302
 44
0.0
 45
0.000000001
 73
     0
 74
     0
 77
     1
 78
    12
 79
     3
140
3.5
143
0.0393700787401575
147
0.875
148
0.000000001
170
     1
172
     1
173
     1
178
     0
271
     2
272
     2
276
     2
284
    12
289
     0
340
94
  0
DIMSTYLE
105
1A6
102
{ACAD_REACTORS
330
1A5
102
}
330
A
100
AcDbSymbolTableRecord
100
AcDbDimStyleTableRecord
  2
SLDDIMSTYLE2
 70
     0
 41
3.302
 44
0.0
 45
0.000000001
 73
     0
 74
     0
 77
     1
 78
     4
 79
     1
140
3.5
143
0.0393700787401575
147
0.875
148
0.000000001
170
     1
173
     1
178
     0
271
     2
272
     2
276
     2
284
    12
340
94
  0
ENDTAB
  0
TABLE
  2
BLOCK_RECORD
  5
1
330
0
100
AcDbSymbolTable
 70
     7
  0
BLOCK_RECORD
  5
1F
330
1
100
AcDbSymbolTableRecord
100
AcDbBlockTableRecord
  2
*Model_Space
340
22
  0
BLOCK_RECORD
  5
1B
330
1
100
AcDbSymbolTableRecord
100
AcDbBlockTableRecord
  2
*Paper_Space
340
1E
  0
BLOCK_RECORD
  5
23
330
1
100
AcDbSymbolTableRecord
100
AcDbBlockTableRecord
  2
*Paper_Space0
340
26
  0
BLOCK_RECORD
  5
7F
330
1
100
AcDbSymbolTableRecord
100
AcDbBlockTableRecord
  2
블럭10
340
0
102
{BLKREFS
331
161
102
}
  0
BLOCK_RECORD
  5
16B
330
1
100
AcDbSymbolTableRecord
100
AcDbBlockTableRecord
  2
_D
340
0
  0
BLOCK_RECORD
  5
17E
330
1
100
AcDbSymbolTableRecord
100
AcDbBlockTableRecord
  2
_D_1
340
0
  0
BLOCK_RECORD
  5
192
330
1
100
AcDbSymbolTableRecord
100
AcDbBlockTableRecord
  2
_D_2
340
0
  0
BLOCK_RECORD
  5
1A7
330
1
100
AcDbSymbolTableRecord
100
AcDbBlockTableRecord
  2
_D_3
340
0
  0
BLOCK_RECORD
  5
1C0
330
1
100
AcDbSymbolTableRecord
100
AcDbBlockTableRecord
  2
SW_DOWELSYMBOL_0
340
0
102
{BLKREFS
331
1C6
102
}
  0
ENDTAB
  0
ENDSEC
  0
SECTION
  2
BLOCKS
  0
BLOCK
  5
20
330
1F
100
AcDbEntity
  8
0
100
AcDbBlockBegin
  2
*Model_Space
 70
     0
 10
0.0
 20
0.0
 30
0.0
  3
*Model_Space
  1
*Model_Space
  0
ENDBLK
  5
21
330
1F
100
AcDbEntity
  8
0
100
AcDbBlockEnd
  0
BLOCK
  5
1C
330
1B
100
AcDbEntity
 67
     1
  8
0
100
AcDbBlockBegin
  2
*Paper_Space
 70
     0
 10
0.0
 20
0.0
 30
0.0
  3
*Paper_Space
  1
*Paper_Space
  0
ENDBLK
  5
1D
330
1B
100
AcDbEntity
 67
     1
  8
0
100
AcDbBlockEnd
  0
BLOCK
  5
24
330
23
100
AcDbEntity
  8
0
100
AcDbBlockBegin
  2
*Paper_Space0
 70
     0
 10
0.0
 20
0.0
 30
0.0
  3
*Paper_Space0
  1
*Paper_Space0
  0
ENDBLK
  5
25
330
23
100
AcDbEntity
  8
0
100
AcDbBlockEnd
  0
BLOCK
  5
80
330
7F
100
AcDbEntity
  8
0
100
AcDbBlockBegin
  2
블럭10
 70
     2
 10
0.0
 20
0.0
 30
0.0
  3
블럭10
  1
블럭10
  0
ELLIPSE
  5
82
330
7F
100
AcDbEntity
  8
중심선
100
AcDbEllipse
 10
20.54032771741204
 20
12.0471743016438
 30
0.0
 11
6.600054785286829
 21
-1.261213355974178E-13
 31
0.0
210
0.0
220
0.0
230
1.0
 40
0.636358354079598
 41
0.9219305317359503
 42
6.513795318482858
  0
ELLIPSE
  5
83
330
7F
100
AcDbEntity
  8
중심선
100
AcDbEllipse
 10
20.54032771746488
 20
12.04717430159265
 30
0.0
 11
3.960054785062283
 21
1.540847449632565E-10
 31
0.0
210
0.0
220
0.0
230
1.0
 40
0.3939339440162632
 41
1.131841032648279
 42
5.62031148352944
  0
LINE
  5
84
330
7F
100
AcDbEntity
  8
중심선
100
AcDbLine
 10
2.268634060543552
 20
16.24717430164393
 30
0.0
 11
5.714909304380834
 21
16.24717430164393
 31
0.0
  0
LINE
  5
85
330
7F
100
AcDbEntity
  8
중심선
100
AcDbLine
 10
5.245725140726316
 20
7.84717430164391
 30
0.0
 11
8.692000384563599
 21
7.84717430164391
 31
0.0
  0
LINE
  5
86
330
7F
100
AcDbEntity
  8
중심선
100
AcDbLine
 10
15.74043728645272
 20
16.24717430164393
 30
0.0
 11
8.692000384563599
 21
7.84717430164391
 31
0.0
  0
LINE
  5
87
330
7F
100
AcDbEntity
  8
중심선
100
AcDbLine
 10
0.1404042013395286
 20
13.71084872107135
 30
0.0
 11
3.58671253028996
 21
13.71088815037384
 31
0.0
  0
LINE
  5
88
330
7F
100
AcDbEntity
  8
중심선
100
AcDbLine
 10
2.750260043222114
 20
10.84717430164391
 30
0.0
 11
6.196535287059397
 21
10.84717430164391
 31
0.0
  0
LINE
  5
89
330
7F
100
AcDbEntity
  8
중심선
100
AcDbLine
 10
12.29416204261559
 20
16.24717430164393
 30
0.0
 11
5.245725140726316
 21
7.84717430164391
 31
0.0
  0
LINE
  5
8A
330
7F
100
AcDbEntity
  8
중심선
100
AcDbLine
 10
10.72767329541681
 20
16.24717430164393
 30
0.0
 11
6.196535287059397
 21
10.84717430164391
 31
0.0
  0
LINE
  5
8B
330
7F
100
AcDbEntity
  8
중심선
100
AcDbLine
 10
7.28139805157953
 20
16.24717430164393
 30
0.0
 11
2.750260043222114
 21
10.84717430164391
 31
0.0
  0
LINE
  5
8C
330
7F
100
AcDbEntity
  8
중심선
100
AcDbLine
 10
5.714909304380834
 20
16.24717430164393
 30
0.0
 11
3.58671253028996
 21
13.71088815037384
 31
0.0
  0
LINE
  5
8D
330
7F
100
AcDbEntity
  8
중심선
100
AcDbLine
 10
2.268634060543552
 20
16.24717430164393
 30
0.0
 11
0.1404042013395286
 21
13.71084872107135
 31
0.0
  0
LINE
  5
8E
330
7F
100
AcDbEntity
  8
중심선
100
AcDbLine
 10
7.28139805157953
 20
16.24717430164393
 30
0.0
 11
10.72767329541681
 21
16.24717430164393
 31
0.0
  0
LINE
  5
8F
330
7F
100
AcDbEntity
  8
중심선
100
AcDbLine
 10
12.29416204261559
 20
16.24717430164393
 30
0.0
 11
15.74043728645272
 21
16.24717430164393
 31
0.0
  0
LINE
  5
90
330
7F
100
AcDbEntity
  8
중심선
100
AcDbLine
 10
19.22036997980202
 20
11.08717430171403
 30
0.0
 11
23.66174974927406
 21
11.08717430171406
 31
0.0
  0
LINE
  5
91
330
7F
100
AcDbEntity
  8
중심선
100
AcDbLine
 10
19.22039502424796
 20
13.00717430171391
 30
0.0
 11
19.22036997980202
 21
11.08717430171403
 31
0.0
  0
LINE
  5
92
330
7F
100
AcDbEntity
  8
중심선
100
AcDbLine
 10
19.22039502424796
 20
13.00717430171391
 30
0.0
 11
26.96566020931264
 21
13.00717430171391
 31
0.0
  0
LINE
  5
93
330
7F
100
AcDbEntity
  8
중심선
100
AcDbLine
 10
22.22332737316547
 20
13.45928029700563
 30
0.0
 11
24.52862924686651
 21
15.39360700705356
 31
0.0
  0
ATTDEF
  5
95
330
7F
100
AcDbEntity
  8
FORMAT
 62
     2
100
AcDbText
 10
-9.522313950597932
 20
2.075366912832191
 30
0.0
 40
4.233333333333333
  1
EH094024 [ 3 FLUTE ]
 41
0.75
  7
SLDTEXTSTYLE0
 11
-9.522313950597932
 21
-0.0412997538344756
 31
0.0
100
AcDbAttributeDefinition
  3

  2
AUTOATTR0
 70
     0
 74
     1
  0
ENDBLK
  5
81
330
7F
100
AcDbEntity
  8
0
100
AcDbBlockEnd
  0
BLOCK
  5
16C
330
16B
100
AcDbEntity
  8
0
100
AcDbBlockBegin
  2
_D
 70
     0
 10
0.0
 20
0.0
 30
0.0
  3
_D
  1
_D
  0
LINE
  5
16E
330
16B
100
AcDbEntity
  8
치수문자_일반주서
 62
     0
370
    -2
100
AcDbLine
 10
37.46236329944128
 20
12.69993164972064
 30
0.0
 11
57.29005416438087
 21
12.69993164972071
 31
0.0
  0
LINE
  5
16F
330
16B
100
AcDbEntity
  8
치수문자_일반주서
 62
     0
370
    -2
100
AcDbLine
 10
37.46236329944128
 20
-12.69993164972064
 30
0.0
 11
57.29005416438095
 21
-12.69993164972057
 31
0.0
  0
LINE
  5
170
330
16B
100
AcDbEntity
  8
치수문자_일반주서
 62
     0
370
    -2
100
AcDbLine
 10
57.29005416438087
 20
12.69993164972071
 30
0.0
 11
57.29005416438076
 21
45.53997572899528
 31
0.0
  0
LINE
  5
171
330
16B
100
AcDbEntity
  8
치수문자_일반주서
 62
     0
370
    -2
100
AcDbLine
 10
57.29005416438088
 20
9.397931649720714
 30
0.0
 11
57.29005416438094
 21
-9.397931649720569
 31
0.0
  0
SOLID
  5
172
330
16B
100
AcDbEntity
  8
치수문자_일반주서
 62
     0
100
AcDbTrace
 10
57.84038749771422
 20
9.397931649720716
 30
0.0
 11
56.73972083104755
 21
9.397931649720713
 31
0.0
 12
57.29005416438087
 22
12.69993164972071
 32
0.0
 13
57.29005416438087
 23
12.69993164972071
 33
0.0
  0
SOLID
  5
173
330
16B
100
AcDbEntity
  8
치수문자_일반주서
 62
     0
100
AcDbTrace
 10
56.73972083104761
 20
-9.39793164972057
 30
0.0
 11
57.84038749771427
 21
-9.397931649720567
 31
0.0
 12
57.29005416438095
 22
-12.69993164972057
 32
0.0
 13
57.29005416438095
 23
-12.69993164972057
 33
0.0
  0
MTEXT
  5
174
330
16B
100
AcDbEntity
  8
치수문자_일반주서
 62
     0
100
AcDbMText
 10
52.91505416438079
 20
35.47747572899527
 30
0.0
 40
3.5
 41
0.0
 71
     2
 72
     1
  1
\A1;%%c25.4 [1]
  7
SLDTEXTSTYLE0
 11
-3.356912881223562E-15
 21
1.0
 31
0.0
 73
     1
 44
1.0
  0
POINT
  5
175
330
16B
100
AcDbEntity
  8
Defpoints
 62
     0
100
AcDbPoint
 10
37.39986329944128
 20
12.69993164972064
 30
0.0
  0
POINT
  5
176
330
16B
100
AcDbEntity
  8
Defpoints
 62
     0
100
AcDbPoint
 10
37.39986329944128
 20
-12.69993164972064
 30
0.0
  0
POINT
  5
33C
330
16B
100
AcDbEntity
  8
Defpoints
 62
     0
100
AcDbPoint
 10
57.29005416438095
 20
-12.69993164972056
 30
0.0
  0
ENDBLK
  5
16D
330
16B
100
AcDbEntity
  8
0
100
AcDbBlockEnd
  0
BLOCK
  5
17F
330
17E
100
AcDbEntity
  8
0
100
AcDbBlockBegin
  2
_D_1
 70
     0
 10
0.0
 20
0.0
 30
0.0
  3
_D_1
  1
_D_1
  0
LINE
  5
181
330
17E
100
AcDbEntity
  8
치수문자_일반주서
 62
     0
370
    -2
100
AcDbLine
 10
-48.83348438565667
 20
12.69993164972064
 30
0.0
 11
-77.59749590974715
 21
12.69993164972053
 31
0.0
  0
LINE
  5
182
330
17E
100
AcDbEntity
  8
치수문자_일반주서
 62
     0
370
    -2
100
AcDbLine
 10
-48.83348438565667
 20
-12.69993164972066
 30
0.0
 11
-77.59749590974707
 21
-12.69993164972077
 31
0.0
  0
LINE
  5
183
330
17E
100
AcDbEntity
  8
치수문자_일반주서
 62
     0
370
    -2
100
AcDbLine
 10
-77.59749590974714
 20
9.39793164972053
 30
0.0
 11
-77.59749590974708
 21
-9.397931649720771
 31
0.0
  0
SOLID
  5
184
330
17E
100
AcDbEntity
  8
치수문자_일반주서
 62
     0
100
AcDbTrace
 10
-77.04716257641381
 20
9.397931649720531
 30
0.0
 11
-78.14782924308047
 21
9.397931649720528
 31
0.0
 12
-77.59749590974715
 22
12.69993164972053
 32
0.0
 13
-77.59749590974715
 23
12.69993164972053
 33
0.0
  0
SOLID
  5
185
330
17E
100
AcDbEntity
  8
치수문자_일반주서
 62
     0
100
AcDbTrace
 10
-78.14782924308041
 20
-9.397931649720773
 30
0.0
 11
-77.04716257641375
 21
-9.39793164972077
 31
0.0
 12
-77.59749590974707
 22
-12.69993164972077
 32
0.0
 13
-77.59749590974707
 23
-12.69993164972077
 33
0.0
  0
MTEXT
  5
186
330
17E
100
AcDbEntity
  8
치수문자_일반주서
 62
     0
100
AcDbMText
 10
-81.97249590974711
 20
-2.034677744726233
 30
0.0
 40
3.5
 41
0.0
 71
     2
 72
     1
  1
\A1;%%c25.4 [1]
  7
SLDTEXTSTYLE0
 11
-3.356912881223559E-15
 21
1.0
 31
0.0
 73
     1
 44
1.0
  0
POINT
  5
187
330
17E
100
AcDbEntity
  8
Defpoints
 62
     0
100
AcDbPoint
 10
-48.77098438565667
 20
12.69993164972064
 30
0.0
  0
POINT
  5
188
330
17E
100
AcDbEntity
  8
Defpoints
 62
     0
100
AcDbPoint
 10
-48.77098438565667
 20
-12.69993164972066
 30
0.0
  0
POINT
  5
189
330
17E
100
AcDbEntity
  8
Defpoints
 62
     0
100
AcDbPoint
 10
-77.59749590974707
 20
-12.69993164972077
 30
0.0
  0
ENDBLK
  5
180
330
17E
100
AcDbEntity
  8
0
100
AcDbBlockEnd
  0
BLOCK
  5
193
330
192
100
AcDbEntity
  8
0
100
AcDbBlockBegin
  2
_D_2
 70
     0
 10
0.0
 20
0.0
 30
0.0
  3
_D_2
  1
_D_2
  0
LINE
  5
195
330
192
100
AcDbEntity
  8
치수문자_일반주서
 62
     0
370
    -2
100
AcDbLine
 10
37.39986329944128
 20
8.285756093301117
 30
0.0
 11
37.39986329944128
 21
30.81815537615473
 31
0.0
  0
LINE
  5
196
330
192
100
AcDbEntity
  8
치수문자_일반주서
 62
     0
370
    -2
100
AcDbLine
 10
12.0
 20
12.76243164972064
 30
0.0
 11
12.0
 21
30.81815537615473
 31
0.0
  0
LINE
  5
197
330
192
100
AcDbEntity
  8
치수문자_일반주서
 62
     0
370
    -2
100
AcDbLine
 10
34.09786329944128
 20
30.81815537615473
 30
0.0
 11
15.302
 21
30.81815537615473
 31
0.0
  0
SOLID
  5
198
330
192
100
AcDbEntity
  8
치수문자_일반주서
 62
     0
100
AcDbTrace
 10
34.09786329944128
 20
30.26782204282139
 30
0.0
 11
34.09786329944128
 21
31.36848870948806
 31
0.0
 12
37.39986329944128
 22
30.81815537615473
 32
0.0
 13
37.39986329944128
 23
30.81815537615473
 33
0.0
  0
SOLID
  5
199
330
192
100
AcDbEntity
  8
치수문자_일반주서
 62
     0
100
AcDbTrace
 10
15.302
 20
31.36848870948806
 30
0.0
 11
15.302
 21
30.26782204282139
 31
0.0
 12
12.0
 22
30.81815537615473
 32
0.0
 13
12.0
 23
30.81815537615473
 33
0.0
  0
MTEXT
  5
19A
330
192
100
AcDbEntity
  8
치수문자_일반주서
 62
     0
100
AcDbMText
 10
24.69993164972064
 20
35.19315537615473
 30
0.0
 40
3.5
 41
0.0
 71
     2
 72
     1
  1
\A1;25.4 [1]
  7
SLDTEXTSTYLE0
 73
     1
 44
1.0
  0
POINT
  5
19B
330
192
100
AcDbEntity
  8
Defpoints
 62
     0
100
AcDbPoint
 10
37.39986329944128
 20
8.223256093301117
 30
0.0
  0
POINT
  5
19C
330
192
100
AcDbEntity
  8
Defpoints
 62
     0
100
AcDbPoint
 10
12.0
 20
12.69993164972064
 30
0.0
  0
POINT
  5
19D
330
192
100
AcDbEntity
  8
Defpoints
 62
     0
100
AcDbPoint
 10
12.0
 20
30.81815537615473
 30
0.0
  0
ENDBLK
  5
194
330
192
100
AcDbEntity
  8
0
100
AcDbBlockEnd
  0
BLOCK
  5
1A8
330
1A7
100
AcDbEntity
  8
0
100
AcDbBlockBegin
  2
_D_3
 70
     0
 10
0.0
 20
0.0
 30
0.0
  3
_D_3
  1
_D_3
  0
LINE
  5
1AA
330
1A7
100
AcDbEntity
  8
치수문자_일반주서
 62
     0
370
    -2
100
AcDbLine
 10
37.39986329944128
 20
9.735154814275393
 30
0.0
 11
37.39986329944128
 21
50.86739583758197
 31
0.0
  0
LINE
  5
1AB
330
1A7
100
AcDbEntity
  8
치수문자_일반주서
 62
     0
370
    -2
100
AcDbLine
 10
-51.50013670055873
 20
10.09577933481866
 30
0.0
 11
-51.50013670055874
 21
50.86739583758197
 31
0.0
  0
LINE
  5
1AC
330
1A7
100
AcDbEntity
  8
치수문자_일반주서
 62
     0
370
    -2
100
AcDbLine
 10
34.09786329944128
 20
50.86739583758197
 30
0.0
 11
-48.19813670055874
 21
50.86739583758197
 31
0.0
  0
SOLID
  5
1AD
330
1A7
100
AcDbEntity
  8
치수문자_일반주서
 62
     0
100
AcDbTrace
 10
34.09786329944128
 20
50.31706250424864
 30
0.0
 11
34.09786329944128
 21
51.41772917091531
 31
0.0
 12
37.39986329944128
 22
50.86739583758197
 32
0.0
 13
37.39986329944128
 23
50.86739583758197
 33
0.0
  0
SOLID
  5
1AE
330
1A7
100
AcDbEntity
  8
치수문자_일반주서
 62
     0
100
AcDbTrace
 10
-48.19813670055874
 20
51.41772917091531
 30
0.0
 11
-48.19813670055874
 21
50.31706250424864
 31
0.0
 12
-51.50013670055874
 22
50.86739583758197
 32
0.0
 13
-51.50013670055874
 23
50.86739583758197
 33
0.0
  0
MTEXT
  5
1AF
330
1A7
100
AcDbEntity
  8
치수문자_일반주서
 62
     0
100
AcDbMText
 10
-11.28320802448782
 20
55.24239583758197
 30
0.0
 40
3.5
 41
0.0
 71
     2
 72
     1
  1
\A1;88.90 [3 1/2]
  7
SLDTEXTSTYLE0
 73
     1
 44
1.0
  0
POINT
  5
1B0
330
1A7
100
AcDbEntity
  8
Defpoints
 62
     0
100
AcDbPoint
 10
37.39986329944128
 20
9.672654814275393
 30
0.0
  0
POINT
  5
1B1
330
1A7
100
AcDbEntity
  8
Defpoints
 62
     0
100
AcDbPoint
 10
-51.50013670055873
 20
10.03327933481866
 30
0.0
  0
POINT
  5
1B2
330
1A7
100
AcDbEntity
  8
Defpoints
 62
     0
100
AcDbPoint
 10
-51.50013670055873
 20
50.86739583758197
 30
0.0
  0
ENDBLK
  5
1A9
330
1A7
100
AcDbEntity
  8
0
100
AcDbBlockEnd
  0
BLOCK
  5
1C1
330
1C0
100
AcDbEntity
  8
0
100
AcDbBlockBegin
  2
SW_DOWELSYMBOL_0
 70
     0
 10
0.0
 20
0.0
 30
0.0
  3
SW_DOWELSYMBOL_0
  1
SW_DOWELSYMBOL_0
  0
CIRCLE
  5
1C3
330
1C0
100
AcDbEntity
  8
해칭선
 62
     0
100
AcDbCircle
 10
0.0
 20
0.0
 30
0.0
 40
3.000000000000004
  0
HATCH
  5
1C4
330
1C0
100
AcDbEntity
  8
0
  6
Continuous
 62
     0
370
     0
100
AcDbHatch
 10
0.0
 20
0.0
 30
0.0
210
0.0
220
0.0
230
1.0
  2
SOLID
 70
     1
 71
     0
 91
        1
 92
        0
 93
        3
 72
     2
 10
0.0000000000000104
 20
-0.0000000000000035
 40
3.000000000000004
 50
0.0
 51
90.0
 73
     1
 72
     1
 10
0.0000000000000104
 20
3.000000000000001
 11
0.0000000000000104
 21
-0.0000000000000036
 72
     1
 10
0.0000000000000104
 20
-0.0000000000000035
 11
3.000000000000015
 21
-0.0000000000000035
 97
        0
 75
     0
 76
     1
 98
        1
 10
0.0
 20
0.0
  0
HATCH
  5
1C5
330
1C0
100
AcDbEntity
  8
0
  6
Continuous
 62
     0
370
     0
100
AcDbHatch
 10
0.0
 20
0.0
 30
0.0
210
0.0
220
0.0
230
1.0
  2
SOLID
 70
     1
 71
     0
 91
        1
 92
        0
 93
        3
 72
     2
 10
0.0000000000000104
 20
-0.0000000000000035
 40
3.000000000000004
 50
180.0
 51
270.0000000000007
 73
     1
 72
     1
 10
0.0000000000000104
 20
-3.000000000000008
 11
0.0000000000000104
 21
-0.0000000000000036
 72
     1
 10
0.0000000000000104
 20
-0.0000000000000035
 11
-2.999999999999994
 21
-0.0000000000000035
 97
        0
 75
     0
 76
     1
 98
        1
 10
0.0
 20
0.0
  0
ENDBLK
  5
1C2
330
1C0
100
AcDbEntity
  8
0
100
AcDbBlockEnd
  0
ENDSEC
  0
SECTION
  2
ENTITIES
  0
LINE
  5
96
330
1F
100
AcDbEntity
  8
외형선
  6
Continuous
370
    15
100
AcDbLine
 10
12.0
 20
12.69993164972063
 30
0.0
 11
-14.07013005083807
 21
12.69993164972063
 31
0.0
  0
LINE
  5
97
330
1F
100
AcDbEntity
  8
외형선
  6
Continuous
370
    15
100
AcDbLine
 10
-48.83348438565667
 20
-12.69993164972066
 30
0.0
 11
11.99999999999999
 21
-12.69993164972065
 31
0.0
  0
LINE
  5
99
330
1F
100
AcDbEntity
  8
외형선
  6
Continuous
370
    15
100
AcDbLine
 10
-51.50013670055873
 20
-10.03327933481868
 30
0.0
 11
-48.83348438565668
 21
-12.69993164972066
 31
0.0
  0
LINE
  5
9A
330
1F
100
AcDbEntity
  8
외형선
  6
Continuous
 62
     1
370
    15
100
AcDbLine
 10
27.79406586852341
 20
-1.888574300925982
 30
0.0
 11
27.47887760064095
 21
-1.710333392637478
 31
0.0
  0
SPLINE
  5
9D
330
1F
100
AcDbEntity
  8
외형선
  6
Continuous
 62
     1
370
    15
100
AcDbSpline
210
0.0
220
0.0
230
1.0
 70
     8
 71
     3
 72
    11
 73
     7
 74
     0
 42
0.000000001
 43
0.00000001
 40
0.0
 40
0.0
 40
0.0
 40
0.0
 40
0.2440153330753486
 40
0.4999875730589091
 40
0.755964630627739
 40
1.0
 40
1.0
 40
1.0
 40
1.0
 10
12.54768898921605
 20
-12.54963486503034
 30
0.0
 10
12.66532886916186
 20
-12.46962563415759
 30
0.0
 10
12.90637305817966
 20
-12.30568666908436
 30
0.0
 10
13.35006126378187
 20
-12.22762677030967
 30
0.0
 10
13.7937451544786
 20
-12.28839667961692
 30
0.0
 10
14.03474170275015
 20
-12.4394133136728
 30
0.0
 10
14.15236214277535
 20
-12.51311828196456
 30
0.0
  0
SPLINE
  5
9F
330
1F
100
AcDbEntity
  8
외형선
  6
Continuous
 62
     1
370
    15
100
AcDbSpline
210
0.0
220
0.0
230
1.0
 70
     8
 71
     3
 72
     9
 73
     5
 74
     0
 42
0.000000001
 43
0.00000001
 40
0.0
 40
0.0
 40
0.0
 40
0.0
 40
0.4985554915106001
 40
1.0
 40
1.0
 40
1.0
 40
1.0
 10
14.17879361066863
 20
-12.53968192502816
 30
0.0
 10
14.24893246823311
 20
-12.58573118855265
 30
0.0
 10
14.38961662227167
 20
-12.67809656073008
 30
0.0
 10
14.55276773257143
 20
-12.69262167260125
 30
0.0
 10
14.63457896088518
 20
-12.69990521018423
 30
0.0
  0
LINE
  5
A0
330
1F
100
AcDbEntity
  8
외형선
  6
Continuous
 62
     1
370
    15
100
AcDbLine
 10
14.63591550554376
 20
-12.69993164972066
 30
0.0
 11
17.49955572983667
 21
-12.69993164972066
 31
0.0
  0
SPLINE
  5
A3
330
1F
100
AcDbEntity
  8
외형선
  6
Continuous
 62
     1
370
    15
100
AcDbSpline
210
0.0
220
0.0
230
1.0
 70
     8
 71
     3
 72
     9
 73
     5
 74
     0
 42
0.000000001
 43
0.00000001
 40
0.0
 40
0.0
 40
0.0
 40
0.0
 40
0.5021232391725741
 40
1.0
 40
1.0
 40
1.0
 40
1.0
 10
17.50016085528235
 20
-12.69993164088559
 30
0.0
 10
17.58211293556012
 20
-12.69285883041506
 30
0.0
 10
17.7453240237639
 20
-12.67877302454361
 30
0.0
 10
17.88644500612763
 20
-12.58623417831727
 30
0.0
 10
17.95670586371164
 20
-12.5401612373074
 30
0.0
  0
SPLINE
  5
A4
330
1F
100
AcDbEntity
  8
외형선
  6
Continuous
 62
     1
370
    15
100
AcDbSpline
210
0.0
220
0.0
230
1.0
 70
     8
 71
     3
 72
    11
 73
     7
 74
     0
 42
0.000000001
 43
0.00000001
 40
0.0
 40
0.0
 40
0.0
 40
0.0
 40
0.2080640419484749
 40
0.446966460370972
 40
0.7138447390245498
 40
0.9999999999999999
 40
0.9999999999999999
 40
0.9999999999999999
 40
0.9999999999999999
 10
17.96506212569449
 20
-12.53299604721212
 30
0.0
 10
18.05264459094374
 20
-12.47495892483081
 30
0.0
 10
18.2407906257724
 20
-12.35028266208996
 30
0.0
 10
18.63783646023547
 20
-12.25348819886074
 30
0.0
 10
19.10880891653064
 20
-12.29048246102439
 30
0.0
 10
19.37316951661236
 20
-12.45357790849527
 30
0.0
 10
19.50995719961393
 20
-12.53796812534585
 30
0.0
  0
SPLINE
  5
A5
330
1F
100
AcDbEntity
  8
외형선
  6
Continuous
 62
     1
370
    15
100
AcDbSpline
210
0.0
220
0.0
230
1.0
 70
     8
 71
     3
 72
     9
 73
     5
 74
     0
 42
0.000000001
 43
0.00000001
 40
0.0
 40
0.0
 40
0.0
 40
0.0
 40
0.4985633009861354
 40
1.0
 40
1.0
 40
1.0
 40
1.0
 10
19.51206855060452
 20
-12.53965868886201
 30
0.0
 10
19.58250823771012
 20
-12.58589063614368
 30
0.0
 10
19.72379358094786
 20
-12.67862098189962
 30
0.0
 10
19.8875389492037
 20
-12.69281449707602
 30
0.0
 10
19.96964688614069
 20
-12.69993164647348
 30
0.0
  0
LINE
  5
A6
330
1F
100
AcDbEntity
  8
외형선
  6
Continuous
 62
     1
370
    15
100
AcDbLine
 10
19.96961675987075
 20
-12.69993164972066
 30
0.0
 11
22.83316708062698
 21
-12.69993164972066
 31
0.0
  0
SPLINE
  5
A7
330
1F
100
AcDbEntity
  8
외형선
  6
Continuous
 62
     1
370
    15
100
AcDbSpline
210
0.0
220
0.0
230
1.0
 70
     8
 71
     3
 72
     9
 73
     5
 74
     0
 42
0.000000001
 43
0.00000001
 40
0.0
 40
0.0
 40
0.0
 40
0.0
 40
0.5021231499981732
 40
1.0
 40
1.0
 40
1.0
 40
1.0
 10
22.83348281863639
 20
-12.69993162866402
 30
0.0
 10
22.91543382185783
 20
-12.6928567534642
 30
0.0
 10
23.07864279404276
 20
-12.67876683309339
 30
0.0
 10
23.21976157895099
 20
-12.58622644353033
 30
0.0
 10
23.29002135505721
 20
-12.54015272587674
 30
0.0
  0
SPLINE
  5
A8
330
1F
100
AcDbEntity
  8
외형선
  6
Continuous
 62
     1
370
    15
100
AcDbSpline
210
0.0
220
0.0
230
1.0
 70
     8
 71
     3
 72
    11
 73
     7
 74
     0
 42
0.000000001
 43
0.00000001
 40
0.0
 40
0.0
 40
0.0
 40
0.0
 40
0.2450438954141269
 40
0.4998942731562089
 40
0.7547909839897298
 40
0.9999999999999999
 40
0.9999999999999999
 40
0.9999999999999999
 40
0.9999999999999999
 10
23.28038936866642
 20
-12.54688414271249
 30
0.0
 10
23.39583435319217
 20
-12.47176162339308
 30
0.0
 10
23.6313443483769
 20
-12.31851023498621
 30
0.0
 10
24.07153671432584
 20
-12.24960842064185
 30
0.0
 10
24.51171007707809
 20
-12.32030591892513
 30
0.0
 10
24.74697477926829
 20
-12.47476673424134
 30
0.0
 10
24.86232843956346
 20
-12.55050108900441
 30
0.0
  0
SPLINE
  5
A9
330
1F
100
AcDbEntity
  8
외형선
  6
Continuous
 62
     1
370
    15
100
AcDbSpline
210
0.0
220
0.0
230
1.0
 70
     8
 71
     3
 72
     9
 73
     5
 74
     0
 42
0.000000001
 43
0.00000001
 40
0.0
 40
0.0
 40
0.0
 40
0.0
 40
0.4985883877980591
 40
1.0
 40
1.0
 40
1.0
 40
1.0
 10
24.85372988596498
 20
-12.54561087550119
 30
0.0
 10
24.92198040896306
 20
-12.58972414869229
 30
0.0
 10
25.05886791911848
 20
-12.67820048362243
 30
0.0
 10
25.21832510800007
 20
-12.69254898948659
 30
0.0
 10
25.29827879415436
 20
-12.69974349694462
 30
0.0
  0
LINE
  5
AA
330
1F
100
AcDbEntity
  8
외형선
  6
Continuous
 62
     1
370
    15
100
AcDbLine
 10
25.30274211027191
 20
-12.69993164972066
 30
0.0
 11
27.26104093365452
 21
-12.69993164972066
 31
0.0
  0
LINE
  5
AB
330
1F
100
AcDbEntity
  8
외형선
  6
Continuous
 62
     1
370
    15
100
AcDbLine
 10
37.39986329944128
 20
9.766614103328454
 30
0.0
 11
35.64053996346615
 21
11.52593743930357
 31
0.0
  0
LINE
  5
B4
330
1F
100
AcDbEntity
  8
외형선
  6
Continuous
370
    15
100
AcDbLine
 10
-48.83348438565668
 20
10.79499999999999
 30
0.0
 11
-48.83348438565668
 21
-12.69993164972063
 31
0.0
  0
LINE
  5
B6
330
1F
100
AcDbEntity
  8
외형선
  6
Continuous
370
    15
100
AcDbLine
 10
-51.50013670055873
 20
10.79499999999999
 30
0.0
 11
-51.50013670055873
 21
-10.03327933481868
 31
0.0
  0
SPLINE
  5
B7
330
1F
100
AcDbEntity
  8
외형선
  6
Continuous
 62
     1
370
    15
100
AcDbSpline
210
0.0
220
0.0
230
1.0
 70
     8
 71
     3
 72
     8
 73
     4
 74
     0
 42
0.000000001
 43
0.00000001
 40
0.0
 40
0.0
 40
0.0
 40
0.0
 40
1.0
 40
1.0
 40
1.0
 40
1.0
 10
34.04046200807495
 20
2.701276193062856
 30
0.0
 10
34.16555125644992
 20
2.639065676768881
 30
0.0
 10
34.31570668417135
 20
2.558197667171931
 30
0.0
 10
34.4695887091808
 20
2.471215631558824
 30
0.0
  0
SPLINE
  5
B8
330
1F
100
AcDbEntity
  8
외형선
  6
Continuous
 62
     1
370
    15
100
AcDbSpline
210
0.0
220
0.0
230
1.0
 70
     8
 71
     3
 72
    12
 73
     8
 74
     0
 42
0.000000001
 43
0.00000001
 40
0.0
 40
0.0
 40
0.0
 40
0.0
 40
0.2499999999999999
 40
0.2499999999999999
 40
0.4999999999999998
 40
0.4999999999999998
 40
1.0
 40
1.0
 40
1.0
 40
1.0
 10
34.46655215373045
 20
2.472934639632494
 30
0.0
 10
34.46674932702975
 20
1.798228208350359
 30
0.0
 10
34.47119743070597
 20
1.112131388855791
 30
0.0
 10
34.48577822318342
 20
-0.2488104511179563
 30
0.0
 10
34.49599548067476
 20
-0.9272774168853966
 30
0.0
 10
34.53395813422444
 20
-2.956662931293118
 30
0.0
 10
34.56884174122457
 20
-4.282923174665672
 30
0.0
 10
34.60876720984385
 20
-5.500974135651992
 30
0.0
  0
SPLINE
  5
B9
330
1F
100
AcDbEntity
  8
외형선
  6
Continuous
 62
     1
370
    15
100
AcDbSpline
210
0.0
220
0.0
230
1.0
 70
     8
 71
     3
 72
    12
 73
     8
 74
     0
 42
0.000000001
 43
0.00000001
 40
0.0
 40
0.0
 40
0.0
 40
0.0
 40
0.5
 40
0.5
 40
0.75
 40
0.75
 40
1.0
 40
1.0
 40
1.0
 40
1.0
 10
34.61198277252023
 20
-5.544712731542315
 30
0.0
 10
34.51991575520378
 20
-4.292891404820796
 30
0.0
 10
34.42103815651235
 20
-2.905203020303695
 30
0.0
 10
34.27464831869872
 20
-0.7867830523824707
 30
0.0
 10
34.22620512363941
 20
-0.0751784721317585
 30
0.0
 10
34.1320369242362
 20
1.32867463707644
 30
0.0
 10
34.08733937666423
 20
2.015923279858818
 30
0.0
 10
34.04046200807454
 20
2.701276193057024
 30
0.0
  0
SPLINE
  5
BA
330
1F
100
AcDbEntity
  8
외형선
  6
Continuous
 62
     1
370
    15
100
AcDbSpline
210
0.0
220
0.0
230
1.0
 70
     8
 71
     3
 72
    10
 73
     6
 74
     0
 42
0.000000001
 43
0.00000001
 40
0.0
 40
0.0
 40
0.0
 40
0.0
 40
0.5
 40
0.5
 40
1.0
 40
1.0
 40
1.0
 40
1.0
 10
34.4667705851671
 20
2.47279257102799
 30
0.0
 10
34.9433460233824
 20
2.169526584819334
 30
0.0
 10
35.42375545150644
 20
1.919716523834999
 30
0.0
 10
36.39977495270126
 20
1.538842457215768
 30
0.0
 10
36.89886625410522
 20
1.406931757338375
 30
0.0
 10
37.39986329944128
 20
1.351480627759529
 30
0.0
  0
LINE
  5
BB
330
1F
100
AcDbEntity
  8
외형선
  6
Continuous
 62
     1
370
    15
100
AcDbLine
 10
37.39986329944128
 20
1.35148062775957
 30
0.0
 11
37.39986329944128
 21
-6.006743963500059
 31
0.0
  0
SPLINE
  5
BC
330
1F
100
AcDbEntity
  8
외형선
  6
Continuous
 62
     1
370
    15
100
AcDbSpline
210
0.0
220
0.0
230
1.0
 70
     8
 71
     3
 72
     8
 73
     4
 74
     0
 42
0.000000001
 43
0.00000001
 40
0.0
 40
0.0
 40
0.0
 40
0.0
 40
1.0
 40
1.0
 40
1.0
 40
1.0
 10
37.39986329944128
 20
-6.006743963500059
 30
0.0
 10
36.50428861050509
 20
-5.908081795437405
 30
0.0
 10
35.56624454968841
 20
-5.766977364239759
 30
0.0
 10
34.61153888033963
 20
-5.585615071674463
 30
0.0
  0
SPLINE
  5
BD
330
1F
100
AcDbEntity
  8
외형선
  6
Continuous
 62
     1
370
    15
100
AcDbSpline
210
0.0
220
0.0
230
1.0
 70
     8
 71
     3
 72
    10
 73
     6
 74
     0
 42
0.000000001
 43
0.00000001
 40
0.0
 40
0.0
 40
0.0
 40
0.0
 40
0.5
 40
0.5
 40
1.0
 40
1.0
 40
1.0
 40
1.0
 10
34.61519472920357
 20
-5.588368145271732
 30
0.0
 10
34.35462268756626
 20
-5.391874674245195
 30
0.0
 10
34.04564527379883
 20
-5.214210265871315
 30
0.0
 10
33.44092804583519
 20
-4.90916470252361
 30
0.0
 10
33.14891118336901
 20
-4.782831043616151
 30
0.0
 10
32.90381935190152
 20
-4.697809900756665
 30
0.0
  0
SPLINE
  5
BE
330
1F
100
AcDbEntity
  8
외형선
  6
Continuous
 62
     1
370
    15
100
AcDbSpline
210
0.0
220
0.0
230
1.0
 70
     8
 71
     3
 72
    12
 73
     8
 74
     0
 42
0.000000001
 43
0.00000001
 40
0.0
 40
0.0
 40
0.0
 40
0.0
 40
0.5
 40
0.5
 40
0.75
 40
0.75
 40
1.0
 40
1.0
 40
1.0
 40
1.0
 10
32.90381932176413
 20
-4.697809484999161
 30
0.0
 10
32.80865453641721
 20
-3.3849720329021
 30
0.0
 10
32.7083046034442
 20
-1.956872966131766
 30
0.0
 10
32.56270215306313
 20
0.1786321293724015
 30
0.0
 10
32.51500399026065
 20
0.8888978219482769
 30
0.0
 10
32.42318413164238
 20
2.27677292077095
 30
0.0
 10
32.37645111030401
 20
2.96751460320089
 30
0.0
 10
32.32820384468785
 20
3.647926970140099
 30
0.0
  0
SPLINE
  5
BF
330
1F
100
AcDbEntity
  8
외형선
  6
Continuous
 62
     1
370
    15
100
AcDbSpline
210
0.0
220
0.0
230
1.0
 70
     8
 71
     3
 72
    10
 73
     6
 74
     0
 42
0.000000001
 43
0.00000001
 40
0.0
 40
0.0
 40
0.0
 40
0.0
 40
0.5
 40
0.5
 40
1.0
 40
1.0
 40
1.0
 40
1.0
 10
32.32820384468592
 20
3.647926970167385
 30
0.0
 10
32.58886169706145
 20
3.473839996721061
 30
0.0
 10
32.89768019045369
 20
3.30020673345769
 30
0.0
 10
33.50254522019895
 20
2.974350005438827
 30
0.0
 10
33.79503861657646
 20
2.823332373701943
 30
0.0
 10
34.04046200807414
 20
2.701276193062728
 30
0.0
  0
SPLINE
  5
C0
330
1F
100
AcDbEntity
  8
외형선
  6
Continuous
 62
     1
370
    15
100
AcDbSpline
210
0.0
220
0.0
230
1.0
 70
     8
 71
     3
 72
     8
 73
     4
 74
     0
 42
0.000000001
 43
0.00000001
 40
0.0
 40
0.0
 40
0.0
 40
0.0
 40
1.0
 40
1.0
 40
1.0
 40
1.0
 10
32.90381935190146
 20
-4.697809900756665
 30
0.0
 10
32.77858278384458
 20
-4.654365955357743
 30
0.0
 10
32.62831557382103
 20
-4.585201979337944
 30
0.0
 10
32.47440702678266
 20
-4.501766881926551
 30
0.0
  0
SPLINE
  5
C1
330
1F
100
AcDbEntity
  8
외형선
  6
Continuous
 62
     1
370
    15
100
AcDbSpline
210
0.0
220
0.0
230
1.0
 70
     8
 71
     3
 72
    10
 73
     6
 74
     0
 42
0.000000001
 43
0.00000001
 40
0.0
 40
0.0
 40
0.0
 40
0.0
 40
0.5
 40
0.5
 40
1.0
 40
1.0
 40
1.0
 40
1.0
 10
32.47440704252776
 20
-4.50176710249203
 30
0.0
 10
32.37908803953181
 20
-3.166568729369595
 30
0.0
 10
32.2791379327864
 20
-1.722706822642582
 30
0.0
 10
32.08672155543241
 20
1.141187214175774
 30
0.0
 10
31.99772395305125
 20
2.543043978576012
 30
0.0
 10
31.90129182878469
 20
3.906957434739357
 30
0.0
  0
SPLINE
  5
C2
330
1F
100
AcDbEntity
  8
외형선
  6
Continuous
 62
     1
370
    15
100
AcDbSpline
210
0.0
220
0.0
230
1.0
 70
     8
 71
     3
 72
     8
 73
     4
 74
     0
 42
0.000000001
 43
0.00000001
 40
0.0
 40
0.0
 40
0.0
 40
0.0
 40
1.0
 40
1.0
 40
1.0
 40
1.0
 10
31.90129195313095
 20
3.906955676086963
 30
0.0
 10
32.04957582368643
 20
3.825361107210405
 30
0.0
 10
32.20018876250263
 20
3.733425097346927
 30
0.0
 10
32.32820384468416
 20
3.647926970168553
 30
0.0
  0
SPLINE
  5
C3
330
1F
100
AcDbEntity
  8
외형선
  6
Continuous
 62
     1
370
    15
100
AcDbSpline
210
0.0
220
0.0
230
1.0
 70
     8
 71
     3
 72
     8
 73
     4
 74
     0
 42
0.000000001
 43
0.00000001
 40
0.0
 40
0.0
 40
0.0
 40
0.0
 40
1.0
 40
1.0
 40
1.0
 40
1.0
 10
29.49467348265603
 20
-2.857341668076088
 30
0.0
 10
29.34635826520644
 20
-2.774060699076233
 30
0.0
 10
29.19569566946752
 20
-2.684378847932936
 30
0.0
 10
29.06766720431673
 20
-2.606007614618169
 30
0.0
  0
SPLINE
  5
C4
330
1F
100
AcDbEntity
  8
외형선
  6
Continuous
 62
     1
370
    15
100
AcDbSpline
210
0.0
220
0.0
230
1.0
 70
     8
 71
     3
 72
    10
 73
     6
 74
     0
 42
0.000000001
 43
0.00000001
 40
0.0
 40
0.0
 40
0.0
 40
0.0
 40
0.5
 40
0.5
 40
1.0
 40
1.0
 40
1.0
 40
1.0
 10
29.06766691316189
 20
-2.606003467463021
 30
0.0
 10
28.96947699959222
 20
-1.207404367948482
 30
0.0
 10
28.87053826277247
 20
0.2454420237185212
 30
0.0
 10
28.68735976528773
 20
3.0161777305961
 30
0.0
 10
28.58964970668923
 20
4.400993167607582
 30
0.0
 10
28.49138913252797
 20
5.676608021762191
 30
0.0
  0
SPLINE
  5
C5
330
1F
100
AcDbEntity
  8
외형선
  6
Continuous
 62
     1
370
    15
100
AcDbSpline
210
0.0
220
0.0
230
1.0
 70
     8
 71
     3
 72
     8
 73
     4
 74
     0
 42
0.000000001
 43
0.00000001
 40
0.0
 40
0.0
 40
0.0
 40
0.0
 40
1.0
 40
1.0
 40
1.0
 40
1.0
 10
28.49138913252187
 20
5.676608021852066
 30
0.0
 10
28.61668581088268
 20
5.643550748076313
 30
0.0
 10
28.76703482937769
 20
5.581625342798286
 30
0.0
 10
28.92111116895364
 20
5.501522054245755
 30
0.0
  0
SPLINE
  5
C6
330
1F
100
AcDbEntity
  8
외형선
  6
Continuous
 62
     1
370
    15
100
AcDbSpline
210
0.0
220
0.0
230
1.0
 70
     8
 71
     3
 72
    12
 73
     8
 74
     0
 42
0.000000001
 43
0.00000001
 40
0.0
 40
0.0
 40
0.0
 40
0.0
 40
0.5000000000000001
 40
0.5000000000000001
 40
0.75
 40
0.75
 40
1.0
 40
1.0
 40
1.0
 40
1.0
 10
29.49467341195957
 20
-2.857340652905336
 30
0.0
 10
29.39704610603658
 20
-1.455477956347397
 30
0.0
 10
29.29821046210002
 20
0.0074106281579173
 30
0.0
 10
29.16027016458418
 20
2.110177092376144
 30
0.0
 10
29.1144855736788
 20
2.803749473140073
 30
0.0
 10
29.01889592962065
 20
4.177424077803683
 30
0.0
 10
28.97002421860749
 20
4.852709532674272
 30
0.0
 10
28.92111108147589
 20
5.501523214603568
 30
0.0
  0
SPLINE
  5
C7
330
1F
100
AcDbEntity
  8
외형선
  6
Continuous
 62
     1
370
    15
100
AcDbSpline
210
0.0
220
0.0
230
1.0
 70
     8
 71
     3
 72
     9
 73
     5
 74
     0
 42
0.000000001
 43
0.00000001
 40
0.0
 40
0.0
 40
0.0
 40
0.0
 40
0.3727207505955455
 40
0.9999999999999999
 40
0.9999999999999999
 40
0.9999999999999999
 40
0.9999999999999999
 10
35.23513465312119
 20
-5.692646515786246
 30
0.0
 10
35.00850931604659
 20
-5.749718712390107
 30
0.0
 10
34.40047947946646
 20
-5.902841919275342
 30
0.0
 10
33.71748381439846
 20
-6.209376968144911
 30
0.0
 10
33.2890548062681
 20
-6.401660043515973
 30
0.0
  0
SPLINE
  5
C8
330
1F
100
AcDbEntity
  8
외형선
  6
Continuous
 62
     1
370
    15
100
AcDbSpline
210
0.0
220
0.0
230
1.0
 70
     8
 71
     3
 72
     8
 73
     4
 74
     0
 42
0.000000001
 43
0.00000001
 40
0.0
 40
0.0
 40
0.0
 40
0.0
 40
1.0
 40
1.0
 40
1.0
 40
1.0
 10
37.39986329944128
 20
-7.42448385836628
 30
0.0
 10
35.99434659813208
 20
-7.209363461385988
 30
0.0
 10
34.62532685657745
 20
-6.86396097303829
 30
0.0
 10
33.28905480626634
 20
-6.40166004352326
 30
0.0
  0
LINE
  5
C9
330
1F
100
AcDbEntity
  8
외형선
  6
Continuous
 62
     1
370
    15
100
AcDbLine
 10
37.39986329944128
 20
-9.052505105080128
 30
0.0
 11
37.39986329944128
 21
-7.424483858366276
 31
0.0
  0
SPLINE
  5
CA
330
1F
100
AcDbEntity
  8
외형선
  6
Continuous
 62
     1
370
    15
100
AcDbSpline
210
0.0
220
0.0
230
1.0
 70
     8
 71
     3
 72
    10
 73
     6
 74
     0
 42
0.000000001
 43
0.00000001
 40
0.0
 40
0.0
 40
0.0
 40
0.0
 40
0.4999999999999997
 40
0.4999999999999997
 40
1.0
 40
1.0
 40
1.0
 40
1.0
 10
34.88631894975556
 20
-11.56986220841464
 30
0.0
 10
35.29534415715936
 20
-11.13075536214104
 30
0.0
 10
35.70795240513226
 20
-10.69934485552702
 30
0.0
 10
36.54508830969361
 20
-9.85732394566905
 30
0.0
 10
36.97218461120213
 20
-9.444423830487814
 30
0.0
 10
37.39986329944128
 20
-9.052505105080233
 30
0.0
  0
SPLINE
  5
CB
330
1F
100
AcDbEntity
  8
외형선
  6
Continuous
 62
     1
370
    15
100
AcDbSpline
210
0.0
220
0.0
230
1.0
 70
     8
 71
     3
 72
     8
 73
     4
 74
     0
 42
0.000000001
 43
0.00000001
 40
0.0
 40
0.0
 40
0.0
 40
0.0
 40
1.0
 40
1.0
 40
1.0
 40
1.0
 10
34.17389827413252
 20
-11.94815086267635
 30
0.0
 10
34.3886334794932
 20
-11.76215441013581
 30
0.0
 10
34.63756168329666
 20
-11.63797985495306
 30
0.0
 10
34.88631894975521
 20
-11.56986220841467
 30
0.0
  0
SPLINE
  5
CC
330
1F
100
AcDbEntity
  8
외형선
  6
Continuous
 62
     1
370
    15
100
AcDbSpline
210
0.0
220
0.0
230
1.0
 70
     8
 71
     3
 72
     8
 73
     4
 74
     0
 42
0.000000001
 43
0.00000001
 40
0.0
 40
0.0
 40
0.0
 40
0.0
 40
1.0
 40
1.0
 40
1.0
 40
1.0
 10
33.74714250186205
 20
-12.15144763306252
 30
0.0
 10
33.89535088818434
 20
-12.12658858358589
 30
0.0
 10
34.04593728266848
 20
-12.05898639351493
 30
0.0
 10
34.17389827413252
 20
-11.94815086267635
 30
0.0
  0
SPLINE
  5
CD
330
1F
100
AcDbEntity
  8
외형선
  6
Continuous
 62
     1
370
    15
100
AcDbSpline
210
0.0
220
0.0
230
1.0
 70
     8
 71
     3
 72
     8
 73
     4
 74
     0
 42
0.000000001
 43
0.00000001
 40
0.0
 40
0.0
 40
0.0
 40
0.0
 40
1.0
 40
1.0
 40
1.0
 40
1.0
 10
33.74714250170573
 20
-12.15144763308848
 30
0.0
 10
32.75224009056774
 20
-12.31832299605232
 30
0.0
 10
31.76656456107912
 20
-12.44755175556215
 30
0.0
 10
30.77042549777079
 20
-12.53875318107163
 30
0.0
  0
SPLINE
  5
CE
330
1F
100
AcDbEntity
  8
외형선
  6
Continuous
 62
     1
370
    15
100
AcDbSpline
210
0.0
220
0.0
230
1.0
 70
     8
 71
     3
 72
     8
 73
     4
 74
     0
 42
0.000000001
 43
0.00000001
 40
0.0
 40
0.0
 40
0.0
 40
0.0
 40
1.0
 40
1.0
 40
1.0
 40
1.0
 10
30.34150627626757
 20
-12.43740583015105
 30
0.0
 10
30.46653420069301
 20
-12.51862366082336
 30
0.0
 10
30.61662913807655
 20
-12.55283399344055
 30
0.0
 10
30.77042549819441
 20
-12.53875318103285
 30
0.0
  0
SPLINE
  5
CF
330
1F
100
AcDbEntity
  8
외형선
  6
Continuous
 62
     1
370
    15
100
AcDbSpline
210
0.0
220
0.0
230
1.0
 70
     8
 71
     3
 72
    10
 73
     6
 74
     0
 42
0.000000001
 43
0.00000001
 40
0.0
 40
0.0
 40
0.0
 40
0.0
 40
0.5
 40
0.5
 40
1.0
 40
1.0
 40
1.0
 40
1.0
 10
28.63006654943245
 20
-12.53446814683281
 30
0.0
 10
28.89056450351853
 20
-12.3294304555664
 30
0.0
 10
29.19939278974049
 20
-12.2281947607823
 30
0.0
 10
29.80408015307045
 20
-12.20333040209451
 30
0.0
 10
30.09634353644416
 20
-12.27814872033619
 30
0.0
 10
30.34150627626749
 20
-12.43740583015099
 30
0.0
  0
SPLINE
  5
D0
330
1F
100
AcDbEntity
  8
외형선
  6
Continuous
 62
     1
370
    15
100
AcDbSpline
210
0.0
220
0.0
230
1.0
 70
     8
 71
     3
 72
     8
 73
     4
 74
     0
 42
0.000000001
 43
0.00000001
 40
0.0
 40
0.0
 40
0.0
 40
0.0
 40
1.0
 40
1.0
 40
1.0
 40
1.0
 10
28.20330372165047
 20
-12.6882294620324
 30
0.0
 10
28.35149623963766
 20
-12.68455289609239
 30
0.0
 10
28.50208778563307
 20
-12.63520010978665
 30
0.0
 10
28.63006654943242
 20
-12.53446814683282
 30
0.0
  0
SPLINE
  5
D1
330
1F
100
AcDbEntity
  8
외형선
  6
Continuous
 62
     1
370
    15
100
AcDbSpline
210
0.0
220
0.0
230
1.0
 70
     8
 71
     3
 72
     8
 73
     4
 74
     0
 42
0.000000001
 43
0.00000001
 40
0.0
 40
0.0
 40
0.0
 40
0.0
 40
1.0
 40
1.0
 40
1.0
 40
1.0
 10
28.20330372139408
 20
-12.68822946203871
 30
0.0
 10
27.21074274229715
 20
-12.71285429423101
 30
0.0
 10
26.22083440944939
 20
-12.69864087381929
 30
0.0
 10
25.22336538053988
 20
-12.64547978809184
 30
0.0
  0
SPLINE
  5
D2
330
1F
100
AcDbEntity
  8
외형선
  6
Continuous
 62
     1
370
    15
100
AcDbSpline
210
0.0
220
0.0
230
1.0
 70
     8
 71
     3
 72
     8
 73
     4
 74
     0
 42
0.000000001
 43
0.00000001
 40
0.0
 40
0.0
 40
0.0
 40
0.0
 40
1.0
 40
1.0
 40
1.0
 40
1.0
 10
24.79368970548695
 20
-12.47674033983607
 30
0.0
 10
24.9189764467178
 20
-12.5794806233629
 30
0.0
 10
25.06932238517523
 20
-12.63726993238555
 30
0.0
 10
25.22336940515849
 20
-12.64548000258762
 30
0.0
  0
SPLINE
  5
D3
330
1F
100
AcDbEntity
  8
외형선
  6
Continuous
 62
     1
370
    15
100
AcDbSpline
210
0.0
220
0.0
230
1.0
 70
     8
 71
     3
 72
    10
 73
     6
 74
     0
 42
0.000000001
 43
0.00000001
 40
0.0
 40
0.0
 40
0.0
 40
0.0
 40
0.5
 40
0.5
 40
1.0
 40
1.0
 40
1.0
 40
1.0
 10
23.08019561234734
 20
-12.32821410075949
 30
0.0
 10
23.34100311009466
 20
-12.15685307561085
 30
0.0
 10
23.65013647082201
 20
-12.09560705358134
 30
0.0
 10
24.25543425245459
 20
-12.15584422466004
 30
0.0
 10
24.54806949151484
 20
-12.27532165677743
 30
0.0
 10
24.79368970548688
 20
-12.47674033983602
 30
0.0
  0
SPLINE
  5
D4
330
1F
100
AcDbEntity
  8
외형선
  6
Continuous
 62
     1
370
    15
100
AcDbSpline
210
0.0
220
0.0
230
1.0
 70
     8
 71
     3
 72
     8
 73
     4
 74
     0
 42
0.000000001
 43
0.00000001
 40
0.0
 40
0.0
 40
0.0
 40
0.0
 40
1.0
 40
1.0
 40
1.0
 40
1.0
 10
22.65312640804407
 20
-12.42237034337861
 30
0.0
 10
22.8013908554942
 20
-12.44023835441995
 30
0.0
 10
22.95208185312686
 20
-12.41238999794531
 30
0.0
 10
23.08019561234734
 20
-12.3282141007595
 30
0.0
  0
SPLINE
  5
D5
330
1F
100
AcDbEntity
  8
외형선
  6
Continuous
 62
     1
370
    15
100
AcDbSpline
210
0.0
220
0.0
230
1.0
 70
     8
 71
     3
 72
     8
 73
     4
 74
     0
 42
0.000000001
 43
0.00000001
 40
0.0
 40
0.0
 40
0.0
 40
0.0
 40
1.0
 40
1.0
 40
1.0
 40
1.0
 10
22.65312468667546
 20
-12.42237013592889
 30
0.0
 10
21.66607851081187
 20
-12.30341674593781
 30
0.0
 10
20.66929882046295
 20
-12.14611100571885
 30
0.0
 10
19.673652134678
 20
-11.95213881865114
 30
0.0
  0
SPLINE
  5
D6
330
1F
100
AcDbEntity
  8
외형선
  6
Continuous
 62
     1
370
    15
100
AcDbSpline
210
0.0
220
0.0
230
1.0
 70
     8
 71
     3
 72
     8
 73
     4
 74
     0
 42
0.000000001
 43
0.00000001
 40
0.0
 40
0.0
 40
0.0
 40
0.0
 40
1.0
 40
1.0
 40
1.0
 40
1.0
 10
19.24438878772916
 20
-11.72664966917804
 30
0.0
 10
19.36951884559283
 20
-11.84439674373799
 30
0.0
 10
19.51972664540986
 20
-11.92215100928781
 30
0.0
 10
19.67365234326687
 20
-11.9521388592885
 30
0.0
  0
SPLINE
  5
D7
330
1F
100
AcDbEntity
  8
외형선
  6
Continuous
 62
     1
370
    15
100
AcDbSpline
210
0.0
220
0.0
230
1.0
 70
     8
 71
     3
 72
    10
 73
     6
 74
     0
 42
0.000000001
 43
0.00000001
 40
0.0
 40
0.0
 40
0.0
 40
0.0
 40
0.5
 40
0.5
 40
1.0
 40
1.0
 40
1.0
 40
1.0
 10
17.53320962648481
 20
-11.34155332785642
 30
0.0
 10
17.79362838478769
 20
-11.21485635107882
 30
0.0
 10
18.10228203126787
 20
-11.19754526298253
 30
0.0
 10
18.7068344901745
 20
-11.33916340741247
 30
0.0
 10
18.99910107519869
 20
-11.49583453915192
 30
0.0
 10
19.24438878772909
 20
-11.72664966917799
 30
0.0
  0
SPLINE
  5
D8
330
1F
100
AcDbEntity
  8
외형선
  6
Continuous
 62
     1
370
    15
100
AcDbSpline
210
0.0
220
0.0
230
1.0
 70
     8
 71
     3
 72
     8
 73
     4
 74
     0
 42
0.000000001
 43
0.00000001
 40
0.0
 40
0.0
 40
0.0
 40
0.0
 40
1.0
 40
1.0
 40
1.0
 40
1.0
 10
17.10688136277449
 20
-11.37034667270049
 30
0.0
 10
17.25498185228585
 20
-11.40850016461905
 30
0.0
 10
17.40539471800219
 20
-11.40373687637413
 30
0.0
 10
17.53320962648481
 20
-11.3415533278564
 30
0.0
  0
SPLINE
  5
D9
330
1F
100
AcDbEntity
  8
외형선
  6
Continuous
 62
     1
370
    15
100
AcDbSpline
210
0.0
220
0.0
230
1.0
 70
     8
 71
     3
 72
     8
 73
     4
 74
     0
 42
0.000000001
 43
0.00000001
 40
0.0
 40
0.0
 40
0.0
 40
0.0
 40
1.0
 40
1.0
 40
1.0
 40
1.0
 10
17.10688128684394
 20
-11.37034665313967
 30
0.0
 10
16.11875958065997
 20
-11.11578777958713
 30
0.0
 10
15.12187346379214
 20
-10.82578797983085
 30
0.0
 10
14.12981275720166
 20
-10.50417019848187
 30
0.0
  0
SPLINE
  5
DA
330
1F
100
AcDbEntity
  8
외형선
  6
Continuous
 62
     1
370
    15
100
AcDbSpline
210
0.0
220
0.0
230
1.0
 70
     8
 71
     3
 72
     8
 73
     4
 74
     0
 42
0.000000001
 43
0.00000001
 40
0.0
 40
0.0
 40
0.0
 40
0.0
 40
1.0
 40
1.0
 40
1.0
 40
1.0
 10
13.70033260366447
 20
-10.23597820644633
 30
0.0
 10
13.8255454275397
 20
-10.36137027295016
 30
0.0
 10
13.97581189068522
 20
-10.4542444008169
 30
0.0
 10
14.12981126714816
 20
-10.50416971541898
 30
0.0
  0
SPLINE
  5
DB
330
1F
100
AcDbEntity
  8
외형선
  6
Continuous
 62
     1
370
    15
100
AcDbSpline
210
0.0
220
0.0
230
1.0
 70
     8
 71
     3
 72
    10
 73
     6
 74
     0
 42
0.000000001
 43
0.00000001
 40
0.0082327957051692
 40
0.0082327957051692
 40
0.0082327957051692
 40
0.0082327957051692
 40
0.5
 40
0.5
 40
1.0
 40
1.0
 40
1.0
 40
1.0
 10
12.0
 20
-9.633934248845101
 30
0.0
 10
12.25821989117356
 20
-9.564235963513157
 30
0.0
 10
12.56213873904806
 20
-9.5930063257352
 30
0.0
 10
13.16218115803792
 20
-9.805939378562831
 30
0.0
 10
13.45472721753248
 20
-9.990021235279636
 30
0.0
 10
13.70033260366439
 20
-10.23597820644623
 30
0.0
  0
SPLINE
  5
F0
330
1F
100
AcDbEntity
  8
외형선
  6
Continuous
 62
     1
370
    15
100
AcDbSpline
210
0.0
220
0.0
230
1.0
 70
     8
 71
     3
 72
     8
 73
     4
 74
     0
 42
0.000000001
 43
0.00000001
 40
0.0
 40
0.0
 40
0.0
 40
0.0
 40
0.2518307130382911
 40
0.2518307130382911
 40
0.2518307130382911
 40
0.2518307130382911
 10
12.42369891066176
 20
6.53944560219789
 30
0.0
 10
12.29238550803444
 20
6.53983140175205
 30
0.0
 10
12.14882019005709
 20
6.561024296779399
 30
0.0
 10
12.0
 20
6.600301955040349
 30
0.0
  0
SPLINE
  5
F1
330
1F
100
AcDbEntity
  8
외형선
  6
Continuous
 62
     1
370
    15
100
AcDbSpline
210
0.0
220
0.0
230
1.0
 70
     8
 71
     3
 72
     8
 73
     4
 74
     0
 42
0.000000001
 43
0.00000001
 40
0.0
 40
0.0
 40
0.0
 40
0.0
 40
1.0
 40
1.0
 40
1.0
 40
1.0
 10
12.85075216022419
 20
6.417375345073586
 30
0.0
 10
12.70245785824763
 20
6.491521099591112
 30
0.0
 10
12.55180874639638
 20
6.539069214742214
 30
0.0
 10
12.42369891066182
 20
6.5394456021979
 30
0.0
  0
SPLINE
  5
F2
330
1F
100
AcDbEntity
  8
외형선
  6
Continuous
 62
     1
370
    15
100
AcDbSpline
210
0.0
220
0.0
230
1.0
 70
     8
 71
     3
 72
     8
 73
     4
 74
     0
 42
0.000000001
 43
0.00000001
 40
0.0
 40
0.0
 40
0.0
 40
0.0
 40
1.0
 40
1.0
 40
1.0
 40
1.0
 10
15.83132446186239
 20
4.879061252042803
 30
0.0
 10
14.83619153163049
 20
5.408623975353962
 30
0.0
 10
13.83812283839389
 20
5.923699300035068
 30
0.0
 10
12.85075252274966
 20
6.41737516381486
 30
0.0
  0
SPLINE
  5
F3
330
1F
100
AcDbEntity
  8
외형선
  6
Continuous
 62
     1
370
    15
100
AcDbSpline
210
0.0
220
0.0
230
1.0
 70
     8
 71
     3
 72
     8
 73
     4
 74
     0
 42
0.000000001
 43
0.00000001
 40
0.0
 40
0.0
 40
0.0
 40
0.0
 40
1.0
 40
1.0
 40
1.0
 40
1.0
 10
16.26098378589842
 20
4.579915333470776
 30
0.0
 10
16.13571074833738
 20
4.692781829476539
 30
0.0
 10
15.98537666193229
 20
4.797081950515553
 30
0.0
 10
15.83132442910662
 20
4.879061269473885
 30
0.0
  0
SPLINE
  5
F4
330
1F
100
AcDbEntity
  8
외형선
  6
Continuous
 62
     1
370
    15
100
AcDbSpline
210
0.0
220
0.0
230
1.0
 70
     8
 71
     3
 72
    10
 73
     6
 74
     0
 42
0.000000001
 43
0.00000001
 40
0.0
 40
0.0
 40
0.0
 40
0.0
 40
0.5
 40
0.5
 40
1.0
 40
1.0
 40
1.0
 40
1.0
 10
17.97414155428872
 20
3.65470646121124
 30
0.0
 10
17.71330239942295
 20
3.71350163244901
 30
0.0
 10
17.40435252931257
 20
3.833853842605908
 30
0.0
 10
16.79920793371932
 20
4.157470105056762
 30
0.0
 10
16.50661924603365
 20
4.35860662874072
 30
0.0
 10
16.26098378589844
 20
4.579915333470759
 30
0.0
  0
SPLINE
  5
F5
330
1F
100
AcDbEntity
  8
외형선
  6
Continuous
 62
     1
370
    15
100
AcDbSpline
210
0.0
220
0.0
230
1.0
 70
     8
 71
     3
 72
     8
 73
     4
 74
     0
 42
0.000000001
 43
0.00000001
 40
0.0
 40
0.0
 40
0.0
 40
0.0
 40
1.0
 40
1.0
 40
1.0
 40
1.0
 10
18.40099583129878
 20
3.477443954397944
 30
0.0
 10
18.252728918085
 20
3.559853736543489
 30
0.0
 10
18.10213476999431
 20
3.625855796369302
 30
0.0
 10
17.9741415542888
 20
3.654706461211221
 30
0.0
  0
SPLINE
  5
F6
330
1F
100
AcDbEntity
  8
외형선
  6
Continuous
 62
     1
370
    15
100
AcDbSpline
210
0.0
220
0.0
230
1.0
 70
     8
 71
     3
 72
     8
 73
     4
 74
     0
 42
0.000000001
 43
0.00000001
 40
0.0
 40
0.0
 40
0.0
 40
0.0
 40
1.0
 40
1.0
 40
1.0
 40
1.0
 10
21.37789563230561
 20
1.799839191452552
 30
0.0
 10
20.38679091635822
 20
2.366007974637193
 30
0.0
 10
19.38996139140574
 20
2.927756675368386
 30
0.0
 10
18.40099548709863
 20
3.477444145712091
 30
0.0
  0
SPLINE
  5
F7
330
1F
100
AcDbEntity
  8
외형선
  6
Continuous
 62
     1
370
    15
100
AcDbSpline
210
0.0
220
0.0
230
1.0
 70
     8
 71
     3
 72
     8
 73
     4
 74
     0
 42
0.000000001
 43
0.00000001
 40
0.0
 40
0.0
 40
0.0
 40
0.0
 40
1.0
 40
1.0
 40
1.0
 40
1.0
 10
21.80675160358173
 20
1.518372368284008
 30
0.0
 10
21.68175760780275
 20
1.613532878524409
 30
0.0
 10
21.53170075364078
 20
1.711977982628476
 30
0.0
 10
21.37789565808431
 20
1.799839176726448
 30
0.0
  0
SPLINE
  5
F8
330
1F
100
AcDbEntity
  8
외형선
  6
Continuous
 62
     1
370
    15
100
AcDbSpline
210
0.0
220
0.0
230
1.0
 70
     8
 71
     3
 72
    10
 73
     6
 74
     0
 42
0.000000001
 43
0.00000001
 40
0.0
 40
0.0
 40
0.0
 40
0.0
 40
0.5
 40
0.5
 40
1.0
 40
1.0
 40
1.0
 40
1.0
 10
23.51815251217132
 20
0.542706392820749
 30
0.0
 10
23.25746483284128
 20
0.6553524275515742
 30
0.0
 10
22.94853029817293
 20
0.8044401894076906
 30
0.0
 10
22.34414203132153
 20
1.143871121567243
 30
0.0
 10
22.05197608163714
 20
1.33167790900411
 30
0.0
 10
21.80675160358176
 20
1.518372368284003
 30
0.0
  0
SPLINE
  5
F9
330
1F
100
AcDbEntity
  8
외형선
  6
Continuous
 62
     1
370
    15
100
AcDbSpline
210
0.0
220
0.0
230
1.0
 70
     8
 71
     3
 72
     8
 73
     4
 74
     0
 42
0.000000001
 43
0.00000001
 40
0.0
 40
0.0
 40
0.0
 40
0.0
 40
1.0
 40
1.0
 40
1.0
 40
1.0
 10
23.94484728300989
 20
0.32165116675466
 30
0.0
 10
23.7966273388386
 20
0.4071285400446957
 30
0.0
 10
23.64607508279352
 20
0.4874296326370787
 30
0.0
 10
23.51815251217138
 20
0.5427063928207306
 30
0.0
  0
SPLINE
  5
FA
330
1F
100
AcDbEntity
  8
외형선
  6
Continuous
 62
     1
370
    15
100
AcDbSpline
210
0.0
220
0.0
230
1.0
 70
     8
 71
     3
 72
     8
 73
     4
 74
     0
 42
0.000000001
 43
0.00000001
 40
0.0
 40
0.0
 40
0.0
 40
0.0
 40
1.0
 40
1.0
 40
1.0
 40
1.0
 10
26.92429075999248
 20
-1.393637240929039
 30
0.0
 10
25.9351289779033
 20
-0.8251459502275196
 30
0.0
 10
24.93743956384774
 20
-0.2507696473659534
 30
0.0
 10
23.94484525792724
 20
0.3216523346058973
 30
0.0
  0
SPLINE
  5
FB
330
1F
100
AcDbEntity
  8
외형선
  6
Continuous
 62
     1
370
    15
100
AcDbSpline
210
0.0
220
0.0
230
1.0
 70
     8
 71
     3
 72
     8
 73
     4
 74
     0
 42
0.000000001
 43
0.00000001
 40
0.0
 40
0.0
 40
0.0
 40
0.0
 40
1.0
 40
1.0
 40
1.0
 40
1.0
 10
27.35403484263245
 20
-1.640764080549579
 30
0.0
 10
27.22872456250809
 20
-1.568931115557526
 30
0.0
 10
27.07838016341671
 20
-1.482195538789493
 30
0.0
 10
26.92429179862105
 20
-1.393637837849903
 30
0.0
  0
SPLINE
  5
FC
330
1F
100
AcDbEntity
  8
외형선
  6
Continuous
 62
     1
370
    15
100
AcDbSpline
210
0.0
220
0.0
230
1.0
 70
     8
 71
     3
 72
    10
 73
     6
 74
     0
 42
0.000000001
 43
0.00000001
 40
0.0
 40
0.0
 40
0.0
 40
0.0
 40
0.5
 40
0.5
 40
1.0
 40
1.0
 40
1.0
 40
1.0
 10
29.06766720431667
 20
-2.606007614618137
 30
0.0
 10
28.80660588090645
 20
-2.446201763143248
 30
0.0
 10
28.49720270641235
 20
-2.277337939651706
 30
0.0
 10
27.89182810750916
 20
-1.944250876252128
 30
0.0
 10
27.59953937189741
 20
-1.781497292849326
 30
0.0
 10
27.35403484263248
 20
-1.640764080549587
 30
0.0
  0
SPLINE
  5
FD
330
1F
100
AcDbEntity
  8
외형선
  6
Continuous
 62
     1
370
    15
100
AcDbSpline
210
0.0
220
0.0
230
1.0
 70
     8
 71
     3
 72
     8
 73
     4
 74
     0
 42
0.000000001
 43
0.00000001
 40
0.0
 40
0.0
 40
0.0
 40
0.0
 40
1.0
 40
1.0
 40
1.0
 40
1.0
 10
32.47440702656533
 20
-4.501766881808735
 30
0.0
 10
31.48780531402399
 20
-3.966921926303692
 30
0.0
 10
30.49018180446611
 20
-3.416332843178409
 30
0.0
 10
29.49467348255724
 20
-2.85734166801995
 30
0.0
  0
SPLINE
  5
FE
330
1F
100
AcDbEntity
  8
외형선
  6
Continuous
 62
     1
370
    15
100
AcDbSpline
210
0.0
220
0.0
230
1.0
 70
     8
 71
     3
 72
     8
 73
     4
 74
     0
 42
0.000000001
 43
0.00000001
 40
0.0
 40
0.0
 40
0.0
 40
0.0
 40
1.0
 40
1.0
 40
1.0
 40
1.0
 10
31.90129114845963
 20
3.906956118861956
 30
0.0
 10
30.91207274222133
 20
4.451282672155775
 30
0.0
 10
29.91413518102596
 20
4.985255318957218
 30
0.0
 10
28.92111106604971
 20
5.501522107744824
 30
0.0
  0
SPLINE
  5
FF
330
1F
100
AcDbEntity
  8
외형선
  6
Continuous
 62
     1
370
    15
100
AcDbSpline
210
0.0
220
0.0
230
1.0
 70
     8
 71
     3
 72
    12
 73
     8
 74
     0
 42
0.000000001
 43
0.00000001
 40
0.0
 40
0.0
 40
0.0
 40
0.0
 40
0.2500000000000001
 40
0.2500000000000001
 40
0.5000000000000002
 40
0.5000000000000002
 40
1.0
 40
1.0
 40
1.0
 40
1.0
 10
23.94484719661305
 20
0.321652463674156
 30
0.0
 10
23.89734395484289
 20
1.034723009924617
 30
0.0
 10
23.85227836354457
 20
1.734086992088347
 30
0.0
 10
23.75929823408822
 20
3.124408800860191
 30
0.0
 10
23.7112433566544
 20
3.815892509775033
 30
0.0
 10
23.56531990562841
 20
5.833483999735961
 30
0.0
 10
23.46578947571498
 20
7.099112802834884
 30
0.0
 10
23.37227341889993
 20
8.18428796661389
 30
0.0
  0
SPLINE
  5
100
330
1F
100
AcDbEntity
  8
외형선
  6
Continuous
 62
     1
370
    15
100
AcDbSpline
210
0.0
220
0.0
230
1.0
 70
     8
 71
     3
 72
     8
 73
     4
 74
     0
 42
0.000000001
 43
0.00000001
 40
0.0
 40
0.0
 40
0.0
 40
0.0
 40
1.0
 40
1.0
 40
1.0
 40
1.0
 10
26.35082223346734
 20
6.800310086934593
 30
0.0
 10
25.35933478682943
 20
7.283582547860481
 30
0.0
 10
24.36194765650145
 20
7.747002748066744
 30
0.0
 10
23.37227200685483
 20
8.184287541365155
 30
0.0
  0
SPLINE
  5
101
330
1F
100
AcDbEntity
  8
외형선
  6
Continuous
 62
     1
370
    15
100
AcDbSpline
210
0.0
220
0.0
230
1.0
 70
     8
 71
     3
 72
    12
 73
     8
 74
     0
 42
0.000000001
 43
0.00000001
 40
0.0
 40
0.0
 40
0.0
 40
0.0
 40
0.2499999999999999
 40
0.2499999999999999
 40
0.4999999999999999
 40
0.4999999999999999
 40
1.0
 40
1.0
 40
1.0
 40
1.0
 10
26.92429166771357
 20
-1.39363591894376
 30
0.0
 10
26.87552098438547
 20
-0.6787261385863994
 30
0.0
 10
26.82716157710174
 20
0.0408597326023876
 30
0.0
 10
26.73326485105609
 20
1.458833316492167
 30
0.0
 10
26.68856529499746
 20
2.153149891813532
 30
0.0
 10
26.54743353010484
 20
4.231041873586198
 30
0.0
 10
26.44776935682421
 20
5.587901126059038
 30
0.0
 10
26.35082794034018
 20
6.800314270814183
 30
0.0
  0
SPLINE
  5
102
330
1F
100
AcDbEntity
  8
외형선
  6
Continuous
 62
     1
370
    15
100
AcDbSpline
210
0.0
220
0.0
230
1.0
 70
     8
 71
     3
 72
     8
 73
     4
 74
     0
 42
0.000000001
 43
0.00000001
 40
0.0
 40
0.0
 40
0.0
 40
0.0
 40
1.0
 40
1.0
 40
1.0
 40
1.0
 10
26.35082851987728
 20
6.800307022804398
 30
0.0
 10
26.49913358052388
 20
6.728019909081308
 30
0.0
 10
26.64977353511591
 20
6.634528041186194
 30
0.0
 10
26.77779735747421
 20
6.53299401238728
 30
0.0
  0
SPLINE
  5
103
330
1F
100
AcDbEntity
  8
외형선
  6
Continuous
 62
     1
370
    15
100
AcDbSpline
210
0.0
220
0.0
230
1.0
 70
     8
 71
     3
 72
    12
 73
     8
 74
     0
 42
0.000000001
 43
0.00000001
 40
0.0
 40
0.0
 40
0.0
 40
0.0
 40
0.25
 40
0.25
 40
0.5
 40
0.5
 40
1.0
 40
1.0
 40
1.0
 40
1.0
 10
27.35403483694189
 20
-1.640763998371851
 30
0.0
 10
27.30495670252155
 20
-0.9320251574993469
 30
0.0
 10
27.2561603993272
 20
-0.2166726229975655
 30
0.0
 10
27.16118832317025
 20
1.196416653956762
 30
0.0
 10
27.11618781784127
 20
1.888381535087921
 30
0.0
 10
26.97539184752132
 20
3.95642559440679
 30
0.0
 10
26.87545252436443
 20
5.314047078052815
 30
0.0
 10
26.77779766441446
 20
6.532990181132442
 30
0.0
  0
SPLINE
  5
104
330
1F
100
AcDbEntity
  8
외형선
  6
Continuous
 62
     1
370
    15
100
AcDbSpline
210
0.0
220
0.0
230
1.0
 70
     8
 71
     3
 72
    12
 73
     8
 74
     0
 42
0.000000001
 43
0.00000001
 40
0.0
 40
0.0
 40
0.0
 40
0.0
 40
0.5
 40
0.5
 40
0.75
 40
0.75
 40
1.0
 40
1.0
 40
1.0
 40
1.0
 10
18.40099576519916
 20
3.477444904775662
 30
0.0
 10
18.30538580188571
 20
4.852096250137773
 30
0.0
 10
18.20542252629325
 20
6.178804471275142
 30
0.0
 10
18.0615126889867
 20
7.929660063870377
 30
0.0
 10
18.01516690224777
 20
8.471742279331856
 30
0.0
 10
17.92365741722863
 20
9.468972162320373
 30
0.0
 10
17.87614741734835
 20
9.932212152388049
 30
0.0
 10
17.82782369742324
 20
10.34799747252666
 30
0.0
  0
SPLINE
  5
105
330
1F
100
AcDbEntity
  8
외형선
  6
Continuous
 62
     1
370
    15
100
AcDbSpline
210
0.0
220
0.0
230
1.0
 70
     8
 71
     3
 72
     8
 73
     4
 74
     0
 42
0.000000001
 43
0.00000001
 40
0.0
 40
0.0
 40
0.0
 40
0.0
 40
1.0
 40
1.0
 40
1.0
 40
1.0
 10
20.80603438795047
 20
9.260287897827508
 30
0.0
 10
19.81187204254035
 20
9.652451297193856
 30
0.0
 10
18.81460109514542
 20
10.01660485425383
 30
0.0
 10
17.82782374900951
 20
10.34799702863794
 30
0.0
  0
SPLINE
  5
106
330
1F
100
AcDbEntity
  8
외형선
  6
Continuous
 62
     1
370
    15
100
AcDbSpline
210
0.0
220
0.0
230
1.0
 70
     8
 71
     3
 72
    12
 73
     8
 74
     0
 42
0.000000001
 43
0.00000001
 40
0.0
 40
0.0
 40
0.0
 40
0.0
 40
0.4999999999999999
 40
0.4999999999999999
 40
0.75
 40
0.75
 40
1.0
 40
1.0
 40
1.0
 40
1.0
 10
21.37789578503603
 20
1.79983723366108
 30
0.0
 10
21.2868994862264
 20
3.192575039752488
 30
0.0
 10
21.18845862979091
 20
4.588443706729507
 30
0.0
 10
21.04159755889832
 20
6.506013579912677
 30
0.0
 10
20.99281591541907
 20
7.115865048664215
 30
0.0
 10
20.89765409333398
 20
8.252679681257856
 30
0.0
 10
20.85247865846288
 20
8.77560609905305
 30
0.0
 10
20.80603456480744
 20
9.26028635795428
 30
0.0
  0
SPLINE
  5
107
330
1F
100
AcDbEntity
  8
외형선
  6
Continuous
 62
     1
370
    15
100
AcDbSpline
210
0.0
220
0.0
230
1.0
 70
     8
 71
     3
 72
    10
 73
     6
 74
     0
 42
0.000000001
 43
0.00000001
 40
0.0
 40
0.0
 40
0.0
 40
0.0
 40
0.5
 40
0.5
 40
1.0
 40
1.0
 40
1.0
 40
1.0
 10
26.77779735747595
 20
6.532994012385899
 30
0.0
 10
27.03881291355287
 20
6.325985968886262
 30
0.0
 10
27.34800282492062
 20
6.146947296657568
 30
0.0
 10
27.95312562180221
 20
5.854114462321428
 30
0.0
 10
28.24570402872131
 20
5.741427615197273
 30
0.0
 10
28.49138913252106
 20
5.676608021851794
 30
0.0
  0
SPLINE
  5
108
330
1F
100
AcDbEntity
  8
외형선
  6
Continuous
 62
     1
370
    15
100
AcDbSpline
210
0.0
220
0.0
230
1.0
 70
     8
 71
     3
 72
    12
 73
     8
 74
     0
 42
0.000000001
 43
0.00000001
 40
0.0
 40
0.0
 40
0.0
 40
0.0
 40
0.2499999999999999
 40
0.2499999999999999
 40
0.4999999999999999
 40
0.4999999999999999
 40
1.0
 40
1.0
 40
1.0
 40
1.0
 10
23.51815251217105
 20
0.5427063928245338
 30
0.0
 10
23.4706897037075
 20
1.249434632346577
 30
0.0
 10
23.42569475139332
 20
1.941428632689583
 30
0.0
 10
23.33159488594493
 20
3.320817348356156
 30
0.0
 10
23.28306731736783
 20
4.005139513573174
 30
0.0
 10
23.13607962917069
 20
5.996079790508255
 30
0.0
 10
23.03633223162042
 20
7.236818029184896
 30
0.0
 10
22.94313626242677
 20
8.29279871954162
 30
0.0
  0
SPLINE
  5
109
330
1F
100
AcDbEntity
  8
외형선
  6
Continuous
 62
     1
370
    15
100
AcDbSpline
210
0.0
220
0.0
230
1.0
 70
     8
 71
     3
 72
     8
 73
     4
 74
     0
 42
0.000000001
 43
0.00000001
 40
0.0
 40
0.0
 40
0.0
 40
0.0
 40
1.0
 40
1.0
 40
1.0
 40
1.0
 10
22.94313626240875
 20
8.292798719755442
 30
0.0
 10
23.0682237153263
 20
8.291172160622184
 30
0.0
 10
23.21837600252457
 20
8.25228596690931
 30
0.0
 10
23.37227351289084
 20
8.184286875928299
 30
0.0
  0
SPLINE
  5
10A
330
1F
100
AcDbEntity
  8
외형선
  6
Continuous
 62
     1
370
    15
100
AcDbSpline
210
0.0
220
0.0
230
1.0
 70
     8
 71
     3
 72
     8
 73
     4
 74
     0
 42
0.000000001
 43
0.00000001
 40
0.0
 40
0.0
 40
0.0
 40
0.0
 40
1.0
 40
1.0
 40
1.0
 40
1.0
 10
33.19236649629957
 20
12.59517646494033
 30
0.0
 10
33.04402844120966
 20
12.58418788918183
 30
0.0
 10
32.89335677780103
 20
12.52818550984445
 30
0.0
 10
32.76528552170649
 20
12.42321374773504
 30
0.0
  0
SPLINE
  5
10B
330
1F
100
AcDbEntity
  8
외형선
  6
Continuous
 62
     1
370
    15
100
AcDbSpline
210
0.0
220
0.0
230
1.0
 70
     8
 71
     3
 72
     8
 73
     4
 74
     0
 42
0.000000001
 43
0.00000001
 40
0.0
 40
0.0
 40
0.0
 40
0.0
 40
1.0
 40
1.0
 40
1.0
 40
1.0
 10
34.46654575304937
 20
12.66825435960722
 30
0.0
 10
34.0407970824272
 20
12.65093646143999
 30
0.0
 10
33.61544023632383
 20
12.62652610078934
 30
0.0
 10
33.19154118240043
 20
12.5951153184225
 30
0.0
  0
SPLINE
  5
10C
330
1F
100
AcDbEntity
  8
외형선
  6
Continuous
 62
     1
370
    15
100
AcDbSpline
210
0.0
220
0.0
230
1.0
 70
     8
 71
     3
 72
     8
 73
     4
 74
     0
 42
0.000000001
 43
0.00000001
 40
0.0
 40
0.0
 40
0.0
 40
0.0
 40
1.0
 40
1.0
 40
1.0
 40
1.0
 10
37.39986329944128
 20
9.672654814275393
 30
0.0
 10
36.45899628768056
 20
10.72421160006394
 30
0.0
 10
35.47152771041026
 20
11.7155953850346
 30
0.0
 10
34.46654575304908
 20
12.66825435960721
 30
0.0
  0
LINE
  5
10D
330
1F
100
AcDbEntity
  8
외형선
  6
Continuous
 62
     1
370
    15
100
AcDbLine
 10
37.39986329944128
 20
8.223256093301117
 30
0.0
 11
37.39986329944128
 21
9.672654814275393
 31
0.0
  0
SPLINE
  5
10E
330
1F
100
AcDbEntity
  8
외형선
  6
Continuous
 62
     1
370
    15
100
AcDbSpline
210
0.0
220
0.0
230
1.0
 70
     8
 71
     3
 72
    12
 73
     8
 74
     0
 42
0.000000001
 43
0.00000001
 40
0.0
 40
0.0
 40
0.0
 40
0.0
 40
0.2500000000000003
 40
0.2500000000000003
 40
0.5000000000000007
 40
0.5000000000000007
 40
1.0
 40
1.0
 40
1.0
 40
1.0
 10
37.39986329944128
 20
8.22325609330112
 30
0.0
 10
37.1906135983527
 20
7.745357658013068
 30
0.0
 10
36.94393586247014
 20
7.30259971285937
 30
0.0
 10
36.37170873059129
 20
6.49113496655055
 30
0.0
 10
36.04192624524889
 20
6.120037651757409
 30
0.0
 10
34.97873628714535
 20
5.173910020201535
 30
0.0
 10
34.14832201636674
 20
4.744050477667375
 30
0.0
 10
33.28905480626746
 20
4.518212938422454
 30
0.0
  0
SPLINE
  5
10F
330
1F
100
AcDbEntity
  8
외형선
  6
Continuous
 62
     1
370
    15
100
AcDbSpline
210
0.0
220
0.0
230
1.0
 70
     8
 71
     3
 72
     8
 73
     4
 74
     0
 42
0.000000001
 43
0.00000001
 40
0.0
 40
0.0
 40
0.0
 40
0.0
 40
1.0
 40
1.0
 40
1.0
 40
1.0
 10
37.39986329944128
 20
2.449822050260609
 30
0.0
 10
35.99434659813204
 20
3.214118456984672
 30
0.0
 10
34.62532685657735
 20
3.900928748921499
 30
0.0
 10
33.28905480626618
 20
4.51821293841654
 30
0.0
  0
LINE
  5
110
330
1F
100
AcDbEntity
  8
외형선
  6
Continuous
 62
     1
370
    15
100
AcDbLine
 10
37.39986329944128
 20
1.35148062775957
 30
0.0
 11
37.39986329944128
 21
2.449822050260606
 31
0.0
  0
SPLINE
  5
111
330
1F
100
AcDbEntity
  8
외형선
  6
Continuous
 62
     1
370
    15
100
AcDbSpline
210
0.0
220
0.0
230
1.0
 70
     8
 71
     3
 72
    10
 73
     6
 74
     0
 42
0.000000001
 43
0.00000001
 40
0.0
 40
0.0
 40
0.0
 40
0.0
 40
0.5
 40
0.5
 40
1.0
 40
1.0
 40
1.0
 40
1.0
 10
21.23246260746953
 20
9.00156620137816
 30
0.0
 10
21.49302462504262
 20
8.775058578338406
 30
0.0
 10
21.80191309724194
 20
8.6024551309532
 30
0.0
 10
22.40630880662273
 20
8.362914470987743
 30
0.0
 10
22.69808421178268
 20
8.295985223610469
 30
0.0
 10
22.94313626240795
 20
8.292798719755027
 30
0.0
  0
SPLINE
  5
112
330
1F
100
AcDbEntity
  8
외형선
  6
Continuous
 62
     1
370
    15
100
AcDbSpline
210
0.0
220
0.0
230
1.0
 70
     8
 71
     3
 72
     8
 73
     4
 74
     0
 42
0.000000001
 43
0.00000001
 40
0.0
 40
0.0
 40
0.0
 40
0.0
 40
1.0
 40
1.0
 40
1.0
 40
1.0
 10
20.80603441840644
 20
9.26028788581568
 30
0.0
 10
20.95417009057583
 20
9.201853376479255
 30
0.0
 10
21.10463802233554
 20
9.112684633812451
 30
0.0
 10
21.23246260746776
 20
9.001566201379678
 30
0.0
  0
SPLINE
  5
113
330
1F
100
AcDbEntity
  8
외형선
  6
Continuous
 62
     1
370
    15
100
AcDbSpline
210
0.0
220
0.0
230
1.0
 70
     8
 71
     3
 72
     8
 73
     4
 74
     0
 42
0.000000001
 43
0.00000001
 40
0.0
 40
0.0
 40
0.0
 40
0.0
 40
1.0
 40
1.0
 40
1.0
 40
1.0
 10
17.39816521531761
 20
10.38340823351127
 30
0.0
 10
17.52349128226505
 20
10.4132837006749
 30
0.0
 10
17.6737876466794
 20
10.39972740032182
 30
0.0
 10
17.82782374901335
 20
10.34799702863666
 30
0.0
  0
SPLINE
  5
114
330
1F
100
AcDbEntity
  8
외형선
  6
Continuous
 62
     1
370
    15
100
AcDbSpline
210
0.0
220
0.0
230
1.0
 70
     8
 71
     3
 72
    10
 73
     6
 74
     0
 42
0.000000001
 43
0.00000001
 40
0.0
 40
0.0
 40
0.0
 40
0.0
 40
0.5000000000000002
 40
0.5000000000000002
 40
1.0
 40
1.0
 40
1.0
 40
1.0
 10
15.6847935812844
 20
10.90151158522128
 30
0.0
 10
15.94576590928875
 20
10.66924667409189
 30
0.0
 10
16.25508968948007
 20
10.5134972917673
 30
0.0
 10
16.86040698266161
 20
10.34158834481759
 30
0.0
 10
17.15276532971471
 20
10.32490934016046
 30
0.0
 10
17.39816521531681
 20
10.38340823351076
 30
0.0
  0
SPLINE
  5
115
330
1F
100
AcDbEntity
  8
외형선
  6
Continuous
 62
     1
370
    15
100
AcDbSpline
210
0.0
220
0.0
230
1.0
 70
     8
 71
     3
 72
     8
 73
     4
 74
     0
 42
0.000000001
 43
0.00000001
 40
0.0
 40
0.0
 40
0.0
 40
0.0
 40
1.0
 40
1.0
 40
1.0
 40
1.0
 10
15.25778364510376
 20
11.13592856657293
 30
0.0
 10
15.40609612444447
 20
11.09484761212537
 30
0.0
 10
15.55676427622762
 20
11.01545744066209
 30
0.0
 10
15.68479358128264
 20
10.90151158522284
 30
0.0
  0
SPLINE
  5
11D
330
1F
100
AcDbEntity
  8
외형선
  6
Continuous
 62
     1
370
    15
100
AcDbSpline
210
0.0
220
0.0
230
1.0
 70
     8
 71
     3
 72
    10
 73
     6
 74
     0
 42
0.000000001
 43
0.00000001
 40
0.0
 40
0.0
 40
0.0
 40
0.0
 40
0.3742128458706203
 40
0.7468321276013405
 40
1.0
 40
1.0
 40
1.0
 40
1.0
 10
21.67200949962748
 20
9.989871429453215
 30
0.0
 10
21.52423299215879
 20
9.877747039721687
 30
0.0
 10
21.22930927508123
 20
9.653975735600945
 30
0.0
 10
20.77995467816928
 20
9.461868927122149
 30
0.0
 10
20.52453130643806
 20
9.421941034593402
 30
0.0
 10
20.42119746336476
 20
9.40578784331397
 30
0.0
  0
SPLINE
  5
11E
330
1F
100
AcDbEntity
  8
외형선
  6
Continuous
 62
     1
370
    15
100
AcDbSpline
210
0.0
220
0.0
230
1.0
 70
     8
 71
     3
 72
     8
 73
     4
 74
     0
 42
0.000000001
 43
0.00000001
 40
0.0
 40
0.0
 40
0.0
 40
0.0
 40
1.0
 40
1.0
 40
1.0
 40
1.0
 10
22.09894994800039
 20
10.23942252795947
 30
0.0
 10
21.95070882947823
 20
10.18869436363255
 30
0.0
 10
21.80006016678171
 20
10.103393001158
 30
0.0
 10
21.67200949962815
 20
9.989871429453816
 30
0.0
  0
SPLINE
  5
11F
330
1F
100
AcDbEntity
  8
외형선
  6
Continuous
 62
     1
370
    15
100
AcDbSpline
210
0.0
220
0.0
230
1.0
 70
     8
 71
     3
 72
     8
 73
     4
 74
     0
 42
0.000000001
 43
0.00000001
 40
0.0
 40
0.0
 40
0.0
 40
0.0
 40
1.0
 40
1.0
 40
1.0
 40
1.0
 10
25.0771668157839
 20
11.16019156621218
 30
0.0
 10
24.08056657668113
 20
10.88615559528086
 30
0.0
 10
23.0895437464429
 20
10.57840408375508
 30
0.0
 10
22.09894994768906
 20
10.23942252785293
 30
0.0
  0
SPLINE
  5
120
330
1F
100
AcDbEntity
  8
외형선
  6
Continuous
 62
     1
370
    15
100
AcDbSpline
210
0.0
220
0.0
230
1.0
 70
     8
 71
     3
 72
     8
 73
     4
 74
     0
 42
0.000000001
 43
0.00000001
 40
0.0
 40
0.0
 40
0.0
 40
0.0
 40
1.0
 40
1.0
 40
1.0
 40
1.0
 10
25.50612487291623
 20
11.15836215515947
 30
0.0
 10
25.38110310587893
 20
11.20301859331753
 30
0.0
 10
25.23099215624154
 20
11.20248903559122
 30
0.0
 10
25.07716921069
 20
11.16019222474138
 30
0.0
  0
SPLINE
  5
121
330
1F
100
AcDbEntity
  8
외형선
  6
Continuous
 62
     1
370
    15
100
AcDbSpline
210
0.0
220
0.0
230
1.0
 70
     8
 71
     3
 72
    10
 73
     6
 74
     0
 42
0.000000001
 43
0.00000001
 40
0.0
 40
0.0
 40
0.0
 40
0.0
 40
0.5
 40
0.5
 40
1.0
 40
1.0
 40
1.0
 40
1.0
 10
27.21672154854976
 20
11.57214264634425
 30
0.0
 10
26.9563975431393
 20
11.34252732897973
 30
0.0
 10
26.64777930475634
 20
11.19820660719572
 30
0.0
 10
26.0434084774726
 20
11.0627192169216
 30
0.0
 10
25.75123608683106
 20
11.07081105085329
 30
0.0
 10
25.50612487291829
 20
11.15836215515804
 30
0.0
  0
SPLINE
  5
122
330
1F
100
AcDbEntity
  8
외형선
  6
Continuous
 62
     1
370
    15
100
AcDbSpline
210
0.0
220
0.0
230
1.0
 70
     8
 71
     3
 72
     8
 73
     4
 74
     0
 42
0.000000001
 43
0.00000001
 40
0.0
 40
0.0
 40
0.0
 40
0.0
 40
1.0
 40
1.0
 40
1.0
 40
1.0
 10
27.64332985673841
 20
11.78993978794101
 30
0.0
 10
27.49517837370617
 20
11.75802943563231
 30
0.0
 10
27.34467509018396
 20
11.68500236139002
 30
0.0
 10
27.21672154855042
 20
11.57214264634483
 30
0.0
  0
SPLINE
  5
123
330
1F
100
AcDbEntity
  8
외형선
  6
Continuous
 62
     1
370
    15
100
AcDbSpline
210
0.0
220
0.0
230
1.0
 70
     8
 71
     3
 72
     8
 73
     4
 74
     0
 42
0.000000001
 43
0.00000001
 40
0.0
 40
0.0
 40
0.0
 40
0.0
 40
1.0
 40
1.0
 40
1.0
 40
1.0
 10
30.62290796925507
 20
12.3192023445699
 30
0.0
 10
29.62803149227558
 20
12.17984953811908
 30
0.0
 10
28.630298098822
 20
12.00252295083858
 30
0.0
 10
27.64332811253913
 20
11.78993941225786
 30
0.0
  0
SPLINE
  5
124
330
1F
100
AcDbEntity
  8
외형선
  6
Continuous
 62
     1
370
    15
100
AcDbSpline
210
0.0
220
0.0
230
1.0
 70
     8
 71
     3
 72
     8
 73
     4
 74
     0
 42
0.000000001
 43
0.00000001
 40
0.0
 40
0.0
 40
0.0
 40
0.0
 40
1.0
 40
1.0
 40
1.0
 40
1.0
 10
31.05170455396712
 20
12.24252715701643
 30
0.0
 10
30.92644288581509
 20
12.31513251737992
 30
0.0
 10
30.77612441533907
 20
12.34066662681061
 30
0.0
 10
30.62208528638008
 20
12.31908710247524
 30
0.0
  0
SPLINE
  5
125
330
1F
100
AcDbEntity
  8
외형선
  6
Continuous
 62
     1
370
    15
100
AcDbSpline
210
0.0
220
0.0
230
1.0
 70
     8
 71
     3
 72
    10
 73
     6
 74
     0
 42
0.000000001
 43
0.00000001
 40
0.0
 40
0.0
 40
0.0
 40
0.0
 40
0.5
 40
0.5
 40
1.0
 40
1.0
 40
1.0
 40
1.0
 10
32.76528552170585
 20
12.4232137477345
 30
0.0
 10
32.50436055876367
 20
12.20935035657496
 30
0.0
 10
32.19534342933412
 20
12.09590289348833
 30
0.0
 10
31.59007325312115
 20
12.04193838813968
 30
0.0
 10
31.29739446063083
 20
12.10011803478013
 30
0.0
 10
31.05170455396921
 20
12.24252715701485
 30
0.0
  0
SPLINE
  5
126
330
1F
100
AcDbEntity
  8
외형선
  6
Continuous
 62
     1
370
    15
100
AcDbSpline
210
0.0
220
0.0
230
1.0
 70
     8
 71
     3
 72
    14
 73
    10
 74
     0
 42
0.000000001
 43
0.00000001
 40
0.0
 40
0.0
 40
0.0
 40
0.0
 40
0.2499999999999999
 40
0.2499999999999999
 40
0.4999999999999999
 40
0.4999999999999999
 40
0.7499999999999998
 40
0.7499999999999998
 40
1.0
 40
1.0
 40
1.0
 40
1.0
 10
21.80675166204816
 20
1.518371485389224
 30
0.0
 10
21.76069468466633
 20
2.213872762496004
 30
0.0
 10
21.71417758412258
 20
2.904681217739782
 30
0.0
 10
21.61772339565293
 20
4.268167634632945
 30
0.0
 10
21.56847304430804
 20
4.937319035819592
 30
0.0
 10
21.47004571826173
 20
6.220562203000782
 30
0.0
 10
21.42087913215679
 20
6.83451939062205
 30
0.0
 10
21.32474813276955
 20
7.982032684311449
 30
0.0
 10
21.27878236297086
 20
8.512121543729046
 30
0.0
 10
21.23246252734126
 20
9.001567048065505
 30
0.0
  0
SPLINE
  5
127
330
1F
100
AcDbEntity
  8
외형선
  6
Continuous
 62
     1
370
    15
100
AcDbSpline
210
0.0
220
0.0
230
1.0
 70
     8
 71
     3
 72
    12
 73
     8
 74
     0
 42
0.000000001
 43
0.00000001
 40
0.0
 40
0.0
 40
0.0
 40
0.0
 40
0.5000000000000001
 40
0.5000000000000001
 40
0.75
 40
0.75
 40
1.0
 40
1.0
 40
1.0
 40
1.0
 10
17.97414144993364
 20
3.654707932505465
 30
0.0
 10
17.87765930299317
 20
5.015001742452968
 30
0.0
 10
17.77723021167881
 20
6.320639936559899
 30
0.0
 10
17.63339871572286
 20
8.032530177890928
 30
0.0
 10
17.58766869127516
 20
8.558996103539926
 30
0.0
 10
17.49492936719039
 20
9.532418100643222
 30
0.0
 10
17.44689291389749
 20
9.982240223066652
 30
0.0
 10
17.39816521531903
 20
10.38340823349255
 30
0.0
  0
SPLINE
  5
12A
330
1F
100
AcDbEntity
  8
외형선
  6
Continuous
 62
     1
370
    15
100
AcDbSpline
210
0.0
220
0.0
230
1.0
 70
     8
 71
     3
 72
    12
 73
     8
 74
     0
 42
0.000000001
 43
0.00000001
 40
0.0
 40
0.0
 40
0.0
 40
0.0
 40
0.5000000000000001
 40
0.5000000000000001
 40
0.75
 40
0.75
 40
1.0
 40
1.0
 40
1.0
 40
1.0
 10
16.26098378589764
 20
4.579915333481472
 30
0.0
 10
16.16318119861521
 20
5.909423384119569
 30
0.0
 10
16.06342827144364
 20
7.155336538051596
 30
0.0
 10
15.92334020323424
 20
8.750162854520282
 30
0.0
 10
15.87813710710244
 20
9.238200564846633
 30
0.0
 10
15.78280256506201
 20
10.13892862471808
 30
0.0
 10
15.73389849518319
 20
10.54664990889732
 30
0.0
 10
15.68479368600316
 20
10.90151082846044
 30
0.0
  0
SPLINE
  5
12D
330
1F
100
AcDbEntity
  8
외형선
  6
Continuous
 62
     1
370
    15
100
AcDbSpline
210
0.0
220
0.0
230
1.0
 70
     8
 71
     3
 72
    12
 73
     8
 74
     0
 42
0.000000001
 43
0.00000001
 40
0.0
 40
0.0
 40
0.0
 40
0.0
 40
0.25
 40
0.25
 40
0.5
 40
0.5
 40
0.9733951991034769
 40
0.9733951991034769
 40
0.9733951991034769
 40
0.9733951991034769
 10
12.85075216262391
 20
6.417375314524368
 30
0.0
 10
12.80203289862024
 20
7.0378895156459
 30
0.0
 10
12.75379603780523
 20
7.625225998942635
 30
0.0
 10
12.66026963132689
 20
8.71156993459001
 30
0.0
 10
12.61549425569173
 20
9.209626121935456
 30
0.0
 10
12.47882895540236
 20
10.54445014214169
 30
0.0
 10
12.38463117050498
 20
11.26493376553301
 30
0.0
 10
12.30870769815104
 20
12.55172666056868
 30
0.0
  0
SPLINE
  5
12E
330
1F
100
AcDbEntity
  8
외형선
  6
Continuous
 62
     1
370
    15
100
AcDbSpline
210
0.0
220
0.0
230
1.0
 70
     8
 71
     3
 72
    12
 73
     8
 74
     0
 42
0.000000001
 43
0.00000001
 40
0.0
 40
0.0
 40
0.0
 40
0.0
 40
0.5000000000000002
 40
0.5000000000000002
 40
0.7500000000000001
 40
0.7500000000000001
 40
1.0
 40
1.0
 40
1.0
 40
1.0
 10
15.83132435567131
 20
4.879062269032954
 30
0.0
 10
15.73375625281098
 20
6.207120160616326
 30
0.0
 10
15.63479669667642
 20
7.443842429914863
 30
0.0
 10
15.49644413210243
 20
9.018398277312823
 30
0.0
 10
15.45091981356777
 20
9.50215386736976
 30
0.0
 10
15.35551283035964
 20
10.38997817166707
 30
0.0
 10
15.30669127270192
 20
10.78985965072444
 30
0.0
 10
15.25778360960606
 20
11.13592881771231
 30
0.0
  0
SPLINE
  5
135
330
1F
100
AcDbEntity
  8
외형선
  6
Continuous
 62
     1
370
    15
100
AcDbSpline
210
0.0
220
0.0
230
1.0
 70
     8
 71
     3
 72
    12
 73
     8
 74
     0
 42
0.000000001
 43
0.00000001
 40
0.0
 40
0.0
 40
0.0
 40
0.0
 40
0.2500000000000001
 40
0.2500000000000001
 40
0.5000000000000002
 40
0.5000000000000002
 40
0.7406634619599886
 40
0.7406634619599886
 40
0.7406634619599886
 40
0.7406634619599886
 10
12.42369891066133
 20
6.539445602203013
 30
0.0
 10
12.3748688099357
 20
7.148761297450485
 30
0.0
 10
12.3266383759021
 20
7.723618116816854
 30
0.0
 10
12.23335480994219
 20
8.783254077890046
 30
0.0
 10
12.1880544076724
 20
9.26990736373021
 30
0.0
 10
12.09436527256508
 20
10.15038134535818
 30
0.0
 10
12.04727751081927
 20
10.54143232971091
 30
0.0
 10
12.0
 20
10.88457105370175
 30
0.0
  0
SPLINE
  5
13F
330
1F
100
AcDbEntity
  8
외형선
  6
Continuous
 62
     1
370
    15
100
AcDbSpline
210
0.0
220
0.0
230
1.0
 70
     8
 71
     3
 72
     8
 73
     4
 74
     0
 42
0.000000001
 43
0.00000001
 40
0.0
 40
0.0
 40
0.0
 40
0.0
 40
0.0449754906278849
 40
0.0449754906278849
 40
0.0449754906278849
 40
0.0449754906278849
 10
12.13354881684098
 20
-12.6903520940379
 30
0.0
 10
12.08904955484225
 20
-12.68935284272316
 30
0.0
 10
12.04453286903602
 20
-12.68827495832327
 30
0.0
 10
11.99999999999999
 20
-12.68711850418243
 30
0.0
  0
SPLINE
  5
140
330
1F
100
AcDbEntity
  8
외형선
  6
Continuous
 62
     1
370
    15
100
AcDbSpline
210
0.0
220
0.0
230
1.0
 70
     8
 71
     3
 72
     8
 73
     4
 74
     0
 42
0.000000001
 43
0.00000001
 40
0.0
 40
0.0
 40
0.0
 40
0.0
 40
0.2279440180669632
 40
0.2279440180669632
 40
0.2279440180669632
 40
0.2279440180669632
 10
12.13354876058827
 20
-12.69035206823982
 30
0.0
 10
12.08928169210115
 20
-12.66492398111726
 30
0.0
 10
12.0445042147933
 20
-12.58738441789751
 30
0.0
 10
12.0
 20
-12.46091717352815
 30
0.0
  0
SPLINE
  5
143
330
1F
100
AcDbEntity
  8
외형선
  6
Continuous
 62
     1
370
    15
100
AcDbSpline
210
0.0
220
0.0
230
1.0
 70
     8
 71
     3
 72
     8
 73
     4
 74
     0
 42
0.000000001
 43
0.00000001
 40
0.0
 40
0.0
 40
0.0
 40
0.0
 40
1.0
 40
1.0
 40
1.0
 40
1.0
 10
12.56320361758519
 20
-12.55572745839815
 30
0.0
 10
12.43792747247225
 20
-12.64798349948545
 30
0.0
 10
12.28760980340964
 20
-12.69381160411909
 30
0.0
 10
12.13354880503913
 20
-12.69035209377289
 30
0.0
  0
LINE
  5
145
330
1F
100
AcDbEntity
  8
외형선
  6
Continuous
 62
     1
370
    15
100
AcDbLine
 10
14.18122530885337
 20
-12.5017683796304
 30
0.0
 11
14.15241597779514
 21
-12.49166923618227
 31
0.0
  0
LINE
  5
149
330
1F
100
AcDbEntity
  8
외형선
  6
Continuous
 62
     1
370
    15
100
AcDbLine
 10
37.39986329944128
 20
2.449822050260609
 30
0.0
 11
37.39986329944128
 21
8.223256093301117
 31
0.0
  0
LINE
  5
14A
330
1F
100
AcDbEntity
  8
외형선
  6
Continuous
 62
     1
370
    15
100
AcDbLine
 10
25.30274211027191
 20
-12.6753899601993
 30
0.0
 11
25.29774057144542
 21
-12.67350520607693
 31
0.0
  0
LINE
  5
14B
330
1F
100
AcDbEntity
  8
외형선
  6
Continuous
 62
     1
370
    15
100
AcDbLine
 10
37.39986329944128
 20
-6.006743963500059
 30
0.0
 11
37.39986329944128
 21
-7.424483858366285
 31
0.0
  0
LINE
  5
14C
330
1F
100
AcDbEntity
  8
외형선
  6
Continuous
 62
     1
370
    15
100
AcDbLine
 10
37.39986329944128
 20
9.766614103328454
 30
0.0
 11
37.39986329944128
 21
9.672654814275393
 31
0.0
  0
SPLINE
  5
14E
330
1F
100
AcDbEntity
  8
외형선
  6
Continuous
 62
     1
370
    15
100
AcDbSpline
210
0.0
220
0.0
230
1.0
 70
     8
 71
     3
 72
    12
 73
     8
 74
     0
 42
0.000000001
 43
0.00000001
 40
0.0
 40
0.0
 40
0.0
 40
0.0
 40
0.1983442683062807
 40
0.4238771902857609
 40
0.6464880819661974
 40
0.8695657630902527
 40
0.9772004265782254
 40
0.9772004265782254
 40
0.9772004265782254
 40
0.9772004265782254
 10
12.54748957948482
 20
-12.53461806257802
 30
0.0
 10
12.50994074896663
 20
-12.50018522480772
 30
0.0
 10
12.42969596592111
 20
-12.42659956159559
 30
0.0
 10
12.30677397283317
 20
-11.97912717940008
 30
0.0
 10
12.18441163312413
 20
-11.27681681450495
 30
0.0
 10
12.08275362554734
 20
-10.4994037844994
 30
0.0
 10
12.02034294783221
 20
-9.938917687385942
 30
0.0
 10
12.0
 20
-9.754725628779434
 30
0.0
  0
SPLINE
  5
14F
330
1F
100
AcDbEntity
  8
외형선
  6
Continuous
 62
     1
370
    15
100
AcDbSpline
210
0.0
220
0.0
230
1.0
 70
     8
 71
     3
 72
    12
 73
     8
 74
     0
 42
0.000000001
 43
0.00000001
 40
0.0
 40
0.0
 40
0.0
 40
0.0
 40
0.0449330881768829
 40
0.3609735633207112
 40
0.6733789165246542
 40
0.9850598517403331
 40
1.0
 40
1.0
 40
1.0
 40
1.0
 10
14.15241597779514
 20
-12.49166923618227
 30
0.0
 10
14.14557608667556
 20
-12.49020803066147
 30
0.0
 10
14.09062727344385
 20
-12.47846931905748
 30
0.0
 10
13.98628665689985
 20
-12.11767320402483
 30
0.0
 10
13.84627573849874
 20
-11.40186006631875
 30
0.0
 10
13.75211832610033
 20
-10.67588984619219
 30
0.0
 10
13.70259778858338
 20
-10.25522060041609
 30
0.0
 10
13.70033264340498
 20
-10.2359785452698
 30
0.0
  0
SPLINE
  5
151
330
1F
100
AcDbEntity
  8
외형선
  6
Continuous
 62
     1
370
    15
100
AcDbSpline
210
0.0
220
0.0
230
1.0
 70
     8
 71
     3
 72
    11
 73
     7
 74
     0
 42
0.000000001
 43
0.00000001
 40
0.0
 40
0.0
 40
0.0
 40
0.0
 40
0.148475911510347
 40
0.4347650859929363
 40
0.7181102021978848
 40
1.0
 40
1.0
 40
1.0
 40
1.0
 10
14.63329195764114
 20
-12.65448027862618
 30
0.0
 10
14.60824752664556
 20
-12.66146787342786
 30
0.0
 10
14.53491277432994
 20
-12.68192885072668
 30
0.0
 10
14.41118374075629
 20
-12.31465067167042
 30
0.0
 10
14.26968671588298
 20
-11.61855181878972
 30
0.0
 10
14.17635637418689
 20
-10.87499274525032
 30
0.0
 10
14.12981135282045
 20
-10.50417043456176
 30
0.0
  0
SPLINE
  5
152
330
1F
100
AcDbEntity
  8
외형선
  6
Continuous
 62
     1
370
    15
100
AcDbSpline
210
0.0
220
0.0
230
1.0
 70
     8
 71
     3
 72
    10
 73
     6
 74
     0
 42
0.000000001
 43
0.00000001
 40
0.0
 40
0.0
 40
0.0
 40
0.0
 40
0.0796248460622916
 40
0.5425174741162053
 40
1.0
 40
1.0
 40
1.0
 40
1.0
 10
17.49955572983667
 20
-12.65926776038009
 30
0.0
 10
17.48925488788375
 20
-12.67199791837593
 30
0.0
 10
17.41907093106722
 20
-12.75873382434685
 30
0.0
 10
17.28360998704308
 20
-12.39331592521929
 30
0.0
 10
17.16555970781522
 20
-11.70999829428925
 30
0.0
 10
17.10688152675897
 20
-11.37034780020392
 30
0.0
  0
SPLINE
  5
154
330
1F
100
AcDbEntity
  8
외형선
  6
Continuous
 62
     1
370
    15
100
AcDbSpline
210
0.0
220
0.0
230
1.0
 70
     8
 71
     3
 72
    11
 73
     7
 74
     0
 42
0.000000001
 43
0.00000001
 40
0.0
 40
0.0
 40
0.0
 40
0.0
 40
0.0556733152873586
 40
0.3715902017925329
 40
0.687634379827891
 40
1.0
 40
1.0
 40
1.0
 40
1.0
 10
17.95256793255358
 20
-12.52140186452931
 30
0.0
 10
17.94493031525738
 20
-12.53377631955592
 30
0.0
 10
17.89395322259355
 20
-12.61636932154754
 30
0.0
 10
17.79587692578004
 20
-12.47427076494878
 30
0.0
 10
17.66211591553263
 20
-12.09988409040628
 30
0.0
 10
17.57601072460722
 20
-11.59334414049719
 30
0.0
 10
17.53321014854971
 20
-11.34155674627349
 30
0.0
  0
SPLINE
  5
155
330
1F
100
AcDbEntity
  8
외형선
  6
Continuous
 62
     1
370
    15
100
AcDbSpline
210
0.0
220
0.0
230
1.0
 70
     8
 71
     3
 72
     9
 73
     5
 74
     0
 42
0.000000001
 43
0.00000001
 40
0.0
 40
0.0
 40
0.0
 40
0.0
 40
0.4200415129551596
 40
1.0
 40
1.0
 40
1.0
 40
1.0
 10
19.51083013171722
 20
-12.49757442169155
 30
0.0
 10
19.47328156290974
 20
-12.46615537979443
 30
0.0
 10
19.38388904419578
 20
-12.39135553042695
 30
0.0
 10
19.29559542280683
 20
-11.97064456447933
 30
0.0
 10
19.24438878773041
 20
-11.72664966918517
 30
0.0
  0
SPLINE
  5
156
330
1F
100
AcDbEntity
  8
외형선
  6
Continuous
 62
     1
370
    15
100
AcDbSpline
210
0.0
220
0.0
230
1.0
 70
     8
 71
     3
 72
     9
 73
     5
 74
     0
 42
0.000000001
 43
0.00000001
 40
0.0
 40
0.0
 40
0.0
 40
0.0
 40
0.4968686475329215
 40
0.9999999999999999
 40
0.9999999999999999
 40
0.9999999999999999
 40
0.9999999999999999
 10
19.96961699581887
 20
-12.69706528268076
 30
0.0
 10
19.92039657743691
 20
-12.66680482607859
 30
0.0
 10
19.82133534943164
 20
-12.60590249957357
 30
0.0
 10
19.72308511874829
 20
-12.17096804178501
 30
0.0
 10
19.67365234730437
 20
-11.95213887980332
 30
0.0
  0
SPLINE
  5
157
330
1F
100
AcDbEntity
  8
외형선
  6
Continuous
 62
     1
370
    15
100
AcDbSpline
210
0.0
220
0.0
230
1.0
 70
     8
 71
     3
 72
     9
 73
     5
 74
     0
 42
0.000000001
 43
0.00000001
 40
0.0
 40
0.0
 40
0.0
 40
0.0
 40
0.077806512064201
 40
1.0
 40
1.0
 40
1.0
 40
1.0
 10
22.83316708062695
 20
-12.68191155997202
 30
0.0
 10
22.82860271694561
 20
-12.68786718581135
 30
0.0
 10
22.76993971355089
 20
-12.76441123953296
 30
0.0
 10
22.70916878676196
 20
-12.586467950928
 30
0.0
 10
22.6531262338214
 20
-12.42236980895463
 30
0.0
  0
SPLINE
  5
158
330
1F
100
AcDbEntity
  8
외형선
  6
Continuous
 62
     1
370
    15
100
AcDbSpline
210
0.0
220
0.0
230
1.0
 70
     8
 71
     3
 72
     9
 73
     5
 74
     0
 42
0.000000001
 43
0.00000001
 40
0.0
 40
0.0
 40
0.0
 40
0.0
 40
0.2363524371874834
 40
0.9999999999999999
 40
0.9999999999999999
 40
0.9999999999999999
 40
0.9999999999999999
 10
23.28660358619957
 20
-12.49771466822951
 30
0.0
 10
23.27068674623909
 20
-12.52274322647335
 30
0.0
 10
23.20334307866424
 20
-12.62863829801008
 30
0.0
 10
23.13351767313993
 20
-12.45829585710262
 30
0.0
 10
23.08019567238886
 20
-12.3282142672601
 30
0.0
  0
LINE
  5
159
330
1F
100
AcDbEntity
  8
외형선
  6
Continuous
 62
     1
370
    15
100
AcDbLine
 10
24.85582706409462
 20
-12.51411200253172
 30
0.0
 11
24.79368970548767
 21
-12.47674033983736
 31
0.0
  0
LINE
  5
15A
330
1F
100
AcDbEntity
  8
외형선
  6
Continuous
 62
     1
370
    15
100
AcDbLine
 10
25.29774057144542
 20
-12.67350520607693
 30
0.0
 11
25.22336895523569
 21
-12.64547938940314
 31
0.0
  0
LINE
  5
15B
330
1F
100
AcDbEntity
  8
중심선
100
AcDbLine
 10
-58.50013670055873
 20
-0.0000000000000135
 30
0.0
 11
44.39986329944126
 21
-0.0000000000000008
 31
0.0
  0
LINE
  5
15C
330
1F
100
AcDbEntity
  8
참조1
100
AcDbLine
 10
5.649863299441281
 20
-0.3168705809327407
 30
0.0
 11
5.649863299441289
 21
-40.31687058093274
 31
0.0
  0
LINE
  5
15D
330
1F
100
AcDbEntity
  8
참조1
100
AcDbLine
 10
-6.616244355755189
 20
-4.7625
 30
0.0
 11
61.52633598783729
 21
-4.7625
 31
0.0
  0
LINE
  5
15E
330
1F
100
AcDbEntity
  8
참조1
100
AcDbLine
 10
61.52633598783729
 20
-4.7625
 30
0.0
 11
61.52633598783728
 21
-6.92724860617685
 31
0.0
  0
LINE
  5
15F
330
1F
100
AcDbEntity
  8
참조1
100
AcDbLine
 10
5.649863299441289
 20
-40.31687058093274
 30
0.0
 11
-11.08368650782441
 21
-40.31687058093274
 31
0.0
  0
CIRCLE
  5
160
330
1F
100
AcDbEntity
  8
해칭선
100
AcDbCircle
 10
0.0
 20
0.0
 30
0.0
 40
6.000000000000013
  0
INSERT
  5
161
330
1F
100
AcDbEntity
  8
0
  6
Continuous
 62
     7
100
AcDbBlockReference
 66
     1
  2
블럭10
 10
-8.290409632683918
 20
-52.36404488257666
 30
0.0
  0
ATTRIB
  5
162
330
161
100
AcDbEntity
  8
FORMAT
 62
     2
100
AcDbText
 10
-17.81272358328186
 20
-50.28867796974447
 30
0.0
 40
4.233333333333333
  1
E2086964 [ 3 FLUTE ]
 41
0.75
  7
SLDTEXTSTYLE0
 11
-17.81272358328186
 21
-52.40534463641114
 31
0.0
100
AcDbAttribute
  2
AUTOATTR0
 70
     0
 74
     1
  0
SEQEND
  5
163
330
161
100
AcDbEntity
  8
0
  6
Continuous
 62
     7
  0
HATCH
  5
164
330
1F
100
AcDbEntity
  8
중심선
100
AcDbHatch
 10
0.0
 20
0.0
 30
0.0
210
0.0
220
0.0
230
1.0
  2
SOLID
 70
     1
 71
     0
 91
        1
 92
        0
 93
        4
 72
     1
 10
-2.575500328303068
 20
-36.11687058093273
 11
-6.021775572140349
 21
-36.11687058093273
 72
     1
 10
-6.021775572140349
 20
-36.11687058093273
 11
-8.150005431344379
 21
-38.65319616150533
 72
     1
 10
-8.150005431344379
 20
-38.65319616150533
 11
-4.703697102393949
 21
-38.65315673220284
 72
     1
 10
-4.703697102393949
 20
-38.65315673220284
 11
-2.575500328303068
 21
-36.11687058093273
 97
        0
 75
     0
 76
     1
 98
        1
 10
13.11236329944128
 20
-0.3168705809327372
  0
HATCH
  5
165
330
1F
100
AcDbEntity
  8
중심선
100
AcDbHatch
 10
0.0
 20
0.0
 30
0.0
210
0.0
220
0.0
230
1.0
  2
SOLID
 70
     1
 71
     0
 91
        1
 92
        0
 93
        4
 72
     1
 10
2.43726366273291
 20
-36.11687058093277
 11
-1.009011581104382
 21
-36.11687058093277
 72
     1
 10
-1.009011581104382
 20
-36.11687058093277
 11
-5.540149589461791
 21
-41.51687058093275
 72
     1
 10
-5.540149589461791
 20
-41.51687058093275
 11
-2.09387434562451
 21
-41.51687058093275
 72
     1
 10
-2.09387434562451
 20
-41.51687058093275
 11
2.43726366273291
 21
-36.11687058093277
 97
        0
 75
     0
 76
     1
 98
        1
 10
13.11236329944128
 20
-0.3168705809327372
  0
HATCH
  5
166
330
1F
100
AcDbEntity
  8
중심선
100
AcDbHatch
 10
0.0
 20
0.0
 30
0.0
210
0.0
220
0.0
230
1.0
  2
SOLID
 70
     1
 71
     0
 91
        1
 92
        0
 93
        4
 72
     1
 10
7.450027653768799
 20
-36.11687058093273
 11
4.00375240993163
 21
-36.11687058093277
 72
     1
 10
4.00375240993163
 20
-36.11687058093277
 11
-3.04468449195759
 21
-44.51687058093275
 72
     1
 10
-3.04468449195759
 20
-44.51687058093275
 11
0.4015907518796915
 21
-44.51687058093275
 72
     1
 10
0.4015907518796915
 20
-44.51687058093275
 11
7.450027653768799
 21
-36.11687058093273
 97
        0
 75
     0
 76
     1
 98
        1
 10
13.11236329944128
 20
-0.3168705809327372
  0
HATCH
  5
167
330
1F
100
AcDbEntity
  8
중심선
100
AcDbHatch
 10
0.0
 20
0.0
 30
0.0
210
0.0
220
0.0
230
1.0
  2
SOLID
 70
     1
 71
     0
 91
        1
 92
        0
 93
        6
 72
     3
 10
12.24991808478097
 20
-40.31687058098401
 11
3.960054785062283
 21
1.540882976769353E-10
 40
0.3939339440162628
 50
17.09539180608439
 51
320.001965768507
 73
     0
 72
     1
 10
13.93291774048154
 20
-38.90476458557101
 11
16.2382196141826
 21
-36.97043787552312
 72
     3
 10
12.24991808472813
 20
-40.31687058093289
 11
6.600054785286829
 21
-1.278976924368180E-13
 40
0.636358354079598
 50
39.99873849337411
 51
368.4976242363721
 73
     1
 72
     1
 10
18.67525057662873
 20
-39.35687058086275
 11
10.92998539156405
 21
-39.35687058086275
 72
     1
 10
10.92998539156405
 20
-39.35687058086275
 11
10.92996034711812
 21
-41.27687058086265
 72
     1
 10
10.92996034711812
 20
-41.27687058086265
 11
15.37134011659015
 21
-41.27687058086261
 97
        0
 75
     0
 76
     1
 98
        1
 10
13.11236329944128
 20
-0.3168705809327372
  0
DIMENSION
  5
169
330
1F
100
AcDbEntity
  8
치수문자_일반주서
100
AcDbDimension
  2
_D
 10
57.29005416438095
 20
-12.69993164972057
 30
0.0
 11
57.29005416438079
 21
35.47747572899528
 31
0.0
 70
   160
  1
%%c<>
 71
     2
 42
25.39986329944128
 52
-270.0
  3
SLDDIMSTYLE0
100
AcDbAlignedDimension
 13
37.39986329944128
 23
12.69993164972064
 33
0.0
 14
37.39986329944128
 24
-12.69993164972064
 34
0.0
 50
90.0000000000002
100
AcDbRotatedDimension
1001
ACAD
1000
DSTYLE
1002
{
1070
   171
1070
     6
1070
   273
1070
     7
1002
}
  0
DIMENSION
  5
17C
330
1F
100
AcDbEntity
  8
치수문자_일반주서
100
AcDbDimension
  2
_D_1
 10
-77.59749590974707
 20
-12.69993164972077
 30
0.0
 11
-77.59749590974711
 21
-2.034677744726218
 31
0.0
 70
   160
  1
%%c<>
 71
     2
 42
25.3998632994413
 52
-270.0
  3
SLDDIMSTYLE1
100
AcDbAlignedDimension
 13
-48.77098438565667
 23
12.69993164972064
 33
0.0
 14
-48.77098438565667
 24
-12.69993164972066
 34
0.0
 50
90.0000000000002
100
AcDbRotatedDimension
1001
ACAD
1000
DSTYLE
1002
{
1070
   171
1070
     6
1070
   273
1070
     7
1002
}
  0
DIMENSION
  5
191
330
1F
100
AcDbEntity
  8
치수문자_일반주서
100
AcDbDimension
  2
_D_2
 10
12.0
 20
30.81815537615473
 30
0.0
 11
24.69993164972064
 21
30.81815537615473
 31
0.0
 70
   160
  1
<>
 71
     2
 42
25.39986329944128
  3
SLDDIMSTYLE0
100
AcDbAlignedDimension
 13
37.39986329944128
 23
8.223256093301117
 33
0.0
 14
12.0
 24
12.69993164972064
 34
0.0
 50
0.0000000000000142
100
AcDbRotatedDimension
1001
ACAD
1000
DSTYLE
1002
{
1070
   171
1070
     6
1070
   273
1070
     7
1002
}
  0
DIMENSION
  5
1A5
330
1F
100
AcDbEntity
  8
치수문자_일반주서
100
AcDbDimension
  2
_D_3
 10
-51.50013670055874
 20
50.86739583758197
 30
0.0
 11
-11.28320802448782
 21
50.86739583758197
 31
0.0
 70
   160
  1
<>
 71
     2
 42
88.9
  3
SLDDIMSTYLE2
100
AcDbAlignedDimension
 13
37.39986329944128
 23
9.672654814275393
 33
0.0
 14
-51.50013670055873
 24
10.03327933481866
 34
0.0
100
AcDbRotatedDimension
1001
ACAD
1000
DSTYLE
1002
{
1070
   171
1070
     6
1070
   273
1070
     7
1002
}
  0
LINE
  5
1B9
330
1F
100
AcDbEntity
  8
참조1
100
AcDbLine
 10
86.88865412182986
 20
7.123129419067265
 30
0.0
 11
86.88865412182986
 21
-7.75687058093274
 31
0.0
  0
LINE
  5
1BA
330
1F
100
AcDbEntity
  8
참조1
100
AcDbLine
 10
99.58865412182985
 20
5.123129419067265
 30
0.0
 11
86.88865412182986
 21
5.123129419067265
 31
0.0
  0
SOLID
  5
1BB
330
1F
100
AcDbEntity
  8
참조1
100
AcDbTrace
 10
86.88865412182986
 20
5.123129419067265
 30
0.0
 11
93.23865412182985
 21
4.107129419067265
 31
0.0
 12
93.23865412182985
 22
6.139129419067265
 32
0.0
 13
93.23865412182985
 23
6.139129419067265
 33
0.0
  0
LINE
  5
1BC
330
1F
100
AcDbEntity
  8
참조1
100
AcDbLine
 10
99.58865412182985
 20
-5.75687058093274
 30
0.0
 11
86.88865412182986
 21
-5.75687058093274
 31
0.0
  0
SOLID
  5
1BD
330
1F
100
AcDbEntity
  8
참조1
100
AcDbTrace
 10
86.88865412182986
 20
-5.75687058093274
 30
0.0
 11
93.23865412182985
 21
-6.77287058093274
 31
0.0
 12
93.23865412182985
 22
-4.740870580932738
 32
0.0
 13
93.23865412182985
 23
-4.740870580932738
 33
0.0
  0
MTEXT
  5
1BE
330
1F
100
AcDbEntity
  8
참조1
100
AcDbMText
 10
96.48876893239242
 20
10.74884698508334
 30
0.0
 40
3.5
 41
0.0
 71
     1
 72
     1
  1
A
  7
SLDTEXTSTYLE0
 73
     1
 44
1.0
  0
MTEXT
  5
1BF
330
1F
100
AcDbEntity
  8
참조1
100
AcDbMText
 10
96.48876893239242
 20
-0.1311530149166637
 30
0.0
 40
3.5
 41
0.0
 71
     1
 72
     1
  1
A
  7
SLDTEXTSTYLE0
 73
     1
 44
1.0
  0
INSERT
  5
1C6
330
1F
100
AcDbEntity
  8
해칭선
100
AcDbBlockReference
  2
SW_DOWELSYMBOL_0
 10
0.0
 20
0.0
 30
0.0
 41
2.000000000000001
 42
2.000000000000001
 43
2.000000000000001
  0
LINE
  5
213
330
1F
100
AcDbEntity
  8
외형선
  6
Continuous
370
    15
100
AcDbLine
 10
12.0
 20
12.69993164972064
 30
0.0
 11
12.0
 21
-12.69993164972064
 31
0.0
  0
LINE
  5
214
330
1F
100
AcDbEntity
  8
외형선
  6
Continuous
 62
     1
370
    15
100
AcDbLine
 10
15.25778367570693
 20
11.13592855809273
 30
0.0
 11
12.0
 21
12.69993164972064
 31
0.0
  0
LINE
  5
257
330
1F
100
AcDbEntity
  8
외형선
  6
Continuous
370
    15
100
AcDbLine
 10
12.00000000000004
 20
12.69993164972062
 30
0.0
 11
-14.07013005083809
 21
12.69993164972062
 31
0.0
  0
LINE
  5
2BC
330
1F
100
AcDbEntity
  8
외형선
  6
Continuous
370
    15
100
AcDbLine
 10
11.99999999999999
 20
12.69993164972062
 30
0.0
 11
-14.07013005083809
 21
12.69993164972062
 31
0.0
  0
LINE
  5
343
330
1F
100
AcDbEntity
  8
외형선
  6
Continuous
370
    15
100
AcDbLine
 10
-35.83217590339791
 20
12.69993164972062
 30
0.0
 11
-36.89520505083811
 21
12.69993164972062
 31
0.0
  0
LINE
  5
387
330
1F
100
AcDbEntity
  8
외형선
  6
Continuous
370
    15
100
AcDbLine
 10
-36.89513670055874
 20
12.7
 30
0.0
 11
-30.98646170055861
 21
12.7
 31
0.0
  0
LINE
  5
388
330
1F
100
AcDbEntity
  8
외형선
  6
Continuous
370
    15
100
AcDbLine
 10
-29.08146170055863
 20
10.79499999999999
 30
0.0
 11
-15.97506170055874
 21
10.79499999999999
 31
0.0
  0
LINE
  5
389
330
1F
100
AcDbEntity
  8
외형선
  6
Continuous
370
    15
100
AcDbLine
 10
-29.08146170055863
 20
10.795
 30
0.0
 11
-30.98646170055861
 21
12.7
 31
0.0
  0
LINE
  5
38A
330
1F
100
AcDbEntity
  8
외형선
  6
Continuous
370
    15
100
AcDbLine
 10
-15.97506170055874
 20
10.795
 30
0.0
 11
-14.07006170055871
 21
12.7
 31
0.0
  0
LINE
  5
38B
330
1F
100
AcDbEntity
  8
외형선
  6
Continuous
370
    15
100
AcDbLine
 10
-51.50013670055873
 20
10.79499999999999
 30
0.0
 11
-38.80013670055871
 21
10.79499999999999
 31
0.0
  0
LINE
  5
38C
330
1F
100
AcDbEntity
  8
외형선
  6
Continuous
370
    15
100
AcDbLine
 10
-38.80013670055871
 20
10.795
 30
0.0
 11
-36.89513670055874
 21
12.69999999999999
 31
0.0
  0
LINE
  5
38D
330
1F
100
AcDbEntity
  8
외형선
  6
Continuous
370
    15
100
AcDbLine
 10
-30.98639335027923
 20
12.69993164972062
 30
0.0
 11
-36.89520505083811
 21
12.69993164972062
 31
0.0
  0
ENDSEC
  0
SECTION
  2
OBJECTS
  0
DICTIONARY
  5
C
330
0
100
AcDbDictionary
281
     1
  3
ACAD_GROUP
350
D
  3
ACAD_IMAGE_VARS
350
1EA
  3
ACAD_LAYOUT
350
1A
  3
ACAD_MLINESTYLE
350
17
  3
ACAD_PLOTSETTINGS
350
19
  3
ACAD_PLOTSTYLENAME
350
E
  3
ACAD_SCALELIST
350
47
  3
APPDATA
350
1E8
  3
DWGPROPS
350
3B4
  0
DICTIONARY
  5
242
330
2
100
AcDbDictionary
280
     1
281
     1
  3
ACAD_LAYERSTATES
360
243
  0
DICTIONARY
  5
D
102
{ACAD_REACTORS
330
C
102
}
330
C
100
AcDbDictionary
281
     1
  0
RASTERVARIABLES
  5
1EA
102
{ACAD_REACTORS
330
C
102
}
330
C
100
AcDbRasterVariables
 90
        0
 70
     1
 71
     1
 72
     1
  0
DICTIONARY
  5
1A
102
{ACAD_REACTORS
330
C
102
}
330
C
100
AcDbDictionary
281
     1
  3
Layout1
350
1E
  3
Layout2
350
26
  3
Model
350
22
  0
DICTIONARY
  5
17
102
{ACAD_REACTORS
330
C
102
}
330
C
100
AcDbDictionary
281
     1
  3
Standard
350
18
  0
DICTIONARY
  5
19
102
{ACAD_REACTORS
330
C
102
}
330
C
100
AcDbDictionary
281
     1
  0
ACDBDICTIONARYWDFLT
  5
E
102
{ACAD_REACTORS
330
C
102
}
330
C
100
AcDbDictionary
281
     1
  3
Normal
350
F
100
AcDbDictionaryWithDefault
340
F
  0
DICTIONARY
  5
47
102
{ACAD_REACTORS
330
C
102
}
330
C
100
AcDbDictionary
281
     1
  3
A0
350
48
  3
A1
350
49
  3
A2
350
4A
  3
A3
350
4B
  3
A4
350
4C
  3
A5
350
4D
  3
A6
350
4E
  3
A7
350
4F
  3
A8
350
50
  3
A9
350
51
  3
B0
350
52
  3
B1
350
53
  3
B2
350
54
  3
B3
350
55
  3
B4
350
56
  3
B5
350
57
  3
B6
350
58
  3
B7
350
59
  3
B8
350
5A
  3
B9
350
5B
  3
C0
350
5C
  3
C1
350
5D
  3
C2
350
5E
  3
C3
350
5F
  3
C4
350
60
  3
C5
350
61
  3
C6
350
62
  3
C7
350
63
  3
C8
350
64
  3
C9
350
65
  3
D0
350
66
  3
D1
350
67
  3
D2
350
68
  0
DICTIONARY
  5
1E8
102
{ACAD_REACTORS
330
C
102
}
330
C
100
AcDbDictionary
281
     1
  0
XRECORD
  5
3B4
102
{ACAD_REACTORS
330
C
102
}
330
C
100
AcDbXrecord
280
     1
  1
DWGPROPS COOKIE
  2

  3

  4

  6

  7

  8
12016016
  9

300
=
301
=
302
=
303
=
304
=
305
=
306
=
307
=
308
=
309
=
 40
0.0
 41
2458298.968695776
 42
2458331.183573993
  1

 90
        0
  0
DICTIONARY
  5
243
102
{ACAD_REACTORS
330
242
102
}
330
242
100
AcDbDictionary
281
     1
  0
LAYOUT
  5
1E
102
{ACAD_REACTORS
330
1A
102
}
330
1A
100
AcDbPlotSettings
  1

  2
none_device
  4

  6

 40
0.0
 41
0.0
 42
0.0
 43
0.0
 44
0.0
 45
0.0
 46
0.0
 47
0.0
 48
0.0
 49
0.0
140
0.0
141
0.0
142
1.0
143
1.0
 70
   688
 72
     1
 73
     0
 74
     5
  7

 75
    16
147
1.0
148
0.0
149
0.0
100
AcDbLayout
  1
Layout1
 70
     1
 71
     1
 10
0.0
 20
0.0
 11
420.0
 21
297.0
 12
0.0
 22
0.0
 32
0.0
 14
1.000000000000000E+20
 24
1.000000000000000E+20
 34
1.000000000000000E+20
 15
-1.000000000000000E+20
 25
-1.000000000000000E+20
 35
-1.000000000000000E+20
146
0.0
 13
0.0
 23
0.0
 33
0.0
 16
1.0
 26
0.0
 36
0.0
 17
0.0
 27
1.0
 37
0.0
 76
     0
330
1B
  0
LAYOUT
  5
26
102
{ACAD_REACTORS
330
1A
102
}
330
1A
100
AcDbPlotSettings
  1

  2
none_device
  4

  6

 40
0.0
 41
0.0
 42
0.0
 43
0.0
 44
0.0
 45
0.0
 46
0.0
 47
0.0
 48
0.0
 49
0.0
140
0.0
141
0.0
142
1.0
143
1.0
 70
   688
 72
     1
 73
     0
 74
     5
  7

 75
    16
147
1.0
148
0.0
149
0.0
100
AcDbLayout
  1
Layout2
 70
     1
 71
     2
 10
0.0
 20
0.0
 11
0.0
 21
0.0
 12
0.0
 22
0.0
 32
0.0
 14
0.0
 24
0.0
 34
0.0
 15
0.0
 25
0.0
 35
0.0
146
0.0
 13
0.0
 23
0.0
 33
0.0
 16
1.0
 26
0.0
 36
0.0
 17
0.0
 27
1.0
 37
0.0
 76
     0
330
23
  0
LAYOUT
  5
22
102
{ACAD_REACTORS
330
1A
102
}
330
1A
100
AcDbPlotSettings
  1

  2
none_device
  4
ANSI_A_(11.00_x_8.50_Inches)
  6

 40
6.35
 41
19.05
 42
6.35000508
 43
19.05000254
 44
279.4
 45
215.9
 46
108.1449830654433
 47
90.7731756740194
 48
0.0
 49
0.0
140
0.0
141
0.0
142
0.0744403274023622
143
1.0
 70
  1696
 72
     0
 73
     0
 74
     0
  7

 75
     0
147
0.0235690232323232
148
0.0
149
0.0
100
AcDbLayout
  1
Model
 70
     1
 71
     0
 10
0.0
 20
0.0
 11
420.0
 21
297.0
 12
0.0
 22
0.0
 32
0.0
 14
-81.97249590974714
 24
-50.28867796974447
 34
0.0
 15
99.58865412182985
 25
55.24239583758197
 35
0.0
146
0.0
 13
0.0
 23
0.0
 33
0.0
 16
1.0
 26
0.0
 36
0.0
 17
0.0
 27
1.0
 37
0.0
 76
     0
330
1F
331
29
  0
MLINESTYLE
  5
18
102
{ACAD_REACTORS
330
17
102
}
330
17
100
AcDbMlineStyle
  2
Standard
 70
     0
  3

 62
   256
 51
90.0
 52
90.0
 71
     2
 49
0.5
 62
   256
  6
BYLAYER
 49
-0.5
 62
   256
  6
BYLAYER
  0
ACDBPLACEHOLDER
  5
F
102
{ACAD_REACTORS
330
E
102
}
330
E
  0
SCALE
  5
48
102
{ACAD_REACTORS
330
47
102
}
330
47
100
AcDbScale
 70
     0
300
1:1
140
1.0
141
1.0
290
     1
  0
SCALE
  5
49
102
{ACAD_REACTORS
330
47
102
}
330
47
100
AcDbScale
 70
     0
300
1:2
140
1.0
141
2.0
290
     0
  0
SCALE
  5
4A
102
{ACAD_REACTORS
330
47
102
}
330
47
100
AcDbScale
 70
     0
300
1:4
140
1.0
141
4.0
290
     0
  0
SCALE
  5
4B
102
{ACAD_REACTORS
330
47
102
}
330
47
100
AcDbScale
 70
     0
300
1:5
140
1.0
141
5.0
290
     0
  0
SCALE
  5
4C
102
{ACAD_REACTORS
330
47
102
}
330
47
100
AcDbScale
 70
     0
300
1:8
140
1.0
141
8.0
290
     0
  0
SCALE
  5
4D
102
{ACAD_REACTORS
330
47
102
}
330
47
100
AcDbScale
 70
     0
300
1:10
140
1.0
141
10.0
290
     0
  0
SCALE
  5
4E
102
{ACAD_REACTORS
330
47
102
}
330
47
100
AcDbScale
 70
     0
300
1:16
140
1.0
141
16.0
290
     0
  0
SCALE
  5
4F
102
{ACAD_REACTORS
330
47
102
}
330
47
100
AcDbScale
 70
     0
300
1:20
140
1.0
141
20.0
290
     0
  0
SCALE
  5
50
102
{ACAD_REACTORS
330
47
102
}
330
47
100
AcDbScale
 70
     0
300
1:30
140
1.0
141
30.0
290
     0
  0
SCALE
  5
51
102
{ACAD_REACTORS
330
47
102
}
330
47
100
AcDbScale
 70
     0
300
1:40
140
1.0
141
40.0
290
     0
  0
SCALE
  5
52
102
{ACAD_REACTORS
330
47
102
}
330
47
100
AcDbScale
 70
     0
300
1:50
140
1.0
141
50.0
290
     0
  0
SCALE
  5
53
102
{ACAD_REACTORS
330
47
102
}
330
47
100
AcDbScale
 70
     0
300
1:100
140
1.0
141
100.0
290
     0
  0
SCALE
  5
54
102
{ACAD_REACTORS
330
47
102
}
330
47
100
AcDbScale
 70
     0
300
2:1
140
2.0
141
1.0
290
     0
  0
SCALE
  5
55
102
{ACAD_REACTORS
330
47
102
}
330
47
100
AcDbScale
 70
     0
300
4:1
140
4.0
141
1.0
290
     0
  0
SCALE
  5
56
102
{ACAD_REACTORS
330
47
102
}
330
47
100
AcDbScale
 70
     0
300
8:1
140
8.0
141
1.0
290
     0
  0
SCALE
  5
57
102
{ACAD_REACTORS
330
47
102
}
330
47
100
AcDbScale
 70
     0
300
10:1
140
10.0
141
1.0
290
     0
  0
SCALE
  5
58
102
{ACAD_REACTORS
330
47
102
}
330
47
100
AcDbScale
 70
     0
300
100:1
140
100.0
141
1.0
290
     0
  0
SCALE
  5
59
102
{ACAD_REACTORS
330
47
102
}
330
47
100
AcDbScale
 70
     0
300
1/128" = 1'-0"
140
0.0078125
141
12.0
290
     0
  0
SCALE
  5
5A
102
{ACAD_REACTORS
330
47
102
}
330
47
100
AcDbScale
 70
     0
300
1/64" = 1'-0"
140
0.015625
141
12.0
290
     0
  0
SCALE
  5
5B
102
{ACAD_REACTORS
330
47
102
}
330
47
100
AcDbScale
 70
     0
300
1/32" = 1'-0"
140
0.03125
141
12.0
290
     0
  0
SCALE
  5
5C
102
{ACAD_REACTORS
330
47
102
}
330
47
100
AcDbScale
 70
     0
300
1/16" = 1'-0"
140
0.0625
141
12.0
290
     0
  0
SCALE
  5
5D
102
{ACAD_REACTORS
330
47
102
}
330
47
100
AcDbScale
 70
     0
300
3/32" = 1'-0"
140
0.09375
141
12.0
290
     0
  0
SCALE
  5
5E
102
{ACAD_REACTORS
330
47
102
}
330
47
100
AcDbScale
 70
     0
300
1/8" = 1'-0"
140
0.125
141
12.0
290
     0
  0
SCALE
  5
5F
102
{ACAD_REACTORS
330
47
102
}
330
47
100
AcDbScale
 70
     0
300
3/16" = 1'-0"
140
0.1875
141
12.0
290
     0
  0
SCALE
  5
60
102
{ACAD_REACTORS
330
47
102
}
330
47
100
AcDbScale
 70
     0
300
1/4" = 1'-0"
140
0.25
141
12.0
290
     0
  0
SCALE
  5
61
102
{ACAD_REACTORS
330
47
102
}
330
47
100
AcDbScale
 70
     0
300
3/8" = 1'-0"
140
0.375
141
12.0
290
     0
  0
SCALE
  5
62
102
{ACAD_REACTORS
330
47
102
}
330
47
100
AcDbScale
 70
     0
300
1/2" = 1'-0"
140
0.5
141
12.0
290
     0
  0
SCALE
  5
63
102
{ACAD_REACTORS
330
47
102
}
330
47
100
AcDbScale
 70
     0
300
3/4" = 1'-0"
140
0.75
141
12.0
290
     0
  0
SCALE
  5
64
102
{ACAD_REACTORS
330
47
102
}
330
47
100
AcDbScale
 70
     0
300
1" = 1'-0"
140
1.0
141
12.0
290
     0
  0
SCALE
  5
65
102
{ACAD_REACTORS
330
47
102
}
330
47
100
AcDbScale
 70
     0
300
1-1/2" = 1'-0"
140
1.5
141
12.0
290
     0
  0
SCALE
  5
66
102
{ACAD_REACTORS
330
47
102
}
330
47
100
AcDbScale
 70
     0
300
3" = 1'-0"
140
3.0
141
12.0
290
     0
  0
SCALE
  5
67
102
{ACAD_REACTORS
330
47
102
}
330
47
100
AcDbScale
 70
     0
300
6" = 1'-0"
140
6.0
141
12.0
290
     0
  0
SCALE
  5
68
102
{ACAD_REACTORS
330
47
102
}
330
47
100
AcDbScale
 70
     0
300
1'-0" = 1'-0"
140
12.0
141
12.0
290
     0
  0
ENDSEC
  0
EOF
