  0
SECTION
  2
HEADER
  9
$ACADVER
  1
AC1015
  9
$ACADMAINTVER
 70
     6
  9
$DWGCODEPAGE
  3
ANSI_949
  9
$INSBASE
 10
0.0
 20
0.0
 30
0.0
  9
$EXTMIN
 10
-71.375000000001
 20
-49.97180738881175
 30
0.0
  9
$EXTMAX
 10
179.9503333333326
 20
62.49643577138463
 30
0.0
  9
$LIMMIN
 10
0.0
 20
0.0
  9
$LIMMAX
 10
420.0
 20
297.0
  9
$ORTHOMODE
 70
     1
  9
$REGENMODE
 70
     1
  9
$FILLMODE
 70
     1
  9
$QTEXTMODE
 70
     0
  9
$MIRRTEXT
 70
     1
  9
$LTSCALE
 40
1.0
  9
$ATTMODE
 70
     1
  9
$TEXTSIZE
 40
3.5
  9
$TRACEWID
 40
1.0
  9
$TEXTSTYLE
  7
Standard
  9
$CLAYER
  8
0
  9
$CELTYPE
  6
ByLayer
  9
$CECOLOR
 62
   256
  9
$CELTSCALE
 40
1.0
  9
$DISPSILH
 70
     0
  9
$DIMSCALE
 40
1.0
  9
$DIMASZ
 40
3.302
  9
$DIMEXO
 40
1.0
  9
$DIMDLI
 40
3.75
  9
$DIMRND
 40
0.0
  9
$DIMDLE
 40
0.0
  9
$DIMEXE
 40
1.0
  9
$DIMTP
 40
0.0
  9
$DIMTM
 40
0.0
  9
$DIMTXT
 40
3.5
  9
$DIMCEN
 40
2.5
  9
$DIMTSZ
 40
0.0
  9
$DIMTOL
 70
     0
  9
$DIMLIM
 70
     0
  9
$DIMTIH
 70
     1
  9
$DIMTOH
 70
     1
  9
$DIMSE1
 70
     0
  9
$DIMSE2
 70
     0
  9
$DIMTAD
 70
     1
  9
$DIMZIN
 70
     0
  9
$DIMBLK
  1

  9
$DIMASO
 70
     1
  9
$DIMSHO
 70
     1
  9
$DIMPOST
  1

  9
$DIMAPOST
  1

  9
$DIMALT
 70
     0
  9
$DIMALTD
 70
     3
  9
$DIMALTF
 40
0.0393700787401575
  9
$DIMLFAC
 40
1.0
  9
$DIMTOFL
 70
     1
  9
$DIMTVP
 40
0.0
  9
$DIMTIX
 70
     0
  9
$DIMSOXD
 70
     0
  9
$DIMSAH
 70
     0
  9
$DIMBLK1
  1

  9
$DIMBLK2
  1

  9
$DIMSTYLE
  2
ISO-25
  9
$DIMCLRD
 70
     0
  9
$DIMCLRE
 70
     0
  9
$DIMCLRT
 70
     0
  9
$DIMTFAC
 40
1.0
  9
$DIMGAP
 40
1.524
  9
$DIMJUST
 70
     0
  9
$DIMSD1
 70
     0
  9
$DIMSD2
 70
     0
  9
$DIMTOLJ
 70
     0
  9
$DIMTZIN
 70
     0
  9
$DIMALTZ
 70
     0
  9
$DIMALTTZ
 70
     0
  9
$DIMUPT
 70
     0
  9
$DIMDEC
 70
     2
  9
$DIMTDEC
 70
     2
  9
$DIMALTU
 70
     2
  9
$DIMALTTD
 70
     3
  9
$DIMTXSTY
  7
Standard
  9
$DIMAUNIT
 70
     0
  9
$DIMADEC
 70
     2
  9
$DIMALTRND
 40
0.0
  9
$DIMAZIN
 70
     0
  9
$DIMDSEP
 70
    44
  9
$DIMATFIT
 70
     3
  9
$DIMFRAC
 70
     0
  9
$DIMLDRBLK
  1

  9
$DIMLUNIT
 70
     2
  9
$DIMLWD
 70
    -2
  9
$DIMLWE
 70
    -2
  9
$DIMTMOVE
 70
     0
  9
$LUNITS
 70
     2
  9
$LUPREC
 70
     2
  9
$SKETCHINC
 40
1.0
  9
$FILLETRAD
 40
10.0
  9
$AUNITS
 70
     0
  9
$AUPREC
 70
     2
  9
$MENU
  1
.
  9
$ELEVATION
 40
0.0
  9
$PELEVATION
 40
0.0
  9
$THICKNESS
 40
0.0
  9
$LIMCHECK
 70
     0
  9
$CHAMFERA
 40
0.0
  9
$CHAMFERB
 40
0.0
  9
$CHAMFERC
 40
0.0
  9
$CHAMFERD
 40
0.0
  9
$SKPOLY
 70
     0
  9
$TDCREATE
 40
2458323.436873461
  9
$TDUCREATE
 40
2458323.061873461
  9
$TDUPDATE
 40
2458330.637555474
  9
$TDUUPDATE
 40
2458330.262555474
  9
$TDINDWG
 40
0.0010538079
  9
$TDUSRTIMER
 40
2458330.262515833
  9
$USRTIMER
 70
     1
  9
$ANGBASE
 50
0.0
  9
$ANGDIR
 70
     0
  9
$PDMODE
 70
     0
  9
$PDSIZE
 40
-1.0
  9
$PLINEWID
 40
0.0
  9
$SPLFRAME
 70
     0
  9
$SPLINETYPE
 70
     6
  9
$SPLINESEGS
 70
     8
  9
$HANDSEED
  5
275
  9
$SURFTAB1
 70
     6
  9
$SURFTAB2
 70
     6
  9
$SURFTYPE
 70
     6
  9
$SURFU
 70
     6
  9
$SURFV
 70
     6
  9
$UCSBASE
  2

  9
$UCSNAME
  2

  9
$UCSORG
 10
0.0
 20
0.0
 30
0.0
  9
$UCSXDIR
 10
1.0
 20
0.0
 30
0.0
  9
$UCSYDIR
 10
0.0
 20
1.0
 30
0.0
  9
$UCSORTHOREF
  2

  9
$UCSORTHOVIEW
 70
     0
  9
$UCSORGTOP
 10
0.0
 20
0.0
 30
0.0
  9
$UCSORGBOTTOM
 10
0.0
 20
0.0
 30
0.0
  9
$UCSORGLEFT
 10
0.0
 20
0.0
 30
0.0
  9
$UCSORGRIGHT
 10
0.0
 20
0.0
 30
0.0
  9
$UCSORGFRONT
 10
0.0
 20
0.0
 30
0.0
  9
$UCSORGBACK
 10
0.0
 20
0.0
 30
0.0
  9
$PUCSBASE
  2

  9
$PUCSNAME
  2

  9
$PUCSORG
 10
0.0
 20
0.0
 30
0.0
  9
$PUCSXDIR
 10
1.0
 20
0.0
 30
0.0
  9
$PUCSYDIR
 10
0.0
 20
1.0
 30
0.0
  9
$PUCSORTHOREF
  2

  9
$PUCSORTHOVIEW
 70
     0
  9
$PUCSORGTOP
 10
0.0
 20
0.0
 30
0.0
  9
$PUCSORGBOTTOM
 10
0.0
 20
0.0
 30
0.0
  9
$PUCSORGLEFT
 10
0.0
 20
0.0
 30
0.0
  9
$PUCSORGRIGHT
 10
0.0
 20
0.0
 30
0.0
  9
$PUCSORGFRONT
 10
0.0
 20
0.0
 30
0.0
  9
$PUCSORGBACK
 10
0.0
 20
0.0
 30
0.0
  9
$USERI1
 70
     0
  9
$USERI2
 70
     0
  9
$USERI3
 70
     0
  9
$USERI4
 70
     0
  9
$USERI5
 70
     0
  9
$USERR1
 40
0.0
  9
$USERR2
 40
0.0
  9
$USERR3
 40
0.0
  9
$USERR4
 40
0.0
  9
$USERR5
 40
0.0
  9
$WORLDVIEW
 70
     1
  9
$SHADEDGE
 70
     3
  9
$SHADEDIF
 70
    70
  9
$TILEMODE
 70
     1
  9
$MAXACTVP
 70
    64
  9
$PINSBASE
 10
0.0
 20
0.0
 30
0.0
  9
$PLIMCHECK
 70
     0
  9
$PEXTMIN
 10
1.000000000000000E+20
 20
1.000000000000000E+20
 30
1.000000000000000E+20
  9
$PEXTMAX
 10
-1.000000000000000E+20
 20
-1.000000000000000E+20
 30
-1.000000000000000E+20
  9
$PLIMMIN
 10
0.0
 20
0.0
  9
$PLIMMAX
 10
0.0
 20
0.0
  9
$UNITMODE
 70
     0
  9
$VISRETAIN
 70
     1
  9
$PLINEGEN
 70
     0
  9
$PSLTSCALE
 70
     1
  9
$TREEDEPTH
 70
  3020
  9
$CMLSTYLE
  2
Standard
  9
$CMLJUST
 70
     0
  9
$CMLSCALE
 40
20.0
  9
$PROXYGRAPHICS
 70
     1
  9
$MEASUREMENT
 70
     1
  9
$CELWEIGHT
370
    -1
  9
$ENDCAPS
280
     0
  9
$JOINSTYLE
280
     0
  9
$LWDISPLAY
290
     1
  9
$INSUNITS
 70
     4
  9
$HYPERLINKBASE
  1

  9
$STYLESHEET
  1

  9
$XEDIT
290
     1
  9
$CEPSNTYPE
380
     0
  9
$PSTYLEMODE
290
     1
  9
$FINGERPRINTGUID
  2
{45BDD34E-004C-4FF3-9F78-57523960B409}
  9
$VERSIONGUID
  2
{FAEB1C32-E019-11D5-929B-00C0DF256EC4}
  9
$EXTNAMES
290
     1
  9
$PSVPSCALE
 40
0.0
  9
$OLESTARTUP
290
     0
  0
ENDSEC
  0
SECTION
  2
CLASSES
  0
CLASS
  1
ACDBDICTIONARYWDFLT
  2
AcDbDictionaryWithDefault
  3
ObjectDBX Classes
 90
        0
280
     0
281
     0
  0
CLASS
  1
VISUALSTYLE
  2
AcDbVisualStyle
  3
ObjectDBX Classes
 90
     4095
280
     0
281
     0
  0
CLASS
  1
MATERIAL
  2
AcDbMaterial
  3
ObjectDBX Classes
 90
     1153
280
     0
281
     0
  0
CLASS
  1
SCALE
  2
AcDbScale
  3
ObjectDBX Classes
 90
     1153
280
     0
281
     0
  0
CLASS
  1
SUN
  2
AcDbSun
  3
SCENEOE
 90
     1153
280
     0
281
     0
  0
CLASS
  1
ACDBPLACEHOLDER
  2
AcDbPlaceHolder
  3
ObjectDBX Classes
 90
        0
280
     0
281
     0
  0
CLASS
  1
LAYOUT
  2
AcDbLayout
  3
ObjectDBX Classes
 90
        0
280
     0
281
     0
  0
CLASS
  1
TABLESTYLE
  2
AcDbTableStyle
  3
ObjectDBX Classes
 90
     4095
280
     0
281
     0
  0
CLASS
  1
MLEADERSTYLE
  2
AcDbMLeaderStyle
  3
ACDB_MLEADERSTYLE_CLASS
 90
     4095
280
     0
281
     0
  0
CLASS
  1
RASTERVARIABLES
  2
AcDbRasterVariables
  3
ISM
 90
        0
280
     0
281
     0
  0
ENDSEC
  0
SECTION
  2
TABLES
  0
TABLE
  2
VPORT
  5
8
330
0
100
AcDbSymbolTable
 70
     1
  0
VPORT
  5
29
330
8
100
AcDbSymbolTableRecord
100
AcDbViewportTableRecord
  2
*Active
 70
     0
 10
0.0
 20
0.0
 11
1.0
 21
1.0
 12
41.26342369360457
 22
-31.04145624014215
 13
0.0
 23
0.0
 14
10.0
 24
10.0
 15
10.0
 25
10.0
 16
0.0
 26
0.0
 36
1.0
 17
0.0
 27
0.0
 37
0.0
 40
86.55275185632658
 41
1.516441005802708
 42
50.0
 43
0.0
 44
0.0
 50
0.0
 51
0.0
 71
    16
 72
  2000
 73
     1
 74
     3
 75
     0
 76
     0
 77
     0
 78
     0
281
     0
 65
     1
110
0.0
120
0.0
130
0.0
111
1.0
121
0.0
131
0.0
112
0.0
122
1.0
132
0.0
 79
     0
146
0.0
  0
ENDTAB
  0
TABLE
  2
LTYPE
  5
5
330
0
100
AcDbSymbolTable
 70
     6
  0
LTYPE
  5
14
330
5
100
AcDbSymbolTableRecord
100
AcDbLinetypeTableRecord
  2
ByBlock
 70
     0
  3

 72
    65
 73
     0
 40
0.0
  0
LTYPE
  5
15
330
5
100
AcDbSymbolTableRecord
100
AcDbLinetypeTableRecord
  2
ByLayer
 70
     0
  3

 72
    65
 73
     0
 40
0.0
  0
LTYPE
  5
16
330
5
100
AcDbSymbolTableRecord
100
AcDbLinetypeTableRecord
  2
Continuous
 70
     0
  3
Solid line
 72
    65
 73
     0
 40
0.0
  0
LTYPE
  5
6A
330
5
100
AcDbSymbolTableRecord
100
AcDbLinetypeTableRecord
  2
HIDDEN
 70
     0
  3
Hidden __ __ __ __ __ __ __ __ __ __ __ __ __ __
 72
    65
 73
     2
 40
1.905
 49
1.27
 74
     0
 49
-0.635
 74
     0
  0
LTYPE
  5
6B
330
5
100
AcDbSymbolTableRecord
100
AcDbLinetypeTableRecord
  2
PHANTOM
 70
     0
  3
Phantom ______  __  __  ______  __  __  ______
 72
    65
 73
     6
 40
12.7
 49
6.35
 74
     0
 49
-1.27
 74
     0
 49
1.27
 74
     0
 49
-1.27
 74
     0
 49
1.27
 74
     0
 49
-1.27
 74
     0
  0
LTYPE
  5
6C
330
5
100
AcDbSymbolTableRecord
100
AcDbLinetypeTableRecord
  2
CENTER
 70
     0
  3
Center ____ _ ____ _ ____ _ ____ _ ____ _ ____
 72
    65
 73
     4
 40
10.16
 49
6.35
 74
     0
 49
-1.27
 74
     0
 49
1.27
 74
     0
 49
-1.27
 74
     0
  0
LTYPE
  5
6D
330
5
100
AcDbSymbolTableRecord
100
AcDbLinetypeTableRecord
  2
CENTERX2
 70
     0
  3
Center (2x) ________  __  ________  __  _____
 72
    65
 73
     4
 40
20.32
 49
12.7
 74
     0
 49
-2.54
 74
     0
 49
2.54
 74
     0
 49
-2.54
 74
     0
  0
LTYPE
  5
6E
330
5
100
AcDbSymbolTableRecord
100
AcDbLinetypeTableRecord
  2
DOT2
 70
     0
  3
Dot (.5x) ........................................
 72
    65
 73
     2
 40
0.635
 49
0.0
 74
     0
 49
-0.635
 74
     0
  0
ENDTAB
  0
TABLE
  2
LAYER
  5
2
102
{ACAD_XDICTIONARY
360
1A7
102
}
330
0
100
AcDbSymbolTable
 70
    18
  0
LAYER
  5
10
330
2
100
AcDbSymbolTableRecord
100
AcDbLayerTableRecord
  2
0
 70
     0
 62
     7
  6
Continuous
370
    -3
390
F
  0
LAYER
  5
6F
330
2
100
AcDbSymbolTableRecord
100
AcDbLayerTableRecord
  2
FORMAT
 70
     0
 62
     2
  6
Continuous
370
    -3
390
F
  0
LAYER
  5
70
330
2
100
AcDbSymbolTableRecord
100
AcDbLayerTableRecord
  2
외형선
 70
     0
 62
     4
  6
Continuous
370
    30
390
F
  0
LAYER
  5
71
330
2
100
AcDbSymbolTableRecord
100
AcDbLayerTableRecord
  2
숨은선
 70
     0
 62
     2
  6
HIDDEN
370
    15
390
F
  0
LAYER
  5
72
330
2
100
AcDbSymbolTableRecord
100
AcDbLayerTableRecord
  2
중심선
 70
     0
 62
     1
  6
CENTERX2
370
    -3
390
F
  0
LAYER
  5
73
330
2
100
AcDbSymbolTableRecord
100
AcDbLayerTableRecord
  2
파단선
 70
     0
 62
     4
  6
Continuous
370
    -3
390
F
  0
LAYER
  5
74
330
2
100
AcDbSymbolTableRecord
100
AcDbLayerTableRecord
  2
해칭선
 70
     0
 62
   100
  6
Continuous
370
    -3
390
F
  0
LAYER
  5
75
330
2
100
AcDbSymbolTableRecord
100
AcDbLayerTableRecord
  2
가는실선
 70
     0
 62
     4
  6
Continuous
370
    -3
390
F
  0
LAYER
  5
76
330
2
100
AcDbSymbolTableRecord
100
AcDbLayerTableRecord
  2
치수_보조선
 70
     0
 62
     4
  6
Continuous
370
    -3
390
F
  0
LAYER
  5
77
330
2
100
AcDbSymbolTableRecord
100
AcDbLayerTableRecord
  2
치수문자_일반주서
 70
     0
 62
     7
  6
Continuous
370
    15
390
F
  0
LAYER
  5
78
330
2
100
AcDbSymbolTableRecord
100
AcDbLayerTableRecord
  2
개별주서
 70
     0
 62
   100
  6
Continuous
370
    30
390
F
  0
LAYER
  5
79
330
2
100
AcDbSymbolTableRecord
100
AcDbLayerTableRecord
  2
중간선
 70
     0
 62
     2
  6
Continuous
370
    15
390
F
  0
LAYER
  5
7A
330
2
100
AcDbSymbolTableRecord
100
AcDbLayerTableRecord
  2
윤곽선
 70
     0
 62
     3
  6
Continuous
370
    40
390
F
  0
LAYER
  5
7B
330
2
100
AcDbSymbolTableRecord
100
AcDbLayerTableRecord
  2
중심마크
 70
     0
 62
   100
  6
Continuous
370
    30
390
F
  0
LAYER
  5
7C
330
2
100
AcDbSymbolTableRecord
100
AcDbLayerTableRecord
  2
가상선
 70
     0
 62
     4
  6
PHANTOM
370
    -3
390
F
  0
LAYER
  5
7D
330
2
100
AcDbSymbolTableRecord
100
AcDbLayerTableRecord
  2
특수지정선
 70
     0
 62
     5
  6
CENTERX2
370
    60
390
F
  0
LAYER
  5
7E
330
2
100
AcDbSymbolTableRecord
100
AcDbLayerTableRecord
  2
참조1
 70
     0
 62
    -4
  6
Continuous
370
    -3
390
F
  0
LAYER
  5
174
330
2
100
AcDbSymbolTableRecord
100
AcDbLayerTableRecord
  2
Defpoints
 70
     0
 62
     7
  6
Continuous
290
     0
370
    -3
390
F
  0
ENDTAB
  0
TABLE
  2
STYLE
  5
3
330
0
100
AcDbSymbolTable
 70
     2
  0
STYLE
  5
11
330
3
100
AcDbSymbolTableRecord
100
AcDbTextStyleTableRecord
  2
Standard
 70
     0
 40
0.0
 41
1.0
 50
0.0
 71
     0
 42
3.5
  3
txt
  4

  0
STYLE
  5
94
330
3
100
AcDbSymbolTableRecord
100
AcDbTextStyleTableRecord
  2
SLDTEXTSTYLE0
 70
     0
 40
0.0
 41
0.75
 50
0.0
 71
     0
 42
3.5
  3
TXT
  4

  0
ENDTAB
  0
TABLE
  2
VIEW
  5
6
330
0
100
AcDbSymbolTable
 70
     0
  0
ENDTAB
  0
TABLE
  2
UCS
  5
7
330
0
100
AcDbSymbolTable
 70
     0
  0
ENDTAB
  0
TABLE
  2
APPID
  5
9
330
0
100
AcDbSymbolTable
 70
     4
  0
APPID
  5
12
330
9
100
AcDbSymbolTableRecord
100
AcDbRegAppTableRecord
  2
ACAD
 70
     0
  0
APPID
  5
1C6
330
9
100
AcDbSymbolTableRecord
100
AcDbRegAppTableRecord
  2
PE_URL
 70
     0
  0
APPID
  5
20A
330
9
100
AcDbSymbolTableRecord
100
AcDbRegAppTableRecord
  2
ACAD_DSTYLE_DIMFLIPARROW_SYMBOL
 70
     0
  0
APPID
  5
20B
330
9
100
AcDbSymbolTableRecord
100
AcDbRegAppTableRecord
  2
ACAD_DSTYLE_DIMFLIPARROW_WHICH_SYMBOL
 70
     0
  0
ENDTAB
  0
TABLE
  2
DIMSTYLE
  5
A
330
0
100
AcDbSymbolTable
 70
     4
100
AcDbDimStyleTable
  0
DIMSTYLE
105
27
330
A
100
AcDbSymbolTableRecord
100
AcDbDimStyleTableRecord
  2
ISO-25
 70
     0
 41
2.5
 42
0.625
 43
3.75
 44
1.25
 73
     0
 74
     0
 77
     1
 78
     8
140
2.5
141
2.5
143
0.03937007874016
147
0.625
171
     3
172
     1
178
     0
271
     2
272
     2
274
     3
278
    44
283
     0
284
     8
340
11
  0
DIMSTYLE
105
F7
102
{ACAD_REACTORS
330
F6
330
130
330
109
330
11D
102
}
330
A
100
AcDbSymbolTableRecord
100
AcDbDimStyleTableRecord
  2
SLDDIMSTYLE0
 70
     0
 41
3.302
 44
0.0
 45
0.000000001
 73
     0
 74
     0
 77
     1
 78
    12
 79
     3
140
3.5
143
0.0393700787401575
147
0.875
148
0.000000001
170
     1
173
     1
178
     0
271
     2
272
     2
276
     2
284
    12
340
94
  0
DIMSTYLE
105
10A
330
A
100
AcDbSymbolTableRecord
100
AcDbDimStyleTableRecord
  2
SLDDIMSTYLE1
 70
     0
 41
3.302
 44
0.0
 45
0.000000001
 73
     0
 74
     0
 77
     1
 78
     4
 79
     1
140
3.5
143
0.0393700787401575
147
0.875
148
0.000000001
170
     1
173
     1
178
     0
271
     2
272
     2
276
     2
284
    12
340
94
  0
DIMSTYLE
105
179
330
A
100
AcDbSymbolTableRecord
100
AcDbDimStyleTableRecord
  2
SLDDIMSTYLE2
 70
     0
 41
3.302
 44
0.0
 45
0.000000001
 73
     0
 74
     0
 77
     1
 78
    12
 79
     3
140
3.5
147
0.875
172
     1
173
     1
178
     0
271
     2
272
     2
276
     2
284
    12
289
     0
340
94
  0
ENDTAB
  0
TABLE
  2
BLOCK_RECORD
  5
1
330
0
100
AcDbSymbolTable
 70
     9
  0
BLOCK_RECORD
  5
1F
330
1
100
AcDbSymbolTableRecord
100
AcDbBlockTableRecord
  2
*Model_Space
340
22
  0
BLOCK_RECORD
  5
1B
330
1
100
AcDbSymbolTableRecord
100
AcDbBlockTableRecord
  2
*Paper_Space
340
1E
  0
BLOCK_RECORD
  5
23
330
1
100
AcDbSymbolTableRecord
100
AcDbBlockTableRecord
  2
*Paper_Space0
340
26
  0
BLOCK_RECORD
  5
7F
330
1
100
AcDbSymbolTableRecord
100
AcDbBlockTableRecord
  2
블럭10
340
0
102
{BLKREFS
331
EF
102
}
  0
BLOCK_RECORD
  5
F8
330
1
100
AcDbSymbolTableRecord
100
AcDbBlockTableRecord
  2
_D
340
0
  0
BLOCK_RECORD
  5
10B
330
1
100
AcDbSymbolTableRecord
100
AcDbBlockTableRecord
  2
_D_1
340
0
  0
BLOCK_RECORD
  5
11E
330
1
100
AcDbSymbolTableRecord
100
AcDbBlockTableRecord
  2
_D_2
340
0
  0
BLOCK_RECORD
  5
131
330
1
100
AcDbSymbolTableRecord
100
AcDbBlockTableRecord
  2
_D_3
340
0
  0
BLOCK_RECORD
  5
14A
330
1
100
AcDbSymbolTableRecord
100
AcDbBlockTableRecord
  2
SW_DOWELSYMBOL_0
340
0
102
{BLKREFS
331
150
102
}
  0
BLOCK_RECORD
  5
1AB
330
1
100
AcDbSymbolTableRecord
100
AcDbBlockTableRecord
  2
*D7
340
0
  0
BLOCK_RECORD
  5
1BA
330
1
100
AcDbSymbolTableRecord
100
AcDbBlockTableRecord
  2
*D8
340
0
  0
ENDTAB
  0
ENDSEC
  0
SECTION
  2
BLOCKS
  0
BLOCK
  5
20
330
1F
100
AcDbEntity
  8
0
100
AcDbBlockBegin
  2
*Model_Space
 70
     0
 10
0.0
 20
0.0
 30
0.0
  3
*Model_Space
  1
*Model_Space
  0
ENDBLK
  5
21
330
1F
100
AcDbEntity
  8
0
100
AcDbBlockEnd
  0
BLOCK
  5
1C
330
1B
100
AcDbEntity
 67
     1
  8
0
100
AcDbBlockBegin
  2
*Paper_Space
 70
     0
 10
0.0
 20
0.0
 30
0.0
  3
*Paper_Space
  1
*Paper_Space
  0
ENDBLK
  5
1D
330
1B
100
AcDbEntity
 67
     1
  8
0
100
AcDbBlockEnd
  0
BLOCK
  5
24
330
23
100
AcDbEntity
  8
0
100
AcDbBlockBegin
  2
*Paper_Space0
 70
     0
 10
0.0
 20
0.0
 30
0.0
  3
*Paper_Space0
  1
*Paper_Space0
  0
ENDBLK
  5
25
330
23
100
AcDbEntity
  8
0
100
AcDbBlockEnd
  0
BLOCK
  5
80
330
7F
100
AcDbEntity
  8
0
100
AcDbBlockBegin
  2
블럭10
 70
     2
 10
0.0
 20
0.0
 30
0.0
  3
블럭10
  1
블럭10
  0
ELLIPSE
  5
82
330
7F
100
AcDbEntity
  8
중심선
100
AcDbEllipse
 10
20.54032771741204
 20
12.0471743016438
 30
0.0
 11
6.600054785286829
 21
-1.261213355974178E-13
 31
0.0
210
0.0
220
0.0
230
1.0
 40
0.636358354079598
 41
0.9219305317359503
 42
6.513795318482858
  0
ELLIPSE
  5
83
330
7F
100
AcDbEntity
  8
중심선
100
AcDbEllipse
 10
20.54032771746488
 20
12.04717430159265
 30
0.0
 11
3.960054785062283
 21
1.540847449632565E-10
 31
0.0
210
0.0
220
0.0
230
1.0
 40
0.3939339440162632
 41
1.131841032648279
 42
5.62031148352944
  0
LINE
  5
84
330
7F
100
AcDbEntity
  8
중심선
100
AcDbLine
 10
2.268634060543552
 20
16.24717430164393
 30
0.0
 11
5.714909304380834
 21
16.24717430164393
 31
0.0
  0
LINE
  5
85
330
7F
100
AcDbEntity
  8
중심선
100
AcDbLine
 10
5.245725140726316
 20
7.84717430164391
 30
0.0
 11
8.692000384563599
 21
7.84717430164391
 31
0.0
  0
LINE
  5
86
330
7F
100
AcDbEntity
  8
중심선
100
AcDbLine
 10
15.74043728645272
 20
16.24717430164393
 30
0.0
 11
8.692000384563599
 21
7.84717430164391
 31
0.0
  0
LINE
  5
87
330
7F
100
AcDbEntity
  8
중심선
100
AcDbLine
 10
0.1404042013395286
 20
13.71084872107135
 30
0.0
 11
3.58671253028996
 21
13.71088815037384
 31
0.0
  0
LINE
  5
88
330
7F
100
AcDbEntity
  8
중심선
100
AcDbLine
 10
2.750260043222114
 20
10.84717430164391
 30
0.0
 11
6.196535287059397
 21
10.84717430164391
 31
0.0
  0
LINE
  5
89
330
7F
100
AcDbEntity
  8
중심선
100
AcDbLine
 10
12.29416204261559
 20
16.24717430164393
 30
0.0
 11
5.245725140726316
 21
7.84717430164391
 31
0.0
  0
LINE
  5
8A
330
7F
100
AcDbEntity
  8
중심선
100
AcDbLine
 10
10.72767329541681
 20
16.24717430164393
 30
0.0
 11
6.196535287059397
 21
10.84717430164391
 31
0.0
  0
LINE
  5
8B
330
7F
100
AcDbEntity
  8
중심선
100
AcDbLine
 10
7.28139805157953
 20
16.24717430164393
 30
0.0
 11
2.750260043222114
 21
10.84717430164391
 31
0.0
  0
LINE
  5
8C
330
7F
100
AcDbEntity
  8
중심선
100
AcDbLine
 10
5.714909304380834
 20
16.24717430164393
 30
0.0
 11
3.58671253028996
 21
13.71088815037384
 31
0.0
  0
LINE
  5
8D
330
7F
100
AcDbEntity
  8
중심선
100
AcDbLine
 10
2.268634060543552
 20
16.24717430164393
 30
0.0
 11
0.1404042013395286
 21
13.71084872107135
 31
0.0
  0
LINE
  5
8E
330
7F
100
AcDbEntity
  8
중심선
100
AcDbLine
 10
7.28139805157953
 20
16.24717430164393
 30
0.0
 11
10.72767329541681
 21
16.24717430164393
 31
0.0
  0
LINE
  5
8F
330
7F
100
AcDbEntity
  8
중심선
100
AcDbLine
 10
12.29416204261559
 20
16.24717430164393
 30
0.0
 11
15.74043728645272
 21
16.24717430164393
 31
0.0
  0
LINE
  5
90
330
7F
100
AcDbEntity
  8
중심선
100
AcDbLine
 10
19.22036997980202
 20
11.08717430171403
 30
0.0
 11
23.66174974927406
 21
11.08717430171406
 31
0.0
  0
LINE
  5
91
330
7F
100
AcDbEntity
  8
중심선
100
AcDbLine
 10
19.22039502424796
 20
13.00717430171391
 30
0.0
 11
19.22036997980202
 21
11.08717430171403
 31
0.0
  0
LINE
  5
92
330
7F
100
AcDbEntity
  8
중심선
100
AcDbLine
 10
19.22039502424796
 20
13.00717430171391
 30
0.0
 11
26.96566020931264
 21
13.00717430171391
 31
0.0
  0
LINE
  5
93
330
7F
100
AcDbEntity
  8
중심선
100
AcDbLine
 10
22.22332737316547
 20
13.45928029700563
 30
0.0
 11
24.52862924686651
 21
15.39360700705356
 31
0.0
  0
ATTDEF
  5
95
330
7F
100
AcDbEntity
  8
FORMAT
 62
     2
100
AcDbText
 10
4.408487351596664
 20
2.075366912832191
 30
0.0
 40
4.233333333333333
  1
E1037116
 41
0.75
  7
SLDTEXTSTYLE0
 11
4.408487351596664
 21
-0.0412997538344756
 31
0.0
100
AcDbAttributeDefinition
  3

  2
AUTOATTR0
 70
     0
 74
     1
  0
ENDBLK
  5
81
330
7F
100
AcDbEntity
  8
0
100
AcDbBlockEnd
  0
BLOCK
  5
F9
330
F8
100
AcDbEntity
  8
0
100
AcDbBlockBegin
  2
_D
 70
     0
 10
0.0
 20
0.0
 30
0.0
  3
_D
  1
_D
  0
LINE
  5
FB
330
F8
100
AcDbEntity
  8
치수문자_일반주서
 62
     0
370
    -2
100
AcDbLine
 10
-36.95750000000086
 20
15.87499999999999
 30
0.0
 11
-66.50000000000087
 21
15.87499999999988
 31
0.0
  0
LINE
  5
FC
330
F8
100
AcDbEntity
  8
치수문자_일반주서
 62
     0
370
    -2
100
AcDbLine
 10
-48.38750000000083
 20
-15.87500000000001
 30
0.0
 11
-66.50000000000075
 21
-15.87500000000008
 31
0.0
  0
LINE
  5
FD
330
F8
100
AcDbEntity
  8
치수문자_일반주서
 62
     0
370
    -2
100
AcDbLine
 10
-66.50000000000087
 20
15.87499999999988
 30
0.0
 11
-66.50000000000101
 21
54.92699999999994
 31
0.0
  0
LINE
  5
FE
330
F8
100
AcDbEntity
  8
치수문자_일반주서
 62
     0
370
    -2
100
AcDbLine
 10
-66.50000000000087
 20
15.87499999999988
 30
0.0
 11
-66.50000000000075
 21
-15.87500000000008
 31
0.0
  0
LINE
  5
FF
330
F8
100
AcDbEntity
  8
치수문자_일반주서
 62
     0
370
    -2
100
AcDbLine
 10
-66.50000000000088
 20
19.17699999999988
 30
0.0
 11
-66.5000000000009
 21
22.47899999999988
 31
0.0
  0
LINE
  5
100
330
F8
100
AcDbEntity
  8
치수문자_일반주서
 62
     0
370
    -2
100
AcDbLine
 10
-66.50000000000074
 20
-19.17700000000008
 30
0.0
 11
-66.50000000000072
 21
-22.47900000000008
 31
0.0
  0
SOLID
  5
101
330
F8
100
AcDbEntity
  8
치수문자_일반주서
 62
     0
100
AcDbTrace
 10
-67.05033333333421
 20
19.17699999999988
 30
0.0
 11
-65.94966666666755
 21
19.17699999999989
 31
0.0
 12
-66.50000000000087
 22
15.87499999999988
 32
0.0
 13
-66.50000000000087
 23
15.87499999999988
 33
0.0
  0
SOLID
  5
102
330
F8
100
AcDbEntity
  8
치수문자_일반주서
 62
     0
100
AcDbTrace
 10
-65.94966666666741
 20
-19.17700000000007
 30
0.0
 11
-67.05033333333407
 21
-19.17700000000008
 31
0.0
 12
-66.50000000000075
 22
-15.87500000000008
 32
0.0
 13
-66.50000000000075
 23
-15.87500000000008
 33
0.0
  0
MTEXT
  5
103
330
F8
100
AcDbEntity
  8
치수문자_일반주서
 62
     0
100
AcDbMText
 10
-71.37500000000094
 20
37.05199999999992
 30
0.0
 40
4.0
 41
0.0
 71
     2
 72
     1
  1
\A1;%%c31.75 [1 1/4]
  7
SLDTEXTSTYLE0
 11
-3.580687802255628E-15
 21
1.0
 31
0.0
 73
     1
 44
1.0
  0
POINT
  5
1CB
330
F8
100
AcDbEntity
  8
Defpoints
 62
     0
100
AcDbPoint
 10
-36.89500000000086
 20
15.87499999999999
 30
0.0
  0
POINT
  5
1CC
330
F8
100
AcDbEntity
  8
Defpoints
 62
     0
100
AcDbPoint
 10
-48.32500000000083
 20
-15.87500000000001
 30
0.0
  0
POINT
  5
1CD
330
F8
100
AcDbEntity
  8
Defpoints
 62
     0
100
AcDbPoint
 10
-66.50000000000074
 20
-15.87500000000007
 30
0.0
  0
ENDBLK
  5
FA
330
F8
100
AcDbEntity
  8
0
100
AcDbBlockEnd
  0
BLOCK
  5
10C
330
10B
100
AcDbEntity
  8
0
100
AcDbBlockBegin
  2
_D_1
 70
     0
 10
0.0
 20
0.0
 30
0.0
  3
_D_1
  1
_D_1
  0
LINE
  5
10E
330
10B
100
AcDbEntity
  8
치수문자_일반주서
 62
     0
370
    -2
100
AcDbLine
 10
164.3999999999991
 20
15.82165299560637
 30
0.0
 11
164.3999999999991
 21
30.875
 31
0.0
  0
LINE
  5
10F
330
10B
100
AcDbEntity
  8
치수문자_일반주서
 62
     0
370
    -2
100
AcDbLine
 10
11.99999999999919
 20
15.91408842807859
 30
0.0
 11
11.99999999999919
 21
30.875
 31
0.0
  0
LINE
  5
110
330
10B
100
AcDbEntity
  8
치수문자_일반주서
 62
     0
370
    -2
100
AcDbLine
 10
161.0979999999991
 20
30.875
 30
0.0
 11
15.30199999999919
 21
30.875
 31
0.0
  0
SOLID
  5
111
330
10B
100
AcDbEntity
  8
치수문자_일반주서
 62
     0
100
AcDbTrace
 10
161.0979999999991
 20
30.32466666666667
 30
0.0
 11
161.0979999999991
 21
31.42533333333333
 31
0.0
 12
164.3999999999991
 22
30.875
 32
0.0
 13
164.3999999999991
 23
30.875
 33
0.0
  0
SOLID
  5
112
330
10B
100
AcDbEntity
  8
치수문자_일반주서
 62
     0
100
AcDbTrace
 10
15.30199999999919
 20
31.42533333333333
 30
0.0
 11
15.30199999999919
 21
30.32466666666667
 31
0.0
 12
11.99999999999919
 22
30.875
 32
0.0
 13
11.99999999999919
 23
30.875
 33
0.0
  0
MTEXT
  5
113
330
10B
100
AcDbEntity
  8
치수문자_일반주서
 62
     0
100
AcDbMText
 10
88.19999999999918
 20
35.75
 30
0.0
 40
4.0
 41
0.0
 71
     2
 72
     1
  1
\A1;152.4 [6]
  7
SLDTEXTSTYLE0
 73
     1
 44
1.0
  0
POINT
  5
114
330
10B
100
AcDbEntity
  8
Defpoints
 62
     0
100
AcDbPoint
 10
164.3999999999991
 20
15.75915299560637
 30
0.0
  0
POINT
  5
115
330
10B
100
AcDbEntity
  8
Defpoints
 62
     0
100
AcDbPoint
 10
11.99999999999919
 20
15.85158842807859
 30
0.0
  0
POINT
  5
116
330
10B
100
AcDbEntity
  8
Defpoints
 62
     0
100
AcDbPoint
 10
11.99999999999919
 20
30.875
 30
0.0
  0
ENDBLK
  5
10D
330
10B
100
AcDbEntity
  8
0
100
AcDbBlockEnd
  0
BLOCK
  5
11F
330
11E
100
AcDbEntity
  8
0
100
AcDbBlockBegin
  2
_D_2
 70
     0
 10
0.0
 20
0.0
 30
0.0
  3
_D_2
  1
_D_2
  0
LINE
  5
121
330
11E
100
AcDbEntity
  8
치수문자_일반주서
 62
     0
370
    -2
100
AcDbLine
 10
164.3999999999991
 20
15.82165299560637
 30
0.0
 11
164.3999999999991
 21
45.87500000000001
 31
0.0
  0
LINE
  5
122
330
11E
100
AcDbEntity
  8
치수문자_일반주서
 62
     0
370
    -2
100
AcDbLine
 10
-51.50000000000085
 20
14.0325
 30
0.0
 11
-51.50000000000085
 21
45.87500000000001
 31
0.0
  0
LINE
  5
123
330
11E
100
AcDbEntity
  8
치수문자_일반주서
 62
     0
370
    -2
100
AcDbLine
 10
161.0979999999991
 20
45.87500000000001
 30
0.0
 11
-48.19800000000085
 21
45.87500000000001
 31
0.0
  0
SOLID
  5
124
330
11E
100
AcDbEntity
  8
치수문자_일반주서
 62
     0
100
AcDbTrace
 10
161.0979999999991
 20
45.32466666666667
 30
0.0
 11
161.0979999999991
 21
46.42533333333334
 31
0.0
 12
164.3999999999991
 22
45.87500000000001
 32
0.0
 13
164.3999999999991
 23
45.87500000000001
 33
0.0
  0
SOLID
  5
125
330
11E
100
AcDbEntity
  8
치수문자_일반주서
 62
     0
100
AcDbTrace
 10
-48.19800000000085
 20
46.42533333333334
 30
0.0
 11
-48.19800000000085
 21
45.32466666666667
 31
0.0
 12
-51.50000000000085
 22
45.87500000000001
 32
0.0
 13
-51.50000000000085
 23
45.87500000000001
 33
0.0
  0
MTEXT
  5
126
330
11E
100
AcDbEntity
  8
치수문자_일반주서
 62
     0
100
AcDbMText
 10
56.44999999999915
 20
50.75000000000001
 30
0.0
 40
4.0
 41
0.0
 71
     2
 72
     1
  1
\A1;215.9 [8 1/2]
  7
SLDTEXTSTYLE0
 73
     1
 44
1.0
  0
POINT
  5
127
330
11E
100
AcDbEntity
  8
Defpoints
 62
     0
100
AcDbPoint
 10
164.3999999999991
 20
15.75915299560637
 30
0.0
  0
POINT
  5
128
330
11E
100
AcDbEntity
  8
Defpoints
 62
     0
100
AcDbPoint
 10
-51.50000000000085
 20
13.97
 30
0.0
  0
POINT
  5
129
330
11E
100
AcDbEntity
  8
Defpoints
 62
     0
100
AcDbPoint
 10
-51.50000000000085
 20
45.87500000000001
 30
0.0
  0
ENDBLK
  5
120
330
11E
100
AcDbEntity
  8
0
100
AcDbBlockEnd
  0
BLOCK
  5
132
330
131
100
AcDbEntity
  8
0
100
AcDbBlockBegin
  2
_D_3
 70
     0
 10
0.0
 20
0.0
 30
0.0
  3
_D_3
  1
_D_3
  0
LINE
  5
134
330
131
100
AcDbEntity
  8
치수문자_일반주서
 62
     0
370
    -2
100
AcDbLine
 10
164.4624999999991
 20
15.87500000000001
 30
0.0
 11
179.3999999999991
 21
15.87500000000007
 31
0.0
  0
LINE
  5
135
330
131
100
AcDbEntity
  8
치수문자_일반주서
 62
     0
370
    -2
100
AcDbLine
 10
164.4624999999991
 20
-15.87500000000002
 30
0.0
 11
179.3999999999992
 21
-15.87499999999996
 31
0.0
  0
LINE
  5
136
330
131
100
AcDbEntity
  8
치수문자_일반주서
 62
     0
370
    -2
100
AcDbLine
 10
179.3999999999991
 20
15.87500000000007
 30
0.0
 11
179.399999999999
 21
62.49643577138463
 31
0.0
  0
LINE
  5
137
330
131
100
AcDbEntity
  8
치수문자_일반주서
 62
     0
370
    -2
100
AcDbLine
 10
179.3999999999991
 20
15.87500000000007
 30
0.0
 11
179.3999999999992
 21
-15.87499999999996
 31
0.0
  0
LINE
  5
138
330
131
100
AcDbEntity
  8
치수문자_일반주서
 62
     0
370
    -2
100
AcDbLine
 10
179.3999999999991
 20
19.17700000000007
 30
0.0
 11
179.3999999999991
 21
22.47900000000007
 31
0.0
  0
LINE
  5
139
330
131
100
AcDbEntity
  8
치수문자_일반주서
 62
     0
370
    -2
100
AcDbLine
 10
179.3999999999992
 20
-19.17699999999996
 30
0.0
 11
179.3999999999992
 21
-22.47899999999996
 31
0.0
  0
SOLID
  5
13A
330
131
100
AcDbEntity
  8
치수문자_일반주서
 62
     0
100
AcDbTrace
 10
178.8496666666658
 20
19.17700000000006
 30
0.0
 11
179.9503333333325
 21
19.17700000000007
 31
0.0
 12
179.3999999999991
 22
15.87500000000007
 32
0.0
 13
179.3999999999991
 23
15.87500000000007
 33
0.0
  0
SOLID
  5
13B
330
131
100
AcDbEntity
  8
치수문자_일반주서
 62
     0
100
AcDbTrace
 10
179.9503333333326
 20
-19.17699999999995
 30
0.0
 11
178.8496666666659
 21
-19.17699999999996
 31
0.0
 12
179.3999999999992
 22
-15.87499999999996
 32
0.0
 13
179.3999999999992
 23
-15.87499999999996
 33
0.0
  0
MTEXT
  5
13C
330
131
100
AcDbEntity
  8
치수문자_일반주서
 62
     0
100
AcDbMText
 10
174.524999999999
 20
44.62143577138461
 30
0.0
 40
4.0
 41
0.0
 71
     2
 72
     1
  1
\A1;%%c31.75 [1 1/4]
  7
SLDTEXTSTYLE0
 11
-3.580687802255620E-15
 21
1.0
 31
0.0
 73
     1
 44
1.0
  0
POINT
  5
13D
330
131
100
AcDbEntity
  8
Defpoints
 62
     0
100
AcDbPoint
 10
164.3999999999991
 20
15.87500000000001
 30
0.0
  0
POINT
  5
1CE
330
131
100
AcDbEntity
  8
Defpoints
 62
     0
100
AcDbPoint
 10
164.3999999999991
 20
-15.87500000000002
 30
0.0
  0
POINT
  5
1CF
330
131
100
AcDbEntity
  8
Defpoints
 62
     0
100
AcDbPoint
 10
179.3999999999993
 20
-15.87499999999996
 30
0.0
  0
ENDBLK
  5
133
330
131
100
AcDbEntity
  8
0
100
AcDbBlockEnd
  0
BLOCK
  5
14B
330
14A
100
AcDbEntity
  8
0
100
AcDbBlockBegin
  2
SW_DOWELSYMBOL_0
 70
     0
 10
0.0
 20
0.0
 30
0.0
  3
SW_DOWELSYMBOL_0
  1
SW_DOWELSYMBOL_0
  0
CIRCLE
  5
14D
330
14A
100
AcDbEntity
  8
해칭선
 62
     0
100
AcDbCircle
 10
0.0
 20
0.0
 30
0.0
 40
3.000000000000001
  0
HATCH
  5
14E
330
14A
100
AcDbEntity
  8
0
  6
Continuous
 62
     0
370
     0
100
AcDbHatch
 10
0.0
 20
0.0
 30
0.0
210
0.0
220
0.0
230
1.0
  2
SOLID
 70
     1
 71
     0
 91
        1
 92
        0
 93
        3
 72
     2
 10
0.0
 20
0.0
 40
3.000000000000001
 50
0.0
 51
90.0
 73
     1
 72
     1
 10
0.0
 20
3.000000000000001
 11
0.0
 21
0.0
 72
     1
 10
0.0
 20
0.0
 11
3.000000000000001
 21
0.0
 97
        0
 75
     0
 76
     1
 98
        1
 10
0.0
 20
0.0
  0
HATCH
  5
14F
330
14A
100
AcDbEntity
  8
0
  6
Continuous
 62
     0
370
     0
100
AcDbHatch
 10
0.0
 20
0.0
 30
0.0
210
0.0
220
0.0
230
1.0
  2
SOLID
 70
     1
 71
     0
 91
        1
 92
        0
 93
        3
 72
     2
 10
0.0
 20
0.0
 40
3.000000000000001
 50
180.0
 51
270.0000000000007
 73
     1
 72
     1
 10
0.0
 20
-3.000000000000001
 11
0.0
 21
0.0
 72
     1
 10
0.0
 20
0.0
 11
-3.000000000000001
 21
0.0
 97
        0
 75
     0
 76
     1
 98
        1
 10
0.0
 20
0.0
  0
ENDBLK
  5
14C
330
14A
100
AcDbEntity
  8
0
100
AcDbBlockEnd
  0
BLOCK
  5
1AC
330
1AB
100
AcDbEntity
  8
0
100
AcDbBlockBegin
  2
*D7
 70
     1
 10
0.0
 20
0.0
 30
0.0
  3
*D7
  1
*D7
  0
LINE
  5
1AE
330
1AB
100
AcDbEntity
  8
치수문자_일반주서
 62
     0
370
    -2
100
AcDbLine
 10
0.0
 20
1.183621269402728
 30
0.0
 11
0.0
 21
32.761592152052
 31
0.0
  0
LINE
  5
1AF
330
1AB
100
AcDbEntity
  8
치수문자_일반주서
 62
     0
370
    -2
100
AcDbLine
 10
38.00011895067188
 20
11.59899254933891
 30
0.0
 11
38.00011895067188
 21
32.761592152052
 31
0.0
  0
LINE
  5
1B0
330
1AB
100
AcDbEntity
  8
치수문자_일반주서
 62
     0
370
    -2
100
AcDbLine
 10
4.0
 20
32.761592152052
 30
0.0
 11
34.00011895067188
 21
32.761592152052
 31
0.0
  0
SOLID
  5
1B1
330
1AB
100
AcDbEntity
  8
치수문자_일반주서
 62
     0
100
AcDbTrace
 10
4.0
 20
33.42825881871867
 30
0.0
 11
4.0
 21
32.09492548538534
 31
0.0
 12
0.0
 22
32.761592152052
 32
0.0
 13
0.0
 23
32.761592152052
 33
0.0
  0
SOLID
  5
1B2
330
1AB
100
AcDbEntity
  8
치수문자_일반주서
 62
     0
100
AcDbTrace
 10
34.00011895067188
 20
32.09492548538534
 30
0.0
 11
34.00011895067188
 21
33.42825881871867
 31
0.0
 12
38.00011895067188
 22
32.761592152052
 32
0.0
 13
38.00011895067188
 23
32.761592152052
 33
0.0
  0
MTEXT
  5
1B3
330
1AB
100
AcDbEntity
  8
치수문자_일반주서
 62
     0
100
AcDbMText
 10
19.06814435762387
 20
37.636592152052
 30
0.0
 40
4.0
 41
0.0
 71
     2
 72
     1
  1
\A1;38
  7
SLDTEXTSTYLE0
 73
     1
 44
1.0
  0
POINT
  5
1B4
330
1AB
100
AcDbEntity
  8
Defpoints
 62
     0
100
AcDbPoint
 10
0.0
 20
1.121121269402728
 30
0.0
  0
POINT
  5
1B5
330
1AB
100
AcDbEntity
  8
Defpoints
 62
     0
100
AcDbPoint
 10
38.00011895067188
 20
11.53649254933891
 30
0.0
  0
POINT
  5
1B6
330
1AB
100
AcDbEntity
  8
Defpoints
 62
     0
100
AcDbPoint
 10
38.00011895067188
 20
32.761592152052
 30
0.0
  0
ENDBLK
  5
1AD
330
1AB
100
AcDbEntity
  8
0
100
AcDbBlockEnd
  0
BLOCK
  5
1BB
330
1BA
100
AcDbEntity
  8
0
100
AcDbBlockBegin
  2
*D8
 70
     1
 10
0.0
 20
0.0
 30
0.0
  3
*D8
  1
*D8
  0
LINE
  5
1BD
330
1BA
100
AcDbEntity
  8
치수문자_일반주서
 62
     0
370
    -2
100
AcDbLine
 10
213.1900248183948
 20
-57.84513231003236
 30
0.0
 11
213.1900248183948
 21
-26.26716142738309
 31
0.0
  0
LINE
  5
1BE
330
1BA
100
AcDbEntity
  8
치수문자_일반주서
 62
     0
370
    -2
100
AcDbLine
 10
251.1901437690667
 20
-47.42976103009617
 30
0.0
 11
251.1901437690667
 21
-26.26716142738309
 31
0.0
  0
LINE
  5
1BF
330
1BA
100
AcDbEntity
  8
치수문자_일반주서
 62
     0
370
    -2
100
AcDbLine
 10
217.1900248183948
 20
-26.26716142738309
 30
0.0
 11
247.1901437690667
 21
-26.26716142738309
 31
0.0
  0
SOLID
  5
1C0
330
1BA
100
AcDbEntity
  8
치수문자_일반주서
 62
     0
100
AcDbTrace
 10
217.1900248183948
 20
-25.60049476071642
 30
0.0
 11
217.1900248183948
 21
-26.93382809404975
 31
0.0
 12
213.1900248183948
 22
-26.26716142738309
 32
0.0
 13
213.1900248183948
 23
-26.26716142738309
 33
0.0
  0
SOLID
  5
1C1
330
1BA
100
AcDbEntity
  8
치수문자_일반주서
 62
     0
100
AcDbTrace
 10
247.1901437690667
 20
-26.93382809404975
 30
0.0
 11
247.1901437690667
 21
-25.60049476071642
 31
0.0
 12
251.1901437690667
 22
-26.26716142738309
 32
0.0
 13
251.1901437690667
 23
-26.26716142738309
 33
0.0
  0
MTEXT
  5
1C2
330
1BA
100
AcDbEntity
  8
치수문자_일반주서
 62
     0
100
AcDbMText
 10
232.2581691760186
 20
-21.39216142738309
 30
0.0
 40
4.0
 41
0.0
 71
     2
 72
     1
  1
\A1;38
  7
SLDTEXTSTYLE0
 73
     1
 44
1.0
  0
POINT
  5
1C3
330
1BA
100
AcDbEntity
  8
Defpoints
 62
     0
100
AcDbPoint
 10
213.1900248183948
 20
-57.90763231003236
 30
0.0
  0
POINT
  5
1C4
330
1BA
100
AcDbEntity
  8
Defpoints
 62
     0
100
AcDbPoint
 10
251.1901437690667
 20
-47.49226103009617
 30
0.0
  0
POINT
  5
1C5
330
1BA
100
AcDbEntity
  8
Defpoints
 62
     0
100
AcDbPoint
 10
251.1901437690667
 20
-26.26716142738309
 30
0.0
  0
ENDBLK
  5
1BC
330
1BA
100
AcDbEntity
  8
0
100
AcDbBlockEnd
  0
ENDSEC
  0
SECTION
  2
ENTITIES
  0
LINE
  5
96
330
1F
100
AcDbEntity
  8
0
  6
Continuous
 62
     1
370
    15
100
AcDbLine
 10
101.2698652165056
 20
3.009914658366974
 30
0.0
 11
101.098744329639
 21
3.175444029189785
 31
0.0
1001
PE_URL
1000

  0
LINE
  5
97
330
1F
100
AcDbEntity
  8
0
  6
Continuous
 62
     1
370
    15
100
AcDbLine
 10
94.58149888550962
 20
-3.05527704909958
 30
0.0
 11
94.70489700283801
 21
-3.174302552685252
 31
0.0
1001
PE_URL
1000

  0
LINE
  5
98
330
1F
100
AcDbEntity
  8
0
  6
Continuous
 62
     1
370
    15
100
AcDbLine
 10
28.09993479432616
 20
-3.068631436000326
 30
0.0
 11
28.2095944243934
 21
-3.174927633021247
 31
0.0
1001
PE_URL
1000

  0
LINE
  5
99
330
1F
100
AcDbEntity
  8
0
  6
Continuous
 62
     1
370
    15
100
AcDbLine
 10
117.8355557883473
 20
3.064667682128275
 30
0.0
 11
117.7232432333139
 21
3.174971523405071
 31
0.0
1001
PE_URL
1000

  0
LINE
  5
9A
330
1F
100
AcDbEntity
  8
0
  6
Continuous
 62
     1
370
    15
100
AcDbLine
 10
111.2123532182928
 20
-3.060472708269325
 30
0.0
 11
111.3316178215986
 21
-3.175391296202347
 31
0.0
1001
PE_URL
1000

  0
LINE
  5
9B
330
1F
100
AcDbEntity
  8
0
  6
Continuous
 62
     1
370
    15
100
AcDbLine
 10
112.6069568454959
 20
-15.87500000000002
 30
0.0
 11
116.4454690949695
 21
-15.87500000000002
 31
0.0
1001
PE_URL
1000

  0
LINE
  5
9C
330
1F
100
AcDbEntity
  8
0
  6
Continuous
 62
     1
370
    15
100
AcDbLine
 10
12.8614102582164
 20
-15.87500000000002
 30
0.0
 11
16.70029711060043
 21
-15.87500000000002
 31
0.0
1001
PE_URL
1000

  0
LINE
  5
9D
330
1F
100
AcDbEntity
  8
0
  6
Continuous
 62
     1
370
    15
100
AcDbLine
 10
66.57234596839047
 20
15.87500000000001
 30
0.0
 11
62.73577616747559
 21
15.87500000000001
 31
0.0
1001
PE_URL
1000

  0
LINE
  5
9E
330
1F
100
AcDbEntity
  8
0
  6
Continuous
 62
     1
370
    15
100
AcDbLine
 10
164.3999999999991
 20
15.87500000000001
 30
0.0
 11
162.4800970898485
 21
15.87500000000001
 31
0.0
1001
PE_URL
1000

  0
LINE
  5
9F
330
1F
100
AcDbEntity
  8
0
  6
Continuous
 62
     1
370
    15
100
AcDbLine
 10
95.98437137854542
 20
-15.87500000000002
 30
0.0
 11
99.8219762927206
 21
-15.87500000000002
 31
0.0
1001
PE_URL
1000

  0
LINE
  5
A0
330
1F
100
AcDbEntity
  8
0
  6
Continuous
 62
     1
370
    15
100
AcDbLine
 10
49.94932364720671
 20
15.87500000000001
 30
0.0
 11
46.11250843239502
 21
15.87500000000001
 31
0.0
1001
PE_URL
1000

  0
LINE
  5
A1
330
1F
100
AcDbEntity
  8
0
  6
Continuous
 62
     1
370
    15
100
AcDbLine
 10
149.6946267425526
 20
15.87500000000001
 30
0.0
 11
145.8558618668049
 21
15.87500000000001
 31
0.0
1001
PE_URL
1000

  0
LINE
  5
A2
330
1F
100
AcDbEntity
  8
0
  6
Continuous
 62
     1
370
    15
100
AcDbLine
 10
79.35954717630298
 20
-15.87500000000002
 30
0.0
 11
83.1975069728424
 21
-15.87500000000002
 31
0.0
1001
PE_URL
1000

  0
LINE
  5
A3
330
1F
100
AcDbEntity
  8
0
  6
Continuous
 62
     1
370
    15
100
AcDbLine
 10
33.32355090086462
 20
15.87500000000001
 30
0.0
 11
29.48698510267674
 21
15.87500000000001
 31
0.0
1001
PE_URL
1000

  0
LINE
  5
A4
330
1F
100
AcDbEntity
  8
0
  6
Continuous
 62
     1
370
    15
100
AcDbLine
 10
133.071481398482
 20
15.87500000000001
 30
0.0
 11
129.232571385247
 21
15.87500000000001
 31
0.0
1001
PE_URL
1000

  0
LINE
  5
A5
330
1F
100
AcDbEntity
  8
0
  6
Continuous
 62
     1
370
    15
100
AcDbLine
 10
162.4800970898485
 20
-15.87500000000002
 30
0.0
 11
164.3999999999991
 21
-15.87500000000002
 31
0.0
1001
PE_URL
1000

  0
LINE
  5
A6
330
1F
100
AcDbEntity
  8
0
  6
Continuous
 62
     1
370
    15
100
AcDbLine
 10
62.73577616747562
 20
-15.87500000000002
 30
0.0
 11
66.57234596839061
 21
-15.87500000000002
 31
0.0
1001
PE_URL
1000

  0
LINE
  5
A7
330
1F
100
AcDbEntity
  8
0
  6
Continuous
 62
     1
370
    15
100
AcDbLine
 10
16.70029711060048
 20
15.87500000000001
 30
0.0
 11
12.86141025821633
 21
15.87500000000001
 31
0.0
1001
PE_URL
1000

  0
LINE
  5
A8
330
1F
100
AcDbEntity
  8
0
  6
Continuous
 62
     1
370
    15
100
AcDbLine
 10
116.4454690949696
 20
15.87500000000001
 30
0.0
 11
112.6069568454959
 21
15.87500000000001
 31
0.0
1001
PE_URL
1000

  0
LINE
  5
A9
330
1F
100
AcDbEntity
  8
0
  6
Continuous
 62
     1
370
    15
100
AcDbLine
 10
145.8558618668048
 20
-15.87500000000002
 30
0.0
 11
149.6946267425527
 21
-15.87500000000002
 31
0.0
1001
PE_URL
1000

  0
LINE
  5
AA
330
1F
100
AcDbEntity
  8
0
  6
Continuous
 62
     1
370
    15
100
AcDbLine
 10
46.11250843239493
 20
-15.87500000000002
 30
0.0
 11
49.94932364720668
 21
-15.87500000000002
 31
0.0
1001
PE_URL
1000

  0
LINE
  5
AB
330
1F
100
AcDbEntity
  8
0
  6
Continuous
 62
     1
370
    15
100
AcDbLine
 10
99.8219762927206
 20
15.87500000000001
 30
0.0
 11
95.98437137854532
 21
15.87500000000001
 31
0.0
1001
PE_URL
1000

  0
LINE
  5
AC
330
1F
100
AcDbEntity
  8
0
  6
Continuous
 62
     1
370
    15
100
AcDbLine
 10
129.2325713852469
 20
-15.87500000000002
 30
0.0
 11
133.0714813984818
 21
-15.87500000000002
 31
0.0
1001
PE_URL
1000

  0
LINE
  5
AD
330
1F
100
AcDbEntity
  8
0
  6
Continuous
 62
     1
370
    15
100
AcDbLine
 10
29.48698510267662
 20
-15.87500000000002
 30
0.0
 11
33.32355090086452
 21
-15.87500000000002
 31
0.0
1001
PE_URL
1000

  0
LINE
  5
AE
330
1F
100
AcDbEntity
  8
0
  6
Continuous
 62
     1
370
    15
100
AcDbLine
 10
83.19750697284232
 20
15.87500000000001
 30
0.0
 11
79.35954717630293
 21
15.87500000000001
 31
0.0
1001
PE_URL
1000

  0
LINE
  5
AF
330
1F
100
AcDbEntity
  8
외형선
  6
Continuous
370
    15
100
AcDbLine
 10
-48.32500000000086
 20
-15.87500000000001
 30
0.0
 11
11.00031263529231
 21
-15.87500000000001
 31
0.0
  0
LINE
  5
B0
330
1F
100
AcDbEntity
  8
외형선
  6
Continuous
370
    15
100
AcDbLine
 10
11.00031263529231
 20
15.875
 30
0.0
 11
-14.06992500000083
 21
15.875
 31
0.0
  0
LINE
  5
B2
330
1F
100
AcDbEntity
  8
외형선
  6
Continuous
370
    15
100
AcDbLine
 10
-51.50000000000085
 20
-12.70000000000002
 30
0.0
 11
-48.32500000000086
 21
-15.87500000000001
 31
0.0
  0
LINE
  5
B3
330
1F
100
AcDbEntity
  8
0
  6
Continuous
 62
     1
370
    15
100
AcDbLine
 10
164.3999999999991
 20
9.488085211503153
 30
0.0
 11
164.3999999999991
 21
15.75915299560637
 31
0.0
1001
PE_URL
1000

  0
SPLINE
  5
B4
330
1F
100
AcDbEntity
  8
0
  6
Continuous
 62
     1
370
    15
100
AcDbSpline
210
0.0
220
0.0
230
1.0
 70
     8
 71
     3
 72
    28
 73
    24
 74
     0
 42
0.000000001
 43
0.00000001
 40
0.0
 40
0.0
 40
0.0
 40
0.0
 40
0.0380438584875185
 40
0.0867269030463782
 40
0.1354087679635503
 40
0.1840899723642639
 40
0.2327710358148329
 40
0.2814524779757174
 40
0.3301348182544408
 40
0.3788185754588818
 40
0.4275042674514468
 40
0.4761924108046137
 40
0.5248835204583706
 40
0.57357797885035
 40
0.6222712348413157
 40
0.670961199080663
 40
0.7196483852970795
 40
0.7683333090677161
 40
0.8170164874770743
 40
0.8656984387736906
 40
0.9143796820251208
 40
0.963060736771732
 40
1.0
 40
1.0
 40
1.0
 40
1.0
 10
49.94932364720671
 20
15.83468410305736
 30
0.0
 10
50.66282581028975
 20
15.82303821469788
 30
0.0
 10
52.28936516200628
 20
15.79648959763338
 30
0.0
 10
54.8288592320376
 20
15.19717439108873
 30
0.0
 10
57.56782262078242
 20
14.15434945223853
 30
0.0
 10
60.30672843673352
 20
12.67645170417384
 30
0.0
 10
63.04562283564725
 20
10.82602822427866
 30
0.0
 10
65.78454908983487
 20
8.65302318709138
 30
0.0
 10
68.52355114045248
 20
6.223294333260756
 30
0.0
 10
71.2626729927599
 20
3.608623267532534
 30
0.0
 10
74.00195738547175
 20
0.8867399644039831
 30
0.0
 10
76.74145152170487
 20
-1.861553790063431
 30
0.0
 10
79.48118283010564
 20
-4.554641428300483
 30
0.0
 10
82.22114771392539
 20
-7.112399403933949
 30
0.0
 10
84.96103237173539
 20
-9.458915859541865
 30
0.0
 10
87.70067518084538
 20
-11.5244541763875
 30
0.0
 10
90.44008701818332
 20
-13.24755080082915
 30
0.0
 10
93.17930697072111
 20
-14.57741502737609
 30
0.0
 10
95.91837989478091
 20
-15.47328341282314
 30
0.0
 10
98.65734899818831
 20
-15.91341439373794
 30
0.0
 10
101.3962589760629
 20
-15.86668988261503
 30
0.0
 10
103.9149398475512
 20
-15.43928297339993
 30
0.0
 10
105.5206658537171
 20
-14.82868420434513
 30
0.0
 10
106.2134259019995
 20
-14.56525293954196
 30
0.0
1001
PE_URL
1000

  0
SPLINE
  5
B5
330
1F
100
AcDbEntity
  8
0
  6
Continuous
 62
     1
370
    15
100
AcDbSpline
210
0.0
220
0.0
230
1.0
 70
     8
 71
     3
 72
    13
 73
     9
 74
     0
 42
0.000000001
 43
0.00000001
 40
0.0
 40
0.0
 40
0.0
 40
0.0
 40
0.068546145928444
 40
0.2548188868345339
 40
0.4410986683164687
 40
0.6273874678863465
 40
0.8136872570492888
 40
1.0
 40
1.0
 40
1.0
 40
1.0
 10
149.6946267425526
 20
15.82007883349143
 30
0.0
 10
150.0306057346434
 20
15.83453226331512
 30
0.0
 10
151.2796007234169
 20
15.88826259123844
 30
0.0
 10
153.4416816791637
 20
15.49187134143662
 30
0.0
 10
156.1809314791361
 20
14.64651757626515
 30
0.0
 10
158.9203843325773
 20
13.32972506491518
 30
0.0
 10
161.6600711552616
 20
11.6455337617296
 30
0.0
 10
163.4866692180014
 20
10.24016023902883
 30
0.0
 10
164.3999999999991
 20
9.537449048937079
 30
0.0
1001
PE_URL
1000

  0
SPLINE
  5
B6
330
1F
100
AcDbEntity
  8
0
  6
Continuous
 62
     1
370
    15
100
AcDbSpline
210
0.0
220
0.0
230
1.0
 70
     8
 71
     3
 72
    11
 73
     7
 74
     0
 42
0.000000001
 43
0.00000001
 40
0.0
 40
0.0
 40
0.0
 40
0.0
 40
0.3295758130043118
 40
0.6591287115527
 40
0.9886621701851208
 40
0.9999999999999999
 40
0.9999999999999999
 40
0.9999999999999999
 40
0.9999999999999999
 10
164.3999999999991
 20
15.75915299560637
 30
0.0
 10
163.4866688485033
 20
15.82658739174214
 30
0.0
 10
161.6600700467931
 20
15.96145149549457
 30
0.0
 10
158.9203887659825
 20
15.51787274926531
 30
0.0
 10
157.0626076693849
 20
15.05291732977433
 30
0.0
 10
156.1180655463051
 20
14.61244313172328
 30
0.0
 10
156.0866488262486
 20
14.59779237742216
 30
0.0
1001
PE_URL
1000

  0
SPLINE
  5
B7
330
1F
100
AcDbEntity
  8
0
  6
Continuous
 62
     1
370
    15
100
AcDbSpline
210
0.0
220
0.0
230
1.0
 70
     8
 71
     3
 72
    29
 73
    25
 74
     0
 42
0.000000001
 43
0.00000001
 40
0.0
 40
0.0
 40
0.0
 40
0.0
 40
0.0045287099762297
 40
0.0532118901874427
 40
0.1018937009269429
 40
0.1505746610673378
 40
0.1992552900491759
 40
0.2479361075341841
 40
0.2966176330581853
 40
0.3453003856841971
 40
0.3939848836562219
 40
0.4426716440542392
 40
0.4913611824508906
 40
0.5400540125703712
 40
0.5887480450803491
 40
0.6374387288813921
 40
0.686126446407789
 40
0.7348117125950228
 40
0.783495044011055
 40
0.8321769585137605
 40
0.8808579749064834
 40
0.9295386125922032
 40
0.9782193912268343
 40
0.9999999999999999
 40
0.9999999999999999
 40
0.9999999999999999
 40
0.9999999999999999
 10
112.6069568454959
 20
-15.8550977013629
 30
0.0
 10
112.5220209585045
 20
-15.86160811954188
 30
0.0
 10
111.5240327642318
 20
-15.93810488330739
 30
0.0
 10
109.6130708165887
 20
-15.64007895343078
 30
0.0
 10
106.8740726466489
 20
-14.9329238064314
 30
0.0
 10
104.1351524226763
 20
-13.7328466024349
 30
0.0
 10
101.3962585114828
 20
-12.13817600413145
 30
0.0
 10
98.65734912267432
 20
-10.17946718707532
 30
0.0
 10
95.91837986142382
 20
-7.919376591126192
 30
0.0
 10
93.17930697965942
 20
-5.423800804760181
 30
0.0
 10
90.44008701578849
 20
-2.767158311642632
 30
0.0
 10
87.7006751814856
 20
-0.0282466331416012
 30
0.0
 10
84.96103237156936
 20
2.711581689914125
 30
0.0
 10
82.22114771394932
 20
5.370895388685147
 30
0.0
 10
79.48118283017587
 20
7.870638442171484
 30
0.0
 10
76.74145152139964
 20
10.13661465290514
 30
0.0
 10
74.00195738662205
 20
12.10145757867772
 30
0.0
 10
71.26267298846388
 20
13.70669278436603
 30
0.0
 10
68.5235511564856
 20
14.90527893017787
 30
0.0
 10
65.78454903000028
 20
15.65938819656552
 30
0.0
 10
63.04562305894812
 20
15.95507420031093
 30
0.0
 10
60.30672760336914
 20
15.7521050986506
 30
0.0
 10
58.0723265121986
 20
15.28042407043941
 30
0.0
 10
56.75087317505692
 20
14.72345066002798
 30
0.0
 10
56.34239330818029
 20
14.55128232222592
 30
0.0
1001
PE_URL
1000

  0
LINE
  5
B8
330
1F
100
AcDbEntity
  8
0
  6
Continuous
 62
     1
370
    15
100
AcDbLine
 10
12.86141025821642
 20
-15.81626173669128
 30
0.0
 11
11.99999999999919
 21
-15.85158842807845
 31
0.0
1001
PE_URL
1000

  0
SPLINE
  5
B9
330
1F
100
AcDbEntity
  8
0
  6
Continuous
 62
     1
370
    15
100
AcDbSpline
210
0.0
220
0.0
230
1.0
 70
     8
 71
     3
 72
    11
 73
     7
 74
     0
 42
0.000000001
 43
0.00000001
 40
0.0
 40
0.0
 40
0.0
 40
0.0
 40
0.2730642671712928
 40
0.546132487298297
 40
0.8192043538763625
 40
1.0
 40
1.0
 40
1.0
 40
1.0
 10
11.99999999999917
 20
-15.18423232908215
 30
0.0
 10
13.00956833669518
 20
-15.42655222888995
 30
0.0
 10
15.02871962488454
 20
-15.91119553639707
 30
0.0
 10
18.05749623205052
 20
-15.89355206494279
 30
0.0
 10
20.74514984080655
 20
-15.47029215662478
 30
0.0
 10
22.42321873434556
 20
-14.80900272074384
 30
0.0
 10
23.09166831788463
 20
-14.54558168379157
 30
0.0
1001
PE_URL
1000

  0
SPLINE
  5
BA
330
1F
100
AcDbEntity
  8
0
  6
Continuous
 62
     1
370
    15
100
AcDbSpline
210
0.0
220
0.0
230
1.0
 70
     8
 71
     3
 72
    28
 73
    24
 74
     0
 42
0.000000001
 43
0.00000001
 40
0.0
 40
0.0
 40
0.0
 40
0.0
 40
0.0346794951907747
 40
0.0833625814204627
 40
0.1320476024116089
 40
0.1807350747295715
 40
0.2294255133072416
 40
0.2781193005769809
 40
0.3268118854622784
 40
0.3755011786413253
 40
0.4241876938357291
 40
0.4728719466155348
 40
0.5215544540581172
 40
0.57023573440487
 40
0.6189163067161952
 40
0.6675966905252997
 40
0.7162774054912933
 40
0.7649589710521084
 40
0.8136419060777385
 40
0.8623267285243142
 40
0.9110139550895061
 40
0.9597041008697705
 40
1.0
 40
1.0
 40
1.0
 40
1.0
 10
66.57234596839047
 20
15.82662446797954
 30
0.0
 10
67.22273950007296
 20
15.82274790095281
 30
0.0
 10
68.78615567559585
 20
15.81342940791768
 30
0.0
 10
71.26267367672787
 20
15.25225734568341
 30
0.0
 10
74.00195720218944
 20
14.24138054258757
 30
0.0
 10
76.74145157082211
 20
12.79064412246744
 30
0.0
 10
79.48118281693365
 20
10.96443210061811
 30
0.0
 10
82.22114771749082
 20
8.811348441466915
 30
0.0
 10
84.96103237064592
 20
6.396823708385497
 30
0.0
 10
87.7006751816379
 20
3.792226376623694
 30
0.0
 10
90.4400870161026
 20
1.075091683473707
 30
0.0
 10
93.17930697825112
 20
-1.673917895612326
 30
0.0
 10
95.91837986674281
 20
-4.37316023934921
 30
0.0
 10
98.65734910280752
 20
-6.942490906374266
 30
0.0
 10
101.3962585856301
 20
-9.30561550777779
 30
0.0
 10
104.1351521459538
 20
-11.39239037983097
 30
0.0
 10
106.8740736794069
 20
-13.14077081860263
 30
0.0
 10
109.6130669621629
 20
-14.49913745013278
 30
0.0
 10
112.3521760574735
 20
-15.42601197573138
 30
0.0
 10
115.0914436764853
 20
-15.89806284294951
 30
0.0
 10
117.8309171319823
 20
-15.88551327318508
 30
0.0
 10
120.4131189773702
 20
-15.47258733003354
 30
0.0
 10
122.0822189915991
 20
-14.85408597050936
 30
0.0
 10
122.8380440861887
 20
-14.57400757821353
 30
0.0
1001
PE_URL
1000

  0
SPLINE
  5
BB
330
1F
100
AcDbEntity
  8
외형선
  6
Continuous
370
    15
100
AcDbSpline
210
0.0
220
0.0
230
1.0
 70
    24
 71
     3
 72
    15
 73
    11
 74
     0
 42
0.000000001
 43
0.00000001
 40
0.0
 40
0.0
 40
0.0
 40
0.0
 40
0.0783402693792476
 40
0.2002598262802808
 40
0.3257150585908622
 40
0.447634615491897
 40
0.5730898478024775
 40
0.6950094047035118
 40
0.8204646370140936
 40
1.0
 40
1.0
 40
1.0
 40
1.0
 10
11.9999999999992
 20
-7.33067438796555
 30
0.0
 10
11.99999999999919
 20
-7.475938584335921
 30
0.0
 10
11.99999999999914
 20
-7.847274845499983
 30
0.0
 10
11.99999999999912
 20
-8.597632751748504
 30
0.0
 10
11.99999999999919
 20
-9.527970068039105
 30
0.0
 10
11.99999999999916
 20
-10.54737749735215
 30
0.0
 10
11.9999999999991
 20
-11.60194958276688
 30
0.0
 10
11.99999999999928
 20
-12.68046792298875
 30
0.0
 10
11.99999999999905
 20
-13.90656599620048
 30
0.0
 10
11.99999999999913
 20
-14.71080818136065
 30
0.0
 10
11.99999999999917
 20
-15.18423232908214
 30
0.0
  0
SPLINE
  5
BC
330
1F
100
AcDbEntity
  8
0
  6
Continuous
 62
     1
370
    15
100
AcDbSpline
210
0.0
220
0.0
230
1.0
 70
     8
 71
     3
 72
    29
 73
    25
 74
     0
 42
0.000000001
 43
0.00000001
 40
0.0
 40
0.0
 40
0.0
 40
0.0
 40
0.0078621397384428
 40
0.0565505386140936
 40
0.1052422760220209
 40
0.1539346472407083
 40
0.2026236188034531
 40
0.251309671221525
 40
0.299993319578959
 40
0.3486750805609652
 40
0.3973554721111818
 40
0.4460350130870902
 40
0.4947142229140958
 40
0.5433936212387762
 40
0.5920737275818085
 40
0.6407550609910786
 40
0.689438139695481
 40
0.7381234807599205
 40
0.7868115997420091
 40
0.8355030103509653
 40
0.8841956233153663
 40
0.9328848876684552
 40
0.9815711858333718
 40
1.0
 40
1.0
 40
1.0
 40
1.0
 10
129.2325713852469
 20
-15.84304351193218
 30
0.0
 10
129.0851102151999
 20
-15.8532123307451
 30
0.0
 10
128.0244563896205
 20
-15.9263542742961
 30
0.0
 10
126.0504775456941
 20
-15.60701211681603
 30
0.0
 10
123.3105760500576
 20
-14.864110443181
 30
0.0
 10
120.5706257705832
 20
-13.63576449203402
 30
0.0
 10
117.8309170200797
 20
-12.01413208040553
 30
0.0
 10
115.0914437064671
 20
-10.0325425307417
 30
0.0
 10
112.3521760494403
 20
-7.753865016421274
 30
0.0
 10
109.6130669643157
 20
-5.244714231152813
 30
0.0
 10
106.874073678829
 20
-2.579895071399882
 30
0.0
 10
104.1351521461132
 20
0.1615364339385953
 30
0.0
 10
101.3962585855708
 20
2.898157003081315
 30
0.0
 10
98.65734910288532
 20
5.548712423206131
 30
0.0
 10
95.91837986649031
 20
8.03449933938633
 30
0.0
 10
93.17930697918321
 20
10.28168684185725
 30
0.0
 10
90.44008701262649
 20
12.22358218077083
 30
0.0
 10
87.70067519461104
 20
13.80231694660148
 30
0.0
 10
84.96103232222522
 20
14.97165757891635
 30
0.0
 10
82.22114789821451
 20
15.6942852783413
 30
0.0
 10
79.48118214246603
 20
15.95817555012639
 30
0.0
 10
76.74145408770933
 20
15.72021182022983
 30
0.0
 10
74.56941451695629
 20
15.24365592775229
 30
0.0
 10
73.31063707420708
 20
14.70248484978763
 30
0.0
 10
72.96499546289648
 20
14.55388730026856
 30
0.0
1001
PE_URL
1000

  0
SPLINE
  5
BD
330
1F
100
AcDbEntity
  8
0
  6
Continuous
 62
     1
370
    15
100
AcDbSpline
210
0.0
220
0.0
230
1.0
 70
     8
 71
     3
 72
    13
 73
     9
 74
     0
 42
0.000000001
 43
0.00000001
 40
0.0
 40
0.0
 40
0.0
 40
0.0
 40
0.1339736057371574
 40
0.3071831204453374
 40
0.4803907121819757
 40
0.6535961858154593
 40
0.8267993465585985
 40
1.0
 40
1.0
 40
1.0
 40
1.0
 10
29.48698510267662
 20
-15.82444171937371
 30
0.0
 10
28.70604126774367
 20
-15.81139092615538
 30
0.0
 10
26.91544406176937
 20
-15.78146724556893
 30
0.0
 10
24.11522217128897
 20
-15.05457294148747
 30
0.0
 10
21.08633076892528
 20
-13.79140391131397
 30
0.0
 10
18.05749582264107
 20
-12.00443645036058
 30
0.0
 10
15.02871972723459
 20
-9.805377930756988
 30
0.0
 10
13.00956837081172
 20
-8.054733964289403
 30
0.0
 10
11.99999999999919
 20
-7.179418316714286
 30
0.0
1001
PE_URL
1000

  0
LINE
  5
BE
330
1F
100
AcDbEntity
  8
0
  6
Continuous
 62
     1
370
    15
100
AcDbLine
 10
164.3999999999991
 20
-15.75915299560637
 30
0.0
 11
164.3999999999991
 21
-9.487027778595229
 31
0.0
1001
PE_URL
1000

  0
SPLINE
  5
BF
330
1F
100
AcDbEntity
  8
0
  6
Continuous
 62
     1
370
    15
100
AcDbSpline
210
0.0
220
0.0
230
1.0
 70
     8
 71
     3
 72
    28
 73
    24
 74
     0
 42
0.000000001
 43
0.00000001
 40
0.0
 40
0.0
 40
0.0
 40
0.0
 40
0.0241194117201653
 40
0.0779463279550531
 40
0.1317739024310387
 40
0.1856020745072383
 40
0.2394307834455306
 40
0.2881181931260721
 40
0.3368081014401361
 40
0.3855010231773074
 40
0.4341971774228227
 40
0.4828916259199683
 40
0.5315828294900387
 40
0.5802713020609774
 40
0.628957559378134
 40
0.6776421186629236
 40
0.7263254982693221
 40
0.7750082173387107
 40
0.8236907954535692
 40
0.8723737522905265
 40
0.9210576072732667
 40
0.9697428792258107
 40
1.0
 40
1.0
 40
1.0
 40
1.0
 10
16.70029711060051
 20
15.80359624800291
 30
0.0
 10
17.15269285941774
 20
15.81965755095255
 30
0.0
 10
18.61469316903968
 20
15.87156261404546
 30
0.0
 10
21.08632895619502
 20
15.3451629145038
 30
0.0
 10
24.11523159277717
 20
14.26615795312572
 30
0.0
 10
27.14412636648842
 20
12.63644199504161
 30
0.0
 10
30.0768383029137
 20
10.62298934511954
 30
0.0
 10
32.91244062011003
 20
8.332451767330198
 30
0.0
 10
35.65199664911839
 20
5.872755697082111
 30
0.0
 10
38.39173918498159
 20
3.238403627118099
 30
0.0
 10
41.13171897308463
 20
0.5079413736833392
 30
0.0
 10
43.87158074453055
 20
-2.23766679066221
 30
0.0
 10
46.61120190398624
 20
-4.916756911557587
 30
0.0
 10
49.35059402500183
 20
-7.449732342847413
 30
0.0
 10
52.08979880636802
 20
-9.76137872684552
 30
0.0
 10
54.82886036249464
 20
-11.78309802192372
 30
0.0
 10
57.56782232596453
 20
-13.45475061441593
 30
0.0
 10
60.30672848557623
 20
-14.72715831676515
 30
0.0
 10
63.04562293509147
 20
-15.5608699248905
 30
0.0
 10
65.78454864320733
 20
-15.93737750018732
 30
0.0
 10
68.52355282757192
 20
-15.82216905031814
 30
0.0
 10
70.91703221629243
 20
-15.37086592262432
 30
0.0
 10
72.39754356400994
 20
-14.78025663154164
 30
0.0
 10
72.9649954628966
 20
-14.55388730026857
 30
0.0
1001
PE_URL
1000

  0
SPLINE
  5
C0
330
1F
100
AcDbEntity
  8
0
  6
Continuous
 62
     1
370
    15
100
AcDbSpline
210
0.0
220
0.0
230
1.0
 70
     8
 71
     3
 72
    25
 73
    21
 74
     0
 42
0.000000001
 43
0.00000001
 40
0.0
 40
0.0
 40
0.0
 40
0.0
 40
0.0288896200268524
 40
0.0860186240061677
 40
0.1431516169577618
 40
0.2002838662301155
 40
0.2574121982493905
 40
0.3145372155558288
 40
0.3716595228949542
 40
0.4287797268176073
 40
0.4858984352773436
 40
0.5430162572257902
 40
0.6001338022065376
 40
0.6572516799481654
 40
0.7143704999570016
 40
0.7714908711102012
 40
0.8286134012497529
 40
0.8857386967779916
 40
0.942867362255218
 40
1.0
 40
1.0
 40
1.0
 40
1.0
 10
116.4454690949696
 20
15.81595729076735
 30
0.0
 10
116.9072690482868
 20
15.82707164500839
 30
0.0
 10
118.282274898607
 20
15.86016455026793
 30
0.0
 10
120.5706283758977
 20
15.40317072355163
 30
0.0
 10
123.3105743220386
 20
14.48974701007781
 30
0.0
 10
126.050481852191
 20
13.12145655168661
 30
0.0
 10
128.7901464474867
 20
11.36995890472385
 30
0.0
 10
131.5295784209489
 20
9.279041282185407
 30
0.0
 10
134.2688139135155
 20
6.913044352142352
 30
0.0
 10
137.0078985020895
 20
4.34164796597395
 30
0.0
 10
139.7468753875926
 20
1.641374851945566
 30
0.0
 10
142.4857885197873
 20
-1.107629481257874
 30
0.0
 10
145.2246817129379
 20
-3.823742233769041
 30
0.0
 10
147.963598861591
 20
-6.426257640662436
 30
0.0
 10
150.7025837643814
 20
-8.838114601647497
 30
0.0
 10
153.4416804155205
 20
-10.98686909799879
 30
0.0
 10
156.1809318176348
 20
-12.81175915584564
 30
0.0
 10
158.9203842423035
 20
-14.24715375122887
 30
0.0
 10
161.6600711778324
 20
-15.29300450554693
 30
0.0
 10
163.4866692255252
 20
-15.60376656439639
 30
0.0
 10
164.3999999999991
 20
-15.75915299560637
 30
0.0
1001
PE_URL
1000

  0
SPLINE
  5
C1
330
1F
100
AcDbEntity
  8
0
  6
Continuous
 62
     1
370
    15
100
AcDbSpline
210
0.0
220
0.0
230
1.0
 70
     8
 71
     3
 72
    23
 73
    19
 74
     0
 42
0.000000001
 43
0.00000001
 40
0.0
 40
0.0
 40
0.0
 40
0.0
 40
0.0659196256825069
 40
0.1318346681635238
 40
0.197745822398094
 40
0.263653785927764
 40
0.3295592584194249
 40
0.3954629412010384
 40
0.4613655367949406
 40
0.5272677484494077
 40
0.59317027966915
 40
0.6590738337454349
 40
0.7249791132865256
 40
0.7908868197491098
 40
0.8567976529714229
 40
0.9227123107087256
 40
0.9886314881718241
 40
1.0
 40
1.0
 40
1.0
 40
1.0
 10
164.3999999999991
 20
-9.537449048937003
 30
0.0
 10
163.4866692255251
 20
-8.78005912026356
 30
0.0
 10
161.6600711778323
 20
-7.26533192205443
 30
0.0
 10
158.9203842423037
 20
-4.701486325264444
 30
0.0
 10
156.1809318176339
 20
-2.018413723151431
 30
0.0
 10
153.4416804155234
 20
0.7299936628604136
 30
0.0
 10
150.7025837643701
 20
3.4552075782248
 30
0.0
 10
147.963598861633
 20
6.078157300834539
 30
0.0
 10
145.2246817127813
 20
8.520470841532095
 30
0.0
 10
142.4857885203716
 20
10.70974604219418
 30
0.0
 10
139.7468753854114
 20
12.58100940340049
 30
0.0
 10
137.0078985102296
 20
14.07844599029751
 30
0.0
 10
134.2688138831344
 20
15.15852888466586
 30
0.0
 10
131.5295785343397
 20
15.78561058374323
 30
0.0
 10
128.7901460242742
 20
15.95430895483405
 30
0.0
 10
126.0504834317865
 20
15.61005337540893
 30
0.0
 10
124.0663894770366
 20
15.13054430972318
 30
0.0
 10
122.9955565774597
 20
14.64537308152962
 30
0.0
 10
122.8380440861888
 20
14.57400757821353
 30
0.0
1001
PE_URL
1000

  0
SPLINE
  5
C2
330
1F
100
AcDbEntity
  8
0
  6
Continuous
 62
     1
370
    15
100
AcDbSpline
210
0.0
220
0.0
230
1.0
 70
     8
 71
     3
 72
    28
 73
    24
 74
     0
 42
0.000000001
 43
0.00000001
 40
0.0
 40
0.0
 40
0.0
 40
0.0
 40
0.0465284072301492
 40
0.0952147946997768
 40
0.1438987308972075
 40
0.1925807323762907
 40
0.2412613169807549
 40
0.2899410034997709
 40
0.3386203113221294
 40
0.3872997600895488
 40
0.4359798693496064
 40
0.484661158208809
 40
0.5333441449863127
 40
0.5820293468687846
 40
0.6307172795669328
 40
0.6794084569741753
 40
0.7281013400152027
 40
0.7767909907650323
 40
0.8254776282941839
 40
0.8741617673576616
 40
0.9279868603078549
 40
0.9818114164320183
 40
1.0
 40
1.0
 40
1.0
 40
1.0
 10
79.35954717630301
 20
-15.86499688607419
 30
0.0
 10
78.48682842334884
 20
-15.82745401852646
 30
0.0
 10
76.70091435837452
 20
-15.75062705111456
 30
0.0
 10
74.00195915182631
 20
-15.04792710361161
 30
0.0
 10
71.26267251988637
 20
-13.92545654244012
 30
0.0
 10
68.52355126570004
 20
-12.37931357896769
 30
0.0
 10
65.78454906169598
 20
-10.4682422474304
 30
0.0
 10
63.04562282295967
 20
-8.245569255652569
 30
0.0
 10
60.30672851562178
 20
-5.778218502693989
 30
0.0
 10
57.56782231791399
 20
-3.139207729702056
 30
0.0
 10
54.82886036465116
 20
-0.4069621870778901
 30
0.0
 10
52.0897988057928
 20
2.337407220098513
 30
0.0
 10
49.35059402514635
 20
5.01240124917912
 30
0.0
 10
46.61120190398373
 20
7.538582942915038
 30
0.0
 10
43.87158074439635
 20
9.840905631307447
 30
0.0
 10
41.1317189736242
 20
11.85098935264832
 30
0.0
 10
38.39173918295782
 20
13.50885355928931
 30
0.0
 10
35.65199665667336
 20
14.76607689283045
 30
0.0
 10
32.91244059191662
 20
15.58240023491343
 30
0.0
 10
30.0768384128232
 20
15.9570344245897
 30
0.0
 10
27.14412590779488
 20
15.77535094007495
 30
0.0
 10
24.78367519179896
 20
15.28879217620302
 30
0.0
 10
23.43285036309952
 20
14.69544518596483
 30
0.0
 10
23.09166831788473
 20
14.54558168379156
 30
0.0
1001
PE_URL
1000

  0
SPLINE
  5
C3
330
1F
100
AcDbEntity
  8
0
  6
Continuous
 62
     1
370
    15
100
AcDbSpline
210
0.0
220
0.0
230
1.0
 70
     8
 71
     3
 72
    23
 73
    19
 74
     0
 42
0.000000001
 43
0.00000001
 40
0.0
 40
0.0
 40
0.0
 40
0.0
 40
0.0682997615440767
 40
0.1366005118148561
 40
0.2049021741483545
 40
0.2732046717323993
 40
0.3415079276189976
 40
0.4098118647367706
 40
0.4715919414809344
 40
0.5333751887731267
 40
0.5951622598364348
 40
0.6569534326709168
 40
0.7187424410594799
 40
0.7805273319185821
 40
0.8423087573779628
 40
0.9040873718734916
 40
0.9658638317140357
 40
1.0
 40
1.0
 40
1.0
 40
1.0
 10
11.99999999999916
 20
11.60347942188173
 30
0.0
 10
13.00956831351337
 20
10.87369021999653
 30
0.0
 10
15.02871955533883
 20
9.414101251590836
 30
0.0
 10
18.05749651023953
 20
6.770215636074905
 30
0.0
 10
21.08632819038047
 20
3.910835547350196
 30
0.0
 10
24.11523179802779
 20
0.9013855105530785
 30
0.0
 10
27.1441263113129
 20
-2.138584330281597
 30
0.0
 10
30.07683831611348
 20
-5.0073402628312
 30
0.0
 10
32.9124406167936
 20
-7.616053060014994
 30
0.0
 10
35.65199664974536
 20
-9.91005281269083
 30
0.0
 10
38.3917391857904
 20
-11.90973415165251
 30
0.0
 10
41.13171896922212
 20
-13.5555160633675
 30
0.0
 10
43.87158075917074
 20
-14.79906269129355
 30
0.0
 10
46.611201849293
 20
-15.60150323908877
 30
0.0
 10
49.35059422911986
 20
-15.94608130449412
 30
0.0
 10
52.08979804463323
 20
-15.79627649181561
 30
0.0
 10
54.42037864106332
 20
-15.33555452364424
 30
0.0
 10
55.83788870733262
 20
-14.75714388025763
 30
0.0
 10
56.34239330818031
 20
-14.55128232222593
 30
0.0
1001
PE_URL
1000

  0
SPLINE
  5
C4
330
1F
100
AcDbEntity
  8
0
  6
Continuous
 62
     1
370
    15
100
AcDbSpline
210
0.0
220
0.0
230
1.0
 70
     8
 71
     3
 72
    28
 73
    24
 74
     0
 42
0.000000001
 43
0.00000001
 40
0.0
 40
0.0
 40
0.0
 40
0.0
 40
0.0279810810245556
 40
0.0766616882392126
 40
0.1253426266122786
 40
0.1740244155840698
 40
0.2227075740269607
 40
0.2713926198994591
 40
0.3200800699016067
 40
0.3687704391322238
 40
0.4174642081163738
 40
0.4661573432715703
 40
0.5148471397986535
 40
0.5635341112354906
 40
0.6122187729994842
 40
0.6609016420466869
 40
0.7095832365286684
 40
0.7582640754476431
 40
0.8069446783103487
 40
0.8556255647811869
 40
0.9043072543351369
 40
0.9529902659109413
 40
1.0
 40
1.0
 40
1.0
 40
1.0
 10
99.8219762927206
 20
15.81728091221143
 30
0.0
 10
100.3467381932668
 20
15.82474288147458
 30
0.0
 10
101.7844643906282
 20
15.84518695083704
 30
0.0
 10
104.1351517673177
 20
15.35514392289401
 30
0.0
 10
106.8740737799481
 20
14.40896479455457
 30
0.0
 10
109.613066938642
 20
13.01318943164227
 30
0.0
 10
112.3521760510126
 20
11.23670875397155
 30
0.0
 10
115.0914437258542
 20
9.124898123949665
 30
0.0
 10
117.8309169409527
 20
6.742424537230828
 30
0.0
 10
120.5706260677312
 20
4.159481527281732
 30
0.0
 10
123.3105749405223
 20
1.453037583745827
 30
0.0
 10
126.0504816864761
 20
-1.296595912755369
 30
0.0
 10
128.7901464919074
 20
-4.007698521392198
 30
0.0
 10
131.5295784089665
 20
-6.599678125208515
 30
0.0
 10
134.2688139170274
 20
-8.99557515105448
 30
0.0
 10
137.0078985000238
 20
-11.12427078931813
 30
0.0
 10
139.7468753923431
 20
-12.92250953306432
 30
0.0
 10
142.4857885028508
 20
-14.33712786274194
 30
0.0
 10
145.2246817759325
 20
-15.32529920707392
 30
0.0
 10
147.9635986265456
 20
-15.86077188209512
 30
0.0
 10
150.7025846415936
 20
-15.91610379863571
 30
0.0
 10
153.4102610785218
 20
-15.53708251732188
 30
0.0
 10
155.2049803608035
 20
-14.90721783229375
 30
0.0
 10
156.0866488262486
 20
-14.59779237742217
 30
0.0
1001
PE_URL
1000

  0
SPLINE
  5
C5
330
1F
100
AcDbEntity
  8
외형선
  6
Continuous
370
    15
100
AcDbSpline
210
0.0
220
0.0
230
1.0
 70
    24
 71
     3
 72
    11
 73
     7
 74
     0
 42
0.000000001
 43
0.00000001
 40
0.0
 40
0.0
 40
0.0
 40
0.0
 40
0.4515415098522538
 40
0.6998035147289619
 40
0.94806551960567
 40
1.0
 40
1.0
 40
1.0
 40
1.0
 10
11.99999999999919
 20
15.85158842807859
 30
0.0
 10
11.9999999999992
 20
15.20725035224566
 30
0.0
 10
11.99999999999925
 20
14.20864880553711
 30
0.0
 10
11.99999999999914
 20
12.90441267779858
 30
0.0
 10
11.99999999999912
 20
12.17012536524329
 30
0.0
 10
11.99999999999914
 20
11.81599979327296
 30
0.0
 10
11.99999999999913
 20
11.75473549313294
 30
0.0
  0
SPLINE
  5
C6
330
1F
100
AcDbEntity
  8
0
  6
Continuous
 62
     1
370
    15
100
AcDbSpline
210
0.0
220
0.0
230
1.0
 70
     8
 71
     3
 72
    29
 73
    25
 74
     0
 42
0.000000001
 43
0.00000001
 40
0.0
 40
0.0
 40
0.0
 40
0.0
 40
0.0145734945742675
 40
0.0632623257749025
 40
0.111948284881888
 40
0.1606318871415372
 40
0.2093136493700709
 40
0.2579940896106772
 40
0.3066737267887811
 40
0.3553530803660309
 40
0.4040326699934927
 40
0.4527130151645704
 40
0.50139463486816
 40
0.5500780472425345
 40
0.5987637692304799
 40
0.6474523162361717
 40
0.6961442017842971
 40
0.7448367211451109
 40
0.793525840839639
 40
0.842212041380613
 40
0.890895837853635
 40
0.9395777469454869
 40
0.9882582866013829
 40
1.0
 40
1.0
 40
1.0
 40
1.0
 10
162.4800970898485
 20
-15.82547271912341
 30
0.0
 10
162.2067398778004
 20
-15.83969191366534
 30
0.0
 10
161.020118994705
 20
-15.90141625251794
 30
0.0
 10
158.9203875856517
 20
-15.53281313625507
 30
0.0
 10
156.1809309218568
 20
-14.72019996312545
 30
0.0
 10
153.4416806555283
 20
-13.4356508552588
 30
0.0
 10
150.7025837000755
 20
-11.76139492224563
 30
0.0
 10
147.9635988788172
 20
-9.73536271399719
 30
0.0
 10
145.2246817083375
 20
-7.420888038637907
 30
0.0
 10
142.4857885209631
 20
-4.885852186929217
 30
0.0
 10
139.7468753874894
 20
-2.205755534575673
 30
0.0
 10
137.0078985013261
 20
0.5398834120100261
 30
0.0
 10
134.2688139166721
 20
3.26952101710028
 30
0.0
 10
131.5295784090852
 20
5.902102811723263
 30
0.0
 10
128.7901464917884
 20
8.359445962898686
 30
0.0
 10
126.0504816868335
 20
10.56854646631204
 30
0.0
 10
123.3105749392115
 20
12.46377189025248
 30
0.0
 10
120.5706260726168
 20
13.98857775979414
 30
0.0
 10
117.8309169227228
 20
15.09854355251171
 30
0.0
 10
115.0914437938826
 20
15.7574939961492
 30
0.0
 10
112.352175797145
 20
15.95775112103724
 30
0.0
 10
109.6130678860383
 20
15.64919133674651
 30
0.0
 10
107.5668362486189
 20
15.16865927298084
 30
0.0
 10
106.4336376944188
 20
14.66343246844508
 30
0.0
 10
106.2134259019995
 20
14.56525293954195
 30
0.0
1001
PE_URL
1000

  0
SPLINE
  5
C7
330
1F
100
AcDbEntity
  8
0
  6
Continuous
 62
     1
370
    15
100
AcDbSpline
210
0.0
220
0.0
230
1.0
 70
     8
 71
     3
 72
    25
 73
    21
 74
     0
 42
0.000000001
 43
0.00000001
 40
0.0
 40
0.0
 40
0.0
 40
0.0
 40
0.0478812528075753
 40
0.1018702419544983
 40
0.1558599636349808
 40
0.2098509935752537
 40
0.2638439066283194
 40
0.3178392763911698
 40
0.3718376748238518
 40
0.4258396718709082
 40
0.4798435605877809
 40
0.5338438644626142
 40
0.5878408264602776
 40
0.6418350174808743
 40
0.7015308939277137
 40
0.761226174996104
 40
0.8209207933276529
 40
0.8806146816718028
 40
0.9403077728966984
 40
1.0
 40
1.0
 40
1.0
 40
1.0
 10
62.73577616747559
 20
-15.85133175299924
 30
0.0
 10
61.92609432968788
 20
-15.82509831203307
 30
0.0
 10
60.20344757578867
 20
-15.76928509032681
 30
0.0
 10
57.56782244189415
 20
-15.10865411943238
 30
0.0
 10
54.82886033143035
 20
-14.0175067927156
 30
0.0
 10
52.08979881469244
 20
-12.4982211202175
 30
0.0
 10
49.35059402277004
 20
-10.61087180647032
 30
0.0
 10
46.61120190458868
 20
-8.407470847674812
 30
0.0
 10
43.87158074435294
 20
-5.954503751897585
 30
0.0
 10
41.13171897319285
 20
-3.324557547015981
 30
0.0
 10
38.3917391847266
 20
-0.5959187700843921
 30
0.0
 10
35.65199665003041
 20
2.150466598030793
 30
0.0
 10
32.91244061671752
 20
4.832923444324626
 30
0.0
 10
30.07683831613631
 20
7.461016687253943
 30
0.0
 10
27.14412631130649
 20
9.932346478524366
 30
0.0
 10
24.11523179802947
 20
12.12346461980812
 30
0.0
 10
21.08632819038003
 20
13.87757659050434
 30
0.0
 10
18.05749651023966
 20
15.11692747502167
 30
0.0
 10
15.02871955533883
 20
15.8489373112301
 30
0.0
 10
13.0095683135134
 20
15.85070472672656
 30
0.0
 10
11.99999999999919
 20
15.85158842807843
 30
0.0
1001
PE_URL
1000

  0
LINE
  5
C8
330
1F
100
AcDbEntity
  8
0
  6
Continuous
 62
     1
370
    15
100
AcDbLine
 10
164.3999999999991
 20
-6.22170394666913
 30
0.0
 11
164.3999999999991
 21
6.221703946669424
 31
0.0
1001
PE_URL
1000

  0
SPLINE
  5
C9
330
1F
100
AcDbEntity
  8
0
  6
Continuous
 62
     1
370
    15
100
AcDbSpline
210
0.0
220
0.0
230
1.0
 70
     8
 71
     3
 72
    28
 73
    24
 74
     0
 42
0.000000001
 43
0.00000001
 40
0.0
 40
0.0
 40
0.0
 40
0.0
 40
0.041380715564207
 40
0.0900708312174262
 40
0.1387641791927058
 40
0.1874558215179148
 40
0.2361442191030479
 40
0.2848298858464318
 40
0.3335133374636945
 40
0.3821950911464447
 40
0.4308756652187866
 40
0.4795555787921841
 40
0.5282353514191744
 40
0.5769155027464384
 40
0.625596552167727
 40
0.674279018477162
 40
0.7229634195234184
 40
0.7716502718652765
 40
0.8203400904290704
 40
0.8690332576422918
 40
0.9177252224863826
 40
0.9664138956661386
 40
1.0
 40
1.0
 40
1.0
 40
1.0
 10
33.3235509008646
 20
15.84490007594014
 30
0.0
 10
34.09967779815625
 20
15.82415063373768
 30
0.0
 10
35.78902496908158
 20
15.77898661274402
 30
0.0
 10
38.39174273932367
 20
15.14013117896912
 30
0.0
 10
41.1317180207067
 20
14.06566487218798
 30
0.0
 10
43.8715809997084
 20
12.56057275964957
 30
0.0
 10
46.61120183557598
 20
10.68583154326387
 30
0.0
 10
49.35059404348647
 20
8.492831443441732
 30
0.0
 10
52.08979880083508
 20
6.047881884611273
 30
0.0
 10
54.82886036614285
 20
3.42328814268359
 30
0.0
 10
57.5678223169047
 20
0.6970756162653645
 30
0.0
 10
60.30672851816702
 20
-2.049825276516827
 30
0.0
 10
63.04562281378776
 20
-4.735843848771733
 30
0.0
 10
65.78454909583881
 20
-7.281227008933724
 30
0.0
 10
68.52355113829668
 20
-9.610382142924761
 30
0.0
 10
71.26267299537886
 20
-11.65416707629287
 30
0.0
 10
74.00195737715141
 20
-13.35176949522775
 30
0.0
 10
76.74145155236943
 20
-14.6531485833532
 30
0.0
 10
79.48118271575711
 20
-15.51814208745618
 30
0.0
 10
82.22114814067902
 20
-15.92652301807454
 30
0.0
 10
84.96103077917
 20
-15.84557096146452
 30
0.0
 10
87.41746671175628
 20
-15.40533335693504
 30
0.0
 10
88.96057481374123
 20
-14.80399637099072
 30
0.0
 10
89.59050042737307
 20
-14.55851935652668
 30
0.0
1001
PE_URL
1000

  0
SPLINE
  5
CA
330
1F
100
AcDbEntity
  8
0
  6
Continuous
 62
     1
370
    15
100
AcDbSpline
210
0.0
220
0.0
230
1.0
 70
     8
 71
     3
 72
    19
 73
    15
 74
     0
 42
0.000000001
 43
0.00000001
 40
0.0
 40
0.0
 40
0.0
 40
0.0
 40
0.0382192754526373
 40
0.1256513494901626
 40
0.2130811344703058
 40
0.3005095624958972
 40
0.3879375665758664
 40
0.4753660800023006
 40
0.5627960357270928
 40
0.6502283657390812
 40
0.7376640004426079
 40
0.8251038680383834
 40
0.9125488939075748
 40
1.0
 40
1.0
 40
1.0
 40
1.0
 10
133.071481398482
 20
15.81688864001742
 30
0.0
 10
133.4706016950006
 20
15.83031183718851
 30
0.0
 10
134.7827669119637
 20
15.87444252305433
 30
0.0
 10
137.0078963961974
 20
15.44872241469327
 30
0.0
 10
139.7468759518488
 20
14.5685195218242
 30
0.0
 10
142.485788368597
 20
13.22815370693732
 30
0.0
 10
145.2246817534492
 20
11.50230059168462
 30
0.0
 10
147.9635988507358
 20
9.43288442409555
 30
0.0
 10
150.7025837672902
 20
7.083765007232677
 30
0.0
 10
153.4416804147411
 20
4.524341435368572
 30
0.0
 10
156.1809318178436
 20
1.829577928778498
 30
0.0
 10
158.9203842422477
 20
-0.9160471058354002
 30
0.0
 10
161.6600711778463
 20
-3.647816175445703
 30
0.0
 10
163.4866692255298
 20
-5.363721471912188
 30
0.0
 10
164.3999999999991
 20
-6.221703946669131
 30
0.0
1001
PE_URL
1000

  0
SPLINE
  5
CB
330
1F
100
AcDbEntity
  8
0
  6
Continuous
 62
     1
370
    15
100
AcDbSpline
210
0.0
220
0.0
230
1.0
 70
     8
 71
     3
 72
    17
 73
    13
 74
     0
 42
0.000000001
 43
0.00000001
 40
0.0
 40
0.0
 40
0.0
 40
0.0
 40
0.1098659412144928
 40
0.2197242437668989
 40
0.3295760659145525
 40
0.4394225702256233
 40
0.5492649228105176
 40
0.6591042925480912
 40
0.7689418503078215
 40
0.8787787681690847
 40
0.988616218638648
 40
1.0
 40
1.0
 40
1.0
 40
1.0
 10
164.3999999999991
 20
6.221703946669424
 30
0.0
 10
163.4866692255775
 20
7.04394270132449
 30
0.0
 10
161.6600711779895
 20
8.688363042744996
 30
0.0
 10
158.9203842416749
 20
10.84740926760221
 30
0.0
 10
156.1809318199913
 20
12.69751239854581
 30
0.0
 10
153.4416804067231
 20
14.16665861187555
 30
0.0
 10
150.7025837972125
 20
15.21681969072652
 30
0.0
 10
147.9635987390684
 20
15.81163727341618
 30
0.0
 10
145.2246821701898
 20
15.94867252014352
 30
0.0
 10
142.4857868133066
 20
15.56822647725562
 30
0.0
 10
140.5652394324037
 20
15.09190376987445
 30
0.0
 10
139.5576406576001
 20
14.62836871711356
 30
0.0
 10
139.4630179254344
 20
14.58483853997997
 30
0.0
1001
PE_URL
1000

  0
SPLINE
  5
CC
330
1F
100
AcDbEntity
  8
0
  6
Continuous
 62
     1
370
    15
100
AcDbSpline
210
0.0
220
0.0
230
1.0
 70
     8
 71
     3
 72
    29
 73
    25
 74
     0
 42
0.000000001
 43
0.00000001
 40
0.0
 40
0.0
 40
0.0
 40
0.0
 40
0.0011725909117361
 40
0.0498546434126859
 40
0.0985384412345482
 40
0.1472245014498661
 40
0.1959133396238667
 40
0.244605469473357
 40
0.2932988016960525
 40
0.3419887852579723
 40
0.390675802587905
 40
0.4393603686139284
 40
0.4880429998965747
 40
0.5367242142862717
 40
0.585404530578902
 40
0.6340844681699754
 40
0.6827645467079332
 40
0.731445285747074
 40
0.7801272044006204
 40
0.828810820994434
 40
0.877496652721873
 40
0.926185215300317
 40
0.9748770226298323
 40
1.0
 40
1.0
 40
1.0
 40
1.0
 10
95.98437137854552
 20
-15.86945760137811
 30
0.0
 10
95.96237995810472
 20
-15.8712996258468
 30
0.0
 10
95.02737831922322
 20
-15.94961634493847
 30
0.0
 10
93.17930478283772
 20
-15.67058649854156
 30
0.0
 10
90.44008760446293
 20
-15.00007054423651
 30
0.0
 10
87.7006750237396
 20
-13.82814658689355
 30
0.0
 10
84.96103241383535
 20
-12.26041309002667
 30
0.0
 10
82.22114770264608
 20
-10.3244584117225
 30
0.0
 10
79.48118283312012
 20
-8.082925822788534
 30
0.0
 10
76.74145152092527
 20
-5.600971984278001
 30
0.0
 10
74.00195738557572
 20
-2.952810611665297
 30
0.0
 10
71.26267299312318
 20
-0.2169905818595891
 30
0.0
 10
68.52355113889539
 20
2.525213362274379
 30
0.0
 10
65.78454909569956
 20
5.192380768175309
 30
0.0
 10
63.04562281374591
 20
7.705317726158113
 30
0.0
 10
60.30672851847375
 20
9.989400573677317
 30
0.0
 10
57.56782231571981
 20
11.97684720442607
 30
0.0
 10
54.82886037057592
 20
13.60849542540031
 30
0.0
 10
52.08979878428708
 20
14.83642405017416
 30
0.0
 10
49.35059410524879
 20
15.62213942742907
 30
0.0
 10
46.61120160505905
 20
15.94979281851432
 30
0.0
 10
43.87158186008595
 20
15.78158575313814
 30
0.0
 10
41.57382076719799
 20
15.31657751434871
 30
0.0
 10
40.18927416218732
 20
14.74519300306352
 30
0.0
 10
39.71804156065437
 20
14.55072139137915
 30
0.0
1001
PE_URL
1000

  0
SPLINE
  5
CD
330
1F
100
AcDbEntity
  8
0
  6
Continuous
 62
     1
370
    15
100
AcDbSpline
210
0.0
220
0.0
230
1.0
 70
     8
 71
     3
 72
    17
 73
    13
 74
     0
 42
0.000000001
 43
0.00000001
 40
0.0
 40
0.0
 40
0.0
 40
0.0
 40
0.109266884729878
 40
0.2185353512381429
 40
0.3278052768767141
 40
0.4370765387604364
 40
0.546349013786867
 40
0.655622578656169
 40
0.7544591832298346
 40
0.8533008600892318
 40
0.9521486542695141
 40
1.0
 40
1.0
 40
1.0
 40
1.0
 10
11.99999999999916
 20
-3.580752907200346
 30
0.0
 10
13.00956831347146
 20
-4.551773832813155
 30
0.0
 10
15.02871955521303
 20
-6.493829740812853
 30
0.0
 10
18.05749651074264
 20
-9.136394898038064
 30
0.0
 10
21.08632818849381
 20
-11.45675641646224
 30
0.0
 10
24.11523180507152
 20
-13.35868005657309
 30
0.0
 10
27.1441262850242
 20
-14.7769664650722
 30
0.0
 10
30.07683841026484
 20
-15.62877639327218
 30
0.0
 10
32.91244030255241
 20
-15.95249693834293
 30
0.0
 10
35.65199782654122
 20
-15.76820355226751
 30
0.0
 10
37.92052338816174
 20
-15.29985443846943
 30
0.0
 10
39.27592668622842
 20
-14.73497703235736
 30
0.0
 10
39.71804156065427
 20
-14.55072139137916
 30
0.0
1001
PE_URL
1000

  0
SPLINE
  5
CE
330
1F
100
AcDbEntity
  8
0
  6
Continuous
 62
     1
370
    15
100
AcDbSpline
210
0.0
220
0.0
230
1.0
 70
     8
 71
     3
 72
    28
 73
    24
 74
     0
 42
0.000000001
 43
0.00000001
 40
0.0
 40
0.0
 40
0.0
 40
0.0
 40
0.0313414002811132
 40
0.0800307191462646
 40
0.1287172600253073
 40
0.1774015384885583
 40
0.2260840716136653
 40
0.2747653776422952
 40
0.3234459756351242
 40
0.3721263851256328
 40
0.4208071257732055
 40
0.4694887170160483
 40
0.5181716777244286
 40
0.5668565258547503
 40
0.6155437781049564
 40
0.6642339495717753
 40
0.7129275207783182
 40
0.7616204581584821
 40
0.8103100569240931
 40
0.8589968306109325
 40
0.9076812946343096
 40
0.9563639659481771
 40
1.0
 40
1.0
 40
1.0
 40
1.0
 10
83.19750697284232
 20
15.82082653562229
 30
0.0
 10
83.78536694207223
 20
15.82329787095019
 30
0.0
 10
85.28647588017938
 20
15.82960846147165
 30
0.0
 10
87.70067320122355
 20
15.30471290063796
 30
0.0
 10
90.44008754671307
 20
14.32589156816556
 30
0.0
 10
93.17930683608411
 20
12.90246761742591
 30
0.0
 10
95.91837990482992
 20
11.10099229682427
 30
0.0
 10
98.65734909261991
 20
8.96847654337291
 30
0.0
 10
101.396258588294
 20
6.569992904054261
 30
0.0
 10
104.1351521454857
 20
3.976296786430221
 30
0.0
 10
106.8740736786155
 20
1.264527912070316
 30
0.0
 10
109.6130669657973
 20
-1.484827253703299
 30
0.0
 10
112.3521760437269
 20
-4.190120120676827
 30
0.0
 10
115.0914437278401
 20
-6.771017811095677
 30
0.0
 10
117.8309169402953
 20
-9.150860029195012
 30
0.0
 10
120.5706260683744
 20
-11.25897775910151
 30
0.0
 10
123.310574938607
 20
-13.03258080204542
 30
0.0
 10
126.0504816934943
 20
-14.4192780380412
 30
0.0
 10
128.7901464657531
 20
-15.37688350310628
 30
0.0
 10
131.5295785065583
 20
-15.88058948608231
 30
0.0
 10
134.2688135528369
 20
-15.90191349392171
 30
0.0
 10
136.9132759441259
 20
-15.50507135113443
 30
0.0
 10
138.6446527224526
 20
-14.88019646906124
 30
0.0
 10
139.4630179254343
 20
-14.58483853997997
 30
0.0
1001
PE_URL
1000

  0
SPLINE
  5
CF
330
1F
100
AcDbEntity
  8
외형선
  6
Continuous
370
    15
100
AcDbSpline
210
0.0
220
0.0
230
1.0
 70
    24
 71
     3
 72
    34
 73
    30
 74
     0
 42
0.000000001
 43
0.00000001
 40
0.0
 40
0.0
 40
0.0
 40
0.0
 40
0.1249999999999992
 40
0.1249999999999992
 40
0.1562499999999992
 40
0.1562499999999992
 40
0.1874999999999993
 40
0.1874999999999993
 40
0.2499999999999994
 40
0.2499999999999994
 40
0.3749999999999996
 40
0.3749999999999996
 40
0.4999999999999997
 40
0.4999999999999997
 40
0.5624999999999997
 40
0.5624999999999997
 40
0.6249999999999997
 40
0.6249999999999997
 40
0.6874999999999998
 40
0.6874999999999998
 40
0.7499999999999998
 40
0.7499999999999998
 40
0.8124999999999998
 40
0.8124999999999998
 40
0.8749999999999999
 40
0.8749999999999999
 40
0.9375
 40
0.9375
 40
1.0
 40
1.0
 40
1.0
 40
1.0
 10
11.99999999999917
 20
8.67217011136428
 30
0.0
 10
11.99999999999919
 20
8.450588426531906
 30
0.0
 10
11.99999999999916
 20
8.174083540873239
 30
0.0
 10
11.99999999999916
 20
7.813368966167531
 30
0.0
 10
11.99999999999916
 20
7.740349455181159
 30
0.0
 10
11.99999999999914
 20
7.593432498123455
 30
0.0
 10
11.99999999999916
 20
7.518037203985936
 30
0.0
 10
11.99999999999917
 20
7.274825633304732
 30
0.0
 10
11.99999999999917
 20
7.093964422527295
 30
0.0
 10
11.99999999999917
 20
6.486223015340521
 30
0.0
 10
11.99999999999912
 20
5.992621139351182
 30
0.0
 10
11.99999999999914
 20
4.800857978254438
 30
0.0
 10
11.99999999999916
 20
4.100233568878099
 30
0.0
 10
11.99999999999919
 20
2.933297923874208
 30
0.0
 10
11.99999999999919
 20
2.525922550323175
 30
0.0
 10
11.9999999999992
 20
1.693796498411228
 30
0.0
 10
11.99999999999917
 20
1.26913511930761
 30
0.0
 10
11.99999999999916
 20
0.4296705591837526
 30
0.0
 10
11.99999999999914
 20
0.0150619387306642
 30
0.0
 10
11.99999999999916
 20
-0.7735291092557143
 30
0.0
 10
11.99999999999914
 20
-1.147276130205803
 30
0.0
 10
11.99999999999914
 20
-1.826607127346471
 30
0.0
 10
11.99999999999914
 20
-2.132021750253364
 30
0.0
 10
11.99999999999914
 20
-2.656871122569457
 30
0.0
 10
11.99999999999914
 20
-2.876276322155133
 30
0.0
 10
11.99999999999914
 20
-3.224207373614401
 30
0.0
 10
11.99999999999917
 20
-3.352832789399719
 30
0.0
 10
11.99999999999916
 20
-3.526050263686253
 30
0.0
 10
11.9999999999992
 20
-3.570798991878595
 30
0.0
 10
11.99999999999916
 20
-3.580752907200338
 30
0.0
  0
SPLINE
  5
D0
330
1F
100
AcDbEntity
  8
0
  6
Continuous
 62
     1
370
    15
100
AcDbSpline
210
0.0
220
0.0
230
1.0
 70
     8
 71
     3
 72
    29
 73
    25
 74
     0
 42
0.000000001
 43
0.00000001
 40
0.0
 40
0.0
 40
0.0
 40
0.0
 40
0.0112184210095366
 40
0.059898453894429
 40
0.1085787228328274
 40
0.1572597473253851
 40
0.2059420463682405
 40
0.254626138106897
 40
0.3033125394913546
 40
0.3520017659329808
 40
0.4006943309636292
 40
0.4493875298158106
 40
0.4980773289542649
 40
0.5467642088984291
 40
0.595448684741093
 40
0.6441312731762491
 40
0.6928124921563391
 40
0.7414928605476635
 40
0.7901728977844567
 40
0.8388531235221284
 40
0.8875340572901863
 40
0.9362162181453386
 40
0.9849001243252883
 40
1.0
 40
1.0
 40
1.0
 40
1.0
 10
145.8558618668048
 20
-15.83313941474701
 30
0.0
 10
145.6454670832658
 20
-15.84591051443557
 30
0.0
 10
144.52210736707
 20
-15.91409917710269
 30
0.0
 10
142.4857892303763
 20
-15.57121149199579
 30
0.0
 10
139.7468751973997
 20
-14.79326818236447
 30
0.0
 10
137.0078985522605
 20
-13.53693672899285
 30
0.0
 10
134.2688139030297
 20
-11.88900779960782
 30
0.0
 10
131.5295784127182
 20
-9.88513407276736
 30
0.0
 10
128.7901464908997
 20
-7.588357359534982
 30
0.0
 10
126.0504816867551
 20
-5.06590525714187
 30
0.0
 10
123.3105749404142
 20
-2.393013734137272
 30
0.0
 10
120.5706260678849
 20
0.3509549960039241
 30
0.0
 10
117.8309169404461
 20
3.084520248966646
 30
0.0
 10
115.0914437277265
 20
5.726374332799209
 30
0.0
 10
112.3521760440306
 20
8.198086265673972
 30
0.0
 10
109.6130669646963
 20
10.42625253369811
 30
0.0
 10
106.8740736827152
 20
12.34477756549807
 30
0.0
 10
104.1351521301877
 20
13.89650083304052
 30
0.0
 10
101.3962586453858
 20
15.03611286293159
 30
0.0
 10
98.65734887954811
 20
15.72694237595275
 30
0.0
 10
95.91838070004592
 20
15.95904515607175
 30
0.0
 10
93.17930386817102
 20
15.68604718037879
 30
0.0
 10
91.07000852740731
 20
15.20653607965891
 30
0.0
 10
89.87370722926256
 20
14.68256243795691
 30
0.0
 10
89.59050042737294
 20
14.55851935652667
 30
0.0
1001
PE_URL
1000

  0
SPLINE
  5
D1
330
1F
100
AcDbEntity
  8
0
  6
Continuous
 62
     1
370
    15
100
AcDbSpline
210
0.0
220
0.0
230
1.0
 70
     8
 71
     3
 72
    19
 73
    15
 74
     0
 42
0.000000001
 43
0.00000001
 40
0.0
 40
0.0
 40
0.0
 40
0.0
 40
0.0656942896679912
 40
0.1460148886409539
 40
0.2263383012145425
 40
0.3066563818249525
 40
0.3869694918492608
 40
0.4672784804234396
 40
0.5560679477508792
 40
0.6448565295341488
 40
0.7336441255868351
 40
0.8224306358829134
 40
0.9112159605729131
 40
1.0
 40
1.0
 40
1.0
 40
1.0
 10
46.11250843239493
 20
-15.83985362071892
 30
0.0
 10
45.36555226795744
 20
-15.82352558444473
 30
0.0
 10
43.70533611033974
 20
-15.78723420492985
 30
0.0
 10
41.13171750687869
 20
-15.16697574971889
 30
0.0
 10
38.39173957759516
 20
-14.10716242721954
 30
0.0
 10
35.65199654479687
 20
-12.61462066392546
 30
0.0
 10
32.91244064481815
 20
-10.75104530657054
 30
0.0
 10
30.07683830771691
 20
-8.490492300440012
 30
0.0
 10
27.14412631365736
 20
-5.865873136472826
 30
0.0
 10
24.11523179739957
 20
-2.942527671685997
 30
0.0
 10
21.08632819054878
 20
0.0892313791224261
 30
0.0
 10
18.05749651019466
 20
3.111675387326226
 30
0.0
 10
15.02871955535009
 20
6.043763285228595
 30
0.0
 10
13.00956831351715
 20
7.79603873036103
 30
0.0
 10
11.99999999999919
 20
8.672170111364183
 30
0.0
1001
PE_URL
1000

  0
LINE
  5
D2
330
1F
100
AcDbEntity
  8
0
  6
Continuous
 62
     1
370
    15
100
AcDbLine
 10
164.3999999999991
 20
15.75915299560637
 30
0.0
 11
164.3999999999991
 21
15.87500000000001
 31
0.0
1001
PE_URL
1000

  0
LINE
  5
D3
330
1F
100
AcDbEntity
  8
외형선
  6
Continuous
370
    15
100
AcDbLine
 10
11.99999999999919
 20
-15.85158842807859
 30
0.0
 11
11.99999999999917
 21
-15.18423232908214
 31
0.0
  0
LINE
  5
D4
330
1F
100
AcDbEntity
  8
0
  6
Continuous
 62
     1
370
    15
100
AcDbLine
 10
164.3999999999991
 20
6.221703946669424
 30
0.0
 11
164.3999999999991
 21
9.53744904893708
 31
0.0
1001
PE_URL
1000

  0
LINE
  5
D5
330
1F
100
AcDbEntity
  8
0
  6
Continuous
 62
     1
370
    15
100
AcDbLine
 10
164.3999999999991
 20
-9.537449048937003
 30
0.0
 11
164.3999999999991
 21
-6.22170394666913
 31
0.0
1001
PE_URL
1000

  0
LINE
  5
D6
330
1F
100
AcDbEntity
  8
0
  6
Continuous
 62
     1
370
    15
100
AcDbLine
 10
164.3999999999991
 20
-15.87500000000002
 30
0.0
 11
164.3999999999991
 21
-15.75915299560637
 31
0.0
1001
PE_URL
1000

  0
LINE
  5
D7
330
1F
100
AcDbEntity
  8
외형선
  6
Continuous
370
    15
100
AcDbLine
 10
11.99999999999919
 20
8.672170111364279
 30
0.0
 11
11.99999999999916
 21
11.60347942188173
 31
0.0
  0
LINE
  5
D8
330
1F
100
AcDbEntity
  8
외형선
  6
Continuous
370
    15
100
AcDbLine
 10
11.99999999999919
 20
-7.179418316714343
 30
0.0
 11
11.99999999999916
 21
-3.580752907200348
 31
0.0
  0
SPLINE
  5
D9
330
1F
100
AcDbEntity
  8
외형선
  6
Continuous
370
    15
100
AcDbSpline
210
0.0
220
0.0
230
1.0
 70
     8
 71
     3
 72
     8
 73
     4
 74
     0
 42
0.000000001
 43
0.00000001
 40
0.0
 40
0.0
 40
0.0
 40
0.0
 40
1.0
 40
1.0
 40
1.0
 40
1.0
 10
11.99999999999914
 20
15.85158842807842
 30
0.0
 10
11.66722792193716
 20
15.83348618640736
 30
0.0
 10
11.33442100299432
 20
15.80489867009073
 30
0.0
 10
11.00031263529231
 20
15.76580458023472
 30
0.0
  0
LINE
  5
DA
330
1F
100
AcDbEntity
  8
외형선
  6
Continuous
370
    15
100
AcDbLine
 10
11.00031263529231
 20
12.2629177811154
 30
0.0
 11
11.00031263529231
 21
15.875
 31
0.0
  0
SPLINE
  5
DB
330
1F
100
AcDbEntity
  8
외형선
  6
Continuous
370
    15
100
AcDbSpline
210
0.0
220
0.0
230
1.0
 70
     8
 71
     3
 72
     8
 73
     4
 74
     0
 42
0.000000001
 43
0.00000001
 40
0.0
 40
0.0
 40
0.0
 40
0.0
 40
1.0
 40
1.0
 40
1.0
 40
1.0
 10
11.99999999999913
 20
11.60347942188172
 30
0.0
 10
11.66722792193715
 20
11.83103788064122
 30
0.0
 10
11.33442100299432
 20
12.05092983331104
 30
0.0
 10
11.0003126352923
 20
12.26296478961034
 30
0.0
  0
SPLINE
  5
DC
330
1F
100
AcDbEntity
  8
외형선
  6
Continuous
370
    15
100
AcDbSpline
210
0.0
220
0.0
230
1.0
 70
     8
 71
     3
 72
     8
 73
     4
 74
     0
 42
0.000000001
 43
0.00000001
 40
0.0
 40
0.0
 40
0.0
 40
0.0
 40
1.0
 40
1.0
 40
1.0
 40
1.0
 10
11.99999999999914
 20
8.672170111364217
 30
0.0
 10
11.66722792193716
 20
8.951461586019427
 30
0.0
 10
11.33442100299432
 20
9.225027280375853
 30
0.0
 10
11.00031263529231
 20
9.492645500504537
 30
0.0
  0
SPLINE
  5
DD
330
1F
100
AcDbEntity
  8
외형선
  6
Continuous
370
    15
100
AcDbSpline
210
0.0
220
0.0
230
1.0
 70
     8
 71
     3
 72
     8
 73
     4
 74
     0
 42
0.000000001
 43
0.00000001
 40
0.0
 40
0.0
 40
0.0
 40
0.0
 40
1.0
 40
1.0
 40
1.0
 40
1.0
 10
11.99999999999913
 20
-3.580752907200346
 30
0.0
 10
11.66722792193715
 20
-3.255904775268074
 30
0.0
 10
11.33442100299432
 20
-2.928676388618285
 30
0.0
 10
11.0003126352923
 20
-2.599295902493502
 30
0.0
  0
SPLINE
  5
DE
330
1F
100
AcDbEntity
  8
외형선
  6
Continuous
370
    15
100
AcDbSpline
210
0.0
220
0.0
230
1.0
 70
     8
 71
     3
 72
     8
 73
     4
 74
     0
 42
0.000000001
 43
0.00000001
 40
0.0
 40
0.0
 40
0.0
 40
0.0
 40
1.0
 40
1.0
 40
1.0
 40
1.0
 10
11.99999999999914
 20
-7.179418316714238
 30
0.0
 10
11.66722792193716
 20
-6.882024600387968
 30
0.0
 10
11.33442100299432
 20
-6.579871389714905
 30
0.0
 10
11.00031263529231
 20
-6.273159079730206
 30
0.0
  0
LINE
  5
DF
330
1F
100
AcDbEntity
  8
외형선
  6
Continuous
370
    15
100
AcDbLine
 10
11.00031263529231
 20
-14.86228670756353
 30
0.0
 11
11.00031263529231
 21
-6.273081918668391
 31
0.0
  0
SPLINE
  5
E0
330
1F
100
AcDbEntity
  8
외형선
  6
Continuous
370
    15
100
AcDbSpline
210
0.0
220
0.0
230
1.0
 70
     8
 71
     3
 72
     8
 73
     4
 74
     0
 42
0.000000001
 43
0.00000001
 40
0.0
 40
0.0
 40
0.0
 40
0.0
 40
1.0
 40
1.0
 40
1.0
 40
1.0
 10
11.99999999999913
 20
-15.18423232908213
 30
0.0
 10
11.66722792193715
 20
-15.08694265590935
 30
0.0
 10
11.33442100299432
 20
-14.97960622192939
 30
0.0
 10
11.0003126352923
 20
-14.8622606921039
 30
0.0
  0
SPLINE
  5
E1
330
1F
100
AcDbEntity
  8
외형선
  6
Continuous
370
    15
100
AcDbSpline
210
0.0
220
0.0
230
1.0
 70
     8
 71
     3
 72
     8
 73
     4
 74
     0
 42
0.000000001
 43
0.00000001
 40
0.0
 40
0.0
 40
0.0
 40
0.0
 40
1.0
 40
1.0
 40
1.0
 40
1.0
 10
11.99999999999914
 20
-15.85158842807843
 30
0.0
 10
11.66722792193716
 20
-15.83348618640737
 30
0.0
 10
11.33442100299432
 20
-15.80489867009074
 30
0.0
 10
11.00031263529231
 20
-15.76580458023472
 30
0.0
  0
LINE
  5
E2
330
1F
100
AcDbEntity
  8
외형선
  6
Continuous
370
    15
100
AcDbLine
 10
11.00031263529231
 20
-15.87500000000001
 30
0.0
 11
11.00031263529231
 21
-15.76579474494073
 31
0.0
  0
LINE
  5
E3
330
1F
100
AcDbEntity
  8
외형선
  6
Continuous
370
    15
100
AcDbLine
 10
-48.32500000000086
 20
-0.000000000000002
 30
0.0
 11
-48.32500000000086
 21
13.97
 31
0.0
  0
LINE
  5
E4
330
1F
100
AcDbEntity
  8
외형선
  6
Continuous
370
    15
100
AcDbLine
 10
-48.32500000000086
 20
-15.87499999999997
 30
0.0
 11
-48.32500000000086
 21
-0.000000000000002
 31
0.0
  0
LINE
  5
E5
330
1F
100
AcDbEntity
  8
외형선
  6
Continuous
370
    15
100
AcDbLine
 10
11.00031263529231
 20
-2.599368926448061
 30
0.0
 11
11.00031263529231
 21
9.492712826272362
 31
0.0
  0
LINE
  5
E6
330
1F
100
AcDbEntity
  8
외형선
  6
Continuous
370
    15
100
AcDbLine
 10
-51.50000000000085
 20
-0.000000000000002
 30
0.0
 11
-51.50000000000085
 21
13.97
 31
0.0
  0
LINE
  5
E7
330
1F
100
AcDbEntity
  8
외형선
  6
Continuous
370
    15
100
AcDbLine
 10
-51.50000000000085
 20
-12.70000000000002
 30
0.0
 11
-51.50000000000085
 21
-0.000000000000002
 31
0.0
  0
SPLINE
  5
E8
330
1F
100
AcDbEntity
  8
외형선
  6
Continuous
370
    15
100
AcDbSpline
210
0.0
220
0.0
230
1.0
 70
    24
 71
     3
 72
    34
 73
    30
 74
     0
 42
0.000000001
 43
0.00000001
 40
0.0
 40
0.0
 40
0.0
 40
0.0
 40
0.0625000000000001
 40
0.0625000000000001
 40
0.1250000000000003
 40
0.1250000000000003
 40
0.1875000000000004
 40
0.1875000000000004
 40
0.2500000000000006
 40
0.2500000000000006
 40
0.3125000000000007
 40
0.3125000000000007
 40
0.3750000000000008
 40
0.3750000000000008
 40
0.437500000000001
 40
0.437500000000001
 40
0.5000000000000011
 40
0.5000000000000011
 40
0.6250000000000013
 40
0.6250000000000013
 40
0.7500000000000017
 40
0.7500000000000017
 40
0.8125000000000017
 40
0.8125000000000017
 40
0.8437500000000016
 40
0.8437500000000016
 40
0.8750000000000013
 40
0.8750000000000013
 40
1.0
 40
1.0
 40
1.0
 40
1.0
 10
11.99999999999916
 20
-3.580752907200338
 30
0.0
 10
11.99999999999919
 20
-3.570798991878611
 30
0.0
 10
11.99999999999917
 20
-3.526050263686426
 30
0.0
 10
11.99999999999919
 20
-3.352832789400558
 30
0.0
 10
11.99999999999917
 20
-3.224207373615755
 30
0.0
 10
11.9999999999992
 20
-2.876276322157882
 30
0.0
 10
11.99999999999916
 20
-2.656871122573086
 30
0.0
 10
11.99999999999917
 20
-2.132021750259037
 30
0.0
 10
11.99999999999914
 20
-1.826607127353302
 30
0.0
 10
11.9999999999992
 20
-1.147276130215046
 30
0.0
 10
11.99999999999917
 20
-0.7735291092662047
 30
0.0
 10
11.99999999999913
 20
0.0150619387178106
 30
0.0
 10
11.99999999999914
 20
0.4296705591697879
 30
0.0
 10
11.99999999999919
 20
1.269135119291739
 30
0.0
 10
11.99999999999917
 20
1.693796498394563
 30
0.0
 10
11.99999999999917
 20
2.525922550305323
 30
0.0
 10
11.99999999999917
 20
2.933297923855961
 30
0.0
 10
11.99999999999916
 20
4.100233568859253
 30
0.0
 10
11.99999999999916
 20
4.800857978235967
 30
0.0
 10
11.99999999999914
 20
5.992621139334311
 30
0.0
 10
11.99999999999917
 20
6.486223015324843
 30
0.0
 10
11.99999999999917
 20
7.093964422513503
 30
0.0
 10
11.99999999999917
 20
7.274825633291587
 30
0.0
 10
11.99999999999919
 20
7.518037203973755
 30
0.0
 10
11.99999999999919
 20
7.593432498111788
 30
0.0
 10
11.99999999999916
 20
7.740349455169295
 30
0.0
 10
11.99999999999914
 20
7.813368966155587
 30
0.0
 10
11.99999999999916
 20
8.174083540861075
 30
0.0
 10
11.99999999999917
 20
8.450588426520023
 30
0.0
 10
11.99999999999916
 20
8.672170111353763
 30
0.0
  0
SPLINE
  5
E9
330
1F
100
AcDbEntity
  8
외형선
  6
Continuous
370
    15
100
AcDbSpline
210
0.0
220
0.0
230
1.0
 70
    24
 71
     3
 72
    15
 73
    11
 74
     0
 42
0.000000001
 43
0.00000001
 40
0.0
 40
0.0
 40
0.0
 40
0.0
 40
0.2057467867015722
 40
0.3294410514057999
 40
0.4531353161100279
 40
0.576829580814256
 40
0.7005238455184839
 40
0.824218110222712
 40
0.9479123749269397
 40
1.0
 40
1.0
 40
1.0
 40
1.0
 10
11.99999999999913
 20
-15.18423232908213
 30
0.0
 10
11.99999999999919
 20
-14.63846296360406
 30
0.0
 10
11.99999999999925
 20
-13.76457892161917
 30
0.0
 10
11.9999999999992
 20
-12.45653386427369
 30
0.0
 10
11.99999999999916
 20
-11.38360376661997
 30
0.0
 10
11.99999999999913
 20
-10.33176494331983
 30
0.0
 10
11.99999999999909
 20
-9.328861215337785
 30
0.0
 10
11.99999999999912
 20
-8.415968956809989
 30
0.0
 10
11.9999999999992
 20
-7.738167156687085
 30
0.0
 10
11.99999999999916
 20
-7.423821251296918
 30
0.0
 10
11.99999999999916
 20
-7.33067438796555
 30
0.0
  0
SPLINE
  5
EA
330
1F
100
AcDbEntity
  8
외형선
  6
Continuous
370
    15
100
AcDbSpline
210
0.0
220
0.0
230
1.0
 70
    24
 71
     3
 72
    12
 73
     8
 74
     0
 42
0.000000001
 43
0.00000001
 40
0.0
 40
0.0
 40
0.0
 40
0.0
 40
0.0990056632401135
 40
0.3539459156804943
 40
0.6017012467361219
 40
0.8566414991764982
 40
1.0
 40
1.0
 40
1.0
 40
1.0
 10
11.99999999999916
 20
11.75473549313294
 30
0.0
 10
11.99999999999914
 20
11.87380328432136
 30
0.0
 10
11.99999999999919
 20
12.29947144310166
 30
0.0
 10
11.99999999999916
 20
13.1122713832373
 30
0.0
 10
11.99999999999919
 20
14.16505096387219
 30
0.0
 10
11.9999999999991
 20
15.08805643565307
 30
0.0
 10
11.99999999999916
 20
15.64950712860334
 30
0.0
 10
11.99999999999916
 20
15.85158842805028
 30
0.0
  0
LINE
  5
EB
330
1F
100
AcDbEntity
  8
중심선
 62
     1
100
AcDbLine
 10
-58.50000000000084
 20
-0.0000000000000082
 30
0.0
 11
171.3999999999991
 21
0.0000000000000205
 31
0.0
  0
LINE
  5
EC
330
1F
100
AcDbEntity
  8
참조1
100
AcDbLine
 10
56.44999999999915
 20
-0.0000000000000077
 30
0.0
 11
56.44999999999915
 21
-40.00000000000001
 31
0.0
  0
LINE
  5
ED
330
1F
100
AcDbEntity
  8
참조1
100
AcDbLine
 10
56.44999999999915
 20
-40.00000000000001
 30
0.0
 11
-19.03385681430952
 21
-39.99999999999999
 31
0.0
  0
CIRCLE
  5
EE
330
1F
100
AcDbEntity
  8
해칭선
100
AcDbCircle
 10
0.0
 20
0.0
 30
0.0
 40
3.000000000000001
  0
INSERT
  5
EF
330
1F
100
AcDbEntity
  8
0
  6
Continuous
 62
     7
100
AcDbBlockReference
 66
     1
  2
블럭10
 10
42.50972706787394
 20
-52.04717430164393
 30
0.0
  0
ATTRIB
  5
F0
330
EF
100
AcDbEntity
  8
FORMAT
 62
     2
100
AcDbText
 10
33.32843177913266
 20
-49.97180738881174
 30
0.0
 40
4.233333333333333
  1
E2037116 [ 6 FLUTE ]
 41
0.75
  7
SLDTEXTSTYLE0
 11
33.32843177913266
 21
-52.08847405547841
 31
0.0
100
AcDbAttribute
  2
AUTOATTR0
 70
     0
 74
     1
  0
SEQEND
  5
F1
330
EF
100
AcDbEntity
  8
0
  6
Continuous
 62
     7
  0
HATCH
  5
F2
330
1F
100
AcDbEntity
  8
중심선
100
AcDbHatch
 10
0.0
 20
0.0
 30
0.0
210
0.0
220
0.0
230
1.0
  2
SOLID
 70
     1
 71
     0
 91
        1
 92
        0
 93
        4
 72
     1
 10
48.22463637225479
 20
-35.8
 11
44.7783611284175
 21
-35.8
 72
     1
 10
44.7783611284175
 20
-35.8
 11
42.65013126921353
 21
-38.33632558057256
 72
     1
 10
42.65013126921353
 20
-38.33632558057256
 11
46.09643959816385
 21
-38.33628615127009
 72
     1
 10
46.09643959816384
 20
-38.33628615127009
 11
48.22463637225479
 21
-35.8
 97
        0
 75
     0
 76
     1
 98
        1
 10
-9.525000000000883
 20
-0.0010749287238969
  0
HATCH
  5
F3
330
1F
100
AcDbEntity
  8
중심선
100
AcDbHatch
 10
0.0
 20
0.0
 30
0.0
210
0.0
220
0.0
230
1.0
  2
SOLID
 70
     1
 71
     0
 91
        1
 92
        0
 93
        4
 72
     1
 10
53.23740036329079
 20
-35.79999999999998
 11
49.79112511945345
 21
-35.79999999999998
 72
     1
 10
49.79112511945344
 20
-35.79999999999998
 11
45.25998711109603
 21
-41.20000000000002
 72
     1
 10
45.25998711109604
 20
-41.20000000000002
 11
48.70626235493332
 21
-41.20000000000002
 72
     1
 10
48.70626235493332
 20
-41.20000000000002
 11
53.23740036329078
 21
-35.79999999999998
 97
        0
 75
     0
 76
     1
 98
        1
 10
-9.525000000000883
 20
-0.0010749287238969
  0
HATCH
  5
F4
330
1F
100
AcDbEntity
  8
중심선
100
AcDbHatch
 10
0.0
 20
0.0
 30
0.0
210
0.0
220
0.0
230
1.0
  2
SOLID
 70
     1
 71
     0
 91
        1
 92
        0
 93
        4
 72
     1
 10
58.25016435432669
 20
-35.79999999999998
 11
54.80388911048951
 21
-35.79999999999998
 72
     1
 10
54.80388911048951
 20
-35.79999999999998
 11
47.75545220860023
 21
-44.20000000000002
 72
     1
 10
47.75545220860023
 20
-44.20000000000002
 11
51.20172745243752
 21
-44.20000000000002
 72
     1
 10
51.20172745243752
 20
-44.20000000000002
 11
58.25016435432669
 21
-35.79999999999998
 97
        0
 75
     0
 76
     1
 98
        1
 10
-9.525000000000883
 20
-0.0010749287238969
  0
HATCH
  5
F5
330
1F
100
AcDbEntity
  8
중심선
100
AcDbHatch
 10
0.0
 20
0.0
 30
0.0
210
0.0
220
0.0
230
1.0
  2
SOLID
 70
     1
 71
     0
 91
        1
 92
        0
 93
        6
 72
     3
 10
63.05005478533883
 20
-40.00000000005127
 11
3.960054785062283
 21
1.540882976769353E-10
 40
0.3939339440162628
 50
17.09539180608451
 51
320.001965768507
 73
     0
 72
     1
 10
64.73305444103939
 20
-38.58789400463827
 11
67.03835631474037
 21
-36.65356729459039
 72
     3
 10
63.05005478528598
 20
-40.00000000000014
 11
6.600054785286829
 21
-1.278976924368180E-13
 40
0.636358354079598
 50
39.99873849337483
 51
368.4976242363724
 73
     1
 72
     1
 10
69.47538727718656
 20
-39.03999999993002
 11
61.73012209212187
 21
-39.03999999993002
 72
     1
 10
61.73012209212187
 20
-39.03999999993002
 11
61.73009704767597
 21
-40.95999999992991
 72
     1
 10
61.73009704767597
 20
-40.95999999992991
 11
66.17147681714798
 21
-40.95999999992988
 97
        0
 75
     0
 76
     1
 98
        1
 10
-9.525000000000883
 20
-0.0010749287238969
  0
DIMENSION
  5
F6
330
1F
100
AcDbEntity
  8
치수문자_일반주서
100
AcDbDimension
  2
_D
 10
-66.50000000000075
 20
-15.87500000000008
 30
0.0
 11
-66.50000000000094
 21
37.05199999999994
 31
0.0
 70
   160
  1
%%c<>
 71
     2
 42
31.74999999999996
 52
-270.0
  3
SLDDIMSTYLE0
100
AcDbAlignedDimension
 13
-36.89500000000086
 23
15.87499999999999
 33
0.0
 14
-48.32500000000083
 24
-15.87500000000001
 34
0.0
 50
90.0000000000002
100
AcDbRotatedDimension
1001
ACAD
1000
DSTYLE
1002
{
1070
   171
1070
     8
1070
   273
1070
     7
1070
   140
1040
4.0
1002
}
1001
ACAD_DSTYLE_DIMFLIPARROW_SYMBOL
1070
   385
1070
     0
1001
ACAD_DSTYLE_DIMFLIPARROW_WHICH_SYMBOL
1070
   386
1070
     3
  0
DIMENSION
  5
109
330
1F
100
AcDbEntity
  8
치수문자_일반주서
100
AcDbDimension
  2
_D_1
 10
11.99999999999919
 20
30.875
 30
0.0
 11
88.19999999999918
 21
30.875
 31
0.0
 70
   160
  1
<>
 71
     2
 42
152.3999999999999
  3
SLDDIMSTYLE0
100
AcDbAlignedDimension
 13
164.3999999999991
 23
15.75915299560637
 33
0.0
 14
11.99999999999919
 24
15.85158842807859
 34
0.0
 50
-0.0000000000000427
100
AcDbRotatedDimension
1001
PE_URL
1000

1001
ACAD
1000
DSTYLE
1002
{
1070
   171
1070
     8
1070
   273
1070
     7
1070
   140
1040
4.0
1002
}
  0
DIMENSION
  5
11D
330
1F
100
AcDbEntity
  8
치수문자_일반주서
100
AcDbDimension
  2
_D_2
 10
-51.50000000000085
 20
45.87500000000001
 30
0.0
 11
56.44999999999915
 21
45.87500000000001
 31
0.0
 70
   160
  1
<>
 71
     2
 42
215.9
  3
SLDDIMSTYLE0
100
AcDbAlignedDimension
 13
164.3999999999991
 23
15.75915299560637
 33
0.0
 14
-51.50000000000085
 24
13.97
 34
0.0
 50
0.0000000000000038
100
AcDbRotatedDimension
1001
PE_URL
1000

1001
ACAD
1000
DSTYLE
1002
{
1070
   171
1070
     8
1070
   273
1070
     7
1070
   140
1040
4.0
1002
}
  0
DIMENSION
  5
130
330
1F
100
AcDbEntity
  8
치수문자_일반주서
100
AcDbDimension
  2
_D_3
 10
179.3999999999992
 20
-15.87499999999996
 30
0.0
 11
179.399999999999
 21
44.62143577138463
 31
0.0
 70
   160
  1
%%c<>
 71
     2
 42
31.75000000000003
 52
-270.0
  3
SLDDIMSTYLE0
100
AcDbAlignedDimension
 13
164.3999999999991
 23
15.87500000000001
 33
0.0
 14
164.3999999999991
 24
-15.87500000000002
 34
0.0
 50
90.0000000000002
100
AcDbRotatedDimension
1001
PE_URL
1000

1001
ACAD
1000
DSTYLE
1002
{
1070
   171
1070
     8
1070
   273
1070
     7
1070
   140
1040
4.0
1002
}
1001
ACAD_DSTYLE_DIMFLIPARROW_SYMBOL
1070
   385
1070
     0
1001
ACAD_DSTYLE_DIMFLIPARROW_WHICH_SYMBOL
1070
   386
1070
     3
  0
LINE
  5
143
330
1F
100
AcDbEntity
  8
참조1
100
AcDbLine
 10
78.93848381534475
 20
7.44
 30
0.0
 11
78.93848381534475
 21
-7.440000000000006
 31
0.0
  0
LINE
  5
144
330
1F
100
AcDbEntity
  8
참조1
100
AcDbLine
 10
91.63848381534471
 20
5.44
 30
0.0
 11
78.93848381534475
 21
5.44
 31
0.0
  0
SOLID
  5
145
330
1F
100
AcDbEntity
  8
참조1
100
AcDbTrace
 10
78.93848381534475
 20
5.44
 30
0.0
 11
85.28848381534475
 21
4.423999999999999
 31
0.0
 12
85.28848381534475
 22
6.456
 32
0.0
 13
85.28848381534475
 23
6.456
 33
0.0
  0
LINE
  5
146
330
1F
100
AcDbEntity
  8
참조1
100
AcDbLine
 10
91.63848381534471
 20
-5.440000000000006
 30
0.0
 11
78.93848381534475
 21
-5.440000000000006
 31
0.0
  0
SOLID
  5
147
330
1F
100
AcDbEntity
  8
참조1
100
AcDbTrace
 10
78.93848381534475
 20
-5.440000000000006
 30
0.0
 11
85.28848381534475
 21
-6.456000000000006
 31
0.0
 12
85.28848381534475
 22
-4.424000000000006
 32
0.0
 13
85.28848381534475
 23
-4.424000000000006
 33
0.0
  0
MTEXT
  5
148
330
1F
100
AcDbEntity
  8
참조1
100
AcDbMText
 10
88.33597390781502
 20
10.98821664464993
 30
0.0
 40
3.5
 41
0.0
 71
     1
 72
     1
  1
A
  7
SLDTEXTSTYLE0
 73
     1
 44
1.0
  0
MTEXT
  5
149
330
1F
100
AcDbEntity
  8
참조1
100
AcDbMText
 10
88.33597390781502
 20
0.1082166446499282
 30
0.0
 40
3.5
 41
0.0
 71
     1
 72
     1
  1
A
  7
SLDTEXTSTYLE0
 73
     1
 44
1.0
  0
INSERT
  5
150
330
1F
100
AcDbEntity
  8
해칭선
100
AcDbBlockReference
  2
SW_DOWELSYMBOL_0
 10
0.0
 20
0.0
 30
0.0
  0
LINE
  5
203
330
1F
100
AcDbEntity
  8
외형선
  6
Continuous
370
    15
100
AcDbLine
 10
-29.08132500000075
 20
13.97
 30
0.0
 11
-15.97492500000086
 21
13.97
 31
0.0
1001
PE_URL
1000

  0
LINE
  5
204
330
1F
100
AcDbEntity
  8
외형선
  6
Continuous
370
    15
100
AcDbLine
 10
-29.08132500000075
 20
13.97000000000001
 30
0.0
 11
-30.98632500000073
 21
15.875
 31
0.0
1001
PE_URL
1000

  0
LINE
  5
205
330
1F
100
AcDbEntity
  8
외형선
  6
Continuous
370
    15
100
AcDbLine
 10
-15.97492500000086
 20
13.97000000000001
 30
0.0
 11
-14.06992500000083
 21
15.875
 31
0.0
1001
PE_URL
1000

  0
LINE
  5
206
330
1F
100
AcDbEntity
  8
외형선
  6
Continuous
370
    15
100
AcDbLine
 10
-51.50000000000085
 20
13.97
 30
0.0
 11
-38.80000000000084
 21
13.97
 31
0.0
1001
PE_URL
1000

  0
LINE
  5
207
330
1F
100
AcDbEntity
  8
외형선
  6
Continuous
370
    15
100
AcDbLine
 10
-38.80000000000084
 20
13.97000000000001
 30
0.0
 11
-36.89500000000086
 21
15.87499999999999
 31
0.0
1001
PE_URL
1000

  0
LINE
  5
208
330
1F
100
AcDbEntity
  8
외형선
  6
Continuous
370
    15
100
AcDbLine
 10
-30.98632500000072
 20
15.875
 30
0.0
 11
-36.89500000000085
 21
15.875
 31
0.0
  0
ENDSEC
  0
SECTION
  2
OBJECTS
  0
DICTIONARY
  5
C
330
0
100
AcDbDictionary
281
     1
  3
ACAD_GROUP
350
D
  3
ACAD_IMAGE_VARS
350
250
  3
ACAD_LAYOUT
350
1A
  3
ACAD_MLINESTYLE
350
17
  3
ACAD_PLOTSETTINGS
350
19
  3
ACAD_PLOTSTYLENAME
350
E
  3
ACAD_SCALELIST
350
47
  3
APPDATA
350
172
  3
DWGPROPS
350
274
  0
DICTIONARY
  5
1A7
330
2
100
AcDbDictionary
280
     1
281
     1
  3
ACAD_LAYERSTATES
360
1A8
  0
DICTIONARY
  5
D
102
{ACAD_REACTORS
330
C
102
}
330
C
100
AcDbDictionary
281
     1
  0
RASTERVARIABLES
  5
250
102
{ACAD_REACTORS
330
C
102
}
330
C
100
AcDbRasterVariables
 90
        0
 70
     1
 71
     1
 72
     1
  0
DICTIONARY
  5
1A
102
{ACAD_REACTORS
330
C
102
}
330
C
100
AcDbDictionary
281
     1
  3
Layout1
350
1E
  3
Layout2
350
26
  3
Model
350
22
  0
DICTIONARY
  5
17
102
{ACAD_REACTORS
330
C
102
}
330
C
100
AcDbDictionary
281
     1
  3
Standard
350
18
  0
DICTIONARY
  5
19
102
{ACAD_REACTORS
330
C
102
}
330
C
100
AcDbDictionary
281
     1
  0
ACDBDICTIONARYWDFLT
  5
E
102
{ACAD_REACTORS
330
C
102
}
330
C
100
AcDbDictionary
281
     1
  3
Normal
350
F
100
AcDbDictionaryWithDefault
340
F
  0
DICTIONARY
  5
47
102
{ACAD_REACTORS
330
C
102
}
330
C
100
AcDbDictionary
281
     1
  3
A0
350
48
  3
A1
350
49
  3
A2
350
4A
  3
A3
350
4B
  3
A4
350
4C
  3
A5
350
4D
  3
A6
350
4E
  3
A7
350
4F
  3
A8
350
50
  3
A9
350
51
  3
B0
350
52
  3
B1
350
53
  3
B2
350
54
  3
B3
350
55
  3
B4
350
56
  3
B5
350
57
  3
B6
350
58
  3
B7
350
59
  3
B8
350
5A
  3
B9
350
5B
  3
C0
350
5C
  3
C1
350
5D
  3
C2
350
5E
  3
C3
350
5F
  3
C4
350
60
  3
C5
350
61
  3
C6
350
62
  3
C7
350
63
  3
C8
350
64
  3
C9
350
65
  3
D0
350
66
  3
D1
350
67
  3
D2
350
68
  0
DICTIONARY
  5
172
102
{ACAD_REACTORS
330
C
102
}
330
C
100
AcDbDictionary
281
     1
  0
XRECORD
  5
274
102
{ACAD_REACTORS
330
C
102
}
330
C
100
AcDbXrecord
280
     1
  1
DWGPROPS COOKIE
  2

  3

  4

  6

  7

  8
12016016
  9

300
=
301
=
302
=
303
=
304
=
305
=
306
=
307
=
308
=
309
=
 40
0.0
 41
2458323.061873461
 42
2458330.262555474
  1

 90
        0
  0
DICTIONARY
  5
1A8
102
{ACAD_REACTORS
330
1A7
102
}
330
1A7
100
AcDbDictionary
281
     1
  0
LAYOUT
  5
1E
102
{ACAD_REACTORS
330
1A
102
}
330
1A
100
AcDbPlotSettings
  1

  2
none_device
  4

  6

 40
0.0
 41
0.0
 42
0.0
 43
0.0
 44
0.0
 45
0.0
 46
0.0
 47
0.0
 48
0.0
 49
0.0
140
0.0
141
0.0
142
1.0
143
1.0
 70
   688
 72
     1
 73
     0
 74
     5
  7

 75
    16
147
1.0
148
0.0
149
0.0
100
AcDbLayout
  1
Layout1
 70
     1
 71
     1
 10
0.0
 20
0.0
 11
420.0
 21
297.0
 12
0.0
 22
0.0
 32
0.0
 14
1.000000000000000E+20
 24
1.000000000000000E+20
 34
1.000000000000000E+20
 15
-1.000000000000000E+20
 25
-1.000000000000000E+20
 35
-1.000000000000000E+20
146
0.0
 13
0.0
 23
0.0
 33
0.0
 16
1.0
 26
0.0
 36
0.0
 17
0.0
 27
1.0
 37
0.0
 76
     0
330
1B
  0
LAYOUT
  5
26
102
{ACAD_REACTORS
330
1A
102
}
330
1A
100
AcDbPlotSettings
  1

  2
none_device
  4

  6

 40
0.0
 41
0.0
 42
0.0
 43
0.0
 44
0.0
 45
0.0
 46
0.0
 47
0.0
 48
0.0
 49
0.0
140
0.0
141
0.0
142
1.0
143
1.0
 70
   688
 72
     1
 73
     0
 74
     5
  7

 75
    16
147
1.0
148
0.0
149
0.0
100
AcDbLayout
  1
Layout2
 70
     1
 71
     2
 10
0.0
 20
0.0
 11
0.0
 21
0.0
 12
0.0
 22
0.0
 32
0.0
 14
0.0
 24
0.0
 34
0.0
 15
0.0
 25
0.0
 35
0.0
146
0.0
 13
0.0
 23
0.0
 33
0.0
 16
1.0
 26
0.0
 36
0.0
 17
0.0
 27
1.0
 37
0.0
 76
     0
330
23
  0
LAYOUT
  5
22
102
{ACAD_REACTORS
330
1A
102
}
330
1A
100
AcDbPlotSettings
  1

  2
none_device
  4
ANSI_A_(11.00_x_8.50_Inches)
  6

 40
6.35
 41
19.05
 42
6.35000508
 43
19.05000254
 44
279.4
 45
215.9
 46
63.82773557137539
 47
83.33884550374827
 48
0.0
 49
0.0
140
0.0
141
0.0
142
0.0421920687108367
143
1.0
 70
  1696
 72
     0
 73
     0
 74
     0
  7

 75
     0
147
0.0235690232323232
148
0.0
149
0.0
100
AcDbLayout
  1
Model
 70
     1
 71
     0
 10
0.0
 20
0.0
 11
420.0
 21
297.0
 12
0.0
 22
0.0
 32
0.0
 14
-71.375000000001
 24
-49.97180738881175
 34
0.0
 15
179.9503333333326
 25
62.49643577138463
 35
0.0
146
0.0
 13
0.0
 23
0.0
 33
0.0
 16
1.0
 26
0.0
 36
0.0
 17
0.0
 27
1.0
 37
0.0
 76
     0
330
1F
331
29
  0
MLINESTYLE
  5
18
102
{ACAD_REACTORS
330
17
102
}
330
17
100
AcDbMlineStyle
  2
Standard
 70
     0
  3

 62
   256
 51
90.0
 52
90.0
 71
     2
 49
0.5
 62
   256
  6
BYLAYER
 49
-0.5
 62
   256
  6
BYLAYER
  0
ACDBPLACEHOLDER
  5
F
102
{ACAD_REACTORS
330
E
102
}
330
E
  0
SCALE
  5
48
102
{ACAD_REACTORS
330
47
102
}
330
47
100
AcDbScale
 70
     0
300
1:1
140
1.0
141
1.0
290
     1
  0
SCALE
  5
49
102
{ACAD_REACTORS
330
47
102
}
330
47
100
AcDbScale
 70
     0
300
1:2
140
1.0
141
2.0
290
     0
  0
SCALE
  5
4A
102
{ACAD_REACTORS
330
47
102
}
330
47
100
AcDbScale
 70
     0
300
1:4
140
1.0
141
4.0
290
     0
  0
SCALE
  5
4B
102
{ACAD_REACTORS
330
47
102
}
330
47
100
AcDbScale
 70
     0
300
1:5
140
1.0
141
5.0
290
     0
  0
SCALE
  5
4C
102
{ACAD_REACTORS
330
47
102
}
330
47
100
AcDbScale
 70
     0
300
1:8
140
1.0
141
8.0
290
     0
  0
SCALE
  5
4D
102
{ACAD_REACTORS
330
47
102
}
330
47
100
AcDbScale
 70
     0
300
1:10
140
1.0
141
10.0
290
     0
  0
SCALE
  5
4E
102
{ACAD_REACTORS
330
47
102
}
330
47
100
AcDbScale
 70
     0
300
1:16
140
1.0
141
16.0
290
     0
  0
SCALE
  5
4F
102
{ACAD_REACTORS
330
47
102
}
330
47
100
AcDbScale
 70
     0
300
1:20
140
1.0
141
20.0
290
     0
  0
SCALE
  5
50
102
{ACAD_REACTORS
330
47
102
}
330
47
100
AcDbScale
 70
     0
300
1:30
140
1.0
141
30.0
290
     0
  0
SCALE
  5
51
102
{ACAD_REACTORS
330
47
102
}
330
47
100
AcDbScale
 70
     0
300
1:40
140
1.0
141
40.0
290
     0
  0
SCALE
  5
52
102
{ACAD_REACTORS
330
47
102
}
330
47
100
AcDbScale
 70
     0
300
1:50
140
1.0
141
50.0
290
     0
  0
SCALE
  5
53
102
{ACAD_REACTORS
330
47
102
}
330
47
100
AcDbScale
 70
     0
300
1:100
140
1.0
141
100.0
290
     0
  0
SCALE
  5
54
102
{ACAD_REACTORS
330
47
102
}
330
47
100
AcDbScale
 70
     0
300
2:1
140
2.0
141
1.0
290
     0
  0
SCALE
  5
55
102
{ACAD_REACTORS
330
47
102
}
330
47
100
AcDbScale
 70
     0
300
4:1
140
4.0
141
1.0
290
     0
  0
SCALE
  5
56
102
{ACAD_REACTORS
330
47
102
}
330
47
100
AcDbScale
 70
     0
300
8:1
140
8.0
141
1.0
290
     0
  0
SCALE
  5
57
102
{ACAD_REACTORS
330
47
102
}
330
47
100
AcDbScale
 70
     0
300
10:1
140
10.0
141
1.0
290
     0
  0
SCALE
  5
58
102
{ACAD_REACTORS
330
47
102
}
330
47
100
AcDbScale
 70
     0
300
100:1
140
100.0
141
1.0
290
     0
  0
SCALE
  5
59
102
{ACAD_REACTORS
330
47
102
}
330
47
100
AcDbScale
 70
     0
300
1/128" = 1'-0"
140
0.0078125
141
12.0
290
     0
  0
SCALE
  5
5A
102
{ACAD_REACTORS
330
47
102
}
330
47
100
AcDbScale
 70
     0
300
1/64" = 1'-0"
140
0.015625
141
12.0
290
     0
  0
SCALE
  5
5B
102
{ACAD_REACTORS
330
47
102
}
330
47
100
AcDbScale
 70
     0
300
1/32" = 1'-0"
140
0.03125
141
12.0
290
     0
  0
SCALE
  5
5C
102
{ACAD_REACTORS
330
47
102
}
330
47
100
AcDbScale
 70
     0
300
1/16" = 1'-0"
140
0.0625
141
12.0
290
     0
  0
SCALE
  5
5D
102
{ACAD_REACTORS
330
47
102
}
330
47
100
AcDbScale
 70
     0
300
3/32" = 1'-0"
140
0.09375
141
12.0
290
     0
  0
SCALE
  5
5E
102
{ACAD_REACTORS
330
47
102
}
330
47
100
AcDbScale
 70
     0
300
1/8" = 1'-0"
140
0.125
141
12.0
290
     0
  0
SCALE
  5
5F
102
{ACAD_REACTORS
330
47
102
}
330
47
100
AcDbScale
 70
     0
300
3/16" = 1'-0"
140
0.1875
141
12.0
290
     0
  0
SCALE
  5
60
102
{ACAD_REACTORS
330
47
102
}
330
47
100
AcDbScale
 70
     0
300
1/4" = 1'-0"
140
0.25
141
12.0
290
     0
  0
SCALE
  5
61
102
{ACAD_REACTORS
330
47
102
}
330
47
100
AcDbScale
 70
     0
300
3/8" = 1'-0"
140
0.375
141
12.0
290
     0
  0
SCALE
  5
62
102
{ACAD_REACTORS
330
47
102
}
330
47
100
AcDbScale
 70
     0
300
1/2" = 1'-0"
140
0.5
141
12.0
290
     0
  0
SCALE
  5
63
102
{ACAD_REACTORS
330
47
102
}
330
47
100
AcDbScale
 70
     0
300
3/4" = 1'-0"
140
0.75
141
12.0
290
     0
  0
SCALE
  5
64
102
{ACAD_REACTORS
330
47
102
}
330
47
100
AcDbScale
 70
     0
300
1" = 1'-0"
140
1.0
141
12.0
290
     0
  0
SCALE
  5
65
102
{ACAD_REACTORS
330
47
102
}
330
47
100
AcDbScale
 70
     0
300
1-1/2" = 1'-0"
140
1.5
141
12.0
290
     0
  0
SCALE
  5
66
102
{ACAD_REACTORS
330
47
102
}
330
47
100
AcDbScale
 70
     0
300
3" = 1'-0"
140
3.0
141
12.0
290
     0
  0
SCALE
  5
67
102
{ACAD_REACTORS
330
47
102
}
330
47
100
AcDbScale
 70
     0
300
6" = 1'-0"
140
6.0
141
12.0
290
     0
  0
SCALE
  5
68
102
{ACAD_REACTORS
330
47
102
}
330
47
100
AcDbScale
 70
     0
300
1'-0" = 1'-0"
140
12.0
141
12.0
290
     0
  0
ENDSEC
  0
EOF
