  0
SECTION
  2
HEADER
  9
$ACADVER
  1
AC1015
  9
$ACADMAINTVER
 70
     6
  9
$DWGCODEPAGE
  3
ANSI_949
  9
$INSBASE
 10
0.0
 20
0.0
 30
0.0
  9
$EXTMIN
 10
1.000000000000000E+20
 20
1.000000000000000E+20
 30
1.000000000000000E+20
  9
$EXTMAX
 10
-1.000000000000000E+20
 20
-1.000000000000000E+20
 30
-1.000000000000000E+20
  9
$LIMMIN
 10
0.0
 20
0.0
  9
$LIMMAX
 10
420.0
 20
297.0
  9
$ORTHOMODE
 70
     1
  9
$REGENMODE
 70
     1
  9
$FILLMODE
 70
     1
  9
$QTEXTMODE
 70
     0
  9
$MIRRTEXT
 70
     1
  9
$LTSCALE
 40
1.0
  9
$ATTMODE
 70
     1
  9
$TEXTSIZE
 40
3.5
  9
$TRACEWID
 40
1.0
  9
$TEXTSTYLE
  7
Standard
  9
$CLAYER
  8
0
  9
$CELTYPE
  6
ByLayer
  9
$CECOLOR
 62
   256
  9
$CELTSCALE
 40
1.0
  9
$DISPSILH
 70
     0
  9
$DIMSCALE
 40
1.0
  9
$DIMASZ
 40
3.302
  9
$DIMEXO
 40
1.0
  9
$DIMDLI
 40
3.75
  9
$DIMRND
 40
0.0
  9
$DIMDLE
 40
0.0
  9
$DIMEXE
 40
1.0
  9
$DIMTP
 40
0.0
  9
$DIMTM
 40
0.0
  9
$DIMTXT
 40
3.5
  9
$DIMCEN
 40
2.5
  9
$DIMTSZ
 40
0.0
  9
$DIMTOL
 70
     0
  9
$DIMLIM
 70
     0
  9
$DIMTIH
 70
     1
  9
$DIMTOH
 70
     1
  9
$DIMSE1
 70
     0
  9
$DIMSE2
 70
     0
  9
$DIMTAD
 70
     1
  9
$DIMZIN
 70
     0
  9
$DIMBLK
  1

  9
$DIMASO
 70
     1
  9
$DIMSHO
 70
     1
  9
$DIMPOST
  1

  9
$DIMAPOST
  1

  9
$DIMALT
 70
     0
  9
$DIMALTD
 70
     3
  9
$DIMALTF
 40
0.0393700787401575
  9
$DIMLFAC
 40
1.0
  9
$DIMTOFL
 70
     1
  9
$DIMTVP
 40
0.0
  9
$DIMTIX
 70
     0
  9
$DIMSOXD
 70
     0
  9
$DIMSAH
 70
     0
  9
$DIMBLK1
  1

  9
$DIMBLK2
  1

  9
$DIMSTYLE
  2
ISO-25
  9
$DIMCLRD
 70
     0
  9
$DIMCLRE
 70
     0
  9
$DIMCLRT
 70
     0
  9
$DIMTFAC
 40
1.0
  9
$DIMGAP
 40
1.524
  9
$DIMJUST
 70
     0
  9
$DIMSD1
 70
     0
  9
$DIMSD2
 70
     0
  9
$DIMTOLJ
 70
     0
  9
$DIMTZIN
 70
     0
  9
$DIMALTZ
 70
     0
  9
$DIMALTTZ
 70
     0
  9
$DIMUPT
 70
     0
  9
$DIMDEC
 70
     2
  9
$DIMTDEC
 70
     2
  9
$DIMALTU
 70
     2
  9
$DIMALTTD
 70
     3
  9
$DIMTXSTY
  7
Standard
  9
$DIMAUNIT
 70
     0
  9
$DIMADEC
 70
     2
  9
$DIMALTRND
 40
0.0
  9
$DIMAZIN
 70
     0
  9
$DIMDSEP
 70
    44
  9
$DIMATFIT
 70
     3
  9
$DIMFRAC
 70
     0
  9
$DIMLDRBLK
  1

  9
$DIMLUNIT
 70
     2
  9
$DIMLWD
 70
    -2
  9
$DIMLWE
 70
    -2
  9
$DIMTMOVE
 70
     0
  9
$LUNITS
 70
     2
  9
$LUPREC
 70
     2
  9
$SKETCHINC
 40
1.0
  9
$FILLETRAD
 40
10.0
  9
$AUNITS
 70
     0
  9
$AUPREC
 70
     2
  9
$MENU
  1
.
  9
$ELEVATION
 40
0.0
  9
$PELEVATION
 40
0.0
  9
$THICKNESS
 40
0.0
  9
$LIMCHECK
 70
     0
  9
$CHAMFERA
 40
0.0
  9
$CHAMFERB
 40
0.0
  9
$CHAMFERC
 40
0.0
  9
$CHAMFERD
 40
0.0
  9
$SKPOLY
 70
     0
  9
$TDCREATE
 40
2458312.676527535
  9
$TDUCREATE
 40
2458312.301527535
  9
$TDUPDATE
 40
2458320.465217107
  9
$TDUUPDATE
 40
2458320.090217107
  9
$TDINDWG
 40
0.0014288426
  9
$TDUSRTIMER
 40
2458320.089873241
  9
$USRTIMER
 70
     1
  9
$ANGBASE
 50
0.0
  9
$ANGDIR
 70
     0
  9
$PDMODE
 70
     0
  9
$PDSIZE
 40
-1.0
  9
$PLINEWID
 40
0.0
  9
$SPLFRAME
 70
     0
  9
$SPLINETYPE
 70
     6
  9
$SPLINESEGS
 70
     8
  9
$HANDSEED
  5
4D2
  9
$SURFTAB1
 70
     6
  9
$SURFTAB2
 70
     6
  9
$SURFTYPE
 70
     6
  9
$SURFU
 70
     6
  9
$SURFV
 70
     6
  9
$UCSBASE
  2

  9
$UCSNAME
  2

  9
$UCSORG
 10
0.0
 20
0.0
 30
0.0
  9
$UCSXDIR
 10
1.0
 20
0.0
 30
0.0
  9
$UCSYDIR
 10
0.0
 20
1.0
 30
0.0
  9
$UCSORTHOREF
  2

  9
$UCSORTHOVIEW
 70
     0
  9
$UCSORGTOP
 10
0.0
 20
0.0
 30
0.0
  9
$UCSORGBOTTOM
 10
0.0
 20
0.0
 30
0.0
  9
$UCSORGLEFT
 10
0.0
 20
0.0
 30
0.0
  9
$UCSORGRIGHT
 10
0.0
 20
0.0
 30
0.0
  9
$UCSORGFRONT
 10
0.0
 20
0.0
 30
0.0
  9
$UCSORGBACK
 10
0.0
 20
0.0
 30
0.0
  9
$PUCSBASE
  2

  9
$PUCSNAME
  2

  9
$PUCSORG
 10
0.0
 20
0.0
 30
0.0
  9
$PUCSXDIR
 10
1.0
 20
0.0
 30
0.0
  9
$PUCSYDIR
 10
0.0
 20
1.0
 30
0.0
  9
$PUCSORTHOREF
  2

  9
$PUCSORTHOVIEW
 70
     0
  9
$PUCSORGTOP
 10
0.0
 20
0.0
 30
0.0
  9
$PUCSORGBOTTOM
 10
0.0
 20
0.0
 30
0.0
  9
$PUCSORGLEFT
 10
0.0
 20
0.0
 30
0.0
  9
$PUCSORGRIGHT
 10
0.0
 20
0.0
 30
0.0
  9
$PUCSORGFRONT
 10
0.0
 20
0.0
 30
0.0
  9
$PUCSORGBACK
 10
0.0
 20
0.0
 30
0.0
  9
$USERI1
 70
     0
  9
$USERI2
 70
     0
  9
$USERI3
 70
     0
  9
$USERI4
 70
     0
  9
$USERI5
 70
     0
  9
$USERR1
 40
0.0
  9
$USERR2
 40
0.0
  9
$USERR3
 40
0.0
  9
$USERR4
 40
0.0
  9
$USERR5
 40
0.0
  9
$WORLDVIEW
 70
     1
  9
$SHADEDGE
 70
     3
  9
$SHADEDIF
 70
    70
  9
$TILEMODE
 70
     1
  9
$MAXACTVP
 70
    64
  9
$PINSBASE
 10
0.0
 20
0.0
 30
0.0
  9
$PLIMCHECK
 70
     0
  9
$PEXTMIN
 10
1.000000000000000E+20
 20
1.000000000000000E+20
 30
1.000000000000000E+20
  9
$PEXTMAX
 10
-1.000000000000000E+20
 20
-1.000000000000000E+20
 30
-1.000000000000000E+20
  9
$PLIMMIN
 10
0.0
 20
0.0
  9
$PLIMMAX
 10
0.0
 20
0.0
  9
$UNITMODE
 70
     0
  9
$VISRETAIN
 70
     1
  9
$PLINEGEN
 70
     0
  9
$PSLTSCALE
 70
     1
  9
$TREEDEPTH
 70
  3020
  9
$CMLSTYLE
  2
Standard
  9
$CMLJUST
 70
     0
  9
$CMLSCALE
 40
20.0
  9
$PROXYGRAPHICS
 70
     1
  9
$MEASUREMENT
 70
     1
  9
$CELWEIGHT
370
    -1
  9
$ENDCAPS
280
     0
  9
$JOINSTYLE
280
     0
  9
$LWDISPLAY
290
     1
  9
$INSUNITS
 70
     4
  9
$HYPERLINKBASE
  1

  9
$STYLESHEET
  1

  9
$XEDIT
290
     1
  9
$CEPSNTYPE
380
     0
  9
$PSTYLEMODE
290
     1
  9
$FINGERPRINTGUID
  2
{C0FFC0FA-E61F-451E-89C9-E675695C7BA3}
  9
$VERSIONGUID
  2
{FAEB1C32-E019-11D5-929B-00C0DF256EC4}
  9
$EXTNAMES
290
     1
  9
$PSVPSCALE
 40
0.0
  9
$OLESTARTUP
290
     0
  0
ENDSEC
  0
SECTION
  2
CLASSES
  0
CLASS
  1
ACDBDICTIONARYWDFLT
  2
AcDbDictionaryWithDefault
  3
ObjectDBX Classes
 90
        0
280
     0
281
     0
  0
CLASS
  1
VISUALSTYLE
  2
AcDbVisualStyle
  3
ObjectDBX Classes
 90
     4095
280
     0
281
     0
  0
CLASS
  1
MATERIAL
  2
AcDbMaterial
  3
ObjectDBX Classes
 90
     1153
280
     0
281
     0
  0
CLASS
  1
SCALE
  2
AcDbScale
  3
ObjectDBX Classes
 90
     1153
280
     0
281
     0
  0
CLASS
  1
SUN
  2
AcDbSun
  3
SCENEOE
 90
     1153
280
     0
281
     0
  0
CLASS
  1
ACDBPLACEHOLDER
  2
AcDbPlaceHolder
  3
ObjectDBX Classes
 90
        0
280
     0
281
     0
  0
CLASS
  1
LAYOUT
  2
AcDbLayout
  3
ObjectDBX Classes
 90
        0
280
     0
281
     0
  0
CLASS
  1
TABLESTYLE
  2
AcDbTableStyle
  3
ObjectDBX Classes
 90
     4095
280
     0
281
     0
  0
CLASS
  1
MLEADERSTYLE
  2
AcDbMLeaderStyle
  3
ACDB_MLEADERSTYLE_CLASS
 90
     4095
280
     0
281
     0
  0
CLASS
  1
RASTERVARIABLES
  2
AcDbRasterVariables
  3
ISM
 90
        0
280
     0
281
     0
  0
CLASS
  1
DIMASSOC
  2
AcDbDimAssoc
  3
"AcDbDimAssoc|Product Desc:     AcDim ARX App For Dimension|Company:          Autodesk, Inc.|WEB Address:      www.autodesk.com"
 90
        0
280
     0
281
     0
  0
ENDSEC
  0
SECTION
  2
TABLES
  0
TABLE
  2
VPORT
  5
8
330
0
100
AcDbSymbolTable
 70
     1
  0
VPORT
  5
29
330
8
100
AcDbSymbolTableRecord
100
AcDbViewportTableRecord
  2
*Active
 70
     0
 10
0.0
 20
0.0
 11
1.0
 21
1.0
 12
29.29976628464183
 22
-0.3785583592377861
 13
0.0
 23
0.0
 14
10.0
 24
10.0
 15
10.0
 25
10.0
 16
0.0
 26
0.0
 36
1.0
 17
0.0
 27
0.0
 37
0.0
 40
213.7065360240857
 41
1.632093933463796
 42
50.0
 43
0.0
 44
0.0
 50
0.0
 51
0.0
 71
    16
 72
  2000
 73
     1
 74
     3
 75
     0
 76
     0
 77
     0
 78
     0
281
     0
 65
     1
110
0.0
120
0.0
130
0.0
111
1.0
121
0.0
131
0.0
112
0.0
122
1.0
132
0.0
 79
     0
146
0.0
  0
ENDTAB
  0
TABLE
  2
LTYPE
  5
5
330
0
100
AcDbSymbolTable
 70
     6
  0
LTYPE
  5
14
330
5
100
AcDbSymbolTableRecord
100
AcDbLinetypeTableRecord
  2
ByBlock
 70
     0
  3

 72
    65
 73
     0
 40
0.0
  0
LTYPE
  5
15
330
5
100
AcDbSymbolTableRecord
100
AcDbLinetypeTableRecord
  2
ByLayer
 70
     0
  3

 72
    65
 73
     0
 40
0.0
  0
LTYPE
  5
16
330
5
100
AcDbSymbolTableRecord
100
AcDbLinetypeTableRecord
  2
Continuous
 70
     0
  3
Solid line
 72
    65
 73
     0
 40
0.0
  0
LTYPE
  5
6A
330
5
100
AcDbSymbolTableRecord
100
AcDbLinetypeTableRecord
  2
HIDDEN
 70
     0
  3
Hidden __ __ __ __ __ __ __ __ __ __ __ __ __ __
 72
    65
 73
     2
 40
1.905
 49
1.27
 74
     0
 49
-0.635
 74
     0
  0
LTYPE
  5
6B
330
5
100
AcDbSymbolTableRecord
100
AcDbLinetypeTableRecord
  2
PHANTOM
 70
     0
  3
Phantom ______  __  __  ______  __  __  ______
 72
    65
 73
     6
 40
12.7
 49
6.35
 74
     0
 49
-1.27
 74
     0
 49
1.27
 74
     0
 49
-1.27
 74
     0
 49
1.27
 74
     0
 49
-1.27
 74
     0
  0
LTYPE
  5
6C
330
5
100
AcDbSymbolTableRecord
100
AcDbLinetypeTableRecord
  2
CENTER
 70
     0
  3
Center ____ _ ____ _ ____ _ ____ _ ____ _ ____
 72
    65
 73
     4
 40
10.16
 49
6.35
 74
     0
 49
-1.27
 74
     0
 49
1.27
 74
     0
 49
-1.27
 74
     0
  0
LTYPE
  5
6D
330
5
100
AcDbSymbolTableRecord
100
AcDbLinetypeTableRecord
  2
CENTERX2
 70
     0
  3
Center (2x) ________  __  ________  __  _____
 72
    65
 73
     4
 40
20.32
 49
12.7
 74
     0
 49
-2.54
 74
     0
 49
2.54
 74
     0
 49
-2.54
 74
     0
  0
LTYPE
  5
6E
330
5
100
AcDbSymbolTableRecord
100
AcDbLinetypeTableRecord
  2
DOT2
 70
     0
  3
Dot (.5x) ........................................
 72
    65
 73
     2
 40
0.635
 49
0.0
 74
     0
 49
-0.635
 74
     0
  0
ENDTAB
  0
TABLE
  2
LAYER
  5
2
102
{ACAD_XDICTIONARY
360
1EF
102
}
330
0
100
AcDbSymbolTable
 70
    18
  0
LAYER
  5
10
330
2
100
AcDbSymbolTableRecord
100
AcDbLayerTableRecord
  2
0
 70
     0
 62
     7
  6
Continuous
370
    -3
390
F
  0
LAYER
  5
6F
330
2
100
AcDbSymbolTableRecord
100
AcDbLayerTableRecord
  2
FORMAT
 70
     0
 62
     2
  6
Continuous
370
    -3
390
F
  0
LAYER
  5
70
330
2
100
AcDbSymbolTableRecord
100
AcDbLayerTableRecord
  2
외형선
 70
     0
 62
     4
  6
Continuous
370
    30
390
F
  0
LAYER
  5
71
330
2
100
AcDbSymbolTableRecord
100
AcDbLayerTableRecord
  2
숨은선
 70
     0
 62
     2
  6
HIDDEN
370
    15
390
F
  0
LAYER
  5
72
330
2
100
AcDbSymbolTableRecord
100
AcDbLayerTableRecord
  2
중심선
 70
     0
 62
     1
  6
CENTERX2
370
    -3
390
F
  0
LAYER
  5
73
330
2
100
AcDbSymbolTableRecord
100
AcDbLayerTableRecord
  2
파단선
 70
     0
 62
     4
  6
Continuous
370
    -3
390
F
  0
LAYER
  5
74
330
2
100
AcDbSymbolTableRecord
100
AcDbLayerTableRecord
  2
해칭선
 70
     0
 62
   100
  6
Continuous
370
    -3
390
F
  0
LAYER
  5
75
330
2
100
AcDbSymbolTableRecord
100
AcDbLayerTableRecord
  2
가는실선
 70
     0
 62
     4
  6
Continuous
370
    -3
390
F
  0
LAYER
  5
76
330
2
100
AcDbSymbolTableRecord
100
AcDbLayerTableRecord
  2
치수_보조선
 70
     0
 62
     4
  6
Continuous
370
    -3
390
F
  0
LAYER
  5
77
330
2
100
AcDbSymbolTableRecord
100
AcDbLayerTableRecord
  2
치수문자_일반주서
 70
     0
 62
     7
  6
Continuous
370
    15
390
F
  0
LAYER
  5
78
330
2
100
AcDbSymbolTableRecord
100
AcDbLayerTableRecord
  2
개별주서
 70
     0
 62
   100
  6
Continuous
370
    30
390
F
  0
LAYER
  5
79
330
2
100
AcDbSymbolTableRecord
100
AcDbLayerTableRecord
  2
중간선
 70
     0
 62
     2
  6
Continuous
370
    15
390
F
  0
LAYER
  5
7A
330
2
100
AcDbSymbolTableRecord
100
AcDbLayerTableRecord
  2
윤곽선
 70
     0
 62
     3
  6
Continuous
370
    40
390
F
  0
LAYER
  5
7B
330
2
100
AcDbSymbolTableRecord
100
AcDbLayerTableRecord
  2
중심마크
 70
     0
 62
   100
  6
Continuous
370
    30
390
F
  0
LAYER
  5
7C
330
2
100
AcDbSymbolTableRecord
100
AcDbLayerTableRecord
  2
가상선
 70
     0
 62
     4
  6
PHANTOM
370
    -3
390
F
  0
LAYER
  5
7D
330
2
100
AcDbSymbolTableRecord
100
AcDbLayerTableRecord
  2
특수지정선
 70
     0
 62
     5
  6
CENTERX2
370
    60
390
F
  0
LAYER
  5
7E
330
2
100
AcDbSymbolTableRecord
100
AcDbLayerTableRecord
  2
참조1
 70
     0
 62
    -4
  6
Continuous
370
    -3
390
F
  0
LAYER
  5
151
330
2
100
AcDbSymbolTableRecord
100
AcDbLayerTableRecord
  2
Defpoints
 70
     0
 62
     7
  6
Continuous
290
     0
370
    -3
390
F
  0
ENDTAB
  0
TABLE
  2
STYLE
  5
3
330
0
100
AcDbSymbolTable
 70
     2
  0
STYLE
  5
11
330
3
100
AcDbSymbolTableRecord
100
AcDbTextStyleTableRecord
  2
Standard
 70
     0
 40
0.0
 41
1.0
 50
0.0
 71
     0
 42
3.5
  3
txt
  4

  0
STYLE
  5
94
330
3
100
AcDbSymbolTableRecord
100
AcDbTextStyleTableRecord
  2
SLDTEXTSTYLE0
 70
     0
 40
0.0
 41
0.75
 50
0.0
 71
     0
 42
3.5
  3
TXT
  4

  0
ENDTAB
  0
TABLE
  2
VIEW
  5
6
330
0
100
AcDbSymbolTable
 70
     0
  0
ENDTAB
  0
TABLE
  2
UCS
  5
7
330
0
100
AcDbSymbolTable
 70
     0
  0
ENDTAB
  0
TABLE
  2
APPID
  5
9
330
0
100
AcDbSymbolTable
 70
     1
  0
APPID
  5
12
330
9
100
AcDbSymbolTableRecord
100
AcDbRegAppTableRecord
  2
ACAD
 70
     0
  0
ENDTAB
  0
TABLE
  2
DIMSTYLE
  5
A
330
0
100
AcDbSymbolTable
 70
     4
100
AcDbDimStyleTable
  0
DIMSTYLE
105
27
330
A
100
AcDbSymbolTableRecord
100
AcDbDimStyleTableRecord
  2
ISO-25
 70
     0
 41
2.5
 42
0.625
 43
3.75
 44
1.25
 73
     0
 74
     0
 77
     1
 78
     8
140
2.5
141
2.5
143
0.03937007874016
147
0.625
171
     3
172
     1
178
     0
271
     2
272
     2
274
     3
278
    44
283
     0
284
     8
340
11
  0
DIMSTYLE
105
D1
330
A
100
AcDbSymbolTableRecord
100
AcDbDimStyleTableRecord
  2
SLDDIMSTYLE0
 70
     0
 41
3.302
 44
0.0
 45
0.000000001
 73
     0
 74
     0
 77
     1
 78
    12
 79
     3
140
3.5
143
0.0393700787401575
147
0.875
148
0.000000001
170
     1
173
     1
178
     0
271
     2
272
     2
276
     2
284
    12
340
94
  0
DIMSTYLE
105
F9
102
{ACAD_REACTORS
330
E5
330
277
330
D0
330
F8
102
}
330
A
100
AcDbSymbolTableRecord
100
AcDbDimStyleTableRecord
  2
SLDDIMSTYLE1
 70
     0
 41
3.302
 44
0.0
 45
0.000000001
 73
     0
 74
     0
 77
     1
 78
    12
 79
     3
140
3.5
143
0.0393700787401575
147
0.875
148
0.000000001
170
     1
172
     1
173
     1
178
     0
271
     2
272
     2
276
     2
284
    12
289
     0
340
94
  0
DIMSTYLE
105
10E
330
A
100
AcDbSymbolTableRecord
100
AcDbDimStyleTableRecord
  2
SLDDIMSTYLE2
 70
     0
 41
3.302
 44
0.0
 45
0.000000001
 73
     0
 74
     0
 77
     1
 78
     8
 79
     2
140
3.5
143
0.0393700787401575
147
0.875
148
0.000000001
170
     1
172
     1
173
     1
178
     0
271
     2
272
     2
276
     2
284
    12
289
     0
340
94
341
10F
343
10F
344
10F
  0
ENDTAB
  0
TABLE
  2
BLOCK_RECORD
  5
1
330
0
100
AcDbSymbolTable
 70
    28
  0
BLOCK_RECORD
  5
1F
330
1
100
AcDbSymbolTableRecord
100
AcDbBlockTableRecord
  2
*Model_Space
340
22
  0
BLOCK_RECORD
  5
1B
330
1
100
AcDbSymbolTableRecord
100
AcDbBlockTableRecord
  2
*Paper_Space
340
1E
  0
BLOCK_RECORD
  5
23
330
1
100
AcDbSymbolTableRecord
100
AcDbBlockTableRecord
  2
*Paper_Space0
340
26
  0
BLOCK_RECORD
  5
7F
330
1
100
AcDbSymbolTableRecord
100
AcDbBlockTableRecord
  2
블럭10
340
0
102
{BLKREFS
331
C9
102
}
  0
BLOCK_RECORD
  5
D2
330
1
100
AcDbSymbolTableRecord
100
AcDbBlockTableRecord
  2
_D
340
0
  0
BLOCK_RECORD
  5
E6
330
1
100
AcDbSymbolTableRecord
100
AcDbBlockTableRecord
  2
_D_1
340
0
  0
BLOCK_RECORD
  5
FA
330
1
100
AcDbSymbolTableRecord
100
AcDbBlockTableRecord
  2
_D_2
340
0
  0
BLOCK_RECORD
  5
10F
330
1
100
AcDbSymbolTableRecord
100
AcDbBlockTableRecord
  2
_NONE
340
0
  0
BLOCK_RECORD
  5
112
330
1
100
AcDbSymbolTableRecord
100
AcDbBlockTableRecord
  2
_D_3
340
0
  0
BLOCK_RECORD
  5
125
330
1
100
AcDbSymbolTableRecord
100
AcDbBlockTableRecord
  2
SW_DOWELSYMBOL_0
340
0
102
{BLKREFS
331
12B
102
}
  0
BLOCK_RECORD
  5
1DB
330
1
100
AcDbSymbolTableRecord
100
AcDbBlockTableRecord
  2
*D8
340
0
  0
BLOCK_RECORD
  5
1F3
330
1
100
AcDbSymbolTableRecord
100
AcDbBlockTableRecord
  2
*D9
340
0
  0
BLOCK_RECORD
  5
1FD
330
1
100
AcDbSymbolTableRecord
100
AcDbBlockTableRecord
  2
*D10
340
0
  0
BLOCK_RECORD
  5
207
330
1
100
AcDbSymbolTableRecord
100
AcDbBlockTableRecord
  2
*D11
340
0
  0
BLOCK_RECORD
  5
24E
330
1
100
AcDbSymbolTableRecord
100
AcDbBlockTableRecord
  2
*D12
340
0
  0
BLOCK_RECORD
  5
258
330
1
100
AcDbSymbolTableRecord
100
AcDbBlockTableRecord
  2
*D13
340
0
  0
BLOCK_RECORD
  5
262
330
1
100
AcDbSymbolTableRecord
100
AcDbBlockTableRecord
  2
*D14
340
0
  0
BLOCK_RECORD
  5
26C
330
1
100
AcDbSymbolTableRecord
100
AcDbBlockTableRecord
  2
*D15
340
0
  0
BLOCK_RECORD
  5
27A
330
1
100
AcDbSymbolTableRecord
100
AcDbBlockTableRecord
  2
*D16
340
0
  0
BLOCK_RECORD
  5
2BF
330
1
100
AcDbSymbolTableRecord
100
AcDbBlockTableRecord
  2
*D17
340
0
  0
BLOCK_RECORD
  5
2CB
330
1
100
AcDbSymbolTableRecord
100
AcDbBlockTableRecord
  2
*D18
340
0
  0
BLOCK_RECORD
  5
3B7
330
1
100
AcDbSymbolTableRecord
100
AcDbBlockTableRecord
  2
*D19
340
0
  0
BLOCK_RECORD
  5
3CF
330
1
100
AcDbSymbolTableRecord
100
AcDbBlockTableRecord
  2
*D20
340
0
  0
BLOCK_RECORD
  5
3DB
330
1
100
AcDbSymbolTableRecord
100
AcDbBlockTableRecord
  2
*D21
340
0
  0
BLOCK_RECORD
  5
3E7
330
1
100
AcDbSymbolTableRecord
100
AcDbBlockTableRecord
  2
*D22
340
0
  0
BLOCK_RECORD
  5
435
330
1
100
AcDbSymbolTableRecord
100
AcDbBlockTableRecord
  2
*D23
340
0
  0
BLOCK_RECORD
  5
441
330
1
100
AcDbSymbolTableRecord
100
AcDbBlockTableRecord
  2
*D24
340
0
  0
BLOCK_RECORD
  5
44D
330
1
100
AcDbSymbolTableRecord
100
AcDbBlockTableRecord
  2
*D25
340
0
  0
BLOCK_RECORD
  5
459
330
1
100
AcDbSymbolTableRecord
100
AcDbBlockTableRecord
  2
*D26
340
0
  0
ENDTAB
  0
ENDSEC
  0
SECTION
  2
BLOCKS
  0
BLOCK
  5
20
330
1F
100
AcDbEntity
  8
0
100
AcDbBlockBegin
  2
*Model_Space
 70
     0
 10
0.0
 20
0.0
 30
0.0
  3
*Model_Space
  1
*Model_Space
  0
ENDBLK
  5
21
330
1F
100
AcDbEntity
  8
0
100
AcDbBlockEnd
  0
BLOCK
  5
1C
330
1B
100
AcDbEntity
 67
     1
  8
0
100
AcDbBlockBegin
  2
*Paper_Space
 70
     0
 10
0.0
 20
0.0
 30
0.0
  3
*Paper_Space
  1
*Paper_Space
  0
ENDBLK
  5
1D
330
1B
100
AcDbEntity
 67
     1
  8
0
100
AcDbBlockEnd
  0
BLOCK
  5
24
330
23
100
AcDbEntity
  8
0
100
AcDbBlockBegin
  2
*Paper_Space0
 70
     0
 10
0.0
 20
0.0
 30
0.0
  3
*Paper_Space0
  1
*Paper_Space0
  0
ENDBLK
  5
25
330
23
100
AcDbEntity
  8
0
100
AcDbBlockEnd
  0
BLOCK
  5
80
330
7F
100
AcDbEntity
  8
0
100
AcDbBlockBegin
  2
블럭10
 70
     2
 10
0.0
 20
0.0
 30
0.0
  3
블럭10
  1
블럭10
  0
ELLIPSE
  5
82
330
7F
100
AcDbEntity
  8
중심선
100
AcDbEllipse
 10
20.54032771741204
 20
12.0471743016438
 30
0.0
 11
6.600054785286829
 21
-1.261213355974178E-13
 31
0.0
210
0.0
220
0.0
230
1.0
 40
0.636358354079598
 41
0.9219305317359503
 42
6.513795318482858
  0
ELLIPSE
  5
83
330
7F
100
AcDbEntity
  8
중심선
100
AcDbEllipse
 10
20.54032771746488
 20
12.04717430159265
 30
0.0
 11
3.960054785062283
 21
1.540847449632565E-10
 31
0.0
210
0.0
220
0.0
230
1.0
 40
0.3939339440162632
 41
1.131841032648279
 42
5.62031148352944
  0
LINE
  5
84
330
7F
100
AcDbEntity
  8
중심선
100
AcDbLine
 10
2.268634060543552
 20
16.24717430164393
 30
0.0
 11
5.714909304380834
 21
16.24717430164393
 31
0.0
  0
LINE
  5
85
330
7F
100
AcDbEntity
  8
중심선
100
AcDbLine
 10
5.245725140726316
 20
7.84717430164391
 30
0.0
 11
8.692000384563599
 21
7.84717430164391
 31
0.0
  0
LINE
  5
86
330
7F
100
AcDbEntity
  8
중심선
100
AcDbLine
 10
15.74043728645272
 20
16.24717430164393
 30
0.0
 11
8.692000384563599
 21
7.84717430164391
 31
0.0
  0
LINE
  5
87
330
7F
100
AcDbEntity
  8
중심선
100
AcDbLine
 10
0.1404042013395286
 20
13.71084872107135
 30
0.0
 11
3.58671253028996
 21
13.71088815037384
 31
0.0
  0
LINE
  5
88
330
7F
100
AcDbEntity
  8
중심선
100
AcDbLine
 10
2.750260043222114
 20
10.84717430164391
 30
0.0
 11
6.196535287059397
 21
10.84717430164391
 31
0.0
  0
LINE
  5
89
330
7F
100
AcDbEntity
  8
중심선
100
AcDbLine
 10
12.29416204261559
 20
16.24717430164393
 30
0.0
 11
5.245725140726316
 21
7.84717430164391
 31
0.0
  0
LINE
  5
8A
330
7F
100
AcDbEntity
  8
중심선
100
AcDbLine
 10
10.72767329541681
 20
16.24717430164393
 30
0.0
 11
6.196535287059397
 21
10.84717430164391
 31
0.0
  0
LINE
  5
8B
330
7F
100
AcDbEntity
  8
중심선
100
AcDbLine
 10
7.28139805157953
 20
16.24717430164393
 30
0.0
 11
2.750260043222114
 21
10.84717430164391
 31
0.0
  0
LINE
  5
8C
330
7F
100
AcDbEntity
  8
중심선
100
AcDbLine
 10
5.714909304380834
 20
16.24717430164393
 30
0.0
 11
3.58671253028996
 21
13.71088815037384
 31
0.0
  0
LINE
  5
8D
330
7F
100
AcDbEntity
  8
중심선
100
AcDbLine
 10
2.268634060543552
 20
16.24717430164393
 30
0.0
 11
0.1404042013395286
 21
13.71084872107135
 31
0.0
  0
LINE
  5
8E
330
7F
100
AcDbEntity
  8
중심선
100
AcDbLine
 10
7.28139805157953
 20
16.24717430164393
 30
0.0
 11
10.72767329541681
 21
16.24717430164393
 31
0.0
  0
LINE
  5
8F
330
7F
100
AcDbEntity
  8
중심선
100
AcDbLine
 10
12.29416204261559
 20
16.24717430164393
 30
0.0
 11
15.74043728645272
 21
16.24717430164393
 31
0.0
  0
LINE
  5
90
330
7F
100
AcDbEntity
  8
중심선
100
AcDbLine
 10
19.22036997980202
 20
11.08717430171403
 30
0.0
 11
23.66174974927406
 21
11.08717430171406
 31
0.0
  0
LINE
  5
91
330
7F
100
AcDbEntity
  8
중심선
100
AcDbLine
 10
19.22039502424796
 20
13.00717430171391
 30
0.0
 11
19.22036997980202
 21
11.08717430171403
 31
0.0
  0
LINE
  5
92
330
7F
100
AcDbEntity
  8
중심선
100
AcDbLine
 10
19.22039502424796
 20
13.00717430171391
 30
0.0
 11
26.96566020931264
 21
13.00717430171391
 31
0.0
  0
LINE
  5
93
330
7F
100
AcDbEntity
  8
중심선
100
AcDbLine
 10
22.22332737316547
 20
13.45928029700563
 30
0.0
 11
24.52862924686651
 21
15.39360700705356
 31
0.0
  0
ATTDEF
  5
95
330
7F
100
AcDbEntity
  8
FORMAT
 62
     2
100
AcDbText
 10
4.408487351596664
 20
2.075366912832191
 30
0.0
 40
4.233333333333333
  1
E2036056
 41
0.75
  7
SLDTEXTSTYLE0
 11
4.408487351596664
 21
-0.0412997538344756
 31
0.0
100
AcDbAttributeDefinition
  3

  2
AUTOATTR0
 70
     0
 74
     1
  0
ENDBLK
  5
81
330
7F
100
AcDbEntity
  8
0
100
AcDbBlockEnd
  0
BLOCK
  5
D3
330
D2
100
AcDbEntity
  8
0
100
AcDbBlockBegin
  2
_D
 70
     0
 10
0.0
 20
0.0
 30
0.0
  3
_D
  1
_D
  0
LINE
  5
D5
330
D2
100
AcDbEntity
  8
치수문자_일반주서
 62
     0
370
    -2
100
AcDbLine
 10
139.0
 20
11.17500000000002
 30
0.0
 11
139.0
 21
24.2524726843073
 31
0.0
  0
LINE
  5
D6
330
D2
100
AcDbEntity
  8
치수문자_일반주서
 62
     0
370
    -2
100
AcDbLine
 10
11.99999999999998
 20
10.29411885905991
 30
0.0
 11
11.99999999999998
 21
24.2524726843073
 31
0.0
  0
LINE
  5
D7
330
D2
100
AcDbEntity
  8
치수문자_일반주서
 62
     0
370
    -2
100
AcDbLine
 10
135.698
 20
24.2524726843073
 30
0.0
 11
15.30199999999998
 21
24.2524726843073
 31
0.0
  0
SOLID
  5
D8
330
D2
100
AcDbEntity
  8
치수문자_일반주서
 62
     0
100
AcDbTrace
 10
135.698
 20
23.70213935097397
 30
0.0
 11
135.698
 21
24.80280601764063
 31
0.0
 12
139.0
 22
24.2524726843073
 32
0.0
 13
139.0
 23
24.2524726843073
 33
0.0
  0
SOLID
  5
D9
330
D2
100
AcDbEntity
  8
치수문자_일반주서
 62
     0
100
AcDbTrace
 10
15.30199999999998
 20
24.80280601764063
 30
0.0
 11
15.30199999999998
 21
23.70213935097397
 31
0.0
 12
11.99999999999998
 22
24.2524726843073
 32
0.0
 13
11.99999999999998
 23
24.2524726843073
 33
0.0
  0
MTEXT
  5
DA
330
D2
100
AcDbEntity
  8
치수문자_일반주서
 62
     0
100
AcDbMText
 10
75.49999999999996
 20
28.6274726843073
 30
0.0
 40
3.5
 41
0.0
 71
     2
 72
     1
  1
\A1;127 [5]
  7
SLDTEXTSTYLE0
 73
     1
 44
1.0
  0
POINT
  5
DB
330
D2
100
AcDbEntity
  8
Defpoints
 62
     0
100
AcDbPoint
 10
139.0
 20
11.11250000000002
 30
0.0
  0
POINT
  5
46B
330
D2
100
AcDbEntity
  8
Defpoints
 62
     0
100
AcDbPoint
 10
11.99999999999998
 20
10.23161885905991
 30
0.0
  0
POINT
  5
46C
330
D2
100
AcDbEntity
  8
Defpoints
 62
     0
100
AcDbPoint
 10
11.99999999999998
 20
24.2524726843073
 30
0.0
  0
ENDBLK
  5
D4
330
D2
100
AcDbEntity
  8
0
100
AcDbBlockEnd
  0
BLOCK
  5
E7
330
E6
100
AcDbEntity
  8
0
100
AcDbBlockBegin
  2
_D_1
 70
     0
 10
0.0
 20
0.0
 30
0.0
  3
_D_1
  1
_D_1
  0
LINE
  5
E9
330
E6
100
AcDbEntity
  8
치수문자_일반주서
 62
     0
370
    -2
100
AcDbLine
 10
139.0
 20
11.17500000000002
 30
0.0
 11
139.0
 21
39.97367788211007
 31
0.0
  0
LINE
  5
EA
330
E6
100
AcDbEntity
  8
치수문자_일반주서
 62
     0
370
    -2
100
AcDbLine
 10
-45.15000000000001
 20
11.17499999999997
 30
0.0
 11
-45.15000000000002
 21
39.97367788211007
 31
0.0
  0
LINE
  5
EB
330
E6
100
AcDbEntity
  8
치수문자_일반주서
 62
     0
370
    -2
100
AcDbLine
 10
135.698
 20
39.97367788211007
 30
0.0
 11
-41.84800000000002
 21
39.97367788211007
 31
0.0
  0
SOLID
  5
EC
330
E6
100
AcDbEntity
  8
치수문자_일반주서
 62
     0
100
AcDbTrace
 10
135.698
 20
39.42334454877673
 30
0.0
 11
135.698
 21
40.5240112154434
 31
0.0
 12
139.0
 22
39.97367788211007
 32
0.0
 13
139.0
 23
39.97367788211007
 33
0.0
  0
SOLID
  5
ED
330
E6
100
AcDbEntity
  8
치수문자_일반주서
 62
     0
100
AcDbTrace
 10
-41.84800000000002
 20
40.5240112154434
 30
0.0
 11
-41.84800000000002
 21
39.42334454877673
 31
0.0
 12
-45.15000000000002
 22
39.97367788211007
 32
0.0
 13
-45.15000000000002
 23
39.97367788211007
 33
0.0
  0
MTEXT
  5
EE
330
E6
100
AcDbEntity
  8
치수문자_일반주서
 62
     0
100
AcDbMText
 10
46.925
 20
44.34867788211007
 30
0.0
 40
3.5
 41
0.0
 71
     2
 72
     1
  1
\A1;184.15 [7 1/4]
  7
SLDTEXTSTYLE0
 73
     1
 44
1.0
  0
POINT
  5
EF
330
E6
100
AcDbEntity
  8
Defpoints
 62
     0
100
AcDbPoint
 10
139.0
 20
11.11250000000002
 30
0.0
  0
POINT
  5
465
330
E6
100
AcDbEntity
  8
Defpoints
 62
     0
100
AcDbPoint
 10
-45.15000000000001
 20
11.11249999999997
 30
0.0
  0
POINT
  5
466
330
E6
100
AcDbEntity
  8
Defpoints
 62
     0
100
AcDbPoint
 10
-45.15000000000001
 20
39.97367788211007
 30
0.0
  0
ENDBLK
  5
E8
330
E6
100
AcDbEntity
  8
0
100
AcDbBlockEnd
  0
BLOCK
  5
FB
330
FA
100
AcDbEntity
  8
0
100
AcDbBlockBegin
  2
_D_2
 70
     0
 10
0.0
 20
0.0
 30
0.0
  3
_D_2
  1
_D_2
  0
LINE
  5
FD
330
FA
100
AcDbEntity
  8
치수문자_일반주서
 62
     0
370
    -2
100
AcDbLine
 10
-45.21250000000001
 20
11.11249999999997
 30
0.0
 11
-55.18077283782725
 21
11.11249999999993
 31
0.0
  0
LINE
  5
FE
330
FA
100
AcDbEntity
  8
치수문자_일반주서
 62
     0
370
    -2
100
AcDbLine
 10
-42.99000000000002
 20
-11.1125
 30
0.0
 11
-55.18077283782717
 21
-11.11250000000005
 31
0.0
  0
LINE
  5
FF
330
FA
100
AcDbEntity
  8
치수문자_일반주서
 62
     0
370
    -2
100
AcDbLine
 10
-55.18077283782723
 20
7.81049999999993
 30
0.0
 11
-55.18077283782718
 21
-7.810500000000051
 31
0.0
  0
SOLID
  5
100
330
FA
100
AcDbEntity
  8
치수문자_일반주서
 62
     0
100
AcDbTrace
 10
-54.6304395044939
 20
7.810499999999932
 30
0.0
 11
-55.73110617116057
 21
7.810499999999928
 31
0.0
 12
-55.18077283782725
 22
11.11249999999993
 32
0.0
 13
-55.18077283782725
 23
11.11249999999993
 33
0.0
  0
SOLID
  5
101
330
FA
100
AcDbEntity
  8
치수문자_일반주서
 62
     0
100
AcDbTrace
 10
-55.73110617116052
 20
-7.810500000000053
 30
0.0
 11
-54.63043950449385
 21
-7.810500000000049
 31
0.0
 12
-55.18077283782717
 22
-11.11250000000005
 32
0.0
 13
-55.18077283782717
 23
-11.11250000000005
 33
0.0
  0
MTEXT
  5
102
330
FA
100
AcDbEntity
  8
치수문자_일반주서
 62
     0
100
AcDbMText
 10
-59.55577283782721
 20
-0.0000000000000199
 30
0.0
 40
3.5
 41
0.0
 71
     2
 72
     1
  1
\A1;%%c22.23 [7/8]
  7
SLDTEXTSTYLE0
 11
-3.516746948643919E-15
 21
1.0
 31
0.0
 73
     1
 44
1.0
  0
POINT
  5
103
330
FA
100
AcDbEntity
  8
Defpoints
 62
     0
100
AcDbPoint
 10
-45.15000000000001
 20
11.11249999999997
 30
0.0
  0
POINT
  5
46D
330
FA
100
AcDbEntity
  8
Defpoints
 62
     0
100
AcDbPoint
 10
-42.92750000000002
 20
-11.1125
 30
0.0
  0
POINT
  5
46E
330
FA
100
AcDbEntity
  8
Defpoints
 62
     0
100
AcDbPoint
 10
-55.18077283782717
 20
-11.11250000000005
 30
0.0
  0
ENDBLK
  5
FC
330
FA
100
AcDbEntity
  8
0
100
AcDbBlockEnd
  0
BLOCK
  5
110
330
10F
100
AcDbEntity
  8
0
100
AcDbBlockBegin
  2
_NONE
 70
     0
 10
0.0
 20
0.0
 30
0.0
  3
_NONE
  1
_NONE
  0
ENDBLK
  5
111
330
10F
100
AcDbEntity
  8
0
100
AcDbBlockEnd
  0
BLOCK
  5
113
330
112
100
AcDbEntity
  8
0
100
AcDbBlockBegin
  2
_D_3
 70
     0
 10
0.0
 20
0.0
 30
0.0
  3
_D_3
  1
_D_3
  0
LINE
  5
115
330
112
100
AcDbEntity
  8
치수문자_일반주서
100
AcDbLine
 10
-8.884833931663604
 20
-2.238291502344711
 30
0.0
 11
-8.884833931663604
 21
-2.949228987909211
 31
0.0
  0
LINE
  5
116
330
112
100
AcDbEntity
  8
치수문자_일반주서
100
AcDbLine
 10
-8.884833931663604
 20
-2.949228987909211
 30
0.0
 11
-3.328583940604301
 21
-2.949228987909211
 31
0.0
  0
LINE
  5
117
330
112
100
AcDbEntity
  8
치수문자_일반주서
100
AcDbLine
 10
-3.328583940604301
 20
-2.949228987909211
 30
0.0
 11
-3.328583940604301
 21
-2.238291502344711
 31
0.0
  0
LINE
  5
118
330
112
100
AcDbEntity
  8
치수문자_일반주서
100
AcDbLine
 10
-8.884833931663604
 20
8.590441359792548
 30
0.0
 11
-8.884833931663604
 21
9.301378845357048
 31
0.0
  0
LINE
  5
119
330
112
100
AcDbEntity
  8
치수문자_일반주서
100
AcDbLine
 10
-8.884833931663604
 20
9.301378845357048
 30
0.0
 11
-3.328583940604301
 21
9.301378845357048
 31
0.0
  0
LINE
  5
11A
330
112
100
AcDbEntity
  8
치수문자_일반주서
100
AcDbLine
 10
-3.328583940604301
 20
9.301378845357048
 30
0.0
 11
-3.328583940604301
 21
8.590441359792548
 31
0.0
  0
MTEXT
  5
11B
330
112
100
AcDbEntity
  8
치수문자_일반주서
100
AcDbMText
 10
-7.840320855183196
 20
-1.34961960173334
 30
0.0
 40
3.5
 41
0.0
 71
     1
 72
     1
  1
0.00
  7
SLDTEXTSTYLE0
 11
6.123233995736766E-17
 21
1.0
 31
0.0
 73
     1
 44
1.0
  0
MTEXT
  5
11C
330
112
100
AcDbEntity
  8
치수문자_일반주서
100
AcDbMText
 10
-2.603689304822725
 20
-0.7561994836398495
 30
0.0
 40
3.5
 41
0.0
 71
     1
 72
     1
  1
%%c
  7
SLDTEXTSTYLE0
 11
6.123233995736766E-17
 21
1.0
 31
0.0
 73
     1
 44
1.0
  0
MTEXT
  5
11D
330
112
100
AcDbEntity
  8
치수문자_일반주서
100
AcDbMText
 10
-2.603689304822725
 20
4.522237914734231
 30
0.0
 40
3.5
 41
0.0
 71
     1
 72
     1
  1
0
  7
SLDTEXTSTYLE0
 11
6.123233995736766E-17
 21
1.0
 31
0.0
 73
     1
 44
1.0
  0
ENDBLK
  5
114
330
112
100
AcDbEntity
  8
0
100
AcDbBlockEnd
  0
BLOCK
  5
126
330
125
100
AcDbEntity
  8
0
100
AcDbBlockBegin
  2
SW_DOWELSYMBOL_0
 70
     0
 10
0.0
 20
0.0
 30
0.0
  3
SW_DOWELSYMBOL_0
  1
SW_DOWELSYMBOL_0
  0
CIRCLE
  5
128
330
125
100
AcDbEntity
  8
해칭선
 62
     0
100
AcDbCircle
 10
0.0
 20
0.0
 30
0.0
 40
3.000000000000001
  0
HATCH
  5
129
330
125
100
AcDbEntity
  8
0
  6
Continuous
 62
     0
370
     0
100
AcDbHatch
 10
0.0
 20
0.0
 30
0.0
210
0.0
220
0.0
230
1.0
  2
SOLID
 70
     1
 71
     0
 91
        1
 92
        0
 93
        3
 72
     2
 10
0.0
 20
0.0
 40
3.000000000000001
 50
0.0
 51
90.0
 73
     1
 72
     1
 10
0.0
 20
3.000000000000001
 11
0.0
 21
0.0
 72
     1
 10
0.0
 20
0.0
 11
3.000000000000001
 21
0.0
 97
        0
 75
     0
 76
     1
 98
        1
 10
0.0
 20
0.0
  0
HATCH
  5
12A
330
125
100
AcDbEntity
  8
0
  6
Continuous
 62
     0
370
     0
100
AcDbHatch
 10
0.0
 20
0.0
 30
0.0
210
0.0
220
0.0
230
1.0
  2
SOLID
 70
     1
 71
     0
 91
        1
 92
        0
 93
        3
 72
     2
 10
0.0
 20
0.0
 40
3.000000000000001
 50
180.0
 51
270.0000000000007
 73
     1
 72
     1
 10
0.0
 20
-3.000000000000001
 11
0.0
 21
0.0
 72
     1
 10
0.0
 20
0.0
 11
-3.000000000000001
 21
0.0
 97
        0
 75
     0
 76
     1
 98
        1
 10
0.0
 20
0.0
  0
ENDBLK
  5
127
330
125
100
AcDbEntity
  8
0
100
AcDbBlockEnd
  0
BLOCK
  5
1DC
330
1DB
100
AcDbEntity
  8
0
100
AcDbBlockBegin
  2
*D8
 70
     1
 10
0.0
 20
0.0
 30
0.0
  3
*D8
  1
*D9
  0
LINE
  5
1DD
330
1DB
100
AcDbEntity
  8
치수문자_일반주서
 62
     0
370
    -2
100
AcDbLine
 10
173.5357728378272
 20
25.654
 30
0.0
 11
202.546544452832
 21
25.65399999999999
 31
0.0
  0
LINE
  5
1DE
330
1DB
100
AcDbEntity
  8
치수문자_일반주서
 62
     0
370
    -2
100
AcDbLine
 10
173.5357728378272
 20
6.603999999999997
 30
0.0
 11
202.546544452832
 21
6.603999999999999
 31
0.0
  0
LINE
  5
1DF
330
1DB
100
AcDbEntity
  8
치수문자_일반주서
 62
     0
370
    -2
100
AcDbLine
 10
202.546544452832
 20
25.65399999999999
 30
0.0
 11
202.546544452832
 21
61.94162012429228
 31
0.0
  0
LINE
  5
1E0
330
1DB
100
AcDbEntity
  8
치수문자_일반주서
 62
     0
370
    -2
100
AcDbLine
 10
202.546544452832
 20
25.65399999999999
 30
0.0
 11
202.546544452832
 21
6.603999999999999
 31
0.0
  0
MTEXT
  5
1E1
330
1DB
100
AcDbEntity
  8
치수문자_일반주서
 62
     0
100
AcDbMText
 10
199.921544452832
 20
49.47287012429228
 30
0.0
 40
3.5
 41
0.0
 71
     5
 72
     1
  1
\A1;19.05 [3/4]
  7
SLDTEXTSTYLE0
 11
0.0
 21
1.0
 31
0.0
 73
     1
 44
1.0
  0
POINT
  5
1E2
330
1DB
100
AcDbEntity
  8
Defpoints
 62
     0
100
AcDbPoint
 10
173.4732728378272
 20
25.654
 30
0.0
  0
POINT
  5
1E3
330
1DB
100
AcDbEntity
  8
Defpoints
 62
     0
100
AcDbPoint
 10
173.4732728378272
 20
6.603999999999997
 30
0.0
  0
POINT
  5
1E4
330
1DB
100
AcDbEntity
  8
Defpoints
 62
     0
100
AcDbPoint
 10
202.546544452832
 20
6.603999999999996
 30
0.0
  0
ENDBLK
  5
1E9
330
1DB
100
AcDbEntity
  8
0
100
AcDbBlockEnd
  0
BLOCK
  5
1F4
330
1F3
100
AcDbEntity
  8
0
100
AcDbBlockBegin
  2
*D9
 70
     1
 10
0.0
 20
0.0
 30
0.0
  3
*D9
  1
*D10
  0
LINE
  5
1F6
330
1F3
100
AcDbEntity
  8
치수문자_일반주서
 62
     0
370
    -2
100
AcDbLine
 10
173.4732728378272
 20
25.7165
 30
0.0
 11
173.4732728378272
 21
38.79981057025607
 31
0.0
  0
LINE
  5
1F7
330
1F3
100
AcDbEntity
  8
치수문자_일반주서
 62
     0
370
    -2
100
AcDbLine
 10
71.87327283782724
 20
25.70927367922916
 30
0.0
 11
71.87327283782724
 21
38.79981057025607
 31
0.0
  0
LINE
  5
1F8
330
1F3
100
AcDbEntity
  8
치수문자_일반주서
 62
     0
370
    -2
100
AcDbLine
 10
173.4732728378272
 20
38.79981057025607
 30
0.0
 11
71.87327283782724
 21
38.79981057025607
 31
0.0
  0
MTEXT
  5
1F9
330
1F3
100
AcDbEntity
  8
치수문자_일반주서
 62
     0
100
AcDbMText
 10
122.6732728378272
 20
43.17481057025607
 30
0.0
 40
3.5
 41
0.0
 71
     2
 72
     1
  1
\A1;101.6 [4]
  7
SLDTEXTSTYLE0
 73
     1
 44
1.0
  0
POINT
  5
1FA
330
1F3
100
AcDbEntity
  8
Defpoints
 62
     0
100
AcDbPoint
 10
173.4732728378272
 20
25.654
 30
0.0
  0
POINT
  5
1FB
330
1F3
100
AcDbEntity
  8
Defpoints
 62
     0
100
AcDbPoint
 10
71.87327283782724
 20
25.64677367922916
 30
0.0
  0
POINT
  5
1FC
330
1F3
100
AcDbEntity
  8
Defpoints
 62
     0
100
AcDbPoint
 10
71.87327283782724
 20
38.79981057025607
 30
0.0
  0
ENDBLK
  5
1F5
330
1F3
100
AcDbEntity
  8
0
100
AcDbBlockEnd
  0
BLOCK
  5
1FE
330
1FD
100
AcDbEntity
  8
0
100
AcDbBlockBegin
  2
*D10
 70
     1
 10
0.0
 20
0.0
 30
0.0
  3
*D10
  1
*D11
  0
LINE
  5
200
330
1FD
100
AcDbEntity
  8
치수문자_일반주서
 62
     0
370
    -2
100
AcDbLine
 10
173.4732728378272
 20
25.7165
 30
0.0
 11
173.4732728378272
 21
54.52101576805885
 31
0.0
  0
LINE
  5
201
330
1FD
100
AcDbEntity
  8
치수문자_일반주서
 62
     0
370
    -2
100
AcDbLine
 10
14.72327283782724
 20
23.81149999999999
 30
0.0
 11
14.72327283782724
 21
54.52101576805885
 31
0.0
  0
LINE
  5
202
330
1FD
100
AcDbEntity
  8
치수문자_일반주서
 62
     0
370
    -2
100
AcDbLine
 10
173.4732728378272
 20
54.52101576805885
 30
0.0
 11
14.72327283782724
 21
54.52101576805885
 31
0.0
  0
MTEXT
  5
203
330
1FD
100
AcDbEntity
  8
치수문자_일반주서
 62
     0
100
AcDbMText
 10
94.09827283782724
 20
58.89601576805885
 30
0.0
 40
3.5
 41
0.0
 71
     2
 72
     1
  1
\A1;158.75 [6 1/4]
  7
SLDTEXTSTYLE0
 73
     1
 44
1.0
  0
POINT
  5
204
330
1FD
100
AcDbEntity
  8
Defpoints
 62
     0
100
AcDbPoint
 10
173.4732728378272
 20
25.654
 30
0.0
  0
POINT
  5
205
330
1FD
100
AcDbEntity
  8
Defpoints
 62
     0
100
AcDbPoint
 10
14.72327283782724
 20
23.74899999999999
 30
0.0
  0
POINT
  5
206
330
1FD
100
AcDbEntity
  8
Defpoints
 62
     0
100
AcDbPoint
 10
14.72327283782724
 20
54.52101576805885
 30
0.0
  0
ENDBLK
  5
1FF
330
1FD
100
AcDbEntity
  8
0
100
AcDbBlockEnd
  0
BLOCK
  5
208
330
207
100
AcDbEntity
  8
0
100
AcDbBlockBegin
  2
*D11
 70
     1
 10
0.0
 20
0.0
 30
0.0
  3
*D11
  1
*D12
  0
LINE
  5
20A
330
207
100
AcDbEntity
  8
치수문자_일반주서
 62
     0
370
    -2
100
AcDbLine
 10
16.56577283782723
 20
25.65399999999999
 30
0.0
 11
4.375000000000003
 21
25.65399999999995
 31
0.0
  0
LINE
  5
20B
330
207
100
AcDbEntity
  8
치수문자_일반주서
 62
     0
370
    -2
100
AcDbLine
 10
16.56577283782723
 20
6.603999999999976
 30
0.0
 11
4.375000000000069
 21
6.603999999999933
 31
0.0
  0
LINE
  5
20C
330
207
100
AcDbEntity
  8
치수문자_일반주서
 62
     0
370
    -2
100
AcDbLine
 10
4.375000000000003
 20
25.65399999999995
 30
0.0
 11
4.375000000000069
 21
6.603999999999933
 31
0.0
  0
MTEXT
  5
20D
330
207
100
AcDbEntity
  8
치수문자_일반주서
 62
     0
100
AcDbMText
 10
0.0000000000000355
 20
16.12899999999997
 30
0.0
 40
3.5
 41
0.0
 71
     2
 72
     1
  1
\A1;%%c19.05 [3/4]
  7
SLDTEXTSTYLE0
 11
-3.496765431890253E-15
 21
1.0
 31
0.0
 73
     1
 44
1.0
  0
POINT
  5
20E
330
207
100
AcDbEntity
  8
Defpoints
 62
     0
100
AcDbPoint
 10
16.62827283782723
 20
25.65399999999999
 30
0.0
  0
POINT
  5
20F
330
207
100
AcDbEntity
  8
Defpoints
 62
     0
100
AcDbPoint
 10
16.62827283782723
 20
6.603999999999976
 30
0.0
  0
POINT
  5
210
330
207
100
AcDbEntity
  8
Defpoints
 62
     0
100
AcDbPoint
 10
4.375000000000071
 20
6.60399999999993
 30
0.0
  0
ENDBLK
  5
209
330
207
100
AcDbEntity
  8
0
100
AcDbBlockEnd
  0
BLOCK
  5
24F
330
24E
100
AcDbEntity
  8
0
100
AcDbBlockBegin
  2
*D12
 70
     1
 10
0.0
 20
0.0
 30
0.0
  3
*D12
  1
*D13
  0
LINE
  5
251
330
24E
100
AcDbEntity
  8
치수문자_일반주서
 62
     0
370
    -2
100
AcDbLine
 10
296.5443008822753
 20
-70.08670313257966
 30
0.0
 11
296.5443008822753
 21
-57.00339256232358
 31
0.0
  0
LINE
  5
252
330
24E
100
AcDbEntity
  8
치수문자_일반주서
 62
     0
370
    -2
100
AcDbLine
 10
194.9443008822753
 20
-70.09392945335048
 30
0.0
 11
194.9443008822753
 21
-57.00339256232358
 31
0.0
  0
LINE
  5
253
330
24E
100
AcDbEntity
  8
치수문자_일반주서
 62
     0
370
    -2
100
AcDbLine
 10
296.5443008822753
 20
-57.00339256232358
 30
0.0
 11
194.9443008822753
 21
-57.00339256232358
 31
0.0
  0
MTEXT
  5
254
330
24E
100
AcDbEntity
  8
치수문자_일반주서
 62
     0
100
AcDbMText
 10
245.7443008822753
 20
-52.62839256232358
 30
0.0
 40
3.5
 41
0.0
 71
     2
 72
     1
  1
\A1;101.6 [4]
  7
SLDTEXTSTYLE0
 73
     1
 44
1.0
  0
POINT
  5
255
330
24E
100
AcDbEntity
  8
Defpoints
 62
     0
100
AcDbPoint
 10
296.5443008822753
 20
-70.14920313257966
 30
0.0
  0
POINT
  5
256
330
24E
100
AcDbEntity
  8
Defpoints
 62
     0
100
AcDbPoint
 10
194.9443008822753
 20
-70.15642945335048
 30
0.0
  0
POINT
  5
257
330
24E
100
AcDbEntity
  8
Defpoints
 62
     0
100
AcDbPoint
 10
194.9443008822753
 20
-57.00339256232358
 30
0.0
  0
ENDBLK
  5
250
330
24E
100
AcDbEntity
  8
0
100
AcDbBlockEnd
  0
BLOCK
  5
259
330
258
100
AcDbEntity
  8
0
100
AcDbBlockBegin
  2
*D13
 70
     1
 10
0.0
 20
0.0
 30
0.0
  3
*D13
  1
*D14
  0
LINE
  5
25B
330
258
100
AcDbEntity
  8
치수문자_일반주서
 62
     0
370
    -2
100
AcDbLine
 10
296.5443008822753
 20
-70.08670313257966
 30
0.0
 11
296.5443008822753
 21
-41.2821873645208
 31
0.0
  0
LINE
  5
25C
330
258
100
AcDbEntity
  8
치수문자_일반주서
 62
     0
370
    -2
100
AcDbLine
 10
137.7943008822753
 20
-71.99170313257966
 30
0.0
 11
137.7943008822753
 21
-41.2821873645208
 31
0.0
  0
LINE
  5
25D
330
258
100
AcDbEntity
  8
치수문자_일반주서
 62
     0
370
    -2
100
AcDbLine
 10
296.5443008822753
 20
-41.2821873645208
 30
0.0
 11
137.7943008822753
 21
-41.2821873645208
 31
0.0
  0
MTEXT
  5
25E
330
258
100
AcDbEntity
  8
치수문자_일반주서
 62
     0
100
AcDbMText
 10
217.1693008822753
 20
-36.9071873645208
 30
0.0
 40
3.5
 41
0.0
 71
     2
 72
     1
  1
\A1;158.75 [6 1/4]
  7
SLDTEXTSTYLE0
 73
     1
 44
1.0
  0
POINT
  5
25F
330
258
100
AcDbEntity
  8
Defpoints
 62
     0
100
AcDbPoint
 10
296.5443008822753
 20
-70.14920313257966
 30
0.0
  0
POINT
  5
260
330
258
100
AcDbEntity
  8
Defpoints
 62
     0
100
AcDbPoint
 10
137.7943008822753
 20
-72.05420313257966
 30
0.0
  0
POINT
  5
261
330
258
100
AcDbEntity
  8
Defpoints
 62
     0
100
AcDbPoint
 10
137.7943008822753
 20
-41.2821873645208
 30
0.0
  0
ENDBLK
  5
25A
330
258
100
AcDbEntity
  8
0
100
AcDbBlockEnd
  0
BLOCK
  5
263
330
262
100
AcDbEntity
  8
0
100
AcDbBlockBegin
  2
*D14
 70
     1
 10
0.0
 20
0.0
 30
0.0
  3
*D14
  1
*D15
  0
LINE
  5
265
330
262
100
AcDbEntity
  8
치수문자_일반주서
 62
     0
370
    -2
100
AcDbLine
 10
139.6368008822753
 20
-70.14920313257966
 30
0.0
 11
127.446028044448
 21
-70.1492031325797
 31
0.0
  0
LINE
  5
266
330
262
100
AcDbEntity
  8
치수문자_일반주서
 62
     0
370
    -2
100
AcDbLine
 10
139.6368008822753
 20
-89.19920313257968
 30
0.0
 11
127.4460280444481
 21
-89.19920313257973
 31
0.0
  0
LINE
  5
267
330
262
100
AcDbEntity
  8
치수문자_일반주서
 62
     0
370
    -2
100
AcDbLine
 10
127.446028044448
 20
-70.1492031325797
 30
0.0
 11
127.4460280444481
 21
-89.19920313257973
 31
0.0
  0
MTEXT
  5
268
330
262
100
AcDbEntity
  8
치수문자_일반주서
 62
     0
100
AcDbMText
 10
123.0710280444481
 20
-79.67420313257968
 30
0.0
 40
3.5
 41
0.0
 71
     2
 72
     1
  1
\A1;%%c19.05 [3/4]
  7
SLDTEXTSTYLE0
 11
-3.729883127349602E-15
 21
1.0
 31
0.0
 73
     1
 44
1.0
  0
POINT
  5
269
330
262
100
AcDbEntity
  8
Defpoints
 62
     0
100
AcDbPoint
 10
139.6993008822753
 20
-70.14920313257966
 30
0.0
  0
POINT
  5
26A
330
262
100
AcDbEntity
  8
Defpoints
 62
     0
100
AcDbPoint
 10
139.6993008822753
 20
-89.19920313257968
 30
0.0
  0
POINT
  5
26B
330
262
100
AcDbEntity
  8
Defpoints
 62
     0
100
AcDbPoint
 10
127.4460280444481
 20
-89.19920313257973
 30
0.0
  0
ENDBLK
  5
264
330
262
100
AcDbEntity
  8
0
100
AcDbBlockEnd
  0
BLOCK
  5
26D
330
26C
100
AcDbEntity
  8
0
100
AcDbBlockBegin
  2
*D15
 70
     1
 10
0.0
 20
0.0
 30
0.0
  3
*D15
  1
*D16
  0
LINE
  5
26F
330
26C
100
AcDbEntity
  8
치수문자_일반주서
 62
     0
370
    -2
100
AcDbLine
 10
296.6068008822753
 20
-70.14920313257966
 30
0.0
 11
325.6175724972801
 21
-70.14920313257966
 31
0.0
  0
LINE
  5
270
330
26C
100
AcDbEntity
  8
치수문자_일반주서
 62
     0
370
    -2
100
AcDbLine
 10
296.6068008822753
 20
-89.19920313257965
 30
0.0
 11
325.6175724972801
 21
-89.19920313257965
 31
0.0
  0
LINE
  5
271
330
26C
100
AcDbEntity
  8
치수문자_일반주서
 62
     0
370
    -2
100
AcDbLine
 10
325.6175724972801
 20
-70.14920313257966
 30
0.0
 11
325.6175724972801
 21
-33.86158300828738
 31
0.0
  0
LINE
  5
272
330
26C
100
AcDbEntity
  8
치수문자_일반주서
 62
     0
370
    -2
100
AcDbLine
 10
325.6175724972801
 20
-70.14920313257966
 30
0.0
 11
325.6175724972801
 21
-89.19920313257965
 31
0.0
  0
MTEXT
  5
273
330
26C
100
AcDbEntity
  8
치수문자_일반주서
 62
     0
100
AcDbMText
 10
322.9925724972801
 20
-46.33033300828738
 30
0.0
 40
3.5
 41
0.0
 71
     5
 72
     1
  1
\A1;19.05 [3/4]
  7
SLDTEXTSTYLE0
 11
0.0
 21
1.0
 31
0.0
 73
     1
 44
1.0
  0
POINT
  5
274
330
26C
100
AcDbEntity
  8
Defpoints
 62
     0
100
AcDbPoint
 10
296.5443008822753
 20
-70.14920313257966
 30
0.0
  0
POINT
  5
275
330
26C
100
AcDbEntity
  8
Defpoints
 62
     0
100
AcDbPoint
 10
296.5443008822753
 20
-89.19920313257965
 30
0.0
  0
POINT
  5
276
330
26C
100
AcDbEntity
  8
Defpoints
 62
     0
100
AcDbPoint
 10
325.6175724972801
 20
-89.19920313257965
 30
0.0
  0
ENDBLK
  5
26E
330
26C
100
AcDbEntity
  8
0
100
AcDbBlockEnd
  0
BLOCK
  5
27B
330
27A
100
AcDbEntity
  8
0
100
AcDbBlockBegin
  2
*D16
 70
     1
 10
0.0
 20
0.0
 30
0.0
  3
*D16
  1
*D17
  0
LINE
  5
27D
330
27A
100
AcDbEntity
  8
치수문자_일반주서
 62
     0
370
    -2
100
AcDbLine
 10
139.0625
 20
11.11250000000002
 30
0.0
 11
167.0599032825248
 21
11.11250000000002
 31
0.0
  0
LINE
  5
27E
330
27A
100
AcDbEntity
  8
치수문자_일반주서
 62
     0
370
    -2
100
AcDbLine
 10
139.0625
 20
-11.11249999999998
 30
0.0
 11
167.0599032825248
 21
-11.11249999999998
 31
0.0
  0
LINE
  5
27F
330
27A
100
AcDbEntity
  8
치수문자_일반주서
 62
     0
370
    -2
100
AcDbLine
 10
167.0599032825248
 20
11.11250000000002
 30
0.0
 11
167.0599032825248
 21
43.96650000000002
 31
0.0
  0
LINE
  5
280
330
27A
100
AcDbEntity
  8
치수문자_일반주서
 62
     0
370
    -2
100
AcDbLine
 10
167.0599032825248
 20
11.11250000000002
 30
0.0
 11
167.0599032825248
 21
-11.11249999999998
 31
0.0
  0
LINE
  5
281
330
27A
100
AcDbEntity
  8
치수문자_일반주서
 62
     0
370
    -2
100
AcDbLine
 10
167.0599032825248
 20
14.41450000000002
 30
0.0
 11
167.0599032825248
 21
17.71650000000002
 31
0.0
  0
LINE
  5
282
330
27A
100
AcDbEntity
  8
치수문자_일반주서
 62
     0
370
    -2
100
AcDbLine
 10
167.0599032825248
 20
-14.41449999999998
 30
0.0
 11
167.0599032825248
 21
-17.71649999999998
 31
0.0
  0
SOLID
  5
283
330
27A
100
AcDbEntity
  8
치수문자_일반주서
 62
     0
100
AcDbTrace
 10
166.5095699491915
 20
14.41450000000002
 30
0.0
 11
167.6102366158581
 21
14.41450000000002
 31
0.0
 12
167.0599032825248
 22
11.11250000000002
 32
0.0
 13
167.0599032825248
 23
11.11250000000002
 33
0.0
  0
SOLID
  5
284
330
27A
100
AcDbEntity
  8
치수문자_일반주서
 62
     0
100
AcDbTrace
 10
167.6102366158581
 20
-14.41449999999998
 30
0.0
 11
166.5095699491915
 21
-14.41449999999998
 31
0.0
 12
167.0599032825248
 22
-11.11249999999998
 32
0.0
 13
167.0599032825248
 23
-11.11249999999998
 33
0.0
  0
MTEXT
  5
467
330
27A
100
AcDbEntity
  8
치수문자_일반주서
 62
     0
100
AcDbMText
 10
164.4349032825248
 20
30.84150000000002
 30
0.0
 40
3.5
 41
0.0
 71
     5
 72
     1
  1
\A1;22.23 [7/8]
  7
SLDTEXTSTYLE0
 11
0.0
 21
1.0
 31
0.0
 73
     1
 44
1.0
  0
POINT
  5
468
330
27A
100
AcDbEntity
  8
Defpoints
 62
     0
100
AcDbPoint
 10
139.0
 20
11.11250000000002
 30
0.0
  0
POINT
  5
469
330
27A
100
AcDbEntity
  8
Defpoints
 62
     0
100
AcDbPoint
 10
139.0
 20
-11.11249999999998
 30
0.0
  0
POINT
  5
46A
330
27A
100
AcDbEntity
  8
Defpoints
 62
     0
100
AcDbPoint
 10
167.0599032825248
 20
-11.11249999999998
 30
0.0
  0
ENDBLK
  5
27C
330
27A
100
AcDbEntity
  8
0
100
AcDbBlockEnd
  0
BLOCK
  5
2C0
330
2BF
100
AcDbEntity
  8
0
100
AcDbBlockBegin
  2
*D17
 70
     1
 10
0.0
 20
0.0
 30
0.0
  3
*D17
  1
*D19
  0
LINE
  5
2C2
330
2BF
100
AcDbEntity
  8
치수문자_일반주서
 62
     0
370
    -2
100
AcDbLine
 10
16.45863175063572
 20
28.00000000000004
 30
0.0
 11
4.87499999999998
 21
28.0
 31
0.0
  0
LINE
  5
2C3
330
2BF
100
AcDbEntity
  8
치수문자_일반주서
 62
     0
370
    -2
100
AcDbLine
 10
16.45863175063572
 20
8.000000000000043
 30
0.0
 11
4.87500000000005
 21
8.0
 31
0.0
  0
LINE
  5
2C4
330
2BF
100
AcDbEntity
  8
치수문자_일반주서
 62
     0
370
    -2
100
AcDbLine
 10
4.87499999999998
 20
28.0
 30
0.0
 11
4.87500000000005
 21
8.0
 31
0.0
  0
MTEXT
  5
2C5
330
2BF
100
AcDbEntity
  8
치수문자_일반주서
 62
     0
100
AcDbMText
 10
0.0000000000000142
 20
18.00000000000003
 30
0.0
 40
4.0
 41
0.0
 71
     2
 72
     1
  1
\A1;%%c20 [0.79]
  7
SLDTEXTSTYLE0
 11
-3.508304757815495E-15
 21
1.0
 31
0.0
 73
     1
 44
1.0
  0
POINT
  5
2C6
330
2BF
100
AcDbEntity
  8
Defpoints
 62
     0
100
AcDbPoint
 10
16.52113175063572
 20
28.00000000000004
 30
0.0
  0
POINT
  5
2C7
330
2BF
100
AcDbEntity
  8
Defpoints
 62
     0
100
AcDbPoint
 10
16.52113175063572
 20
8.000000000000043
 30
0.0
  0
POINT
  5
2C8
330
2BF
100
AcDbEntity
  8
Defpoints
 62
     0
100
AcDbPoint
 10
4.875000000000057
 20
7.999999999999999
 30
0.0
  0
ENDBLK
  5
2C1
330
2BF
100
AcDbEntity
  8
0
100
AcDbBlockEnd
  0
BLOCK
  5
2CC
330
2CB
100
AcDbEntity
  8
0
100
AcDbBlockBegin
  2
*D18
 70
     1
 10
0.0
 20
0.0
 30
0.0
  3
*D18
  1
*D20
  0
LINE
  5
2CE
330
2CB
100
AcDbEntity
  8
치수문자_일반주서
 62
     0
370
    -2
100
AcDbLine
 10
116.8782466134381
 20
-67.66062922877276
 30
0.0
 11
105.2946148628024
 21
-67.6606292287728
 31
0.0
  0
LINE
  5
2CF
330
2CB
100
AcDbEntity
  8
치수문자_일반주서
 62
     0
370
    -2
100
AcDbLine
 10
116.8782466134381
 20
-87.66062922877276
 30
0.0
 11
105.2946148628025
 21
-87.6606292287728
 31
0.0
  0
LINE
  5
2D0
330
2CB
100
AcDbEntity
  8
치수문자_일반주서
 62
     0
370
    -2
100
AcDbLine
 10
105.2946148628024
 20
-67.6606292287728
 30
0.0
 11
105.2946148628025
 21
-87.6606292287728
 31
0.0
  0
MTEXT
  5
2D1
330
2CB
100
AcDbEntity
  8
치수문자_일반주서
 62
     0
100
AcDbMText
 10
100.4196148628024
 20
-77.66062922877278
 30
0.0
 40
4.0
 41
0.0
 71
     2
 72
     1
  1
\A1;%%c20 [0.79]
  7
SLDTEXTSTYLE0
 11
-3.552713678800501E-15
 21
1.0
 31
0.0
 73
     1
 44
1.0
  0
POINT
  5
2D2
330
2CB
100
AcDbEntity
  8
Defpoints
 62
     0
100
AcDbPoint
 10
116.9407466134381
 20
-67.66062922877276
 30
0.0
  0
POINT
  5
2D3
330
2CB
100
AcDbEntity
  8
Defpoints
 62
     0
100
AcDbPoint
 10
116.9407466134381
 20
-87.66062922877276
 30
0.0
  0
POINT
  5
2D4
330
2CB
100
AcDbEntity
  8
Defpoints
 62
     0
100
AcDbPoint
 10
105.2946148628025
 20
-87.6606292287728
 30
0.0
  0
ENDBLK
  5
2CD
330
2CB
100
AcDbEntity
  8
0
100
AcDbBlockEnd
  0
BLOCK
  5
3B8
330
3B7
100
AcDbEntity
  8
0
100
AcDbBlockBegin
  2
*D19
 70
     1
 10
0.0
 20
0.0
 30
0.0
  3
*D19
  1
*D20
  0
LINE
  5
3B9
330
3B7
100
AcDbEntity
  8
치수문자_일반주서
 62
     0
370
    -2
100
AcDbLine
 10
230.0507728378273
 20
25.47848751394913
 30
0.0
 11
257.8571260017421
 21
25.47848751394913
 31
0.0
  0
LINE
  5
3BA
330
3B7
100
AcDbEntity
  8
치수문자_일반주서
 62
     0
370
    -2
100
AcDbLine
 10
230.0507728378273
 20
0.0784875139491277
 30
0.0
 11
257.8571260017421
 21
0.078487513949126
 31
0.0
  0
LINE
  5
3BB
330
3B7
100
AcDbEntity
  8
치수문자_일반주서
 62
     0
370
    -2
100
AcDbLine
 10
257.8571260017421
 20
22.17648751394913
 30
0.0
 11
257.8571260017421
 21
3.380487513949126
 31
0.0
  0
SOLID
  5
3BC
330
3B7
100
AcDbEntity
  8
치수문자_일반주서
 62
     0
100
AcDbTrace
 10
258.4074593350755
 20
22.17648751394913
 30
0.0
 11
257.3067926684088
 21
22.17648751394913
 31
0.0
 12
257.8571260017421
 22
25.47848751394913
 32
0.0
 13
257.8571260017421
 23
25.47848751394913
 33
0.0
  0
SOLID
  5
3BD
330
3B7
100
AcDbEntity
  8
치수문자_일반주서
 62
     0
100
AcDbTrace
 10
257.3067926684088
 20
3.380487513949126
 30
0.0
 11
258.4074593350755
 21
3.380487513949126
 31
0.0
 12
257.8571260017421
 22
0.078487513949126
 32
0.0
 13
257.8571260017421
 23
0.078487513949126
 33
0.0
  0
MTEXT
  5
3BE
330
3B7
100
AcDbEntity
  8
치수문자_일반주서
 62
     0
100
AcDbMText
 10
255.2321260017421
 20
12.77848751394913
 30
0.0
 40
3.5
 41
0.0
 71
     5
 72
     1
  1
\A1;25.4 [1]
  7
SLDTEXTSTYLE0
 11
0.0
 21
1.0
 31
0.0
 73
     1
 44
1.0
  0
POINT
  5
3BF
330
3B7
100
AcDbEntity
  8
Defpoints
 62
     0
100
AcDbPoint
 10
229.9882728378273
 20
25.47848751394913
 30
0.0
  0
POINT
  5
3C0
330
3B7
100
AcDbEntity
  8
Defpoints
 62
     0
100
AcDbPoint
 10
229.9882728378273
 20
0.0784875139491277
 30
0.0
  0
POINT
  5
3C1
330
3B7
100
AcDbEntity
  8
Defpoints
 62
     0
100
AcDbPoint
 10
257.8571260017421
 20
0.078487513949126
 30
0.0
  0
ENDBLK
  5
3C2
330
3B7
100
AcDbEntity
  8
0
100
AcDbBlockEnd
  0
BLOCK
  5
3D0
330
3CF
100
AcDbEntity
  8
0
100
AcDbBlockBegin
  2
*D20
 70
     1
 10
0.0
 20
0.0
 30
0.0
  3
*D20
  1
*D21
  0
LINE
  5
3D2
330
3CF
100
AcDbEntity
  8
치수문자_일반주서
 62
     0
370
    -2
100
AcDbLine
 10
229.9882728378273
 20
25.54098751394913
 30
0.0
 11
229.9882728378273
 21
38.61262231230762
 31
0.0
  0
LINE
  5
3D3
330
3CF
100
AcDbEntity
  8
치수문자_일반주서
 62
     0
370
    -2
100
AcDbLine
 10
77.58827283782722
 20
24.05858705905318
 30
0.0
 11
77.58827283782722
 21
38.61262231230762
 31
0.0
  0
LINE
  5
3D4
330
3CF
100
AcDbEntity
  8
치수문자_일반주서
 62
     0
370
    -2
100
AcDbLine
 10
226.6862728378273
 20
38.61262231230762
 30
0.0
 11
80.89027283782723
 21
38.61262231230762
 31
0.0
  0
SOLID
  5
3D5
330
3CF
100
AcDbEntity
  8
치수문자_일반주서
 62
     0
100
AcDbTrace
 10
226.6862728378273
 20
38.06228897897429
 30
0.0
 11
226.6862728378273
 21
39.16295564564096
 31
0.0
 12
229.9882728378273
 22
38.61262231230762
 32
0.0
 13
229.9882728378273
 23
38.61262231230762
 33
0.0
  0
SOLID
  5
3D6
330
3CF
100
AcDbEntity
  8
치수문자_일반주서
 62
     0
100
AcDbTrace
 10
80.89027283782723
 20
39.16295564564096
 30
0.0
 11
80.89027283782723
 21
38.06228897897429
 31
0.0
 12
77.58827283782722
 22
38.61262231230762
 32
0.0
 13
77.58827283782722
 23
38.61262231230762
 33
0.0
  0
MTEXT
  5
3D7
330
3CF
100
AcDbEntity
  8
치수문자_일반주서
 62
     0
100
AcDbMText
 10
153.7882728378273
 20
42.98762231230762
 30
0.0
 40
3.5
 41
0.0
 71
     2
 72
     1
  1
\A1;152.4 [6]
  7
SLDTEXTSTYLE0
 73
     1
 44
1.0
  0
POINT
  5
3D8
330
3CF
100
AcDbEntity
  8
Defpoints
 62
     0
100
AcDbPoint
 10
229.9882728378273
 20
25.47848751394913
 30
0.0
  0
POINT
  5
3D9
330
3CF
100
AcDbEntity
  8
Defpoints
 62
     0
100
AcDbPoint
 10
77.58827283782722
 20
23.99608705905318
 30
0.0
  0
POINT
  5
3DA
330
3CF
100
AcDbEntity
  8
Defpoints
 62
     0
100
AcDbPoint
 10
77.58827283782722
 20
38.61262231230762
 30
0.0
  0
ENDBLK
  5
3D1
330
3CF
100
AcDbEntity
  8
0
100
AcDbBlockEnd
  0
BLOCK
  5
3DC
330
3DB
100
AcDbEntity
  8
0
100
AcDbBlockBegin
  2
*D21
 70
     1
 10
0.0
 20
0.0
 30
0.0
  3
*D21
  1
*D22
  0
LINE
  5
3DE
330
3DB
100
AcDbEntity
  8
치수문자_일반주서
 62
     0
370
    -2
100
AcDbLine
 10
229.9882728378273
 20
25.54098751394913
 30
0.0
 11
229.9882728378273
 21
54.3338275101104
 31
0.0
  0
LINE
  5
3DF
330
3DB
100
AcDbEntity
  8
치수문자_일반주서
 62
     0
370
    -2
100
AcDbLine
 10
14.08827283782724
 20
25.54098751394908
 30
0.0
 11
14.08827283782725
 21
54.3338275101104
 31
0.0
  0
LINE
  5
3E0
330
3DB
100
AcDbEntity
  8
치수문자_일반주서
 62
     0
370
    -2
100
AcDbLine
 10
226.6862728378273
 20
54.3338275101104
 30
0.0
 11
17.39027283782725
 21
54.3338275101104
 31
0.0
  0
SOLID
  5
3E1
330
3DB
100
AcDbEntity
  8
치수문자_일반주서
 62
     0
100
AcDbTrace
 10
226.6862728378273
 20
53.78349417677706
 30
0.0
 11
226.6862728378273
 21
54.88416084344373
 31
0.0
 12
229.9882728378273
 22
54.3338275101104
 32
0.0
 13
229.9882728378273
 23
54.3338275101104
 33
0.0
  0
SOLID
  5
3E2
330
3DB
100
AcDbEntity
  8
치수문자_일반주서
 62
     0
100
AcDbTrace
 10
17.39027283782725
 20
54.88416084344373
 30
0.0
 11
17.39027283782725
 21
53.78349417677706
 31
0.0
 12
14.08827283782725
 22
54.3338275101104
 32
0.0
 13
14.08827283782725
 23
54.3338275101104
 33
0.0
  0
MTEXT
  5
3E3
330
3DB
100
AcDbEntity
  8
치수문자_일반주서
 62
     0
100
AcDbMText
 10
122.0382728378273
 20
58.7088275101104
 30
0.0
 40
3.5
 41
0.0
 71
     2
 72
     1
  1
\A1;215.9 [8 1/2]
  7
SLDTEXTSTYLE0
 73
     1
 44
1.0
  0
POINT
  5
3E4
330
3DB
100
AcDbEntity
  8
Defpoints
 62
     0
100
AcDbPoint
 10
229.9882728378273
 20
25.47848751394913
 30
0.0
  0
POINT
  5
3E5
330
3DB
100
AcDbEntity
  8
Defpoints
 62
     0
100
AcDbPoint
 10
14.08827283782724
 20
25.47848751394908
 30
0.0
  0
POINT
  5
3E6
330
3DB
100
AcDbEntity
  8
Defpoints
 62
     0
100
AcDbPoint
 10
14.08827283782724
 20
54.3338275101104
 30
0.0
  0
ENDBLK
  5
3DD
330
3DB
100
AcDbEntity
  8
0
100
AcDbBlockEnd
  0
BLOCK
  5
3E8
330
3E7
100
AcDbEntity
  8
0
100
AcDbBlockBegin
  2
*D22
 70
     1
 10
0.0
 20
0.0
 30
0.0
  3
*D22
  1
*D23
  0
LINE
  5
3EA
330
3E7
100
AcDbEntity
  8
치수문자_일반주서
 62
     0
370
    -2
100
AcDbLine
 10
14.02577283782724
 20
25.47848751394908
 30
0.0
 11
4.374999999999984
 21
25.47848751394905
 31
0.0
  0
LINE
  5
3EB
330
3E7
100
AcDbEntity
  8
치수문자_일반주서
 62
     0
370
    -2
100
AcDbLine
 10
16.56577283782723
 20
0.0784875139491132
 30
0.0
 11
4.375000000000073
 21
0.0784875139490691
 31
0.0
  0
LINE
  5
3EC
330
3E7
100
AcDbEntity
  8
치수문자_일반주서
 62
     0
370
    -2
100
AcDbLine
 10
4.374999999999996
 20
22.17648751394905
 30
0.0
 11
4.375000000000061
 21
3.380487513949069
 31
0.0
  0
SOLID
  5
3ED
330
3E7
100
AcDbEntity
  8
치수문자_일반주서
 62
     0
100
AcDbTrace
 10
4.925333333333329
 20
22.17648751394905
 30
0.0
 11
3.824666666666662
 21
22.17648751394904
 31
0.0
 12
4.374999999999984
 22
25.47848751394905
 32
0.0
 13
4.374999999999984
 23
25.47848751394905
 33
0.0
  0
SOLID
  5
3EE
330
3E7
100
AcDbEntity
  8
치수문자_일반주서
 62
     0
100
AcDbTrace
 10
3.824666666666728
 20
3.380487513949067
 30
0.0
 11
4.925333333333395
 21
3.380487513949071
 31
0.0
 12
4.375000000000073
 22
0.0784875139490691
 32
0.0
 13
4.375000000000073
 23
0.0784875139490691
 33
0.0
  0
MTEXT
  5
3EF
330
3E7
100
AcDbEntity
  8
치수문자_일반주서
 62
     0
100
AcDbMText
 10
0.0000000000000284
 20
12.77848751394908
 30
0.0
 40
3.5
 41
0.0
 71
     2
 72
     1
  1
\A1;%%c25.4 [1]
  7
SLDTEXTSTYLE0
 11
-3.496765431890259E-15
 21
1.0
 31
0.0
 73
     1
 44
1.0
  0
POINT
  5
3F0
330
3E7
100
AcDbEntity
  8
Defpoints
 62
     0
100
AcDbPoint
 10
14.08827283782724
 20
25.47848751394908
 30
0.0
  0
POINT
  5
3F1
330
3E7
100
AcDbEntity
  8
Defpoints
 62
     0
100
AcDbPoint
 10
16.62827283782723
 20
0.0784875139491135
 30
0.0
  0
POINT
  5
3F2
330
3E7
100
AcDbEntity
  8
Defpoints
 62
     0
100
AcDbPoint
 10
4.375000000000071
 20
0.0784875139490677
 30
0.0
  0
ENDBLK
  5
3E9
330
3E7
100
AcDbEntity
  8
0
100
AcDbBlockEnd
  0
BLOCK
  5
436
330
435
100
AcDbEntity
  8
0
100
AcDbBlockBegin
  2
*D23
 70
     1
 10
0.0
 20
0.0
 30
0.0
  3
*D23
  1
*D24
  0
LINE
  5
438
330
435
100
AcDbEntity
  8
치수문자_일반주서
 62
     0
370
    -2
100
AcDbLine
 10
339.2752867482472
 20
-54.59637295105002
 30
0.0
 11
339.2752867482472
 21
-41.52473815269153
 31
0.0
  0
LINE
  5
439
330
435
100
AcDbEntity
  8
치수문자_일반주서
 62
     0
370
    -2
100
AcDbLine
 10
186.8752867482472
 20
-56.07877340594597
 30
0.0
 11
186.8752867482472
 21
-41.52473815269153
 31
0.0
  0
LINE
  5
43A
330
435
100
AcDbEntity
  8
치수문자_일반주서
 62
     0
370
    -2
100
AcDbLine
 10
335.9732867482472
 20
-41.52473815269153
 30
0.0
 11
190.1772867482472
 21
-41.52473815269153
 31
0.0
  0
SOLID
  5
43B
330
435
100
AcDbEntity
  8
치수문자_일반주서
 62
     0
100
AcDbTrace
 10
335.9732867482472
 20
-42.07507148602486
 30
0.0
 11
335.9732867482472
 21
-40.97440481935819
 31
0.0
 12
339.2752867482472
 22
-41.52473815269153
 32
0.0
 13
339.2752867482472
 23
-41.52473815269153
 33
0.0
  0
SOLID
  5
43C
330
435
100
AcDbEntity
  8
치수문자_일반주서
 62
     0
100
AcDbTrace
 10
190.1772867482472
 20
-40.97440481935819
 30
0.0
 11
190.1772867482472
 21
-42.07507148602486
 31
0.0
 12
186.8752867482472
 22
-41.52473815269153
 32
0.0
 13
186.8752867482472
 23
-41.52473815269153
 33
0.0
  0
MTEXT
  5
43D
330
435
100
AcDbEntity
  8
치수문자_일반주서
 62
     0
100
AcDbMText
 10
263.0752867482472
 20
-37.14973815269153
 30
0.0
 40
3.5
 41
0.0
 71
     2
 72
     1
  1
\A1;152.4 [6]
  7
SLDTEXTSTYLE0
 73
     1
 44
1.0
  0
POINT
  5
43E
330
435
100
AcDbEntity
  8
Defpoints
 62
     0
100
AcDbPoint
 10
339.2752867482472
 20
-54.65887295105002
 30
0.0
  0
POINT
  5
43F
330
435
100
AcDbEntity
  8
Defpoints
 62
     0
100
AcDbPoint
 10
186.8752867482472
 20
-56.14127340594597
 30
0.0
  0
POINT
  5
440
330
435
100
AcDbEntity
  8
Defpoints
 62
     0
100
AcDbPoint
 10
186.8752867482472
 20
-41.52473815269153
 30
0.0
  0
ENDBLK
  5
437
330
435
100
AcDbEntity
  8
0
100
AcDbBlockEnd
  0
BLOCK
  5
442
330
441
100
AcDbEntity
  8
0
100
AcDbBlockBegin
  2
*D24
 70
     1
 10
0.0
 20
0.0
 30
0.0
  3
*D24
  1
*D25
  0
LINE
  5
444
330
441
100
AcDbEntity
  8
치수문자_일반주서
 62
     0
370
    -2
100
AcDbLine
 10
339.2752867482472
 20
-54.59637295105002
 30
0.0
 11
339.2752867482472
 21
-25.80353295488875
 31
0.0
  0
LINE
  5
445
330
441
100
AcDbEntity
  8
치수문자_일반주서
 62
     0
370
    -2
100
AcDbLine
 10
123.3752867482472
 20
-54.59637295105006
 30
0.0
 11
123.3752867482472
 21
-25.80353295488875
 31
0.0
  0
LINE
  5
446
330
441
100
AcDbEntity
  8
치수문자_일반주서
 62
     0
370
    -2
100
AcDbLine
 10
335.9732867482472
 20
-25.80353295488875
 30
0.0
 11
126.6772867482472
 21
-25.80353295488875
 31
0.0
  0
SOLID
  5
447
330
441
100
AcDbEntity
  8
치수문자_일반주서
 62
     0
100
AcDbTrace
 10
335.9732867482472
 20
-26.35386628822209
 30
0.0
 11
335.9732867482472
 21
-25.25319962155542
 31
0.0
 12
339.2752867482472
 22
-25.80353295488875
 32
0.0
 13
339.2752867482472
 23
-25.80353295488875
 33
0.0
  0
SOLID
  5
448
330
441
100
AcDbEntity
  8
치수문자_일반주서
 62
     0
100
AcDbTrace
 10
126.6772867482472
 20
-25.25319962155542
 30
0.0
 11
126.6772867482472
 21
-26.35386628822209
 31
0.0
 12
123.3752867482472
 22
-25.80353295488875
 32
0.0
 13
123.3752867482472
 23
-25.80353295488875
 33
0.0
  0
MTEXT
  5
449
330
441
100
AcDbEntity
  8
치수문자_일반주서
 62
     0
100
AcDbMText
 10
231.3252867482472
 20
-21.42853295488875
 30
0.0
 40
3.5
 41
0.0
 71
     2
 72
     1
  1
\A1;215.9 [8 1/2]
  7
SLDTEXTSTYLE0
 73
     1
 44
1.0
  0
POINT
  5
44A
330
441
100
AcDbEntity
  8
Defpoints
 62
     0
100
AcDbPoint
 10
339.2752867482472
 20
-54.65887295105002
 30
0.0
  0
POINT
  5
44B
330
441
100
AcDbEntity
  8
Defpoints
 62
     0
100
AcDbPoint
 10
123.3752867482472
 20
-54.65887295105006
 30
0.0
  0
POINT
  5
44C
330
441
100
AcDbEntity
  8
Defpoints
 62
     0
100
AcDbPoint
 10
123.3752867482472
 20
-25.80353295488875
 30
0.0
  0
ENDBLK
  5
443
330
441
100
AcDbEntity
  8
0
100
AcDbBlockEnd
  0
BLOCK
  5
44E
330
44D
100
AcDbEntity
  8
0
100
AcDbBlockBegin
  2
*D25
 70
     1
 10
0.0
 20
0.0
 30
0.0
  3
*D25
  1
*D26
  0
LINE
  5
450
330
44D
100
AcDbEntity
  8
치수문자_일반주서
 62
     0
370
    -2
100
AcDbLine
 10
123.3127867482472
 20
-54.65887295105006
 30
0.0
 11
113.6620139104199
 21
-54.6588729510501
 31
0.0
  0
LINE
  5
451
330
44D
100
AcDbEntity
  8
치수문자_일반주서
 62
     0
370
    -2
100
AcDbLine
 10
125.8527867482472
 20
-80.05887295105003
 30
0.0
 11
113.66201391042
 21
-80.05887295105008
 31
0.0
  0
LINE
  5
452
330
44D
100
AcDbEntity
  8
치수문자_일반주서
 62
     0
370
    -2
100
AcDbLine
 10
113.6620139104199
 20
-57.9608729510501
 30
0.0
 11
113.66201391042
 21
-76.75687295105007
 31
0.0
  0
SOLID
  5
453
330
44D
100
AcDbEntity
  8
치수문자_일반주서
 62
     0
100
AcDbTrace
 10
114.2123472437533
 20
-57.9608729510501
 30
0.0
 11
113.1116805770866
 21
-57.9608729510501
 31
0.0
 12
113.6620139104199
 22
-54.6588729510501
 32
0.0
 13
113.6620139104199
 23
-54.6588729510501
 33
0.0
  0
SOLID
  5
454
330
44D
100
AcDbEntity
  8
치수문자_일반주서
 62
     0
100
AcDbTrace
 10
113.1116805770867
 20
-76.75687295105007
 30
0.0
 11
114.2123472437533
 21
-76.75687295105007
 31
0.0
 12
113.66201391042
 22
-80.05887295105008
 32
0.0
 13
113.66201391042
 23
-80.05887295105008
 33
0.0
  0
MTEXT
  5
455
330
44D
100
AcDbEntity
  8
치수문자_일반주서
 62
     0
100
AcDbMText
 10
109.28701391042
 20
-67.35887295105007
 30
0.0
 40
3.5
 41
0.0
 71
     2
 72
     1
  1
\A1;%%c25.4 [1]
  7
SLDTEXTSTYLE0
 11
-3.356894814614650E-15
 21
1.0
 31
0.0
 73
     1
 44
1.0
  0
POINT
  5
456
330
44D
100
AcDbEntity
  8
Defpoints
 62
     0
100
AcDbPoint
 10
123.3752867482472
 20
-54.65887295105006
 30
0.0
  0
POINT
  5
457
330
44D
100
AcDbEntity
  8
Defpoints
 62
     0
100
AcDbPoint
 10
125.9152867482472
 20
-80.05887295105003
 30
0.0
  0
POINT
  5
458
330
44D
100
AcDbEntity
  8
Defpoints
 62
     0
100
AcDbPoint
 10
113.66201391042
 20
-80.05887295105008
 30
0.0
  0
ENDBLK
  5
44F
330
44D
100
AcDbEntity
  8
0
100
AcDbBlockEnd
  0
BLOCK
  5
45A
330
459
100
AcDbEntity
  8
0
100
AcDbBlockBegin
  2
*D26
 70
     1
 10
0.0
 20
0.0
 30
0.0
  3
*D26
  1
*D27
  0
LINE
  5
45C
330
459
100
AcDbEntity
  8
치수문자_일반주서
 62
     0
370
    -2
100
AcDbLine
 10
339.3377867482472
 20
-54.65887295105002
 30
0.0
 11
367.1441399121621
 21
-54.65887295105002
 31
0.0
  0
LINE
  5
45D
330
459
100
AcDbEntity
  8
치수문자_일반주서
 62
     0
370
    -2
100
AcDbLine
 10
339.3377867482472
 20
-80.05887295105002
 30
0.0
 11
367.1441399121621
 21
-80.05887295105002
 31
0.0
  0
LINE
  5
45E
330
459
100
AcDbEntity
  8
치수문자_일반주서
 62
     0
370
    -2
100
AcDbLine
 10
367.1441399121621
 20
-57.96087295105002
 30
0.0
 11
367.1441399121621
 21
-76.75687295105001
 31
0.0
  0
SOLID
  5
45F
330
459
100
AcDbEntity
  8
치수문자_일반주서
 62
     0
100
AcDbTrace
 10
367.6944732454954
 20
-57.96087295105002
 30
0.0
 11
366.5938065788287
 21
-57.96087295105002
 31
0.0
 12
367.1441399121621
 22
-54.65887295105002
 32
0.0
 13
367.1441399121621
 23
-54.65887295105002
 33
0.0
  0
SOLID
  5
460
330
459
100
AcDbEntity
  8
치수문자_일반주서
 62
     0
100
AcDbTrace
 10
366.5938065788287
 20
-76.75687295105001
 30
0.0
 11
367.6944732454954
 21
-76.75687295105001
 31
0.0
 12
367.1441399121621
 22
-80.05887295105002
 32
0.0
 13
367.1441399121621
 23
-80.05887295105002
 33
0.0
  0
MTEXT
  5
461
330
459
100
AcDbEntity
  8
치수문자_일반주서
 62
     0
100
AcDbMText
 10
364.5191399121621
 20
-67.35887295105002
 30
0.0
 40
3.5
 41
0.0
 71
     5
 72
     1
  1
\A1;25.4 [1]
  7
SLDTEXTSTYLE0
 11
0.0
 21
1.0
 31
0.0
 73
     1
 44
1.0
  0
POINT
  5
462
330
459
100
AcDbEntity
  8
Defpoints
 62
     0
100
AcDbPoint
 10
339.2752867482472
 20
-54.65887295105002
 30
0.0
  0
POINT
  5
463
330
459
100
AcDbEntity
  8
Defpoints
 62
     0
100
AcDbPoint
 10
339.2752867482472
 20
-80.05887295105002
 30
0.0
  0
POINT
  5
464
330
459
100
AcDbEntity
  8
Defpoints
 62
     0
100
AcDbPoint
 10
367.1441399121621
 20
-80.05887295105002
 30
0.0
  0
ENDBLK
  5
45B
330
459
100
AcDbEntity
  8
0
100
AcDbBlockEnd
  0
ENDSEC
  0
SECTION
  2
ENTITIES
  0
LINE
  5
96
330
1F
100
AcDbEntity
  8
외형선
  6
Continuous
370
    15
100
AcDbLine
 10
-42.92750000000002
 20
-11.1125
 30
0.0
 11
11.49993139242076
 21
-11.1125
 31
0.0
  0
LINE
  5
97
330
1F
100
AcDbEntity
  8
외형선
  6
Continuous
370
    15
100
AcDbLine
 10
11.49993139242076
 20
11.1125
 30
0.0
 11
-11.91092499999988
 21
11.11249999999999
 31
0.0
  0
LINE
  5
99
330
1F
100
AcDbEntity
  8
외형선
  6
Continuous
370
    15
100
AcDbLine
 10
-45.15000000000001
 20
-8.890000000000011
 30
0.0
 11
-42.92750000000002
 21
-11.1125
 31
0.0
  0
LINE
  5
9A
330
1F
100
AcDbEntity
  8
0
  6
Continuous
 62
     1
370
    15
100
AcDbLine
 10
80.18265916401691
 20
-11.11250000000001
 30
0.0
 11
86.95750237160073
 21
-11.11250000000001
 31
0.0
  0
LINE
  5
9B
330
1F
100
AcDbEntity
  8
0
  6
Continuous
 62
     1
370
    15
100
AcDbLine
 10
26.49041905053562
 20
11.11250000000001
 30
0.0
 11
19.71442338034278
 21
11.11250000000001
 31
0.0
  0
LINE
  5
9C
330
1F
100
AcDbEntity
  8
0
  6
Continuous
 62
     1
370
    15
100
AcDbLine
 10
110.4181107794656
 20
-11.11250000000001
 30
0.0
 11
117.1946379699955
 21
-11.11250000000001
 31
0.0
  0
LINE
  5
9D
330
1F
100
AcDbEntity
  8
0
  6
Continuous
 62
     1
370
    15
100
AcDbLine
 10
56.72720006456478
 20
11.11250000000001
 30
0.0
 11
49.95112946741698
 21
11.11250000000001
 31
0.0
  0
LINE
  5
9E
330
1F
100
AcDbEntity
  8
0
  6
Continuous
 62
     1
370
    15
100
AcDbLine
 10
49.95112946741719
 20
-11.11250000000001
 30
0.0
 11
56.72720006456473
 21
-11.11250000000001
 31
0.0
  0
LINE
  5
9F
330
1F
100
AcDbEntity
  8
0
  6
Continuous
 62
     1
370
    15
100
AcDbLine
 10
117.1946379699953
 20
11.11250000000001
 30
0.0
 11
110.4181107794656
 21
11.11250000000001
 31
0.0
  0
LINE
  5
A0
330
1F
100
AcDbEntity
  8
0
  6
Continuous
 62
     1
370
    15
100
AcDbLine
 10
19.71442338034284
 20
-11.11250000000001
 30
0.0
 11
26.49041905053584
 21
-11.11250000000001
 31
0.0
  0
LINE
  5
A1
330
1F
100
AcDbEntity
  8
0
  6
Continuous
 62
     1
370
    15
100
AcDbLine
 10
86.9575023716009
 20
11.11250000000001
 30
0.0
 11
80.18265916401691
 21
11.11250000000001
 31
0.0
  0
LINE
  5
A2
330
1F
100
AcDbEntity
  8
외형선
  6
Continuous
370
    15
100
AcDbLine
 10
11.49993139242075
 20
-7.908837289779593
 30
0.0
 11
11.49993139242076
 21
4.60073086235051
 31
0.0
  0
SPLINE
  5
A3
330
1F
100
AcDbEntity
  8
외형선
  6
Continuous
370
    15
100
AcDbSpline
210
0.0
220
0.0
230
1.0
 70
     8
 71
     3
 72
     8
 73
     4
 74
     0
 42
0.000000001
 43
0.00000001
 40
0.0
 40
0.0
 40
0.0
 40
0.0
 40
1.0
 40
1.0
 40
1.0
 40
1.0
 10
12.0
 20
-8.109094792282216
 30
0.0
 10
11.8331088117962
 20
-8.043203562881287
 30
0.0
 10
11.66639124790494
 20
-7.976420248655852
 30
0.0
 10
11.49993139242074
 20
-7.908781014858925
 30
0.0
  0
LINE
  5
A4
330
1F
100
AcDbEntity
  8
외형선
  6
Continuous
370
    15
100
AcDbLine
 10
11.99999999999999
 20
-10.23161885905016
 30
0.0
 11
12.0
 21
-8.109094792282216
 31
0.0
  0
SPLINE
  5
A5
330
1F
100
AcDbEntity
  8
외형선
  6
Continuous
370
    15
100
AcDbSpline
210
0.0
220
0.0
230
1.0
 70
     8
 71
     3
 72
     8
 73
     4
 74
     0
 42
0.000000001
 43
0.00000001
 40
0.0
 40
0.0
 40
0.0
 40
0.0
 40
1.0
 40
1.0
 40
1.0
 40
1.0
 10
11.99999999999999
 20
-10.23161885905992
 30
0.0
 10
11.8331088117962
 20
-10.19401575396107
 30
0.0
 10
11.66639124790496
 20
-10.15527127581696
 30
0.0
 10
11.49993139242077
 20
-10.11540801677037
 30
0.0
  0
LINE
  5
A6
330
1F
100
AcDbEntity
  8
외형선
  6
Continuous
370
    15
100
AcDbLine
 10
11.49993139242076
 20
-11.1125
 30
0.0
 11
11.49993139242076
 21
-10.11538095091908
 31
0.0
  0
SPLINE
  5
A7
330
1F
100
AcDbEntity
  8
외형선
  6
Continuous
370
    15
100
AcDbSpline
210
0.0
220
0.0
230
1.0
 70
     8
 71
     3
 72
     8
 73
     4
 74
     0
 42
0.000000001
 43
0.00000001
 40
0.0
 40
0.0
 40
0.0
 40
0.0
 40
1.0
 40
1.0
 40
1.0
 40
1.0
 10
11.99999999999999
 20
10.23161885905992
 30
0.0
 10
11.8331088117962
 20
10.19401575396106
 30
0.0
 10
11.66639124790496
 20
10.15527127581696
 30
0.0
 10
11.49993139242077
 20
10.11540801677037
 30
0.0
  0
LINE
  5
A8
330
1F
100
AcDbEntity
  8
외형선
  6
Continuous
370
    15
100
AcDbLine
 10
11.49993139242075
 20
7.8062762552827
 30
0.0
 11
11.49993139242076
 21
11.1125
 31
0.0
  0
SPLINE
  5
A9
330
1F
100
AcDbEntity
  8
외형선
  6
Continuous
370
    15
100
AcDbSpline
210
0.0
220
0.0
230
1.0
 70
     8
 71
     3
 72
     8
 73
     4
 74
     0
 42
0.000000001
 43
0.00000001
 40
0.0
 40
0.0
 40
0.0
 40
0.0
 40
1.0
 40
1.0
 40
1.0
 40
1.0
 10
12.0
 20
7.598041714795999
 30
0.0
 10
11.8331088117962
 20
7.668364864529652
 30
0.0
 10
11.66639124790494
 20
7.737806360333134
 30
0.0
 10
11.49993139242074
 20
7.806333269147922
 30
0.0
  0
LINE
  5
AA
330
1F
100
AcDbEntity
  8
외형선
  6
Continuous
370
    15
100
AcDbLine
 10
11.99999999999999
 20
4.336084843833461
 30
0.0
 11
12.0
 21
7.598041714795999
 31
0.0
  0
SPLINE
  5
AB
330
1F
100
AcDbEntity
  8
외형선
  6
Continuous
370
    15
100
AcDbSpline
210
0.0
220
0.0
230
1.0
 70
     8
 71
     3
 72
     8
 73
     4
 74
     0
 42
0.000000001
 43
0.00000001
 40
0.0
 40
0.0
 40
0.0
 40
0.0
 40
1.0
 40
1.0
 40
1.0
 40
1.0
 10
11.99999999999999
 20
4.336084843834403
 30
0.0
 10
11.8331088117962
 20
4.424814804881114
 30
0.0
 10
11.66639124790496
 20
4.513024769237178
 30
0.0
 10
11.49993139242077
 20
4.600671353645978
 30
0.0
  0
LINE
  5
AC
330
1F
100
AcDbEntity
  8
외형선
  6
Continuous
370
    15
100
AcDbLine
 10
-42.92750000000002
 20
-0.0000000000000021
 30
0.0
 11
-42.92750000000002
 21
9.461500000000001
 31
0.0
  0
LINE
  5
AD
330
1F
100
AcDbEntity
  8
외형선
  6
Continuous
370
    15
100
AcDbLine
 10
-42.92750000000002
 20
-11.1125
 30
0.0
 11
-42.92750000000002
 21
-0.0000000000000021
 31
0.0
  0
LINE
  5
AE
330
1F
100
AcDbEntity
  8
외형선
  6
Continuous
370
    15
100
AcDbLine
 10
-45.15000000000001
 20
-0.0000000000000021
 30
0.0
 11
-45.15000000000001
 21
9.461499999999994
 31
0.0
  0
LINE
  5
AF
330
1F
100
AcDbEntity
  8
외형선
  6
Continuous
370
    15
100
AcDbLine
 10
-45.15000000000001
 20
-8.89000000000002
 30
0.0
 11
-45.15000000000001
 21
-0.0000000000000021
 31
0.0
  0
SPLINE
  5
B0
330
1F
100
AcDbEntity
  8
외형선
  6
Continuous
370
    15
100
AcDbSpline
210
0.0
220
0.0
230
1.0
 70
    24
 71
     3
 72
    30
 73
    26
 74
     0
 42
0.000000001
 43
0.00000001
 40
0.0
 40
0.0
 40
0.0
 40
0.0
 40
0.0625
 40
0.0625
 40
0.1250000000000001
 40
0.1250000000000001
 40
0.1875000000000001
 40
0.1875000000000001
 40
0.2500000000000001
 40
0.2500000000000001
 40
0.3125000000000001
 40
0.3125000000000001
 40
0.3750000000000002
 40
0.3750000000000002
 40
0.4375000000000002
 40
0.4375000000000002
 40
0.5000000000000002
 40
0.5000000000000002
 40
0.6250000000000001
 40
0.6250000000000001
 40
0.7500000000000001
 40
0.7500000000000001
 40
0.875
 40
0.875
 40
1.0
 40
1.0
 40
1.0
 40
1.0
 10
11.99999999999999
 20
-8.109094792282203
 30
0.0
 10
12.0
 20
-7.921072748511886
 30
0.0
 10
12.0
 20
-7.697711124731796
 30
0.0
 10
11.99999999999999
 20
-7.179235746513338
 30
0.0
 10
12.00000000000001
 20
-6.884067099421173
 30
0.0
 10
12.00000000000001
 20
-6.229021634151635
 30
0.0
 10
12.00000000000001
 20
-5.869164506931081
 30
0.0
 10
11.99999999999999
 20
-5.100749887468545
 30
0.0
 10
12.00000000000001
 20
-4.692299043124251
 30
0.0
 10
11.99999999999999
 20
-3.849780816303868
 30
0.0
 10
12.0
 20
-3.415874883268545
 30
0.0
 10
12.0
 20
-2.548417771935259
 30
0.0
 10
11.99999999999999
 20
-2.115020486366227
 30
0.0
 10
11.99999999999999
 20
-1.272457640839472
 30
0.0
 10
12.0
 20
-0.8633846888509412
 30
0.0
 10
12.00000000000002
 20
-0.0873757658594943
 30
0.0
 10
11.99999999999999
 20
0.2795449325136605
 30
0.0
 10
11.99999999999999
 20
1.301662426005882
 30
0.0
 10
12.00000000000001
 20
1.875677861484453
 30
0.0
 10
11.99999999999999
 20
2.804658531151638
 30
0.0
 10
11.99999999999999
 20
3.16165670214774
 30
0.0
 10
12.0
 20
3.709313569825092
 30
0.0
 10
12.00000000000001
 20
3.901014145229114
 30
0.0
 10
11.99999999999999
 20
4.174747632397176
 30
0.0
 10
11.99999999999999
 20
4.284553808444609
 30
0.0
 10
11.99999999999999
 20
4.336084843833461
 30
0.0
  0
SPLINE
  5
B1
330
1F
100
AcDbEntity
  8
외형선
  6
Continuous
370
    15
100
AcDbSpline
210
0.0
220
0.0
230
1.0
 70
    24
 71
     3
 72
    11
 73
     7
 74
     0
 42
0.000000001
 43
0.00000001
 40
0.0
 40
0.0
 40
0.0
 40
0.0
 40
0.0688498642447447
 40
0.4943795500094362
 40
0.9199092357741281
 40
1.0
 40
1.0
 40
1.0
 40
1.0
 10
11.99999999999999
 20
7.725555444310954
 30
0.0
 10
11.99999999999999
 20
7.776890078187378
 30
0.0
 10
12.00000000000003
 20
8.145500727955836
 30
0.0
 10
11.99999999999997
 20
8.92023617843634
 30
0.0
 10
11.99999999999999
 20
9.718916355669913
 30
0.0
 10
12.0
 20
10.16151138232859
 30
0.0
 10
11.99999999999999
 20
10.23161885905016
 30
0.0
  0
SPLINE
  5
B2
330
1F
100
AcDbEntity
  8
0
  6
Continuous
 62
     1
370
    15
100
AcDbSpline
210
0.0
220
0.0
230
1.0
 70
     8
 71
     3
 72
    28
 73
    24
 74
     0
 42
0.000000001
 43
0.00000001
 40
0.0
 40
0.0
 40
0.0
 40
0.0
 40
0.0426589614525457
 40
0.0904641406357895
 40
0.138269383069228
 40
0.1860746524324108
 40
0.2338799124019322
 40
0.2833324285111788
 40
0.3327842658078076
 40
0.3822349864161957
 40
0.4316841531069054
 40
0.481131329549078
 40
0.5296950002327657
 40
0.5782573439689056
 40
0.6268182139020771
 40
0.6753779284266231
 40
0.7248196409108745
 40
0.7742642377460784
 40
0.8237112852398466
 40
0.873160348285634
 40
0.9226109906124914
 40
0.9711791902738491
 40
1.0
 40
1.0
 40
1.0
 40
1.0
 10
26.49041905053565
 20
11.09247732124323
 30
0.0
 10
27.51703523739008
 20
11.07321450684715
 30
0.0
 10
29.69411475232131
 20
11.03236508409442
 30
0.0
 10
33.02157086647639
 20
10.52959946852632
 30
0.0
 10
36.47289672762133
 20
9.704877984192038
 30
0.0
 10
39.92423187390492
 20
8.559753581442516
 30
0.0
 10
43.41515772419509
 20
7.126348262494421
 30
0.0
 10
46.94591080684449
 20
5.437667184065194
 30
0.0
 10
50.5161971270195
 20
3.543663753948281
 30
0.0
 10
54.08640298902136
 20
1.528063124278357
 30
0.0
 10
57.65646624427204
 20
-0.5399131971923218
 30
0.0
 10
61.20516922709969
 20
-2.577186232199667
 30
0.0
 10
64.73244212786273
 20
-4.515205132033736
 30
0.0
 10
68.23838490391915
 20
-6.292138789431
 30
0.0
 10
71.74420941804843
 20
-7.860839008823806
 30
0.0
 10
75.27116143458329
 20
-9.17735641662711
 30
0.0
 10
78.81944061893944
 20
-10.19187033549569
 30
0.0
 10
82.38911081859244
 20
-10.86309549527619
 30
0.0
 10
85.95899633268992
 20
-11.16071537969132
 30
0.0
 10
89.52904839457206
 20
-11.07918862772221
 30
0.0
 10
93.07800200745058
 20
-10.60658946391367
 30
0.0
 10
96.13043962351252
 20
-9.935619839093988
 30
0.0
 10
97.99284781996874
 20
-9.30926282799069
 30
0.0
 10
98.68643613034126
 20
-9.07599822904413
 30
0.0
  0
SPLINE
  5
B3
330
1F
100
AcDbEntity
  8
0
  6
Continuous
 62
     1
370
    15
100
AcDbSpline
210
0.0
220
0.0
230
1.0
 70
     8
 71
     3
 72
    28
 73
    24
 74
     0
 42
0.000000001
 43
0.00000001
 40
0.0
 40
0.0
 40
0.0
 40
0.0
 40
0.0456107990374862
 40
0.095063816246234
 40
0.1445164752409171
 40
0.1939683378310222
 40
0.2434189662870525
 40
0.2928679235935385
 40
0.341433105011969
 40
0.3899971139237253
 40
0.4385598030838434
 40
0.4871210256169136
 40
0.53656110108462
 40
0.5860039123255516
 40
0.6354494916707569
 40
0.6848974050213444
 40
0.7343472169311376
 40
0.7829151070895752
 40
0.8314835600315449
 40
0.8800524272650451
 40
0.9286215601816153
 40
0.9772970308192231
 40
1.0
 40
1.0
 40
1.0
 40
1.0
 10
110.4181107794656
 20
-11.10197668469152
 30
0.0
 10
109.3204735101182
 20
-11.07485459843107
 30
0.0
 10
107.0327348631258
 20
-11.01832568249695
 30
0.0
 10
103.5548003974097
 20
-10.46827548134306
 30
0.0
 10
99.98446155316638
 20
-9.575885148953741
 30
0.0
 10
96.41418256692107
 20
-8.346576907693848
 30
0.0
 10
92.84401747175265
 20
-6.833211006688452
 30
0.0
 10
89.2951961258962
 20
-5.095226985643738
 30
0.0
 10
85.76780851722336
 20
-3.19705637100685
 30
0.0
 10
82.26174437584864
 20
-1.204493723380844
 30
0.0
 10
78.75579963809906
 20
0.82790264283289
 30
0.0
 10
75.22879488156244
 20
2.844961503892614
 30
0.0
 10
71.68062470973499
 20
4.778581686868209
 30
0.0
 10
68.11112007050747
 20
6.559757176690296
 30
0.0
 10
64.54138687971603
 20
8.115966425272331
 30
0.0
 10
60.9714582100205
 20
9.39382335171764
 30
0.0
 10
57.42259762978547
 20
10.34367109057738
 30
0.0
 10
53.89497925265313
 20
10.94050436177034
 30
0.0
 10
50.38852989185498
 20
11.1704882740819
 30
0.0
 10
46.88204986260533
 20
11.03526642571133
 30
0.0
 10
43.37299262618466
 20
10.51775196660062
 30
0.0
 10
40.48639571857926
 20
9.856560521825733
 30
0.0
 10
38.76864102775761
 20
9.263700722834956
 30
0.0
 10
38.22228372567753
 20
9.07513288947721
 30
0.0
  0
LINE
  5
B4
330
1F
100
AcDbEntity
  8
0
  6
Continuous
 62
     1
370
    15
100
AcDbLine
 10
139.0
 20
-10.06438399360447
 30
0.0
 11
139.0
 21
0.9521339936046105
 31
0.0
  0
SPLINE
  5
B5
330
1F
100
AcDbEntity
  8
0
  6
Continuous
 62
     1
370
    15
100
AcDbSpline
210
0.0
220
0.0
230
1.0
 70
     8
 71
     3
 72
    15
 73
    11
 74
     0
 42
0.000000001
 43
0.00000001
 40
0.0
 40
0.0
 40
0.0
 40
0.0
 40
0.1340051990947061
 40
0.2680130781404333
 40
0.4020231621853598
 40
0.5360349755919557
 40
0.6700480421846338
 40
0.8016668240639773
 40
0.933285780085825
 40
1.0
 40
1.0
 40
1.0
 40
1.0
 10
11.99999999999999
 20
-8.109094792282209
 30
0.0
 10
13.17130307452645
 20
-8.54539604937692
 30
0.0
 10
15.51393264830385
 20
-9.418007289093467
 30
0.0
 10
19.02792595456935
 20
-10.34158566432517
 30
0.0
 10
22.54198952213149
 20
-10.94108424237481
 30
0.0
 10
26.0561000400379
 20
-11.17061947396479
 30
0.0
 10
29.54934395721565
 20
-11.0352158606963
 30
0.0
 10
33.02157003572195
 20
-10.52589563134659
 30
0.0
 10
35.90558514209857
 20
-9.868032824137485
 30
0.0
 10
37.6391550430359
 20
-9.274711159020967
 30
0.0
 10
38.22228372567767
 20
-9.075132889477212
 30
0.0
  0
SPLINE
  5
B6
330
1F
100
AcDbEntity
  8
0
  6
Continuous
 62
     1
370
    15
100
AcDbSpline
210
0.0
220
0.0
230
1.0
 70
     8
 71
     3
 72
    22
 73
    18
 74
     0
 42
0.000000001
 43
0.00000001
 40
0.0
 40
0.0
 40
0.0
 40
0.0
 40
0.0494115306136681
 40
0.1180123473252988
 40
0.1853889880766997
 40
0.2527661934591108
 40
0.3201437573089516
 40
0.3875214733618485
 40
0.4561250820959974
 40
0.5247279714917326
 40
0.5933295338622353
 40
0.6619291622887324
 40
0.730526250971096
 40
0.797897492731373
 40
0.8652670007351049
 40
0.9326345709784772
 40
1.0
 40
1.0
 40
1.0
 40
1.0
 10
86.9575023716009
 20
11.07403269478835
 30
0.0
 10
87.8146726639122
 20
11.07023508352
 30
0.0
 10
89.86190085127753
 20
11.0611650341926
 30
0.0
 10
93.07800225266726
 20
10.60695422063641
 30
0.0
 10
96.60567824025591
 20
9.801933779450938
 30
0.0
 10
100.1121641570208
 20
8.66432954248507
 30
0.0
 10
103.6186731842175
 20
7.243474629458802
 30
0.0
 10
107.1464315446552
 20
5.571883497530735
 30
0.0
 10
110.6955560778644
 20
3.701804245648375
 30
0.0
 10
114.2658739008979
 20
1.693448640021207
 30
0.0
 10
117.8361181392902
 20
-0.3729329296412583
 30
0.0
 10
121.4062350261285
 20
-2.426625455307917
 30
0.0
 10
124.9549994962771
 20
-4.384881741592601
 30
0.0
 10
128.4823316804622
 20
-6.185390564851077
 30
0.0
 10
131.9883369376142
 20
-7.763965037629332
 30
0.0
 10
135.4942175695887
 20
-9.109510566198223
 30
0.0
 10
137.8314182377209
 20
-9.746096223413057
 30
0.0
 10
138.9999999999999
 20
-10.06438399360447
 30
0.0
  0
SPLINE
  5
B7
330
1F
100
AcDbEntity
  8
외형선
  6
Continuous
370
    15
100
AcDbSpline
210
0.0
220
0.0
230
1.0
 70
    24
 71
     3
 72
    30
 73
    26
 74
     0
 42
0.000000001
 43
0.00000001
 40
0.0
 40
0.0
 40
0.0
 40
0.0
 40
0.1249999999999999
 40
0.1249999999999999
 40
0.2499999999999998
 40
0.2499999999999998
 40
0.3749999999999999
 40
0.3749999999999999
 40
0.5
 40
0.5
 40
0.5625
 40
0.5625
 40
0.6250000000000001
 40
0.6250000000000001
 40
0.6875000000000002
 40
0.6875000000000002
 40
0.7500000000000002
 40
0.7500000000000002
 40
0.8125000000000002
 40
0.8125000000000002
 40
0.8750000000000001
 40
0.8750000000000001
 40
0.9375
 40
0.9375
 40
1.0
 40
1.0
 40
1.0
 40
1.0
 10
11.99999999999999
 20
4.336084843834404
 30
0.0
 10
11.99999999999999
 20
4.284553808446236
 30
0.0
 10
12.00000000000001
 20
4.17474763239888
 30
0.0
 10
12.00000000000001
 20
3.901014145231786
 30
0.0
 10
12.00000000000002
 20
3.709313569828302
 30
0.0
 10
11.99999999999999
 20
3.161656702152037
 30
0.0
 10
11.99999999999999
 20
2.804658531156488
 30
0.0
 10
11.99999999999999
 20
1.875677861490215
 30
0.0
 10
12.0
 20
1.301662426012
 30
0.0
 10
12.0
 20
0.279544932519949
 30
0.0
 10
11.99999999999999
 20
-0.0873757658532098
 30
0.0
 10
11.99999999999999
 20
-0.8633846888448038
 30
0.0
 10
11.99999999999998
 20
-1.272457640833479
 30
0.0
 10
11.99999999999999
 20
-2.115020486360657
 30
0.0
 10
11.99999999999999
 20
-2.548417771929969
 30
0.0
 10
11.99999999999999
 20
-3.415874883263911
 30
0.0
 10
11.99999999999996
 20
-3.849780816299612
 30
0.0
 10
12.0
 20
-4.692299043120789
 30
0.0
 10
12.00000000000001
 20
-5.100749887465502
 30
0.0
 10
12.00000000000001
 20
-5.869164506928843
 30
0.0
 10
12.00000000000002
 20
-6.229021634149785
 30
0.0
 10
12.0
 20
-6.884067099420015
 30
0.0
 10
12.00000000000001
 20
-7.179235746512485
 30
0.0
 10
12.00000000000001
 20
-7.69771112473145
 30
0.0
 10
11.99999999999999
 20
-7.921072748511733
 30
0.0
 10
11.99999999999998
 20
-8.109094792282193
 30
0.0
  0
SPLINE
  5
B8
330
1F
100
AcDbEntity
  8
0
  6
Continuous
 62
     1
370
    15
100
AcDbSpline
210
0.0
220
0.0
230
1.0
 70
     8
 71
     3
 72
    19
 73
    15
 74
     0
 42
0.000000001
 43
0.00000001
 40
0.0
 40
0.0
 40
0.0
 40
0.0
 40
0.0885418070499519
 40
0.1770890629911376
 40
0.2656409921725257
 40
0.3541968162476644
 40
0.442755754620855
 40
0.5297348043108359
 40
0.6167147224225782
 40
0.7036952429083884
 40
0.7906760995512159
 40
0.879239729680539
 40
0.9678027182971755
 40
1.0
 40
1.0
 40
1.0
 40
1.0
 10
139.0
 20
0.95213399360461
 30
0.0
 10
137.8102264166491
 20
1.63345003448173
 30
0.0
 10
135.4306060308992
 20
2.996124044643873
 30
0.0
 10
131.8610192199607
 20
4.928572732150349
 30
0.0
 10
128.2912080324136
 20
6.694354715108733
 30
0.0
 10
124.7212148859174
 20
8.229891812649761
 30
0.0
 10
121.1723058099723
 20
9.475856432774236
 30
0.0
 10
117.6446560479244
 20
10.39565387064638
 30
0.0
 10
114.1381874625663
 20
10.96627991770344
 30
0.0
 10
110.6316884624717
 20
11.17254815873934
 30
0.0
 10
107.1039324789737
 20
11.01344537896477
 30
0.0
 10
103.55480075262
 20
10.46073898240571
 30
0.0
 10
100.7418878587502
 20
9.80010901261313
 30
0.0
 10
99.11910491623107
 20
9.228422209255495
 30
0.0
 10
98.68643613034138
 20
9.075998229044126
 30
0.0
  0
SPLINE
  5
B9
330
1F
100
AcDbEntity
  8
0
  6
Continuous
 62
     1
370
    15
100
AcDbSpline
210
0.0
220
0.0
230
1.0
 70
     8
 71
     3
 72
    18
 73
    14
 74
     0
 42
0.000000001
 43
0.00000001
 40
0.0
 40
0.0
 40
0.0
 40
0.0
 40
0.0808685754402215
 40
0.1732632014278412
 40
0.2658601170873911
 40
0.3584569496247533
 40
0.4510533695540487
 40
0.5436490475178644
 40
0.6362436543897457
 40
0.7271836540802925
 40
0.8181230907780237
 40
0.9090618956668781
 40
1.0
 40
1.0
 40
1.0
 40
1.0
 10
49.95112946741719
 20
-11.09240509613878
 30
0.0
 10
48.92810506127114
 20
-11.07331154962622
 30
0.0
 10
46.73624644644111
 20
-11.03240308824465
 30
0.0
 10
43.37299252254319
 20
-10.52228886276121
 30
0.0
 10
39.86135617433044
 20
-9.675848037294761
 30
0.0
 10
36.34717148970751
 20
-8.497691641217557
 30
0.0
 10
32.8330029553182
 20
-7.039635661306336
 30
0.0
 10
29.3188749308194
 20
-5.346862882618225
 30
0.0
 10
25.82568534325805
 20
-3.487879663026392
 30
0.0
 10
22.35354688324369
 20
-1.526115261108479
 30
0.0
 10
18.90233387605203
 20
0.4700697301561437
 30
0.0
 10
15.4511559075525
 20
2.461161314400362
 30
0.0
 10
13.15038234846813
 20
3.711111938881491
 30
0.0
 10
11.99999999999999
 20
4.336084843834404
 30
0.0
  0
LINE
  5
BA
330
1F
100
AcDbEntity
  8
0
  6
Continuous
 62
     1
370
    15
100
AcDbLine
 10
139.0
 20
4.670426671587141
 30
0.0
 11
139.0
 21
11.11250000000002
 31
0.0
  0
SPLINE
  5
BB
330
1F
100
AcDbEntity
  8
0
  6
Continuous
 62
     1
370
    15
100
AcDbSpline
210
0.0
220
0.0
230
1.0
 70
     8
 71
     3
 72
    24
 73
    20
 74
     0
 42
0.000000001
 43
0.00000001
 40
0.0
 40
0.0
 40
0.0
 40
0.0
 40
0.0622335150614627
 40
0.1244682747221899
 40
0.186704058409237
 40
0.2489406452312089
 40
0.3111778140468306
 40
0.3723030502301713
 40
0.4334283672872409
 40
0.4945537187775462
 40
0.5556790582568144
 40
0.6189106322971789
 40
0.6821413383859469
 40
0.7453706166412957
 40
0.8085979080076353
 40
0.8718226545783279
 40
0.9339177223343103
 40
0.996011093412576
 40
1.0
 40
1.0
 40
1.0
 40
1.0
 10
12.0
 20
7.598041714796016
 30
0.0
 10
13.17130307421477
 20
7.08012821961822
 30
0.0
 10
15.51393264736882
 20
6.0442908715839
 30
0.0
 10
19.02792595830964
 20
4.221976846653813
 30
0.0
 10
22.54198950810515
 20
2.277450826905255
 30
0.0
 10
26.05610009240383
 20
0.2523555441767971
 30
0.0
 10
29.54934376325242
 20
-1.767721780660866
 30
0.0
 10
33.02157074522157
 20
-3.718126208663546
 30
0.0
 10
36.47289676006421
 20
-5.537459626642996
 30
0.0
 10
39.92423186538835
 20
-7.179258978148099
 30
0.0
 10
43.4151577259349
 20
-8.607060071126643
 30
0.0
 10
46.94591080882144
 20
-9.764425247615124
 30
0.0
 10
50.51619711737479
 20
-10.59963289583026
 30
0.0
 10
54.08640302562198
 20
-11.07184278375012
 30
0.0
 10
57.6564661075208
 20
-11.16187388030416
 30
0.0
 10
61.2051697336294
 20
-10.87950510783321
 30
0.0
 10
64.73244027503794
 20
-10.20123056196478
 30
0.0
 10
67.14485031564807
 20
-9.587261624371482
 30
0.0
 10
68.38856454047617
 20
-9.128356213447399
 30
0.0
 10
68.46363852459925
 20
-9.10065543070652
 30
0.0
  0
SPLINE
  5
BC
330
1F
100
AcDbEntity
  8
0
  6
Continuous
 62
     1
370
    15
100
AcDbSpline
210
0.0
220
0.0
230
1.0
 70
     8
 71
     3
 72
    14
 73
    10
 74
     0
 42
0.000000001
 43
0.00000001
 40
0.0
 40
0.0
 40
0.0
 40
0.0
 40
0.0294189623582036
 40
0.1931424291060346
 40
0.3568598343674738
 40
0.517651569149499
 40
0.6784391660573318
 40
0.8392221382047824
 40
1.0
 40
1.0
 40
1.0
 40
1.0
 10
117.1946379699954
 20
11.08436902507517
 30
0.0
 10
117.4084744811075
 20
11.09323422564322
 30
0.0
 10
118.8123616299772
 20
11.15143635906238
 30
0.0
 10
121.4062339924808
 20
10.88831271806744
 30
0.0
 10
124.9549997677269
 20
10.28446047693537
 30
0.0
 10
128.4823316083092
 20
9.305736008672444
 30
0.0
 10
131.9883369568542
 20
8.03094257773245
 30
0.0
 10
135.4942175647789
 20
6.499216926658553
 30
0.0
 10
137.8314182361177
 20
5.307229443005703
 30
0.0
 10
138.9999999999999
 20
4.711245172910994
 30
0.0
  0
SPLINE
  5
BD
330
1F
100
AcDbEntity
  8
외형선
  6
Continuous
370
    15
100
AcDbSpline
210
0.0
220
0.0
230
1.0
 70
    24
 71
     3
 72
    10
 73
     6
 74
     0
 42
0.000000001
 43
0.00000001
 40
0.0
 40
0.0
 40
0.0
 40
0.0
 40
0.552191938639405
 40
0.9725061457910458
 40
0.9999999999999999
 40
0.9999999999999999
 40
0.9999999999999999
 40
0.9999999999999999
 10
11.99999999999997
 20
10.23161885905991
 30
0.0
 10
11.99999999999999
 20
9.753774682055662
 30
0.0
 10
12.00000000000001
 20
8.912207889153663
 30
0.0
 10
12.00000000000004
 20
8.076786044637654
 30
0.0
 10
11.99999999999997
 20
7.745872389399499
 30
0.0
 10
11.99999999999998
 20
7.725555444310955
 30
0.0
  0
SPLINE
  5
BE
330
1F
100
AcDbEntity
  8
0
  6
Continuous
 62
     1
370
    15
100
AcDbSpline
210
0.0
220
0.0
230
1.0
 70
     8
 71
     3
 72
    10
 73
     6
 74
     0
 42
0.000000001
 43
0.00000001
 40
0.0
 40
0.0
 40
0.0
 40
0.0
 40
0.3545948362766293
 40
0.7092114944333319
 40
1.0
 40
1.0
 40
1.0
 40
1.0
 10
139.0
 20
11.11250000000002
 30
0.0
 10
137.8102262612231
 20
10.97426337739023
 30
0.0
 10
135.4306055646115
 20
10.77951454318519
 30
0.0
 10
132.0752500277444
 20
10.09123804332394
 30
0.0
 10
129.9096601748829
 20
9.402482146145834
 30
0.0
 10
128.933949609831
 20
9.092161886411292
 30
0.0
  0
SPLINE
  5
BF
330
1F
100
AcDbEntity
  8
0
  6
Continuous
 62
     1
370
    15
100
AcDbSpline
210
0.0
220
0.0
230
1.0
 70
     8
 71
     3
 72
    27
 73
    23
 74
     0
 42
0.000000001
 43
0.00000001
 40
0.0
 40
0.0
 40
0.0
 40
0.0
 40
0.0209278193212068
 40
0.0723470493663984
 40
0.1246968560911861
 40
0.1770495595995694
 40
0.2294051941253987
 40
0.2817633000214573
 40
0.3341234162139511
 40
0.3855497062989182
 40
0.436976592289309
 40
0.4884039169538189
 40
0.53983152293783
 40
0.5913717250109692
 40
0.6429118808176176
 40
0.6944518069632348
 40
0.7459913201247858
 40
0.7975302371077886
 40
0.8481481861744171
 40
0.8987658218746309
 40
0.9493831059048463
 40
1.0
 40
1.0
 40
1.0
 40
1.0
 10
80.18265916401694
 20
-11.06803576521499
 30
0.0
 10
79.70702840329058
 20
-11.07897578655419
 30
0.0
 10
78.06278245495234
 20
-11.11679521970908
 30
0.0
 10
75.22879578326868
 20
-10.79266973367505
 30
0.0
 10
71.68062446627773
 20
-10.10720058838282
 30
0.0
 10
68.11112013575568
 20
-9.047790701268323
 30
0.0
 10
64.54138686219967
 20
-7.684215523677798
 30
0.0
 10
60.97145821483312
 20
-6.055359009414628
 30
0.0
 10
57.42259762809134
 20
-4.230129489937599
 30
0.0
 10
53.89497925467397
 20
-2.273974938994809
 30
0.0
 10
50.3885298854433
 20
-0.2543614802965969
 30
0.0
 10
46.88204988623144
 20
1.773683817567659
 30
0.0
 10
43.37299253801002
 20
3.744469233661607
 30
0.0
 10
39.86135617018233
 20
5.592496847012812
 30
0.0
 10
36.34717149081898
 20
7.25598807487617
 30
0.0
 10
32.83300295502038
 20
8.678260329979256
 30
0.0
 10
29.31887493089926
 20
9.812198009635233
 30
0.0
 10
25.82568534323708
 20
10.6147130059187
 30
0.0
 10
22.35354688324927
 20
11.06847530645107
 30
0.0
 10
18.90233387605057
 20
11.1582944071752
 30
0.0
 10
15.45115590755287
 20
10.91388250666854
 30
0.0
 10
13.15038234846824
 20
10.45903949093947
 30
0.0
 10
11.99999999999999
 20
10.23161885905992
 30
0.0
  0
SPLINE
  5
C0
330
1F
100
AcDbEntity
  8
0
  6
Continuous
 62
     1
370
    15
100
AcDbSpline
210
0.0
220
0.0
230
1.0
 70
     8
 71
     3
 72
    29
 73
    25
 74
     0
 42
0.000000001
 43
0.00000001
 40
0.0
 40
0.0
 40
0.0
 40
0.0
 40
0.0128700225698863
 40
0.0623099545689881
 40
0.1108665102509124
 40
0.1594217391796983
 40
0.2079754945214409
 40
0.2565280946238353
 40
0.3059625634655333
 40
0.3553999162356015
 40
0.4048397193051908
 40
0.4542815376315034
 40
0.5037249350075075
 40
0.5522860190035671
 40
0.6008475099521493
 40
0.6494092592627805
 40
0.6979711182723416
 40
0.7474165279724764
 40
0.7968614192161736
 40
0.8463053540188394
 40
0.8957478949494415
 40
0.9451886053832004
 40
0.9937457981068764
 40
1.0
 40
1.0
 40
1.0
 40
1.0
 10
56.72720006456478
 20
11.07573888405631
 30
0.0
 10
57.03697083565966
 20
11.08669195471545
 30
0.0
 10
58.5367197730767
 20
11.13972102529056
 30
0.0
 10
61.20516826252498
 20
10.85562553837911
 30
0.0
 10
64.73244238432855
 20
10.22614730602187
 30
0.0
 10
68.23838483524533
 20
9.232871670616008
 30
0.0
 10
71.74420943628844
 20
7.941900328983574
 30
0.0
 10
75.27116143015775
 20
6.376635516791949
 30
0.0
 10
78.81944061799506
 20
4.586604277158757
 30
0.0
 10
82.38911082681732
 20
2.628411877736263
 30
0.0
 10
85.95899630073247
 20
0.5800521423969178
 30
0.0
 10
89.52904851418316
 20
-1.488248918023854
 30
0.0
 10
93.07800156431735
 20
-3.493503074478983
 30
0.0
 10
96.60567842328273
 20
-5.369001963022793
 30
0.0
 10
100.1121641080235
 20
-7.055533001174433
 30
0.0
 10
103.6186731971782
 20
-8.508554125832976
 30
0.0
 10
107.1464315417144
 20
-9.687139531545386
 30
0.0
 10
110.6955560763601
 20
-10.54546018142619
 30
0.0
 10
114.2658739098643
 20
-11.04771637456363
 30
0.0
 10
117.8361181049297
 20
-11.16884804449055
 30
0.0
 10
121.4062351545982
 20
-10.91476002518552
 30
0.0
 10
124.9549990203978
 20
-10.26058781326169
 30
0.0
 10
127.464193052499
 20
-9.629822991999571
 30
0.0
 10
128.7834204286119
 20
-9.147227934998618
 30
0.0
 10
128.9339496098311
 20
-9.092161886411297
 30
0.0
  0
SPLINE
  5
C1
330
1F
100
AcDbEntity
  8
0
  6
Continuous
 62
     1
370
    15
100
AcDbSpline
210
0.0
220
0.0
230
1.0
 70
     8
 71
     3
 72
    27
 73
    23
 74
     0
 42
0.000000001
 43
0.00000001
 40
0.0
 40
0.0
 40
0.0
 40
0.0
 40
0.0506038897872191
 40
0.1012108937540629
 40
0.1518205685962822
 40
0.2024324694691265
 40
0.2530461502423438
 40
0.3027568845379031
 40
0.3524681151585383
 40
0.4021796900512407
 40
0.4518914570662095
 40
0.5025078192971263
 40
0.5531238148872618
 40
0.603738995338001
 40
0.6543529126225898
 40
0.7049651194450985
 40
0.7546727602167244
 40
0.8043792008993386
 40
0.8540842907841503
 40
0.9037878795406162
 40
0.9543909955857707
 40
1.0
 40
1.0
 40
1.0
 40
1.0
 10
139.0
 20
-11.11249999999998
 30
0.0
 10
137.8102264166502
 20
-10.97601796304316
 30
0.0
 10
135.4306060309024
 20
-10.78477840812172
 30
0.0
 10
131.8610192199475
 20
-10.02623630987991
 30
0.0
 10
128.2912080324632
 20
-8.951024407265415
 30
0.0
 10
124.721214885732
 20
-7.56143533241153
 30
0.0
 10
121.1723058106591
 20
-5.924200148732121
 30
0.0
 10
117.6446560454122
 20
-4.09756651441002
 30
0.0
 10
114.1381874719476
 20
-2.146455641587536
 30
0.0
 10
110.6316884274582
 20
-0.1242682244448132
 30
0.0
 10
107.1039326106514
 20
1.91432009831313
 30
0.0
 10
103.5548002512277
 20
3.900890315063616
 30
0.0
 10
99.98446159239367
 20
5.765537747481223
 30
0.0
 10
96.4141825561914
 20
7.432379148062017
 30
0.0
 10
92.8440174754452
 20
8.844245854009028
 30
0.0
 10
89.29519612190138
 20
9.946073463194113
 30
0.0
 10
85.76780852932971
 20
10.70709692225216
 30
0.0
 10
82.26174433132262
 20
11.10868738851012
 30
0.0
 10
78.75579980409036
 20
11.14465931821758
 30
0.0
 10
75.22879425740366
 20
10.80236655710588
 30
0.0
 10
71.79811148310921
 20
10.14374026860063
 30
0.0
 10
69.53598929053301
 20
9.436106591584876
 30
0.0
 10
68.46363852459923
 20
9.100655430706514
 30
0.0
  0
SPLINE
  5
C2
330
1F
100
AcDbEntity
  8
0
  6
Continuous
 62
     1
370
    15
100
AcDbSpline
210
0.0
220
0.0
230
1.0
 70
     8
 71
     3
 72
    10
 73
     6
 74
     0
 42
0.000000001
 43
0.00000001
 40
0.0
 40
0.0
 40
0.0
 40
0.0
 40
0.1052695767991679
 40
0.552636511566449
 40
1.0
 40
1.0
 40
1.0
 40
1.0
 10
19.71442338034284
 20
-11.0803960933722
 30
0.0
 10
19.4437248005015
 20
-11.09003031138995
 30
0.0
 10
18.0226312291375
 20
-11.1406073232759
 30
0.0
 10
15.4511558366982
 20
-10.89751387680712
 30
0.0
 10
13.15038232485009
 20
-10.45358329499655
 30
0.0
 10
11.99999999999999
 20
-10.23161885905992
 30
0.0
  0
LINE
  5
C3
330
1F
100
AcDbEntity
  8
0
  6
Continuous
 62
     1
370
    15
100
AcDbLine
 10
139.0
 20
0.9521339936046103
 30
0.0
 11
139.0
 21
4.711245172910995
 31
0.0
  0
LINE
  5
C4
330
1F
100
AcDbEntity
  8
0
  6
Continuous
 62
     1
370
    15
100
AcDbLine
 10
139.0
 20
-11.11249999999998
 30
0.0
 11
139.0
 21
-10.06438399360447
 31
0.0
  0
LINE
  5
C5
330
1F
100
AcDbEntity
  8
중심선
100
AcDbLine
 10
-48.15000000000001
 20
-0.000000000000006
 30
0.0
 11
142.0
 21
0.0000000000000177
 31
0.0
  0
LINE
  5
C6
330
1F
100
AcDbEntity
  8
참조1
100
AcDbLine
 10
56.23060364977729
 20
0.0010749287238892
 30
0.0
 11
56.23060364977729
 21
-39.99892507127611
 31
0.0
  0
LINE
  5
C7
330
1F
100
AcDbEntity
  8
참조1
100
AcDbLine
 10
56.23060364977729
 20
-39.99892507127611
 30
0.0
 11
-21.63450316453139
 21
-39.9989250712761
 31
0.0
  0
CIRCLE
  5
C8
330
1F
100
AcDbEntity
  8
해칭선
100
AcDbCircle
 10
0.0
 20
0.0
 30
0.0
 40
3.000000000000001
  0
INSERT
  5
C9
330
1F
100
AcDbEntity
  8
0
  6
Continuous
 62
     7
100
AcDbBlockReference
 66
     1
  2
블럭10
 10
32.98472706787479
 20
-52.04717430164393
 30
0.0
  0
ATTRIB
  5
CA
330
C9
100
AcDbEntity
  8
FORMAT
 62
     2
100
AcDbText
 10
23.80343177913351
 20
-49.97180738881174
 30
0.0
 40
4.233333333333333
  1
E2036056 [ 4 FLUTE ]
 41
0.75
  7
SLDTEXTSTYLE0
 11
23.80343177913351
 21
-52.08847405547841
 31
0.0
100
AcDbAttribute
  2
AUTOATTR0
 70
     0
 74
     1
  0
SEQEND
  5
CB
330
C9
100
AcDbEntity
  8
0
  6
Continuous
 62
     7
  0
HATCH
  5
CC
330
1F
100
AcDbEntity
  8
중심선
100
AcDbHatch
 10
0.0
 20
0.0
 30
0.0
210
0.0
220
0.0
230
1.0
  2
SOLID
 70
     1
 71
     0
 91
        1
 92
        0
 93
        4
 72
     1
 10
38.69963637225561
 20
-35.8
 11
35.25336112841833
 21
-35.8
 72
     1
 10
35.25336112841833
 20
-35.8
 11
33.12513126921436
 21
-38.3363255805726
 72
     1
 10
33.12513126921436
 20
-38.3363255805726
 11
36.57143959816468
 21
-38.33628615127011
 72
     1
 10
36.57143959816468
 20
-38.33628615127011
 11
38.69963637225561
 21
-35.8
 97
        0
 75
     0
 76
     1
 98
        1
 10
-9.305603649777296
 20
-0.0010749287238953
  0
HATCH
  5
CD
330
1F
100
AcDbEntity
  8
중심선
100
AcDbHatch
 10
0.0
 20
0.0
 30
0.0
210
0.0
220
0.0
230
1.0
  2
SOLID
 70
     1
 71
     0
 91
        1
 92
        0
 93
        4
 72
     1
 10
43.71240036329162
 20
-35.79999999999998
 11
40.26612511945428
 21
-35.79999999999998
 72
     1
 10
40.26612511945428
 20
-35.79999999999998
 11
35.73498711109686
 21
-41.20000000000002
 72
     1
 10
35.73498711109686
 20
-41.20000000000002
 11
39.18126235493415
 21
-41.20000000000002
 72
     1
 10
39.18126235493415
 20
-41.20000000000002
 11
43.71240036329162
 21
-35.79999999999998
 97
        0
 75
     0
 76
     1
 98
        1
 10
-9.305603649777296
 20
-0.0010749287238953
  0
HATCH
  5
CE
330
1F
100
AcDbEntity
  8
중심선
100
AcDbHatch
 10
0.0
 20
0.0
 30
0.0
210
0.0
220
0.0
230
1.0
  2
SOLID
 70
     1
 71
     0
 91
        1
 92
        0
 93
        4
 72
     1
 10
48.72516435432751
 20
-35.80000000000003
 11
45.27888911049029
 21
-35.8
 72
     1
 10
45.27888911049029
 20
-35.8
 11
38.23045220860106
 21
-44.20000000000002
 72
     1
 10
38.23045220860106
 20
-44.20000000000002
 11
41.67672745243835
 21
-44.20000000000002
 72
     1
 10
41.67672745243835
 20
-44.20000000000002
 11
48.72516435432751
 21
-35.80000000000003
 97
        0
 75
     0
 76
     1
 98
        1
 10
-9.305603649777296
 20
-0.0010749287238953
  0
HATCH
  5
CF
330
1F
100
AcDbEntity
  8
중심선
100
AcDbHatch
 10
0.0
 20
0.0
 30
0.0
210
0.0
220
0.0
230
1.0
  2
SOLID
 70
     1
 71
     0
 91
        1
 92
        0
 93
        6
 72
     3
 10
53.52505478533966
 20
-40.00000000005127
 11
3.96005478506229
 21
1.540882976769353E-10
 40
0.3939339440162621
 50
17.09539180608447
 51
320.0019657685077
 73
     0
 72
     1
 10
55.20805444104028
 20
-38.58789400463825
 11
57.5133563147412
 21
-36.65356729459038
 72
     3
 10
53.52505478528681
 20
-40.00000000000015
 11
6.600054785286829
 21
-1.278976924368180E-13
 40
0.636358354079598
 50
39.99873849337483
 51
368.4976242363724
 73
     1
 72
     1
 10
59.95038727718739
 20
-39.03999999993002
 11
52.20512209212276
 21
-39.03999999993002
 72
     1
 10
52.20512209212276
 20
-39.03999999993002
 11
52.2050970476768
 21
-40.95999999992991
 72
     1
 10
52.2050970476768
 20
-40.95999999992991
 11
56.64647681714881
 21
-40.95999999992988
 97
        0
 75
     0
 76
     1
 98
        1
 10
-9.305603649777296
 20
-0.0010749287238953
  0
DIMENSION
  5
D0
330
1F
100
AcDbEntity
  8
치수문자_일반주서
100
AcDbDimension
  2
_D
 10
11.99999999999998
 20
24.2524726843073
 30
0.0
 11
75.49999999999996
 21
24.2524726843073
 31
0.0
 70
   160
  1
<>
 71
     2
 42
127.0
  3
SLDDIMSTYLE1
100
AcDbAlignedDimension
 13
139.0
 23
11.11250000000002
 33
0.0
 14
11.99999999999998
 24
10.23161885905991
 34
0.0
 50
0.0000000000000032
100
AcDbRotatedDimension
1001
ACAD
1000
DSTYLE
1002
{
1070
   171
1070
     6
1070
   273
1070
     7
1002
}
  0
DIMENSION
  5
E5
330
1F
100
AcDbEntity
  8
치수문자_일반주서
100
AcDbDimension
  2
_D_1
 10
-45.15000000000002
 20
39.97367788211007
 30
0.0
 11
46.925
 21
39.97367788211007
 31
0.0
 70
   160
  1
<>
 71
     2
 42
184.15
  3
SLDDIMSTYLE1
100
AcDbAlignedDimension
 13
139.0
 23
11.11250000000002
 33
0.0
 14
-45.15000000000001
 24
11.11249999999997
 34
0.0
 50
0.0000000000000044
100
AcDbRotatedDimension
1001
ACAD
1000
DSTYLE
1002
{
1070
   171
1070
     6
1070
   273
1070
     7
1002
}
  0
DIMENSION
  5
F8
330
1F
100
AcDbEntity
  8
치수문자_일반주서
100
AcDbDimension
  2
_D_2
 10
-55.18077283782717
 20
-11.11250000000005
 30
0.0
 11
-55.18077283782721
 21
-0.0000000000000046
 31
0.0
 70
   160
  1
%%c<>
 71
     2
 42
22.22499999999998
 52
-270.0
  3
SLDDIMSTYLE1
100
AcDbAlignedDimension
 13
-45.15000000000001
 23
11.11249999999997
 33
0.0
 14
-42.92750000000002
 24
-11.1125
 34
0.0
 50
90.0000000000002
100
AcDbRotatedDimension
1001
ACAD
1000
DSTYLE
1002
{
1070
   171
1070
     6
1070
   273
1070
     7
1002
}
  0
LINE
  5
11E
330
1F
100
AcDbEntity
  8
참조1
100
AcDbLine
 10
76.33783746512287
 20
7.441074928723896
 30
0.0
 11
76.33783746512287
 21
-7.438925071276109
 31
0.0
  0
LINE
  5
11F
330
1F
100
AcDbEntity
  8
참조1
100
AcDbLine
 10
89.03783746512288
 20
5.441074928723896
 30
0.0
 11
76.33783746512287
 21
5.441074928723896
 31
0.0
  0
SOLID
  5
120
330
1F
100
AcDbEntity
  8
참조1
100
AcDbTrace
 10
76.33783746512287
 20
5.441074928723896
 30
0.0
 11
82.68783746512287
 21
4.425074928723896
 31
0.0
 12
82.68783746512287
 22
6.457074928723896
 32
0.0
 13
82.68783746512287
 23
6.457074928723896
 33
0.0
  0
LINE
  5
121
330
1F
100
AcDbEntity
  8
참조1
100
AcDbLine
 10
89.03783746512288
 20
-5.438925071276109
 30
0.0
 11
76.33783746512287
 21
-5.438925071276109
 31
0.0
  0
SOLID
  5
122
330
1F
100
AcDbEntity
  8
참조1
100
AcDbTrace
 10
76.33783746512287
 20
-5.438925071276109
 30
0.0
 11
82.68783746512287
 21
-6.454925071276109
 31
0.0
 12
82.68783746512287
 22
-4.422925071276109
 32
0.0
 13
82.68783746512287
 23
-4.422925071276109
 33
0.0
  0
MTEXT
  5
123
330
1F
100
AcDbEntity
  8
참조1
100
AcDbMText
 10
85.72218759774887
 20
11.01136670591222
 30
0.0
 40
3.5
 41
0.0
 71
     1
 72
     1
  1
A
  7
SLDTEXTSTYLE0
 73
     1
 44
1.0
  0
MTEXT
  5
124
330
1F
100
AcDbEntity
  8
참조1
100
AcDbMText
 10
85.72218759774887
 20
0.1313667059122201
 30
0.0
 40
3.5
 41
0.0
 71
     1
 72
     1
  1
A
  7
SLDTEXTSTYLE0
 73
     1
 44
1.0
  0
INSERT
  5
12B
330
1F
100
AcDbEntity
  8
해칭선
100
AcDbBlockReference
  2
SW_DOWELSYMBOL_0
 10
0.0
 20
0.0
 30
0.0
  0
DIMENSION
  5
277
330
1F
100
AcDbEntity
  8
치수문자_일반주서
100
AcDbDimension
  2
*D16
 10
167.0599032825248
 20
-11.11249999999998
 30
0.0
 11
167.0599032825248
 21
30.84150000000002
 31
0.0
 70
   160
 71
     5
 42
22.225
  3
SLDDIMSTYLE1
100
AcDbAlignedDimension
 13
139.0
 23
11.11250000000002
 33
0.0
 14
139.0
 24
-11.11249999999998
 34
0.0
 50
90.0
100
AcDbRotatedDimension
1001
ACAD
1000
DSTYLE
1002
{
1070
   171
1070
     6
1070
   273
1070
     7
1002
}
  0
LINE
  5
308
330
1F
100
AcDbEntity
  8
외형선
  6
Continuous
370
    15
100
AcDbLine
 10
-42.92750000000002
 20
9.461500000000001
 30
0.0
 11
-42.92750000000002
 21
-11.1125
 31
0.0
  0
LINE
  5
4C5
330
1F
100
AcDbEntity
  8
외형선
  6
Continuous
370
    15
100
AcDbLine
 10
-30.79900000000001
 20
11.11249999999999
 30
0.0
 11
-26.79532500000003
 21
11.11249999999999
 31
0.0
  0
LINE
  5
4C7
330
1F
100
AcDbEntity
  8
외형선
  6
Continuous
370
    15
100
AcDbLine
 10
-25.14432500000002
 20
9.461499999999994
 30
0.0
 11
-13.56192500000001
 21
9.461499999999994
 31
0.0
  0
LINE
  5
4C8
330
1F
100
AcDbEntity
  8
외형선
  6
Continuous
370
    15
100
AcDbLine
 10
-25.14432500000002
 20
9.461499999999994
 30
0.0
 11
-26.79532500000003
 21
11.11249999999998
 31
0.0
  0
LINE
  5
4C9
330
1F
100
AcDbEntity
  8
외형선
  6
Continuous
370
    15
100
AcDbLine
 10
-13.56192500000001
 20
9.461499999999994
 30
0.0
 11
-11.91092499999989
 21
11.11249999999998
 31
0.0
  0
LINE
  5
4CB
330
1F
100
AcDbEntity
  8
외형선
  6
Continuous
370
    15
100
AcDbLine
 10
-45.15000000000001
 20
9.461499999999994
 30
0.0
 11
-32.45000000000002
 21
9.461499999999994
 31
0.0
  0
LINE
  5
4CC
330
1F
100
AcDbEntity
  8
외형선
  6
Continuous
370
    15
100
AcDbLine
 10
-32.45000000000002
 20
9.461499999999994
 30
0.0
 11
-30.79900000000001
 21
11.11249999999997
 31
0.0
  0
LINE
  5
4D0
330
1F
100
AcDbEntity
  8
외형선
  6
Continuous
370
    15
100
AcDbLine
 10
-26.79532500000003
 20
11.11249999999998
 30
0.0
 11
-30.799
 21
11.11249999999998
 31
0.0
  0
ENDSEC
  0
SECTION
  2
OBJECTS
  0
DICTIONARY
  5
C
330
0
100
AcDbDictionary
281
     1
  3
ACAD_GROUP
350
D
  3
ACAD_IMAGE_VARS
350
14F
  3
ACAD_LAYOUT
350
1A
  3
ACAD_MLINESTYLE
350
17
  3
ACAD_PLOTSETTINGS
350
19
  3
ACAD_PLOTSTYLENAME
350
E
  3
ACAD_SCALELIST
350
47
  3
APPDATA
350
14D
  3
DWGPROPS
350
4D1
  0
DICTIONARY
  5
1EF
330
2
100
AcDbDictionary
280
     1
281
     1
  3
ACAD_LAYERSTATES
360
1F0
  0
DICTIONARY
  5
D
102
{ACAD_REACTORS
330
C
102
}
330
C
100
AcDbDictionary
281
     1
  0
RASTERVARIABLES
  5
14F
102
{ACAD_REACTORS
330
C
102
}
330
C
100
AcDbRasterVariables
 90
        0
 70
     1
 71
     1
 72
     1
  0
DICTIONARY
  5
1A
102
{ACAD_REACTORS
330
C
102
}
330
C
100
AcDbDictionary
281
     1
  3
Layout1
350
1E
  3
Layout2
350
26
  3
Model
350
22
  0
DICTIONARY
  5
17
102
{ACAD_REACTORS
330
C
102
}
330
C
100
AcDbDictionary
281
     1
  3
Standard
350
18
  0
DICTIONARY
  5
19
102
{ACAD_REACTORS
330
C
102
}
330
C
100
AcDbDictionary
281
     1
  0
ACDBDICTIONARYWDFLT
  5
E
102
{ACAD_REACTORS
330
C
102
}
330
C
100
AcDbDictionary
281
     1
  3
Normal
350
F
100
AcDbDictionaryWithDefault
340
F
  0
DICTIONARY
  5
47
102
{ACAD_REACTORS
330
C
102
}
330
C
100
AcDbDictionary
281
     1
  3
A0
350
48
  3
A1
350
49
  3
A2
350
4A
  3
A3
350
4B
  3
A4
350
4C
  3
A5
350
4D
  3
A6
350
4E
  3
A7
350
4F
  3
A8
350
50
  3
A9
350
51
  3
B0
350
52
  3
B1
350
53
  3
B2
350
54
  3
B3
350
55
  3
B4
350
56
  3
B5
350
57
  3
B6
350
58
  3
B7
350
59
  3
B8
350
5A
  3
B9
350
5B
  3
C0
350
5C
  3
C1
350
5D
  3
C2
350
5E
  3
C3
350
5F
  3
C4
350
60
  3
C5
350
61
  3
C6
350
62
  3
C7
350
63
  3
C8
350
64
  3
C9
350
65
  3
D0
350
66
  3
D1
350
67
  3
D2
350
68
  0
DICTIONARY
  5
14D
102
{ACAD_REACTORS
330
C
102
}
330
C
100
AcDbDictionary
281
     1
  0
XRECORD
  5
4D1
102
{ACAD_REACTORS
330
C
102
}
330
C
100
AcDbXrecord
280
     1
  1
DWGPROPS COOKIE
  2

  3

  4

  6

  7

  8
12017012
  9

300
=
301
=
302
=
303
=
304
=
305
=
306
=
307
=
308
=
309
=
 40
0.0
 41
2458312.301527535
 42
2458320.090217107
  1

 90
        0
  0
DICTIONARY
  5
1F0
102
{ACAD_REACTORS
330
1EF
102
}
330
1EF
100
AcDbDictionary
281
     1
  0
LAYOUT
  5
1E
102
{ACAD_REACTORS
330
1A
102
}
330
1A
100
AcDbPlotSettings
  1

  2
none_device
  4

  6

 40
0.0
 41
0.0
 42
0.0
 43
0.0
 44
0.0
 45
0.0
 46
0.0
 47
0.0
 48
0.0
 49
0.0
140
0.0
141
0.0
142
1.0
143
1.0
 70
   688
 72
     1
 73
     0
 74
     5
  7

 75
    16
147
1.0
148
0.0
149
0.0
100
AcDbLayout
  1
Layout1
 70
     1
 71
     1
 10
0.0
 20
0.0
 11
420.0
 21
297.0
 12
0.0
 22
0.0
 32
0.0
 14
1.000000000000000E+20
 24
1.000000000000000E+20
 34
1.000000000000000E+20
 15
-1.000000000000000E+20
 25
-1.000000000000000E+20
 35
-1.000000000000000E+20
146
0.0
 13
0.0
 23
0.0
 33
0.0
 16
1.0
 26
0.0
 36
0.0
 17
0.0
 27
1.0
 37
0.0
 76
     0
330
1B
  0
LAYOUT
  5
26
102
{ACAD_REACTORS
330
1A
102
}
330
1A
100
AcDbPlotSettings
  1

  2
none_device
  4

  6

 40
0.0
 41
0.0
 42
0.0
 43
0.0
 44
0.0
 45
0.0
 46
0.0
 47
0.0
 48
0.0
 49
0.0
140
0.0
141
0.0
142
1.0
143
1.0
 70
   688
 72
     1
 73
     0
 74
     5
  7

 75
    16
147
1.0
148
0.0
149
0.0
100
AcDbLayout
  1
Layout2
 70
     1
 71
     2
 10
0.0
 20
0.0
 11
0.0
 21
0.0
 12
0.0
 22
0.0
 32
0.0
 14
0.0
 24
0.0
 34
0.0
 15
0.0
 25
0.0
 35
0.0
146
0.0
 13
0.0
 23
0.0
 33
0.0
 16
1.0
 26
0.0
 36
0.0
 17
0.0
 27
1.0
 37
0.0
 76
     0
330
23
  0
LAYOUT
  5
22
102
{ACAD_REACTORS
330
1A
102
}
330
1A
100
AcDbPlotSettings
  1

  2
none_device
  4
ANSI_A_(11.00_x_8.50_Inches)
  6

 40
6.35
 41
19.05
 42
6.35000508
 43
19.05000254
 44
279.4
 45
215.9
 46
31.71836240198397
 47
88.8828704945538
 48
0.0
 49
0.0
140
0.0
141
0.0
142
0.025477398679521
143
1.0
 70
  1696
 72
     0
 73
     0
 74
     0
  7

 75
     0
147
0.0235690232323232
148
0.0
149
0.0
100
AcDbLayout
  1
Model
 70
     1
 71
     0
 10
0.0
 20
0.0
 11
420.0
 21
297.0
 12
0.0
 22
0.0
 32
0.0
 14
1.000000000000000E+20
 24
1.000000000000000E+20
 34
1.000000000000000E+20
 15
-1.000000000000000E+20
 25
-1.000000000000000E+20
 35
-1.000000000000000E+20
146
0.0
 13
0.0
 23
0.0
 33
0.0
 16
1.0
 26
0.0
 36
0.0
 17
0.0
 27
1.0
 37
0.0
 76
     0
330
1F
331
29
  0
MLINESTYLE
  5
18
102
{ACAD_REACTORS
330
17
102
}
330
17
100
AcDbMlineStyle
  2
Standard
 70
     0
  3

 62
   256
 51
90.0
 52
90.0
 71
     2
 49
0.5
 62
   256
  6
BYLAYER
 49
-0.5
 62
   256
  6
BYLAYER
  0
ACDBPLACEHOLDER
  5
F
102
{ACAD_REACTORS
330
E
102
}
330
E
  0
SCALE
  5
48
102
{ACAD_REACTORS
330
47
102
}
330
47
100
AcDbScale
 70
     0
300
1:1
140
1.0
141
1.0
290
     1
  0
SCALE
  5
49
102
{ACAD_REACTORS
330
47
102
}
330
47
100
AcDbScale
 70
     0
300
1:2
140
1.0
141
2.0
290
     0
  0
SCALE
  5
4A
102
{ACAD_REACTORS
330
47
102
}
330
47
100
AcDbScale
 70
     0
300
1:4
140
1.0
141
4.0
290
     0
  0
SCALE
  5
4B
102
{ACAD_REACTORS
330
47
102
}
330
47
100
AcDbScale
 70
     0
300
1:5
140
1.0
141
5.0
290
     0
  0
SCALE
  5
4C
102
{ACAD_REACTORS
330
47
102
}
330
47
100
AcDbScale
 70
     0
300
1:8
140
1.0
141
8.0
290
     0
  0
SCALE
  5
4D
102
{ACAD_REACTORS
330
47
102
}
330
47
100
AcDbScale
 70
     0
300
1:10
140
1.0
141
10.0
290
     0
  0
SCALE
  5
4E
102
{ACAD_REACTORS
330
47
102
}
330
47
100
AcDbScale
 70
     0
300
1:16
140
1.0
141
16.0
290
     0
  0
SCALE
  5
4F
102
{ACAD_REACTORS
330
47
102
}
330
47
100
AcDbScale
 70
     0
300
1:20
140
1.0
141
20.0
290
     0
  0
SCALE
  5
50
102
{ACAD_REACTORS
330
47
102
}
330
47
100
AcDbScale
 70
     0
300
1:30
140
1.0
141
30.0
290
     0
  0
SCALE
  5
51
102
{ACAD_REACTORS
330
47
102
}
330
47
100
AcDbScale
 70
     0
300
1:40
140
1.0
141
40.0
290
     0
  0
SCALE
  5
52
102
{ACAD_REACTORS
330
47
102
}
330
47
100
AcDbScale
 70
     0
300
1:50
140
1.0
141
50.0
290
     0
  0
SCALE
  5
53
102
{ACAD_REACTORS
330
47
102
}
330
47
100
AcDbScale
 70
     0
300
1:100
140
1.0
141
100.0
290
     0
  0
SCALE
  5
54
102
{ACAD_REACTORS
330
47
102
}
330
47
100
AcDbScale
 70
     0
300
2:1
140
2.0
141
1.0
290
     0
  0
SCALE
  5
55
102
{ACAD_REACTORS
330
47
102
}
330
47
100
AcDbScale
 70
     0
300
4:1
140
4.0
141
1.0
290
     0
  0
SCALE
  5
56
102
{ACAD_REACTORS
330
47
102
}
330
47
100
AcDbScale
 70
     0
300
8:1
140
8.0
141
1.0
290
     0
  0
SCALE
  5
57
102
{ACAD_REACTORS
330
47
102
}
330
47
100
AcDbScale
 70
     0
300
10:1
140
10.0
141
1.0
290
     0
  0
SCALE
  5
58
102
{ACAD_REACTORS
330
47
102
}
330
47
100
AcDbScale
 70
     0
300
100:1
140
100.0
141
1.0
290
     0
  0
SCALE
  5
59
102
{ACAD_REACTORS
330
47
102
}
330
47
100
AcDbScale
 70
     0
300
1/128" = 1'-0"
140
0.0078125
141
12.0
290
     0
  0
SCALE
  5
5A
102
{ACAD_REACTORS
330
47
102
}
330
47
100
AcDbScale
 70
     0
300
1/64" = 1'-0"
140
0.015625
141
12.0
290
     0
  0
SCALE
  5
5B
102
{ACAD_REACTORS
330
47
102
}
330
47
100
AcDbScale
 70
     0
300
1/32" = 1'-0"
140
0.03125
141
12.0
290
     0
  0
SCALE
  5
5C
102
{ACAD_REACTORS
330
47
102
}
330
47
100
AcDbScale
 70
     0
300
1/16" = 1'-0"
140
0.0625
141
12.0
290
     0
  0
SCALE
  5
5D
102
{ACAD_REACTORS
330
47
102
}
330
47
100
AcDbScale
 70
     0
300
3/32" = 1'-0"
140
0.09375
141
12.0
290
     0
  0
SCALE
  5
5E
102
{ACAD_REACTORS
330
47
102
}
330
47
100
AcDbScale
 70
     0
300
1/8" = 1'-0"
140
0.125
141
12.0
290
     0
  0
SCALE
  5
5F
102
{ACAD_REACTORS
330
47
102
}
330
47
100
AcDbScale
 70
     0
300
3/16" = 1'-0"
140
0.1875
141
12.0
290
     0
  0
SCALE
  5
60
102
{ACAD_REACTORS
330
47
102
}
330
47
100
AcDbScale
 70
     0
300
1/4" = 1'-0"
140
0.25
141
12.0
290
     0
  0
SCALE
  5
61
102
{ACAD_REACTORS
330
47
102
}
330
47
100
AcDbScale
 70
     0
300
3/8" = 1'-0"
140
0.375
141
12.0
290
     0
  0
SCALE
  5
62
102
{ACAD_REACTORS
330
47
102
}
330
47
100
AcDbScale
 70
     0
300
1/2" = 1'-0"
140
0.5
141
12.0
290
     0
  0
SCALE
  5
63
102
{ACAD_REACTORS
330
47
102
}
330
47
100
AcDbScale
 70
     0
300
3/4" = 1'-0"
140
0.75
141
12.0
290
     0
  0
SCALE
  5
64
102
{ACAD_REACTORS
330
47
102
}
330
47
100
AcDbScale
 70
     0
300
1" = 1'-0"
140
1.0
141
12.0
290
     0
  0
SCALE
  5
65
102
{ACAD_REACTORS
330
47
102
}
330
47
100
AcDbScale
 70
     0
300
1-1/2" = 1'-0"
140
1.5
141
12.0
290
     0
  0
SCALE
  5
66
102
{ACAD_REACTORS
330
47
102
}
330
47
100
AcDbScale
 70
     0
300
3" = 1'-0"
140
3.0
141
12.0
290
     0
  0
SCALE
  5
67
102
{ACAD_REACTORS
330
47
102
}
330
47
100
AcDbScale
 70
     0
300
6" = 1'-0"
140
6.0
141
12.0
290
     0
  0
SCALE
  5
68
102
{ACAD_REACTORS
330
47
102
}
330
47
100
AcDbScale
 70
     0
300
1'-0" = 1'-0"
140
12.0
141
12.0
290
     0
  0
ENDSEC
  0
EOF
