  0
SECTION
  2
HEADER
  9
$ACADVER
  1
AC1015
  9
$ACADMAINTVER
 70
     6
  9
$DWGCODEPAGE
  3
ANSI_949
  9
$INSBASE
 10
0.0
 20
0.0
 30
0.0
  9
$EXTMIN
 10
1.000000000000000E+20
 20
1.000000000000000E+20
 30
1.000000000000000E+20
  9
$EXTMAX
 10
-1.000000000000000E+20
 20
-1.000000000000000E+20
 30
-1.000000000000000E+20
  9
$LIMMIN
 10
0.0
 20
0.0
  9
$LIMMAX
 10
420.0
 20
297.0
  9
$ORTHOMODE
 70
     1
  9
$REGENMODE
 70
     1
  9
$FILLMODE
 70
     1
  9
$QTEXTMODE
 70
     0
  9
$MIRRTEXT
 70
     1
  9
$LTSCALE
 40
1.0
  9
$ATTMODE
 70
     1
  9
$TEXTSIZE
 40
3.5
  9
$TRACEWID
 40
1.0
  9
$TEXTSTYLE
  7
Standard
  9
$CLAYER
  8
0
  9
$CELTYPE
  6
ByLayer
  9
$CECOLOR
 62
   256
  9
$CELTSCALE
 40
1.0
  9
$DISPSILH
 70
     0
  9
$DIMSCALE
 40
1.0
  9
$DIMASZ
 40
3.302
  9
$DIMEXO
 40
1.0
  9
$DIMDLI
 40
3.75
  9
$DIMRND
 40
0.0
  9
$DIMDLE
 40
0.0
  9
$DIMEXE
 40
1.0
  9
$DIMTP
 40
0.0
  9
$DIMTM
 40
0.0
  9
$DIMTXT
 40
3.5
  9
$DIMCEN
 40
2.5
  9
$DIMTSZ
 40
0.0
  9
$DIMTOL
 70
     0
  9
$DIMLIM
 70
     0
  9
$DIMTIH
 70
     1
  9
$DIMTOH
 70
     1
  9
$DIMSE1
 70
     0
  9
$DIMSE2
 70
     0
  9
$DIMTAD
 70
     1
  9
$DIMZIN
 70
     0
  9
$DIMBLK
  1

  9
$DIMASO
 70
     1
  9
$DIMSHO
 70
     1
  9
$DIMPOST
  1

  9
$DIMAPOST
  1

  9
$DIMALT
 70
     0
  9
$DIMALTD
 70
     3
  9
$DIMALTF
 40
0.0393700787401575
  9
$DIMLFAC
 40
1.0
  9
$DIMTOFL
 70
     1
  9
$DIMTVP
 40
0.0
  9
$DIMTIX
 70
     0
  9
$DIMSOXD
 70
     0
  9
$DIMSAH
 70
     0
  9
$DIMBLK1
  1

  9
$DIMBLK2
  1

  9
$DIMSTYLE
  2
ISO-25
  9
$DIMCLRD
 70
     0
  9
$DIMCLRE
 70
     0
  9
$DIMCLRT
 70
     0
  9
$DIMTFAC
 40
1.0
  9
$DIMGAP
 40
1.524
  9
$DIMJUST
 70
     0
  9
$DIMSD1
 70
     0
  9
$DIMSD2
 70
     0
  9
$DIMTOLJ
 70
     0
  9
$DIMTZIN
 70
     0
  9
$DIMALTZ
 70
     0
  9
$DIMALTTZ
 70
     0
  9
$DIMUPT
 70
     0
  9
$DIMDEC
 70
     2
  9
$DIMTDEC
 70
     2
  9
$DIMALTU
 70
     2
  9
$DIMALTTD
 70
     3
  9
$DIMTXSTY
  7
Standard
  9
$DIMAUNIT
 70
     0
  9
$DIMADEC
 70
     2
  9
$DIMALTRND
 40
0.0
  9
$DIMAZIN
 70
     0
  9
$DIMDSEP
 70
    44
  9
$DIMATFIT
 70
     3
  9
$DIMFRAC
 70
     0
  9
$DIMLDRBLK
  1

  9
$DIMLUNIT
 70
     2
  9
$DIMLWD
 70
    -2
  9
$DIMLWE
 70
    -2
  9
$DIMTMOVE
 70
     0
  9
$LUNITS
 70
     2
  9
$LUPREC
 70
     2
  9
$SKETCHINC
 40
1.0
  9
$FILLETRAD
 40
10.0
  9
$AUNITS
 70
     0
  9
$AUPREC
 70
     2
  9
$MENU
  1
.
  9
$ELEVATION
 40
0.0
  9
$PELEVATION
 40
0.0
  9
$THICKNESS
 40
0.0
  9
$LIMCHECK
 70
     0
  9
$CHAMFERA
 40
0.0
  9
$CHAMFERB
 40
0.0
  9
$CHAMFERC
 40
0.0
  9
$CHAMFERD
 40
0.0
  9
$SKPOLY
 70
     0
  9
$TDCREATE
 40
2458312.676103785
  9
$TDUCREATE
 40
2458312.301103785
  9
$TDUPDATE
 40
2458320.46641603
  9
$TDUUPDATE
 40
2458320.09141603
  9
$TDINDWG
 40
0.0021563657
  9
$TDUSRTIMER
 40
2458320.090581771
  9
$USRTIMER
 70
     1
  9
$ANGBASE
 50
0.0
  9
$ANGDIR
 70
     0
  9
$PDMODE
 70
     0
  9
$PDSIZE
 40
-1.0
  9
$PLINEWID
 40
0.0
  9
$SPLFRAME
 70
     0
  9
$SPLINETYPE
 70
     6
  9
$SPLINESEGS
 70
     8
  9
$HANDSEED
  5
32E
  9
$SURFTAB1
 70
     6
  9
$SURFTAB2
 70
     6
  9
$SURFTYPE
 70
     6
  9
$SURFU
 70
     6
  9
$SURFV
 70
     6
  9
$UCSBASE
  2

  9
$UCSNAME
  2

  9
$UCSORG
 10
0.0
 20
0.0
 30
0.0
  9
$UCSXDIR
 10
1.0
 20
0.0
 30
0.0
  9
$UCSYDIR
 10
0.0
 20
1.0
 30
0.0
  9
$UCSORTHOREF
  2

  9
$UCSORTHOVIEW
 70
     0
  9
$UCSORGTOP
 10
0.0
 20
0.0
 30
0.0
  9
$UCSORGBOTTOM
 10
0.0
 20
0.0
 30
0.0
  9
$UCSORGLEFT
 10
0.0
 20
0.0
 30
0.0
  9
$UCSORGRIGHT
 10
0.0
 20
0.0
 30
0.0
  9
$UCSORGFRONT
 10
0.0
 20
0.0
 30
0.0
  9
$UCSORGBACK
 10
0.0
 20
0.0
 30
0.0
  9
$PUCSBASE
  2

  9
$PUCSNAME
  2

  9
$PUCSORG
 10
0.0
 20
0.0
 30
0.0
  9
$PUCSXDIR
 10
1.0
 20
0.0
 30
0.0
  9
$PUCSYDIR
 10
0.0
 20
1.0
 30
0.0
  9
$PUCSORTHOREF
  2

  9
$PUCSORTHOVIEW
 70
     0
  9
$PUCSORGTOP
 10
0.0
 20
0.0
 30
0.0
  9
$PUCSORGBOTTOM
 10
0.0
 20
0.0
 30
0.0
  9
$PUCSORGLEFT
 10
0.0
 20
0.0
 30
0.0
  9
$PUCSORGRIGHT
 10
0.0
 20
0.0
 30
0.0
  9
$PUCSORGFRONT
 10
0.0
 20
0.0
 30
0.0
  9
$PUCSORGBACK
 10
0.0
 20
0.0
 30
0.0
  9
$USERI1
 70
     0
  9
$USERI2
 70
     0
  9
$USERI3
 70
     0
  9
$USERI4
 70
     0
  9
$USERI5
 70
     0
  9
$USERR1
 40
0.0
  9
$USERR2
 40
0.0
  9
$USERR3
 40
0.0
  9
$USERR4
 40
0.0
  9
$USERR5
 40
0.0
  9
$WORLDVIEW
 70
     1
  9
$SHADEDGE
 70
     3
  9
$SHADEDIF
 70
    70
  9
$TILEMODE
 70
     1
  9
$MAXACTVP
 70
    64
  9
$PINSBASE
 10
0.0
 20
0.0
 30
0.0
  9
$PLIMCHECK
 70
     0
  9
$PEXTMIN
 10
1.000000000000000E+20
 20
1.000000000000000E+20
 30
1.000000000000000E+20
  9
$PEXTMAX
 10
-1.000000000000000E+20
 20
-1.000000000000000E+20
 30
-1.000000000000000E+20
  9
$PLIMMIN
 10
0.0
 20
0.0
  9
$PLIMMAX
 10
0.0
 20
0.0
  9
$UNITMODE
 70
     0
  9
$VISRETAIN
 70
     1
  9
$PLINEGEN
 70
     0
  9
$PSLTSCALE
 70
     1
  9
$TREEDEPTH
 70
  3020
  9
$CMLSTYLE
  2
Standard
  9
$CMLJUST
 70
     0
  9
$CMLSCALE
 40
20.0
  9
$PROXYGRAPHICS
 70
     1
  9
$MEASUREMENT
 70
     1
  9
$CELWEIGHT
370
    -1
  9
$ENDCAPS
280
     0
  9
$JOINSTYLE
280
     0
  9
$LWDISPLAY
290
     1
  9
$INSUNITS
 70
     4
  9
$HYPERLINKBASE
  1

  9
$STYLESHEET
  1

  9
$XEDIT
290
     1
  9
$CEPSNTYPE
380
     0
  9
$PSTYLEMODE
290
     1
  9
$FINGERPRINTGUID
  2
{956C9933-F667-4EBC-B7AC-7ED9EEE51F40}
  9
$VERSIONGUID
  2
{FAEB1C32-E019-11D5-929B-00C0DF256EC4}
  9
$EXTNAMES
290
     1
  9
$PSVPSCALE
 40
0.0
  9
$OLESTARTUP
290
     0
  0
ENDSEC
  0
SECTION
  2
CLASSES
  0
CLASS
  1
ACDBDICTIONARYWDFLT
  2
AcDbDictionaryWithDefault
  3
ObjectDBX Classes
 90
        0
280
     0
281
     0
  0
CLASS
  1
VISUALSTYLE
  2
AcDbVisualStyle
  3
ObjectDBX Classes
 90
     4095
280
     0
281
     0
  0
CLASS
  1
MATERIAL
  2
AcDbMaterial
  3
ObjectDBX Classes
 90
     1153
280
     0
281
     0
  0
CLASS
  1
SCALE
  2
AcDbScale
  3
ObjectDBX Classes
 90
     1153
280
     0
281
     0
  0
CLASS
  1
SUN
  2
AcDbSun
  3
SCENEOE
 90
     1153
280
     0
281
     0
  0
CLASS
  1
ACDBPLACEHOLDER
  2
AcDbPlaceHolder
  3
ObjectDBX Classes
 90
        0
280
     0
281
     0
  0
CLASS
  1
LAYOUT
  2
AcDbLayout
  3
ObjectDBX Classes
 90
        0
280
     0
281
     0
  0
CLASS
  1
TABLESTYLE
  2
AcDbTableStyle
  3
ObjectDBX Classes
 90
     4095
280
     0
281
     0
  0
CLASS
  1
MLEADERSTYLE
  2
AcDbMLeaderStyle
  3
ACDB_MLEADERSTYLE_CLASS
 90
     4095
280
     0
281
     0
  0
CLASS
  1
RASTERVARIABLES
  2
AcDbRasterVariables
  3
ISM
 90
        0
280
     0
281
     0
  0
CLASS
  1
DIMASSOC
  2
AcDbDimAssoc
  3
"AcDbDimAssoc|Product Desc:     AcDim ARX App For Dimension|Company:          Autodesk, Inc.|WEB Address:      www.autodesk.com"
 90
        0
280
     0
281
     0
  0
ENDSEC
  0
SECTION
  2
TABLES
  0
TABLE
  2
VPORT
  5
8
330
0
100
AcDbSymbolTable
 70
     1
  0
VPORT
  5
29
330
8
100
AcDbSymbolTableRecord
100
AcDbViewportTableRecord
  2
*Active
 70
     0
 10
0.0
 20
0.0
 11
1.0
 21
1.0
 12
34.24063255595745
 22
14.02591239960087
 13
0.0
 23
0.0
 14
10.0
 24
10.0
 15
10.0
 25
10.0
 16
0.0
 26
0.0
 36
1.0
 17
0.0
 27
0.0
 37
0.0
 40
178.5139654749985
 41
1.632093933463796
 42
50.0
 43
0.0
 44
0.0
 50
0.0
 51
0.0
 71
    16
 72
  2000
 73
     1
 74
     3
 75
     0
 76
     0
 77
     0
 78
     0
281
     0
 65
     1
110
0.0
120
0.0
130
0.0
111
1.0
121
0.0
131
0.0
112
0.0
122
1.0
132
0.0
 79
     0
146
0.0
  0
ENDTAB
  0
TABLE
  2
LTYPE
  5
5
330
0
100
AcDbSymbolTable
 70
     6
  0
LTYPE
  5
14
330
5
100
AcDbSymbolTableRecord
100
AcDbLinetypeTableRecord
  2
ByBlock
 70
     0
  3

 72
    65
 73
     0
 40
0.0
  0
LTYPE
  5
15
330
5
100
AcDbSymbolTableRecord
100
AcDbLinetypeTableRecord
  2
ByLayer
 70
     0
  3

 72
    65
 73
     0
 40
0.0
  0
LTYPE
  5
16
330
5
100
AcDbSymbolTableRecord
100
AcDbLinetypeTableRecord
  2
Continuous
 70
     0
  3
Solid line
 72
    65
 73
     0
 40
0.0
  0
LTYPE
  5
6A
330
5
100
AcDbSymbolTableRecord
100
AcDbLinetypeTableRecord
  2
HIDDEN
 70
     0
  3
Hidden __ __ __ __ __ __ __ __ __ __ __ __ __ __
 72
    65
 73
     2
 40
1.905
 49
1.27
 74
     0
 49
-0.635
 74
     0
  0
LTYPE
  5
6B
330
5
100
AcDbSymbolTableRecord
100
AcDbLinetypeTableRecord
  2
PHANTOM
 70
     0
  3
Phantom ______  __  __  ______  __  __  ______
 72
    65
 73
     6
 40
12.7
 49
6.35
 74
     0
 49
-1.27
 74
     0
 49
1.27
 74
     0
 49
-1.27
 74
     0
 49
1.27
 74
     0
 49
-1.27
 74
     0
  0
LTYPE
  5
6C
330
5
100
AcDbSymbolTableRecord
100
AcDbLinetypeTableRecord
  2
CENTER
 70
     0
  3
Center ____ _ ____ _ ____ _ ____ _ ____ _ ____
 72
    65
 73
     4
 40
10.16
 49
6.35
 74
     0
 49
-1.27
 74
     0
 49
1.27
 74
     0
 49
-1.27
 74
     0
  0
LTYPE
  5
6D
330
5
100
AcDbSymbolTableRecord
100
AcDbLinetypeTableRecord
  2
CENTERX2
 70
     0
  3
Center (2x) ________  __  ________  __  _____
 72
    65
 73
     4
 40
20.32
 49
12.7
 74
     0
 49
-2.54
 74
     0
 49
2.54
 74
     0
 49
-2.54
 74
     0
  0
LTYPE
  5
6E
330
5
100
AcDbSymbolTableRecord
100
AcDbLinetypeTableRecord
  2
DOT2
 70
     0
  3
Dot (.5x) ........................................
 72
    65
 73
     2
 40
0.635
 49
0.0
 74
     0
 49
-0.635
 74
     0
  0
ENDTAB
  0
TABLE
  2
LAYER
  5
2
102
{ACAD_XDICTIONARY
360
1F1
102
}
330
0
100
AcDbSymbolTable
 70
    18
  0
LAYER
  5
10
330
2
100
AcDbSymbolTableRecord
100
AcDbLayerTableRecord
  2
0
 70
     0
 62
     7
  6
Continuous
370
    -3
390
F
  0
LAYER
  5
6F
330
2
100
AcDbSymbolTableRecord
100
AcDbLayerTableRecord
  2
FORMAT
 70
     0
 62
     2
  6
Continuous
370
    -3
390
F
  0
LAYER
  5
70
330
2
100
AcDbSymbolTableRecord
100
AcDbLayerTableRecord
  2
외형선
 70
     0
 62
     4
  6
Continuous
370
    30
390
F
  0
LAYER
  5
71
330
2
100
AcDbSymbolTableRecord
100
AcDbLayerTableRecord
  2
숨은선
 70
     0
 62
     2
  6
HIDDEN
370
    15
390
F
  0
LAYER
  5
72
330
2
100
AcDbSymbolTableRecord
100
AcDbLayerTableRecord
  2
중심선
 70
     0
 62
     1
  6
CENTERX2
370
    -3
390
F
  0
LAYER
  5
73
330
2
100
AcDbSymbolTableRecord
100
AcDbLayerTableRecord
  2
파단선
 70
     0
 62
     4
  6
Continuous
370
    -3
390
F
  0
LAYER
  5
74
330
2
100
AcDbSymbolTableRecord
100
AcDbLayerTableRecord
  2
해칭선
 70
     0
 62
   100
  6
Continuous
370
    -3
390
F
  0
LAYER
  5
75
330
2
100
AcDbSymbolTableRecord
100
AcDbLayerTableRecord
  2
가는실선
 70
     0
 62
     4
  6
Continuous
370
    -3
390
F
  0
LAYER
  5
76
330
2
100
AcDbSymbolTableRecord
100
AcDbLayerTableRecord
  2
치수_보조선
 70
     0
 62
     4
  6
Continuous
370
    -3
390
F
  0
LAYER
  5
77
330
2
100
AcDbSymbolTableRecord
100
AcDbLayerTableRecord
  2
치수문자_일반주서
 70
     0
 62
     7
  6
Continuous
370
    15
390
F
  0
LAYER
  5
78
330
2
100
AcDbSymbolTableRecord
100
AcDbLayerTableRecord
  2
개별주서
 70
     0
 62
   100
  6
Continuous
370
    30
390
F
  0
LAYER
  5
79
330
2
100
AcDbSymbolTableRecord
100
AcDbLayerTableRecord
  2
중간선
 70
     0
 62
     2
  6
Continuous
370
    15
390
F
  0
LAYER
  5
7A
330
2
100
AcDbSymbolTableRecord
100
AcDbLayerTableRecord
  2
윤곽선
 70
     0
 62
     3
  6
Continuous
370
    40
390
F
  0
LAYER
  5
7B
330
2
100
AcDbSymbolTableRecord
100
AcDbLayerTableRecord
  2
중심마크
 70
     0
 62
   100
  6
Continuous
370
    30
390
F
  0
LAYER
  5
7C
330
2
100
AcDbSymbolTableRecord
100
AcDbLayerTableRecord
  2
가상선
 70
     0
 62
     4
  6
PHANTOM
370
    -3
390
F
  0
LAYER
  5
7D
330
2
100
AcDbSymbolTableRecord
100
AcDbLayerTableRecord
  2
특수지정선
 70
     0
 62
     5
  6
CENTERX2
370
    60
390
F
  0
LAYER
  5
7E
330
2
100
AcDbSymbolTableRecord
100
AcDbLayerTableRecord
  2
참조1
 70
     0
 62
    -4
  6
Continuous
370
    -3
390
F
  0
LAYER
  5
154
330
2
100
AcDbSymbolTableRecord
100
AcDbLayerTableRecord
  2
Defpoints
 70
     0
 62
     7
  6
Continuous
290
     0
370
    -3
390
F
  0
ENDTAB
  0
TABLE
  2
STYLE
  5
3
330
0
100
AcDbSymbolTable
 70
     2
  0
STYLE
  5
11
330
3
100
AcDbSymbolTableRecord
100
AcDbTextStyleTableRecord
  2
Standard
 70
     0
 40
0.0
 41
1.0
 50
0.0
 71
     0
 42
3.5
  3
txt
  4

  0
STYLE
  5
94
330
3
100
AcDbSymbolTableRecord
100
AcDbTextStyleTableRecord
  2
SLDTEXTSTYLE0
 70
     0
 40
0.0
 41
0.75
 50
0.0
 71
     0
 42
3.5
  3
TXT
  4

  0
ENDTAB
  0
TABLE
  2
VIEW
  5
6
330
0
100
AcDbSymbolTable
 70
     0
  0
ENDTAB
  0
TABLE
  2
UCS
  5
7
330
0
100
AcDbSymbolTable
 70
     0
  0
ENDTAB
  0
TABLE
  2
APPID
  5
9
330
0
100
AcDbSymbolTable
 70
     1
  0
APPID
  5
12
330
9
100
AcDbSymbolTableRecord
100
AcDbRegAppTableRecord
  2
ACAD
 70
     0
  0
ENDTAB
  0
TABLE
  2
DIMSTYLE
  5
A
330
0
100
AcDbSymbolTable
 70
     5
100
AcDbDimStyleTable
  0
DIMSTYLE
105
27
330
A
100
AcDbSymbolTableRecord
100
AcDbDimStyleTableRecord
  2
ISO-25
 70
     0
 41
2.5
 42
0.625
 43
3.75
 44
1.25
 73
     0
 74
     0
 77
     1
 78
     8
140
2.5
141
2.5
143
0.03937007874016
147
0.625
171
     3
172
     1
178
     0
271
     2
272
     2
274
     3
278
    44
283
     0
284
     8
340
11
  0
DIMSTYLE
105
D3
330
A
100
AcDbSymbolTableRecord
100
AcDbDimStyleTableRecord
  2
SLDDIMSTYLE0
 70
     0
 41
3.302
 44
0.0
 45
0.000000001
 73
     0
 74
     0
 77
     1
 78
     4
 79
     1
140
3.5
143
0.0393700787401575
147
0.875
148
0.000000001
170
     1
173
     1
178
     0
271
     2
272
     2
276
     2
284
    12
340
94
  0
DIMSTYLE
105
E8
102
{ACAD_REACTORS
330
E7
330
D2
330
FB
330
28A
102
}
330
A
100
AcDbSymbolTableRecord
100
AcDbDimStyleTableRecord
  2
SLDDIMSTYLE1
 70
     0
 41
3.302
 44
0.0
 45
0.000000001
 73
     0
 74
     0
 77
     1
 78
    12
 79
     3
140
3.5
143
0.0393700787401575
147
0.875
148
0.000000001
170
     1
173
     1
178
     0
271
     2
272
     2
276
     2
284
    12
340
94
  0
DIMSTYLE
105
FC
330
A
100
AcDbSymbolTableRecord
100
AcDbDimStyleTableRecord
  2
SLDDIMSTYLE2
 70
     0
 41
3.302
 44
0.0
 45
0.000000001
 73
     0
 74
     0
 77
     1
 78
    12
 79
     3
140
3.5
143
0.0393700787401575
147
0.875
148
0.000000001
170
     1
172
     1
173
     1
178
     0
271
     2
272
     2
276
     2
284
    12
289
     0
340
94
  0
DIMSTYLE
105
111
330
A
100
AcDbSymbolTableRecord
100
AcDbDimStyleTableRecord
  2
SLDDIMSTYLE3
 70
     0
 41
3.302
 44
0.0
 45
0.000000001
 73
     0
 74
     0
 77
     1
 78
     8
 79
     2
140
3.5
143
0.0393700787401575
147
0.875
148
0.000000001
170
     1
172
     1
173
     1
178
     0
271
     2
272
     2
276
     2
284
    12
289
     0
340
94
341
112
343
112
344
112
  0
ENDTAB
  0
TABLE
  2
BLOCK_RECORD
  5
1
330
0
100
AcDbSymbolTable
 70
    19
  0
BLOCK_RECORD
  5
1F
330
1
100
AcDbSymbolTableRecord
100
AcDbBlockTableRecord
  2
*Model_Space
340
22
  0
BLOCK_RECORD
  5
1B
330
1
100
AcDbSymbolTableRecord
100
AcDbBlockTableRecord
  2
*Paper_Space
340
1E
  0
BLOCK_RECORD
  5
23
330
1
100
AcDbSymbolTableRecord
100
AcDbBlockTableRecord
  2
*Paper_Space0
340
26
  0
BLOCK_RECORD
  5
7F
330
1
100
AcDbSymbolTableRecord
100
AcDbBlockTableRecord
  2
블럭10
340
0
102
{BLKREFS
331
CB
102
}
  0
BLOCK_RECORD
  5
D4
330
1
100
AcDbSymbolTableRecord
100
AcDbBlockTableRecord
  2
_D
340
0
  0
BLOCK_RECORD
  5
E9
330
1
100
AcDbSymbolTableRecord
100
AcDbBlockTableRecord
  2
_D_1
340
0
  0
BLOCK_RECORD
  5
FD
330
1
100
AcDbSymbolTableRecord
100
AcDbBlockTableRecord
  2
_D_2
340
0
  0
BLOCK_RECORD
  5
112
330
1
100
AcDbSymbolTableRecord
100
AcDbBlockTableRecord
  2
_NONE
340
0
  0
BLOCK_RECORD
  5
115
330
1
100
AcDbSymbolTableRecord
100
AcDbBlockTableRecord
  2
_D_3
340
0
  0
BLOCK_RECORD
  5
128
330
1
100
AcDbSymbolTableRecord
100
AcDbBlockTableRecord
  2
SW_DOWELSYMBOL_0
340
0
102
{BLKREFS
331
12E
102
}
  0
BLOCK_RECORD
  5
1DF
330
1
100
AcDbSymbolTableRecord
100
AcDbBlockTableRecord
  2
*D8
340
0
  0
BLOCK_RECORD
  5
1F5
330
1
100
AcDbSymbolTableRecord
100
AcDbBlockTableRecord
  2
*D9
340
0
  0
BLOCK_RECORD
  5
201
330
1
100
AcDbSymbolTableRecord
100
AcDbBlockTableRecord
  2
*D10
340
0
  0
BLOCK_RECORD
  5
20D
330
1
100
AcDbSymbolTableRecord
100
AcDbBlockTableRecord
  2
*D11
340
0
  0
BLOCK_RECORD
  5
257
330
1
100
AcDbSymbolTableRecord
100
AcDbBlockTableRecord
  2
*D12
340
0
  0
BLOCK_RECORD
  5
263
330
1
100
AcDbSymbolTableRecord
100
AcDbBlockTableRecord
  2
*D13
340
0
  0
BLOCK_RECORD
  5
26F
330
1
100
AcDbSymbolTableRecord
100
AcDbBlockTableRecord
  2
*D14
340
0
  0
BLOCK_RECORD
  5
27B
330
1
100
AcDbSymbolTableRecord
100
AcDbBlockTableRecord
  2
*D15
340
0
  0
BLOCK_RECORD
  5
28D
330
1
100
AcDbSymbolTableRecord
100
AcDbBlockTableRecord
  2
*D16
340
0
  0
ENDTAB
  0
ENDSEC
  0
SECTION
  2
BLOCKS
  0
BLOCK
  5
20
330
1F
100
AcDbEntity
  8
0
100
AcDbBlockBegin
  2
*Model_Space
 70
     0
 10
0.0
 20
0.0
 30
0.0
  3
*Model_Space
  1
*Model_Space
  0
ENDBLK
  5
21
330
1F
100
AcDbEntity
  8
0
100
AcDbBlockEnd
  0
BLOCK
  5
1C
330
1B
100
AcDbEntity
 67
     1
  8
0
100
AcDbBlockBegin
  2
*Paper_Space
 70
     0
 10
0.0
 20
0.0
 30
0.0
  3
*Paper_Space
  1
*Paper_Space
  0
ENDBLK
  5
1D
330
1B
100
AcDbEntity
 67
     1
  8
0
100
AcDbBlockEnd
  0
BLOCK
  5
24
330
23
100
AcDbEntity
  8
0
100
AcDbBlockBegin
  2
*Paper_Space0
 70
     0
 10
0.0
 20
0.0
 30
0.0
  3
*Paper_Space0
  1
*Paper_Space0
  0
ENDBLK
  5
25
330
23
100
AcDbEntity
  8
0
100
AcDbBlockEnd
  0
BLOCK
  5
80
330
7F
100
AcDbEntity
  8
0
100
AcDbBlockBegin
  2
블럭10
 70
     2
 10
0.0
 20
0.0
 30
0.0
  3
블럭10
  1
블럭10
  0
ELLIPSE
  5
82
330
7F
100
AcDbEntity
  8
중심선
100
AcDbEllipse
 10
20.54032771741204
 20
12.0471743016438
 30
0.0
 11
6.600054785286829
 21
-1.261213355974178E-13
 31
0.0
210
0.0
220
0.0
230
1.0
 40
0.636358354079598
 41
0.9219305317359503
 42
6.513795318482858
  0
ELLIPSE
  5
83
330
7F
100
AcDbEntity
  8
중심선
100
AcDbEllipse
 10
20.54032771746488
 20
12.04717430159265
 30
0.0
 11
3.960054785062283
 21
1.540847449632565E-10
 31
0.0
210
0.0
220
0.0
230
1.0
 40
0.3939339440162632
 41
1.131841032648279
 42
5.62031148352944
  0
LINE
  5
84
330
7F
100
AcDbEntity
  8
중심선
100
AcDbLine
 10
2.268634060543552
 20
16.24717430164393
 30
0.0
 11
5.714909304380834
 21
16.24717430164393
 31
0.0
  0
LINE
  5
85
330
7F
100
AcDbEntity
  8
중심선
100
AcDbLine
 10
5.245725140726316
 20
7.84717430164391
 30
0.0
 11
8.692000384563599
 21
7.84717430164391
 31
0.0
  0
LINE
  5
86
330
7F
100
AcDbEntity
  8
중심선
100
AcDbLine
 10
15.74043728645272
 20
16.24717430164393
 30
0.0
 11
8.692000384563599
 21
7.84717430164391
 31
0.0
  0
LINE
  5
87
330
7F
100
AcDbEntity
  8
중심선
100
AcDbLine
 10
0.1404042013395286
 20
13.71084872107135
 30
0.0
 11
3.58671253028996
 21
13.71088815037384
 31
0.0
  0
LINE
  5
88
330
7F
100
AcDbEntity
  8
중심선
100
AcDbLine
 10
2.750260043222114
 20
10.84717430164391
 30
0.0
 11
6.196535287059397
 21
10.84717430164391
 31
0.0
  0
LINE
  5
89
330
7F
100
AcDbEntity
  8
중심선
100
AcDbLine
 10
12.29416204261559
 20
16.24717430164393
 30
0.0
 11
5.245725140726316
 21
7.84717430164391
 31
0.0
  0
LINE
  5
8A
330
7F
100
AcDbEntity
  8
중심선
100
AcDbLine
 10
10.72767329541681
 20
16.24717430164393
 30
0.0
 11
6.196535287059397
 21
10.84717430164391
 31
0.0
  0
LINE
  5
8B
330
7F
100
AcDbEntity
  8
중심선
100
AcDbLine
 10
7.28139805157953
 20
16.24717430164393
 30
0.0
 11
2.750260043222114
 21
10.84717430164391
 31
0.0
  0
LINE
  5
8C
330
7F
100
AcDbEntity
  8
중심선
100
AcDbLine
 10
5.714909304380834
 20
16.24717430164393
 30
0.0
 11
3.58671253028996
 21
13.71088815037384
 31
0.0
  0
LINE
  5
8D
330
7F
100
AcDbEntity
  8
중심선
100
AcDbLine
 10
2.268634060543552
 20
16.24717430164393
 30
0.0
 11
0.1404042013395286
 21
13.71084872107135
 31
0.0
  0
LINE
  5
8E
330
7F
100
AcDbEntity
  8
중심선
100
AcDbLine
 10
7.28139805157953
 20
16.24717430164393
 30
0.0
 11
10.72767329541681
 21
16.24717430164393
 31
0.0
  0
LINE
  5
8F
330
7F
100
AcDbEntity
  8
중심선
100
AcDbLine
 10
12.29416204261559
 20
16.24717430164393
 30
0.0
 11
15.74043728645272
 21
16.24717430164393
 31
0.0
  0
LINE
  5
90
330
7F
100
AcDbEntity
  8
중심선
100
AcDbLine
 10
19.22036997980202
 20
11.08717430171403
 30
0.0
 11
23.66174974927406
 21
11.08717430171406
 31
0.0
  0
LINE
  5
91
330
7F
100
AcDbEntity
  8
중심선
100
AcDbLine
 10
19.22039502424796
 20
13.00717430171391
 30
0.0
 11
19.22036997980202
 21
11.08717430171403
 31
0.0
  0
LINE
  5
92
330
7F
100
AcDbEntity
  8
중심선
100
AcDbLine
 10
19.22039502424796
 20
13.00717430171391
 30
0.0
 11
26.96566020931264
 21
13.00717430171391
 31
0.0
  0
LINE
  5
93
330
7F
100
AcDbEntity
  8
중심선
100
AcDbLine
 10
22.22332737316547
 20
13.45928029700563
 30
0.0
 11
24.52862924686651
 21
15.39360700705356
 31
0.0
  0
ATTDEF
  5
95
330
7F
100
AcDbEntity
  8
FORMAT
 62
     2
100
AcDbText
 10
4.408487351596664
 20
2.075366912832191
 30
0.0
 40
4.233333333333333
  1
E2036040
 41
0.75
  7
SLDTEXTSTYLE0
 11
4.408487351596664
 21
-0.0412997538344756
 31
0.0
100
AcDbAttributeDefinition
  3

  2
AUTOATTR0
 70
     0
 74
     1
  0
ENDBLK
  5
81
330
7F
100
AcDbEntity
  8
0
100
AcDbBlockEnd
  0
BLOCK
  5
D5
330
D4
100
AcDbEntity
  8
0
100
AcDbBlockBegin
  2
_D
 70
     0
 10
0.0
 20
0.0
 30
0.0
  3
_D
  1
_D
  0
LINE
  5
D7
330
D4
100
AcDbEntity
  8
치수문자_일반주서
 62
     0
370
    -2
100
AcDbLine
 10
113.6
 20
8.000000000000014
 30
0.0
 11
113.6
 21
21.08914845620487
 31
0.0
  0
LINE
  5
D8
330
D4
100
AcDbEntity
  8
치수문자_일반주서
 62
     0
370
    -2
100
AcDbLine
 10
12.00000000000001
 20
7.997291212715494
 30
0.0
 11
12.00000000000001
 21
21.08914845620487
 31
0.0
  0
LINE
  5
D9
330
D4
100
AcDbEntity
  8
치수문자_일반주서
 62
     0
370
    -2
100
AcDbLine
 10
110.298
 20
21.08914845620487
 30
0.0
 11
15.30200000000001
 21
21.08914845620487
 31
0.0
  0
SOLID
  5
DA
330
D4
100
AcDbEntity
  8
치수문자_일반주서
 62
     0
100
AcDbTrace
 10
110.298
 20
20.53881512287154
 30
0.0
 11
110.298
 21
21.63948178953821
 31
0.0
 12
113.6
 22
21.08914845620487
 32
0.0
 13
113.6
 23
21.08914845620487
 33
0.0
  0
SOLID
  5
DB
330
D4
100
AcDbEntity
  8
치수문자_일반주서
 62
     0
100
AcDbTrace
 10
15.30200000000001
 20
21.63948178953821
 30
0.0
 11
15.30200000000001
 21
20.53881512287154
 31
0.0
 12
12.00000000000001
 22
21.08914845620487
 32
0.0
 13
12.00000000000001
 23
21.08914845620487
 33
0.0
  0
MTEXT
  5
DC
330
D4
100
AcDbEntity
  8
치수문자_일반주서
 62
     0
100
AcDbMText
 10
65.1610679759445
 20
25.46414845620487
 30
0.0
 40
3.5
 41
0.0
 71
     2
 72
     1
  1
\A1;101.6 [4]
  7
SLDTEXTSTYLE0
 73
     1
 44
1.0
  0
POINT
  5
DD
330
D4
100
AcDbEntity
  8
Defpoints
 62
     0
100
AcDbPoint
 10
113.6
 20
7.937500000000014
 30
0.0
  0
POINT
  5
DE
330
D4
100
AcDbEntity
  8
Defpoints
 62
     0
100
AcDbPoint
 10
12.00000000000001
 20
7.934791212715494
 30
0.0
  0
POINT
  5
DF
330
D4
100
AcDbEntity
  8
Defpoints
 62
     0
100
AcDbPoint
 10
12.00000000000001
 20
21.08914845620487
 30
0.0
  0
ENDBLK
  5
D6
330
D4
100
AcDbEntity
  8
0
100
AcDbBlockEnd
  0
BLOCK
  5
EA
330
E9
100
AcDbEntity
  8
0
100
AcDbBlockBegin
  2
_D_1
 70
     0
 10
0.0
 20
0.0
 30
0.0
  3
_D_1
  1
_D_1
  0
LINE
  5
EC
330
E9
100
AcDbEntity
  8
치수문자_일반주서
 62
     0
370
    -2
100
AcDbLine
 10
113.6
 20
8.000000000000014
 30
0.0
 11
113.6
 21
36.81035365400766
 31
0.0
  0
LINE
  5
ED
330
E9
100
AcDbEntity
  8
치수문자_일반주서
 62
     0
370
    -2
100
AcDbLine
 10
-41.97499999999999
 20
6.412500000000002
 30
0.0
 11
-41.97500000000001
 21
36.81035365400766
 31
0.0
  0
LINE
  5
EE
330
E9
100
AcDbEntity
  8
치수문자_일반주서
 62
     0
370
    -2
100
AcDbLine
 10
110.298
 20
36.81035365400766
 30
0.0
 11
-38.67300000000001
 21
36.81035365400766
 31
0.0
  0
SOLID
  5
EF
330
E9
100
AcDbEntity
  8
치수문자_일반주서
 62
     0
100
AcDbTrace
 10
110.298
 20
36.26002032067432
 30
0.0
 11
110.298
 21
37.36068698734099
 31
0.0
 12
113.6
 22
36.81035365400766
 32
0.0
 13
113.6
 23
36.81035365400766
 33
0.0
  0
SOLID
  5
F0
330
E9
100
AcDbEntity
  8
치수문자_일반주서
 62
     0
100
AcDbTrace
 10
-38.67300000000001
 20
37.36068698734099
 30
0.0
 11
-38.67300000000001
 21
36.26002032067432
 31
0.0
 12
-41.97500000000001
 22
36.81035365400766
 32
0.0
 13
-41.97500000000001
 23
36.81035365400766
 33
0.0
  0
MTEXT
  5
F1
330
E9
100
AcDbEntity
  8
치수문자_일반주서
 62
     0
100
AcDbMText
 10
35.8125
 20
41.18535365400766
 30
0.0
 40
3.5
 41
0.0
 71
     2
 72
     1
  1
\A1;155.58 [6 1/8]
  7
SLDTEXTSTYLE0
 73
     1
 44
1.0
  0
POINT
  5
F2
330
E9
100
AcDbEntity
  8
Defpoints
 62
     0
100
AcDbPoint
 10
113.6
 20
7.937500000000014
 30
0.0
  0
POINT
  5
F3
330
E9
100
AcDbEntity
  8
Defpoints
 62
     0
100
AcDbPoint
 10
-41.97499999999999
 20
6.350000000000002
 30
0.0
  0
POINT
  5
F4
330
E9
100
AcDbEntity
  8
Defpoints
 62
     0
100
AcDbPoint
 10
-41.97499999999999
 20
36.81035365400766
 30
0.0
  0
ENDBLK
  5
EB
330
E9
100
AcDbEntity
  8
0
100
AcDbBlockEnd
  0
BLOCK
  5
FE
330
FD
100
AcDbEntity
  8
0
100
AcDbBlockBegin
  2
_D_2
 70
     0
 10
0.0
 20
0.0
 30
0.0
  3
_D_2
  1
_D_2
  0
LINE
  5
100
330
FD
100
AcDbEntity
  8
치수문자_일반주서
 62
     0
370
    -2
100
AcDbLine
 10
-40.45
 20
7.937500000000013
 30
0.0
 11
-52.64077283782723
 21
7.937499999999967
 31
0.0
  0
LINE
  5
101
330
FD
100
AcDbEntity
  8
치수문자_일반주서
 62
     0
370
    -2
100
AcDbLine
 10
-40.45
 20
-7.937500000000015
 30
0.0
 11
-52.64077283782717
 21
-7.937500000000061
 31
0.0
  0
LINE
  5
102
330
FD
100
AcDbEntity
  8
치수문자_일반주서
 62
     0
370
    -2
100
AcDbLine
 10
-52.64077283782721
 20
4.635499999999968
 30
0.0
 11
-52.64077283782719
 21
-4.635500000000062
 31
0.0
  0
SOLID
  5
103
330
FD
100
AcDbEntity
  8
치수문자_일반주서
 62
     0
100
AcDbTrace
 10
-52.09043950449388
 20
4.635499999999969
 30
0.0
 11
-53.19110617116055
 21
4.635499999999966
 31
0.0
 12
-52.64077283782723
 22
7.937499999999967
 32
0.0
 13
-52.64077283782723
 23
7.937499999999967
 33
0.0
  0
SOLID
  5
104
330
FD
100
AcDbEntity
  8
치수문자_일반주서
 62
     0
100
AcDbTrace
 10
-53.19110617116052
 20
-4.635500000000063
 30
0.0
 11
-52.09043950449385
 21
-4.63550000000006
 31
0.0
 12
-52.64077283782717
 22
-7.937500000000061
 32
0.0
 13
-52.64077283782717
 23
-7.937500000000061
 33
0.0
  0
MTEXT
  5
105
330
FD
100
AcDbEntity
  8
치수문자_일반주서
 62
     0
100
AcDbMText
 10
-57.0157728378272
 20
-0.0000000000000022
 30
0.0
 40
3.5
 41
0.0
 71
     2
 72
     1
  1
\A1;%%c15.88 [5/8]
  7
SLDTEXTSTYLE0
 11
-3.580687802255617E-15
 21
1.0
 31
0.0
 73
     1
 44
1.0
  0
POINT
  5
106
330
FD
100
AcDbEntity
  8
Defpoints
 62
     0
100
AcDbPoint
 10
-40.3875
 20
7.937500000000013
 30
0.0
  0
POINT
  5
107
330
FD
100
AcDbEntity
  8
Defpoints
 62
     0
100
AcDbPoint
 10
-40.3875
 20
-7.937500000000015
 30
0.0
  0
POINT
  5
108
330
FD
100
AcDbEntity
  8
Defpoints
 62
     0
100
AcDbPoint
 10
-52.64077283782717
 20
-7.937500000000061
 30
0.0
  0
ENDBLK
  5
FF
330
FD
100
AcDbEntity
  8
0
100
AcDbBlockEnd
  0
BLOCK
  5
113
330
112
100
AcDbEntity
  8
0
100
AcDbBlockBegin
  2
_NONE
 70
     0
 10
0.0
 20
0.0
 30
0.0
  3
_NONE
  1
_NONE
  0
ENDBLK
  5
114
330
112
100
AcDbEntity
  8
0
100
AcDbBlockEnd
  0
BLOCK
  5
116
330
115
100
AcDbEntity
  8
0
100
AcDbBlockBegin
  2
_D_3
 70
     0
 10
0.0
 20
0.0
 30
0.0
  3
_D_3
  1
_D_3
  0
LINE
  5
118
330
115
100
AcDbEntity
  8
치수문자_일반주서
100
AcDbLine
 10
-8.884833931663604
 20
-2.238291502344711
 30
0.0
 11
-8.884833931663604
 21
-2.949228987909211
 31
0.0
  0
LINE
  5
119
330
115
100
AcDbEntity
  8
치수문자_일반주서
100
AcDbLine
 10
-8.884833931663604
 20
-2.949228987909211
 30
0.0
 11
-3.328583940604301
 21
-2.949228987909211
 31
0.0
  0
LINE
  5
11A
330
115
100
AcDbEntity
  8
치수문자_일반주서
100
AcDbLine
 10
-3.328583940604301
 20
-2.949228987909211
 30
0.0
 11
-3.328583940604301
 21
-2.238291502344711
 31
0.0
  0
LINE
  5
11B
330
115
100
AcDbEntity
  8
치수문자_일반주서
100
AcDbLine
 10
-8.884833931663604
 20
8.590441359792548
 30
0.0
 11
-8.884833931663604
 21
9.301378845357048
 31
0.0
  0
LINE
  5
11C
330
115
100
AcDbEntity
  8
치수문자_일반주서
100
AcDbLine
 10
-8.884833931663604
 20
9.301378845357048
 30
0.0
 11
-3.328583940604301
 21
9.301378845357048
 31
0.0
  0
LINE
  5
11D
330
115
100
AcDbEntity
  8
치수문자_일반주서
100
AcDbLine
 10
-3.328583940604301
 20
9.301378845357048
 30
0.0
 11
-3.328583940604301
 21
8.590441359792548
 31
0.0
  0
MTEXT
  5
11E
330
115
100
AcDbEntity
  8
치수문자_일반주서
100
AcDbMText
 10
-7.840320855183196
 20
-1.34961960173334
 30
0.0
 40
3.5
 41
0.0
 71
     1
 72
     1
  1
0.00
  7
SLDTEXTSTYLE0
 11
6.123233995736766E-17
 21
1.0
 31
0.0
 73
     1
 44
1.0
  0
MTEXT
  5
11F
330
115
100
AcDbEntity
  8
치수문자_일반주서
100
AcDbMText
 10
-2.603689304822725
 20
-0.7561994836398495
 30
0.0
 40
3.5
 41
0.0
 71
     1
 72
     1
  1
%%c
  7
SLDTEXTSTYLE0
 11
6.123233995736766E-17
 21
1.0
 31
0.0
 73
     1
 44
1.0
  0
MTEXT
  5
120
330
115
100
AcDbEntity
  8
치수문자_일반주서
100
AcDbMText
 10
-2.603689304822725
 20
4.522237914734231
 30
0.0
 40
3.5
 41
0.0
 71
     1
 72
     1
  1
0
  7
SLDTEXTSTYLE0
 11
6.123233995736766E-17
 21
1.0
 31
0.0
 73
     1
 44
1.0
  0
ENDBLK
  5
117
330
115
100
AcDbEntity
  8
0
100
AcDbBlockEnd
  0
BLOCK
  5
129
330
128
100
AcDbEntity
  8
0
100
AcDbBlockBegin
  2
SW_DOWELSYMBOL_0
 70
     0
 10
0.0
 20
0.0
 30
0.0
  3
SW_DOWELSYMBOL_0
  1
SW_DOWELSYMBOL_0
  0
CIRCLE
  5
12B
330
128
100
AcDbEntity
  8
해칭선
 62
     0
100
AcDbCircle
 10
0.0
 20
0.0
 30
0.0
 40
3.000000000000001
  0
HATCH
  5
12C
330
128
100
AcDbEntity
  8
0
  6
Continuous
 62
     0
370
     0
100
AcDbHatch
 10
0.0
 20
0.0
 30
0.0
210
0.0
220
0.0
230
1.0
  2
SOLID
 70
     1
 71
     0
 91
        1
 92
        0
 93
        3
 72
     2
 10
0.0
 20
0.0
 40
3.000000000000001
 50
0.0
 51
90.0
 73
     1
 72
     1
 10
0.0
 20
3.000000000000001
 11
0.0
 21
0.0
 72
     1
 10
0.0
 20
0.0
 11
3.000000000000001
 21
0.0
 97
        0
 75
     0
 76
     1
 98
        1
 10
0.0
 20
0.0
  0
HATCH
  5
12D
330
128
100
AcDbEntity
  8
0
  6
Continuous
 62
     0
370
     0
100
AcDbHatch
 10
0.0
 20
0.0
 30
0.0
210
0.0
220
0.0
230
1.0
  2
SOLID
 70
     1
 71
     0
 91
        1
 92
        0
 93
        3
 72
     2
 10
0.0
 20
0.0
 40
3.000000000000001
 50
180.0
 51
270.0000000000007
 73
     1
 72
     1
 10
0.0
 20
-3.000000000000001
 11
0.0
 21
0.0
 72
     1
 10
0.0
 20
0.0
 11
-3.000000000000001
 21
0.0
 97
        0
 75
     0
 76
     1
 98
        1
 10
0.0
 20
0.0
  0
ENDBLK
  5
12A
330
128
100
AcDbEntity
  8
0
100
AcDbBlockEnd
  0
BLOCK
  5
1E0
330
1DF
100
AcDbEntity
  8
0
100
AcDbBlockBegin
  2
*D8
 70
     1
 10
0.0
 20
0.0
 30
0.0
  3
*D8
  1
*D9
  0
LINE
  5
1E1
330
1DF
100
AcDbEntity
  8
치수문자_일반주서
 62
     0
370
    -2
100
AcDbLine
 10
142.4207728378272
 20
17.72500000000004
 30
0.0
 11
170.088979611317
 21
17.72500000000004
 31
0.0
  0
LINE
  5
1E2
330
1DF
100
AcDbEntity
  8
치수문자_일반주서
 62
     0
370
    -2
100
AcDbLine
 10
142.4207728378272
 20
5.025000000000037
 30
0.0
 11
170.088979611317
 21
5.025000000000034
 31
0.0
  0
LINE
  5
1E3
330
1DF
100
AcDbEntity
  8
치수문자_일반주서
 62
     0
370
    -2
100
AcDbLine
 10
170.088979611317
 20
17.72500000000004
 30
0.0
 11
170.088979611317
 21
53.2034433561876
 31
0.0
  0
LINE
  5
1E4
330
1DF
100
AcDbEntity
  8
치수문자_일반주서
 62
     0
370
    -2
100
AcDbLine
 10
170.088979611317
 20
14.42300000000004
 30
0.0
 11
170.088979611317
 21
8.327000000000034
 31
0.0
  0
SOLID
  5
1E5
330
1DF
100
AcDbEntity
  8
치수문자_일반주서
 62
     0
100
AcDbTrace
 10
170.6393129446504
 20
14.42300000000004
 30
0.0
 11
169.5386462779837
 21
14.42300000000004
 31
0.0
 12
170.088979611317
 22
17.72500000000004
 32
0.0
 13
170.088979611317
 23
17.72500000000004
 33
0.0
  0
SOLID
  5
1E6
330
1DF
100
AcDbEntity
  8
치수문자_일반주서
 62
     0
100
AcDbTrace
 10
169.5386462779837
 20
8.327000000000034
 30
0.0
 11
170.6393129446504
 21
8.327000000000034
 31
0.0
 12
170.088979611317
 22
5.025000000000034
 32
0.0
 13
170.088979611317
 23
5.025000000000034
 33
0.0
  0
MTEXT
  5
1E7
330
1DF
100
AcDbEntity
  8
치수문자_일반주서
 62
     0
100
AcDbMText
 10
167.463979611317
 20
42.2659433561876
 30
0.0
 40
3.5
 41
0.0
 71
     5
 72
     1
  1
\A1;12.7 [1/2]
  7
SLDTEXTSTYLE0
 11
0.0
 21
1.0
 31
0.0
 73
     1
 44
1.0
  0
POINT
  5
1E8
330
1DF
100
AcDbEntity
  8
Defpoints
 62
     0
100
AcDbPoint
 10
142.3582728378272
 20
17.72500000000004
 30
0.0
  0
POINT
  5
1E9
330
1DF
100
AcDbEntity
  8
Defpoints
 62
     0
100
AcDbPoint
 10
142.3582728378272
 20
5.025000000000037
 30
0.0
  0
POINT
  5
1EA
330
1DF
100
AcDbEntity
  8
Defpoints
 62
     0
100
AcDbPoint
 10
170.088979611317
 20
5.025000000000035
 30
0.0
  0
ENDBLK
  5
1EB
330
1DF
100
AcDbEntity
  8
0
100
AcDbBlockEnd
  0
BLOCK
  5
1F6
330
1F5
100
AcDbEntity
  8
0
100
AcDbBlockBegin
  2
*D9
 70
     1
 10
0.0
 20
0.0
 30
0.0
  3
*D9
  1
*D10
  0
LINE
  5
1F8
330
1F5
100
AcDbEntity
  8
치수문자_일반주서
 62
     0
370
    -2
100
AcDbLine
 10
142.3582728378272
 20
17.78750000000004
 30
0.0
 11
142.3582728378272
 21
30.88248634215368
 31
0.0
  0
LINE
  5
1F9
330
1F5
100
AcDbEntity
  8
치수문자_일반주서
 62
     0
370
    -2
100
AcDbLine
 10
66.15827283782723
 20
17.04652111533887
 30
0.0
 11
66.15827283782723
 21
30.88248634215368
 31
0.0
  0
LINE
  5
1FA
330
1F5
100
AcDbEntity
  8
치수문자_일반주서
 62
     0
370
    -2
100
AcDbLine
 10
139.0562728378272
 20
30.88248634215368
 30
0.0
 11
69.46027283782723
 21
30.88248634215368
 31
0.0
  0
SOLID
  5
1FB
330
1F5
100
AcDbEntity
  8
치수문자_일반주서
 62
     0
100
AcDbTrace
 10
139.0562728378272
 20
30.33215300882035
 30
0.0
 11
139.0562728378272
 21
31.43281967548702
 31
0.0
 12
142.3582728378272
 22
30.88248634215368
 32
0.0
 13
142.3582728378272
 23
30.88248634215368
 33
0.0
  0
SOLID
  5
1FC
330
1F5
100
AcDbEntity
  8
치수문자_일반주서
 62
     0
100
AcDbTrace
 10
69.46027283782723
 20
31.43281967548702
 30
0.0
 11
69.46027283782723
 21
30.33215300882035
 31
0.0
 12
66.15827283782723
 22
30.88248634215368
 32
0.0
 13
66.15827283782723
 23
30.88248634215368
 33
0.0
  0
MTEXT
  5
1FD
330
1F5
100
AcDbEntity
  8
치수문자_일반주서
 62
     0
100
AcDbMText
 10
104.2582728378272
 20
35.25748634215368
 30
0.0
 40
3.5
 41
0.0
 71
     2
 72
     1
  1
\A1;76.2 [3]
  7
SLDTEXTSTYLE0
 73
     1
 44
1.0
  0
POINT
  5
1FE
330
1F5
100
AcDbEntity
  8
Defpoints
 62
     0
100
AcDbPoint
 10
142.3582728378272
 20
17.72500000000004
 30
0.0
  0
POINT
  5
1FF
330
1F5
100
AcDbEntity
  8
Defpoints
 62
     0
100
AcDbPoint
 10
66.15827283782723
 20
16.98402111533887
 30
0.0
  0
POINT
  5
200
330
1F5
100
AcDbEntity
  8
Defpoints
 62
     0
100
AcDbPoint
 10
66.15827283782723
 20
30.88248634215368
 30
0.0
  0
ENDBLK
  5
1F7
330
1F5
100
AcDbEntity
  8
0
100
AcDbBlockEnd
  0
BLOCK
  5
202
330
201
100
AcDbEntity
  8
0
100
AcDbBlockBegin
  2
*D10
 70
     1
 10
0.0
 20
0.0
 30
0.0
  3
*D10
  1
*D11
  0
LINE
  5
204
330
201
100
AcDbEntity
  8
치수문자_일반주서
 62
     0
370
    -2
100
AcDbLine
 10
142.3582728378272
 20
17.78750000000004
 30
0.0
 11
142.3582728378272
 21
46.60369153995646
 31
0.0
  0
LINE
  5
205
330
201
100
AcDbEntity
  8
치수문자_일반주서
 62
     0
370
    -2
100
AcDbLine
 10
15.35827283782724
 20
16.51750000000003
 30
0.0
 11
15.35827283782724
 21
46.60369153995646
 31
0.0
  0
LINE
  5
206
330
201
100
AcDbEntity
  8
치수문자_일반주서
 62
     0
370
    -2
100
AcDbLine
 10
139.0562728378272
 20
46.60369153995646
 30
0.0
 11
18.66027283782724
 21
46.60369153995646
 31
0.0
  0
SOLID
  5
207
330
201
100
AcDbEntity
  8
치수문자_일반주서
 62
     0
100
AcDbTrace
 10
139.0562728378272
 20
46.05335820662312
 30
0.0
 11
139.0562728378272
 21
47.15402487328979
 31
0.0
 12
142.3582728378272
 22
46.60369153995646
 32
0.0
 13
142.3582728378272
 23
46.60369153995646
 33
0.0
  0
SOLID
  5
208
330
201
100
AcDbEntity
  8
치수문자_일반주서
 62
     0
100
AcDbTrace
 10
18.66027283782724
 20
47.15402487328979
 30
0.0
 11
18.66027283782724
 21
46.05335820662312
 31
0.0
 12
15.35827283782724
 22
46.60369153995646
 32
0.0
 13
15.35827283782724
 23
46.60369153995646
 33
0.0
  0
MTEXT
  5
209
330
201
100
AcDbEntity
  8
치수문자_일반주서
 62
     0
100
AcDbMText
 10
78.85827283782724
 20
50.97869153995646
 30
0.0
 40
3.5
 41
0.0
 71
     2
 72
     1
  1
\A1;127 [5]
  7
SLDTEXTSTYLE0
 73
     1
 44
1.0
  0
POINT
  5
20A
330
201
100
AcDbEntity
  8
Defpoints
 62
     0
100
AcDbPoint
 10
142.3582728378272
 20
17.72500000000004
 30
0.0
  0
POINT
  5
20B
330
201
100
AcDbEntity
  8
Defpoints
 62
     0
100
AcDbPoint
 10
15.35827283782724
 20
16.45500000000003
 30
0.0
  0
POINT
  5
20C
330
201
100
AcDbEntity
  8
Defpoints
 62
     0
100
AcDbPoint
 10
15.35827283782724
 20
46.60369153995646
 30
0.0
  0
ENDBLK
  5
203
330
201
100
AcDbEntity
  8
0
100
AcDbBlockEnd
  0
BLOCK
  5
20E
330
20D
100
AcDbEntity
  8
0
100
AcDbBlockBegin
  2
*D11
 70
     1
 10
0.0
 20
0.0
 30
0.0
  3
*D11
  1
*D12
  0
LINE
  5
210
330
20D
100
AcDbEntity
  8
치수문자_일반주서
 62
     0
370
    -2
100
AcDbLine
 10
16.56577283782723
 20
17.72500000000002
 30
0.0
 11
4.37500000000002
 21
17.72499999999997
 31
0.0
  0
LINE
  5
211
330
20D
100
AcDbEntity
  8
치수문자_일반주서
 62
     0
370
    -2
100
AcDbLine
 10
16.56577283782723
 20
5.025000000000031
 30
0.0
 11
4.375000000000065
 21
5.024999999999984
 31
0.0
  0
LINE
  5
212
330
20D
100
AcDbEntity
  8
치수문자_일반주서
 62
     0
370
    -2
100
AcDbLine
 10
4.375000000000032
 20
14.42299999999997
 30
0.0
 11
4.375000000000053
 21
8.326999999999984
 31
0.0
  0
SOLID
  5
213
330
20D
100
AcDbEntity
  8
치수문자_일반주서
 62
     0
100
AcDbTrace
 10
4.925333333333366
 20
14.42299999999998
 30
0.0
 11
3.824666666666699
 21
14.42299999999997
 31
0.0
 12
4.37500000000002
 22
17.72499999999997
 32
0.0
 13
4.37500000000002
 23
17.72499999999997
 33
0.0
  0
SOLID
  5
214
330
20D
100
AcDbEntity
  8
치수문자_일반주서
 62
     0
100
AcDbTrace
 10
3.82466666666672
 20
8.326999999999982
 30
0.0
 11
4.925333333333387
 21
8.326999999999986
 31
0.0
 12
4.375000000000065
 22
5.024999999999984
 32
0.0
 13
4.375000000000065
 23
5.024999999999984
 33
0.0
  0
MTEXT
  5
215
330
20D
100
AcDbEntity
  8
치수문자_일반주서
 62
     0
100
AcDbMText
 10
0.0000000000000426
 20
11.37500000000001
 30
0.0
 40
3.5
 41
0.0
 71
     2
 72
     1
  1
\A1;%%c12.7 [1/2]
  7
SLDTEXTSTYLE0
 11
-3.496765431890260E-15
 21
1.0
 31
0.0
 73
     1
 44
1.0
  0
POINT
  5
216
330
20D
100
AcDbEntity
  8
Defpoints
 62
     0
100
AcDbPoint
 10
16.62827283782723
 20
17.72500000000002
 30
0.0
  0
POINT
  5
217
330
20D
100
AcDbEntity
  8
Defpoints
 62
     0
100
AcDbPoint
 10
16.62827283782723
 20
5.025000000000031
 30
0.0
  0
POINT
  5
218
330
20D
100
AcDbEntity
  8
Defpoints
 62
     0
100
AcDbPoint
 10
4.375000000000064
 20
5.024999999999984
 30
0.0
  0
ENDBLK
  5
20F
330
20D
100
AcDbEntity
  8
0
100
AcDbBlockEnd
  0
BLOCK
  5
258
330
257
100
AcDbEntity
  8
0
100
AcDbBlockBegin
  2
*D12
 70
     1
 10
0.0
 20
0.0
 30
0.0
  3
*D12
  1
*D13
  0
LINE
  5
25A
330
257
100
AcDbEntity
  8
치수문자_일반주서
 62
     0
370
    -2
100
AcDbLine
 10
286.0956714434791
 20
-57.13363866238812
 30
0.0
 11
286.0956714434791
 21
-44.03865232023448
 31
0.0
  0
LINE
  5
25B
330
257
100
AcDbEntity
  8
치수문자_일반주서
 62
     0
370
    -2
100
AcDbLine
 10
209.895671443479
 20
-57.87461754704928
 30
0.0
 11
209.895671443479
 21
-44.03865232023448
 31
0.0
  0
LINE
  5
25C
330
257
100
AcDbEntity
  8
치수문자_일반주서
 62
     0
370
    -2
100
AcDbLine
 10
282.7936714434791
 20
-44.03865232023448
 30
0.0
 11
213.197671443479
 21
-44.03865232023448
 31
0.0
  0
SOLID
  5
25D
330
257
100
AcDbEntity
  8
치수문자_일반주서
 62
     0
100
AcDbTrace
 10
282.7936714434791
 20
-44.58898565356781
 30
0.0
 11
282.7936714434791
 21
-43.48831898690114
 31
0.0
 12
286.0956714434791
 22
-44.03865232023448
 32
0.0
 13
286.0956714434791
 23
-44.03865232023448
 33
0.0
  0
SOLID
  5
25E
330
257
100
AcDbEntity
  8
치수문자_일반주서
 62
     0
100
AcDbTrace
 10
213.197671443479
 20
-43.48831898690114
 30
0.0
 11
213.197671443479
 21
-44.58898565356781
 31
0.0
 12
209.895671443479
 22
-44.03865232023448
 32
0.0
 13
209.895671443479
 23
-44.03865232023448
 33
0.0
  0
MTEXT
  5
25F
330
257
100
AcDbEntity
  8
치수문자_일반주서
 62
     0
100
AcDbMText
 10
247.9956714434791
 20
-39.66365232023448
 30
0.0
 40
3.5
 41
0.0
 71
     2
 72
     1
  1
\A1;76.2 [3]
  7
SLDTEXTSTYLE0
 73
     1
 44
1.0
  0
POINT
  5
260
330
257
100
AcDbEntity
  8
Defpoints
 62
     0
100
AcDbPoint
 10
286.0956714434791
 20
-57.19613866238812
 30
0.0
  0
POINT
  5
261
330
257
100
AcDbEntity
  8
Defpoints
 62
     0
100
AcDbPoint
 10
209.895671443479
 20
-57.93711754704928
 30
0.0
  0
POINT
  5
262
330
257
100
AcDbEntity
  8
Defpoints
 62
     0
100
AcDbPoint
 10
209.895671443479
 20
-44.03865232023448
 30
0.0
  0
ENDBLK
  5
259
330
257
100
AcDbEntity
  8
0
100
AcDbBlockEnd
  0
BLOCK
  5
264
330
263
100
AcDbEntity
  8
0
100
AcDbBlockBegin
  2
*D13
 70
     1
 10
0.0
 20
0.0
 30
0.0
  3
*D13
  1
*D14
  0
LINE
  5
266
330
263
100
AcDbEntity
  8
치수문자_일반주서
 62
     0
370
    -2
100
AcDbLine
 10
286.0956714434791
 20
-57.13363866238812
 30
0.0
 11
286.0956714434791
 21
-28.3174471224317
 31
0.0
  0
LINE
  5
267
330
263
100
AcDbEntity
  8
치수문자_일반주서
 62
     0
370
    -2
100
AcDbLine
 10
159.0956714434791
 20
-58.40363866238813
 30
0.0
 11
159.0956714434791
 21
-28.3174471224317
 31
0.0
  0
LINE
  5
268
330
263
100
AcDbEntity
  8
치수문자_일반주서
 62
     0
370
    -2
100
AcDbLine
 10
282.7936714434791
 20
-28.3174471224317
 30
0.0
 11
162.3976714434791
 21
-28.3174471224317
 31
0.0
  0
SOLID
  5
269
330
263
100
AcDbEntity
  8
치수문자_일반주서
 62
     0
100
AcDbTrace
 10
282.7936714434791
 20
-28.86778045576504
 30
0.0
 11
282.7936714434791
 21
-27.76711378909837
 31
0.0
 12
286.0956714434791
 22
-28.3174471224317
 32
0.0
 13
286.0956714434791
 23
-28.3174471224317
 33
0.0
  0
SOLID
  5
26A
330
263
100
AcDbEntity
  8
치수문자_일반주서
 62
     0
100
AcDbTrace
 10
162.3976714434791
 20
-27.76711378909837
 30
0.0
 11
162.3976714434791
 21
-28.86778045576504
 31
0.0
 12
159.0956714434791
 22
-28.3174471224317
 32
0.0
 13
159.0956714434791
 23
-28.3174471224317
 33
0.0
  0
MTEXT
  5
26B
330
263
100
AcDbEntity
  8
치수문자_일반주서
 62
     0
100
AcDbMText
 10
222.5956714434791
 20
-23.9424471224317
 30
0.0
 40
3.5
 41
0.0
 71
     2
 72
     1
  1
\A1;127 [5]
  7
SLDTEXTSTYLE0
 73
     1
 44
1.0
  0
POINT
  5
26C
330
263
100
AcDbEntity
  8
Defpoints
 62
     0
100
AcDbPoint
 10
286.0956714434791
 20
-57.19613866238812
 30
0.0
  0
POINT
  5
26D
330
263
100
AcDbEntity
  8
Defpoints
 62
     0
100
AcDbPoint
 10
159.0956714434791
 20
-58.46613866238813
 30
0.0
  0
POINT
  5
26E
330
263
100
AcDbEntity
  8
Defpoints
 62
     0
100
AcDbPoint
 10
159.0956714434791
 20
-28.3174471224317
 30
0.0
  0
ENDBLK
  5
265
330
263
100
AcDbEntity
  8
0
100
AcDbBlockEnd
  0
BLOCK
  5
270
330
26F
100
AcDbEntity
  8
0
100
AcDbBlockBegin
  2
*D14
 70
     1
 10
0.0
 20
0.0
 30
0.0
  3
*D14
  1
*D15
  0
LINE
  5
272
330
26F
100
AcDbEntity
  8
치수문자_일반주서
 62
     0
370
    -2
100
AcDbLine
 10
160.3031714434791
 20
-57.19613866238814
 30
0.0
 11
148.1123986056519
 21
-57.19613866238818
 31
0.0
  0
LINE
  5
273
330
26F
100
AcDbEntity
  8
치수문자_일반주서
 62
     0
370
    -2
100
AcDbLine
 10
160.3031714434791
 20
-69.89613866238813
 30
0.0
 11
148.1123986056519
 21
-69.89613866238817
 31
0.0
  0
LINE
  5
274
330
26F
100
AcDbEntity
  8
치수문자_일반주서
 62
     0
370
    -2
100
AcDbLine
 10
148.1123986056519
 20
-60.49813866238818
 30
0.0
 11
148.1123986056519
 21
-66.59413866238816
 31
0.0
  0
SOLID
  5
275
330
26F
100
AcDbEntity
  8
치수문자_일반주서
 62
     0
100
AcDbTrace
 10
148.6627319389852
 20
-60.49813866238818
 30
0.0
 11
147.5620652723186
 21
-60.49813866238818
 31
0.0
 12
148.1123986056519
 22
-57.19613866238818
 32
0.0
 13
148.1123986056519
 23
-57.19613866238818
 33
0.0
  0
SOLID
  5
276
330
26F
100
AcDbEntity
  8
치수문자_일반주서
 62
     0
100
AcDbTrace
 10
147.5620652723186
 20
-66.59413866238816
 30
0.0
 11
148.6627319389852
 21
-66.59413866238816
 31
0.0
 12
148.1123986056519
 22
-69.89613866238817
 32
0.0
 13
148.1123986056519
 23
-69.89613866238817
 33
0.0
  0
MTEXT
  5
277
330
26F
100
AcDbEntity
  8
치수문자_일반주서
 62
     0
100
AcDbMText
 10
143.7373986056519
 20
-63.54613866238816
 30
0.0
 40
3.5
 41
0.0
 71
     2
 72
     1
  1
\A1;%%c12.7 [1/2]
  7
SLDTEXTSTYLE0
 11
-4.475859752819533E-15
 21
1.0
 31
0.0
 73
     1
 44
1.0
  0
POINT
  5
278
330
26F
100
AcDbEntity
  8
Defpoints
 62
     0
100
AcDbPoint
 10
160.3656714434791
 20
-57.19613866238814
 30
0.0
  0
POINT
  5
279
330
26F
100
AcDbEntity
  8
Defpoints
 62
     0
100
AcDbPoint
 10
160.3656714434791
 20
-69.89613866238813
 30
0.0
  0
POINT
  5
27A
330
26F
100
AcDbEntity
  8
Defpoints
 62
     0
100
AcDbPoint
 10
148.1123986056519
 20
-69.89613866238817
 30
0.0
  0
ENDBLK
  5
271
330
26F
100
AcDbEntity
  8
0
100
AcDbBlockEnd
  0
BLOCK
  5
27C
330
27B
100
AcDbEntity
  8
0
100
AcDbBlockBegin
  2
*D15
 70
     1
 10
0.0
 20
0.0
 30
0.0
  3
*D15
  1
*D16
  0
LINE
  5
27E
330
27B
100
AcDbEntity
  8
치수문자_일반주서
 62
     0
370
    -2
100
AcDbLine
 10
286.1581714434791
 20
-57.19613866238812
 30
0.0
 11
313.8263782169689
 21
-57.19613866238812
 31
0.0
  0
LINE
  5
27F
330
27B
100
AcDbEntity
  8
치수문자_일반주서
 62
     0
370
    -2
100
AcDbLine
 10
286.1581714434791
 20
-69.89613866238813
 30
0.0
 11
313.8263782169689
 21
-69.89613866238813
 31
0.0
  0
LINE
  5
280
330
27B
100
AcDbEntity
  8
치수문자_일반주서
 62
     0
370
    -2
100
AcDbLine
 10
313.8263782169689
 20
-57.19613866238812
 30
0.0
 11
313.8263782169689
 21
-21.71769530620056
 31
0.0
  0
LINE
  5
281
330
27B
100
AcDbEntity
  8
치수문자_일반주서
 62
     0
370
    -2
100
AcDbLine
 10
313.8263782169689
 20
-60.49813866238812
 30
0.0
 11
313.8263782169689
 21
-66.59413866238813
 31
0.0
  0
SOLID
  5
282
330
27B
100
AcDbEntity
  8
치수문자_일반주서
 62
     0
100
AcDbTrace
 10
314.3767115503022
 20
-60.49813866238812
 30
0.0
 11
313.2760448836355
 21
-60.49813866238812
 31
0.0
 12
313.8263782169689
 22
-57.19613866238812
 32
0.0
 13
313.8263782169689
 23
-57.19613866238812
 33
0.0
  0
SOLID
  5
283
330
27B
100
AcDbEntity
  8
치수문자_일반주서
 62
     0
100
AcDbTrace
 10
313.2760448836355
 20
-66.59413866238813
 30
0.0
 11
314.3767115503022
 21
-66.59413866238813
 31
0.0
 12
313.8263782169689
 22
-69.89613866238813
 32
0.0
 13
313.8263782169689
 23
-69.89613866238813
 33
0.0
  0
MTEXT
  5
284
330
27B
100
AcDbEntity
  8
치수문자_일반주서
 62
     0
100
AcDbMText
 10
311.2013782169689
 20
-32.65519530620056
 30
0.0
 40
3.5
 41
0.0
 71
     5
 72
     1
  1
\A1;12.7 [1/2]
  7
SLDTEXTSTYLE0
 11
0.0
 21
1.0
 31
0.0
 73
     1
 44
1.0
  0
POINT
  5
285
330
27B
100
AcDbEntity
  8
Defpoints
 62
     0
100
AcDbPoint
 10
286.0956714434791
 20
-57.19613866238812
 30
0.0
  0
POINT
  5
286
330
27B
100
AcDbEntity
  8
Defpoints
 62
     0
100
AcDbPoint
 10
286.0956714434791
 20
-69.89613866238813
 30
0.0
  0
POINT
  5
287
330
27B
100
AcDbEntity
  8
Defpoints
 62
     0
100
AcDbPoint
 10
313.8263782169689
 20
-69.89613866238813
 30
0.0
  0
ENDBLK
  5
27D
330
27B
100
AcDbEntity
  8
0
100
AcDbBlockEnd
  0
BLOCK
  5
28E
330
28D
100
AcDbEntity
  8
0
100
AcDbBlockBegin
  2
*D16
 70
     1
 10
0.0
 20
0.0
 30
0.0
  3
*D16
  1
*D17
  0
LINE
  5
290
330
28D
100
AcDbEntity
  8
치수문자_일반주서
 62
     0
370
    -2
100
AcDbLine
 10
113.6625
 20
7.937500000000014
 30
0.0
 11
137.9788246974299
 21
7.937500000000014
 31
0.0
  0
LINE
  5
291
330
28D
100
AcDbEntity
  8
치수문자_일반주서
 62
     0
370
    -2
100
AcDbLine
 10
113.6625
 20
-7.937499999999986
 30
0.0
 11
137.9788246974299
 21
-7.937499999999986
 31
0.0
  0
LINE
  5
292
330
28D
100
AcDbEntity
  8
치수문자_일반주서
 62
     0
370
    -2
100
AcDbLine
 10
137.9788246974299
 20
7.937500000000014
 30
0.0
 11
137.9788246974299
 21
38.93788507688059
 31
0.0
  0
LINE
  5
293
330
28D
100
AcDbEntity
  8
치수문자_일반주서
 62
     0
370
    -2
100
AcDbLine
 10
137.9788246974299
 20
4.635500000000015
 30
0.0
 11
137.9788246974299
 21
-4.635499999999986
 31
0.0
  0
SOLID
  5
294
330
28D
100
AcDbEntity
  8
치수문자_일반주서
 62
     0
100
AcDbTrace
 10
138.5291580307632
 20
4.635500000000015
 30
0.0
 11
137.4284913640966
 21
4.635500000000015
 31
0.0
 12
137.9788246974299
 22
7.937500000000014
 32
0.0
 13
137.9788246974299
 23
7.937500000000014
 33
0.0
  0
SOLID
  5
295
330
28D
100
AcDbEntity
  8
치수문자_일반주서
 62
     0
100
AcDbTrace
 10
137.4284913640966
 20
-4.635499999999986
 30
0.0
 11
138.5291580307632
 21
-4.635499999999986
 31
0.0
 12
137.9788246974299
 22
-7.937499999999986
 32
0.0
 13
137.9788246974299
 23
-7.937499999999986
 33
0.0
  0
MTEXT
  5
296
330
28D
100
AcDbEntity
  8
치수문자_일반주서
 62
     0
100
AcDbMText
 10
135.3538246974299
 20
26.25038507688059
 30
0.0
 40
3.5
 41
0.0
 71
     5
 72
     1
  1
\A1;15.88 [5/8]
  7
SLDTEXTSTYLE0
 11
0.0
 21
1.0
 31
0.0
 73
     1
 44
1.0
  0
POINT
  5
297
330
28D
100
AcDbEntity
  8
Defpoints
 62
     0
100
AcDbPoint
 10
113.6
 20
7.937500000000014
 30
0.0
  0
POINT
  5
298
330
28D
100
AcDbEntity
  8
Defpoints
 62
     0
100
AcDbPoint
 10
113.6
 20
-7.937499999999986
 30
0.0
  0
POINT
  5
299
330
28D
100
AcDbEntity
  8
Defpoints
 62
     0
100
AcDbPoint
 10
137.9788246974299
 20
-7.937499999999988
 30
0.0
  0
ENDBLK
  5
28F
330
28D
100
AcDbEntity
  8
0
100
AcDbBlockEnd
  0
ENDSEC
  0
SECTION
  2
ENTITIES
  0
LINE
  5
96
330
1F
100
AcDbEntity
  8
외형선
  6
Continuous
370
    15
100
AcDbLine
 10
-40.3875
 20
-7.937500000000001
 30
0.0
 11
11.6406191111393
 21
-7.937500000000001
 31
0.0
  0
LINE
  5
97
330
1F
100
AcDbEntity
  8
외형선
  6
Continuous
370
    15
100
AcDbLine
 10
11.64061911113929
 20
7.937499999999999
 30
0.0
 11
-11.02192500000006
 21
7.937499999999999
 31
0.0
  0
LINE
  5
98
330
1F
100
AcDbEntity
  8
외형선
  6
Continuous
370
    15
100
AcDbLine
 10
-40.3875
 20
7.937499999999997
 30
0.0
 11
-41.97499999999999
 21
6.350000000000002
 31
0.0
  0
LINE
  5
99
330
1F
100
AcDbEntity
  8
외형선
  6
Continuous
370
    15
100
AcDbLine
 10
-41.97499999999999
 20
-6.350000000000004
 30
0.0
 11
-40.3875
 21
-7.937499999999999
 31
0.0
  0
LINE
  5
9A
330
1F
100
AcDbEntity
  8
0
  6
Continuous
 62
     1
370
    15
100
AcDbLine
 10
24.3055227063488
 20
2.328953609053388
 30
0.0
 11
24.20914665888757
 21
2.381130620653512
 31
0.0
  0
LINE
  5
9B
330
1F
100
AcDbEntity
  8
0
  6
Continuous
 62
     1
370
    15
100
AcDbLine
 10
71.58653923665204
 20
-7.937500000000008
 30
0.0
 11
76.42841721213354
 21
-7.937500000000008
 31
0.0
  0
LINE
  5
9C
330
1F
100
AcDbEntity
  8
0
  6
Continuous
 62
     1
370
    15
100
AcDbLine
 10
33.23788894896125
 20
7.937500000000006
 30
0.0
 11
28.39787175623651
 21
7.937500000000006
 31
0.0
  0
LINE
  5
9D
330
1F
100
AcDbEntity
  8
0
  6
Continuous
 62
     1
370
    15
100
AcDbLine
 10
28.39787175623653
 20
-7.937500000000008
 30
0.0
 11
33.23788894896136
 21
-7.937500000000008
 31
0.0
  0
LINE
  5
9E
330
1F
100
AcDbEntity
  8
0
  6
Continuous
 62
     1
370
    15
100
AcDbLine
 10
76.4284172121336
 20
7.937500000000006
 30
0.0
 11
71.58653923665211
 21
7.937500000000006
 31
0.0
  0
LINE
  5
9F
330
1F
100
AcDbEntity
  8
0
  6
Continuous
 62
     1
370
    15
100
AcDbLine
 10
49.99408208816637
 20
-7.937500000000008
 30
0.0
 11
54.83171639468408
 21
-7.937500000000008
 31
0.0
  0
LINE
  5
A0
330
1F
100
AcDbEntity
  8
0
  6
Continuous
 62
     1
370
    15
100
AcDbLine
 10
98.02425953999737
 20
7.937500000000006
 30
0.0
 11
93.1852618842259
 21
7.937500000000006
 31
0.0
  0
LINE
  5
A1
330
1F
100
AcDbEntity
  8
0
  6
Continuous
 62
     1
370
    15
100
AcDbLine
 10
93.18526188422581
 20
-7.937500000000008
 30
0.0
 11
98.02425953999735
 21
-7.937500000000008
 31
0.0
  0
LINE
  5
A2
330
1F
100
AcDbEntity
  8
0
  6
Continuous
 62
     1
370
    15
100
AcDbLine
 10
54.83171639468405
 20
7.937500000000006
 30
0.0
 11
49.99408208816626
 21
7.937500000000006
 31
0.0
  0
LINE
  5
A3
330
1F
100
AcDbEntity
  8
외형선
  6
Continuous
370
    15
100
AcDbLine
 10
11.49983469445919
 20
0.0811924319694088
 30
0.0
 11
11.4998346944592
 21
7.478373454164507
 31
0.0
  0
SPLINE
  5
A4
330
1F
100
AcDbEntity
  8
외형선
  6
Continuous
370
    15
100
AcDbSpline
210
0.0
220
0.0
230
1.0
 70
     8
 71
     3
 72
     8
 73
     4
 74
     0
 42
0.000000001
 43
0.00000001
 40
0.0
 40
0.0
 40
0.0
 40
0.0
 40
1.0
 40
1.0
 40
1.0
 40
1.0
 10
12.00000000000001
 20
-0.2073515387285836
 30
0.0
 10
11.83310049938075
 20
-0.1111447156150762
 30
0.0
 10
11.66632376564962
 20
-0.0149157645657147
 30
0.0
 10
11.4998346944592
 20
0.0812399423934919
 30
0.0
  0
SPLINE
  5
A5
330
1F
100
AcDbEntity
  8
외형선
  6
Continuous
370
    15
100
AcDbSpline
210
0.0
220
0.0
230
1.0
 70
     8
 71
     3
 72
     8
 73
     4
 74
     0
 42
0.000000001
 43
0.00000001
 40
0.0
 40
0.0
 40
0.0
 40
0.0
 40
1.0
 40
1.0
 40
1.0
 40
1.0
 10
11.99999999999999
 20
-2.930551959231412
 30
0.0
 10
11.83310049938073
 20
-2.841111758448792
 30
0.0
 10
11.66632376564962
 20
-2.751047073111939
 30
0.0
 10
11.4998346944592
 20
-2.660448649565452
 30
0.0
  0
LINE
  5
A6
330
1F
100
AcDbEntity
  8
외형선
  6
Continuous
370
    15
100
AcDbLine
 10
11.49983469445919
 20
-7.937084731750752
 30
0.0
 11
11.4998346944592
 21
-2.660420404757115
 31
0.0
  0
SPLINE
  5
A7
330
1F
100
AcDbEntity
  8
외형선
  6
Continuous
370
    15
100
AcDbSpline
210
0.0
220
0.0
230
1.0
 70
     8
 71
     3
 72
     8
 73
     4
 74
     0
 42
0.000000001
 43
0.00000001
 40
0.0
 40
0.0
 40
0.0
 40
0.0
 40
1.0
 40
1.0
 40
1.0
 40
1.0
 10
12.00000000000001
 20
-7.934791212715487
 30
0.0
 10
11.83310049938075
 20
-7.937305284261165
 30
0.0
 10
11.66632376564962
 20
-7.938068446328701
 30
0.0
 10
11.4998346944592
 20
-7.937084245600519
 30
0.0
  0
LINE
  5
A8
330
1F
100
AcDbEntity
  8
외형선
  6
Continuous
370
    15
100
AcDbLine
 10
11.64061911113929
 20
7.936438812393593
 30
0.0
 11
12.00000000000001
 21
7.934791212715485
 31
0.0
  0
SPLINE
  5
A9
330
1F
100
AcDbEntity
  8
외형선
  6
Continuous
370
    15
100
AcDbSpline
210
0.0
220
0.0
230
1.0
 70
     8
 71
     3
 72
     8
 73
     4
 74
     0
 42
0.000000001
 43
0.00000001
 40
0.0
 40
0.0
 40
0.0
 40
0.0
 40
1.0
 40
1.0
 40
1.0
 40
1.0
 10
11.99999999999999
 20
7.376704648028507
 30
0.0
 10
11.83310049938073
 20
7.412236659698189
 30
0.0
 10
11.66632376564962
 20
7.446132764069852
 30
0.0
 10
11.4998346944592
 20
7.478363406055216
 30
0.0
  0
LINE
  5
AA
330
1F
100
AcDbEntity
  8
외형선
  6
Continuous
370
    15
100
AcDbLine
 10
-40.3875
 20
-0.0000000000000015
 30
0.0
 11
-40.3875
 21
7.937499999999999
 31
0.0
  0
LINE
  5
AB
330
1F
100
AcDbEntity
  8
외형선
  6
Continuous
370
    15
100
AcDbLine
 10
-40.3875
 20
-7.937500000000001
 30
0.0
 11
-40.3875
 21
-0.0000000000000015
 31
0.0
  0
LINE
  5
AC
330
1F
100
AcDbEntity
  8
외형선
  6
Continuous
370
    15
100
AcDbLine
 10
12.00000000000002
 20
7.376704648028625
 30
0.0
 11
12.00000000000001
 21
7.934791212715485
 31
0.0
  0
LINE
  5
AD
330
1F
100
AcDbEntity
  8
외형선
  6
Continuous
370
    15
100
AcDbLine
 10
12.00000000000002
 20
-2.93055195923152
 30
0.0
 11
12.00000000000001
 21
-0.2073515387285836
 31
0.0
  0
SPLINE
  5
AE
330
1F
100
AcDbEntity
  8
외형선
  6
Continuous
370
    15
100
AcDbSpline
210
0.0
220
0.0
230
1.0
 70
    24
 71
     3
 72
    21
 73
    17
 74
     0
 42
0.000000001
 43
0.00000001
 40
0.0
 40
0.0
 40
0.0
 40
0.0
 40
0.0174756027940858
 40
0.0933981428537903
 40
0.1693206829134949
 40
0.2452432229732129
 40
0.321165763032931
 40
0.397088303092643
 40
0.473010843152355
 40
0.5489333832120663
 40
0.6248559232717776
 40
0.7007784633314829
 40
0.7767010033911883
 40
0.8526235434509067
 40
0.928546083510625
 40
1.0
 40
1.0
 40
1.0
 40
1.0
 10
11.99999999999997
 20
-0.3758548242782686
 30
0.0
 10
11.99999999999998
 20
-0.377808717859348
 30
0.0
 10
11.99999999999996
 20
-0.3882512779219121
 30
0.0
 10
11.99999999999999
 20
-0.2688749918550672
 30
0.0
 10
12.00000000000003
 20
-0.0230639368968055
 30
0.0
 10
12.0
 20
0.3617969094268663
 30
0.0
 10
11.99999999999995
 20
0.8549945947042906
 30
0.0
 10
11.99999999999998
 20
1.450914608619697
 30
0.0
 10
11.99999999999999
 20
2.127811520552975
 30
0.0
 10
11.99999999999997
 20
2.869766029083934
 30
0.0
 10
11.99999999999998
 20
3.653487129209246
 30
0.0
 10
11.99999999999999
 20
4.45790578740236
 30
0.0
 10
11.99999999999998
 20
5.260334922840646
 30
0.0
 10
11.99999999999997
 20
6.035476407355008
 30
0.0
 10
12.0
 20
6.755687463400641
 30
0.0
 10
12.00000000000001
 20
7.173926078341342
 30
0.0
 10
12.00000000000002
 20
7.376704648028625
 30
0.0
  0
LINE
  5
AF
330
1F
100
AcDbEntity
  8
외형선
  6
Continuous
370
    15
100
AcDbLine
 10
-41.97499999999999
 20
-0.0000000000000015
 30
0.0
 11
-41.97499999999999
 21
6.350000000000002
 31
0.0
  0
LINE
  5
B0
330
1F
100
AcDbEntity
  8
외형선
  6
Continuous
370
    15
100
AcDbLine
 10
-41.97499999999999
 20
-6.350000000000009
 30
0.0
 11
-41.97499999999999
 21
-0.0000000000000015
 31
0.0
  0
SPLINE
  5
B1
330
1F
100
AcDbEntity
  8
외형선
  6
Continuous
370
    15
100
AcDbSpline
210
0.0
220
0.0
230
1.0
 70
    24
 71
     3
 72
    20
 73
    16
 74
     0
 42
0.000000001
 43
0.00000001
 40
0.0
 40
0.0
 40
0.0
 40
0.0
 40
0.0756520674896882
 40
0.1518660986070811
 40
0.2298589426739782
 40
0.3084680517934301
 40
0.3816391159757535
 40
0.5304672708764034
 40
0.606302376297705
 40
0.6794734404800409
 40
0.7531525440684902
 40
0.828433975842284
 40
0.9042690812635992
 40
0.977440145445929
 40
1.0
 40
1.0
 40
1.0
 40
1.0
 10
12.00000000000001
 20
-7.934791212715487
 30
0.0
 10
12.00000000000001
 20
-7.803127384114688
 30
0.0
 10
12.00000000000001
 20
-7.538821693064006
 30
0.0
 10
11.99999999999994
 20
-7.129352457192816
 30
0.0
 10
12.00000000000006
 20
-6.711440875653209
 30
0.0
 10
11.99999999999995
 20
-6.298079472016997
 30
0.0
 10
11.99999999999997
 20
-5.760868044239119
 30
0.0
 10
12.00000000000002
 20
-5.237791364870262
 30
0.0
 10
12.00000000000003
 20
-4.737453031277839
 30
0.0
 10
11.99999999999995
 20
-4.3765885423053
 30
0.0
 10
12.00000000000006
 20
-4.032447159144784
 30
0.0
 10
11.99999999999995
 20
-3.702177700347188
 30
0.0
 10
11.99999999999995
 20
-3.395699606054072
 30
0.0
 10
12.00000000000001
 20
-3.17360455226394
 30
0.0
 10
11.99999999999999
 20
-3.063790390166355
 30
0.0
 10
11.99999999999999
 20
-3.037911692274399
 30
0.0
  0
LINE
  5
B2
330
1F
100
AcDbEntity
  8
0
  6
Continuous
 62
     1
370
    15
100
AcDbLine
 10
113.6
 20
-7.188845709717486
 30
0.0
 11
113.6
 21
0.680095709717576
 31
0.0
  0
SPLINE
  5
B3
330
1F
100
AcDbEntity
  8
0
  6
Continuous
 62
     1
370
    15
100
AcDbSpline
210
0.0
220
0.0
230
1.0
 70
     8
 71
     3
 72
    18
 73
    14
 74
     0
 42
0.000000001
 43
0.00000001
 40
0.0
 40
0.0
 40
0.0
 40
0.0
 40
0.0946597606493968
 40
0.1893201599000956
 40
0.2839809503394833
 40
0.3786418844482751
 40
0.4733027146680103
 40
0.5662712522966404
 40
0.6592396625028706
 40
0.7522079113480663
 40
0.8451759649052755
 40
0.9417258412850934
 40
1.0
 40
1.0
 40
1.0
 40
1.0
 10
12.00000000000001
 20
-0.2073515387285815
 30
0.0
 10
12.93433439784615
 20
-0.7457422489217069
 30
0.0
 10
14.80300949682042
 20
-1.822527301442734
 30
0.0
 10
17.60603383576471
 20
-3.359910458133951
 30
0.0
 10
20.40907373212543
 20
-4.758740015486625
 30
0.0
 10
23.21211120225433
 20
-5.960314194149256
 30
0.0
 10
25.99847304804435
 20
-6.909298021667127
 30
0.0
 10
28.76802258532024
 20
-7.572350871850931
 30
0.0
 10
31.52088945217198
 20
-7.927999411101625
 30
0.0
 10
34.27375795640883
 20
-7.969972022075448
 30
0.0
 10
37.06192104264188
 20
-7.678162722713556
 30
0.0
 10
39.50783685648816
 20
-7.183491894129797
 30
0.0
 10
41.03603630175612
 20
-6.669628811286654
 30
0.0
 10
41.61123470016427
 20
-6.476216084192879
 30
0.0
  0
SPLINE
  5
B4
330
1F
100
AcDbEntity
  8
0
  6
Continuous
 62
     1
370
    15
100
AcDbSpline
210
0.0
220
0.0
230
1.0
 70
     8
 71
     3
 72
    21
 73
    17
 74
     0
 42
0.000000001
 43
0.00000001
 40
0.0
 40
0.0
 40
0.0
 40
0.0
 40
0.0111709063626055
 40
0.0867109060855214
 40
0.1622513347487234
 40
0.2377919656587121
 40
0.3133325720614464
 40
0.3902475312574759
 40
0.4671612243856819
 40
0.5440729302021334
 40
0.6209819287517866
 40
0.6978875018339901
 40
0.7734190548538685
 40
0.8489484710420122
 40
0.9244755269921174
 40
0.9999999999999999
 40
0.9999999999999999
 40
0.9999999999999999
 40
0.9999999999999999
 10
76.4284172121336
 20
7.916242955682399
 30
0.0
 10
76.56683398862096
 20
7.923066038906576
 30
0.0
 10
77.64125388948335
 20
7.976028234583537
 30
0.0
 10
79.65161763087977
 20
7.754047390822524
 30
0.0
 10
82.45959459754779
 20
7.241255435047401
 30
0.0
 10
85.26757667710164
 20
6.395441699732346
 30
0.0
 10
88.09256383028182
 20
5.285685168856176
 30
0.0
 10
90.93467166900756
 20
3.942238977089919
 30
0.0
 10
93.79372868155929
 20
2.421513065821883
 30
0.0
 10
96.65270632453523
 20
0.7963337882242688
 30
0.0
 10
99.51155687959022
 20
-0.8631951864798107
 30
0.0
 10
102.3532972104781
 20
-2.47548178205718
 30
0.0
 10
105.1778564130503
 20
-3.974753398010741
 30
0.0
 10
107.9853384369574
 20
-5.294061120293383
 30
0.0
 10
110.7927115766711
 20
-6.414776183070752
 30
0.0
 10
112.6642478598197
 20
-6.930825475605218
 30
0.0
 10
113.6
 20
-7.188845709717487
 30
0.0
  0
SPLINE
  5
B5
330
1F
100
AcDbEntity
  8
0
  6
Continuous
 62
     1
370
    15
100
AcDbSpline
210
0.0
220
0.0
230
1.0
 70
     8
 71
     3
 72
    18
 73
    14
 74
     0
 42
0.000000001
 43
0.00000001
 40
0.0
 40
0.0
 40
0.0
 40
0.0
 40
0.0992509300355003
 40
0.1985087854097577
 40
0.2977726482535748
 40
0.3970415968182573
 40
0.4963147060659383
 40
0.59381740222695
 40
0.69132129980248
 40
0.7888261066678443
 40
0.8863315304263129
 40
0.9856119576652305
 40
1.0
 40
1.0
 40
1.0
 40
1.0
 10
113.6000000000001
 20
0.6800957097175773
 30
0.0
 10
112.6472917731013
 20
1.225361811474716
 30
0.0
 10
110.7418088430784
 20
2.31593206150872
 30
0.0
 10
107.8834421072285
 20
3.844136794110615
 30
0.0
 10
105.0248691504801
 20
5.208872584183461
 30
0.0
 10
102.1661268610134
 20
6.348700056229112
 30
0.0
 10
99.32424020861826
 20
7.20987610446497
 30
0.0
 10
96.49937757587445
 20
7.761958188902768
 30
0.0
 10
93.6914609591985
 20
7.986299164199365
 30
0.0
 10
90.8835108759045
 20
7.885453610060382
 30
0.0
 10
88.05853346469173
 20
7.428824042324764
 30
0.0
 10
86.03133066980793
 20
6.944831632896471
 30
0.0
 10
84.94016166285843
 20
6.541723652163076
 30
0.0
 10
84.80204257033206
 20
6.490698643081593
 30
0.0
  0
SPLINE
  5
B6
330
1F
100
AcDbEntity
  8
0
  6
Continuous
 62
     1
370
    15
100
AcDbSpline
210
0.0
220
0.0
230
1.0
 70
     8
 71
     3
 72
    21
 73
    17
 74
     0
 42
0.000000001
 43
0.00000001
 40
0.0
 40
0.0
 40
0.0
 40
0.0
 40
0.0456950259855235
 40
0.1195947936566867
 40
0.1934959615725972
 40
0.2673983090085556
 40
0.3413016148873313
 40
0.4150759321442247
 40
0.4888507282611251
 40
0.5626258104034957
 40
0.6364009856588029
 40
0.7101760610891231
 40
0.7826322287459379
 40
0.855088292081056
 40
0.92754422464556
 40
1.0
 40
1.0
 40
1.0
 40
1.0
 10
49.99408208816637
 20
-7.896618980536737
 30
0.0
 10
49.41536397025421
 20
-7.900487960296283
 30
0.0
 10
47.90072047450438
 20
-7.910614004127642
 30
0.0
 10
45.4501716658274
 20
-7.551324408357912
 30
0.0
 10
42.6423599820232
 20
-6.879651253702605
 30
0.0
 10
39.83449997565867
 20
-5.907595775824928
 30
0.0
 10
37.0282352582735
 20
-4.694562997412313
 30
0.0
 10
34.22359076869265
 20
-3.286501913854284
 30
0.0
 10
31.42056442276161
 20
-1.743403022015672
 30
0.0
 10
28.61752369736559
 20
-0.1280454842149748
 30
0.0
 10
25.81448623011839
 20
1.492710185119972
 30
0.0
 10
23.02812478226485
 20
3.041932720485447
 30
0.0
 10
20.25857690671003
 20
4.459656246586179
 30
0.0
 10
17.50570791877714
 20
5.684961043032073
 30
0.0
 10
14.75285228876757
 20
6.704267385526858
 30
0.0
 10
12.91761676592646
 20
7.15255905597371
 30
0.0
 10
11.99999999999999
 20
7.37670464802851
 30
0.0
  0
SPLINE
  5
B7
330
1F
100
AcDbEntity
  8
외형선
  6
Continuous
370
    15
100
AcDbSpline
210
0.0
220
0.0
230
1.0
 70
    24
 71
     3
 72
    19
 73
    15
 74
     0
 42
0.000000001
 43
0.00000001
 40
0.0
 40
0.0
 40
0.0
 40
0.0
 40
0.0889828391582204
 40
0.1739441234446739
 40
0.2589054077311272
 40
0.3438666920175797
 40
0.4288279763040321
 40
0.513789260590485
 40
0.5987505448769379
 40
0.6837118291633909
 40
0.768673113449844
 40
0.8536343977362968
 40
0.9385956820227496
 40
1.0
 40
1.0
 40
1.0
 40
1.0
 10
12.00000000000001
 20
7.3767046480285
 30
0.0
 10
11.99999999999998
 20
7.150113572805126
 30
0.0
 10
11.99999999999992
 20
6.707172143502864
 30
0.0
 10
11.99999999999995
 20
5.954645720284919
 30
0.0
 10
11.99999999999999
 20
5.175780508196182
 30
0.0
 10
11.99999999999995
 20
4.372013575105886
 30
0.0
 10
11.99999999999995
 20
3.568657491739565
 30
0.0
 10
11.99999999999997
 20
2.788470890187304
 30
0.0
 10
11.99999999999996
 20
2.052241616604511
 30
0.0
 10
11.99999999999999
 20
1.383522817225018
 30
0.0
 10
12.00000000000001
 20
0.7966698439659793
 30
0.0
 10
12.00000000000001
 20
0.3179035698239231
 30
0.0
 10
12.0
 20
-0.0296312177692617
 30
0.0
 10
12.00000000000001
 20
-0.1548280787082369
 30
0.0
 10
12.0
 20
-0.2073515387285759
 30
0.0
  0
SPLINE
  5
B8
330
1F
100
AcDbEntity
  8
외형선
  6
Continuous
370
    15
100
AcDbSpline
210
0.0
220
0.0
230
1.0
 70
    24
 71
     3
 72
    10
 73
     6
 74
     0
 42
0.000000001
 43
0.00000001
 40
0.0
 40
0.0
 40
0.0
 40
0.0
 40
0.0013844778801936
 40
0.8749685935361731
 40
1.0
 40
1.0
 40
1.0
 40
1.0
 10
11.99999999999999
 20
-0.2738132811370664
 30
0.0
 10
11.99999999999999
 20
-0.2739406766965344
 30
0.0
 10
11.99999999999848
 20
-0.3544526986545202
 30
0.0
 10
12.00000000000005
 20
-0.3937230744618611
 30
0.0
 10
11.99999999999999
 20
-0.3822388255615872
 30
0.0
 10
11.99999999999997
 20
-0.3808009430528776
 30
0.0
  0
SPLINE
  5
B9
330
1F
100
AcDbEntity
  8
0
  6
Continuous
 62
     1
370
    15
100
AcDbSpline
210
0.0
220
0.0
230
1.0
 70
     8
 71
     3
 72
    26
 73
    22
 74
     0
 42
0.000000001
 43
0.00000001
 40
0.0
 40
0.0
 40
0.0
 40
0.0
 40
0.0200891070749789
 40
0.0734768810567604
 40
0.1289215502835149
 40
0.1843645241108408
 40
0.2398052841377476
 40
0.2952433133971243
 40
0.350678096688479
 40
0.4051234419567418
 40
0.4595669850810035
 40
0.5140112732905517
 40
0.5684573888283893
 40
0.6238931790725407
 40
0.6793320641281392
 40
0.7347735282413025
 40
0.7902170539890496
 40
0.8456621226126684
 40
0.900117187637094
 40
0.9545725618748008
 40
1.0
 40
1.0
 40
1.0
 40
1.0
 10
33.23788894896125
 20
7.900193566020072
 30
0.0
 10
33.58317682570939
 20
7.909875629380047
 30
0.0
 10
34.84608394027033
 20
7.94528824454656
 30
0.0
 10
37.06192090936729
 20
7.672204178548375
 30
0.0
 10
39.88561758894649
 20
7.081918641553695
 30
0.0
 10
42.74452214805649
 20
6.157451607316816
 30
0.0
 10
45.60330709870409
 20
4.97352224449025
 30
0.0
 10
48.46191676998872
 20
3.573803911637695
 30
0.0
 10
51.30339197797812
 20
2.02974672267056
 30
0.0
 10
54.1277106532964
 20
0.4096994816129379
 30
0.0
 10
56.93498956747023
 20
-1.217647351434035
 30
0.0
 10
59.74229519186405
 20
-2.794380844433986
 30
0.0
 10
62.56666286963761
 20
-4.263803954538459
 30
0.0
 10
65.40819518964123
 20
-5.561555740985784
 30
0.0
 10
68.26685784868494
 20
-6.627406417897268
 30
0.0
 10
71.12568460166369
 20
-7.407909891992922
 30
0.0
 10
73.98463026522286
 20
-7.868695562357119
 30
0.0
 10
76.82666689946544
 20
-7.991829155741687
 30
0.0
 10
79.65161999300271
 20
-7.769312931749591
 30
0.0
 10
82.30441823173184
 20
-7.282287352269241
 30
0.0
 10
84.02122583702774
 20
-6.738168088536661
 30
0.0
 10
84.802042570332
 20
-6.490698643081594
 30
0.0
  0
SPLINE
  5
BA
330
1F
100
AcDbEntity
  8
0
  6
Continuous
 62
     1
370
    15
100
AcDbSpline
210
0.0
220
0.0
230
1.0
 70
     8
 71
     3
 72
    26
 73
    22
 74
     0
 42
0.000000001
 43
0.00000001
 40
0.0
 40
0.0
 40
0.0
 40
0.0
 40
0.0446295846434789
 40
0.0990746025777608
 40
0.1545107458525759
 40
0.2099467605354566
 40
0.2653821260332724
 40
0.3208163221742449
 40
0.3762488295452346
 40
0.4306903404718554
 40
0.4851306697024071
 40
0.5395696552666076
 40
0.5940071355948495
 40
0.6494288291367782
 40
0.7048474713156763
 40
0.7602691178440377
 40
0.8156943784858971
 40
0.8711227396110561
 40
0.9255641675933887
 40
0.9800066271259679
 40
1.0
 40
1.0
 40
1.0
 40
1.0
 10
93.18526188422581
 20
-7.913084606798723
 30
0.0
 10
92.4180140417562
 20
-7.901470917893657
 30
0.0
 10
90.71477670090793
 20
-7.875689328799277
 30
0.0
 10
88.05853238026356
 20
-7.438695787533531
 30
0.0
 10
85.21639697377596
 20
-6.691170280132222
 30
0.0
 10
82.35726720406882
 20
-5.641084817831511
 30
0.0
 10
79.49816800116731
 20
-4.350573172784973
 30
0.0
 10
76.63914918279788
 20
-2.871927225342983
 30
0.0
 10
73.79721136325017
 20
-1.279267774720867
 30
0.0
 10
70.97246246500765
 20
0.3574340541230585
 30
0.0
 10
68.16478187462812
 20
1.969393281525862
 30
0.0
 10
65.3571883938801
 20
3.499493735732695
 30
0.0
 10
62.53274759051897
 20
4.892465995354649
 30
0.0
 10
59.69144739352939
 20
6.086574246097465
 30
0.0
 10
56.83329405391781
 20
7.025530951551759
 30
0.0
 10
53.9750235512325
 20
7.662162586945914
 30
0.0
 10
51.11655795143176
 20
7.967437712370544
 30
0.0
 10
48.27488829319015
 20
7.934492931594149
 30
0.0
 10
45.45017152613421
 20
7.549373208756388
 30
0.0
 10
43.23460122180656
 20
7.051380989899579
 30
0.0
 10
41.95494798337941
 20
6.597995001951161
 30
0.0
 10
41.61123470016418
 20
6.476216084192877
 30
0.0
  0
LINE
  5
BB
330
1F
100
AcDbEntity
  8
0
  6
Continuous
 62
     1
370
    15
100
AcDbLine
 10
113.6
 20
3.353940269971472
 30
0.0
 11
113.6
 21
7.937500000000014
 31
0.0
  0
SPLINE
  5
BC
330
1F
100
AcDbEntity
  8
0
  6
Continuous
 62
     1
370
    15
100
AcDbSpline
210
0.0
220
0.0
230
1.0
 70
     8
 71
     3
 72
    26
 73
    22
 74
     0
 42
0.000000001
 43
0.00000001
 40
0.0
 40
0.0
 40
0.0
 40
0.0
 40
0.0547340389916412
 40
0.1094684472344651
 40
0.1642030816698844
 40
0.2189377991776325
 40
0.2736724566147907
 40
0.3274285989148794
 40
0.38118466753696
 40
0.4349406428570811
 40
0.4886965052580463
 40
0.5445234444152686
 40
0.6003486764839272
 40
0.656171679488854
 40
0.711991932898646
 40
0.7678089179606996
 40
0.8226296432003871
 40
0.8774485538709752
 40
0.93226821476393
 40
0.9870897155839083
 40
1.0
 40
1.0
 40
1.0
 40
1.0
 10
12.00000000000001
 20
7.934791212715494
 30
0.0
 10
12.93433439785443
 20
7.888854966762501
 30
0.0
 10
14.80300949684527
 20
7.796982164957716
 30
0.0
 10
17.60603383566528
 20
7.248155998423937
 30
0.0
 10
20.40907373249827
 20
6.422705050742981
 30
0.0
 10
23.21211120086238
 20
5.324899104104441
 30
0.0
 10
25.99847305320009
 20
4.016075095488559
 30
0.0
 10
28.76802256646116
 20
2.552065354039476
 30
0.0
 10
31.52088952259723
 20
0.9950343348371368
 30
0.0
 10
34.27375769356757
 20
-0.6017879795030239
 30
0.0
 10
37.0619220395529
 20
-2.19475573519942
 30
0.0
 10
39.88561728105184
 20
-3.717060718440046
 30
0.0
 10
42.744522231476
 20
-5.098263669038191
 30
0.0
 10
45.60330707290539
 20
-6.259826488505592
 30
0.0
 10
48.4619167897681
 20
-7.151566689852058
 30
0.0
 10
51.3033919250954
 20
-7.732174388726055
 30
0.0
 10
54.12771084146326
 20
-7.981359533095866
 30
0.0
 10
56.93498886625532
 20
-7.90328151135583
 30
0.0
 10
59.74229780864263
 20
-7.474626127796542
 30
0.0
 10
61.83422680886923
 20
-6.98524007264357
 30
0.0
 10
62.99042734575781
 20
-6.564313223056857
 30
0.0
 10
63.21080951524063
 20
-6.484080798537209
 30
0.0
  0
SPLINE
  5
BD
330
1F
100
AcDbEntity
  8
0
  6
Continuous
 62
     1
370
    15
100
AcDbSpline
210
0.0
220
0.0
230
1.0
 70
     8
 71
     3
 72
    13
 73
     9
 74
     0
 42
0.000000001
 43
0.00000001
 40
0.0
 40
0.0
 40
0.0
 40
0.0
 40
0.095487856283756
 40
0.2790200676720488
 40
0.4592732326866695
 40
0.639521298234009
 40
0.8197637311634612
 40
1.0
 40
1.0
 40
1.0
 40
1.0
 10
98.02425953999737
 20
7.894707624825292
 30
0.0
 10
98.52003928389698
 20
7.902303668739093
 30
0.0
 10
99.96873132785943
 20
7.924499671135158
 30
0.0
 10
102.3532966515941
 20
7.590114721695019
 30
0.0
 10
105.1778565616048
 20
6.938317594029956
 30
0.0
 10
107.9853383973447
 20
5.982600145824563
 30
0.0
 10
110.7927115865737
 20
4.792780865723992
 30
0.0
 10
112.6642478631206
 20
3.841038279395575
 30
0.0
 10
113.6
 20
3.365175123507859
 30
0.0
  0
SPLINE
  5
BE
330
1F
100
AcDbEntity
  8
0
  6
Continuous
 62
     1
370
    15
100
AcDbSpline
210
0.0
220
0.0
230
1.0
 70
     8
 71
     3
 72
    10
 73
     6
 74
     0
 42
0.000000001
 43
0.00000001
 40
0.0
 40
0.0
 40
0.0
 40
0.0
 40
0.3972548129290309
 40
0.7945373447333555
 40
1.0
 40
1.0
 40
1.0
 40
1.0
 10
113.6
 20
7.937500000000014
 30
0.0
 10
112.6472914986731
 20
7.825484244064804
 30
0.0
 10
110.7418080197746
 20
7.659825812387632
 30
0.0
 10
108.3435387773484
 20
7.137952808467937
 30
0.0
 10
106.8979731953591
 20
6.643211253054552
 30
0.0
 10
106.4052114957081
 20
6.474564674323735
 30
0.0
  0
SPLINE
  5
BF
330
1F
100
AcDbEntity
  8
0
  6
Continuous
 62
     1
370
    15
100
AcDbSpline
210
0.0
220
0.0
230
1.0
 70
     8
 71
     3
 72
    27
 73
    23
 74
     0
 42
0.000000001
 43
0.00000001
 40
0.0
 40
0.0
 40
0.0
 40
0.0
 40
0.0119062700737125
 40
0.0663423198616348
 40
0.1207770260888286
 40
0.1752102271983873
 40
0.2306275641546507
 40
0.2860418499877448
 40
0.3414591399341366
 40
0.3968800437099282
 40
0.4523040477252968
 40
0.5067411961786292
 40
0.5611793761011202
 40
0.6156184248992516
 40
0.670058179719818
 40
0.7244029170189565
 40
0.778748007063092
 40
0.8330933078035726
 40
0.8874386771342927
 40
0.9417839729304429
 40
0.9951577152220942
 40
0.9999999999999999
 40
0.9999999999999999
 40
0.9999999999999999
 40
0.9999999999999999
 10
71.58653923665207
 20
-7.909262212819236
 30
0.0
 10
71.38183950016776
 20
-7.917946782106263
 30
0.0
 10
70.24124254500397
 20
-7.966337627428399
 30
0.0
 10
68.16478358659
 20
-7.729021109221073
 30
0.0
 10
65.35718793542824
 20
-7.190723256388822
 30
0.0
 10
62.53274771593125
 20
-6.320577735541656
 30
0.0
 10
59.69144735930392
 20
-5.184192628206407
 30
0.0
 10
56.83329406446484
 20
-3.815602867426491
 30
0.0
 10
53.97502354327022
 20
-2.283231635107198
 30
0.0
 10
51.11655797273489
 20
-0.6523243609728678
 30
0.0
 10
48.27488821652098
 20
0.9968187447479825
 30
0.0
 10
45.45017180602314
 20
2.593619856716528
 30
0.0
 10
42.64235994454796
 20
4.073045261085189
 30
0.0
 10
39.83449998536052
 20
5.383173175717885
 30
0.0
 10
37.02823525694858
 20
6.468959259964376
 30
0.0
 10
34.22359076431925
 20
7.285616749872841
 30
0.0
 10
31.42056444158216
 20
7.800546772425593
 30
0.0
 10
28.6175236264566
 20
7.990436171502918
 30
0.0
 10
25.8144864949339
 20
7.856598435388354
 30
0.0
 10
23.02812380138108
 20
7.373214911703852
 30
0.0
 10
21.09294330280119
 20
6.897593574016628
 30
0.0
 10
20.09207011651423
 20
6.525988755182219
 30
0.0
 10
20.00881962281803
 20
6.495079460126953
 30
0.0
  0
SPLINE
  5
C0
330
1F
100
AcDbEntity
  8
0
  6
Continuous
 62
     1
370
    15
100
AcDbSpline
210
0.0
220
0.0
230
1.0
 70
     8
 71
     3
 72
    10
 73
     6
 74
     0
 42
0.000000001
 43
0.00000001
 40
0.0
 40
0.0
 40
0.0
 40
0.0
 40
0.3499900431806132
 40
0.6999824474922471
 40
1.0
 40
1.0
 40
1.0
 40
1.0
 10
12.00000000000001
 20
-7.934791212715496
 30
0.0
 10
12.93433437561676
 20
-7.887446412590988
 30
0.0
 10
14.80300943013207
 20
-7.792756492940669
 30
0.0
 10
17.47261699869218
 20
-7.290175963046114
 30
0.0
 10
19.20788986395992
 20
-6.746169985897338
 30
0.0
 10
20.00881962281806
 20
-6.495079460126952
 30
0.0
  0
SPLINE
  5
C1
330
1F
100
AcDbEntity
  8
0
  6
Continuous
 62
     1
370
    15
100
AcDbSpline
210
0.0
220
0.0
230
1.0
 70
     8
 71
     3
 72
    26
 73
    22
 74
     0
 42
0.000000001
 43
0.00000001
 40
0.0
 40
0.0
 40
0.0
 40
0.0
 40
0.0407834651297783
 40
0.0952181990218533
 40
0.1496547599215436
 40
0.2050808218515452
 40
0.2605099780498916
 40
0.3159417128532093
 40
0.3713755089293188
 40
0.4268108476105437
 40
0.4812563564262948
 40
0.5357021744010638
 40
0.590148138145349
 40
0.644594084226013
 40
0.7000305960651861
 40
0.7554661953850702
 40
0.8109003623485862
 40
0.8663325780476213
 40
0.9217623248385427
 40
0.9762017456870399
 40
1.0
 40
1.0
 40
1.0
 40
1.0
 10
54.83171639468405
 20
7.906450183886728
 30
0.0
 10
55.53280359716188
 20
7.900947938150681
 30
0.0
 10
57.16964981816785
 20
7.888101704318051
 30
0.0
 10
59.74229506974537
 20
7.481617567188888
 30
0.0
 10
62.56666290314304
 20
6.763686074135247
 30
0.0
 10
65.4081951801345
 20
5.742986852479102
 30
0.0
 10
68.26685785294725
 20
4.471787078571246
 30
0.0
 10
71.12568459412144
 20
3.007095901582241
 30
0.0
 10
73.98463029113083
 20
1.413040957146542
 30
0.0
 10
76.82666680409967
 20
-0.2321077344425308
 30
0.0
 10
79.65162034169127
 20
-1.857193011808001
 30
0.0
 10
82.45959387124361
 20
-3.395299182207638
 30
0.0
 10
85.26757687149268
 20
-4.792270696354354
 30
0.0
 10
88.09256377753287
 20
-5.997341566672425
 30
0.0
 10
90.93467168174602
 20
-6.955272829983974
 30
0.0
 10
93.79372868374575
 20
-7.619576142836941
 30
0.0
 10
96.65270630305227
 20
-7.954426772010776
 30
0.0
 10
99.51155696333088
 20
-7.950884800438174
 30
0.0
 10
102.353296899378
 20
-7.590833518123209
 30
0.0
 10
104.6511395314624
 20
-7.087131173607934
 30
0.0
 10
105.9961021662456
 20
-6.617436047267128
 30
0.0
 10
106.4052114957081
 20
-6.474564674323738
 30
0.0
  0
SPLINE
  5
C2
330
1F
100
AcDbEntity
  8
0
  6
Continuous
 62
     1
370
    15
100
AcDbSpline
210
0.0
220
0.0
230
1.0
 70
     8
 71
     3
 72
    25
 73
    21
 74
     0
 42
0.000000001
 43
0.00000001
 40
0.0
 40
0.0
 40
0.0
 40
0.0
 40
0.0567230450566328
 40
0.1134500480238082
 40
0.1701804843287508
 40
0.2269138271815079
 40
0.2836495479123273
 40
0.3393734572551015
 40
0.3950980532200548
 40
0.4508231688545791
 40
0.5065486370505892
 40
0.5632885400973474
 40
0.6200283115279168
 40
0.6767674185057401
 40
0.7335053286255211
 40
0.7902415102584442
 40
0.845963388968193
 40
0.9016840581904767
 40
0.9574033521457596
 40
0.9999999999999999
 40
0.9999999999999999
 40
0.9999999999999999
 40
0.9999999999999999
 10
113.6000000000001
 20
-7.937499999999986
 30
0.0
 10
112.647291773092
 20
-7.828155910457351
 30
0.0
 10
110.7418088430504
 20
-7.66784099798362
 30
0.0
 10
107.8834421073401
 20
-7.00577048390433
 30
0.0
 10
105.0248691500612
 20
-6.066336213229127
 30
0.0
 10
102.1661268625773
 20
-4.858978257604437
 30
0.0
 10
99.32424020282517
 20
-3.452438461924988
 30
0.0
 10
96.49937759706604
 20
-1.908554739671678
 30
0.0
 10
93.69146088006148
 20
-0.294750022113952
 30
0.0
 10
90.88351117126413
 20
1.331342542320112
 30
0.0
 10
88.0585323539028
 20
2.911629139872181
 30
0.0
 10
85.21639698085997
 20
4.378220540767032
 30
0.0
 10
82.35726720229408
 20
5.664971547154527
 30
0.0
 10
79.49816800118245
 20
6.707588298077156
 30
0.0
 10
76.63914918451209
 20
7.461373162398748
 30
0.0
 10
73.79721135642953
 20
7.89045766635511
 30
0.0
 10
70.97246249007848
 20
7.986351204416946
 30
0.0
 10
68.1647817809763
 20
7.740917349063924
 30
0.0
 10
65.5775717751886
 20
7.248625793022812
 30
0.0
 10
63.92626112096495
 20
6.715196087643276
 30
0.0
 10
63.21080951524063
 20
6.484080798537207
 30
0.0
  0
SPLINE
  5
C3
330
1F
100
AcDbEntity
  8
0
  6
Continuous
 62
     1
370
    15
100
AcDbSpline
210
0.0
220
0.0
230
1.0
 70
     8
 71
     3
 72
    13
 73
     9
 74
     0
 42
0.000000001
 43
0.00000001
 40
0.0
 40
0.0
 40
0.0
 40
0.0
 40
0.1575418458808643
 40
0.3284785410191645
 40
0.4963593296107042
 40
0.6642398764890917
 40
0.8321201203722401
 40
0.9999999999999999
 40
0.9999999999999999
 40
0.9999999999999999
 40
0.9999999999999999
 10
28.39787175623653
 20
-7.925618639713013
 30
0.0
 10
27.53674256061733
 20
-7.903432223922789
 30
0.0
 10
25.7412674585933
 20
-7.857173012927329
 30
0.0
 10
23.02812481191918
 20
-7.385226149010929
 30
0.0
 10
20.25857689882756
 20
-6.632720278294062
 30
0.0
 10
17.50570792087912
 20
-5.610064273528201
 30
0.0
 10
14.75285228824207
 20
-4.373624161714619
 30
0.0
 10
12.91761676575131
 20
-3.411575678827311
 30
0.0
 10
11.99999999999999
 20
-2.930551959231427
 30
0.0
  0
SPLINE
  5
C4
330
1F
100
AcDbEntity
  8
외형선
  6
Continuous
370
    15
100
AcDbSpline
210
0.0
220
0.0
230
1.0
 70
    24
 71
     3
 72
    14
 73
    10
 74
     0
 42
0.000000001
 43
0.00000001
 40
0.0
 40
0.0
 40
0.0
 40
0.0
 40
0.1132941050566759
 40
0.2598410775884962
 40
0.4106379222515359
 40
0.5571848947833381
 40
0.7079817394463985
 40
0.8519785657633535
 40
1.0
 40
1.0
 40
1.0
 40
1.0
 10
12.00000000000001
 20
-3.037921692274399
 30
0.0
 10
12.00000000000001
 20
-3.1735673227777
 30
0.0
 10
12.00000000000001
 20
-3.484671830664641
 30
0.0
 10
11.99999999999995
 20
-4.087076005251171
 30
0.0
 10
12.00000000000005
 20
-4.797802292911943
 30
0.0
 10
11.99999999999995
 20
-5.570700394032436
 30
0.0
 10
11.99999999999997
 20
-6.360266948560311
 30
0.0
 10
12.00000000000001
 20
-7.162177581385333
 30
0.0
 10
12.00000000000001
 20
-7.674897891330508
 30
0.0
 10
12.00000000000001
 20
-7.934791212715496
 30
0.0
  0
LINE
  5
C5
330
1F
100
AcDbEntity
  8
0
  6
Continuous
 62
     1
370
    15
100
AcDbLine
 10
113.6
 20
-7.937499999999984
 30
0.0
 11
113.6
 21
-7.188845709717486
 31
0.0
  0
LINE
  5
C6
330
1F
100
AcDbEntity
  8
0
  6
Continuous
 62
     1
370
    15
100
AcDbLine
 10
113.6
 20
0.6800957097175765
 30
0.0
 11
113.6
 21
3.365175123507859
 31
0.0
  0
LINE
  5
C7
330
1F
100
AcDbEntity
  8
중심선
 48
0.8
100
AcDbLine
 10
-44.975
 20
-0.0000000000000054
 30
0.0
 11
116.6
 21
0.0000000000000139
 31
0.0
  0
LINE
  5
C8
330
1F
100
AcDbEntity
  8
참조1
100
AcDbLine
 10
41.9431036497773
 20
0.0010749287238892
 30
0.0
 11
41.94310364977731
 21
-39.99892507127611
 31
0.0
  0
LINE
  5
C9
330
1F
100
AcDbEntity
  8
참조1
100
AcDbLine
 10
41.94310364977731
 20
-39.99892507127611
 30
0.0
 11
-21.63450316453139
 21
-39.9989250712761
 31
0.0
  0
CIRCLE
  5
CA
330
1F
100
AcDbEntity
  8
해칭선
100
AcDbCircle
 10
0.0
 20
0.0
 30
0.0
 40
3.000000000000001
  0
INSERT
  5
CB
330
1F
100
AcDbEntity
  8
0
  6
Continuous
 62
     7
100
AcDbBlockReference
 66
     1
  2
블럭10
 10
21.87222706787481
 20
-52.04717430164393
 30
0.0
  0
ATTRIB
  5
CC
330
CB
100
AcDbEntity
  8
FORMAT
 62
     2
100
AcDbText
 10
12.69093177913353
 20
-49.97180738881174
 30
0.0
 40
4.233333333333333
  1
E2036040 [ 4 FLUTE ]
 41
0.75
  7
SLDTEXTSTYLE0
 11
12.69093177913353
 21
-52.08847405547841
 31
0.0
100
AcDbAttribute
  2
AUTOATTR0
 70
     0
 74
     1
  0
SEQEND
  5
CD
330
CB
100
AcDbEntity
  8
0
  6
Continuous
 62
     7
  0
HATCH
  5
CE
330
1F
100
AcDbEntity
  8
중심선
100
AcDbHatch
 10
0.0
 20
0.0
 30
0.0
210
0.0
220
0.0
230
1.0
  2
SOLID
 70
     1
 71
     0
 91
        1
 92
        0
 93
        4
 72
     1
 10
27.58713637225567
 20
-35.8
 11
24.14086112841839
 21
-35.8
 72
     1
 10
24.14086112841839
 20
-35.8
 11
22.01263126921436
 21
-38.3363255805726
 72
     1
 10
22.01263126921436
 20
-38.3363255805726
 11
25.4589395981648
 21
-38.33628615127011
 72
     1
 10
25.4589395981648
 20
-38.33628615127011
 11
27.58713637225567
 21
-35.8
 97
        0
 75
     0
 76
     1
 98
        1
 10
-6.130603649777285
 20
-0.0010749287238947
  0
HATCH
  5
CF
330
1F
100
AcDbEntity
  8
중심선
100
AcDbHatch
 10
0.0
 20
0.0
 30
0.0
210
0.0
220
0.0
230
1.0
  2
SOLID
 70
     1
 71
     0
 91
        1
 92
        0
 93
        4
 72
     1
 10
32.59990036329167
 20
-35.79999999999998
 11
29.15362511945434
 21
-35.8
 72
     1
 10
29.15362511945434
 20
-35.8
 11
24.62248711109695
 21
-41.20000000000002
 72
     1
 10
24.62248711109695
 20
-41.20000000000002
 11
28.06876235493424
 21
-41.20000000000002
 72
     1
 10
28.06876235493424
 20
-41.20000000000002
 11
32.59990036329167
 21
-35.79999999999998
 97
        0
 75
     0
 76
     1
 98
        1
 10
-6.130603649777285
 20
-0.0010749287238947
  0
HATCH
  5
D0
330
1F
100
AcDbEntity
  8
중심선
100
AcDbHatch
 10
0.0
 20
0.0
 30
0.0
210
0.0
220
0.0
230
1.0
  2
SOLID
 70
     1
 71
     0
 91
        1
 92
        0
 93
        4
 72
     1
 10
37.61266435432757
 20
-35.79999999999998
 11
34.1663891104904
 21
-35.79999999999998
 72
     1
 10
34.1663891104904
 20
-35.79999999999998
 11
27.11795220860115
 21
-44.20000000000002
 72
     1
 10
27.11795220860115
 20
-44.20000000000002
 11
30.56422745243841
 21
-44.20000000000002
 72
     1
 10
30.56422745243841
 20
-44.20000000000002
 11
37.61266435432757
 21
-35.79999999999998
 97
        0
 75
     0
 76
     1
 98
        1
 10
-6.130603649777285
 20
-0.0010749287238947
  0
HATCH
  5
D1
330
1F
100
AcDbEntity
  8
중심선
100
AcDbHatch
 10
0.0
 20
0.0
 30
0.0
210
0.0
220
0.0
230
1.0
  2
SOLID
 70
     1
 71
     0
 91
        1
 92
        0
 93
        6
 72
     3
 10
42.41255478533972
 20
-40.00000000005127
 11
3.960054785062283
 21
1.540882976769353E-10
 40
0.3939339440162628
 50
17.09539180608455
 51
320.0019657685082
 73
     0
 72
     1
 10
44.09555444104029
 20
-38.58789400463833
 11
46.40085631474127
 21
-36.65356729459044
 72
     3
 10
42.41255478528687
 20
-40.00000000000015
 11
6.600054785286829
 21
-1.278976924368180E-13
 40
0.636358354079598
 50
39.99873849337418
 51
368.4976242363724
 73
     1
 72
     1
 10
48.83788727718745
 20
-39.03999999993002
 11
41.09262209212277
 21
-39.03999999993
 72
     1
 10
41.09262209212277
 20
-39.03999999993
 11
41.09259704767686
 21
-40.95999999992991
 72
     1
 10
41.09259704767686
 20
-40.95999999992991
 11
45.53397681714887
 21
-40.95999999992988
 97
        0
 75
     0
 76
     1
 98
        1
 10
-6.130603649777285
 20
-0.0010749287238947
  0
DIMENSION
  5
D2
330
1F
100
AcDbEntity
  8
치수문자_일반주서
100
AcDbDimension
  2
_D
 10
12.00000000000001
 20
21.08914845620487
 30
0.0
 11
65.1610679759445
 21
21.08914845620487
 31
0.0
 70
   160
  1
<>
 71
     2
 42
101.6
  3
SLDDIMSTYLE1
100
AcDbAlignedDimension
 13
113.6
 23
7.937500000000014
 33
0.0
 14
12.00000000000001
 24
7.934791212715494
 34
0.0
 50
0.000000000000002
100
AcDbRotatedDimension
1001
ACAD
1000
DSTYLE
1002
{
1070
   171
1070
     6
1070
   273
1070
     7
1002
}
  0
DIMENSION
  5
E7
330
1F
100
AcDbEntity
  8
치수문자_일반주서
100
AcDbDimension
  2
_D_1
 10
-41.97500000000001
 20
36.81035365400766
 30
0.0
 11
35.8125
 21
36.81035365400766
 31
0.0
 70
   160
  1
<>
 71
     2
 42
155.575
  3
SLDDIMSTYLE1
100
AcDbAlignedDimension
 13
113.6
 23
7.937500000000014
 33
0.0
 14
-41.97499999999999
 24
6.350000000000002
 34
0.0
 50
0.0000000000000026
100
AcDbRotatedDimension
1001
ACAD
1000
DSTYLE
1002
{
1070
   171
1070
     6
1070
   273
1070
     7
1002
}
  0
DIMENSION
  5
FB
330
1F
100
AcDbEntity
  8
치수문자_일반주서
100
AcDbDimension
  2
_D_2
 10
-52.64077283782717
 20
-7.937500000000061
 30
0.0
 11
-52.6407728378272
 21
0.0000000000000133
 31
0.0
 70
   160
  1
%%c<>
 71
     2
 42
15.87500000000003
 52
-270.0
  3
SLDDIMSTYLE1
100
AcDbAlignedDimension
 13
-40.3875
 23
7.937500000000013
 33
0.0
 14
-40.3875
 24
-7.937500000000015
 34
0.0
 50
90.0000000000002
100
AcDbRotatedDimension
1001
ACAD
1000
DSTYLE
1002
{
1070
   171
1070
     6
1070
   273
1070
     7
1002
}
  0
LINE
  5
121
330
1F
100
AcDbEntity
  8
참조1
100
AcDbLine
 10
76.33783746512287
 20
7.441074928723896
 30
0.0
 11
76.33783746512287
 21
-7.438925071276109
 31
0.0
  0
LINE
  5
122
330
1F
100
AcDbEntity
  8
참조1
100
AcDbLine
 10
89.03783746512288
 20
5.441074928723896
 30
0.0
 11
76.33783746512287
 21
5.441074928723896
 31
0.0
  0
SOLID
  5
123
330
1F
100
AcDbEntity
  8
참조1
100
AcDbTrace
 10
76.33783746512287
 20
5.441074928723896
 30
0.0
 11
82.68783746512287
 21
4.425074928723896
 31
0.0
 12
82.68783746512287
 22
6.457074928723896
 32
0.0
 13
82.68783746512287
 23
6.457074928723896
 33
0.0
  0
LINE
  5
124
330
1F
100
AcDbEntity
  8
참조1
100
AcDbLine
 10
89.03783746512288
 20
-5.438925071276109
 30
0.0
 11
76.33783746512287
 21
-5.438925071276109
 31
0.0
  0
SOLID
  5
125
330
1F
100
AcDbEntity
  8
참조1
100
AcDbTrace
 10
76.33783746512287
 20
-5.438925071276109
 30
0.0
 11
82.68783746512287
 21
-6.454925071276109
 31
0.0
 12
82.68783746512287
 22
-4.422925071276109
 32
0.0
 13
82.68783746512287
 23
-4.422925071276109
 33
0.0
  0
MTEXT
  5
126
330
1F
100
AcDbEntity
  8
참조1
100
AcDbMText
 10
85.72218759774887
 20
11.01136670591222
 30
0.0
 40
3.5
 41
0.0
 71
     1
 72
     1
  1
A
  7
SLDTEXTSTYLE0
 73
     1
 44
1.0
  0
MTEXT
  5
127
330
1F
100
AcDbEntity
  8
참조1
100
AcDbMText
 10
85.72218759774887
 20
0.1313667059122201
 30
0.0
 40
3.5
 41
0.0
 71
     1
 72
     1
  1
A
  7
SLDTEXTSTYLE0
 73
     1
 44
1.0
  0
INSERT
  5
12E
330
1F
100
AcDbEntity
  8
해칭선
100
AcDbBlockReference
  2
SW_DOWELSYMBOL_0
 10
0.0
 20
0.0
 30
0.0
  0
DIMENSION
  5
28A
330
1F
100
AcDbEntity
  8
치수문자_일반주서
100
AcDbDimension
  2
*D16
 10
137.9788246974299
 20
-7.937499999999986
 30
0.0
 11
137.9788246974299
 21
26.25038507688059
 31
0.0
 70
   160
 71
     5
 42
15.875
  3
SLDDIMSTYLE1
100
AcDbAlignedDimension
 13
113.6
 23
7.937500000000014
 33
0.0
 14
113.6
 24
-7.937499999999986
 34
0.0
 50
90.0
100
AcDbRotatedDimension
1001
ACAD
1000
DSTYLE
1002
{
1070
   171
1070
     6
1070
   273
1070
     7
1002
}
  0
LINE
  5
2F2
330
1F
100
AcDbEntity
  8
외형선
  6
Continuous
370
    15
100
AcDbLine
 10
-22.858325
 20
6.286499999999961
 30
0.0
 11
-12.67292499999999
 21
6.286499999999961
 31
0.0
  0
LINE
  5
2F3
330
1F
100
AcDbEntity
  8
외형선
  6
Continuous
370
    15
100
AcDbLine
 10
-22.858325
 20
6.286500000000061
 30
0.0
 11
-24.50932499999995
 21
7.937499999999972
 31
0.0
  0
LINE
  5
2F4
330
1F
100
AcDbEntity
  8
외형선
  6
Continuous
370
    15
100
AcDbLine
 10
-12.6729250000001
 20
6.286500000000061
 30
0.0
 11
-11.02192500000009
 21
7.937499999999972
 31
0.0
  0
LINE
  5
2F6
330
1F
100
AcDbEntity
  8
외형선
  6
Continuous
370
    15
100
AcDbLine
 10
-24.50932499999999
 20
7.937499999999999
 30
0.0
 11
-40.3875
 21
7.937499999999999
 31
0.0
  0
ENDSEC
  0
SECTION
  2
OBJECTS
  0
DICTIONARY
  5
C
330
0
100
AcDbDictionary
281
     1
  3
ACAD_GROUP
350
D
  3
ACAD_IMAGE_VARS
350
152
  3
ACAD_LAYOUT
350
1A
  3
ACAD_MLINESTYLE
350
17
  3
ACAD_PLOTSETTINGS
350
19
  3
ACAD_PLOTSTYLENAME
350
E
  3
ACAD_SCALELIST
350
47
  3
APPDATA
350
150
  3
DWGPROPS
350
32D
  0
DICTIONARY
  5
1F1
330
2
100
AcDbDictionary
280
     1
281
     1
  3
ACAD_LAYERSTATES
360
1F2
  0
DICTIONARY
  5
D
102
{ACAD_REACTORS
330
C
102
}
330
C
100
AcDbDictionary
281
     1
  0
RASTERVARIABLES
  5
152
102
{ACAD_REACTORS
330
C
102
}
330
C
100
AcDbRasterVariables
 90
        0
 70
     1
 71
     1
 72
     1
  0
DICTIONARY
  5
1A
102
{ACAD_REACTORS
330
C
102
}
330
C
100
AcDbDictionary
281
     1
  3
Layout1
350
1E
  3
Layout2
350
26
  3
Model
350
22
  0
DICTIONARY
  5
17
102
{ACAD_REACTORS
330
C
102
}
330
C
100
AcDbDictionary
281
     1
  3
Standard
350
18
  0
DICTIONARY
  5
19
102
{ACAD_REACTORS
330
C
102
}
330
C
100
AcDbDictionary
281
     1
  0
ACDBDICTIONARYWDFLT
  5
E
102
{ACAD_REACTORS
330
C
102
}
330
C
100
AcDbDictionary
281
     1
  3
Normal
350
F
100
AcDbDictionaryWithDefault
340
F
  0
DICTIONARY
  5
47
102
{ACAD_REACTORS
330
C
102
}
330
C
100
AcDbDictionary
281
     1
  3
A0
350
48
  3
A1
350
49
  3
A2
350
4A
  3
A3
350
4B
  3
A4
350
4C
  3
A5
350
4D
  3
A6
350
4E
  3
A7
350
4F
  3
A8
350
50
  3
A9
350
51
  3
B0
350
52
  3
B1
350
53
  3
B2
350
54
  3
B3
350
55
  3
B4
350
56
  3
B5
350
57
  3
B6
350
58
  3
B7
350
59
  3
B8
350
5A
  3
B9
350
5B
  3
C0
350
5C
  3
C1
350
5D
  3
C2
350
5E
  3
C3
350
5F
  3
C4
350
60
  3
C5
350
61
  3
C6
350
62
  3
C7
350
63
  3
C8
350
64
  3
C9
350
65
  3
D0
350
66
  3
D1
350
67
  3
D2
350
68
  0
DICTIONARY
  5
150
102
{ACAD_REACTORS
330
C
102
}
330
C
100
AcDbDictionary
281
     1
  0
XRECORD
  5
32D
102
{ACAD_REACTORS
330
C
102
}
330
C
100
AcDbXrecord
280
     1
  1
DWGPROPS COOKIE
  2

  3

  4

  6

  7

  8
12017012
  9

300
=
301
=
302
=
303
=
304
=
305
=
306
=
307
=
308
=
309
=
 40
0.0
 41
2458312.301103785
 42
2458320.09141603
  1

 90
        0
  0
DICTIONARY
  5
1F2
102
{ACAD_REACTORS
330
1F1
102
}
330
1F1
100
AcDbDictionary
281
     1
  0
LAYOUT
  5
1E
102
{ACAD_REACTORS
330
1A
102
}
330
1A
100
AcDbPlotSettings
  1

  2
none_device
  4

  6

 40
0.0
 41
0.0
 42
0.0
 43
0.0
 44
0.0
 45
0.0
 46
0.0
 47
0.0
 48
0.0
 49
0.0
140
0.0
141
0.0
142
1.0
143
1.0
 70
   688
 72
     1
 73
     0
 74
     5
  7

 75
    16
147
1.0
148
0.0
149
0.0
100
AcDbLayout
  1
Layout1
 70
     1
 71
     1
 10
0.0
 20
0.0
 11
420.0
 21
297.0
 12
0.0
 22
0.0
 32
0.0
 14
1.000000000000000E+20
 24
1.000000000000000E+20
 34
1.000000000000000E+20
 15
-1.000000000000000E+20
 25
-1.000000000000000E+20
 35
-1.000000000000000E+20
146
0.0
 13
0.0
 23
0.0
 33
0.0
 16
1.0
 26
0.0
 36
0.0
 17
0.0
 27
1.0
 37
0.0
 76
     0
330
1B
  0
LAYOUT
  5
26
102
{ACAD_REACTORS
330
1A
102
}
330
1A
100
AcDbPlotSettings
  1

  2
none_device
  4

  6

 40
0.0
 41
0.0
 42
0.0
 43
0.0
 44
0.0
 45
0.0
 46
0.0
 47
0.0
 48
0.0
 49
0.0
140
0.0
141
0.0
142
1.0
143
1.0
 70
   688
 72
     1
 73
     0
 74
     5
  7

 75
    16
147
1.0
148
0.0
149
0.0
100
AcDbLayout
  1
Layout2
 70
     1
 71
     2
 10
0.0
 20
0.0
 11
0.0
 21
0.0
 12
0.0
 22
0.0
 32
0.0
 14
0.0
 24
0.0
 34
0.0
 15
0.0
 25
0.0
 35
0.0
146
0.0
 13
0.0
 23
0.0
 33
0.0
 16
1.0
 26
0.0
 36
0.0
 17
0.0
 27
1.0
 37
0.0
 76
     0
330
23
  0
LAYOUT
  5
22
102
{ACAD_REACTORS
330
1A
102
}
330
1A
100
AcDbPlotSettings
  1

  2
none_device
  4
ANSI_A_(11.00_x_8.50_Inches)
  6

 40
6.35
 41
19.05
 42
6.35000508
 43
19.05000254
 44
279.4
 45
215.9
 46
39.43975800628589
 47
90.10480984420929
 48
0.0
 49
0.0
140
0.0
141
0.0
142
0.0305000597808555
143
1.0
 70
  1696
 72
     0
 73
     0
 74
     0
  7

 75
     0
147
0.0235690232323232
148
0.0
149
0.0
100
AcDbLayout
  1
Model
 70
     1
 71
     0
 10
0.0
 20
0.0
 11
420.0
 21
297.0
 12
0.0
 22
0.0
 32
0.0
 14
1.000000000000000E+20
 24
1.000000000000000E+20
 34
1.000000000000000E+20
 15
-1.000000000000000E+20
 25
-1.000000000000000E+20
 35
-1.000000000000000E+20
146
0.0
 13
0.0
 23
0.0
 33
0.0
 16
1.0
 26
0.0
 36
0.0
 17
0.0
 27
1.0
 37
0.0
 76
     0
330
1F
331
29
  0
MLINESTYLE
  5
18
102
{ACAD_REACTORS
330
17
102
}
330
17
100
AcDbMlineStyle
  2
Standard
 70
     0
  3

 62
   256
 51
90.0
 52
90.0
 71
     2
 49
0.5
 62
   256
  6
BYLAYER
 49
-0.5
 62
   256
  6
BYLAYER
  0
ACDBPLACEHOLDER
  5
F
102
{ACAD_REACTORS
330
E
102
}
330
E
  0
SCALE
  5
48
102
{ACAD_REACTORS
330
47
102
}
330
47
100
AcDbScale
 70
     0
300
1:1
140
1.0
141
1.0
290
     1
  0
SCALE
  5
49
102
{ACAD_REACTORS
330
47
102
}
330
47
100
AcDbScale
 70
     0
300
1:2
140
1.0
141
2.0
290
     0
  0
SCALE
  5
4A
102
{ACAD_REACTORS
330
47
102
}
330
47
100
AcDbScale
 70
     0
300
1:4
140
1.0
141
4.0
290
     0
  0
SCALE
  5
4B
102
{ACAD_REACTORS
330
47
102
}
330
47
100
AcDbScale
 70
     0
300
1:5
140
1.0
141
5.0
290
     0
  0
SCALE
  5
4C
102
{ACAD_REACTORS
330
47
102
}
330
47
100
AcDbScale
 70
     0
300
1:8
140
1.0
141
8.0
290
     0
  0
SCALE
  5
4D
102
{ACAD_REACTORS
330
47
102
}
330
47
100
AcDbScale
 70
     0
300
1:10
140
1.0
141
10.0
290
     0
  0
SCALE
  5
4E
102
{ACAD_REACTORS
330
47
102
}
330
47
100
AcDbScale
 70
     0
300
1:16
140
1.0
141
16.0
290
     0
  0
SCALE
  5
4F
102
{ACAD_REACTORS
330
47
102
}
330
47
100
AcDbScale
 70
     0
300
1:20
140
1.0
141
20.0
290
     0
  0
SCALE
  5
50
102
{ACAD_REACTORS
330
47
102
}
330
47
100
AcDbScale
 70
     0
300
1:30
140
1.0
141
30.0
290
     0
  0
SCALE
  5
51
102
{ACAD_REACTORS
330
47
102
}
330
47
100
AcDbScale
 70
     0
300
1:40
140
1.0
141
40.0
290
     0
  0
SCALE
  5
52
102
{ACAD_REACTORS
330
47
102
}
330
47
100
AcDbScale
 70
     0
300
1:50
140
1.0
141
50.0
290
     0
  0
SCALE
  5
53
102
{ACAD_REACTORS
330
47
102
}
330
47
100
AcDbScale
 70
     0
300
1:100
140
1.0
141
100.0
290
     0
  0
SCALE
  5
54
102
{ACAD_REACTORS
330
47
102
}
330
47
100
AcDbScale
 70
     0
300
2:1
140
2.0
141
1.0
290
     0
  0
SCALE
  5
55
102
{ACAD_REACTORS
330
47
102
}
330
47
100
AcDbScale
 70
     0
300
4:1
140
4.0
141
1.0
290
     0
  0
SCALE
  5
56
102
{ACAD_REACTORS
330
47
102
}
330
47
100
AcDbScale
 70
     0
300
8:1
140
8.0
141
1.0
290
     0
  0
SCALE
  5
57
102
{ACAD_REACTORS
330
47
102
}
330
47
100
AcDbScale
 70
     0
300
10:1
140
10.0
141
1.0
290
     0
  0
SCALE
  5
58
102
{ACAD_REACTORS
330
47
102
}
330
47
100
AcDbScale
 70
     0
300
100:1
140
100.0
141
1.0
290
     0
  0
SCALE
  5
59
102
{ACAD_REACTORS
330
47
102
}
330
47
100
AcDbScale
 70
     0
300
1/128" = 1'-0"
140
0.0078125
141
12.0
290
     0
  0
SCALE
  5
5A
102
{ACAD_REACTORS
330
47
102
}
330
47
100
AcDbScale
 70
     0
300
1/64" = 1'-0"
140
0.015625
141
12.0
290
     0
  0
SCALE
  5
5B
102
{ACAD_REACTORS
330
47
102
}
330
47
100
AcDbScale
 70
     0
300
1/32" = 1'-0"
140
0.03125
141
12.0
290
     0
  0
SCALE
  5
5C
102
{ACAD_REACTORS
330
47
102
}
330
47
100
AcDbScale
 70
     0
300
1/16" = 1'-0"
140
0.0625
141
12.0
290
     0
  0
SCALE
  5
5D
102
{ACAD_REACTORS
330
47
102
}
330
47
100
AcDbScale
 70
     0
300
3/32" = 1'-0"
140
0.09375
141
12.0
290
     0
  0
SCALE
  5
5E
102
{ACAD_REACTORS
330
47
102
}
330
47
100
AcDbScale
 70
     0
300
1/8" = 1'-0"
140
0.125
141
12.0
290
     0
  0
SCALE
  5
5F
102
{ACAD_REACTORS
330
47
102
}
330
47
100
AcDbScale
 70
     0
300
3/16" = 1'-0"
140
0.1875
141
12.0
290
     0
  0
SCALE
  5
60
102
{ACAD_REACTORS
330
47
102
}
330
47
100
AcDbScale
 70
     0
300
1/4" = 1'-0"
140
0.25
141
12.0
290
     0
  0
SCALE
  5
61
102
{ACAD_REACTORS
330
47
102
}
330
47
100
AcDbScale
 70
     0
300
3/8" = 1'-0"
140
0.375
141
12.0
290
     0
  0
SCALE
  5
62
102
{ACAD_REACTORS
330
47
102
}
330
47
100
AcDbScale
 70
     0
300
1/2" = 1'-0"
140
0.5
141
12.0
290
     0
  0
SCALE
  5
63
102
{ACAD_REACTORS
330
47
102
}
330
47
100
AcDbScale
 70
     0
300
3/4" = 1'-0"
140
0.75
141
12.0
290
     0
  0
SCALE
  5
64
102
{ACAD_REACTORS
330
47
102
}
330
47
100
AcDbScale
 70
     0
300
1" = 1'-0"
140
1.0
141
12.0
290
     0
  0
SCALE
  5
65
102
{ACAD_REACTORS
330
47
102
}
330
47
100
AcDbScale
 70
     0
300
1-1/2" = 1'-0"
140
1.5
141
12.0
290
     0
  0
SCALE
  5
66
102
{ACAD_REACTORS
330
47
102
}
330
47
100
AcDbScale
 70
     0
300
3" = 1'-0"
140
3.0
141
12.0
290
     0
  0
SCALE
  5
67
102
{ACAD_REACTORS
330
47
102
}
330
47
100
AcDbScale
 70
     0
300
6" = 1'-0"
140
6.0
141
12.0
290
     0
  0
SCALE
  5
68
102
{ACAD_REACTORS
330
47
102
}
330
47
100
AcDbScale
 70
     0
300
1'-0" = 1'-0"
140
12.0
141
12.0
290
     0
  0
ENDSEC
  0
EOF
