  0
SECTION
  2
HEADER
  9
$ACADVER
  1
AC1015
  9
$ACADMAINTVER
 70
     6
  9
$DWGCODEPAGE
  3
ANSI_949
  9
$INSBASE
 10
0.0
 20
0.0
 30
0.0
  9
$EXTMIN
 10
1.000000000000000E+20
 20
1.000000000000000E+20
 30
1.000000000000000E+20
  9
$EXTMAX
 10
-1.000000000000000E+20
 20
-1.000000000000000E+20
 30
-1.000000000000000E+20
  9
$LIMMIN
 10
0.0
 20
0.0
  9
$LIMMAX
 10
420.0
 20
297.0
  9
$ORTHOMODE
 70
     1
  9
$REGENMODE
 70
     1
  9
$FILLMODE
 70
     1
  9
$QTEXTMODE
 70
     0
  9
$MIRRTEXT
 70
     1
  9
$LTSCALE
 40
1.0
  9
$ATTMODE
 70
     1
  9
$TEXTSIZE
 40
3.5
  9
$TRACEWID
 40
1.0
  9
$TEXTSTYLE
  7
Standard
  9
$CLAYER
  8
0
  9
$CELTYPE
  6
ByLayer
  9
$CECOLOR
 62
   256
  9
$CELTSCALE
 40
1.0
  9
$DISPSILH
 70
     0
  9
$DIMSCALE
 40
1.0
  9
$DIMASZ
 40
3.302
  9
$DIMEXO
 40
1.0
  9
$DIMDLI
 40
3.75
  9
$DIMRND
 40
0.0
  9
$DIMDLE
 40
0.0
  9
$DIMEXE
 40
1.0
  9
$DIMTP
 40
0.0
  9
$DIMTM
 40
0.0
  9
$DIMTXT
 40
3.5
  9
$DIMCEN
 40
2.5
  9
$DIMTSZ
 40
0.0
  9
$DIMTOL
 70
     0
  9
$DIMLIM
 70
     0
  9
$DIMTIH
 70
     1
  9
$DIMTOH
 70
     1
  9
$DIMSE1
 70
     0
  9
$DIMSE2
 70
     0
  9
$DIMTAD
 70
     1
  9
$DIMZIN
 70
     0
  9
$DIMBLK
  1

  9
$DIMASO
 70
     1
  9
$DIMSHO
 70
     1
  9
$DIMPOST
  1

  9
$DIMAPOST
  1

  9
$DIMALT
 70
     0
  9
$DIMALTD
 70
     3
  9
$DIMALTF
 40
0.0393700787401575
  9
$DIMLFAC
 40
1.0
  9
$DIMTOFL
 70
     1
  9
$DIMTVP
 40
0.0
  9
$DIMTIX
 70
     0
  9
$DIMSOXD
 70
     0
  9
$DIMSAH
 70
     0
  9
$DIMBLK1
  1

  9
$DIMBLK2
  1

  9
$DIMSTYLE
  2
ISO-25
  9
$DIMCLRD
 70
     0
  9
$DIMCLRE
 70
     0
  9
$DIMCLRT
 70
     0
  9
$DIMTFAC
 40
1.0
  9
$DIMGAP
 40
1.524
  9
$DIMJUST
 70
     0
  9
$DIMSD1
 70
     0
  9
$DIMSD2
 70
     0
  9
$DIMTOLJ
 70
     0
  9
$DIMTZIN
 70
     0
  9
$DIMALTZ
 70
     0
  9
$DIMALTTZ
 70
     0
  9
$DIMUPT
 70
     0
  9
$DIMDEC
 70
     2
  9
$DIMTDEC
 70
     2
  9
$DIMALTU
 70
     2
  9
$DIMALTTD
 70
     3
  9
$DIMTXSTY
  7
Standard
  9
$DIMAUNIT
 70
     0
  9
$DIMADEC
 70
     2
  9
$DIMALTRND
 40
0.0
  9
$DIMAZIN
 70
     0
  9
$DIMDSEP
 70
    44
  9
$DIMATFIT
 70
     3
  9
$DIMFRAC
 70
     0
  9
$DIMLDRBLK
  1

  9
$DIMLUNIT
 70
     2
  9
$DIMLWD
 70
    -2
  9
$DIMLWE
 70
    -2
  9
$DIMTMOVE
 70
     0
  9
$LUNITS
 70
     2
  9
$LUPREC
 70
     2
  9
$SKETCHINC
 40
1.0
  9
$FILLETRAD
 40
10.0
  9
$AUNITS
 70
     0
  9
$AUPREC
 70
     2
  9
$MENU
  1
.
  9
$ELEVATION
 40
0.0
  9
$PELEVATION
 40
0.0
  9
$THICKNESS
 40
0.0
  9
$LIMCHECK
 70
     0
  9
$CHAMFERA
 40
0.0
  9
$CHAMFERB
 40
0.0
  9
$CHAMFERC
 40
0.0
  9
$CHAMFERD
 40
0.0
  9
$SKPOLY
 70
     0
  9
$TDCREATE
 40
2458312.675892349
  9
$TDUCREATE
 40
2458312.300892349
  9
$TDUPDATE
 40
2458320.466966157
  9
$TDUUPDATE
 40
2458320.091966157
  9
$TDINDWG
 40
0.0007890278
  9
$TDUSRTIMER
 40
2458320.091601759
  9
$USRTIMER
 70
     1
  9
$ANGBASE
 50
0.0
  9
$ANGDIR
 70
     0
  9
$PDMODE
 70
     0
  9
$PDSIZE
 40
-1.0
  9
$PLINEWID
 40
0.0
  9
$SPLFRAME
 70
     0
  9
$SPLINETYPE
 70
     6
  9
$SPLINESEGS
 70
     8
  9
$HANDSEED
  5
329
  9
$SURFTAB1
 70
     6
  9
$SURFTAB2
 70
     6
  9
$SURFTYPE
 70
     6
  9
$SURFU
 70
     6
  9
$SURFV
 70
     6
  9
$UCSBASE
  2

  9
$UCSNAME
  2

  9
$UCSORG
 10
0.0
 20
0.0
 30
0.0
  9
$UCSXDIR
 10
1.0
 20
0.0
 30
0.0
  9
$UCSYDIR
 10
0.0
 20
1.0
 30
0.0
  9
$UCSORTHOREF
  2

  9
$UCSORTHOVIEW
 70
     0
  9
$UCSORGTOP
 10
0.0
 20
0.0
 30
0.0
  9
$UCSORGBOTTOM
 10
0.0
 20
0.0
 30
0.0
  9
$UCSORGLEFT
 10
0.0
 20
0.0
 30
0.0
  9
$UCSORGRIGHT
 10
0.0
 20
0.0
 30
0.0
  9
$UCSORGFRONT
 10
0.0
 20
0.0
 30
0.0
  9
$UCSORGBACK
 10
0.0
 20
0.0
 30
0.0
  9
$PUCSBASE
  2

  9
$PUCSNAME
  2

  9
$PUCSORG
 10
0.0
 20
0.0
 30
0.0
  9
$PUCSXDIR
 10
1.0
 20
0.0
 30
0.0
  9
$PUCSYDIR
 10
0.0
 20
1.0
 30
0.0
  9
$PUCSORTHOREF
  2

  9
$PUCSORTHOVIEW
 70
     0
  9
$PUCSORGTOP
 10
0.0
 20
0.0
 30
0.0
  9
$PUCSORGBOTTOM
 10
0.0
 20
0.0
 30
0.0
  9
$PUCSORGLEFT
 10
0.0
 20
0.0
 30
0.0
  9
$PUCSORGRIGHT
 10
0.0
 20
0.0
 30
0.0
  9
$PUCSORGFRONT
 10
0.0
 20
0.0
 30
0.0
  9
$PUCSORGBACK
 10
0.0
 20
0.0
 30
0.0
  9
$USERI1
 70
     0
  9
$USERI2
 70
     0
  9
$USERI3
 70
     0
  9
$USERI4
 70
     0
  9
$USERI5
 70
     0
  9
$USERR1
 40
0.0
  9
$USERR2
 40
0.0
  9
$USERR3
 40
0.0
  9
$USERR4
 40
0.0
  9
$USERR5
 40
0.0
  9
$WORLDVIEW
 70
     1
  9
$SHADEDGE
 70
     3
  9
$SHADEDIF
 70
    70
  9
$TILEMODE
 70
     1
  9
$MAXACTVP
 70
    64
  9
$PINSBASE
 10
0.0
 20
0.0
 30
0.0
  9
$PLIMCHECK
 70
     0
  9
$PEXTMIN
 10
1.000000000000000E+20
 20
1.000000000000000E+20
 30
1.000000000000000E+20
  9
$PEXTMAX
 10
-1.000000000000000E+20
 20
-1.000000000000000E+20
 30
-1.000000000000000E+20
  9
$PLIMMIN
 10
0.0
 20
0.0
  9
$PLIMMAX
 10
0.0
 20
0.0
  9
$UNITMODE
 70
     0
  9
$VISRETAIN
 70
     1
  9
$PLINEGEN
 70
     0
  9
$PSLTSCALE
 70
     1
  9
$TREEDEPTH
 70
  3020
  9
$CMLSTYLE
  2
Standard
  9
$CMLJUST
 70
     0
  9
$CMLSCALE
 40
20.0
  9
$PROXYGRAPHICS
 70
     1
  9
$MEASUREMENT
 70
     1
  9
$CELWEIGHT
370
    -1
  9
$ENDCAPS
280
     0
  9
$JOINSTYLE
280
     0
  9
$LWDISPLAY
290
     1
  9
$INSUNITS
 70
     4
  9
$HYPERLINKBASE
  1

  9
$STYLESHEET
  1

  9
$XEDIT
290
     1
  9
$CEPSNTYPE
380
     0
  9
$PSTYLEMODE
290
     1
  9
$FINGERPRINTGUID
  2
{9E6A6FAE-C7A9-40BF-A8F4-3D3202008BB0}
  9
$VERSIONGUID
  2
{FAEB1C32-E019-11D5-929B-00C0DF256EC4}
  9
$EXTNAMES
290
     1
  9
$PSVPSCALE
 40
0.0
  9
$OLESTARTUP
290
     0
  0
ENDSEC
  0
SECTION
  2
CLASSES
  0
CLASS
  1
ACDBDICTIONARYWDFLT
  2
AcDbDictionaryWithDefault
  3
ObjectDBX Classes
 90
        0
280
     0
281
     0
  0
CLASS
  1
VISUALSTYLE
  2
AcDbVisualStyle
  3
ObjectDBX Classes
 90
     4095
280
     0
281
     0
  0
CLASS
  1
MATERIAL
  2
AcDbMaterial
  3
ObjectDBX Classes
 90
     1153
280
     0
281
     0
  0
CLASS
  1
SCALE
  2
AcDbScale
  3
ObjectDBX Classes
 90
     1153
280
     0
281
     0
  0
CLASS
  1
SUN
  2
AcDbSun
  3
SCENEOE
 90
     1153
280
     0
281
     0
  0
CLASS
  1
ACDBPLACEHOLDER
  2
AcDbPlaceHolder
  3
ObjectDBX Classes
 90
        0
280
     0
281
     0
  0
CLASS
  1
LAYOUT
  2
AcDbLayout
  3
ObjectDBX Classes
 90
        0
280
     0
281
     0
  0
CLASS
  1
TABLESTYLE
  2
AcDbTableStyle
  3
ObjectDBX Classes
 90
     4095
280
     0
281
     0
  0
CLASS
  1
MLEADERSTYLE
  2
AcDbMLeaderStyle
  3
ACDB_MLEADERSTYLE_CLASS
 90
     4095
280
     0
281
     0
  0
CLASS
  1
RASTERVARIABLES
  2
AcDbRasterVariables
  3
ISM
 90
        0
280
     0
281
     0
  0
CLASS
  1
DIMASSOC
  2
AcDbDimAssoc
  3
"AcDbDimAssoc|Product Desc:     AcDim ARX App For Dimension|Company:          Autodesk, Inc.|WEB Address:      www.autodesk.com"
 90
        0
280
     0
281
     0
  0
ENDSEC
  0
SECTION
  2
TABLES
  0
TABLE
  2
VPORT
  5
8
330
0
100
AcDbSymbolTable
 70
     1
  0
VPORT
  5
29
330
8
100
AcDbSymbolTableRecord
100
AcDbViewportTableRecord
  2
*Active
 70
     0
 10
0.0
 20
0.0
 11
1.0
 21
1.0
 12
5.528989113421545
 22
-1.305666637069539
 13
0.0
 23
0.0
 14
10.0
 24
10.0
 15
10.0
 25
10.0
 16
0.0
 26
0.0
 36
1.0
 17
0.0
 27
0.0
 37
0.0
 40
178.3867265503708
 41
1.632093933463797
 42
50.0
 43
0.0
 44
0.0
 50
0.0
 51
0.0
 71
    16
 72
  2000
 73
     1
 74
     3
 75
     0
 76
     0
 77
     0
 78
     0
281
     0
 65
     1
110
0.0
120
0.0
130
0.0
111
1.0
121
0.0
131
0.0
112
0.0
122
1.0
132
0.0
 79
     0
146
0.0
  0
ENDTAB
  0
TABLE
  2
LTYPE
  5
5
330
0
100
AcDbSymbolTable
 70
     6
  0
LTYPE
  5
14
330
5
100
AcDbSymbolTableRecord
100
AcDbLinetypeTableRecord
  2
ByBlock
 70
     0
  3

 72
    65
 73
     0
 40
0.0
  0
LTYPE
  5
15
330
5
100
AcDbSymbolTableRecord
100
AcDbLinetypeTableRecord
  2
ByLayer
 70
     0
  3

 72
    65
 73
     0
 40
0.0
  0
LTYPE
  5
16
330
5
100
AcDbSymbolTableRecord
100
AcDbLinetypeTableRecord
  2
Continuous
 70
     0
  3
Solid line
 72
    65
 73
     0
 40
0.0
  0
LTYPE
  5
6A
330
5
100
AcDbSymbolTableRecord
100
AcDbLinetypeTableRecord
  2
HIDDEN
 70
     0
  3
Hidden __ __ __ __ __ __ __ __ __ __ __ __ __ __
 72
    65
 73
     2
 40
1.905
 49
1.27
 74
     0
 49
-0.635
 74
     0
  0
LTYPE
  5
6B
330
5
100
AcDbSymbolTableRecord
100
AcDbLinetypeTableRecord
  2
PHANTOM
 70
     0
  3
Phantom ______  __  __  ______  __  __  ______
 72
    65
 73
     6
 40
12.7
 49
6.35
 74
     0
 49
-1.27
 74
     0
 49
1.27
 74
     0
 49
-1.27
 74
     0
 49
1.27
 74
     0
 49
-1.27
 74
     0
  0
LTYPE
  5
6C
330
5
100
AcDbSymbolTableRecord
100
AcDbLinetypeTableRecord
  2
CENTER
 70
     0
  3
Center ____ _ ____ _ ____ _ ____ _ ____ _ ____
 72
    65
 73
     4
 40
10.16
 49
6.35
 74
     0
 49
-1.27
 74
     0
 49
1.27
 74
     0
 49
-1.27
 74
     0
  0
LTYPE
  5
6D
330
5
100
AcDbSymbolTableRecord
100
AcDbLinetypeTableRecord
  2
CENTERX2
 70
     0
  3
Center (2x) ________  __  ________  __  _____
 72
    65
 73
     4
 40
20.32
 49
12.7
 74
     0
 49
-2.54
 74
     0
 49
2.54
 74
     0
 49
-2.54
 74
     0
  0
LTYPE
  5
6E
330
5
100
AcDbSymbolTableRecord
100
AcDbLinetypeTableRecord
  2
DOT2
 70
     0
  3
Dot (.5x) ........................................
 72
    65
 73
     2
 40
0.635
 49
0.0
 74
     0
 49
-0.635
 74
     0
  0
ENDTAB
  0
TABLE
  2
LAYER
  5
2
102
{ACAD_XDICTIONARY
360
1F1
102
}
330
0
100
AcDbSymbolTable
 70
    18
  0
LAYER
  5
10
330
2
100
AcDbSymbolTableRecord
100
AcDbLayerTableRecord
  2
0
 70
     0
 62
     7
  6
Continuous
370
    -3
390
F
  0
LAYER
  5
6F
330
2
100
AcDbSymbolTableRecord
100
AcDbLayerTableRecord
  2
FORMAT
 70
     0
 62
     2
  6
Continuous
370
    -3
390
F
  0
LAYER
  5
70
330
2
100
AcDbSymbolTableRecord
100
AcDbLayerTableRecord
  2
외형선
 70
     0
 62
     4
  6
Continuous
370
    30
390
F
  0
LAYER
  5
71
330
2
100
AcDbSymbolTableRecord
100
AcDbLayerTableRecord
  2
숨은선
 70
     0
 62
     2
  6
HIDDEN
370
    15
390
F
  0
LAYER
  5
72
330
2
100
AcDbSymbolTableRecord
100
AcDbLayerTableRecord
  2
중심선
 70
     0
 62
     1
  6
CENTERX2
370
    -3
390
F
  0
LAYER
  5
73
330
2
100
AcDbSymbolTableRecord
100
AcDbLayerTableRecord
  2
파단선
 70
     0
 62
     4
  6
Continuous
370
    -3
390
F
  0
LAYER
  5
74
330
2
100
AcDbSymbolTableRecord
100
AcDbLayerTableRecord
  2
해칭선
 70
     0
 62
   100
  6
Continuous
370
    -3
390
F
  0
LAYER
  5
75
330
2
100
AcDbSymbolTableRecord
100
AcDbLayerTableRecord
  2
가는실선
 70
     0
 62
     4
  6
Continuous
370
    -3
390
F
  0
LAYER
  5
76
330
2
100
AcDbSymbolTableRecord
100
AcDbLayerTableRecord
  2
치수_보조선
 70
     0
 62
     4
  6
Continuous
370
    -3
390
F
  0
LAYER
  5
77
330
2
100
AcDbSymbolTableRecord
100
AcDbLayerTableRecord
  2
치수문자_일반주서
 70
     0
 62
     7
  6
Continuous
370
    15
390
F
  0
LAYER
  5
78
330
2
100
AcDbSymbolTableRecord
100
AcDbLayerTableRecord
  2
개별주서
 70
     0
 62
   100
  6
Continuous
370
    30
390
F
  0
LAYER
  5
79
330
2
100
AcDbSymbolTableRecord
100
AcDbLayerTableRecord
  2
중간선
 70
     0
 62
     2
  6
Continuous
370
    15
390
F
  0
LAYER
  5
7A
330
2
100
AcDbSymbolTableRecord
100
AcDbLayerTableRecord
  2
윤곽선
 70
     0
 62
     3
  6
Continuous
370
    40
390
F
  0
LAYER
  5
7B
330
2
100
AcDbSymbolTableRecord
100
AcDbLayerTableRecord
  2
중심마크
 70
     0
 62
   100
  6
Continuous
370
    30
390
F
  0
LAYER
  5
7C
330
2
100
AcDbSymbolTableRecord
100
AcDbLayerTableRecord
  2
가상선
 70
     0
 62
     4
  6
PHANTOM
370
    -3
390
F
  0
LAYER
  5
7D
330
2
100
AcDbSymbolTableRecord
100
AcDbLayerTableRecord
  2
특수지정선
 70
     0
 62
     5
  6
CENTERX2
370
    60
390
F
  0
LAYER
  5
7E
330
2
100
AcDbSymbolTableRecord
100
AcDbLayerTableRecord
  2
참조1
 70
     0
 62
    -4
  6
Continuous
370
    -3
390
F
  0
LAYER
  5
153
330
2
100
AcDbSymbolTableRecord
100
AcDbLayerTableRecord
  2
Defpoints
 70
     0
 62
     7
  6
Continuous
290
     0
370
    -3
390
F
  0
ENDTAB
  0
TABLE
  2
STYLE
  5
3
330
0
100
AcDbSymbolTable
 70
     2
  0
STYLE
  5
11
330
3
100
AcDbSymbolTableRecord
100
AcDbTextStyleTableRecord
  2
Standard
 70
     0
 40
0.0
 41
1.0
 50
0.0
 71
     0
 42
3.5
  3
txt
  4

  0
STYLE
  5
94
330
3
100
AcDbSymbolTableRecord
100
AcDbTextStyleTableRecord
  2
SLDTEXTSTYLE0
 70
     0
 40
0.0
 41
0.75
 50
0.0
 71
     0
 42
3.5
  3
TXT
  4

  0
ENDTAB
  0
TABLE
  2
VIEW
  5
6
330
0
100
AcDbSymbolTable
 70
     0
  0
ENDTAB
  0
TABLE
  2
UCS
  5
7
330
0
100
AcDbSymbolTable
 70
     0
  0
ENDTAB
  0
TABLE
  2
APPID
  5
9
330
0
100
AcDbSymbolTable
 70
     1
  0
APPID
  5
12
330
9
100
AcDbSymbolTableRecord
100
AcDbRegAppTableRecord
  2
ACAD
 70
     0
  0
ENDTAB
  0
TABLE
  2
DIMSTYLE
  5
A
330
0
100
AcDbSymbolTable
 70
     5
100
AcDbDimStyleTable
  0
DIMSTYLE
105
27
330
A
100
AcDbSymbolTableRecord
100
AcDbDimStyleTableRecord
  2
ISO-25
 70
     0
 41
2.5
 42
0.625
 43
3.75
 44
1.25
 73
     0
 74
     0
 77
     1
 78
     8
140
2.5
141
2.5
143
0.03937007874016
147
0.625
171
     3
172
     1
178
     0
271
     2
272
     2
274
     3
278
    44
283
     0
284
     8
340
11
  0
DIMSTYLE
105
D2
330
A
100
AcDbSymbolTableRecord
100
AcDbDimStyleTableRecord
  2
SLDDIMSTYLE0
 70
     0
 41
3.302
 44
0.0
 45
0.000000001
 73
     0
 74
     0
 77
     1
 78
     4
 79
     1
140
3.5
143
0.0393700787401575
147
0.875
148
0.000000001
170
     1
173
     1
178
     0
271
     2
272
     2
276
     2
284
    12
340
94
  0
DIMSTYLE
105
E7
102
{ACAD_REACTORS
330
E6
330
D1
330
FA
330
28B
102
}
330
A
100
AcDbSymbolTableRecord
100
AcDbDimStyleTableRecord
  2
SLDDIMSTYLE1
 70
     0
 41
3.302
 44
0.0
 45
0.000000001
 73
     0
 74
     0
 77
     1
 78
    12
 79
     3
140
3.5
143
0.0393700787401575
147
0.875
148
0.000000001
170
     1
173
     1
178
     0
271
     2
272
     2
276
     2
284
    12
340
94
  0
DIMSTYLE
105
FB
330
A
100
AcDbSymbolTableRecord
100
AcDbDimStyleTableRecord
  2
SLDDIMSTYLE2
 70
     0
 41
3.302
 44
0.0
 45
0.000000001
 73
     0
 74
     0
 77
     1
 78
     4
 79
     1
140
3.5
143
0.0393700787401575
147
0.875
148
0.000000001
170
     1
172
     1
173
     1
178
     0
271
     2
272
     2
276
     2
284
    12
289
     0
340
94
  0
DIMSTYLE
105
110
330
A
100
AcDbSymbolTableRecord
100
AcDbDimStyleTableRecord
  2
SLDDIMSTYLE3
 70
     0
 41
3.302
 44
0.0
 45
0.000000001
 73
     0
 74
     0
 77
     1
 78
     8
 79
     2
140
3.5
143
0.0393700787401575
147
0.875
148
0.000000001
170
     1
172
     1
173
     1
178
     0
271
     2
272
     2
276
     2
284
    12
289
     0
340
94
341
111
343
111
344
111
  0
ENDTAB
  0
TABLE
  2
BLOCK_RECORD
  5
1
330
0
100
AcDbSymbolTable
 70
    18
  0
BLOCK_RECORD
  5
1F
330
1
100
AcDbSymbolTableRecord
100
AcDbBlockTableRecord
  2
*Model_Space
340
22
  0
BLOCK_RECORD
  5
1B
330
1
100
AcDbSymbolTableRecord
100
AcDbBlockTableRecord
  2
*Paper_Space
340
1E
  0
BLOCK_RECORD
  5
23
330
1
100
AcDbSymbolTableRecord
100
AcDbBlockTableRecord
  2
*Paper_Space0
340
26
  0
BLOCK_RECORD
  5
7F
330
1
100
AcDbSymbolTableRecord
100
AcDbBlockTableRecord
  2
블럭10
340
0
102
{BLKREFS
331
CA
102
}
  0
BLOCK_RECORD
  5
D3
330
1
100
AcDbSymbolTableRecord
100
AcDbBlockTableRecord
  2
_D
340
0
  0
BLOCK_RECORD
  5
E8
330
1
100
AcDbSymbolTableRecord
100
AcDbBlockTableRecord
  2
_D_1
340
0
  0
BLOCK_RECORD
  5
FC
330
1
100
AcDbSymbolTableRecord
100
AcDbBlockTableRecord
  2
_D_2
340
0
  0
BLOCK_RECORD
  5
111
330
1
100
AcDbSymbolTableRecord
100
AcDbBlockTableRecord
  2
_NONE
340
0
  0
BLOCK_RECORD
  5
114
330
1
100
AcDbSymbolTableRecord
100
AcDbBlockTableRecord
  2
_D_3
340
0
  0
BLOCK_RECORD
  5
127
330
1
100
AcDbSymbolTableRecord
100
AcDbBlockTableRecord
  2
SW_DOWELSYMBOL_0
340
0
102
{BLKREFS
331
12D
102
}
  0
BLOCK_RECORD
  5
1E4
330
1
100
AcDbSymbolTableRecord
100
AcDbBlockTableRecord
  2
*D8
340
0
  0
BLOCK_RECORD
  5
1F5
330
1
100
AcDbSymbolTableRecord
100
AcDbBlockTableRecord
  2
*D9
340
0
  0
BLOCK_RECORD
  5
201
330
1
100
AcDbSymbolTableRecord
100
AcDbBlockTableRecord
  2
*D10
340
0
  0
BLOCK_RECORD
  5
20D
330
1
100
AcDbSymbolTableRecord
100
AcDbBlockTableRecord
  2
*D11
340
0
  0
BLOCK_RECORD
  5
258
330
1
100
AcDbSymbolTableRecord
100
AcDbBlockTableRecord
  2
*D12
340
0
  0
BLOCK_RECORD
  5
264
330
1
100
AcDbSymbolTableRecord
100
AcDbBlockTableRecord
  2
*D13
340
0
  0
BLOCK_RECORD
  5
270
330
1
100
AcDbSymbolTableRecord
100
AcDbBlockTableRecord
  2
*D14
340
0
  0
BLOCK_RECORD
  5
27C
330
1
100
AcDbSymbolTableRecord
100
AcDbBlockTableRecord
  2
*D15
340
0
  0
BLOCK_RECORD
  5
28E
330
1
100
AcDbSymbolTableRecord
100
AcDbBlockTableRecord
  2
*D16
340
0
  0
ENDTAB
  0
ENDSEC
  0
SECTION
  2
BLOCKS
  0
BLOCK
  5
20
330
1F
100
AcDbEntity
  8
0
100
AcDbBlockBegin
  2
*Model_Space
 70
     0
 10
0.0
 20
0.0
 30
0.0
  3
*Model_Space
  1
*Model_Space
  0
ENDBLK
  5
21
330
1F
100
AcDbEntity
  8
0
100
AcDbBlockEnd
  0
BLOCK
  5
1C
330
1B
100
AcDbEntity
 67
     1
  8
0
100
AcDbBlockBegin
  2
*Paper_Space
 70
     0
 10
0.0
 20
0.0
 30
0.0
  3
*Paper_Space
  1
*Paper_Space
  0
ENDBLK
  5
1D
330
1B
100
AcDbEntity
 67
     1
  8
0
100
AcDbBlockEnd
  0
BLOCK
  5
24
330
23
100
AcDbEntity
  8
0
100
AcDbBlockBegin
  2
*Paper_Space0
 70
     0
 10
0.0
 20
0.0
 30
0.0
  3
*Paper_Space0
  1
*Paper_Space0
  0
ENDBLK
  5
25
330
23
100
AcDbEntity
  8
0
100
AcDbBlockEnd
  0
BLOCK
  5
80
330
7F
100
AcDbEntity
  8
0
100
AcDbBlockBegin
  2
블럭10
 70
     2
 10
0.0
 20
0.0
 30
0.0
  3
블럭10
  1
블럭10
  0
ELLIPSE
  5
82
330
7F
100
AcDbEntity
  8
중심선
100
AcDbEllipse
 10
20.54032771741204
 20
12.0471743016438
 30
0.0
 11
6.600054785286829
 21
-1.261213355974178E-13
 31
0.0
210
0.0
220
0.0
230
1.0
 40
0.636358354079598
 41
0.9219305317359503
 42
6.513795318482858
  0
ELLIPSE
  5
83
330
7F
100
AcDbEntity
  8
중심선
100
AcDbEllipse
 10
20.54032771746488
 20
12.04717430159265
 30
0.0
 11
3.960054785062283
 21
1.540847449632565E-10
 31
0.0
210
0.0
220
0.0
230
1.0
 40
0.3939339440162632
 41
1.131841032648279
 42
5.62031148352944
  0
LINE
  5
84
330
7F
100
AcDbEntity
  8
중심선
100
AcDbLine
 10
2.268634060543552
 20
16.24717430164393
 30
0.0
 11
5.714909304380834
 21
16.24717430164393
 31
0.0
  0
LINE
  5
85
330
7F
100
AcDbEntity
  8
중심선
100
AcDbLine
 10
5.245725140726316
 20
7.84717430164391
 30
0.0
 11
8.692000384563599
 21
7.84717430164391
 31
0.0
  0
LINE
  5
86
330
7F
100
AcDbEntity
  8
중심선
100
AcDbLine
 10
15.74043728645272
 20
16.24717430164393
 30
0.0
 11
8.692000384563599
 21
7.84717430164391
 31
0.0
  0
LINE
  5
87
330
7F
100
AcDbEntity
  8
중심선
100
AcDbLine
 10
0.1404042013395286
 20
13.71084872107135
 30
0.0
 11
3.58671253028996
 21
13.71088815037384
 31
0.0
  0
LINE
  5
88
330
7F
100
AcDbEntity
  8
중심선
100
AcDbLine
 10
2.750260043222114
 20
10.84717430164391
 30
0.0
 11
6.196535287059397
 21
10.84717430164391
 31
0.0
  0
LINE
  5
89
330
7F
100
AcDbEntity
  8
중심선
100
AcDbLine
 10
12.29416204261559
 20
16.24717430164393
 30
0.0
 11
5.245725140726316
 21
7.84717430164391
 31
0.0
  0
LINE
  5
8A
330
7F
100
AcDbEntity
  8
중심선
100
AcDbLine
 10
10.72767329541681
 20
16.24717430164393
 30
0.0
 11
6.196535287059397
 21
10.84717430164391
 31
0.0
  0
LINE
  5
8B
330
7F
100
AcDbEntity
  8
중심선
100
AcDbLine
 10
7.28139805157953
 20
16.24717430164393
 30
0.0
 11
2.750260043222114
 21
10.84717430164391
 31
0.0
  0
LINE
  5
8C
330
7F
100
AcDbEntity
  8
중심선
100
AcDbLine
 10
5.714909304380834
 20
16.24717430164393
 30
0.0
 11
3.58671253028996
 21
13.71088815037384
 31
0.0
  0
LINE
  5
8D
330
7F
100
AcDbEntity
  8
중심선
100
AcDbLine
 10
2.268634060543552
 20
16.24717430164393
 30
0.0
 11
0.1404042013395286
 21
13.71084872107135
 31
0.0
  0
LINE
  5
8E
330
7F
100
AcDbEntity
  8
중심선
100
AcDbLine
 10
7.28139805157953
 20
16.24717430164393
 30
0.0
 11
10.72767329541681
 21
16.24717430164393
 31
0.0
  0
LINE
  5
8F
330
7F
100
AcDbEntity
  8
중심선
100
AcDbLine
 10
12.29416204261559
 20
16.24717430164393
 30
0.0
 11
15.74043728645272
 21
16.24717430164393
 31
0.0
  0
LINE
  5
90
330
7F
100
AcDbEntity
  8
중심선
100
AcDbLine
 10
19.22036997980202
 20
11.08717430171403
 30
0.0
 11
23.66174974927406
 21
11.08717430171406
 31
0.0
  0
LINE
  5
91
330
7F
100
AcDbEntity
  8
중심선
100
AcDbLine
 10
19.22039502424796
 20
13.00717430171391
 30
0.0
 11
19.22036997980202
 21
11.08717430171403
 31
0.0
  0
LINE
  5
92
330
7F
100
AcDbEntity
  8
중심선
100
AcDbLine
 10
19.22039502424796
 20
13.00717430171391
 30
0.0
 11
26.96566020931264
 21
13.00717430171391
 31
0.0
  0
LINE
  5
93
330
7F
100
AcDbEntity
  8
중심선
100
AcDbLine
 10
22.22332737316547
 20
13.45928029700563
 30
0.0
 11
24.52862924686651
 21
15.39360700705356
 31
0.0
  0
ATTDEF
  5
95
330
7F
100
AcDbEntity
  8
FORMAT
 62
     2
100
AcDbText
 10
4.408487351596664
 20
2.075366912832191
 30
0.0
 40
4.233333333333333
  1
E2036032
 41
0.75
  7
SLDTEXTSTYLE0
 11
4.408487351596664
 21
-0.0412997538344756
 31
0.0
100
AcDbAttributeDefinition
  3

  2
AUTOATTR0
 70
     0
 74
     1
  0
ENDBLK
  5
81
330
7F
100
AcDbEntity
  8
0
100
AcDbBlockEnd
  0
BLOCK
  5
D4
330
D3
100
AcDbEntity
  8
0
100
AcDbBlockBegin
  2
_D
 70
     0
 10
0.0
 20
0.0
 30
0.0
  3
_D
  1
_D
  0
LINE
  5
D6
330
D3
100
AcDbEntity
  8
치수문자_일반주서
 62
     0
370
    -2
100
AcDbLine
 10
86.19999999999999
 20
6.413574928723905
 30
0.0
 11
86.19999999999999
 21
19.50856127087755
 31
0.0
  0
LINE
  5
D7
330
D3
100
AcDbEntity
  8
치수문자_일반주서
 62
     0
370
    -2
100
AcDbLine
 10
9.999999999999984
 20
5.672596044062741
 30
0.0
 11
9.999999999999986
 21
19.50856127087755
 31
0.0
  0
LINE
  5
D8
330
D3
100
AcDbEntity
  8
치수문자_일반주서
 62
     0
370
    -2
100
AcDbLine
 10
82.898
 20
19.50856127087755
 30
0.0
 11
13.30199999999999
 21
19.50856127087755
 31
0.0
  0
SOLID
  5
D9
330
D3
100
AcDbEntity
  8
치수문자_일반주서
 62
     0
100
AcDbTrace
 10
82.898
 20
18.95822793754422
 30
0.0
 11
82.898
 21
20.05889460421088
 31
0.0
 12
86.19999999999999
 22
19.50856127087755
 32
0.0
 13
86.19999999999999
 23
19.50856127087755
 33
0.0
  0
SOLID
  5
DA
330
D3
100
AcDbEntity
  8
치수문자_일반주서
 62
     0
100
AcDbTrace
 10
13.30199999999999
 20
20.05889460421088
 30
0.0
 11
13.30199999999999
 21
18.95822793754422
 31
0.0
 12
9.999999999999986
 22
19.50856127087755
 32
0.0
 13
9.999999999999986
 23
19.50856127087755
 33
0.0
  0
MTEXT
  5
DB
330
D3
100
AcDbEntity
  8
치수문자_일반주서
 62
     0
100
AcDbMText
 10
48.09999999999999
 20
23.88356127087755
 30
0.0
 40
3.5
 41
0.0
 71
     2
 72
     1
  1
\A1;76.2 [3]
  7
SLDTEXTSTYLE0
 73
     1
 44
1.0
  0
POINT
  5
DC
330
D3
100
AcDbEntity
  8
Defpoints
 62
     0
100
AcDbPoint
 10
86.19999999999999
 20
6.351074928723905
 30
0.0
  0
POINT
  5
DD
330
D3
100
AcDbEntity
  8
Defpoints
 62
     0
100
AcDbPoint
 10
9.999999999999984
 20
5.610096044062741
 30
0.0
  0
POINT
  5
DE
330
D3
100
AcDbEntity
  8
Defpoints
 62
     0
100
AcDbPoint
 10
9.999999999999984
 20
19.50856127087755
 30
0.0
  0
ENDBLK
  5
D5
330
D3
100
AcDbEntity
  8
0
100
AcDbBlockEnd
  0
BLOCK
  5
E9
330
E8
100
AcDbEntity
  8
0
100
AcDbBlockBegin
  2
_D_1
 70
     0
 10
0.0
 20
0.0
 30
0.0
  3
_D_1
  1
_D_1
  0
LINE
  5
EB
330
E8
100
AcDbEntity
  8
치수문자_일반주서
 62
     0
370
    -2
100
AcDbLine
 10
86.19999999999999
 20
6.413574928723905
 30
0.0
 11
86.19999999999999
 21
35.22976646868032
 31
0.0
  0
LINE
  5
EC
330
E8
100
AcDbEntity
  8
치수문자_일반주서
 62
     0
370
    -2
100
AcDbLine
 10
-40.8
 20
5.143574928723896
 30
0.0
 11
-40.80000000000001
 21
35.22976646868032
 31
0.0
  0
LINE
  5
ED
330
E8
100
AcDbEntity
  8
치수문자_일반주서
 62
     0
370
    -2
100
AcDbLine
 10
82.898
 20
35.22976646868032
 30
0.0
 11
-37.49800000000001
 21
35.22976646868032
 31
0.0
  0
SOLID
  5
EE
330
E8
100
AcDbEntity
  8
치수문자_일반주서
 62
     0
100
AcDbTrace
 10
82.898
 20
34.67943313534699
 30
0.0
 11
82.898
 21
35.78009980201366
 31
0.0
 12
86.19999999999999
 22
35.22976646868032
 32
0.0
 13
86.19999999999999
 23
35.22976646868032
 33
0.0
  0
SOLID
  5
EF
330
E8
100
AcDbEntity
  8
치수문자_일반주서
 62
     0
100
AcDbTrace
 10
-37.49800000000001
 20
35.78009980201366
 30
0.0
 11
-37.49800000000001
 21
34.67943313534699
 31
0.0
 12
-40.80000000000001
 22
35.22976646868032
 32
0.0
 13
-40.80000000000001
 23
35.22976646868032
 33
0.0
  0
MTEXT
  5
F0
330
E8
100
AcDbEntity
  8
치수문자_일반주서
 62
     0
100
AcDbMText
 10
22.69999999999999
 20
39.60476646868032
 30
0.0
 40
3.5
 41
0.0
 71
     2
 72
     1
  1
\A1;127 [5]
  7
SLDTEXTSTYLE0
 73
     1
 44
1.0
  0
POINT
  5
F1
330
E8
100
AcDbEntity
  8
Defpoints
 62
     0
100
AcDbPoint
 10
86.19999999999999
 20
6.351074928723905
 30
0.0
  0
POINT
  5
F2
330
E8
100
AcDbEntity
  8
Defpoints
 62
     0
100
AcDbPoint
 10
-40.8
 20
5.081074928723896
 30
0.0
  0
POINT
  5
F3
330
E8
100
AcDbEntity
  8
Defpoints
 62
     0
100
AcDbPoint
 10
-40.8
 20
35.22976646868032
 30
0.0
  0
ENDBLK
  5
EA
330
E8
100
AcDbEntity
  8
0
100
AcDbBlockEnd
  0
BLOCK
  5
FD
330
FC
100
AcDbEntity
  8
0
100
AcDbBlockBegin
  2
_D_2
 70
     0
 10
0.0
 20
0.0
 30
0.0
  3
_D_2
  1
_D_2
  0
LINE
  5
FF
330
FC
100
AcDbEntity
  8
치수문자_일반주서
 62
     0
370
    -2
100
AcDbLine
 10
-39.59250000000002
 20
6.351074928723888
 30
0.0
 11
-51.78327283782723
 21
6.351074928723841
 31
0.0
  0
LINE
  5
100
330
FC
100
AcDbEntity
  8
치수문자_일반주서
 62
     0
370
    -2
100
AcDbLine
 10
-39.59250000000002
 20
-6.348925071276101
 30
0.0
 11
-51.78327283782718
 21
-6.348925071276147
 31
0.0
  0
LINE
  5
101
330
FC
100
AcDbEntity
  8
치수문자_일반주서
 62
     0
370
    -2
100
AcDbLine
 10
-51.78327283782721
 20
3.049074928723842
 30
0.0
 11
-51.7832728378272
 21
-3.046925071276148
 31
0.0
  0
SOLID
  5
102
330
FC
100
AcDbEntity
  8
치수문자_일반주서
 62
     0
100
AcDbTrace
 10
-51.23293950449388
 20
3.049074928723844
 30
0.0
 11
-52.33360617116055
 21
3.04907492872384
 31
0.0
 12
-51.78327283782723
 22
6.351074928723841
 32
0.0
 13
-51.78327283782723
 23
6.351074928723841
 33
0.0
  0
SOLID
  5
103
330
FC
100
AcDbEntity
  8
치수문자_일반주서
 62
     0
100
AcDbTrace
 10
-52.33360617116053
 20
-3.046925071276149
 30
0.0
 11
-51.23293950449386
 21
-3.046925071276146
 31
0.0
 12
-51.78327283782718
 22
-6.348925071276147
 32
0.0
 13
-51.78327283782718
 23
-6.348925071276147
 33
0.0
  0
MTEXT
  5
104
330
FC
100
AcDbEntity
  8
치수문자_일반주서
 62
     0
100
AcDbMText
 10
-56.15827283782721
 20
0.0010749287238727
 30
0.0
 40
3.5
 41
0.0
 71
     2
 72
     1
  1
\A1;%%c12.7 [1/2]
  7
SLDTEXTSTYLE0
 11
-3.356894814614650E-15
 21
1.0
 31
0.0
 73
     1
 44
1.0
  0
POINT
  5
105
330
FC
100
AcDbEntity
  8
Defpoints
 62
     0
100
AcDbPoint
 10
-39.53000000000002
 20
6.351074928723888
 30
0.0
  0
POINT
  5
106
330
FC
100
AcDbEntity
  8
Defpoints
 62
     0
100
AcDbPoint
 10
-39.53000000000002
 20
-6.348925071276101
 30
0.0
  0
POINT
  5
107
330
FC
100
AcDbEntity
  8
Defpoints
 62
     0
100
AcDbPoint
 10
-51.78327283782718
 20
-6.348925071276147
 30
0.0
  0
ENDBLK
  5
FE
330
FC
100
AcDbEntity
  8
0
100
AcDbBlockEnd
  0
BLOCK
  5
112
330
111
100
AcDbEntity
  8
0
100
AcDbBlockBegin
  2
_NONE
 70
     0
 10
0.0
 20
0.0
 30
0.0
  3
_NONE
  1
_NONE
  0
ENDBLK
  5
113
330
111
100
AcDbEntity
  8
0
100
AcDbBlockEnd
  0
BLOCK
  5
115
330
114
100
AcDbEntity
  8
0
100
AcDbBlockBegin
  2
_D_3
 70
     0
 10
0.0
 20
0.0
 30
0.0
  3
_D_3
  1
_D_3
  0
LINE
  5
117
330
114
100
AcDbEntity
  8
치수문자_일반주서
100
AcDbLine
 10
-8.884833931663604
 20
-2.238291502344711
 30
0.0
 11
-8.884833931663604
 21
-2.949228987909211
 31
0.0
  0
LINE
  5
118
330
114
100
AcDbEntity
  8
치수문자_일반주서
100
AcDbLine
 10
-8.884833931663604
 20
-2.949228987909211
 30
0.0
 11
-3.328583940604301
 21
-2.949228987909211
 31
0.0
  0
LINE
  5
119
330
114
100
AcDbEntity
  8
치수문자_일반주서
100
AcDbLine
 10
-3.328583940604301
 20
-2.949228987909211
 30
0.0
 11
-3.328583940604301
 21
-2.238291502344711
 31
0.0
  0
LINE
  5
11A
330
114
100
AcDbEntity
  8
치수문자_일반주서
100
AcDbLine
 10
-8.884833931663604
 20
8.590441359792548
 30
0.0
 11
-8.884833931663604
 21
9.301378845357048
 31
0.0
  0
LINE
  5
11B
330
114
100
AcDbEntity
  8
치수문자_일반주서
100
AcDbLine
 10
-8.884833931663604
 20
9.301378845357048
 30
0.0
 11
-3.328583940604301
 21
9.301378845357048
 31
0.0
  0
LINE
  5
11C
330
114
100
AcDbEntity
  8
치수문자_일반주서
100
AcDbLine
 10
-3.328583940604301
 20
9.301378845357048
 30
0.0
 11
-3.328583940604301
 21
8.590441359792548
 31
0.0
  0
MTEXT
  5
11D
330
114
100
AcDbEntity
  8
치수문자_일반주서
100
AcDbMText
 10
-7.840320855183196
 20
-1.34961960173334
 30
0.0
 40
3.5
 41
0.0
 71
     1
 72
     1
  1
0.00
  7
SLDTEXTSTYLE0
 11
6.123233995736766E-17
 21
1.0
 31
0.0
 73
     1
 44
1.0
  0
MTEXT
  5
11E
330
114
100
AcDbEntity
  8
치수문자_일반주서
100
AcDbMText
 10
-2.603689304822725
 20
-0.7561994836398495
 30
0.0
 40
3.5
 41
0.0
 71
     1
 72
     1
  1
%%c
  7
SLDTEXTSTYLE0
 11
6.123233995736766E-17
 21
1.0
 31
0.0
 73
     1
 44
1.0
  0
MTEXT
  5
11F
330
114
100
AcDbEntity
  8
치수문자_일반주서
100
AcDbMText
 10
-2.603689304822725
 20
4.522237914734231
 30
0.0
 40
3.5
 41
0.0
 71
     1
 72
     1
  1
0
  7
SLDTEXTSTYLE0
 11
6.123233995736766E-17
 21
1.0
 31
0.0
 73
     1
 44
1.0
  0
ENDBLK
  5
116
330
114
100
AcDbEntity
  8
0
100
AcDbBlockEnd
  0
BLOCK
  5
128
330
127
100
AcDbEntity
  8
0
100
AcDbBlockBegin
  2
SW_DOWELSYMBOL_0
 70
     0
 10
0.0
 20
0.0
 30
0.0
  3
SW_DOWELSYMBOL_0
  1
SW_DOWELSYMBOL_0
  0
CIRCLE
  5
12A
330
127
100
AcDbEntity
  8
해칭선
 62
     0
100
AcDbCircle
 10
0.0
 20
0.0
 30
0.0
 40
3.000000000000001
  0
HATCH
  5
12B
330
127
100
AcDbEntity
  8
0
  6
Continuous
 62
     0
370
     0
100
AcDbHatch
 10
0.0
 20
0.0
 30
0.0
210
0.0
220
0.0
230
1.0
  2
SOLID
 70
     1
 71
     0
 91
        1
 92
        0
 93
        3
 72
     2
 10
0.0
 20
0.0
 40
3.000000000000001
 50
0.0
 51
90.0
 73
     1
 72
     1
 10
0.0
 20
3.000000000000001
 11
0.0
 21
0.0
 72
     1
 10
0.0
 20
0.0
 11
3.000000000000001
 21
0.0
 97
        0
 75
     0
 76
     1
 98
        1
 10
0.0
 20
0.0
  0
HATCH
  5
12C
330
127
100
AcDbEntity
  8
0
  6
Continuous
 62
     0
370
     0
100
AcDbHatch
 10
0.0
 20
0.0
 30
0.0
210
0.0
220
0.0
230
1.0
  2
SOLID
 70
     1
 71
     0
 91
        1
 92
        0
 93
        3
 72
     2
 10
0.0
 20
0.0
 40
3.000000000000001
 50
180.0
 51
270.0000000000007
 73
     1
 72
     1
 10
0.0
 20
-3.000000000000001
 11
0.0
 21
0.0
 72
     1
 10
0.0
 20
0.0
 11
-3.000000000000001
 21
0.0
 97
        0
 75
     0
 76
     1
 98
        1
 10
0.0
 20
0.0
  0
ENDBLK
  5
129
330
127
100
AcDbEntity
  8
0
100
AcDbBlockEnd
  0
BLOCK
  5
1E5
330
1E4
100
AcDbEntity
  8
0
100
AcDbBlockBegin
  2
*D8
 70
     1
 10
0.0
 20
0.0
 30
0.0
  3
*D8
  1
*D9
  0
LINE
  5
1E6
330
1E4
100
AcDbEntity
  8
치수문자_일반주서
 62
     0
370
    -2
100
AcDbLine
 10
123.6882728378273
 20
17.01250000000002
 30
0.0
 11
141.5435400602146
 21
17.01250000000002
 31
0.0
  0
LINE
  5
1E7
330
1E4
100
AcDbEntity
  8
치수문자_일반주서
 62
     0
370
    -2
100
AcDbLine
 10
123.6882728378272
 20
7.487500000000022
 30
0.0
 11
141.5435400602146
 21
7.487500000000018
 31
0.0
  0
LINE
  5
1E8
330
1E4
100
AcDbEntity
  8
치수문자_일반주서
 62
     0
370
    -2
100
AcDbLine
 10
141.5435400602146
 20
17.01250000000002
 30
0.0
 11
141.5435400602146
 21
43.98448634215365
 31
0.0
  0
LINE
  5
1E9
330
1E4
100
AcDbEntity
  8
치수문자_일반주서
 62
     0
370
    -2
100
AcDbLine
 10
141.5435400602146
 20
13.71050000000002
 30
0.0
 11
141.5435400602146
 21
10.78950000000002
 31
0.0
  0
SOLID
  5
1EA
330
1E4
100
AcDbEntity
  8
치수문자_일반주서
 62
     0
100
AcDbTrace
 10
142.0938733935479
 20
13.71050000000002
 30
0.0
 11
140.9932067268812
 21
13.71050000000002
 31
0.0
 12
141.5435400602146
 22
17.01250000000002
 32
0.0
 13
141.5435400602146
 23
17.01250000000002
 33
0.0
  0
SOLID
  5
1EB
330
1E4
100
AcDbEntity
  8
치수문자_일반주서
 62
     0
100
AcDbTrace
 10
140.9932067268812
 20
10.78950000000002
 30
0.0
 11
142.0938733935479
 21
10.78950000000002
 31
0.0
 12
141.5435400602146
 22
7.487500000000018
 32
0.0
 13
141.5435400602146
 23
7.487500000000018
 33
0.0
  0
MTEXT
  5
1EC
330
1E4
100
AcDbEntity
  8
치수문자_일반주서
 62
     0
100
AcDbMText
 10
138.9185400602146
 20
32.17198634215365
 30
0.0
 40
3.5
 41
0.0
 71
     5
 72
     1
  1
\A1;9.53 [3/8]
  7
SLDTEXTSTYLE0
 11
0.0
 21
1.0
 31
0.0
 73
     1
 44
1.0
  0
POINT
  5
1ED
330
1E4
100
AcDbEntity
  8
Defpoints
 62
     0
100
AcDbPoint
 10
123.6257728378273
 20
17.01250000000002
 30
0.0
  0
POINT
  5
1EE
330
1E4
100
AcDbEntity
  8
Defpoints
 62
     0
100
AcDbPoint
 10
123.6257728378272
 20
7.487500000000022
 30
0.0
  0
POINT
  5
1EF
330
1E4
100
AcDbEntity
  8
Defpoints
 62
     0
100
AcDbPoint
 10
141.5435400602146
 20
7.487500000000021
 30
0.0
  0
ENDBLK
  5
1F0
330
1E4
100
AcDbEntity
  8
0
100
AcDbBlockEnd
  0
BLOCK
  5
1F6
330
1F5
100
AcDbEntity
  8
0
100
AcDbBlockBegin
  2
*D9
 70
     1
 10
0.0
 20
0.0
 30
0.0
  3
*D9
  1
*D10
  0
LINE
  5
1F8
330
1F5
100
AcDbEntity
  8
치수문자_일반주서
 62
     0
370
    -2
100
AcDbLine
 10
123.6257728378272
 20
17.07500000000002
 30
0.0
 11
123.6257728378272
 21
30.17582422810214
 31
0.0
  0
LINE
  5
1F9
330
1F5
100
AcDbEntity
  8
치수문자_일반주서
 62
     0
370
    -2
100
AcDbLine
 10
60.12577283782728
 20
17.06329875905193
 30
0.0
 11
60.12577283782728
 21
30.17582422810214
 31
0.0
  0
LINE
  5
1FA
330
1F5
100
AcDbEntity
  8
치수문자_일반주서
 62
     0
370
    -2
100
AcDbLine
 10
120.3237728378272
 20
30.17582422810214
 30
0.0
 11
63.42777283782728
 21
30.17582422810214
 31
0.0
  0
SOLID
  5
1FB
330
1F5
100
AcDbEntity
  8
치수문자_일반주서
 62
     0
100
AcDbTrace
 10
120.3237728378272
 20
29.62549089476881
 30
0.0
 11
120.3237728378272
 21
30.72615756143548
 31
0.0
 12
123.6257728378272
 22
30.17582422810214
 32
0.0
 13
123.6257728378272
 23
30.17582422810214
 33
0.0
  0
SOLID
  5
1FC
330
1F5
100
AcDbEntity
  8
치수문자_일반주서
 62
     0
100
AcDbTrace
 10
63.42777283782728
 20
30.72615756143548
 30
0.0
 11
63.42777283782728
 21
29.62549089476881
 31
0.0
 12
60.12577283782728
 22
30.17582422810214
 32
0.0
 13
60.12577283782728
 23
30.17582422810214
 33
0.0
  0
MTEXT
  5
1FD
330
1F5
100
AcDbEntity
  8
치수문자_일반주서
 62
     0
100
AcDbMText
 10
91.87577283782727
 20
34.55082422810214
 30
0.0
 40
3.5
 41
0.0
 71
     2
 72
     1
  1
\A1;63.5 [2 1/2]
  7
SLDTEXTSTYLE0
 73
     1
 44
1.0
  0
POINT
  5
1FE
330
1F5
100
AcDbEntity
  8
Defpoints
 62
     0
100
AcDbPoint
 10
123.6257728378272
 20
17.01250000000002
 30
0.0
  0
POINT
  5
1FF
330
1F5
100
AcDbEntity
  8
Defpoints
 62
     0
100
AcDbPoint
 10
60.12577283782728
 20
17.00079875905193
 30
0.0
  0
POINT
  5
200
330
1F5
100
AcDbEntity
  8
Defpoints
 62
     0
100
AcDbPoint
 10
60.12577283782728
 20
30.17582422810214
 30
0.0
  0
ENDBLK
  5
1F7
330
1F5
100
AcDbEntity
  8
0
100
AcDbBlockEnd
  0
BLOCK
  5
202
330
201
100
AcDbEntity
  8
0
100
AcDbBlockBegin
  2
*D10
 70
     1
 10
0.0
 20
0.0
 30
0.0
  3
*D10
  1
*D11
  0
LINE
  5
204
330
201
100
AcDbEntity
  8
치수문자_일반주서
 62
     0
370
    -2
100
AcDbLine
 10
123.6257728378272
 20
17.07500000000002
 30
0.0
 11
123.6257728378272
 21
45.89702942590524
 31
0.0
  0
LINE
  5
205
330
201
100
AcDbEntity
  8
치수문자_일반주서
 62
     0
370
    -2
100
AcDbLine
 10
15.67577283782725
 20
16.12250000000001
 30
0.0
 11
15.67577283782725
 21
45.89702942590524
 31
0.0
  0
LINE
  5
206
330
201
100
AcDbEntity
  8
치수문자_일반주서
 62
     0
370
    -2
100
AcDbLine
 10
120.3237728378272
 20
45.89702942590524
 30
0.0
 11
18.97777283782725
 21
45.89702942590524
 31
0.0
  0
SOLID
  5
207
330
201
100
AcDbEntity
  8
치수문자_일반주서
 62
     0
100
AcDbTrace
 10
120.3237728378272
 20
45.3466960925719
 30
0.0
 11
120.3237728378272
 21
46.44736275923857
 31
0.0
 12
123.6257728378272
 22
45.89702942590524
 32
0.0
 13
123.6257728378272
 23
45.89702942590524
 33
0.0
  0
SOLID
  5
208
330
201
100
AcDbEntity
  8
치수문자_일반주서
 62
     0
100
AcDbTrace
 10
18.97777283782725
 20
46.44736275923857
 30
0.0
 11
18.97777283782725
 21
45.3466960925719
 31
0.0
 12
15.67577283782725
 22
45.89702942590524
 32
0.0
 13
15.67577283782725
 23
45.89702942590524
 33
0.0
  0
MTEXT
  5
209
330
201
100
AcDbEntity
  8
치수문자_일반주서
 62
     0
100
AcDbMText
 10
69.65077283782725
 20
50.27202942590524
 30
0.0
 40
3.5
 41
0.0
 71
     2
 72
     1
  1
\A1;107.95 [4 1/4]
  7
SLDTEXTSTYLE0
 73
     1
 44
1.0
  0
POINT
  5
20A
330
201
100
AcDbEntity
  8
Defpoints
 62
     0
100
AcDbPoint
 10
123.6257728378272
 20
17.01250000000002
 30
0.0
  0
POINT
  5
20B
330
201
100
AcDbEntity
  8
Defpoints
 62
     0
100
AcDbPoint
 10
15.67577283782725
 20
16.06000000000001
 30
0.0
  0
POINT
  5
20C
330
201
100
AcDbEntity
  8
Defpoints
 62
     0
100
AcDbPoint
 10
15.67577283782725
 20
45.89702942590524
 30
0.0
  0
ENDBLK
  5
203
330
201
100
AcDbEntity
  8
0
100
AcDbBlockEnd
  0
BLOCK
  5
20E
330
20D
100
AcDbEntity
  8
0
100
AcDbBlockBegin
  2
*D11
 70
     1
 10
0.0
 20
0.0
 30
0.0
  3
*D11
  1
*D12
  0
LINE
  5
210
330
20D
100
AcDbEntity
  8
치수문자_일반주서
 62
     0
370
    -2
100
AcDbLine
 10
16.56577283782724
 20
17.01250000000001
 30
0.0
 11
4.375000000000027
 21
17.01249999999997
 31
0.0
  0
LINE
  5
211
330
20D
100
AcDbEntity
  8
치수문자_일반주서
 62
     0
370
    -2
100
AcDbLine
 10
16.56577283782724
 20
7.487500000000009
 30
0.0
 11
4.37500000000006
 21
7.487499999999963
 31
0.0
  0
LINE
  5
212
330
20D
100
AcDbEntity
  8
치수문자_일반주서
 62
     0
370
    -2
100
AcDbLine
 10
4.375000000000038
 20
13.71049999999997
 30
0.0
 11
4.375000000000048
 21
10.78949999999996
 31
0.0
  0
SOLID
  5
213
330
20D
100
AcDbEntity
  8
치수문자_일반주서
 62
     0
100
AcDbTrace
 10
4.925333333333372
 20
13.71049999999997
 30
0.0
 11
3.824666666666705
 21
13.71049999999997
 31
0.0
 12
4.375000000000027
 22
17.01249999999997
 32
0.0
 13
4.375000000000027
 23
17.01249999999997
 33
0.0
  0
SOLID
  5
214
330
20D
100
AcDbEntity
  8
치수문자_일반주서
 62
     0
100
AcDbTrace
 10
3.824666666666715
 20
10.78949999999996
 30
0.0
 11
4.925333333333382
 21
10.78949999999996
 31
0.0
 12
4.37500000000006
 22
7.487499999999963
 32
0.0
 13
4.37500000000006
 23
7.487499999999963
 33
0.0
  0
MTEXT
  5
215
330
20D
100
AcDbEntity
  8
치수문자_일반주서
 62
     0
100
AcDbMText
 10
0.0000000000000426
 20
12.25
 30
0.0
 40
3.5
 41
0.0
 71
     2
 72
     1
  1
\A1;%%c9.53 [3/8]
  7
SLDTEXTSTYLE0
 11
-3.450141892798385E-15
 21
1.0
 31
0.0
 73
     1
 44
1.0
  0
POINT
  5
216
330
20D
100
AcDbEntity
  8
Defpoints
 62
     0
100
AcDbPoint
 10
16.62827283782724
 20
17.01250000000001
 30
0.0
  0
POINT
  5
217
330
20D
100
AcDbEntity
  8
Defpoints
 62
     0
100
AcDbPoint
 10
16.62827283782724
 20
7.487500000000009
 30
0.0
  0
POINT
  5
218
330
20D
100
AcDbEntity
  8
Defpoints
 62
     0
100
AcDbPoint
 10
4.375000000000064
 20
7.487499999999963
 30
0.0
  0
ENDBLK
  5
20F
330
20D
100
AcDbEntity
  8
0
100
AcDbBlockEnd
  0
BLOCK
  5
259
330
258
100
AcDbEntity
  8
0
100
AcDbBlockBegin
  2
*D12
 70
     1
 10
0.0
 20
0.0
 30
0.0
  3
*D12
  1
*D13
  0
LINE
  5
25B
330
258
100
AcDbEntity
  8
치수문자_일반주서
 62
     0
370
    -2
100
AcDbLine
 10
271.3850821378942
 20
-36.83773827868022
 30
0.0
 11
271.3850821378942
 21
-23.73691405057809
 31
0.0
  0
LINE
  5
25C
330
258
100
AcDbEntity
  8
치수문자_일반주서
 62
     0
370
    -2
100
AcDbLine
 10
207.8850821378942
 20
-36.84943951962831
 30
0.0
 11
207.8850821378942
 21
-23.73691405057809
 31
0.0
  0
LINE
  5
25D
330
258
100
AcDbEntity
  8
치수문자_일반주서
 62
     0
370
    -2
100
AcDbLine
 10
268.0830821378942
 20
-23.73691405057809
 30
0.0
 11
211.1870821378942
 21
-23.73691405057809
 31
0.0
  0
SOLID
  5
25E
330
258
100
AcDbEntity
  8
치수문자_일반주서
 62
     0
100
AcDbTrace
 10
268.0830821378942
 20
-24.28724738391143
 30
0.0
 11
268.0830821378942
 21
-23.18658071724476
 31
0.0
 12
271.3850821378942
 22
-23.73691405057809
 32
0.0
 13
271.3850821378942
 23
-23.73691405057809
 33
0.0
  0
SOLID
  5
25F
330
258
100
AcDbEntity
  8
치수문자_일반주서
 62
     0
100
AcDbTrace
 10
211.1870821378942
 20
-23.18658071724476
 30
0.0
 11
211.1870821378942
 21
-24.28724738391143
 31
0.0
 12
207.8850821378942
 22
-23.73691405057809
 32
0.0
 13
207.8850821378942
 23
-23.73691405057809
 33
0.0
  0
MTEXT
  5
260
330
258
100
AcDbEntity
  8
치수문자_일반주서
 62
     0
100
AcDbMText
 10
239.6350821378942
 20
-19.36191405057809
 30
0.0
 40
3.5
 41
0.0
 71
     2
 72
     1
  1
\A1;63.5 [2 1/2]
  7
SLDTEXTSTYLE0
 73
     1
 44
1.0
  0
POINT
  5
261
330
258
100
AcDbEntity
  8
Defpoints
 62
     0
100
AcDbPoint
 10
271.3850821378942
 20
-36.90023827868022
 30
0.0
  0
POINT
  5
262
330
258
100
AcDbEntity
  8
Defpoints
 62
     0
100
AcDbPoint
 10
207.8850821378942
 20
-36.91193951962831
 30
0.0
  0
POINT
  5
263
330
258
100
AcDbEntity
  8
Defpoints
 62
     0
100
AcDbPoint
 10
207.8850821378942
 20
-23.73691405057809
 30
0.0
  0
ENDBLK
  5
25A
330
258
100
AcDbEntity
  8
0
100
AcDbBlockEnd
  0
BLOCK
  5
265
330
264
100
AcDbEntity
  8
0
100
AcDbBlockBegin
  2
*D13
 70
     1
 10
0.0
 20
0.0
 30
0.0
  3
*D13
  1
*D14
  0
LINE
  5
267
330
264
100
AcDbEntity
  8
치수문자_일반주서
 62
     0
370
    -2
100
AcDbLine
 10
271.3850821378942
 20
-36.83773827868022
 30
0.0
 11
271.3850821378942
 21
-8.015708852775
 31
0.0
  0
LINE
  5
268
330
264
100
AcDbEntity
  8
치수문자_일반주서
 62
     0
370
    -2
100
AcDbLine
 10
163.4350821378942
 20
-37.79023827868022
 30
0.0
 11
163.4350821378942
 21
-8.015708852775
 31
0.0
  0
LINE
  5
269
330
264
100
AcDbEntity
  8
치수문자_일반주서
 62
     0
370
    -2
100
AcDbLine
 10
268.0830821378942
 20
-8.015708852775
 30
0.0
 11
166.7370821378942
 21
-8.015708852775
 31
0.0
  0
SOLID
  5
26A
330
264
100
AcDbEntity
  8
치수문자_일반주서
 62
     0
100
AcDbTrace
 10
268.0830821378942
 20
-8.566042186108332
 30
0.0
 11
268.0830821378942
 21
-7.465375519441666
 31
0.0
 12
271.3850821378942
 22
-8.015708852775
 32
0.0
 13
271.3850821378942
 23
-8.015708852775
 33
0.0
  0
SOLID
  5
26B
330
264
100
AcDbEntity
  8
치수문자_일반주서
 62
     0
100
AcDbTrace
 10
166.7370821378942
 20
-7.465375519441666
 30
0.0
 11
166.7370821378942
 21
-8.566042186108332
 31
0.0
 12
163.4350821378942
 22
-8.015708852775
 32
0.0
 13
163.4350821378942
 23
-8.015708852775
 33
0.0
  0
MTEXT
  5
26C
330
264
100
AcDbEntity
  8
치수문자_일반주서
 62
     0
100
AcDbMText
 10
217.4100821378942
 20
-3.640708852774999
 30
0.0
 40
3.5
 41
0.0
 71
     2
 72
     1
  1
\A1;107.95 [4 1/4]
  7
SLDTEXTSTYLE0
 73
     1
 44
1.0
  0
POINT
  5
26D
330
264
100
AcDbEntity
  8
Defpoints
 62
     0
100
AcDbPoint
 10
271.3850821378942
 20
-36.90023827868022
 30
0.0
  0
POINT
  5
26E
330
264
100
AcDbEntity
  8
Defpoints
 62
     0
100
AcDbPoint
 10
163.4350821378942
 20
-37.85273827868022
 30
0.0
  0
POINT
  5
26F
330
264
100
AcDbEntity
  8
Defpoints
 62
     0
100
AcDbPoint
 10
163.4350821378942
 20
-8.015708852775
 30
0.0
  0
ENDBLK
  5
266
330
264
100
AcDbEntity
  8
0
100
AcDbBlockEnd
  0
BLOCK
  5
271
330
270
100
AcDbEntity
  8
0
100
AcDbBlockBegin
  2
*D14
 70
     1
 10
0.0
 20
0.0
 30
0.0
  3
*D14
  1
*D15
  0
LINE
  5
273
330
270
100
AcDbEntity
  8
치수문자_일반주서
 62
     0
370
    -2
100
AcDbLine
 10
164.3250821378942
 20
-36.90023827868022
 30
0.0
 11
152.134309300067
 21
-36.90023827868026
 31
0.0
  0
LINE
  5
274
330
270
100
AcDbEntity
  8
치수문자_일반주서
 62
     0
370
    -2
100
AcDbLine
 10
164.3250821378942
 20
-46.42523827868023
 30
0.0
 11
152.134309300067
 21
-46.42523827868027
 31
0.0
  0
LINE
  5
275
330
270
100
AcDbEntity
  8
치수문자_일반주서
 62
     0
370
    -2
100
AcDbLine
 10
152.134309300067
 20
-40.20223827868026
 30
0.0
 11
152.134309300067
 21
-43.12323827868027
 31
0.0
  0
SOLID
  5
276
330
270
100
AcDbEntity
  8
치수문자_일반주서
 62
     0
100
AcDbTrace
 10
152.6846426334003
 20
-40.20223827868026
 30
0.0
 11
151.5839759667337
 21
-40.20223827868026
 31
0.0
 12
152.134309300067
 22
-36.90023827868026
 32
0.0
 13
152.134309300067
 23
-36.90023827868026
 33
0.0
  0
SOLID
  5
277
330
270
100
AcDbEntity
  8
치수문자_일반주서
 62
     0
100
AcDbTrace
 10
151.5839759667337
 20
-43.12323827868027
 30
0.0
 11
152.6846426334004
 21
-43.12323827868027
 31
0.0
 12
152.134309300067
 22
-46.42523827868027
 32
0.0
 13
152.134309300067
 23
-46.42523827868027
 33
0.0
  0
MTEXT
  5
278
330
270
100
AcDbEntity
  8
치수문자_일반주서
 62
     0
100
AcDbMText
 10
147.759309300067
 20
-41.66273827868024
 30
0.0
 40
3.5
 41
0.0
 71
     2
 72
     1
  1
\A1;%%c9.53 [3/8]
  7
SLDTEXTSTYLE0
 11
-2.983906501879684E-15
 21
1.0
 31
0.0
 73
     1
 44
1.0
  0
POINT
  5
279
330
270
100
AcDbEntity
  8
Defpoints
 62
     0
100
AcDbPoint
 10
164.3875821378942
 20
-36.90023827868022
 30
0.0
  0
POINT
  5
27A
330
270
100
AcDbEntity
  8
Defpoints
 62
     0
100
AcDbPoint
 10
164.3875821378942
 20
-46.42523827868023
 30
0.0
  0
POINT
  5
27B
330
270
100
AcDbEntity
  8
Defpoints
 62
     0
100
AcDbPoint
 10
152.134309300067
 20
-46.42523827868027
 30
0.0
  0
ENDBLK
  5
272
330
270
100
AcDbEntity
  8
0
100
AcDbBlockEnd
  0
BLOCK
  5
27D
330
27C
100
AcDbEntity
  8
0
100
AcDbBlockBegin
  2
*D15
 70
     1
 10
0.0
 20
0.0
 30
0.0
  3
*D15
  1
*D16
  0
LINE
  5
27F
330
27C
100
AcDbEntity
  8
치수문자_일반주서
 62
     0
370
    -2
100
AcDbLine
 10
271.4475821378942
 20
-36.90023827868022
 30
0.0
 11
289.3028493602815
 21
-36.90023827868022
 31
0.0
  0
LINE
  5
280
330
27C
100
AcDbEntity
  8
치수문자_일반주서
 62
     0
370
    -2
100
AcDbLine
 10
271.4475821378942
 20
-46.42523827868021
 30
0.0
 11
289.3028493602815
 21
-46.42523827868021
 31
0.0
  0
LINE
  5
281
330
27C
100
AcDbEntity
  8
치수문자_일반주서
 62
     0
370
    -2
100
AcDbLine
 10
289.3028493602815
 20
-36.90023827868022
 30
0.0
 11
289.3028493602815
 21
-9.928251936526586
 31
0.0
  0
LINE
  5
282
330
27C
100
AcDbEntity
  8
치수문자_일반주서
 62
     0
370
    -2
100
AcDbLine
 10
289.3028493602815
 20
-40.20223827868022
 30
0.0
 11
289.3028493602815
 21
-43.12323827868021
 31
0.0
  0
SOLID
  5
283
330
27C
100
AcDbEntity
  8
치수문자_일반주서
 62
     0
100
AcDbTrace
 10
289.8531826936148
 20
-40.20223827868022
 30
0.0
 11
288.7525160269481
 21
-40.20223827868022
 31
0.0
 12
289.3028493602815
 22
-36.90023827868022
 32
0.0
 13
289.3028493602815
 23
-36.90023827868022
 33
0.0
  0
SOLID
  5
284
330
27C
100
AcDbEntity
  8
치수문자_일반주서
 62
     0
100
AcDbTrace
 10
288.7525160269481
 20
-43.12323827868021
 30
0.0
 11
289.8531826936148
 21
-43.12323827868021
 31
0.0
 12
289.3028493602815
 22
-46.42523827868021
 32
0.0
 13
289.3028493602815
 23
-46.42523827868021
 33
0.0
  0
MTEXT
  5
285
330
27C
100
AcDbEntity
  8
치수문자_일반주서
 62
     0
100
AcDbMText
 10
286.6778493602815
 20
-21.74075193652659
 30
0.0
 40
3.5
 41
0.0
 71
     5
 72
     1
  1
\A1;9.53 [3/8]
  7
SLDTEXTSTYLE0
 11
0.0
 21
1.0
 31
0.0
 73
     1
 44
1.0
  0
POINT
  5
286
330
27C
100
AcDbEntity
  8
Defpoints
 62
     0
100
AcDbPoint
 10
271.3850821378942
 20
-36.90023827868022
 30
0.0
  0
POINT
  5
287
330
27C
100
AcDbEntity
  8
Defpoints
 62
     0
100
AcDbPoint
 10
271.3850821378942
 20
-46.42523827868021
 30
0.0
  0
POINT
  5
288
330
27C
100
AcDbEntity
  8
Defpoints
 62
     0
100
AcDbPoint
 10
289.3028493602815
 20
-46.42523827868021
 30
0.0
  0
ENDBLK
  5
27E
330
27C
100
AcDbEntity
  8
0
100
AcDbBlockEnd
  0
BLOCK
  5
28F
330
28E
100
AcDbEntity
  8
0
100
AcDbBlockBegin
  2
*D16
 70
     1
 10
0.0
 20
0.0
 30
0.0
  3
*D16
  1
*D17
  0
LINE
  5
291
330
28E
100
AcDbEntity
  8
치수문자_일반주서
 62
     0
370
    -2
100
AcDbLine
 10
86.26249999999999
 20
6.351074928723905
 30
0.0
 11
113.9307067734898
 21
6.351074928723904
 31
0.0
  0
LINE
  5
292
330
28E
100
AcDbEntity
  8
치수문자_일반주서
 62
     0
370
    -2
100
AcDbLine
 10
86.26249999999999
 20
-6.348925071276095
 30
0.0
 11
113.9307067734898
 21
-6.348925071276096
 31
0.0
  0
LINE
  5
293
330
28E
100
AcDbEntity
  8
치수문자_일반주서
 62
     0
370
    -2
100
AcDbLine
 10
113.9307067734898
 20
6.351074928723904
 30
0.0
 11
113.9307067734898
 21
41.82951828491147
 31
0.0
  0
LINE
  5
294
330
28E
100
AcDbEntity
  8
치수문자_일반주서
 62
     0
370
    -2
100
AcDbLine
 10
113.9307067734898
 20
3.049074928723904
 30
0.0
 11
113.9307067734898
 21
-3.046925071276096
 31
0.0
  0
SOLID
  5
295
330
28E
100
AcDbEntity
  8
치수문자_일반주서
 62
     0
100
AcDbTrace
 10
114.4810401068231
 20
3.049074928723904
 30
0.0
 11
113.3803734401565
 21
3.049074928723904
 31
0.0
 12
113.9307067734898
 22
6.351074928723904
 32
0.0
 13
113.9307067734898
 23
6.351074928723904
 33
0.0
  0
SOLID
  5
296
330
28E
100
AcDbEntity
  8
치수문자_일반주서
 62
     0
100
AcDbTrace
 10
113.3803734401565
 20
-3.046925071276096
 30
0.0
 11
114.4810401068231
 21
-3.046925071276096
 31
0.0
 12
113.9307067734898
 22
-6.348925071276096
 32
0.0
 13
113.9307067734898
 23
-6.348925071276096
 33
0.0
  0
MTEXT
  5
297
330
28E
100
AcDbEntity
  8
치수문자_일반주서
 62
     0
100
AcDbMText
 10
111.3057067734898
 20
30.89201828491147
 30
0.0
 40
3.5
 41
0.0
 71
     5
 72
     1
  1
\A1;12.7 [1/2]
  7
SLDTEXTSTYLE0
 11
0.0
 21
1.0
 31
0.0
 73
     1
 44
1.0
  0
POINT
  5
298
330
28E
100
AcDbEntity
  8
Defpoints
 62
     0
100
AcDbPoint
 10
86.19999999999999
 20
6.351074928723905
 30
0.0
  0
POINT
  5
299
330
28E
100
AcDbEntity
  8
Defpoints
 62
     0
100
AcDbPoint
 10
86.19999999999999
 20
-6.348925071276095
 30
0.0
  0
POINT
  5
29A
330
28E
100
AcDbEntity
  8
Defpoints
 62
     0
100
AcDbPoint
 10
113.9307067734898
 20
-6.348925071276097
 30
0.0
  0
ENDBLK
  5
290
330
28E
100
AcDbEntity
  8
0
100
AcDbBlockEnd
  0
ENDSEC
  0
SECTION
  2
ENTITIES
  0
LINE
  5
96
330
1F
100
AcDbEntity
  8
외형선
  6
Continuous
370
    15
100
AcDbLine
 10
-39.53000000000002
 20
-6.348925071276106
 30
0.0
 11
9.500144324175958
 21
-6.348925071276106
 31
0.0
  0
LINE
  5
97
330
1F
100
AcDbEntity
  8
외형선
  6
Continuous
370
    15
100
AcDbLine
 10
9.500144324175958
 20
6.351074928723893
 30
0.0
 11
-11.06612499999999
 21
6.351074928723893
 31
0.0
  0
LINE
  5
98
330
1F
100
AcDbEntity
  8
외형선
  6
Continuous
370
    15
100
AcDbLine
 10
-39.53000000000002
 20
6.351074928723893
 30
0.0
 11
-40.8
 21
5.081074928723896
 31
0.0
  0
LINE
  5
99
330
1F
100
AcDbEntity
  8
외형선
  6
Continuous
370
    15
100
AcDbLine
 10
-40.8
 20
-5.078925071276109
 30
0.0
 11
-39.53000000000002
 21
-6.348925071276106
 31
0.0
  0
LINE
  5
9A
330
1F
100
AcDbEntity
  8
0
  6
Continuous
 62
     1
370
    15
100
AcDbLine
 10
35.31442436298413
 20
-6.348925071276112
 30
0.0
 11
39.18717434936371
 21
-6.348925071276112
 31
0.0
  0
LINE
  5
9B
330
1F
100
AcDbEntity
  8
0
  6
Continuous
 62
     1
370
    15
100
AcDbLine
 10
73.73813652849182
 20
6.351074928723898
 30
0.0
 11
69.86689223122741
 21
6.351074928723898
 31
0.0
  0
LINE
  5
9C
330
1F
100
AcDbEntity
  8
0
  6
Continuous
 62
     1
370
    15
100
AcDbLine
 10
69.86689223122738
 20
-6.348925071276112
 30
0.0
 11
73.7381365284919
 21
-6.348925071276112
 31
0.0
  0
LINE
  5
9D
330
1F
100
AcDbEntity
  8
0
  6
Continuous
 62
     1
370
    15
100
AcDbLine
 10
39.18717434936374
 20
6.351074928723898
 30
0.0
 11
35.31442436298401
 21
6.351074928723898
 31
0.0
  0
LINE
  5
9E
330
1F
100
AcDbEntity
  8
0
  6
Continuous
 62
     1
370
    15
100
AcDbLine
 10
52.58928937439361
 20
-6.348925071276112
 30
0.0
 11
56.46182091843655
 21
-6.348925071276112
 31
0.0
  0
LINE
  5
9F
330
1F
100
AcDbEntity
  8
0
  6
Continuous
 62
     1
370
    15
100
AcDbLine
 10
21.90898696707052
 20
6.351074928723898
 30
0.0
 11
18.0377807157373
 21
6.351074928723898
 31
0.0
  0
LINE
  5
A0
330
1F
100
AcDbEntity
  8
0
  6
Continuous
 62
     1
370
    15
100
AcDbLine
 10
18.03778071573731
 20
-6.348925071276112
 30
0.0
 11
21.90898696707055
 21
-6.348925071276112
 31
0.0
  0
LINE
  5
A1
330
1F
100
AcDbEntity
  8
0
  6
Continuous
 62
     1
370
    15
100
AcDbLine
 10
56.46182091843654
 20
6.351074928723898
 30
0.0
 11
52.58928937439357
 21
6.351074928723898
 31
0.0
  0
LINE
  5
A2
330
1F
100
AcDbEntity
  8
외형선
  6
Continuous
370
    15
100
AcDbLine
 10
9.500144324175965
 20
-2.717773820949244
 30
0.0
 11
9.500144324175958
 21
4.450277097604868
 31
0.0
  0
SPLINE
  5
A3
330
1F
100
AcDbEntity
  8
외형선
  6
Continuous
370
    15
100
AcDbSpline
210
0.0
220
0.0
230
1.0
 70
     8
 71
     3
 72
     8
 73
     4
 74
     0
 42
0.000000001
 43
0.00000001
 40
0.0
 40
0.0
 40
0.0
 40
0.0
 40
1.0
 40
1.0
 40
1.0
 40
1.0
 10
9.999999999999988
 20
-2.975732442887968
 30
0.0
 10
9.833795272720844
 20
-2.890797818422806
 30
0.0
 10
9.66709107318072
 20
-2.804753813724399
 30
0.0
 10
9.500144324175944
 20
-2.717729242048803
 30
0.0
  0
LINE
  5
A4
330
1F
100
AcDbEntity
  8
외형선
  6
Continuous
370
    15
100
AcDbLine
 10
10.0
 20
-4.72717370672986
 30
0.0
 11
9.999999999999988
 21
-2.975732442887969
 31
0.0
  0
SPLINE
  5
A5
330
1F
100
AcDbEntity
  8
외형선
  6
Continuous
370
    15
100
AcDbSpline
210
0.0
220
0.0
230
1.0
 70
     8
 71
     3
 72
     8
 73
     4
 74
     0
 42
0.000000001
 43
0.00000001
 40
0.0
 40
0.0
 40
0.0
 40
0.0
 40
1.0
 40
1.0
 40
1.0
 40
1.0
 10
9.999999999999995
 20
-4.727173706742925
 30
0.0
 10
9.833795272720858
 20
-4.662989912639911
 30
0.0
 10
9.667091073180734
 20
-4.597114797719806
 30
0.0
 10
9.50014432417595
 20
-4.529643227061304
 30
0.0
  0
LINE
  5
A6
330
1F
100
AcDbEntity
  8
외형선
  6
Continuous
370
    15
100
AcDbLine
 10
9.500144324175958
 20
-6.348925071276106
 30
0.0
 11
9.500144324175958
 21
-4.529609352974099
 31
0.0
  0
SPLINE
  5
A7
330
1F
100
AcDbEntity
  8
외형선
  6
Continuous
370
    15
100
AcDbSpline
210
0.0
220
0.0
230
1.0
 70
     8
 71
     3
 72
     8
 73
     4
 74
     0
 42
0.000000001
 43
0.00000001
 40
0.0
 40
0.0
 40
0.0
 40
0.0
 40
1.0
 40
1.0
 40
1.0
 40
1.0
 10
9.999999999999988
 20
-5.607946186614947
 30
0.0
 10
9.833795272720844
 20
-5.65302250403539
 30
0.0
 10
9.66709107318072
 20
-5.696213751780604
 30
0.0
 10
9.500144324175944
 20
-5.737444382125266
 30
0.0
  0
LINE
  5
A8
330
1F
100
AcDbEntity
  8
외형선
  6
Continuous
370
    15
100
AcDbLine
 10
9.500144324175965
 20
5.73957311870361
 30
0.0
 11
9.500144324175958
 21
6.351074928723893
 31
0.0
  0
SPLINE
  5
A9
330
1F
100
AcDbEntity
  8
외형선
  6
Continuous
370
    15
100
AcDbSpline
210
0.0
220
0.0
230
1.0
 70
     8
 71
     3
 72
     8
 73
     4
 74
     0
 42
0.000000001
 43
0.00000001
 40
0.0
 40
0.0
 40
0.0
 40
0.0
 40
1.0
 40
1.0
 40
1.0
 40
1.0
 10
9.999999999999988
 20
5.610096044062733
 30
0.0
 10
9.833795272720844
 20
5.655172361483177
 30
0.0
 10
9.66709107318072
 20
5.698363609228391
 30
0.0
 10
9.500144324175944
 20
5.739594239573052
 30
0.0
  0
LINE
  5
AA
330
1F
100
AcDbEntity
  8
외형선
  6
Continuous
370
    15
100
AcDbLine
 10
10.0
 20
4.23972622850739
 30
0.0
 11
9.999999999999988
 21
5.610096044062733
 31
0.0
  0
SPLINE
  5
AB
330
1F
100
AcDbEntity
  8
외형선
  6
Continuous
370
    15
100
AcDbSpline
210
0.0
220
0.0
230
1.0
 70
     8
 71
     3
 72
     8
 73
     4
 74
     0
 42
0.000000001
 43
0.00000001
 40
0.0
 40
0.0
 40
0.0
 40
0.0
 40
1.0
 40
1.0
 40
1.0
 40
1.0
 10
9.999999999999995
 20
4.239726228513321
 30
0.0
 10
9.833795272720858
 20
4.311323752211893
 30
0.0
 10
9.667091073180734
 20
4.381534320224056
 30
0.0
 10
9.50014432417595
 20
4.450242602889343
 30
0.0
  0
LINE
  5
AC
330
1F
100
AcDbEntity
  8
외형선
  6
Continuous
370
    15
100
AcDbLine
 10
-39.53000000000002
 20
0.0010749287238931
 30
0.0
 11
-39.53000000000002
 21
6.351074928723893
 31
0.0
  0
LINE
  5
AD
330
1F
100
AcDbEntity
  8
외형선
  6
Continuous
370
    15
100
AcDbLine
 10
-39.53000000000002
 20
-6.348925071276106
 30
0.0
 11
-39.53000000000002
 21
0.0010749287238931
 31
0.0
  0
LINE
  5
AE
330
1F
100
AcDbEntity
  8
외형선
  6
Continuous
370
    15
100
AcDbLine
 10
-40.8
 20
0.0010749287238931
 30
0.0
 11
-40.8
 21
5.081074928723896
 31
0.0
  0
LINE
  5
AF
330
1F
100
AcDbEntity
  8
외형선
  6
Continuous
370
    15
100
AcDbLine
 10
-40.8
 20
-5.078925071276109
 30
0.0
 11
-40.8
 21
0.0010749287238931
 31
0.0
  0
SPLINE
  5
B0
330
1F
100
AcDbEntity
  8
외형선
  6
Continuous
370
    15
100
AcDbSpline
210
0.0
220
0.0
230
1.0
 70
    24
 71
     3
 72
    22
 73
    18
 74
     0
 42
0.000000001
 43
0.00000001
 40
0.0
 40
0.0
 40
0.0
 40
0.0
 40
0.125
 40
0.125
 40
0.2500000000000001
 40
0.2500000000000001
 40
0.3750000000000001
 40
0.3750000000000001
 40
0.5000000000000001
 40
0.5000000000000001
 40
0.6250000000000001
 40
0.6250000000000001
 40
0.7500000000000002
 40
0.7500000000000002
 40
0.8750000000000002
 40
0.8750000000000002
 40
1.0
 40
1.0
 40
1.0
 40
1.0
 10
10.00000000000001
 20
-2.975732442887977
 30
0.0
 10
10.00000000000003
 20
-2.895991889300047
 30
0.0
 10
10.00000000000002
 20
-2.734161490653836
 30
0.0
 10
10.00000000000001
 20
-2.227090597747441
 30
0.0
 10
10.00000000000002
 20
-1.881384136237318
 30
0.0
 10
10.00000000000005
 20
-1.066982846684952
 30
0.0
 10
10.00000000000001
 20
-0.600673026094667
 30
0.0
 10
10.0
 20
0.3388170120038902
 30
0.0
 10
10.00000000000001
 20
0.8097940483133222
 30
0.0
 10
9.999999999999995
 20
1.669507573879947
 30
0.0
 10
10.00000000000001
 20
2.058326759524281
 30
0.0
 10
10.00000000000002
 20
2.727281759940208
 30
0.0
 10
10.00000000000001
 20
3.008419531708252
 30
0.0
 10
10.00000000000002
 20
3.475620807462609
 30
0.0
 10
10.00000000000001
 20
3.662365722237618
 30
0.0
 10
10.0
 20
3.965659231188278
 30
0.0
 10
10.0
 20
4.112939260217711
 30
0.0
 10
10.00000000000001
 20
4.239726228507376
 30
0.0
  0
SPLINE
  5
B1
330
1F
100
AcDbEntity
  8
외형선
  6
Continuous
370
    15
100
AcDbSpline
210
0.0
220
0.0
230
1.0
 70
    24
 71
     3
 72
    10
 73
     6
 74
     0
 42
0.000000001
 43
0.00000001
 40
0.0
 40
0.0
 40
0.0
 40
0.0
 40
0.3526878765656045
 40
0.7075052121583796
 40
1.0
 40
1.0
 40
1.0
 40
1.0
 10
9.999999999999995
 20
-5.607946186614948
 30
0.0
 10
9.999999999999995
 20
-5.51197299772609
 30
0.0
 10
9.99999999999998
 20
-5.319447152983321
 30
0.0
 10
9.999999999999988
 20
-5.051000577377912
 30
0.0
 10
9.999999999999995
 20
-4.888259242846097
 30
0.0
 10
9.99999999999998
 20
-4.814722860019844
 30
0.0
  0
SPLINE
  5
B2
330
1F
100
AcDbEntity
  8
0
  6
Continuous
 62
     1
370
    15
100
AcDbSpline
210
0.0
220
0.0
230
1.0
 70
     8
 71
     3
 72
    27
 73
    23
 74
     0
 42
0.000000001
 43
0.00000001
 40
0.0
 40
0.0
 40
0.0
 40
0.0
 40
0.0508084640545364
 40
0.1073769952187384
 40
0.1639457925434653
 40
0.2160108619440518
 40
0.2680706281160318
 40
0.3201249065592195
 40
0.372174637661493
 40
0.4242207661563329
 40
0.4753336988288488
 40
0.5264443501249564
 40
0.5775545629058537
 40
0.6286661806847236
 40
0.6807106212452622
 40
0.7327581027755138
 40
0.7848095721615206
 40
0.8368659724747054
 40
0.8889282420777905
 40
0.940066764750911
 40
0.9911962325079727
 40
1.0
 40
1.0
 40
1.0
 40
1.0
 10
21.90898696707052
 20
6.338030298324592
 30
0.0
 10
22.60783439090272
 20
6.321068467827092
 30
0.0
 10
24.08475635427699
 20
6.285221873640025
 30
0.0
 10
26.33975638717504
 20
5.882510014583638
 30
0.0
 10
28.61204157777927
 20
5.244984432657694
 30
0.0
 10
30.82231862045403
 20
4.405505767896908
 30
0.0
 10
32.97044361480816
 20
3.423708920540086
 30
0.0
 10
35.11831481108354
 20
2.311422588910836
 30
0.0
 10
37.26595508993432
 20
1.111475232136429
 30
0.0
 10
39.40063970503035
 20
-0.1232644112300758
 30
0.0
 10
41.52231064476997
 20
-1.345674848902565
 30
0.0
 10
43.63110658612598
 20
-2.511331407943024
 30
0.0
 10
45.73988129986029
 20
-3.584875875445165
 30
0.0
 10
47.86149254481529
 20
-4.532673252239234
 30
0.0
 10
49.99609194567724
 20
-5.31665405958536
 30
0.0
 10
52.14362058689592
 20
-5.903160428199186
 30
0.0
 10
54.29135302557705
 20
-6.265607905354187
 30
0.0
 10
56.43932602858484
 20
-6.38861808177674
 30
0.0
 10
58.57479787548357
 20
-6.274075946435211
 30
0.0
 10
60.69754905140427
 20
-5.909637648980731
 30
0.0
 10
62.22523243393299
 20
-5.536178012937321
 30
0.0
 10
63.04952791142804
 20
-5.235225936901561
 30
0.0
 10
63.17061107502558
 20
-5.19101820987581
 30
0.0
  0
SPLINE
  5
B3
330
1F
100
AcDbEntity
  8
0
  6
Continuous
 62
     1
370
    15
100
AcDbSpline
210
0.0
220
0.0
230
1.0
 70
     8
 71
     3
 72
    28
 73
    24
 74
     0
 42
0.000000001
 43
0.00000001
 40
0.0
 40
0.0
 40
0.0
 40
0.0
 40
0.0177509456405262
 40
0.0688700123274673
 40
0.1209222835547942
 40
0.1729779758025368
 40
0.2250380346591304
 40
0.2771034015387557
 40
0.3291747099950332
 40
0.3803169093057087
 40
0.4314503765792375
 40
0.4825769308746208
 40
0.5336984014886604
 40
0.5857474771650826
 40
0.6377954133271089
 40
0.6898431629947378
 40
0.7418916793669299
 40
0.7939419149069904
 40
0.8450656400631853
 40
0.8961953437101274
 40
0.9473328504779048
 40
0.9984788536364302
 40
0.9999999999999999
 40
0.9999999999999999
 40
0.9999999999999999
 40
0.9999999999999999
 10
69.86689223122738
 20
-6.322486314404777
 30
0.0
 10
69.62279564238332
 20
-6.329650265670193
 30
0.0
 10
68.67575116243165
 20
-6.357444920780631
 30
0.0
 10
67.01292560994662
 20
-6.164561673885313
 30
0.0
 10
64.87827049399695
 20
-5.745719575243376
 30
0.0
 10
62.73066850291695
 20
-5.08969849374552
 30
0.0
 10
60.58284305308469
 20
-4.24450939049493
 30
0.0
 10
58.43476681385661
 20
-3.236734615414918
 30
0.0
 10
56.29923882337578
 20
-2.112920803888561
 30
0.0
 10
54.17656849536264
 20
-0.9173770269328317
 30
0.0
 10
52.06697667640873
 20
0.3046773909646911
 30
0.0
 10
49.95771793288389
 20
1.51552409804618
 30
0.0
 10
47.83593258578897
 20
2.677815447380138
 30
0.0
 10
45.70142274096852
 20
3.747099795485619
 30
0.0
 10
43.554204147069
 20
4.680409167797889
 30
0.0
 10
41.40698833703017
 20
5.435922077955785
 30
0.0
 10
39.25974065964765
 20
5.984772890844094
 30
0.0
 10
37.12516781498753
 20
6.30477536338567
 30
0.0
 10
35.00327273017111
 20
6.386487371516433
 30
0.0
 10
32.89385802491496
 20
6.239921060811229
 30
0.0
 10
30.78408296554218
 20
5.840854591577965
 30
0.0
 10
29.35646963733993
 20
5.485830496097354
 30
0.0
 10
28.63214979805473
 20
5.212899948013391
 30
0.0
 10
28.61122980334098
 20
5.205017096663122
 30
0.0
  0
LINE
  5
B4
330
1F
100
AcDbEntity
  8
0
  6
Continuous
 62
     1
370
    15
100
AcDbLine
 10
86.19999999999999
 20
-5.750001639050095
 30
0.0
 11
86.19999999999999
 21
0.5451514964979562
 31
0.0
  0
SPLINE
  5
B5
330
1F
100
AcDbEntity
  8
0
  6
Continuous
 62
     1
370
    15
100
AcDbSpline
210
0.0
220
0.0
230
1.0
 70
     8
 71
     3
 72
    15
 73
    11
 74
     0
 42
0.000000001
 43
0.00000001
 40
0.0
 40
0.0
 40
0.0
 40
0.0
 40
0.1254231655268179
 40
0.250845804315298
 40
0.3762679003052044
 40
0.5016894374567201
 40
0.6271103997510313
 40
0.7525307715149498
 40
0.8779511706216994
 40
1.0
 40
1.0
 40
1.0
 40
1.0
 10
9.99999999999998
 20
-2.975732442887961
 30
0.0
 10
10.77809529184714
 20
-3.359601140492181
 30
0.0
 10
12.3342826077829
 20
-4.127336923571321
 30
0.0
 10
14.6685561114433
 20
-5.057848499914336
 30
0.0
 10
17.00281764394961
 20
-5.771009055934581
 30
0.0
 10
19.33706661937498
 20
-6.22221563524022
 30
0.0
 10
21.67130293504253
 20
-6.396116066574542
 30
0.0
 10
24.00552938536526
 20
-6.277925093996019
 30
0.0
 10
26.31883605290288
 20
-5.899402972002115
 30
0.0
 10
27.85407066656464
 20
-5.432927364824195
 30
0.0
 10
28.61122980334106
 20
-5.202867239215341
 30
0.0
  0
SPLINE
  5
B6
330
1F
100
AcDbEntity
  8
0
  6
Continuous
 62
     1
370
    15
100
AcDbSpline
210
0.0
220
0.0
230
1.0
 70
     8
 71
     3
 72
    21
 73
    17
 74
     0
 42
0.000000001
 43
0.00000001
 40
0.0
 40
0.0
 40
0.0
 40
0.0
 40
0.0714763449058902
 40
0.1424298063268299
 40
0.213370704271086
 40
0.2843011990278114
 40
0.3552238242148876
 40
0.4274323268726267
 40
0.4996387195581863
 40
0.5718443239376243
 40
0.6440504624334201
 40
0.716258456955521
 40
0.7871800944289272
 40
0.8581092094565086
 40
0.9290483377006618
 40
1.0
 40
1.0
 40
1.0
 40
1.0
 10
56.46182091843655
 20
6.349820262331844
 30
0.0
 10
57.17038069941759
 20
6.327475501147575
 30
0.0
 10
58.58231680931502
 20
6.282949441342961
 30
0.0
 10
60.69755291295932
 20
5.919498318568516
 30
0.0
 10
62.80726573547796
 20
5.357194598760597
 30
0.0
 10
64.91662566220026
 20
4.593885396504505
 30
0.0
 10
67.03848059849904
 20
3.657805489044909
 30
0.0
 10
69.17302990083758
 20
2.578635101102333
 30
0.0
 10
71.3202656322604
 20
1.39514459983001
 30
0.0
 10
73.46747948738826
 20
0.1586778262811222
 30
0.0
 10
75.61470604283733
 20
-1.0838560064791
 30
0.0
 10
77.74923541676253
 20
-2.277723317779622
 30
0.0
 10
79.87105582186194
 20
-3.380499235440784
 30
0.0
 10
81.98036603815288
 20
-4.348621220148338
 30
0.0
 10
84.0900213919142
 20
-5.17243632795009
 30
0.0
 10
85.49663237920737
 20
-5.557468531290619
 30
0.0
 10
86.20000000000002
 20
-5.750001639050095
 30
0.0
  0
SPLINE
  5
B7
330
1F
100
AcDbEntity
  8
외형선
  6
Continuous
370
    15
100
AcDbSpline
210
0.0
220
0.0
230
1.0
 70
    24
 71
     3
 72
    22
 73
    18
 74
     0
 42
0.000000001
 43
0.00000001
 40
0.0
 40
0.0
 40
0.0
 40
0.0
 40
0.125
 40
0.125
 40
0.2500000000000001
 40
0.2500000000000001
 40
0.3750000000000001
 40
0.3750000000000001
 40
0.5
 40
0.5
 40
0.625
 40
0.625
 40
0.75
 40
0.75
 40
0.875
 40
0.875
 40
1.0
 40
1.0
 40
1.0
 40
1.0
 10
9.999999999999995
 20
4.239726228513314
 30
0.0
 10
10.0
 20
4.112939260224072
 30
0.0
 10
10.0
 20
3.965659231193831
 30
0.0
 10
10.0
 20
3.662365722244491
 30
0.0
 10
10.0
 20
3.475620807470174
 30
0.0
 10
9.999999999999995
 20
3.008419531717089
 30
0.0
 10
10.0
 20
2.727281759949629
 30
0.0
 10
10.00000000000001
 20
2.058326759534435
 30
0.0
 10
9.99999999999998
 20
1.66950757389024
 30
0.0
 10
10.0
 20
0.8097940483231479
 30
0.0
 10
10.0
 20
0.3388170120130871
 30
0.0
 10
10.0
 20
-0.6006730260873796
 30
0.0
 10
9.999999999999988
 20
-1.066982846678939
 30
0.0
 10
9.99999999999998
 20
-1.8813841362338
 30
0.0
 10
10.00000000000001
 20
-2.227090597745113
 30
0.0
 10
10.0
 20
-2.734161490653188
 30
0.0
 10
10.0
 20
-2.895991889299886
 30
0.0
 10
10.0
 20
-2.97573244288797
 30
0.0
  0
SPLINE
  5
B8
330
1F
100
AcDbEntity
  8
0
  6
Continuous
 62
     1
370
    15
100
AcDbSpline
210
0.0
220
0.0
230
1.0
 70
     8
 71
     3
 72
    18
 73
    14
 74
     0
 42
0.000000001
 43
0.00000001
 40
0.0
 40
0.0
 40
0.0
 40
0.0
 40
0.0932795270501211
 40
0.1865482163121946
 40
0.2798077471989651
 40
0.3730598078655781
 40
0.4663060936107523
 40
0.5578808552655258
 40
0.6494525902968127
 40
0.7410246013760728
 40
0.8326001907643302
 40
0.9258475390743414
 40
1.0
 40
1.0
 40
1.0
 40
1.0
 10
86.20000000000002
 20
0.5451514964979555
 30
0.0
 10
85.48389138912182
 20
0.9549741775700668
 30
0.0
 10
84.05175736925966
 20
1.774571923999512
 30
0.0
 10
81.90373386491831
 20
2.931059112691117
 30
0.0
 10
79.75595767867273
 20
3.97760566581226
 30
0.0
 10
77.60839478554908
 20
4.872593631769353
 30
0.0
 10
75.47376960624607
 20
5.578251750911423
 30
0.0
 10
73.35214119156018
 20
6.072056396442299
 30
0.0
 10
71.24336179386427
 20
6.33989474975893
 30
0.0
 10
69.13457519377314
 20
6.376924887114574
 30
0.0
 10
67.01292503210192
 20
6.173066744978329
 30
0.0
 10
65.024901651292
 20
5.787765001585686
 30
0.0
 10
63.73984691540742
 20
5.375699268147907
 30
0.0
 10
63.17061107502565
 20
5.193168067323595
 30
0.0
  0
SPLINE
  5
B9
330
1F
100
AcDbEntity
  8
0
  6
Continuous
 62
     1
370
    15
100
AcDbSpline
210
0.0
220
0.0
230
1.0
 70
     8
 71
     3
 72
    19
 73
    15
 74
     0
 42
0.000000001
 43
0.00000001
 40
0.0
 40
0.0
 40
0.0
 40
0.0
 40
0.0122896862625636
 40
0.0956219235894884
 40
0.1789668786024343
 40
0.2623256812068924
 40
0.3545345808450695
 40
0.4467430466333098
 40
0.5389514923192342
 40
0.6311603721602242
 40
0.7233696746334267
 40
0.8155793879618899
 40
0.9077895003532169
 40
1.0
 40
1.0
 40
1.0
 40
1.0
 10
35.31442436298413
 20
-6.334270812899426
 30
0.0
 10
35.2107307480978
 20
-6.338964502636083
 30
0.0
 10
34.40392553700109
 20
-6.375484526968886
 30
0.0
 10
32.89385648635668
 20
-6.219916587253357
 30
0.0
 10
30.78408270727972
 20
-5.857223664160517
 30
0.0
 10
28.59930783648414
 20
-5.236514160970231
 30
0.0
 10
26.33975683525238
 20
-4.382837811087702
 30
0.0
 10
24.0055291681287
 20
-3.302462674911306
 30
0.0
 10
21.67130299325109
 20
-2.074235378753748
 30
0.0
 10
19.3370666037783
 20
-0.7530105899280148
 30
0.0
 10
17.00281764812729
 20
0.6030049813989652
 30
0.0
 10
14.66855611032925
 20
1.928359375907186
 30
0.0
 10
12.33428260806139
 20
3.180878837003843
 30
0.0
 10
10.77809529193997
 20
3.886776603917234
 30
0.0
 10
9.99999999999998
 20
4.239726228513324
 30
0.0
  0
SPLINE
  5
BA
330
1F
100
AcDbEntity
  8
0
  6
Continuous
 62
     1
370
    15
100
AcDbSpline
210
0.0
220
0.0
230
1.0
 70
     8
 71
     3
 72
    24
 73
    20
 74
     0
 42
0.000000001
 43
0.00000001
 40
0.0
 40
0.0
 40
0.0
 40
0.0
 40
0.0650354060836027
 40
0.1300705390387003
 40
0.1951053905376131
 40
0.260139952263249
 40
0.3251742159094068
 40
0.3902081733491014
 40
0.4552421449668159
 40
0.5202764225757883
 40
0.5801329925801164
 40
0.639983465731449
 40
0.6998276299192789
 40
0.7596665662598612
 40
0.8195013608653695
 40
0.8782633075574926
 40
0.9370226314668508
 40
0.9957814512375092
 40
1.0
 40
1.0
 40
1.0
 40
1.0
 10
9.99999999999998
 20
5.610096044062741
 30
0.0
 10
10.77809529189282
 20
5.375092629245355
 30
0.0
 10
12.33428260791991
 20
4.905086786551929
 30
0.0
 10
14.66855611089531
 20
3.912547543509393
 30
0.0
 10
17.00281764600459
 20
2.762545062367739
 30
0.0
 10
19.337066611703
 20
1.483773396031454
 30
0.0
 10
21.67130296367529
 20
0.1397648363032036
 30
0.0
 10
24.00552927850666
 20
-1.210825559345096
 30
0.0
 10
26.33975642331526
 20
-2.506900889414375
 30
0.0
 10
28.61204156873914
 20
-3.659164707524526
 30
0.0
 10
30.82231862350144
 20
-4.628903244635291
 30
0.0
 10
32.97044361131965
 20
-5.395650306145263
 30
0.0
 10
35.11831482198898
 20
-5.957084350207741
 30
0.0
 10
37.2659550498056
 20
-6.292444140362335
 30
0.0
 10
39.40063985349609
 20
-6.386556458616047
 30
0.0
 10
41.52231010178444
 20
-6.247757026852835
 30
0.0
 10
43.63110861367971
 20
-5.860742910149161
 30
0.0
 10
45.08740632493591
 20
-5.496547084825538
 30
0.0
 10
45.84079233352209
 20
-5.217432079396495
 30
0.0
 10
45.89125801172086
 20
-5.198735517628827
 30
0.0
  0
SPLINE
  5
BB
330
1F
100
AcDbEntity
  8
0
  6
Continuous
 62
     1
370
    15
100
AcDbSpline
210
0.0
220
0.0
230
1.0
 70
     8
 71
     3
 72
    13
 73
     9
 74
     0
 42
0.000000001
 43
0.00000001
 40
0.0
 40
0.0
 40
0.0
 40
0.0
 40
0.15058768580668
 40
0.3228996380839149
 40
0.4921419206403222
 40
0.6614020470929173
 40
0.8306860683636345
 40
1.0
 40
1.0
 40
1.0
 40
1.0
 10
73.73813652849182
 20
6.33776877441948
 30
0.0
 10
74.36365390977159
 20
6.325340094067885
 30
0.0
 10
75.70492783232675
 20
6.298689731749795
 30
0.0
 10
77.7492354726613
 20
5.966697654552124
 30
0.0
 10
79.87105580700131
 20
5.423607357259058
 30
0.0
 10
81.98036604211643
 20
4.677006983466653
 30
0.0
 10
84.09002139092308
 20
3.767583386970673
 30
0.0
 10
85.49663237887697
 20
3.051358903462701
 30
0.0
 10
86.20000000000002
 20
2.69321502753018
 30
0.0
  0
LINE
  5
BC
330
1F
100
AcDbEntity
  8
0
  6
Continuous
 62
     1
370
    15
100
AcDbLine
 10
86.19999999999999
 20
0.5451514964979561
 30
0.0
 11
86.19999999999999
 21
2.69321502753018
 31
0.0
  0
LINE
  5
BD
330
1F
100
AcDbEntity
  8
외형선
  6
Continuous
370
    15
100
AcDbLine
 10
9.99999999999998
 20
-5.607946186614956
 30
0.0
 11
11.33529300493488
 21
-5.177242411006544
 31
0.0
  0
SPLINE
  5
BE
330
1F
100
AcDbEntity
  8
0
  6
Continuous
 62
     1
370
    15
100
AcDbSpline
210
0.0
220
0.0
230
1.0
 70
     8
 71
     3
 72
    28
 73
    24
 74
     0
 42
0.000000001
 43
0.00000001
 40
0.0
 40
0.0
 40
0.0
 40
0.0
 40
0.0054845325128142
 40
0.0566000858829152
 40
0.1077133577596356
 40
0.1588261910986619
 40
0.2099404295076988
 40
0.2619875385267383
 40
0.3140376886714095
 40
0.366091826876304
 40
0.4181508962611983
 40
0.4702158352369274
 40
0.5213569799197011
 40
0.5724890692221463
 40
0.6236136602164327
 40
0.6747325790589739
 40
0.7267783201375911
 40
0.7788225404110166
 40
0.8308661924968356
 40
0.8829102295578394
 40
0.9349556043874018
 40
0.9860738113153064
 40
1.0
 40
1.0
 40
1.0
 40
1.0
 10
39.18717434936374
 20
6.339689438194251
 30
0.0
 10
39.26260231192577
 20
6.343401715883134
 30
0.0
 10
40.04101490206163
 20
6.381712225579476
 30
0.0
 10
41.52230641691519
 20
6.231383104862575
 30
0.0
 10
43.63110771897328
 20
5.879459895057901
 30
0.0
 10
45.73988099619359
 20
5.287780151138199
 30
0.0
 10
47.86149262895
 20
4.504046451681808
 30
0.0
 10
49.99609191871776
 20
3.545023778272573
 30
0.0
 10
52.1436206099285
 20
2.446008156290592
 30
0.0
 10
54.29135296040089
 20
1.253902329928337
 30
0.0
 10
56.4393262662899
 20
0.0141685294922394
 30
0.0
 10
58.57479699638596
 20
-1.218758411093626
 30
0.0
 10
60.69755226686724
 20
-2.398472807282643
 30
0.0
 10
62.80726590828748
 20
-3.483213458082716
 30
0.0
 10
64.91662561691129
 20
-4.440097279772364
 30
0.0
 10
67.03848060720165
 20
-5.238950835458242
 30
0.0
 10
69.17302991251563
 20
-5.846467160045721
 30
0.0
 10
71.32026557686586
 20
-6.235669419862427
 30
0.0
 10
73.4674796972871
 20
-6.386791515943552
 30
0.0
 10
75.61470525862075
 20
-6.299127040605091
 30
0.0
 10
77.74923832177055
 20
-5.959242669116026
 30
0.0
 10
79.3594944844163
 20
-5.575664474549809
 30
0.0
 10
80.25404126630607
 20
-5.254431265307021
 30
0.0
 10
80.44556625711513
 20
-5.185654328546026
 30
0.0
  0
SPLINE
  5
BF
330
1F
100
AcDbEntity
  8
0
  6
Continuous
 62
     1
370
    15
100
AcDbSpline
210
0.0
220
0.0
230
1.0
 70
     8
 71
     3
 72
    10
 73
     6
 74
     0
 42
0.000000001
 43
0.00000001
 40
0.0
 40
0.0
 40
0.0
 40
0.0
 40
0.373324828751656
 40
0.7466062823330585
 40
1.0
 40
1.0
 40
1.0
 40
1.0
 10
86.19999999999999
 20
6.351074928723905
 30
0.0
 10
85.48389167849618
 20
6.267577598334444
 30
0.0
 10
84.05175823734913
 20
6.147293013252521
 30
0.0
 10
82.1336211935241
 20
5.743008769012495
 30
0.0
 10
80.93159924992992
 20
5.347661391638506
 30
0.0
 10
80.44556625711513
 20
5.187804185993812
 30
0.0
  0
SPLINE
  5
C0
330
1F
100
AcDbEntity
  8
0
  6
Continuous
 62
     1
370
    15
100
AcDbSpline
210
0.0
220
0.0
230
1.0
 70
     8
 71
     3
 72
    27
 73
    23
 74
     0
 42
0.000000001
 43
0.00000001
 40
0.0
 40
0.0
 40
0.0
 40
0.0
 40
0.0126631215394545
 40
0.0637928706534969
 40
0.1149175357685244
 40
0.1669698639105284
 40
0.21902105246693
 40
0.2710720545172805
 40
0.3231238233201044
 40
0.3751773113982247
 40
0.4263042311962903
 40
0.4774371298586897
 40
0.5285778321295291
 40
0.579727031322043
 40
0.6363066753135149
 40
0.6928860530934274
 40
0.7494654185385017
 40
0.8060450503823632
 40
0.8626249415545565
 40
0.9192050848287103
 40
0.9757854729689764
 40
1.0
 40
1.0
 40
1.0
 40
1.0
 10
52.58928937439362
 20
-6.327196336627038
 30
0.0
 10
52.41515571531318
 20
-6.33373761539708
 30
0.0
 10
51.53792446111343
 20
-6.366690544829651
 30
0.0
 10
49.95772109679959
 20
-6.194182618109309
 30
0.0
 10
47.83593172089632
 20
-5.804195648505151
 30
0.0
 10
45.70142297453726
 20
-5.175464862800427
 30
0.0
 10
43.55420408423088
 20
-4.351392639875972
 30
0.0
 10
41.40698835481734
 20
-3.36053655849037
 30
0.0
 10
39.25974065133764
 20
-2.242292193613248
 30
0.0
 10
37.12516783029916
 20
-1.045836890583534
 30
0.0
 10
35.00327267816094
 20
0.1821651027735803
 30
0.0
 10
32.893858218085
 20
1.396170097990143
 30
0.0
 10
30.78408224471202
 20
2.559119068621905
 30
0.0
 10
28.59930797515359
 20
3.665936797030182
 30
0.0
 10
26.33975679658833
 20
4.661209426948776
 30
0.0
 10
24.00552917825529
 20
5.479954647200199
 30
0.0
 10
21.67130299140857
 20
6.053145080698034
 30
0.0
 10
19.33706660102165
 20
6.35373222317383
 30
0.0
 10
17.00281766099656
 20
6.372915313228369
 30
0.0
 10
14.6685560616086
 20
6.092402169674931
 30
0.0
 10
12.77938002180785
 20
5.685643885131311
 30
0.0
 10
11.66829052755622
 20
5.296130755960114
 30
0.0
 10
11.33529300493486
 20
5.179392268454328
 30
0.0
  0
LINE
  5
C1
330
1F
100
AcDbEntity
  8
0
  6
Continuous
 62
     1
370
    15
100
AcDbLine
 10
86.19999999999999
 20
-6.348925071276095
 30
0.0
 11
86.19999999999999
 21
-5.750001639050095
 31
0.0
  0
SPLINE
  5
C2
330
1F
100
AcDbEntity
  8
0
  6
Continuous
 62
     1
370
    15
100
AcDbSpline
210
0.0
220
0.0
230
1.0
 70
     8
 71
     3
 72
    26
 73
    22
 74
     0
 42
0.000000001
 43
0.00000001
 40
0.0
 40
0.0
 40
0.0
 40
0.0
 40
0.0532934583448151
 40
0.1065807247284985
 40
0.1598627586511249
 40
0.2131405246075707
 40
0.2664149911740552
 40
0.3187344646965006
 40
0.3710522090160029
 40
0.4233701110501895
 40
0.4756900574821932
 40
0.5289651311245996
 40
0.5822437061534063
 40
0.6355267503706387
 40
0.6888152273060071
 40
0.7421097853964572
 40
0.7944534078795521
 40
0.8467880931940842
 40
0.8991157031320552
 40
0.9514381099637723
 40
1.0
 40
1.0
 40
1.0
 40
1.0
 10
86.19999999999999
 20
-6.348925071276095
 30
0.0
 10
85.48389138912691
 20
-6.266868701407155
 30
0.0
 10
84.05175736927492
 20
-6.149465869946588
 30
0.0
 10
81.90373386485723
 20
-5.675117201933495
 30
0.0
 10
79.75595767890164
 20
-5.002297679274728
 30
0.0
 10
77.60839478469461
 20
-4.134707181862614
 30
0.0
 10
75.47376960941043
 20
-3.117299223695733
 30
0.0
 10
73.35214117998615
 20
-1.989849127825729
 30
0.0
 10
71.2433618370836
 20
-0.7963047147567617
 30
0.0
 10
69.13457503246616
 20
0.4264977854253735
 30
0.0
 10
67.0129256387809
 20
1.641031929287299
 30
0.0
 10
64.87827048618885
 20
2.801767646481218
 30
0.0
 10
62.73066850509296
 20
3.863049751435702
 30
0.0
 10
60.5828430521896
 20
4.77758137914283
 30
0.0
 10
58.43476681526094
 20
5.51056063887623
 30
0.0
 10
56.29923881868968
 20
6.031072294466523
 30
0.0
 10
54.17656851236939
 20
6.323555234962326
 30
0.0
 10
52.06697661295254
 20
6.383676778888481
 30
0.0
 10
49.9577181696619
 20
6.205147834728499
 30
0.0
 10
47.89921256239928
 20
5.825652931601465
 30
0.0
 10
46.54373413110365
 20
5.403900881906621
 30
0.0
 10
45.89125801172086
 20
5.200885375076615
 30
0.0
  0
SPLINE
  5
C3
330
1F
100
AcDbEntity
  8
0
  6
Continuous
 62
     1
370
    15
100
AcDbSpline
210
0.0
220
0.0
230
1.0
 70
     8
 71
     3
 72
    11
 73
     7
 74
     0
 42
0.000000001
 43
0.00000001
 40
0.0
 40
0.0
 40
0.0
 40
0.0
 40
0.1287621016908348
 40
0.419173490021177
 40
0.7095861351865768
 40
1.0
 40
1.0
 40
1.0
 40
1.0
 10
18.03778071573731
 20
-6.313662409667969
 30
0.0
 10
17.69279410270667
 20
-6.321743250437149
 30
0.0
 10
16.5697210812531
 20
-6.348049703834869
 30
0.0
 10
14.66855603741891
 20
-6.086012824988402
 30
0.0
 10
12.3342826262891
 20
-5.567639943441058
 30
0.0
 10
10.77809529801588
 20
-5.007329511164758
 30
0.0
 10
9.99999999999998
 20
-4.72717370674293
 30
0.0
  0
LINE
  5
C4
330
1F
100
AcDbEntity
  8
외형선
  6
Continuous
370
    15
100
AcDbLine
 10
10.00000000000003
 20
-4.814722860019844
 30
0.0
 11
9.99999999999998
 21
-5.607946186614956
 31
0.0
  0
LINE
  5
C5
330
1F
100
AcDbEntity
  8
0
  6
Continuous
 62
     1
370
    15
100
AcDbLine
 10
86.19999999999999
 20
2.677994744330403
 30
0.0
 11
86.19999999999999
 21
6.351074928723905
 31
0.0
  0
LINE
  5
C6
330
1F
100
AcDbEntity
  8
중심선
 48
0.8
100
AcDbLine
 10
-43.80000000000001
 20
0.0010749287238892
 30
0.0
 11
89.19999999999999
 21
0.0010749287239051
 31
0.0
  0
LINE
  5
C7
330
1F
100
AcDbEntity
  8
참조1
100
AcDbLine
 10
27.65560364977729
 20
0.0010749287238892
 30
0.0
 11
27.65560364977729
 21
-39.99892507127611
 31
0.0
  0
LINE
  5
C8
330
1F
100
AcDbEntity
  8
참조1
100
AcDbLine
 10
27.65560364977729
 20
-39.99892507127611
 30
0.0
 11
-21.63450316453139
 21
-39.9989250712761
 31
0.0
  0
CIRCLE
  5
C9
330
1F
100
AcDbEntity
  8
해칭선
100
AcDbCircle
 10
0.0
 20
0.0
 30
0.0
 40
3.000000000000001
  0
INSERT
  5
CA
330
1F
100
AcDbEntity
  8
0
  6
Continuous
 62
     7
100
AcDbBlockReference
 66
     1
  2
블럭10
 10
8.759727067874783
 20
-52.04609937292004
 30
0.0
  0
ATTRIB
  5
CB
330
CA
100
AcDbEntity
  8
FORMAT
 62
     2
100
AcDbText
 10
-0.4215682208664973
 20
-49.97073246008785
 30
0.0
 40
4.233333333333333
  1
E2036032 [ 4 FLUTE ]
 41
0.75
  7
SLDTEXTSTYLE0
 11
-0.4215682208664973
 21
-52.08739912675452
 31
0.0
100
AcDbAttribute
  2
AUTOATTR0
 70
     0
 74
     1
  0
SEQEND
  5
CC
330
CA
100
AcDbEntity
  8
0
  6
Continuous
 62
     7
  0
HATCH
  5
CD
330
1F
100
AcDbEntity
  8
중심선
100
AcDbHatch
 10
0.0
 20
0.0
 30
0.0
210
0.0
220
0.0
230
1.0
  2
SOLID
 70
     1
 71
     0
 91
        1
 92
        0
 93
        4
 72
     1
 10
14.47463637225562
 20
-35.7989250712761
 11
11.02836112841834
 21
-35.7989250712761
 72
     1
 10
11.02836112841834
 20
-35.7989250712761
 11
8.900131269214318
 21
-38.3352506518487
 72
     1
 10
8.900131269214318
 20
-38.3352506518487
 11
12.34643959816475
 21
-38.33521122254621
 72
     1
 10
12.34643959816475
 20
-38.33521122254621
 11
14.47463637225562
 21
-35.7989250712761
 97
        0
 75
     0
 76
     1
 98
        1
 10
-4.955603649777295
 20
0.0
  0
HATCH
  5
CE
330
1F
100
AcDbEntity
  8
중심선
100
AcDbHatch
 10
0.0
 20
0.0
 30
0.0
210
0.0
220
0.0
230
1.0
  2
SOLID
 70
     1
 71
     0
 91
        1
 92
        0
 93
        4
 72
     1
 10
19.4874003632916
 20
-35.79892507127608
 11
16.04112511945432
 21
-35.7989250712761
 72
     1
 10
16.04112511945432
 20
-35.7989250712761
 11
11.5099871110969
 21
-41.19892507127612
 72
     1
 10
11.5099871110969
 20
-41.19892507127612
 11
14.95626235493419
 21
-41.19892507127612
 72
     1
 10
14.95626235493419
 20
-41.19892507127612
 11
19.4874003632916
 21
-35.79892507127608
 97
        0
 75
     0
 76
     1
 98
        1
 10
-4.955603649777295
 20
0.0
  0
HATCH
  5
CF
330
1F
100
AcDbEntity
  8
중심선
100
AcDbHatch
 10
0.0
 20
0.0
 30
0.0
210
0.0
220
0.0
230
1.0
  2
SOLID
 70
     1
 71
     0
 91
        1
 92
        0
 93
        4
 72
     1
 10
24.5001643543275
 20
-35.79892507127608
 11
21.05388911049038
 21
-35.79892507127608
 72
     1
 10
21.05388911049038
 20
-35.79892507127608
 11
14.00545220860111
 21
-44.19892507127612
 72
     1
 10
14.00545220860111
 20
-44.19892507127612
 11
17.45172745243839
 21
-44.19892507127612
 72
     1
 10
17.45172745243839
 20
-44.19892507127612
 11
24.5001643543275
 21
-35.79892507127608
 97
        0
 75
     0
 76
     1
 98
        1
 10
-4.955603649777295
 20
0.0
  0
HATCH
  5
D0
330
1F
100
AcDbEntity
  8
중심선
100
AcDbHatch
 10
0.0
 20
0.0
 30
0.0
210
0.0
220
0.0
230
1.0
  2
SOLID
 70
     1
 71
     0
 91
        1
 92
        0
 93
        6
 72
     3
 10
29.30005478533967
 20
-39.99892507132738
 11
3.960054785062283
 21
1.540882976769353E-10
 40
0.3939339440162628
 50
17.09539180608436
 51
320.0019657685075
 73
     0
 72
     1
 10
30.98305444104027
 20
-38.58681907591438
 11
33.2883563147413
 21
-36.65249236586649
 72
     3
 10
29.30005478528683
 20
-39.99892507127625
 11
6.600054785286829
 21
-1.278976924368180E-13
 40
0.636358354079598
 50
39.99873849337413
 51
368.4976242363724
 73
     1
 72
     1
 10
35.72538727718743
 20
-39.03892507120613
 11
27.98012209212275
 21
-39.03892507120613
 72
     1
 10
27.98012209212275
 20
-39.03892507120613
 11
27.98009704767681
 21
-40.95892507120602
 72
     1
 10
27.98009704767681
 20
-40.95892507120602
 11
32.42147681714885
 21
-40.95892507120599
 97
        0
 75
     0
 76
     1
 98
        1
 10
-4.955603649777295
 20
0.0
  0
DIMENSION
  5
D1
330
1F
100
AcDbEntity
  8
치수문자_일반주서
100
AcDbDimension
  2
_D
 10
9.999999999999986
 20
19.50856127087755
 30
0.0
 11
48.09999999999999
 21
19.50856127087755
 31
0.0
 70
   160
  1
<>
 71
     2
 42
76.2
  3
SLDDIMSTYLE1
100
AcDbAlignedDimension
 13
86.19999999999999
 23
6.351074928723905
 33
0.0
 14
9.999999999999984
 24
5.610096044062741
 34
0.0
 50
0.0000000000000053
100
AcDbRotatedDimension
1001
ACAD
1000
DSTYLE
1002
{
1070
   171
1070
     6
1070
   273
1070
     7
1002
}
  0
DIMENSION
  5
E6
330
1F
100
AcDbEntity
  8
치수문자_일반주서
100
AcDbDimension
  2
_D_1
 10
-40.80000000000001
 20
35.22976646868032
 30
0.0
 11
22.69999999999999
 21
35.22976646868032
 31
0.0
 70
   160
  1
<>
 71
     2
 42
127.0
  3
SLDDIMSTYLE1
100
AcDbAlignedDimension
 13
86.19999999999999
 23
6.351074928723905
 33
0.0
 14
-40.8
 24
5.081074928723896
 34
0.0
 50
0.0000000000000032
100
AcDbRotatedDimension
1001
ACAD
1000
DSTYLE
1002
{
1070
   171
1070
     6
1070
   273
1070
     7
1002
}
  0
DIMENSION
  5
FA
330
1F
100
AcDbEntity
  8
치수문자_일반주서
100
AcDbDimension
  2
_D_2
 10
-51.78327283782718
 20
-6.348925071276147
 30
0.0
 11
-51.78327283782721
 21
0.0010749287238872
 31
0.0
 70
   160
  1
%%c<>
 71
     2
 42
12.69999999999999
 52
-270.0
  3
SLDDIMSTYLE1
100
AcDbAlignedDimension
 13
-39.53000000000002
 23
6.351074928723888
 33
0.0
 14
-39.53000000000002
 24
-6.348925071276101
 34
0.0
 50
90.0000000000002
100
AcDbRotatedDimension
1001
ACAD
1000
DSTYLE
1002
{
1070
   171
1070
     6
1070
   273
1070
     7
1002
}
  0
LINE
  5
120
330
1F
100
AcDbEntity
  8
참조1
100
AcDbLine
 10
76.33783746512287
 20
7.441074928723896
 30
0.0
 11
76.33783746512287
 21
-7.438925071276109
 31
0.0
  0
LINE
  5
121
330
1F
100
AcDbEntity
  8
참조1
100
AcDbLine
 10
89.03783746512288
 20
5.441074928723896
 30
0.0
 11
76.33783746512287
 21
5.441074928723896
 31
0.0
  0
SOLID
  5
122
330
1F
100
AcDbEntity
  8
참조1
100
AcDbTrace
 10
76.33783746512287
 20
5.441074928723896
 30
0.0
 11
82.68783746512287
 21
4.425074928723896
 31
0.0
 12
82.68783746512287
 22
6.457074928723896
 32
0.0
 13
82.68783746512287
 23
6.457074928723896
 33
0.0
  0
LINE
  5
123
330
1F
100
AcDbEntity
  8
참조1
100
AcDbLine
 10
89.03783746512288
 20
-5.438925071276109
 30
0.0
 11
76.33783746512287
 21
-5.438925071276109
 31
0.0
  0
SOLID
  5
124
330
1F
100
AcDbEntity
  8
참조1
100
AcDbTrace
 10
76.33783746512287
 20
-5.438925071276109
 30
0.0
 11
82.68783746512287
 21
-6.454925071276109
 31
0.0
 12
82.68783746512287
 22
-4.422925071276109
 32
0.0
 13
82.68783746512287
 23
-4.422925071276109
 33
0.0
  0
MTEXT
  5
125
330
1F
100
AcDbEntity
  8
참조1
100
AcDbMText
 10
85.72218759774887
 20
11.01136670591222
 30
0.0
 40
3.5
 41
0.0
 71
     1
 72
     1
  1
A
  7
SLDTEXTSTYLE0
 73
     1
 44
1.0
  0
MTEXT
  5
126
330
1F
100
AcDbEntity
  8
참조1
100
AcDbMText
 10
85.72218759774887
 20
0.1313667059122201
 30
0.0
 40
3.5
 41
0.0
 71
     1
 72
     1
  1
A
  7
SLDTEXTSTYLE0
 73
     1
 44
1.0
  0
INSERT
  5
12D
330
1F
100
AcDbEntity
  8
해칭선
100
AcDbBlockReference
  2
SW_DOWELSYMBOL_0
 10
0.0
 20
0.0
 30
0.0
  0
DIMENSION
  5
28B
330
1F
100
AcDbEntity
  8
치수문자_일반주서
100
AcDbDimension
  2
*D16
 10
113.9307067734898
 20
-6.348925071276096
 30
0.0
 11
113.9307067734898
 21
30.89201828491147
 31
0.0
 70
   160
 71
     5
 42
12.7
  3
SLDDIMSTYLE1
100
AcDbAlignedDimension
 13
86.19999999999999
 23
6.351074928723905
 33
0.0
 14
86.19999999999999
 24
-6.348925071276095
 34
0.0
 50
90.0
100
AcDbRotatedDimension
1001
ACAD
1000
DSTYLE
1002
{
1070
   171
1070
     6
1070
   273
1070
     7
1002
}
  0
LINE
  5
2C9
330
1F
100
AcDbEntity
  8
외형선
  6
Continuous
370
    15
100
AcDbLine
 10
-39.53000000000002
 20
6.351074928723893
 30
0.0
 11
-25.29012499999998
 21
6.351074928723893
 31
0.0
  0
LINE
  5
324
330
1F
100
AcDbEntity
  8
외형선
  6
Continuous
370
    15
100
AcDbLine
 10
-23.76612499999997
 20
4.827074928723889
 30
0.0
 11
-12.5901250000001
 21
4.827074928723889
 31
0.0
  0
LINE
  5
325
330
1F
100
AcDbEntity
  8
외형선
  6
Continuous
370
    15
100
AcDbLine
 10
-23.76612499999997
 20
4.827074928723889
 30
0.0
 11
-25.29012499999997
 21
6.351074928723889
 31
0.0
  0
LINE
  5
326
330
1F
100
AcDbEntity
  8
외형선
  6
Continuous
370
    15
100
AcDbLine
 10
-12.59012499999999
 20
4.827074928723889
 30
0.0
 11
-11.06612499999999
 21
6.351074928723889
 31
0.0
  0
ENDSEC
  0
SECTION
  2
OBJECTS
  0
DICTIONARY
  5
C
330
0
100
AcDbDictionary
281
     1
  3
ACAD_GROUP
350
D
  3
ACAD_IMAGE_VARS
350
151
  3
ACAD_LAYOUT
350
1A
  3
ACAD_MLINESTYLE
350
17
  3
ACAD_PLOTSETTINGS
350
19
  3
ACAD_PLOTSTYLENAME
350
E
  3
ACAD_SCALELIST
350
47
  3
APPDATA
350
14F
  3
DWGPROPS
350
328
  0
DICTIONARY
  5
1F1
330
2
100
AcDbDictionary
280
     1
281
     1
  3
ACAD_LAYERSTATES
360
1F2
  0
DICTIONARY
  5
D
102
{ACAD_REACTORS
330
C
102
}
330
C
100
AcDbDictionary
281
     1
  0
RASTERVARIABLES
  5
151
102
{ACAD_REACTORS
330
C
102
}
330
C
100
AcDbRasterVariables
 90
        0
 70
     1
 71
     1
 72
     1
  0
DICTIONARY
  5
1A
102
{ACAD_REACTORS
330
C
102
}
330
C
100
AcDbDictionary
281
     1
  3
Layout1
350
1E
  3
Layout2
350
26
  3
Model
350
22
  0
DICTIONARY
  5
17
102
{ACAD_REACTORS
330
C
102
}
330
C
100
AcDbDictionary
281
     1
  3
Standard
350
18
  0
DICTIONARY
  5
19
102
{ACAD_REACTORS
330
C
102
}
330
C
100
AcDbDictionary
281
     1
  0
ACDBDICTIONARYWDFLT
  5
E
102
{ACAD_REACTORS
330
C
102
}
330
C
100
AcDbDictionary
281
     1
  3
Normal
350
F
100
AcDbDictionaryWithDefault
340
F
  0
DICTIONARY
  5
47
102
{ACAD_REACTORS
330
C
102
}
330
C
100
AcDbDictionary
281
     1
  3
A0
350
48
  3
A1
350
49
  3
A2
350
4A
  3
A3
350
4B
  3
A4
350
4C
  3
A5
350
4D
  3
A6
350
4E
  3
A7
350
4F
  3
A8
350
50
  3
A9
350
51
  3
B0
350
52
  3
B1
350
53
  3
B2
350
54
  3
B3
350
55
  3
B4
350
56
  3
B5
350
57
  3
B6
350
58
  3
B7
350
59
  3
B8
350
5A
  3
B9
350
5B
  3
C0
350
5C
  3
C1
350
5D
  3
C2
350
5E
  3
C3
350
5F
  3
C4
350
60
  3
C5
350
61
  3
C6
350
62
  3
C7
350
63
  3
C8
350
64
  3
C9
350
65
  3
D0
350
66
  3
D1
350
67
  3
D2
350
68
  0
DICTIONARY
  5
14F
102
{ACAD_REACTORS
330
C
102
}
330
C
100
AcDbDictionary
281
     1
  0
XRECORD
  5
328
102
{ACAD_REACTORS
330
C
102
}
330
C
100
AcDbXrecord
280
     1
  1
DWGPROPS COOKIE
  2

  3

  4

  6

  7

  8
12017012
  9

300
=
301
=
302
=
303
=
304
=
305
=
306
=
307
=
308
=
309
=
 40
0.0
 41
2458312.300892349
 42
2458320.091966157
  1

 90
        0
  0
DICTIONARY
  5
1F2
102
{ACAD_REACTORS
330
1F1
102
}
330
1F1
100
AcDbDictionary
281
     1
  0
LAYOUT
  5
1E
102
{ACAD_REACTORS
330
1A
102
}
330
1A
100
AcDbPlotSettings
  1

  2
none_device
  4

  6

 40
0.0
 41
0.0
 42
0.0
 43
0.0
 44
0.0
 45
0.0
 46
0.0
 47
0.0
 48
0.0
 49
0.0
140
0.0
141
0.0
142
1.0
143
1.0
 70
   688
 72
     1
 73
     0
 74
     5
  7

 75
    16
147
1.0
148
0.0
149
0.0
100
AcDbLayout
  1
Layout1
 70
     1
 71
     1
 10
0.0
 20
0.0
 11
420.0
 21
297.0
 12
0.0
 22
0.0
 32
0.0
 14
1.000000000000000E+20
 24
1.000000000000000E+20
 34
1.000000000000000E+20
 15
-1.000000000000000E+20
 25
-1.000000000000000E+20
 35
-1.000000000000000E+20
146
0.0
 13
0.0
 23
0.0
 33
0.0
 16
1.0
 26
0.0
 36
0.0
 17
0.0
 27
1.0
 37
0.0
 76
     0
330
1B
  0
LAYOUT
  5
26
102
{ACAD_REACTORS
330
1A
102
}
330
1A
100
AcDbPlotSettings
  1

  2
none_device
  4

  6

 40
0.0
 41
0.0
 42
0.0
 43
0.0
 44
0.0
 45
0.0
 46
0.0
 47
0.0
 48
0.0
 49
0.0
140
0.0
141
0.0
142
1.0
143
1.0
 70
   688
 72
     1
 73
     0
 74
     5
  7

 75
    16
147
1.0
148
0.0
149
0.0
100
AcDbLayout
  1
Layout2
 70
     1
 71
     2
 10
0.0
 20
0.0
 11
0.0
 21
0.0
 12
0.0
 22
0.0
 32
0.0
 14
0.0
 24
0.0
 34
0.0
 15
0.0
 25
0.0
 35
0.0
146
0.0
 13
0.0
 23
0.0
 33
0.0
 16
1.0
 26
0.0
 36
0.0
 17
0.0
 27
1.0
 37
0.0
 76
     0
330
23
  0
LAYOUT
  5
22
102
{ACAD_REACTORS
330
1A
102
}
330
1A
100
AcDbPlotSettings
  1

  2
none_device
  4
ANSI_A_(11.00_x_8.50_Inches)
  6

 40
6.35
 41
19.05
 42
6.35000508
 43
19.05000254
 44
279.4
 45
215.9
 46
50.88520746049306
 47
91.1734555944452
 48
0.0
 49
0.0
140
0.0
141
0.0
142
0.0381522684170088
143
1.0
 70
  1696
 72
     0
 73
     0
 74
     0
  7

 75
     0
147
0.0235690232323232
148
0.0
149
0.0
100
AcDbLayout
  1
Model
 70
     1
 71
     0
 10
0.0
 20
0.0
 11
420.0
 21
297.0
 12
0.0
 22
0.0
 32
0.0
 14
1.000000000000000E+20
 24
1.000000000000000E+20
 34
1.000000000000000E+20
 15
-1.000000000000000E+20
 25
-1.000000000000000E+20
 35
-1.000000000000000E+20
146
0.0
 13
0.0
 23
0.0
 33
0.0
 16
1.0
 26
0.0
 36
0.0
 17
0.0
 27
1.0
 37
0.0
 76
     0
330
1F
331
29
  0
MLINESTYLE
  5
18
102
{ACAD_REACTORS
330
17
102
}
330
17
100
AcDbMlineStyle
  2
Standard
 70
     0
  3

 62
   256
 51
90.0
 52
90.0
 71
     2
 49
0.5
 62
   256
  6
BYLAYER
 49
-0.5
 62
   256
  6
BYLAYER
  0
ACDBPLACEHOLDER
  5
F
102
{ACAD_REACTORS
330
E
102
}
330
E
  0
SCALE
  5
48
102
{ACAD_REACTORS
330
47
102
}
330
47
100
AcDbScale
 70
     0
300
1:1
140
1.0
141
1.0
290
     1
  0
SCALE
  5
49
102
{ACAD_REACTORS
330
47
102
}
330
47
100
AcDbScale
 70
     0
300
1:2
140
1.0
141
2.0
290
     0
  0
SCALE
  5
4A
102
{ACAD_REACTORS
330
47
102
}
330
47
100
AcDbScale
 70
     0
300
1:4
140
1.0
141
4.0
290
     0
  0
SCALE
  5
4B
102
{ACAD_REACTORS
330
47
102
}
330
47
100
AcDbScale
 70
     0
300
1:5
140
1.0
141
5.0
290
     0
  0
SCALE
  5
4C
102
{ACAD_REACTORS
330
47
102
}
330
47
100
AcDbScale
 70
     0
300
1:8
140
1.0
141
8.0
290
     0
  0
SCALE
  5
4D
102
{ACAD_REACTORS
330
47
102
}
330
47
100
AcDbScale
 70
     0
300
1:10
140
1.0
141
10.0
290
     0
  0
SCALE
  5
4E
102
{ACAD_REACTORS
330
47
102
}
330
47
100
AcDbScale
 70
     0
300
1:16
140
1.0
141
16.0
290
     0
  0
SCALE
  5
4F
102
{ACAD_REACTORS
330
47
102
}
330
47
100
AcDbScale
 70
     0
300
1:20
140
1.0
141
20.0
290
     0
  0
SCALE
  5
50
102
{ACAD_REACTORS
330
47
102
}
330
47
100
AcDbScale
 70
     0
300
1:30
140
1.0
141
30.0
290
     0
  0
SCALE
  5
51
102
{ACAD_REACTORS
330
47
102
}
330
47
100
AcDbScale
 70
     0
300
1:40
140
1.0
141
40.0
290
     0
  0
SCALE
  5
52
102
{ACAD_REACTORS
330
47
102
}
330
47
100
AcDbScale
 70
     0
300
1:50
140
1.0
141
50.0
290
     0
  0
SCALE
  5
53
102
{ACAD_REACTORS
330
47
102
}
330
47
100
AcDbScale
 70
     0
300
1:100
140
1.0
141
100.0
290
     0
  0
SCALE
  5
54
102
{ACAD_REACTORS
330
47
102
}
330
47
100
AcDbScale
 70
     0
300
2:1
140
2.0
141
1.0
290
     0
  0
SCALE
  5
55
102
{ACAD_REACTORS
330
47
102
}
330
47
100
AcDbScale
 70
     0
300
4:1
140
4.0
141
1.0
290
     0
  0
SCALE
  5
56
102
{ACAD_REACTORS
330
47
102
}
330
47
100
AcDbScale
 70
     0
300
8:1
140
8.0
141
1.0
290
     0
  0
SCALE
  5
57
102
{ACAD_REACTORS
330
47
102
}
330
47
100
AcDbScale
 70
     0
300
10:1
140
10.0
141
1.0
290
     0
  0
SCALE
  5
58
102
{ACAD_REACTORS
330
47
102
}
330
47
100
AcDbScale
 70
     0
300
100:1
140
100.0
141
1.0
290
     0
  0
SCALE
  5
59
102
{ACAD_REACTORS
330
47
102
}
330
47
100
AcDbScale
 70
     0
300
1/128" = 1'-0"
140
0.0078125
141
12.0
290
     0
  0
SCALE
  5
5A
102
{ACAD_REACTORS
330
47
102
}
330
47
100
AcDbScale
 70
     0
300
1/64" = 1'-0"
140
0.015625
141
12.0
290
     0
  0
SCALE
  5
5B
102
{ACAD_REACTORS
330
47
102
}
330
47
100
AcDbScale
 70
     0
300
1/32" = 1'-0"
140
0.03125
141
12.0
290
     0
  0
SCALE
  5
5C
102
{ACAD_REACTORS
330
47
102
}
330
47
100
AcDbScale
 70
     0
300
1/16" = 1'-0"
140
0.0625
141
12.0
290
     0
  0
SCALE
  5
5D
102
{ACAD_REACTORS
330
47
102
}
330
47
100
AcDbScale
 70
     0
300
3/32" = 1'-0"
140
0.09375
141
12.0
290
     0
  0
SCALE
  5
5E
102
{ACAD_REACTORS
330
47
102
}
330
47
100
AcDbScale
 70
     0
300
1/8" = 1'-0"
140
0.125
141
12.0
290
     0
  0
SCALE
  5
5F
102
{ACAD_REACTORS
330
47
102
}
330
47
100
AcDbScale
 70
     0
300
3/16" = 1'-0"
140
0.1875
141
12.0
290
     0
  0
SCALE
  5
60
102
{ACAD_REACTORS
330
47
102
}
330
47
100
AcDbScale
 70
     0
300
1/4" = 1'-0"
140
0.25
141
12.0
290
     0
  0
SCALE
  5
61
102
{ACAD_REACTORS
330
47
102
}
330
47
100
AcDbScale
 70
     0
300
3/8" = 1'-0"
140
0.375
141
12.0
290
     0
  0
SCALE
  5
62
102
{ACAD_REACTORS
330
47
102
}
330
47
100
AcDbScale
 70
     0
300
1/2" = 1'-0"
140
0.5
141
12.0
290
     0
  0
SCALE
  5
63
102
{ACAD_REACTORS
330
47
102
}
330
47
100
AcDbScale
 70
     0
300
3/4" = 1'-0"
140
0.75
141
12.0
290
     0
  0
SCALE
  5
64
102
{ACAD_REACTORS
330
47
102
}
330
47
100
AcDbScale
 70
     0
300
1" = 1'-0"
140
1.0
141
12.0
290
     0
  0
SCALE
  5
65
102
{ACAD_REACTORS
330
47
102
}
330
47
100
AcDbScale
 70
     0
300
1-1/2" = 1'-0"
140
1.5
141
12.0
290
     0
  0
SCALE
  5
66
102
{ACAD_REACTORS
330
47
102
}
330
47
100
AcDbScale
 70
     0
300
3" = 1'-0"
140
3.0
141
12.0
290
     0
  0
SCALE
  5
67
102
{ACAD_REACTORS
330
47
102
}
330
47
100
AcDbScale
 70
     0
300
6" = 1'-0"
140
6.0
141
12.0
290
     0
  0
SCALE
  5
68
102
{ACAD_REACTORS
330
47
102
}
330
47
100
AcDbScale
 70
     0
300
1'-0" = 1'-0"
140
12.0
141
12.0
290
     0
  0
ENDSEC
  0
EOF
