  0
SECTION
  2
HEADER
  9
$ACADVER
  1
AC1015
  9
$ACADMAINTVER
 70
     6
  9
$DWGCODEPAGE
  3
ANSI_949
  9
$INSBASE
 10
0.0
 20
0.0
 30
0.0
  9
$EXTMIN
 10
1.000000000000000E+20
 20
1.000000000000000E+20
 30
1.000000000000000E+20
  9
$EXTMAX
 10
-1.000000000000000E+20
 20
-1.000000000000000E+20
 30
-1.000000000000000E+20
  9
$LIMMIN
 10
0.0
 20
0.0
  9
$LIMMAX
 10
420.0
 20
297.0
  9
$ORTHOMODE
 70
     0
  9
$REGENMODE
 70
     1
  9
$FILLMODE
 70
     1
  9
$QTEXTMODE
 70
     0
  9
$MIRRTEXT
 70
     1
  9
$LTSCALE
 40
1.0
  9
$ATTMODE
 70
     1
  9
$TEXTSIZE
 40
3.5
  9
$TRACEWID
 40
1.0
  9
$TEXTSTYLE
  7
Standard
  9
$CLAYER
  8
0
  9
$CELTYPE
  6
ByLayer
  9
$CECOLOR
 62
   256
  9
$CELTSCALE
 40
1.0
  9
$DISPSILH
 70
     0
  9
$DIMSCALE
 40
1.0
  9
$DIMASZ
 40
3.302
  9
$DIMEXO
 40
1.0
  9
$DIMDLI
 40
3.75
  9
$DIMRND
 40
0.0
  9
$DIMDLE
 40
0.0
  9
$DIMEXE
 40
1.0
  9
$DIMTP
 40
0.0
  9
$DIMTM
 40
0.0
  9
$DIMTXT
 40
3.5
  9
$DIMCEN
 40
2.5
  9
$DIMTSZ
 40
0.0
  9
$DIMTOL
 70
     0
  9
$DIMLIM
 70
     0
  9
$DIMTIH
 70
     1
  9
$DIMTOH
 70
     1
  9
$DIMSE1
 70
     0
  9
$DIMSE2
 70
     0
  9
$DIMTAD
 70
     1
  9
$DIMZIN
 70
     0
  9
$DIMBLK
  1

  9
$DIMASO
 70
     1
  9
$DIMSHO
 70
     1
  9
$DIMPOST
  1

  9
$DIMAPOST
  1

  9
$DIMALT
 70
     0
  9
$DIMALTD
 70
     3
  9
$DIMALTF
 40
0.0393700787401575
  9
$DIMLFAC
 40
1.0
  9
$DIMTOFL
 70
     1
  9
$DIMTVP
 40
0.0
  9
$DIMTIX
 70
     0
  9
$DIMSOXD
 70
     0
  9
$DIMSAH
 70
     0
  9
$DIMBLK1
  1

  9
$DIMBLK2
  1

  9
$DIMSTYLE
  2
ISO-25
  9
$DIMCLRD
 70
     0
  9
$DIMCLRE
 70
     0
  9
$DIMCLRT
 70
     0
  9
$DIMTFAC
 40
1.0
  9
$DIMGAP
 40
1.524
  9
$DIMJUST
 70
     0
  9
$DIMSD1
 70
     0
  9
$DIMSD2
 70
     0
  9
$DIMTOLJ
 70
     0
  9
$DIMTZIN
 70
     0
  9
$DIMALTZ
 70
     0
  9
$DIMALTTZ
 70
     0
  9
$DIMUPT
 70
     0
  9
$DIMDEC
 70
     2
  9
$DIMTDEC
 70
     2
  9
$DIMALTU
 70
     2
  9
$DIMALTTD
 70
     3
  9
$DIMTXSTY
  7
Standard
  9
$DIMAUNIT
 70
     0
  9
$DIMADEC
 70
     2
  9
$DIMALTRND
 40
0.0
  9
$DIMAZIN
 70
     0
  9
$DIMDSEP
 70
    44
  9
$DIMATFIT
 70
     3
  9
$DIMFRAC
 70
     0
  9
$DIMLDRBLK
  1

  9
$DIMLUNIT
 70
     2
  9
$DIMLWD
 70
    -2
  9
$DIMLWE
 70
    -2
  9
$DIMTMOVE
 70
     0
  9
$LUNITS
 70
     2
  9
$LUPREC
 70
     2
  9
$SKETCHINC
 40
1.0
  9
$FILLETRAD
 40
10.0
  9
$AUNITS
 70
     0
  9
$AUPREC
 70
     2
  9
$MENU
  1
.
  9
$ELEVATION
 40
0.0
  9
$PELEVATION
 40
0.0
  9
$THICKNESS
 40
0.0
  9
$LIMCHECK
 70
     0
  9
$CHAMFERA
 40
0.0
  9
$CHAMFERB
 40
0.0
  9
$CHAMFERC
 40
0.0
  9
$CHAMFERD
 40
0.0
  9
$SKPOLY
 70
     0
  9
$TDCREATE
 40
2458312.675468577
  9
$TDUCREATE
 40
2458312.300468577
  9
$TDUPDATE
 40
2458320.467373287
  9
$TDUUPDATE
 40
2458320.092373287
  9
$TDINDWG
 40
0.0015498958
  9
$TDUSRTIMER
 40
2458320.092082176
  9
$USRTIMER
 70
     1
  9
$ANGBASE
 50
0.0
  9
$ANGDIR
 70
     0
  9
$PDMODE
 70
     0
  9
$PDSIZE
 40
-1.0
  9
$PLINEWID
 40
0.0
  9
$SPLFRAME
 70
     0
  9
$SPLINETYPE
 70
     6
  9
$SPLINESEGS
 70
     8
  9
$HANDSEED
  5
31B
  9
$SURFTAB1
 70
     6
  9
$SURFTAB2
 70
     6
  9
$SURFTYPE
 70
     6
  9
$SURFU
 70
     6
  9
$SURFV
 70
     6
  9
$UCSBASE
  2

  9
$UCSNAME
  2

  9
$UCSORG
 10
0.0
 20
0.0
 30
0.0
  9
$UCSXDIR
 10
1.0
 20
0.0
 30
0.0
  9
$UCSYDIR
 10
0.0
 20
1.0
 30
0.0
  9
$UCSORTHOREF
  2

  9
$UCSORTHOVIEW
 70
     0
  9
$UCSORGTOP
 10
0.0
 20
0.0
 30
0.0
  9
$UCSORGBOTTOM
 10
0.0
 20
0.0
 30
0.0
  9
$UCSORGLEFT
 10
0.0
 20
0.0
 30
0.0
  9
$UCSORGRIGHT
 10
0.0
 20
0.0
 30
0.0
  9
$UCSORGFRONT
 10
0.0
 20
0.0
 30
0.0
  9
$UCSORGBACK
 10
0.0
 20
0.0
 30
0.0
  9
$PUCSBASE
  2

  9
$PUCSNAME
  2

  9
$PUCSORG
 10
0.0
 20
0.0
 30
0.0
  9
$PUCSXDIR
 10
1.0
 20
0.0
 30
0.0
  9
$PUCSYDIR
 10
0.0
 20
1.0
 30
0.0
  9
$PUCSORTHOREF
  2

  9
$PUCSORTHOVIEW
 70
     0
  9
$PUCSORGTOP
 10
0.0
 20
0.0
 30
0.0
  9
$PUCSORGBOTTOM
 10
0.0
 20
0.0
 30
0.0
  9
$PUCSORGLEFT
 10
0.0
 20
0.0
 30
0.0
  9
$PUCSORGRIGHT
 10
0.0
 20
0.0
 30
0.0
  9
$PUCSORGFRONT
 10
0.0
 20
0.0
 30
0.0
  9
$PUCSORGBACK
 10
0.0
 20
0.0
 30
0.0
  9
$USERI1
 70
     0
  9
$USERI2
 70
     0
  9
$USERI3
 70
     0
  9
$USERI4
 70
     0
  9
$USERI5
 70
     0
  9
$USERR1
 40
0.0
  9
$USERR2
 40
0.0
  9
$USERR3
 40
0.0
  9
$USERR4
 40
0.0
  9
$USERR5
 40
0.0
  9
$WORLDVIEW
 70
     1
  9
$SHADEDGE
 70
     3
  9
$SHADEDIF
 70
    70
  9
$TILEMODE
 70
     1
  9
$MAXACTVP
 70
    64
  9
$PINSBASE
 10
0.0
 20
0.0
 30
0.0
  9
$PLIMCHECK
 70
     0
  9
$PEXTMIN
 10
1.000000000000000E+20
 20
1.000000000000000E+20
 30
1.000000000000000E+20
  9
$PEXTMAX
 10
-1.000000000000000E+20
 20
-1.000000000000000E+20
 30
-1.000000000000000E+20
  9
$PLIMMIN
 10
0.0
 20
0.0
  9
$PLIMMAX
 10
0.0
 20
0.0
  9
$UNITMODE
 70
     0
  9
$VISRETAIN
 70
     1
  9
$PLINEGEN
 70
     0
  9
$PSLTSCALE
 70
     1
  9
$TREEDEPTH
 70
  3020
  9
$CMLSTYLE
  2
Standard
  9
$CMLJUST
 70
     0
  9
$CMLSCALE
 40
20.0
  9
$PROXYGRAPHICS
 70
     1
  9
$MEASUREMENT
 70
     1
  9
$CELWEIGHT
370
    -1
  9
$ENDCAPS
280
     0
  9
$JOINSTYLE
280
     0
  9
$LWDISPLAY
290
     1
  9
$INSUNITS
 70
     4
  9
$HYPERLINKBASE
  1

  9
$STYLESHEET
  1

  9
$XEDIT
290
     1
  9
$CEPSNTYPE
380
     0
  9
$PSTYLEMODE
290
     1
  9
$FINGERPRINTGUID
  2
{B8CD66A6-19B4-45FE-BBAA-BE805F3C9F69}
  9
$VERSIONGUID
  2
{FAEB1C32-E019-11D5-929B-00C0DF256EC4}
  9
$EXTNAMES
290
     1
  9
$PSVPSCALE
 40
0.0
  9
$OLESTARTUP
290
     0
  0
ENDSEC
  0
SECTION
  2
CLASSES
  0
CLASS
  1
ACDBDICTIONARYWDFLT
  2
AcDbDictionaryWithDefault
  3
ObjectDBX Classes
 90
        0
280
     0
281
     0
  0
CLASS
  1
VISUALSTYLE
  2
AcDbVisualStyle
  3
ObjectDBX Classes
 90
     4095
280
     0
281
     0
  0
CLASS
  1
MATERIAL
  2
AcDbMaterial
  3
ObjectDBX Classes
 90
     1153
280
     0
281
     0
  0
CLASS
  1
SCALE
  2
AcDbScale
  3
ObjectDBX Classes
 90
     1153
280
     0
281
     0
  0
CLASS
  1
SUN
  2
AcDbSun
  3
SCENEOE
 90
     1153
280
     0
281
     0
  0
CLASS
  1
ACDBPLACEHOLDER
  2
AcDbPlaceHolder
  3
ObjectDBX Classes
 90
        0
280
     0
281
     0
  0
CLASS
  1
LAYOUT
  2
AcDbLayout
  3
ObjectDBX Classes
 90
        0
280
     0
281
     0
  0
CLASS
  1
TABLESTYLE
  2
AcDbTableStyle
  3
ObjectDBX Classes
 90
     4095
280
     0
281
     0
  0
CLASS
  1
MLEADERSTYLE
  2
AcDbMLeaderStyle
  3
ACDB_MLEADERSTYLE_CLASS
 90
     4095
280
     0
281
     0
  0
CLASS
  1
RASTERVARIABLES
  2
AcDbRasterVariables
  3
ISM
 90
        0
280
     0
281
     0
  0
CLASS
  1
DIMASSOC
  2
AcDbDimAssoc
  3
"AcDbDimAssoc|Product Desc:     AcDim ARX App For Dimension|Company:          Autodesk, Inc.|WEB Address:      www.autodesk.com"
 90
        0
280
     0
281
     0
  0
ENDSEC
  0
SECTION
  2
TABLES
  0
TABLE
  2
VPORT
  5
8
330
0
100
AcDbSymbolTable
 70
     1
  0
VPORT
  5
29
330
8
100
AcDbSymbolTableRecord
100
AcDbViewportTableRecord
  2
*Active
 70
     0
 10
0.0
 20
0.0
 11
1.0
 21
1.0
 12
12.70173544100714
 22
18.66421375927597
 13
0.0
 23
0.0
 14
10.0
 24
10.0
 15
10.0
 25
10.0
 16
0.0
 26
0.0
 36
1.0
 17
0.0
 27
0.0
 37
0.0
 40
105.5440247836542
 41
1.632093933463796
 42
50.0
 43
0.0
 44
0.0
 50
0.0
 51
0.0
 71
    16
 72
  2000
 73
     1
 74
     3
 75
     0
 76
     0
 77
     0
 78
     0
281
     0
 65
     1
110
0.0
120
0.0
130
0.0
111
1.0
121
0.0
131
0.0
112
0.0
122
1.0
132
0.0
 79
     0
146
0.0
  0
ENDTAB
  0
TABLE
  2
LTYPE
  5
5
330
0
100
AcDbSymbolTable
 70
     6
  0
LTYPE
  5
14
330
5
100
AcDbSymbolTableRecord
100
AcDbLinetypeTableRecord
  2
ByBlock
 70
     0
  3

 72
    65
 73
     0
 40
0.0
  0
LTYPE
  5
15
330
5
100
AcDbSymbolTableRecord
100
AcDbLinetypeTableRecord
  2
ByLayer
 70
     0
  3

 72
    65
 73
     0
 40
0.0
  0
LTYPE
  5
16
330
5
100
AcDbSymbolTableRecord
100
AcDbLinetypeTableRecord
  2
Continuous
 70
     0
  3
Solid line
 72
    65
 73
     0
 40
0.0
  0
LTYPE
  5
6A
330
5
100
AcDbSymbolTableRecord
100
AcDbLinetypeTableRecord
  2
HIDDEN
 70
     0
  3
Hidden __ __ __ __ __ __ __ __ __ __ __ __ __ __
 72
    65
 73
     2
 40
1.905
 49
1.27
 74
     0
 49
-0.635
 74
     0
  0
LTYPE
  5
6B
330
5
100
AcDbSymbolTableRecord
100
AcDbLinetypeTableRecord
  2
PHANTOM
 70
     0
  3
Phantom ______  __  __  ______  __  __  ______
 72
    65
 73
     6
 40
12.7
 49
6.35
 74
     0
 49
-1.27
 74
     0
 49
1.27
 74
     0
 49
-1.27
 74
     0
 49
1.27
 74
     0
 49
-1.27
 74
     0
  0
LTYPE
  5
6C
330
5
100
AcDbSymbolTableRecord
100
AcDbLinetypeTableRecord
  2
CENTER
 70
     0
  3
Center ____ _ ____ _ ____ _ ____ _ ____ _ ____
 72
    65
 73
     4
 40
10.16
 49
6.35
 74
     0
 49
-1.27
 74
     0
 49
1.27
 74
     0
 49
-1.27
 74
     0
  0
LTYPE
  5
6D
330
5
100
AcDbSymbolTableRecord
100
AcDbLinetypeTableRecord
  2
CENTERX2
 70
     0
  3
Center (2x) ________  __  ________  __  _____
 72
    65
 73
     4
 40
20.32
 49
12.7
 74
     0
 49
-2.54
 74
     0
 49
2.54
 74
     0
 49
-2.54
 74
     0
  0
LTYPE
  5
6E
330
5
100
AcDbSymbolTableRecord
100
AcDbLinetypeTableRecord
  2
DOT2
 70
     0
  3
Dot (.5x) ........................................
 72
    65
 73
     2
 40
0.635
 49
0.0
 74
     0
 49
-0.635
 74
     0
  0
ENDTAB
  0
TABLE
  2
LAYER
  5
2
102
{ACAD_XDICTIONARY
360
205
102
}
330
0
100
AcDbSymbolTable
 70
    18
  0
LAYER
  5
10
330
2
100
AcDbSymbolTableRecord
100
AcDbLayerTableRecord
  2
0
 70
     0
 62
     7
  6
Continuous
370
    -3
390
F
  0
LAYER
  5
6F
330
2
100
AcDbSymbolTableRecord
100
AcDbLayerTableRecord
  2
FORMAT
 70
     0
 62
     2
  6
Continuous
370
    -3
390
F
  0
LAYER
  5
70
330
2
100
AcDbSymbolTableRecord
100
AcDbLayerTableRecord
  2
외형선
 70
     0
 62
     4
  6
Continuous
370
    30
390
F
  0
LAYER
  5
71
330
2
100
AcDbSymbolTableRecord
100
AcDbLayerTableRecord
  2
숨은선
 70
     0
 62
     2
  6
HIDDEN
370
    15
390
F
  0
LAYER
  5
72
330
2
100
AcDbSymbolTableRecord
100
AcDbLayerTableRecord
  2
중심선
 70
     0
 62
     1
  6
CENTERX2
370
    -3
390
F
  0
LAYER
  5
73
330
2
100
AcDbSymbolTableRecord
100
AcDbLayerTableRecord
  2
파단선
 70
     0
 62
     4
  6
Continuous
370
    -3
390
F
  0
LAYER
  5
74
330
2
100
AcDbSymbolTableRecord
100
AcDbLayerTableRecord
  2
해칭선
 70
     0
 62
   100
  6
Continuous
370
    -3
390
F
  0
LAYER
  5
75
330
2
100
AcDbSymbolTableRecord
100
AcDbLayerTableRecord
  2
가는실선
 70
     0
 62
     4
  6
Continuous
370
    -3
390
F
  0
LAYER
  5
76
330
2
100
AcDbSymbolTableRecord
100
AcDbLayerTableRecord
  2
치수_보조선
 70
     0
 62
     4
  6
Continuous
370
    -3
390
F
  0
LAYER
  5
77
330
2
100
AcDbSymbolTableRecord
100
AcDbLayerTableRecord
  2
치수문자_일반주서
 70
     0
 62
     7
  6
Continuous
370
    15
390
F
  0
LAYER
  5
78
330
2
100
AcDbSymbolTableRecord
100
AcDbLayerTableRecord
  2
개별주서
 70
     0
 62
   100
  6
Continuous
370
    30
390
F
  0
LAYER
  5
79
330
2
100
AcDbSymbolTableRecord
100
AcDbLayerTableRecord
  2
중간선
 70
     0
 62
     2
  6
Continuous
370
    15
390
F
  0
LAYER
  5
7A
330
2
100
AcDbSymbolTableRecord
100
AcDbLayerTableRecord
  2
윤곽선
 70
     0
 62
     3
  6
Continuous
370
    40
390
F
  0
LAYER
  5
7B
330
2
100
AcDbSymbolTableRecord
100
AcDbLayerTableRecord
  2
중심마크
 70
     0
 62
   100
  6
Continuous
370
    30
390
F
  0
LAYER
  5
7C
330
2
100
AcDbSymbolTableRecord
100
AcDbLayerTableRecord
  2
가상선
 70
     0
 62
     4
  6
PHANTOM
370
    -3
390
F
  0
LAYER
  5
7D
330
2
100
AcDbSymbolTableRecord
100
AcDbLayerTableRecord
  2
특수지정선
 70
     0
 62
     5
  6
CENTERX2
370
    60
390
F
  0
LAYER
  5
7E
330
2
100
AcDbSymbolTableRecord
100
AcDbLayerTableRecord
  2
참조1
 70
     0
 62
    -4
  6
Continuous
370
    -3
390
F
  0
LAYER
  5
15A
330
2
100
AcDbSymbolTableRecord
100
AcDbLayerTableRecord
  2
Defpoints
 70
     0
 62
     7
  6
Continuous
290
     0
370
    -3
390
F
  0
ENDTAB
  0
TABLE
  2
STYLE
  5
3
330
0
100
AcDbSymbolTable
 70
     2
  0
STYLE
  5
11
330
3
100
AcDbSymbolTableRecord
100
AcDbTextStyleTableRecord
  2
Standard
 70
     0
 40
0.0
 41
1.0
 50
0.0
 71
     0
 42
3.5
  3
txt
  4

  0
STYLE
  5
94
330
3
100
AcDbSymbolTableRecord
100
AcDbTextStyleTableRecord
  2
SLDTEXTSTYLE0
 70
     0
 40
0.0
 41
0.75
 50
0.0
 71
     0
 42
3.5
  3
TXT
  4

  0
ENDTAB
  0
TABLE
  2
VIEW
  5
6
330
0
100
AcDbSymbolTable
 70
     0
  0
ENDTAB
  0
TABLE
  2
UCS
  5
7
330
0
100
AcDbSymbolTable
 70
     0
  0
ENDTAB
  0
TABLE
  2
APPID
  5
9
330
0
100
AcDbSymbolTable
 70
     1
  0
APPID
  5
12
330
9
100
AcDbSymbolTableRecord
100
AcDbRegAppTableRecord
  2
ACAD
 70
     0
  0
ENDTAB
  0
TABLE
  2
DIMSTYLE
  5
A
330
0
100
AcDbSymbolTable
 70
     5
100
AcDbDimStyleTable
  0
DIMSTYLE
105
27
330
A
100
AcDbSymbolTableRecord
100
AcDbDimStyleTableRecord
  2
ISO-25
 70
     0
 41
2.5
 42
0.625
 43
3.75
 44
1.25
 73
     0
 74
     0
 77
     1
 78
     8
140
2.5
141
2.5
143
0.03937007874016
147
0.625
171
     3
172
     1
178
     0
271
     2
272
     2
274
     3
278
    44
283
     0
284
     8
340
11
  0
DIMSTYLE
105
D9
330
A
100
AcDbSymbolTableRecord
100
AcDbDimStyleTableRecord
  2
SLDDIMSTYLE0
 70
     0
 41
3.302
 44
0.0
 45
0.000000001
 73
     0
 74
     0
 77
     1
 78
     4
 79
     1
140
3.5
143
0.0393700787401575
147
0.875
148
0.000000001
170
     1
173
     1
178
     0
271
     2
272
     2
276
     2
284
    12
340
94
  0
DIMSTYLE
105
EE
102
{ACAD_REACTORS
330
ED
330
D8
330
101
330
2AA
102
}
330
A
100
AcDbSymbolTableRecord
100
AcDbDimStyleTableRecord
  2
SLDDIMSTYLE1
 70
     0
 41
3.302
 44
0.0
 45
0.000000001
 73
     0
 74
     0
 77
     1
 78
    12
 79
     3
140
3.5
143
0.0393700787401575
147
0.875
148
0.000000001
170
     1
173
     1
178
     0
271
     2
272
     2
276
     2
284
    12
340
94
  0
DIMSTYLE
105
102
330
A
100
AcDbSymbolTableRecord
100
AcDbDimStyleTableRecord
  2
SLDDIMSTYLE2
 70
     0
 41
3.302
 44
0.0
 45
0.000000001
 73
     0
 74
     0
 77
     1
 78
    12
 79
     3
140
3.5
143
0.0393700787401575
147
0.875
148
0.000000001
170
     1
172
     1
173
     1
178
     0
271
     2
272
     2
276
     2
284
    12
289
     0
340
94
  0
DIMSTYLE
105
117
330
A
100
AcDbSymbolTableRecord
100
AcDbDimStyleTableRecord
  2
SLDDIMSTYLE3
 70
     0
 41
3.302
 44
0.0
 45
0.000000001
 73
     0
 74
     0
 77
     1
 78
     8
 79
     2
140
3.5
143
0.0393700787401575
147
0.875
148
0.000000001
170
     1
172
     1
173
     1
178
     0
271
     2
272
     2
276
     2
284
    12
289
     0
340
94
341
118
343
118
344
118
  0
ENDTAB
  0
TABLE
  2
BLOCK_RECORD
  5
1
330
0
100
AcDbSymbolTable
 70
    18
  0
BLOCK_RECORD
  5
1F
330
1
100
AcDbSymbolTableRecord
100
AcDbBlockTableRecord
  2
*Model_Space
340
22
  0
BLOCK_RECORD
  5
1B
330
1
100
AcDbSymbolTableRecord
100
AcDbBlockTableRecord
  2
*Paper_Space
340
1E
  0
BLOCK_RECORD
  5
23
330
1
100
AcDbSymbolTableRecord
100
AcDbBlockTableRecord
  2
*Paper_Space0
340
26
  0
BLOCK_RECORD
  5
7F
330
1
100
AcDbSymbolTableRecord
100
AcDbBlockTableRecord
  2
블럭10
340
0
102
{BLKREFS
331
D1
102
}
  0
BLOCK_RECORD
  5
DA
330
1
100
AcDbSymbolTableRecord
100
AcDbBlockTableRecord
  2
_D
340
0
  0
BLOCK_RECORD
  5
EF
330
1
100
AcDbSymbolTableRecord
100
AcDbBlockTableRecord
  2
_D_1
340
0
  0
BLOCK_RECORD
  5
103
330
1
100
AcDbSymbolTableRecord
100
AcDbBlockTableRecord
  2
_D_2
340
0
  0
BLOCK_RECORD
  5
118
330
1
100
AcDbSymbolTableRecord
100
AcDbBlockTableRecord
  2
_NONE
340
0
  0
BLOCK_RECORD
  5
11B
330
1
100
AcDbSymbolTableRecord
100
AcDbBlockTableRecord
  2
_D_3
340
0
  0
BLOCK_RECORD
  5
12E
330
1
100
AcDbSymbolTableRecord
100
AcDbBlockTableRecord
  2
SW_DOWELSYMBOL_0
340
0
102
{BLKREFS
331
134
102
}
  0
BLOCK_RECORD
  5
1F1
330
1
100
AcDbSymbolTableRecord
100
AcDbBlockTableRecord
  2
*D8
340
0
  0
BLOCK_RECORD
  5
209
330
1
100
AcDbSymbolTableRecord
100
AcDbBlockTableRecord
  2
*D9
340
0
  0
BLOCK_RECORD
  5
215
330
1
100
AcDbSymbolTableRecord
100
AcDbBlockTableRecord
  2
*D10
340
0
  0
BLOCK_RECORD
  5
221
330
1
100
AcDbSymbolTableRecord
100
AcDbBlockTableRecord
  2
*D11
340
0
  0
BLOCK_RECORD
  5
277
330
1
100
AcDbSymbolTableRecord
100
AcDbBlockTableRecord
  2
*D12
340
0
  0
BLOCK_RECORD
  5
283
330
1
100
AcDbSymbolTableRecord
100
AcDbBlockTableRecord
  2
*D13
340
0
  0
BLOCK_RECORD
  5
28F
330
1
100
AcDbSymbolTableRecord
100
AcDbBlockTableRecord
  2
*D14
340
0
  0
BLOCK_RECORD
  5
29B
330
1
100
AcDbSymbolTableRecord
100
AcDbBlockTableRecord
  2
*D15
340
0
  0
BLOCK_RECORD
  5
2AD
330
1
100
AcDbSymbolTableRecord
100
AcDbBlockTableRecord
  2
*D16
340
0
  0
ENDTAB
  0
ENDSEC
  0
SECTION
  2
BLOCKS
  0
BLOCK
  5
20
330
1F
100
AcDbEntity
  8
0
100
AcDbBlockBegin
  2
*Model_Space
 70
     0
 10
0.0
 20
0.0
 30
0.0
  3
*Model_Space
  1
*Model_Space
  0
ENDBLK
  5
21
330
1F
100
AcDbEntity
  8
0
100
AcDbBlockEnd
  0
BLOCK
  5
1C
330
1B
100
AcDbEntity
 67
     1
  8
0
100
AcDbBlockBegin
  2
*Paper_Space
 70
     0
 10
0.0
 20
0.0
 30
0.0
  3
*Paper_Space
  1
*Paper_Space
  0
ENDBLK
  5
1D
330
1B
100
AcDbEntity
 67
     1
  8
0
100
AcDbBlockEnd
  0
BLOCK
  5
24
330
23
100
AcDbEntity
  8
0
100
AcDbBlockBegin
  2
*Paper_Space0
 70
     0
 10
0.0
 20
0.0
 30
0.0
  3
*Paper_Space0
  1
*Paper_Space0
  0
ENDBLK
  5
25
330
23
100
AcDbEntity
  8
0
100
AcDbBlockEnd
  0
BLOCK
  5
80
330
7F
100
AcDbEntity
  8
0
100
AcDbBlockBegin
  2
블럭10
 70
     2
 10
0.0
 20
0.0
 30
0.0
  3
블럭10
  1
블럭10
  0
ELLIPSE
  5
82
330
7F
100
AcDbEntity
  8
중심선
100
AcDbEllipse
 10
20.54032771741204
 20
12.0471743016438
 30
0.0
 11
6.600054785286829
 21
-1.261213355974178E-13
 31
0.0
210
0.0
220
0.0
230
1.0
 40
0.636358354079598
 41
0.9219305317359503
 42
6.513795318482858
  0
ELLIPSE
  5
83
330
7F
100
AcDbEntity
  8
중심선
100
AcDbEllipse
 10
20.54032771746488
 20
12.04717430159265
 30
0.0
 11
3.960054785062283
 21
1.540847449632565E-10
 31
0.0
210
0.0
220
0.0
230
1.0
 40
0.3939339440162632
 41
1.131841032648279
 42
5.62031148352944
  0
LINE
  5
84
330
7F
100
AcDbEntity
  8
중심선
100
AcDbLine
 10
2.268634060543552
 20
16.24717430164393
 30
0.0
 11
5.714909304380834
 21
16.24717430164393
 31
0.0
  0
LINE
  5
85
330
7F
100
AcDbEntity
  8
중심선
100
AcDbLine
 10
5.245725140726316
 20
7.84717430164391
 30
0.0
 11
8.692000384563599
 21
7.84717430164391
 31
0.0
  0
LINE
  5
86
330
7F
100
AcDbEntity
  8
중심선
100
AcDbLine
 10
15.74043728645272
 20
16.24717430164393
 30
0.0
 11
8.692000384563599
 21
7.84717430164391
 31
0.0
  0
LINE
  5
87
330
7F
100
AcDbEntity
  8
중심선
100
AcDbLine
 10
0.1404042013395286
 20
13.71084872107135
 30
0.0
 11
3.58671253028996
 21
13.71088815037384
 31
0.0
  0
LINE
  5
88
330
7F
100
AcDbEntity
  8
중심선
100
AcDbLine
 10
2.750260043222114
 20
10.84717430164391
 30
0.0
 11
6.196535287059397
 21
10.84717430164391
 31
0.0
  0
LINE
  5
89
330
7F
100
AcDbEntity
  8
중심선
100
AcDbLine
 10
12.29416204261559
 20
16.24717430164393
 30
0.0
 11
5.245725140726316
 21
7.84717430164391
 31
0.0
  0
LINE
  5
8A
330
7F
100
AcDbEntity
  8
중심선
100
AcDbLine
 10
10.72767329541681
 20
16.24717430164393
 30
0.0
 11
6.196535287059397
 21
10.84717430164391
 31
0.0
  0
LINE
  5
8B
330
7F
100
AcDbEntity
  8
중심선
100
AcDbLine
 10
7.28139805157953
 20
16.24717430164393
 30
0.0
 11
2.750260043222114
 21
10.84717430164391
 31
0.0
  0
LINE
  5
8C
330
7F
100
AcDbEntity
  8
중심선
100
AcDbLine
 10
5.714909304380834
 20
16.24717430164393
 30
0.0
 11
3.58671253028996
 21
13.71088815037384
 31
0.0
  0
LINE
  5
8D
330
7F
100
AcDbEntity
  8
중심선
100
AcDbLine
 10
2.268634060543552
 20
16.24717430164393
 30
0.0
 11
0.1404042013395286
 21
13.71084872107135
 31
0.0
  0
LINE
  5
8E
330
7F
100
AcDbEntity
  8
중심선
100
AcDbLine
 10
7.28139805157953
 20
16.24717430164393
 30
0.0
 11
10.72767329541681
 21
16.24717430164393
 31
0.0
  0
LINE
  5
8F
330
7F
100
AcDbEntity
  8
중심선
100
AcDbLine
 10
12.29416204261559
 20
16.24717430164393
 30
0.0
 11
15.74043728645272
 21
16.24717430164393
 31
0.0
  0
LINE
  5
90
330
7F
100
AcDbEntity
  8
중심선
100
AcDbLine
 10
19.22036997980202
 20
11.08717430171403
 30
0.0
 11
23.66174974927406
 21
11.08717430171406
 31
0.0
  0
LINE
  5
91
330
7F
100
AcDbEntity
  8
중심선
100
AcDbLine
 10
19.22039502424796
 20
13.00717430171391
 30
0.0
 11
19.22036997980202
 21
11.08717430171403
 31
0.0
  0
LINE
  5
92
330
7F
100
AcDbEntity
  8
중심선
100
AcDbLine
 10
19.22039502424796
 20
13.00717430171391
 30
0.0
 11
26.96566020931264
 21
13.00717430171391
 31
0.0
  0
LINE
  5
93
330
7F
100
AcDbEntity
  8
중심선
100
AcDbLine
 10
22.22332737316547
 20
13.45928029700563
 30
0.0
 11
24.52862924686651
 21
15.39360700705356
 31
0.0
  0
ATTDEF
  5
95
330
7F
100
AcDbEntity
  8
FORMAT
 62
     2
100
AcDbText
 10
4.408487351596664
 20
2.075366912832191
 30
0.0
 40
4.233333333333333
  1
E2036020
 41
0.75
  7
SLDTEXTSTYLE0
 11
4.408487351596664
 21
-0.0412997538344756
 31
0.0
100
AcDbAttributeDefinition
  3

  2
AUTOATTR0
 70
     0
 74
     1
  0
ENDBLK
  5
81
330
7F
100
AcDbEntity
  8
0
100
AcDbBlockEnd
  0
BLOCK
  5
DB
330
DA
100
AcDbEntity
  8
0
100
AcDbBlockBegin
  2
_D
 70
     0
 10
0.0
 20
0.0
 30
0.0
  3
_D
  1
_D
  0
LINE
  5
DD
330
DA
100
AcDbEntity
  8
치수문자_일반주서
 62
     0
370
    -2
100
AcDbLine
 10
56.76231532850781
 20
4.032324928723901
 30
0.0
 11
56.76231532850781
 21
17.13606809980073
 31
0.0
  0
LINE
  5
DE
330
DA
100
AcDbEntity
  8
치수문자_일반주서
 62
     0
370
    -2
100
AcDbLine
 10
5.962315328507799
 20
4.030969916899158
 30
0.0
 11
5.962315328507799
 21
17.13606809980073
 31
0.0
  0
LINE
  5
DF
330
DA
100
AcDbEntity
  8
치수문자_일반주서
 62
     0
370
    -2
100
AcDbLine
 10
53.46031532850781
 20
17.13606809980073
 30
0.0
 11
9.264315328507799
 21
17.13606809980073
 31
0.0
  0
SOLID
  5
E0
330
DA
100
AcDbEntity
  8
치수문자_일반주서
 62
     0
100
AcDbTrace
 10
53.46031532850781
 20
16.5857347664674
 30
0.0
 11
53.46031532850781
 21
17.68640143313407
 31
0.0
 12
56.76231532850781
 22
17.13606809980073
 32
0.0
 13
56.76231532850781
 23
17.13606809980073
 33
0.0
  0
SOLID
  5
E1
330
DA
100
AcDbEntity
  8
치수문자_일반주서
 62
     0
100
AcDbTrace
 10
9.264315328507799
 20
17.68640143313407
 30
0.0
 11
9.264315328507799
 21
16.5857347664674
 31
0.0
 12
5.962315328507799
 22
17.13606809980073
 32
0.0
 13
5.962315328507799
 23
17.13606809980073
 33
0.0
  0
MTEXT
  5
E2
330
DA
100
AcDbEntity
  8
치수문자_일반주서
 62
     0
100
AcDbMText
 10
31.36231532850779
 20
21.51106809980073
 30
0.0
 40
3.5
 41
0.0
 71
     2
 72
     1
  1
\A1;50.8 [2]
  7
SLDTEXTSTYLE0
 73
     1
 44
1.0
  0
POINT
  5
E3
330
DA
100
AcDbEntity
  8
Defpoints
 62
     0
100
AcDbPoint
 10
56.76231532850781
 20
3.969824928723901
 30
0.0
  0
POINT
  5
E4
330
DA
100
AcDbEntity
  8
Defpoints
 62
     0
100
AcDbPoint
 10
5.962315328507799
 20
3.968469916899158
 30
0.0
  0
POINT
  5
E5
330
DA
100
AcDbEntity
  8
Defpoints
 62
     0
100
AcDbPoint
 10
5.962315328507799
 20
17.13606809980073
 30
0.0
  0
ENDBLK
  5
DC
330
DA
100
AcDbEntity
  8
0
100
AcDbBlockEnd
  0
BLOCK
  5
F0
330
EF
100
AcDbEntity
  8
0
100
AcDbBlockBegin
  2
_D_1
 70
     0
 10
0.0
 20
0.0
 30
0.0
  3
_D_1
  1
_D_1
  0
LINE
  5
F2
330
EF
100
AcDbEntity
  8
치수문자_일반주서
 62
     0
370
    -2
100
AcDbLine
 10
56.76231532850781
 20
4.032324928723901
 30
0.0
 11
56.76231532850781
 21
32.85727329760351
 31
0.0
  0
LINE
  5
F3
330
EF
100
AcDbEntity
  8
치수문자_일반주서
 62
     0
370
    -2
100
AcDbLine
 10
-38.48768467149219
 20
3.873574928723895
 30
0.0
 11
-38.48768467149219
 21
32.85727329760351
 31
0.0
  0
LINE
  5
F4
330
EF
100
AcDbEntity
  8
치수문자_일반주서
 62
     0
370
    -2
100
AcDbLine
 10
53.46031532850781
 20
32.85727329760351
 30
0.0
 11
-35.18568467149219
 21
32.85727329760351
 31
0.0
  0
SOLID
  5
F5
330
EF
100
AcDbEntity
  8
치수문자_일반주서
 62
     0
100
AcDbTrace
 10
53.46031532850781
 20
32.30693996427018
 30
0.0
 11
53.46031532850781
 21
33.40760663093685
 31
0.0
 12
56.76231532850781
 22
32.85727329760351
 32
0.0
 13
56.76231532850781
 23
32.85727329760351
 33
0.0
  0
SOLID
  5
F6
330
EF
100
AcDbEntity
  8
치수문자_일반주서
 62
     0
100
AcDbTrace
 10
-35.18568467149219
 20
33.40760663093685
 30
0.0
 11
-35.18568467149219
 21
32.30693996427018
 31
0.0
 12
-38.48768467149219
 22
32.85727329760351
 32
0.0
 13
-38.48768467149219
 23
32.85727329760351
 33
0.0
  0
MTEXT
  5
F7
330
EF
100
AcDbEntity
  8
치수문자_일반주서
 62
     0
100
AcDbMText
 10
9.137315328507809
 20
37.23227329760351
 30
0.0
 40
3.5
 41
0.0
 71
     2
 72
     1
  1
\A1;95.25 [3 3/4]
  7
SLDTEXTSTYLE0
 73
     1
 44
1.0
  0
POINT
  5
F8
330
EF
100
AcDbEntity
  8
Defpoints
 62
     0
100
AcDbPoint
 10
56.76231532850781
 20
3.969824928723901
 30
0.0
  0
POINT
  5
F9
330
EF
100
AcDbEntity
  8
Defpoints
 62
     0
100
AcDbPoint
 10
-38.48768467149219
 20
3.811074928723895
 30
0.0
  0
POINT
  5
FA
330
EF
100
AcDbEntity
  8
Defpoints
 62
     0
100
AcDbPoint
 10
-38.48768467149219
 20
32.85727329760351
 30
0.0
  0
ENDBLK
  5
F1
330
EF
100
AcDbEntity
  8
0
100
AcDbBlockEnd
  0
BLOCK
  5
104
330
103
100
AcDbEntity
  8
0
100
AcDbBlockBegin
  2
_D_2
 70
     0
 10
0.0
 20
0.0
 30
0.0
  3
_D_2
  1
_D_2
  0
LINE
  5
106
330
103
100
AcDbEntity
  8
치수문자_일반주서
 62
     0
370
    -2
100
AcDbLine
 10
-37.5976846714922
 20
4.763574928723896
 30
0.0
 11
-49.78845750931941
 21
4.76357492872385
 31
0.0
  0
LINE
  5
107
330
103
100
AcDbEntity
  8
치수문자_일반주서
 62
     0
370
    -2
100
AcDbLine
 10
-37.5976846714922
 20
-4.761425071276109
 30
0.0
 11
-49.78845750931937
 21
-4.761425071276156
 31
0.0
  0
LINE
  5
108
330
103
100
AcDbEntity
  8
치수문자_일반주서
 62
     0
370
    -2
100
AcDbLine
 10
-49.78845750931939
 20
1.46157492872385
 30
0.0
 11
-49.78845750931939
 21
-1.459425071276156
 31
0.0
  0
SOLID
  5
109
330
103
100
AcDbEntity
  8
치수문자_일반주서
 62
     0
100
AcDbTrace
 10
-49.23812417598606
 20
1.461574928723852
 30
0.0
 11
-50.33879084265273
 21
1.461574928723848
 31
0.0
 12
-49.78845750931941
 22
4.76357492872385
 32
0.0
 13
-49.78845750931941
 23
4.76357492872385
 33
0.0
  0
SOLID
  5
10A
330
103
100
AcDbEntity
  8
치수문자_일반주서
 62
     0
100
AcDbTrace
 10
-50.33879084265272
 20
-1.459425071276158
 30
0.0
 11
-49.23812417598605
 21
-1.459425071276154
 31
0.0
 12
-49.78845750931937
 22
-4.761425071276156
 32
0.0
 13
-49.78845750931937
 23
-4.761425071276156
 33
0.0
  0
MTEXT
  5
10B
330
103
100
AcDbEntity
  8
치수문자_일반주서
 62
     0
100
AcDbMText
 10
-54.16345750931939
 20
0.0010749287238796
 30
0.0
 40
3.5
 41
0.0
 71
     2
 72
     1
  1
\A1;%%c9.53 [3/8]
  7
SLDTEXTSTYLE0
 11
-3.729883127349605E-15
 21
1.0
 31
0.0
 73
     1
 44
1.0
  0
POINT
  5
10C
330
103
100
AcDbEntity
  8
Defpoints
 62
     0
100
AcDbPoint
 10
-37.5351846714922
 20
4.763574928723896
 30
0.0
  0
POINT
  5
10D
330
103
100
AcDbEntity
  8
Defpoints
 62
     0
100
AcDbPoint
 10
-37.5351846714922
 20
-4.761425071276109
 30
0.0
  0
POINT
  5
10E
330
103
100
AcDbEntity
  8
Defpoints
 62
     0
100
AcDbPoint
 10
-49.78845750931937
 20
-4.761425071276156
 30
0.0
  0
ENDBLK
  5
105
330
103
100
AcDbEntity
  8
0
100
AcDbBlockEnd
  0
BLOCK
  5
119
330
118
100
AcDbEntity
  8
0
100
AcDbBlockBegin
  2
_NONE
 70
     0
 10
0.0
 20
0.0
 30
0.0
  3
_NONE
  1
_NONE
  0
ENDBLK
  5
11A
330
118
100
AcDbEntity
  8
0
100
AcDbBlockEnd
  0
BLOCK
  5
11C
330
11B
100
AcDbEntity
  8
0
100
AcDbBlockBegin
  2
_D_3
 70
     0
 10
0.0
 20
0.0
 30
0.0
  3
_D_3
  1
_D_3
  0
LINE
  5
11E
330
11B
100
AcDbEntity
  8
치수문자_일반주서
100
AcDbLine
 10
-8.884833931663604
 20
-2.238291502344711
 30
0.0
 11
-8.884833931663604
 21
-2.949228987909211
 31
0.0
  0
LINE
  5
11F
330
11B
100
AcDbEntity
  8
치수문자_일반주서
100
AcDbLine
 10
-8.884833931663604
 20
-2.949228987909211
 30
0.0
 11
-3.328583940604301
 21
-2.949228987909211
 31
0.0
  0
LINE
  5
120
330
11B
100
AcDbEntity
  8
치수문자_일반주서
100
AcDbLine
 10
-3.328583940604301
 20
-2.949228987909211
 30
0.0
 11
-3.328583940604301
 21
-2.238291502344711
 31
0.0
  0
LINE
  5
121
330
11B
100
AcDbEntity
  8
치수문자_일반주서
100
AcDbLine
 10
-8.884833931663604
 20
8.590441359792548
 30
0.0
 11
-8.884833931663604
 21
9.301378845357048
 31
0.0
  0
LINE
  5
122
330
11B
100
AcDbEntity
  8
치수문자_일반주서
100
AcDbLine
 10
-8.884833931663604
 20
9.301378845357048
 30
0.0
 11
-3.328583940604301
 21
9.301378845357048
 31
0.0
  0
LINE
  5
123
330
11B
100
AcDbEntity
  8
치수문자_일반주서
100
AcDbLine
 10
-3.328583940604301
 20
9.301378845357048
 30
0.0
 11
-3.328583940604301
 21
8.590441359792548
 31
0.0
  0
MTEXT
  5
124
330
11B
100
AcDbEntity
  8
치수문자_일반주서
100
AcDbMText
 10
-7.840320855183196
 20
-1.34961960173334
 30
0.0
 40
3.5
 41
0.0
 71
     1
 72
     1
  1
0.00
  7
SLDTEXTSTYLE0
 11
6.123233995736766E-17
 21
1.0
 31
0.0
 73
     1
 44
1.0
  0
MTEXT
  5
125
330
11B
100
AcDbEntity
  8
치수문자_일반주서
100
AcDbMText
 10
-2.603689304822725
 20
-0.7561994836398495
 30
0.0
 40
3.5
 41
0.0
 71
     1
 72
     1
  1
%%c
  7
SLDTEXTSTYLE0
 11
6.123233995736766E-17
 21
1.0
 31
0.0
 73
     1
 44
1.0
  0
MTEXT
  5
126
330
11B
100
AcDbEntity
  8
치수문자_일반주서
100
AcDbMText
 10
-2.603689304822725
 20
4.522237914734231
 30
0.0
 40
3.5
 41
0.0
 71
     1
 72
     1
  1
0
  7
SLDTEXTSTYLE0
 11
6.123233995736766E-17
 21
1.0
 31
0.0
 73
     1
 44
1.0
  0
ENDBLK
  5
11D
330
11B
100
AcDbEntity
  8
0
100
AcDbBlockEnd
  0
BLOCK
  5
12F
330
12E
100
AcDbEntity
  8
0
100
AcDbBlockBegin
  2
SW_DOWELSYMBOL_0
 70
     0
 10
0.0
 20
0.0
 30
0.0
  3
SW_DOWELSYMBOL_0
  1
SW_DOWELSYMBOL_0
  0
CIRCLE
  5
131
330
12E
100
AcDbEntity
  8
해칭선
 62
     0
100
AcDbCircle
 10
0.0
 20
0.0
 30
0.0
 40
3.000000000000001
  0
HATCH
  5
132
330
12E
100
AcDbEntity
  8
0
  6
Continuous
 62
     0
370
     0
100
AcDbHatch
 10
0.0
 20
0.0
 30
0.0
210
0.0
220
0.0
230
1.0
  2
SOLID
 70
     1
 71
     0
 91
        1
 92
        0
 93
        3
 72
     2
 10
0.0
 20
0.0
 40
3.000000000000001
 50
0.0
 51
90.0
 73
     1
 72
     1
 10
0.0
 20
3.000000000000001
 11
0.0
 21
0.0
 72
     1
 10
0.0
 20
0.0
 11
3.000000000000001
 21
0.0
 97
        0
 75
     0
 76
     1
 98
        1
 10
0.0
 20
0.0
  0
HATCH
  5
133
330
12E
100
AcDbEntity
  8
0
  6
Continuous
 62
     0
370
     0
100
AcDbHatch
 10
0.0
 20
0.0
 30
0.0
210
0.0
220
0.0
230
1.0
  2
SOLID
 70
     1
 71
     0
 91
        1
 92
        0
 93
        3
 72
     2
 10
0.0
 20
0.0
 40
3.000000000000001
 50
180.0
 51
270.0000000000007
 73
     1
 72
     1
 10
0.0
 20
-3.000000000000001
 11
0.0
 21
0.0
 72
     1
 10
0.0
 20
0.0
 11
-3.000000000000001
 21
0.0
 97
        0
 75
     0
 76
     1
 98
        1
 10
0.0
 20
0.0
  0
ENDBLK
  5
130
330
12E
100
AcDbEntity
  8
0
100
AcDbBlockEnd
  0
BLOCK
  5
1F2
330
1F1
100
AcDbEntity
  8
0
100
AcDbBlockBegin
  2
*D8
 70
     1
 10
0.0
 20
0.0
 30
0.0
  3
*D8
  1
*D9
  0
LINE
  5
1F3
330
1F1
100
AcDbEntity
  8
치수문자_일반주서
 62
     0
370
    -2
100
AcDbLine
 10
106.2257728378273
 20
15.42500000000002
 30
0.0
 11
121.5553361698955
 21
15.42500000000002
 31
0.0
  0
LINE
  5
1F4
330
1F1
100
AcDbEntity
  8
치수문자_일반주서
 62
     0
370
    -2
100
AcDbLine
 10
106.2257728378273
 20
9.075000000000019
 30
0.0
 11
121.5553361698955
 21
9.075000000000017
 31
0.0
  0
LINE
  5
1F5
330
1F1
100
AcDbEntity
  8
치수문자_일반주서
 62
     0
370
    -2
100
AcDbLine
 10
121.5553361698955
 20
15.42500000000002
 30
0.0
 11
121.5553361698955
 21
46.08254215269314
 31
0.0
  0
LINE
  5
1F6
330
1F1
100
AcDbEntity
  8
치수문자_일반주서
 62
     0
370
    -2
100
AcDbLine
 10
121.5553361698955
 20
18.72700000000002
 30
0.0
 11
121.5553361698955
 21
22.02900000000002
 31
0.0
  0
LINE
  5
1F7
330
1F1
100
AcDbEntity
  8
치수문자_일반주서
 62
     0
370
    -2
100
AcDbLine
 10
121.5553361698955
 20
5.773000000000017
 30
0.0
 11
121.5553361698955
 21
2.471000000000018
 31
0.0
  0
SOLID
  5
1F8
330
1F1
100
AcDbEntity
  8
치수문자_일반주서
 62
     0
100
AcDbTrace
 10
121.0050028365621
 20
18.72700000000002
 30
0.0
 11
122.1056695032288
 21
18.72700000000002
 31
0.0
 12
121.5553361698955
 22
15.42500000000002
 32
0.0
 13
121.5553361698955
 23
15.42500000000002
 33
0.0
  0
SOLID
  5
1F9
330
1F1
100
AcDbEntity
  8
치수문자_일반주서
 62
     0
100
AcDbTrace
 10
122.1056695032288
 20
5.773000000000017
 30
0.0
 11
121.0050028365621
 21
5.773000000000017
 31
0.0
 12
121.5553361698955
 22
9.075000000000017
 32
0.0
 13
121.5553361698955
 23
9.075000000000017
 33
0.0
  0
MTEXT
  5
1FA
330
1F1
100
AcDbEntity
  8
치수문자_일반주서
 62
     0
100
AcDbMText
 10
118.9303361698955
 20
34.70754215269314
 30
0.0
 40
3.5
 41
0.0
 71
     5
 72
     1
  1
\A1;6.35 [1/4]
  7
SLDTEXTSTYLE0
 11
0.0
 21
1.0
 31
0.0
 73
     1
 44
1.0
  0
POINT
  5
1FB
330
1F1
100
AcDbEntity
  8
Defpoints
 62
     0
100
AcDbPoint
 10
106.1632728378273
 20
15.42500000000002
 30
0.0
  0
POINT
  5
1FC
330
1F1
100
AcDbEntity
  8
Defpoints
 62
     0
100
AcDbPoint
 10
106.1632728378273
 20
9.075000000000019
 30
0.0
  0
POINT
  5
1FD
330
1F1
100
AcDbEntity
  8
Defpoints
 62
     0
100
AcDbPoint
 10
121.5553361698955
 20
9.075000000000017
 30
0.0
  0
ENDBLK
  5
1FF
330
1F1
100
AcDbEntity
  8
0
100
AcDbBlockEnd
  0
BLOCK
  5
20A
330
209
100
AcDbEntity
  8
0
100
AcDbBlockBegin
  2
*D9
 70
     1
 10
0.0
 20
0.0
 30
0.0
  3
*D9
  1
*D10
  0
LINE
  5
20C
330
209
100
AcDbEntity
  8
치수문자_일반주서
 62
     0
370
    -2
100
AcDbLine
 10
106.1632728378273
 20
15.48750000000002
 30
0.0
 11
106.1632728378273
 21
28.59416211405124
 31
0.0
  0
LINE
  5
20D
330
209
100
AcDbEntity
  8
치수문자_일반주서
 62
     0
370
    -2
100
AcDbLine
 10
61.71327283782725
 20
15.33168618829151
 30
0.0
 11
61.71327283782725
 21
28.59416211405124
 31
0.0
  0
LINE
  5
20E
330
209
100
AcDbEntity
  8
치수문자_일반주서
 62
     0
370
    -2
100
AcDbLine
 10
102.8612728378272
 20
28.59416211405124
 30
0.0
 11
65.01527283782724
 21
28.59416211405124
 31
0.0
  0
SOLID
  5
20F
330
209
100
AcDbEntity
  8
치수문자_일반주서
 62
     0
100
AcDbTrace
 10
102.8612728378272
 20
28.0438287807179
 30
0.0
 11
102.8612728378272
 21
29.14449544738457
 31
0.0
 12
106.1632728378273
 22
28.59416211405124
 32
0.0
 13
106.1632728378273
 23
28.59416211405124
 33
0.0
  0
SOLID
  5
210
330
209
100
AcDbEntity
  8
치수문자_일반주서
 62
     0
100
AcDbTrace
 10
65.01527283782724
 20
29.14449544738457
 30
0.0
 11
65.01527283782724
 21
28.0438287807179
 31
0.0
 12
61.71327283782725
 22
28.59416211405124
 32
0.0
 13
61.71327283782725
 23
28.59416211405124
 33
0.0
  0
MTEXT
  5
211
330
209
100
AcDbEntity
  8
치수문자_일반주서
 62
     0
100
AcDbMText
 10
83.93827283782726
 20
32.96916211405124
 30
0.0
 40
3.5
 41
0.0
 71
     2
 72
     1
  1
\A1;44.45 [1 3/4]
  7
SLDTEXTSTYLE0
 73
     1
 44
1.0
  0
POINT
  5
212
330
209
100
AcDbEntity
  8
Defpoints
 62
     0
100
AcDbPoint
 10
106.1632728378273
 20
15.42500000000002
 30
0.0
  0
POINT
  5
213
330
209
100
AcDbEntity
  8
Defpoints
 62
     0
100
AcDbPoint
 10
61.71327283782725
 20
15.26918618829151
 30
0.0
  0
POINT
  5
214
330
209
100
AcDbEntity
  8
Defpoints
 62
     0
100
AcDbPoint
 10
61.71327283782725
 20
28.59416211405124
 30
0.0
  0
ENDBLK
  5
20B
330
209
100
AcDbEntity
  8
0
100
AcDbBlockEnd
  0
BLOCK
  5
216
330
215
100
AcDbEntity
  8
0
100
AcDbBlockBegin
  2
*D10
 70
     1
 10
0.0
 20
0.0
 30
0.0
  3
*D10
  1
*D11
  0
LINE
  5
218
330
215
100
AcDbEntity
  8
치수문자_일반주서
 62
     0
370
    -2
100
AcDbLine
 10
106.1632728378273
 20
15.48750000000002
 30
0.0
 11
106.1632728378273
 21
44.31536731185402
 31
0.0
  0
LINE
  5
219
330
215
100
AcDbEntity
  8
치수문자_일반주서
 62
     0
370
    -2
100
AcDbLine
 10
15.67577283782725
 20
16.12250000000001
 30
0.0
 11
15.67577283782725
 21
44.31536731185402
 31
0.0
  0
LINE
  5
21A
330
215
100
AcDbEntity
  8
치수문자_일반주서
 62
     0
370
    -2
100
AcDbLine
 10
102.8612728378272
 20
44.31536731185402
 30
0.0
 11
18.97777283782725
 21
44.31536731185402
 31
0.0
  0
SOLID
  5
21B
330
215
100
AcDbEntity
  8
치수문자_일반주서
 62
     0
100
AcDbTrace
 10
102.8612728378272
 20
43.76503397852068
 30
0.0
 11
102.8612728378272
 21
44.86570064518735
 31
0.0
 12
106.1632728378273
 22
44.31536731185402
 32
0.0
 13
106.1632728378273
 23
44.31536731185402
 33
0.0
  0
SOLID
  5
21C
330
215
100
AcDbEntity
  8
치수문자_일반주서
 62
     0
100
AcDbTrace
 10
18.97777283782725
 20
44.86570064518735
 30
0.0
 11
18.97777283782725
 21
43.76503397852068
 31
0.0
 12
15.67577283782725
 22
44.31536731185402
 32
0.0
 13
15.67577283782725
 23
44.31536731185402
 33
0.0
  0
MTEXT
  5
21D
330
215
100
AcDbEntity
  8
치수문자_일반주서
 62
     0
100
AcDbMText
 10
60.91952283782724
 20
48.69036731185402
 30
0.0
 40
3.5
 41
0.0
 71
     2
 72
     1
  1
\A1;90.49 [3 9/16]
  7
SLDTEXTSTYLE0
 73
     1
 44
1.0
  0
POINT
  5
21E
330
215
100
AcDbEntity
  8
Defpoints
 62
     0
100
AcDbPoint
 10
106.1632728378273
 20
15.42500000000002
 30
0.0
  0
POINT
  5
21F
330
215
100
AcDbEntity
  8
Defpoints
 62
     0
100
AcDbPoint
 10
15.67577283782725
 20
16.06000000000001
 30
0.0
  0
POINT
  5
220
330
215
100
AcDbEntity
  8
Defpoints
 62
     0
100
AcDbPoint
 10
15.67577283782725
 20
44.31536731185402
 30
0.0
  0
ENDBLK
  5
217
330
215
100
AcDbEntity
  8
0
100
AcDbBlockEnd
  0
BLOCK
  5
222
330
221
100
AcDbEntity
  8
0
100
AcDbBlockBegin
  2
*D11
 70
     1
 10
0.0
 20
0.0
 30
0.0
  3
*D11
  1
*D12
  0
LINE
  5
224
330
221
100
AcDbEntity
  8
치수문자_일반주서
 62
     0
370
    -2
100
AcDbLine
 10
16.56577283782725
 20
17.01250000000001
 30
0.0
 11
4.375000000000034
 21
17.01249999999997
 31
0.0
  0
LINE
  5
225
330
221
100
AcDbEntity
  8
치수문자_일반주서
 62
     0
370
    -2
100
AcDbLine
 10
16.56577283782725
 20
7.487500000000008
 30
0.0
 11
4.375000000000067
 21
7.487499999999962
 31
0.0
  0
LINE
  5
226
330
221
100
AcDbEntity
  8
치수문자_일반주서
 62
     0
370
    -2
100
AcDbLine
 10
4.375000000000045
 20
13.71049999999997
 30
0.0
 11
4.375000000000055
 21
10.78949999999996
 31
0.0
  0
SOLID
  5
227
330
221
100
AcDbEntity
  8
치수문자_일반주서
 62
     0
100
AcDbTrace
 10
4.925333333333379
 20
13.71049999999997
 30
0.0
 11
3.824666666666712
 21
13.71049999999997
 31
0.0
 12
4.375000000000034
 22
17.01249999999997
 32
0.0
 13
4.375000000000034
 23
17.01249999999997
 33
0.0
  0
SOLID
  5
228
330
221
100
AcDbEntity
  8
치수문자_일반주서
 62
     0
100
AcDbTrace
 10
3.824666666666722
 20
10.78949999999996
 30
0.0
 11
4.925333333333389
 21
10.78949999999996
 31
0.0
 12
4.375000000000067
 22
7.487499999999962
 32
0.0
 13
4.375000000000067
 23
7.487499999999962
 33
0.0
  0
MTEXT
  5
229
330
221
100
AcDbEntity
  8
치수문자_일반주서
 62
     0
100
AcDbMText
 10
0.0000000000000497
 20
12.25
 30
0.0
 40
3.5
 41
0.0
 71
     2
 72
     1
  1
\A1;%%c9.53 [3/8]
  7
SLDTEXTSTYLE0
 11
-3.450141892798385E-15
 21
1.0
 31
0.0
 73
     1
 44
1.0
  0
POINT
  5
22A
330
221
100
AcDbEntity
  8
Defpoints
 62
     0
100
AcDbPoint
 10
16.62827283782725
 20
17.01250000000001
 30
0.0
  0
POINT
  5
22B
330
221
100
AcDbEntity
  8
Defpoints
 62
     0
100
AcDbPoint
 10
16.62827283782725
 20
7.487500000000008
 30
0.0
  0
POINT
  5
22C
330
221
100
AcDbEntity
  8
Defpoints
 62
     0
100
AcDbPoint
 10
4.375000000000071
 20
7.487499999999962
 30
0.0
  0
ENDBLK
  5
223
330
221
100
AcDbEntity
  8
0
100
AcDbBlockEnd
  0
BLOCK
  5
278
330
277
100
AcDbEntity
  8
0
100
AcDbBlockBegin
  2
*D12
 70
     1
 10
0.0
 20
0.0
 30
0.0
  3
*D12
  1
*D13
  0
LINE
  5
27A
330
277
100
AcDbEntity
  8
치수문자_일반주서
 62
     0
370
    -2
100
AcDbLine
 10
173.9133693248826
 20
-28.87812756990596
 30
0.0
 11
173.9133693248826
 21
-15.77146545585475
 31
0.0
  0
LINE
  5
27B
330
277
100
AcDbEntity
  8
치수문자_일반주서
 62
     0
370
    -2
100
AcDbLine
 10
129.4633693248826
 20
-29.03394138161448
 30
0.0
 11
129.4633693248826
 21
-15.77146545585475
 31
0.0
  0
LINE
  5
27C
330
277
100
AcDbEntity
  8
치수문자_일반주서
 62
     0
370
    -2
100
AcDbLine
 10
170.6113693248826
 20
-15.77146545585475
 30
0.0
 11
132.7653693248826
 21
-15.77146545585475
 31
0.0
  0
SOLID
  5
27D
330
277
100
AcDbEntity
  8
치수문자_일반주서
 62
     0
100
AcDbTrace
 10
170.6113693248826
 20
-16.32179878918808
 30
0.0
 11
170.6113693248826
 21
-15.22113212252141
 31
0.0
 12
173.9133693248826
 22
-15.77146545585475
 32
0.0
 13
173.9133693248826
 23
-15.77146545585475
 33
0.0
  0
SOLID
  5
27E
330
277
100
AcDbEntity
  8
치수문자_일반주서
 62
     0
100
AcDbTrace
 10
132.7653693248826
 20
-15.22113212252141
 30
0.0
 11
132.7653693248826
 21
-16.32179878918808
 31
0.0
 12
129.4633693248826
 22
-15.77146545585475
 32
0.0
 13
129.4633693248826
 23
-15.77146545585475
 33
0.0
  0
MTEXT
  5
27F
330
277
100
AcDbEntity
  8
치수문자_일반주서
 62
     0
100
AcDbMText
 10
151.6883693248827
 20
-11.39646545585475
 30
0.0
 40
3.5
 41
0.0
 71
     2
 72
     1
  1
\A1;44.45 [1 3/4]
  7
SLDTEXTSTYLE0
 73
     1
 44
1.0
  0
POINT
  5
280
330
277
100
AcDbEntity
  8
Defpoints
 62
     0
100
AcDbPoint
 10
173.9133693248826
 20
-28.94062756990596
 30
0.0
  0
POINT
  5
281
330
277
100
AcDbEntity
  8
Defpoints
 62
     0
100
AcDbPoint
 10
129.4633693248826
 20
-29.09644138161448
 30
0.0
  0
POINT
  5
282
330
277
100
AcDbEntity
  8
Defpoints
 62
     0
100
AcDbPoint
 10
129.4633693248826
 20
-15.77146545585475
 30
0.0
  0
ENDBLK
  5
279
330
277
100
AcDbEntity
  8
0
100
AcDbBlockEnd
  0
BLOCK
  5
284
330
283
100
AcDbEntity
  8
0
100
AcDbBlockBegin
  2
*D13
 70
     1
 10
0.0
 20
0.0
 30
0.0
  3
*D13
  1
*D14
  0
LINE
  5
286
330
283
100
AcDbEntity
  8
치수문자_일반주서
 62
     0
370
    -2
100
AcDbLine
 10
173.9133693248826
 20
-28.87812756990596
 30
0.0
 11
173.9133693248826
 21
-0.0502602580519635
 31
0.0
  0
LINE
  5
287
330
283
100
AcDbEntity
  8
치수문자_일반주서
 62
     0
370
    -2
100
AcDbLine
 10
83.42586932488265
 20
-28.24312756990597
 30
0.0
 11
83.42586932488265
 21
-0.0502602580519635
 31
0.0
  0
LINE
  5
288
330
283
100
AcDbEntity
  8
치수문자_일반주서
 62
     0
370
    -2
100
AcDbLine
 10
170.6113693248826
 20
-0.0502602580519635
 30
0.0
 11
86.72786932488265
 21
-0.0502602580519635
 31
0.0
  0
SOLID
  5
289
330
283
100
AcDbEntity
  8
치수문자_일반주서
 62
     0
100
AcDbTrace
 10
170.6113693248826
 20
-0.6005935913852968
 30
0.0
 11
170.6113693248826
 21
0.5000730752813697
 31
0.0
 12
173.9133693248826
 22
-0.0502602580519635
 32
0.0
 13
173.9133693248826
 23
-0.0502602580519635
 33
0.0
  0
SOLID
  5
28A
330
283
100
AcDbEntity
  8
치수문자_일반주서
 62
     0
100
AcDbTrace
 10
86.72786932488265
 20
0.5000730752813697
 30
0.0
 11
86.72786932488265
 21
-0.6005935913852968
 31
0.0
 12
83.42586932488265
 22
-0.0502602580519635
 32
0.0
 13
83.42586932488265
 23
-0.0502602580519635
 33
0.0
  0
MTEXT
  5
28B
330
283
100
AcDbEntity
  8
치수문자_일반주서
 62
     0
100
AcDbMText
 10
128.6696193248827
 20
4.324739741948036
 30
0.0
 40
3.5
 41
0.0
 71
     2
 72
     1
  1
\A1;90.49 [3 9/16]
  7
SLDTEXTSTYLE0
 73
     1
 44
1.0
  0
POINT
  5
28C
330
283
100
AcDbEntity
  8
Defpoints
 62
     0
100
AcDbPoint
 10
173.9133693248826
 20
-28.94062756990596
 30
0.0
  0
POINT
  5
28D
330
283
100
AcDbEntity
  8
Defpoints
 62
     0
100
AcDbPoint
 10
83.42586932488265
 20
-28.30562756990597
 30
0.0
  0
POINT
  5
28E
330
283
100
AcDbEntity
  8
Defpoints
 62
     0
100
AcDbPoint
 10
83.42586932488265
 20
-0.0502602580519635
 30
0.0
  0
ENDBLK
  5
285
330
283
100
AcDbEntity
  8
0
100
AcDbBlockEnd
  0
BLOCK
  5
290
330
28F
100
AcDbEntity
  8
0
100
AcDbBlockBegin
  2
*D14
 70
     1
 10
0.0
 20
0.0
 30
0.0
  3
*D14
  1
*D15
  0
LINE
  5
292
330
28F
100
AcDbEntity
  8
치수문자_일반주서
 62
     0
370
    -2
100
AcDbLine
 10
84.31586932488264
 20
-27.35312756990597
 30
0.0
 11
72.12509648705544
 21
-27.35312756990601
 31
0.0
  0
LINE
  5
293
330
28F
100
AcDbEntity
  8
치수문자_일반주서
 62
     0
370
    -2
100
AcDbLine
 10
84.31586932488264
 20
-36.87812756990597
 30
0.0
 11
72.12509648705547
 21
-36.87812756990601
 31
0.0
  0
LINE
  5
294
330
28F
100
AcDbEntity
  8
치수문자_일반주서
 62
     0
370
    -2
100
AcDbLine
 10
72.12509648705546
 20
-30.65512756990601
 30
0.0
 11
72.12509648705546
 21
-33.57612756990601
 31
0.0
  0
SOLID
  5
295
330
28F
100
AcDbEntity
  8
치수문자_일반주서
 62
     0
100
AcDbTrace
 10
72.67542982038879
 20
-30.65512756990601
 30
0.0
 11
71.57476315372213
 21
-30.65512756990601
 31
0.0
 12
72.12509648705544
 22
-27.35312756990601
 32
0.0
 13
72.12509648705544
 23
-27.35312756990601
 33
0.0
  0
SOLID
  5
296
330
28F
100
AcDbEntity
  8
치수문자_일반주서
 62
     0
100
AcDbTrace
 10
71.57476315372213
 20
-33.57612756990601
 30
0.0
 11
72.67542982038879
 21
-33.57612756990601
 31
0.0
 12
72.12509648705547
 22
-36.87812756990601
 32
0.0
 13
72.12509648705547
 23
-36.87812756990601
 33
0.0
  0
MTEXT
  5
297
330
28F
100
AcDbEntity
  8
치수문자_일반주서
 62
     0
100
AcDbMText
 10
67.75009648705546
 20
-32.11562756990598
 30
0.0
 40
3.5
 41
0.0
 71
     2
 72
     1
  1
\A1;%%c9.53 [3/8]
  7
SLDTEXTSTYLE0
 11
-2.983906501879686E-15
 21
1.0
 31
0.0
 73
     1
 44
1.0
  0
POINT
  5
298
330
28F
100
AcDbEntity
  8
Defpoints
 62
     0
100
AcDbPoint
 10
84.37836932488264
 20
-27.35312756990597
 30
0.0
  0
POINT
  5
299
330
28F
100
AcDbEntity
  8
Defpoints
 62
     0
100
AcDbPoint
 10
84.37836932488264
 20
-36.87812756990597
 30
0.0
  0
POINT
  5
29A
330
28F
100
AcDbEntity
  8
Defpoints
 62
     0
100
AcDbPoint
 10
72.12509648705547
 20
-36.87812756990601
 30
0.0
  0
ENDBLK
  5
291
330
28F
100
AcDbEntity
  8
0
100
AcDbBlockEnd
  0
BLOCK
  5
29C
330
29B
100
AcDbEntity
  8
0
100
AcDbBlockBegin
  2
*D15
 70
     1
 10
0.0
 20
0.0
 30
0.0
  3
*D15
  1
*D16
  0
LINE
  5
29E
330
29B
100
AcDbEntity
  8
치수문자_일반주서
 62
     0
370
    -2
100
AcDbLine
 10
173.9758693248826
 20
-28.94062756990596
 30
0.0
 11
189.3054326569509
 21
-28.94062756990596
 31
0.0
  0
LINE
  5
29F
330
29B
100
AcDbEntity
  8
치수문자_일반주서
 62
     0
370
    -2
100
AcDbLine
 10
173.9758693248826
 20
-35.29062756990596
 30
0.0
 11
189.3054326569509
 21
-35.29062756990596
 31
0.0
  0
LINE
  5
2A0
330
29B
100
AcDbEntity
  8
치수문자_일반주서
 62
     0
370
    -2
100
AcDbLine
 10
189.3054326569509
 20
-28.94062756990596
 30
0.0
 11
189.3054326569509
 21
1.716914582787162
 31
0.0
  0
LINE
  5
2A1
330
29B
100
AcDbEntity
  8
치수문자_일반주서
 62
     0
370
    -2
100
AcDbLine
 10
189.3054326569509
 20
-25.63862756990596
 30
0.0
 11
189.3054326569509
 21
-22.33662756990596
 31
0.0
  0
LINE
  5
2A2
330
29B
100
AcDbEntity
  8
치수문자_일반주서
 62
     0
370
    -2
100
AcDbLine
 10
189.3054326569509
 20
-38.59262756990596
 30
0.0
 11
189.3054326569509
 21
-41.89462756990596
 31
0.0
  0
SOLID
  5
2A3
330
29B
100
AcDbEntity
  8
치수문자_일반주서
 62
     0
100
AcDbTrace
 10
188.7550993236175
 20
-25.63862756990596
 30
0.0
 11
189.8557659902842
 21
-25.63862756990596
 31
0.0
 12
189.3054326569509
 22
-28.94062756990596
 32
0.0
 13
189.3054326569509
 23
-28.94062756990596
 33
0.0
  0
SOLID
  5
2A4
330
29B
100
AcDbEntity
  8
치수문자_일반주서
 62
     0
100
AcDbTrace
 10
189.8557659902842
 20
-38.59262756990596
 30
0.0
 11
188.7550993236175
 21
-38.59262756990596
 31
0.0
 12
189.3054326569509
 22
-35.29062756990596
 32
0.0
 13
189.3054326569509
 23
-35.29062756990596
 33
0.0
  0
MTEXT
  5
2A5
330
29B
100
AcDbEntity
  8
치수문자_일반주서
 62
     0
100
AcDbMText
 10
186.6804326569509
 20
-9.658085417212838
 30
0.0
 40
3.5
 41
0.0
 71
     5
 72
     1
  1
\A1;6.35 [1/4]
  7
SLDTEXTSTYLE0
 11
0.0
 21
1.0
 31
0.0
 73
     1
 44
1.0
  0
POINT
  5
2A6
330
29B
100
AcDbEntity
  8
Defpoints
 62
     0
100
AcDbPoint
 10
173.9133693248826
 20
-28.94062756990596
 30
0.0
  0
POINT
  5
2A7
330
29B
100
AcDbEntity
  8
Defpoints
 62
     0
100
AcDbPoint
 10
173.9133693248826
 20
-35.29062756990596
 30
0.0
  0
POINT
  5
2A8
330
29B
100
AcDbEntity
  8
Defpoints
 62
     0
100
AcDbPoint
 10
189.3054326569509
 20
-35.29062756990596
 30
0.0
  0
ENDBLK
  5
29D
330
29B
100
AcDbEntity
  8
0
100
AcDbBlockEnd
  0
BLOCK
  5
2AE
330
2AD
100
AcDbEntity
  8
0
100
AcDbBlockBegin
  2
*D16
 70
     1
 10
0.0
 20
0.0
 30
0.0
  3
*D16
  1
*D17
  0
LINE
  5
2B0
330
2AD
100
AcDbEntity
  8
치수문자_일반주서
 62
     0
370
    -2
100
AcDbLine
 10
56.82481532850781
 20
3.969824928723901
 30
0.0
 11
72.79784214749856
 21
3.969824928723902
 31
0.0
  0
LINE
  5
2B1
330
2AD
100
AcDbEntity
  8
치수문자_일반주서
 62
     0
370
    -2
100
AcDbLine
 10
56.82481532850781
 20
-3.967675071276099
 30
0.0
 11
72.79784214749856
 21
-3.967675071276098
 31
0.0
  0
LINE
  5
2B2
330
2AD
100
AcDbEntity
  8
치수문자_일반주서
 62
     0
370
    -2
100
AcDbLine
 10
72.79784214749856
 20
3.969824928723902
 30
0.0
 11
72.79784214749856
 21
36.61011060077092
 31
0.0
  0
LINE
  5
2B3
330
2AD
100
AcDbEntity
  8
치수문자_일반주서
 62
     0
370
    -2
100
AcDbLine
 10
72.79784214749856
 20
7.271824928723902
 30
0.0
 11
72.79784214749856
 21
10.5738249287239
 31
0.0
  0
LINE
  5
2B4
330
2AD
100
AcDbEntity
  8
치수문자_일반주서
 62
     0
370
    -2
100
AcDbLine
 10
72.79784214749856
 20
-7.269675071276097
 30
0.0
 11
72.79784214749856
 21
-10.5716750712761
 31
0.0
  0
SOLID
  5
2B5
330
2AD
100
AcDbEntity
  8
치수문자_일반주서
 62
     0
100
AcDbTrace
 10
72.24750881416523
 20
7.271824928723902
 30
0.0
 11
73.34817548083188
 21
7.271824928723902
 31
0.0
 12
72.79784214749856
 22
3.969824928723902
 32
0.0
 13
72.79784214749856
 23
3.969824928723902
 33
0.0
  0
SOLID
  5
2B6
330
2AD
100
AcDbEntity
  8
치수문자_일반주서
 62
     0
100
AcDbTrace
 10
73.34817548083188
 20
-7.269675071276097
 30
0.0
 11
72.24750881416523
 21
-7.269675071276097
 31
0.0
 12
72.79784214749856
 22
-3.967675071276098
 32
0.0
 13
72.79784214749856
 23
-3.967675071276098
 33
0.0
  0
MTEXT
  5
2B7
330
2AD
100
AcDbEntity
  8
치수문자_일반주서
 62
     0
100
AcDbMText
 10
70.17284214749856
 20
23.92261060077092
 30
0.0
 40
3.5
 41
0.0
 71
     5
 72
     1
  1
\A1;7.94 [5/16]
  7
SLDTEXTSTYLE0
 11
0.0
 21
1.0
 31
0.0
 73
     1
 44
1.0
  0
POINT
  5
2B8
330
2AD
100
AcDbEntity
  8
Defpoints
 62
     0
100
AcDbPoint
 10
56.76231532850781
 20
3.969824928723901
 30
0.0
  0
POINT
  5
2B9
330
2AD
100
AcDbEntity
  8
Defpoints
 62
     0
100
AcDbPoint
 10
56.76231532850781
 20
-3.967675071276099
 30
0.0
  0
POINT
  5
2BC
330
2AD
100
AcDbEntity
  8
Defpoints
 62
     0
100
AcDbPoint
 10
72.79784214749856
 20
-3.9676750712761
 30
0.0
  0
ENDBLK
  5
2AF
330
2AD
100
AcDbEntity
  8
0
100
AcDbBlockEnd
  0
ENDSEC
  0
SECTION
  2
ENTITIES
  0
LINE
  5
96
330
1F
100
AcDbEntity
  8
외형선
  6
Continuous
370
    15
100
AcDbLine
 10
1.999999999999996
 20
-4.761425071276113
 30
0.0
 11
4.962315328507808
 21
-3.967675071276107
 31
0.0
  0
LINE
  5
97
330
1F
100
AcDbEntity
  8
외형선
  6
Continuous
370
    15
100
AcDbLine
 10
4.962315328507808
 20
3.969824928723893
 30
0.0
 11
1.999999999999996
 21
4.7635749287239
 31
0.0
  0
LINE
  5
98
330
1F
100
AcDbEntity
  8
외형선
  6
Continuous
370
    15
100
AcDbLine
 10
-37.5351846714922
 20
-4.761425071276109
 30
0.0
 11
1.999999999999996
 21
-4.761425071276109
 31
0.0
  0
LINE
  5
99
330
1F
100
AcDbEntity
  8
외형선
  6
Continuous
370
    15
100
AcDbLine
 10
1.999999999999996
 20
4.763574928723896
 30
0.0
 11
-13.80523467149207
 21
4.763574928723896
 31
0.0
  0
LINE
  5
9A
330
1F
100
AcDbEntity
  8
외형선
  6
Continuous
370
    15
100
AcDbLine
 10
-37.5351846714922
 20
4.763574928723893
 30
0.0
 11
-38.48768467149219
 21
3.811074928723895
 31
0.0
  0
LINE
  5
9B
330
1F
100
AcDbEntity
  8
외형선
  6
Continuous
370
    15
100
AcDbLine
 10
-38.48768467149219
 20
-3.808925071276108
 30
0.0
 11
-37.5351846714922
 21
-4.761425071276106
 31
0.0
  0
LINE
  5
9C
330
1F
100
AcDbEntity
  8
외형선
  6
Continuous
370
    15
100
AcDbLine
 10
4.962315328507808
 20
-3.967675071276107
 30
0.0
 11
5.782577808249494
 21
-3.967675071276107
 31
0.0
  0
LINE
  5
9D
330
1F
100
AcDbEntity
  8
외형선
  6
Continuous
370
    15
100
AcDbLine
 10
5.782577808249494
 20
3.969824928723893
 30
0.0
 11
4.962315328507808
 21
3.969824928723893
 31
0.0
  0
LINE
  5
9E
330
1F
100
AcDbEntity
  8
0
  6
Continuous
 62
     1
370
    15
100
AcDbLine
 10
24.9585168790722
 20
-3.96767507127611
 30
0.0
 11
27.37840042369645
 21
-3.96767507127611
 31
0.0
  0
LINE
  5
9F
330
1F
100
AcDbEntity
  8
0
  6
Continuous
 62
     1
370
    15
100
AcDbLine
 10
48.97481907772986
 20
3.969824928723896
 30
0.0
 11
46.55472398414079
 21
3.969824928723896
 31
0.0
  0
LINE
  5
A0
330
1F
100
AcDbEntity
  8
0
  6
Continuous
 62
     1
370
    15
100
AcDbLine
 10
46.55472398414071
 20
-3.96767507127611
 30
0.0
 11
48.97481907772985
 21
-3.96767507127611
 31
0.0
  0
LINE
  5
A1
330
1F
100
AcDbEntity
  8
0
  6
Continuous
 62
     1
370
    15
100
AcDbLine
 10
27.37840042369643
 20
3.969824928723896
 30
0.0
 11
24.95851687907212
 21
3.969824928723896
 31
0.0
  0
LINE
  5
A2
330
1F
100
AcDbEntity
  8
0
  6
Continuous
 62
     1
370
    15
100
AcDbLine
 10
14.16019442664721
 20
-3.96767507127611
 30
0.0
 11
16.58175144154344
 21
-3.96767507127611
 31
0.0
  0
LINE
  5
A3
330
1F
100
AcDbEntity
  8
0
  6
Continuous
 62
     1
370
    15
100
AcDbLine
 10
38.17722877286586
 20
3.969824928723896
 30
0.0
 11
35.75570165286675
 21
3.969824928723896
 31
0.0
  0
LINE
  5
A4
330
1F
100
AcDbEntity
  8
0
  6
Continuous
 62
     1
370
    15
100
AcDbLine
 10
35.75570165286672
 20
-3.96767507127611
 30
0.0
 11
38.17722877286575
 21
-3.96767507127611
 31
0.0
  0
LINE
  5
A5
330
1F
100
AcDbEntity
  8
0
  6
Continuous
 62
     1
370
    15
100
AcDbLine
 10
16.5817514415434
 20
3.969824928723896
 30
0.0
 11
14.16019442664721
 21
3.969824928723896
 31
0.0
  0
LINE
  5
A6
330
1F
100
AcDbEntity
  8
외형선
  6
Continuous
370
    15
100
AcDbLine
 10
4.962315328507808
 20
0.0010749287238931
 30
0.0
 11
4.962315328507808
 21
3.969824928723893
 31
0.0
  0
LINE
  5
A7
330
1F
100
AcDbEntity
  8
외형선
  6
Continuous
370
    15
100
AcDbLine
 10
4.962315328507808
 20
-3.967675071276109
 30
0.0
 11
4.962315328507808
 21
0.0010749287238931
 31
0.0
  0
LINE
  5
A8
330
1F
100
AcDbEntity
  8
외형선
  6
Continuous
370
    15
100
AcDbLine
 10
1.999999999999996
 20
0.0010749287238931
 30
0.0
 11
1.999999999999996
 21
4.7635749287239
 31
0.0
  0
LINE
  5
A9
330
1F
100
AcDbEntity
  8
외형선
  6
Continuous
370
    15
100
AcDbLine
 10
1.999999999999996
 20
-4.761425071276113
 30
0.0
 11
1.999999999999996
 21
0.0010749287238931
 31
0.0
  0
LINE
  5
AA
330
1F
100
AcDbEntity
  8
외형선
  6
Continuous
370
    15
100
AcDbLine
 10
-37.5351846714922
 20
0.0010749287238931
 30
0.0
 11
-37.5351846714922
 21
4.763574928723896
 31
0.0
  0
LINE
  5
AB
330
1F
100
AcDbEntity
  8
외형선
  6
Continuous
370
    15
100
AcDbLine
 10
-37.5351846714922
 20
-4.761425071276109
 30
0.0
 11
-37.5351846714922
 21
0.0010749287238931
 31
0.0
  0
LINE
  5
AC
330
1F
100
AcDbEntity
  8
외형선
  6
Continuous
370
    15
100
AcDbLine
 10
-38.48768467149219
 20
0.0010749287238931
 30
0.0
 11
-38.48768467149219
 21
3.811074928723895
 31
0.0
  0
LINE
  5
AD
330
1F
100
AcDbEntity
  8
외형선
  6
Continuous
370
    15
100
AcDbLine
 10
-38.48768467149219
 20
-3.808925071276108
 30
0.0
 11
-38.48768467149219
 21
0.0010749287238931
 31
0.0
  0
SPLINE
  5
AE
330
1F
100
AcDbEntity
  8
외형선
  6
Continuous
370
    15
100
AcDbSpline
210
0.0
220
0.0
230
1.0
 70
     8
 71
     3
 72
     8
 73
     4
 74
     0
 42
0.000000001
 43
0.00000001
 40
0.0
 40
0.0
 40
0.0
 40
0.0
 40
1.0
 40
1.0
 40
1.0
 40
1.0
 10
5.962315328507803
 20
-0.1026244941376238
 30
0.0
 10
5.79520788487978
 20
-0.0063943556923588
 30
0.0
 10
5.628278149422476
 20
0.0898930222089369
 30
0.0
 10
5.462184461033999
 20
0.1858569334952175
 30
0.0
  0
SPLINE
  5
AF
330
1F
100
AcDbEntity
  8
외형선
  6
Continuous
370
    15
100
AcDbSpline
210
0.0
220
0.0
230
1.0
 70
     8
 71
     3
 72
     8
 73
     4
 74
     0
 42
0.000000001
 43
0.00000001
 40
0.0
 40
0.0
 40
0.0
 40
0.0
 40
1.0
 40
1.0
 40
1.0
 40
1.0
 10
5.962315328507803
 20
3.689418516739134
 30
0.0
 10
5.79520788487978
 20
3.72495967835352
 30
0.0
 10
5.628278149422469
 20
3.757228986855212
 30
0.0
 10
5.462184461033999
 20
3.78611877826523
 30
0.0
  0
SPLINE
  5
B0
330
1F
100
AcDbEntity
  8
외형선
  6
Continuous
370
    15
100
AcDbSpline
210
0.0
220
0.0
230
1.0
 70
    24
 71
     3
 72
    21
 73
    17
 74
     0
 42
0.000000001
 43
0.00000001
 40
0.0
 40
0.0
 40
0.0
 40
0.0
 40
0.0172715721616151
 40
0.0931943577849099
 40
0.1691171434082045
 40
0.2450399290315139
 40
0.3209627146548234
 40
0.3968855002781256
 40
0.4728082859014279
 40
0.5487310715247304
 40
0.624653857148033
 40
0.7005766427713285
 40
0.7764994283946242
 40
0.8524222140179332
 40
0.9283449996412417
 40
1.0
 40
1.0
 40
1.0
 40
1.0
 10
5.962315328507822
 20
-0.1869350155726793
 30
0.0
 10
5.962315328507822
 20
-0.187906071036585
 30
0.0
 10
5.962315328507829
 20
-0.1931457150878286
 30
0.0
 10
5.962315328507822
 20
-0.1336213074320588
 30
0.0
 10
5.962315328507815
 20
-0.0108984181374354
 30
0.0
 10
5.962315328507808
 20
0.1813791713454431
 30
0.0
 10
5.962315328507815
 20
0.427836437805166
 30
0.0
 10
5.962315328507803
 20
0.7256768759503743
 30
0.0
 10
5.96231532850776
 20
1.064028657641696
 30
0.0
 10
5.962315328507803
 20
1.434936333582728
 30
0.0
 10
5.962315328507822
 20
1.826755151727005
 30
0.0
 10
5.962315328507795
 20
2.228952927622175
 30
0.0
 10
5.962315328507843
 20
2.630185508748076
 30
0.0
 10
5.962315328507822
 20
3.017803443212098
 30
0.0
 10
5.962315328507822
 20
3.378309375651962
 30
0.0
 10
5.962315328507808
 20
3.587734247755983
 30
0.0
 10
5.962315328507808
 20
3.68941851673919
 30
0.0
  0
LINE
  5
B1
330
1F
100
AcDbEntity
  8
외형선
  6
Continuous
370
    15
100
AcDbLine
 10
5.462184461033985
 20
0.1858550679075454
 30
0.0
 11
5.462184461033992
 21
3.786117483540013
 31
0.0
  0
SPLINE
  5
B2
330
1F
100
AcDbEntity
  8
외형선
  6
Continuous
370
    15
100
AcDbSpline
210
0.0
220
0.0
230
1.0
 70
     8
 71
     3
 72
     8
 73
     4
 74
     0
 42
0.000000001
 43
0.00000001
 40
0.0
 40
0.0
 40
0.0
 40
0.0
 40
1.0
 40
1.0
 40
1.0
 40
1.0
 10
5.962315328507803
 20
-1.464223040716785
 30
0.0
 10
5.79520788487978
 20
-1.374761362419999
 30
0.0
 10
5.628278149422469
 20
-1.284036869063157
 30
0.0
 10
5.462184461033999
 20
-1.192415590530196
 30
0.0
  0
LINE
  5
B3
330
1F
100
AcDbEntity
  8
외형선
  6
Continuous
370
    15
100
AcDbLine
 10
5.462184461033985
 20
-3.96337116911415
 30
0.0
 11
5.462184461033992
 21
-1.19241969662268
 31
0.0
  0
SPLINE
  5
B4
330
1F
100
AcDbEntity
  8
외형선
  6
Continuous
370
    15
100
AcDbSpline
210
0.0
220
0.0
230
1.0
 70
     8
 71
     3
 72
     8
 73
     4
 74
     0
 42
0.000000001
 43
0.00000001
 40
0.0
 40
0.0
 40
0.0
 40
0.0
 40
1.0
 40
1.0
 40
1.0
 40
1.0
 10
5.962315328507803
 20
-3.966320059451368
 30
0.0
 10
5.79520788487978
 20
-3.968835314385249
 30
0.0
 10
5.628278149422476
 20
-3.967843940124073
 30
0.0
 10
5.462184461033999
 20
-3.963371082159936
 30
0.0
  0
LINE
  5
B5
330
1F
100
AcDbEntity
  8
외형선
  6
Continuous
370
    15
100
AcDbLine
 10
5.782577808249501
 20
3.967410110556192
 30
0.0
 11
5.962315328507803
 21
3.968469916899154
 31
0.0
  0
LINE
  5
B6
330
1F
100
AcDbEntity
  8
외형선
  6
Continuous
370
    15
100
AcDbLine
 10
5.962315328507808
 20
3.68941851673919
 30
0.0
 11
5.962315328507803
 21
3.968469916899154
 31
0.0
  0
LINE
  5
B7
330
1F
100
AcDbEntity
  8
외형선
  6
Continuous
370
    15
100
AcDbLine
 10
5.962315328507808
 20
-1.464223040716838
 30
0.0
 11
5.962315328507803
 21
-0.1026244941376238
 31
0.0
  0
SPLINE
  5
B8
330
1F
100
AcDbEntity
  8
외형선
  6
Continuous
370
    15
100
AcDbSpline
210
0.0
220
0.0
230
1.0
 70
    24
 71
     3
 72
    14
 73
    10
 74
     0
 42
0.000000001
 43
0.00000001
 40
0.0
 40
0.0
 40
0.0
 40
0.0
 40
0.1523094393739125
 40
0.3093469796719745
 40
0.456817107495655
 40
0.6085638790165565
 40
0.7560340068402639
 40
0.9077807783611971
 40
1.0
 40
1.0
 40
1.0
 40
1.0
 10
5.962315328507803
 20
-3.966320059451368
 30
0.0
 10
5.962315328507788
 20
-3.833399307562554
 30
0.0
 10
5.962315328507753
 20
-3.56343158066686
 30
0.0
 10
5.962315328507858
 20
-3.151820475147733
 30
0.0
 10
5.96231532850776
 20
-2.747347108890076
 30
0.0
 10
5.962315328507843
 20
-2.366182313869183
 30
0.0
 10
5.962315328507836
 20
-2.010695181896731
 30
0.0
 10
5.962315328507803
 20
-1.727324446018359
 30
0.0
 10
5.962315328507815
 20
-1.584046962281805
 30
0.0
 10
5.962315328507822
 20
-1.529888028663954
 30
0.0
  0
LINE
  5
B9
330
1F
100
AcDbEntity
  8
0
  6
Continuous
 62
     1
370
    15
100
AcDbLine
 10
56.76231532850781
 20
-3.59334792613485
 30
0.0
 11
56.76231532850781
 21
0.3411227835826819
 31
0.0
  0
SPLINE
  5
BA
330
1F
100
AcDbEntity
  8
0
  6
Continuous
 62
     1
370
    15
100
AcDbSpline
210
0.0
220
0.0
230
1.0
 70
     8
 71
     3
 72
    17
 73
    13
 74
     0
 42
0.000000001
 43
0.00000001
 40
0.0
 40
0.0
 40
0.0
 40
0.0
 40
0.1040455622679676
 40
0.2080977417413656
 40
0.3121596715766844
 40
0.4162344706458871
 40
0.5203252390047808
 40
0.6244340741917577
 40
0.7285353746693706
 40
0.8326189407821017
 40
0.9296444040043399
 40
1.0
 40
1.0
 40
1.0
 40
1.0
 10
5.962315328507803
 20
-0.1026244941376228
 30
0.0
 10
6.475739919503477
 20
-0.3984916521220467
 30
0.0
 10
7.502621754843204
 20
-0.9902447849795903
 30
0.0
 10
9.043031440370477
 20
-1.826898958612626
 30
0.0
 10
10.58361302033156
 20
-2.572530903899418
 30
0.0
 10
12.12442524089237
 20
-3.189327199038042
 30
0.0
 10
13.66550890224267
 20
-3.646677818920863
 30
0.0
 10
15.2068065113499
 20
-3.92110166180008
 30
0.0
 10
16.74801607264548
 20
-4.000804279150866
 30
0.0
 10
18.25426181830896
 20
-3.87757903847009
 30
0.0
 10
19.59377119602117
 20
-3.622489924036508
 30
0.0
 10
20.41964372341904
 20
-3.353165236968357
 30
0.0
 10
20.76678427894556
 20
-3.239959483799136
 30
0.0
  0
SPLINE
  5
BB
330
1F
100
AcDbEntity
  8
0
  6
Continuous
 62
     1
370
    15
100
AcDbSpline
210
0.0
220
0.0
230
1.0
 70
     8
 71
     3
 72
    21
 73
    17
 74
     0
 42
0.000000001
 43
0.00000001
 40
0.0
 40
0.0
 40
0.0
 40
0.0
 40
0.0063669807515275
 40
0.0822797876000348
 40
0.1581580618833897
 40
0.2340242088463262
 40
0.3099007097798713
 40
0.3871863938181429
 40
0.4645145571522665
 40
0.54184938956657
 40
0.61913986183848
 40
0.6964017549300657
 40
0.7722682644370801
 40
0.8481418829906965
 40
0.9240450450189689
 40
1.0
 40
1.0
 40
1.0
 40
1.0
 10
38.17722877286585
 20
3.963293975147363
 30
0.0
 10
38.21667863101219
 20
3.96543851767312
 30
0.0
 10
38.72648478180903
 20
3.993152203390832
 30
0.0
 10
39.70624478537715
 20
3.88800094106089
 30
0.0
 10
41.11648799975753
 20
3.64084432698472
 30
0.0
 10
42.52644216660784
 20
3.222925615748741
 30
0.0
 10
43.94515163238945
 20
2.671308985245352
 30
0.0
 10
45.37306748455578
 20
2.000355136682311
 30
0.0
 10
46.81020341350576
 20
1.238799672627111
 30
0.0
 10
48.2474204636131
 20
0.4233818514408539
 30
0.0
 10
49.68398391246663
 20
-0.410612282035976
 30
0.0
 10
51.11138470738103
 20
-1.221458056601329
 30
0.0
 10
52.52988329170514
 20
-1.975941364275525
 30
0.0
 10
53.9400145666087
 20
-2.640039560565244
 30
0.0
 10
55.35077959218739
 20
-3.204220099881081
 30
0.0
 10
56.29169644623894
 20
-3.46360916151196
 30
0.0
 10
56.76231532850784
 20
-3.59334792613485
 30
0.0
  0
SPLINE
  5
BC
330
1F
100
AcDbEntity
  8
0
  6
Continuous
 62
     1
370
    15
100
AcDbSpline
210
0.0
220
0.0
230
1.0
 70
     8
 71
     3
 72
    18
 73
    14
 74
     0
 42
0.000000001
 43
0.00000001
 40
0.0
 40
0.0
 40
0.0
 40
0.0
 40
0.0998127452804451
 40
0.1995692737207186
 40
0.2992903175798187
 40
0.3989967883888033
 40
0.4987096714681536
 40
0.5966714339995214
 40
0.694695921907501
 40
0.7927418373837242
 40
0.8907187715759333
 40
0.990438176042639
 40
1.0
 40
1.0
 40
1.0
 40
1.0
 10
56.76231532850781
 20
0.3411227835826825
 30
0.0
 10
56.2831657118931
 20
0.6151457120843397
 30
0.0
 10
55.32513634677861
 20
1.163037233054398
 30
0.0
 10
53.88861856378333
 20
1.930552231126833
 30
0.0
 10
52.45269626488011
 20
2.615048483851384
 30
0.0
 10
51.01703401511657
 20
3.185551290591823
 30
0.0
 10
49.58977963080115
 20
3.614987737659618
 30
0.0
 10
48.17057927268825
 20
3.888098656612864
 30
0.0
 10
46.75914162098907
 20
3.995389990506607
 30
0.0
 10
45.34751822555761
 20
3.938770754195302
 30
0.0
 10
43.92808030548528
 20
3.701582930985659
 30
0.0
 10
42.93334367263776
 20
3.461413779230712
 30
0.0
 10
42.40886663705174
 20
3.265982398477496
 30
0.0
 10
42.36297625719172
 20
3.248882659707587
 30
0.0
  0
SPLINE
  5
BD
330
1F
100
AcDbEntity
  8
0
  6
Continuous
 62
     1
370
    15
100
AcDbSpline
210
0.0
220
0.0
230
1.0
 70
     8
 71
     3
 72
    20
 73
    16
 74
     0
 42
0.000000001
 43
0.00000001
 40
0.0
 40
0.0
 40
0.0
 40
0.0
 40
0.0541594448352277
 40
0.1284047617450821
 40
0.2026336028909373
 40
0.2768679600035882
 40
0.3511297902159964
 40
0.4322433970181619
 40
0.5133708244296088
 40
0.5945041237329953
 40
0.6756233433344256
 40
0.7567301178714397
 40
0.8378268632557635
 40
0.9189160100627854
 40
1.0
 40
1.0
 40
1.0
 40
1.0
 10
24.9585168790722
 20
-3.950084089001614
 30
0.0
 10
24.61556919602675
 20
-3.948545339255577
 30
0.0
 10
23.80248635024695
 20
-3.944897170498932
 30
0.0
 10
22.5195722430684
 20
-3.7430226139408
 30
0.0
 10
21.10959481566804
 20
-3.386217805699645
 30
0.0
 10
19.69949508569987
 20
-2.881290085873744
 30
0.0
 10
18.24571441018789
 20
-2.237924274834125
 30
0.0
 10
16.74801330554931
 20
-1.469506093235378
 30
0.0
 10
15.20680725290875
 20
-0.6054311347685765
 30
0.0
 10
13.66550870357421
 20
0.2890469388808345
 30
0.0
 10
12.12442529411135
 20
1.168912850240247
 30
0.0
 10
10.58361300607937
 20
1.991246111909442
 30
0.0
 10
9.043031444170529
 20
2.710437801959566
 30
0.0
 10
7.502621753893319
 20
3.307329742155063
 30
0.0
 10
6.475739919186882
 20
3.562058291876871
 30
0.0
 10
5.962315328507843
 20
3.689418516739133
 30
0.0
  0
SPLINE
  5
BE
330
1F
100
AcDbEntity
  8
외형선
  6
Continuous
370
    15
100
AcDbSpline
210
0.0
220
0.0
230
1.0
 70
    24
 71
     3
 72
    19
 73
    15
 74
     0
 42
0.000000001
 43
0.00000001
 40
0.0
 40
0.0
 40
0.0
 40
0.0
 40
0.0887567466356184
 40
0.1737198578155864
 40
0.2586829689955543
 40
0.343646080175522
 40
0.4286091913554896
 40
0.5135723025354576
 40
0.5985354137154256
 40
0.6834985248953924
 40
0.7684616360753592
 40
0.8534247472552909
 40
0.9383878584352224
 40
1.0
 40
1.0
 40
1.0
 40
1.0
 10
5.962315328507829
 20
3.689418516739131
 30
0.0
 10
5.962315328507829
 20
3.576425560794491
 30
0.0
 10
5.962315328507815
 20
3.355269186942134
 30
0.0
 10
5.962315328507803
 20
2.979416384981159
 30
0.0
 10
5.962315328507781
 20
2.590029950400703
 30
0.0
 10
5.962315328507795
 20
2.188161997554527
 30
0.0
 10
5.962315328507836
 20
1.786468695637664
 30
0.0
 10
5.962315328507808
 20
1.396328706631316
 30
0.0
 10
5.962315328507815
 20
1.028138712614625
 30
0.0
 10
5.962315328507822
 20
0.6936752962337847
 30
0.0
 10
5.962315328507781
 20
0.4001237982144337
 30
0.0
 10
5.962315328507803
 20
0.1605836458738464
 30
0.0
 10
5.962315328507808
 20
-0.0134596165626976
 30
0.0
 10
5.962315328507803
 20
-0.076236541697116
 30
0.0
 10
5.962315328507808
 20
-0.1026244941376267
 30
0.0
  0
SPLINE
  5
BF
330
1F
100
AcDbEntity
  8
0
  6
Continuous
 62
     1
370
    15
100
AcDbSpline
210
0.0
220
0.0
230
1.0
 70
     8
 71
     3
 72
    25
 73
    21
 74
     0
 42
0.000000001
 43
0.00000001
 40
0.0
 40
0.0
 40
0.0
 40
0.0
 40
0.0601545699748037
 40
0.1203129657268768
 40
0.1804769987095597
 40
0.2406484721175075
 40
0.3008291782667009
 40
0.3610203298616245
 40
0.4212071252188405
 40
0.4813836673459331
 40
0.5374795246753211
 40
0.5935576196923463
 40
0.649629724790124
 40
0.7057076426976058
 40
0.7618031467044604
 40
0.8169324392659388
 40
0.8720685959746483
 40
0.9271662256755905
 40
0.9822411300801851
 40
1.0
 40
1.0
 40
1.0
 40
1.0
 10
5.962315328507803
 20
3.96846991689916
 30
0.0
 10
6.475739919466644
 20
3.941468839585571
 30
0.0
 10
7.502621754732738
 20
3.887464967713841
 30
0.0
 10
9.043031440812403
 20
3.558903316634561
 30
0.0
 10
10.58361301867413
 20
3.066614238824118
 30
0.0
 10
12.12442524708148
 20
2.41713194609493
 30
0.0
 10
13.66550887913851
 20
1.647747793333678
 30
0.0
 10
15.20680659758954
 20
0.7957602175453748
 30
0.0
 10
16.7480157508459
 20
-0.0959503599346036
 30
0.0
 10
18.25426298464233
 20
-0.9628244312304082
 30
0.0
 10
19.72521481109212
 20
-1.76411495295228
 30
0.0
 10
21.16106193108602
 20
-2.469756157833713
 30
0.0
 10
22.59671995863663
 20
-3.067891621180256
 30
0.0
 10
24.03256105774991
 20
-3.532513948503025
 30
0.0
 10
25.46043235606162
 20
-3.841818182687673
 30
0.0
 10
26.88046086546536
 20
-3.984712901900028
 30
0.0
 10
28.29204748463282
 20
-3.962101525840896
 30
0.0
 10
29.70288514180636
 20
-3.763375769928827
 30
0.0
 10
30.79463242488691
 20
-3.515344194595916
 30
0.0
 10
31.41620206979378
 20
-3.292499764547764
 30
0.0
 10
31.56775778103344
 20
-3.238164186276707
 30
0.0
  0
SPLINE
  5
C0
330
1F
100
AcDbEntity
  8
0
  6
Continuous
 62
     1
370
    15
100
AcDbSpline
210
0.0
220
0.0
230
1.0
 70
     8
 71
     3
 72
    13
 73
     9
 74
     0
 42
0.000000001
 43
0.00000001
 40
0.0
 40
0.0
 40
0.0
 40
0.0
 40
0.0910814761712969
 40
0.2754661328486869
 40
0.4565207219742828
 40
0.6375922767612752
 40
0.818734336725057
 40
1.0
 40
1.0
 40
1.0
 40
1.0
 10
48.97481907772986
 20
3.94818612942844
 30
0.0
 10
49.21126511934499
 20
3.952444419663644
 30
0.0
 10
49.92637075277369
 20
3.96532316068704
 30
0.0
 10
51.11137971121671
 20
3.801035973537576
 30
0.0
 10
52.52988461976057
 20
3.476539993833553
 30
0.0
 10
53.94001421230061
 20
2.99792516653911
 30
0.0
 10
55.35077968084929
 20
2.40084694651493
 30
0.0
 10
56.29169647579959
 20
1.92277832608582
 30
0.0
 10
56.76231532850784
 20
1.683662490477823
 30
0.0
  0
LINE
  5
C1
330
1F
100
AcDbEntity
  8
0
  6
Continuous
 62
     1
370
    15
100
AcDbLine
 10
56.76231532850781
 20
0.3411227835826822
 30
0.0
 11
56.76231532850781
 21
1.683662490477823
 31
0.0
  0
SPLINE
  5
C2
330
1F
100
AcDbEntity
  8
0
  6
Continuous
 62
     1
370
    15
100
AcDbSpline
210
0.0
220
0.0
230
1.0
 70
     8
 71
     3
 72
    26
 73
    22
 74
     0
 42
0.000000001
 43
0.00000001
 40
0.0
 40
0.0
 40
0.0
 40
0.0
 40
0.0064514822899994
 40
0.0662152550100631
 40
0.1219263336042801
 40
0.1776197717232966
 40
0.2333072610097638
 40
0.2890005232340858
 40
0.3447112509293172
 40
0.3994623947205911
 40
0.4542203555757992
 40
0.5089400536918337
 40
0.5636371823913164
 40
0.619324692337889
 40
0.6750187641629534
 40
0.7307310863014527
 40
0.7864732549478917
 40
0.8422246502634035
 40
0.8969489350290882
 40
0.9516483258406756
 40
1.0
 40
1.0
 40
1.0
 40
1.0
 10
16.5817514415434
 20
3.960253614442997
 30
0.0
 10
16.63720181503705
 20
3.963368957702696
 30
0.0
 10
17.20632073317735
 20
3.995343508528733
 30
0.0
 10
18.25426167766854
 20
3.871311193277213
 30
0.0
 10
19.72521515084307
 20
3.591049281586515
 30
0.0
 10
21.16106183964767
 20
3.142998383215001
 30
0.0
 10
22.59671998472771
 20
2.563192158571961
 30
0.0
 10
24.03256104482508
 20
1.870620770386861
 30
0.0
 10
25.46043238144703
 20
1.101505166470527
 30
0.0
 10
26.88046077837141
 20
0.290334199879226
 30
0.0
 10
28.29204780822424
 20
-0.5279756415822956
 30
0.0
 10
29.70288393567517
 20
-1.324308654793784
 30
0.0
 10
31.12159649946677
 20
-2.069349802939477
 30
0.0
 10
32.54871442724795
 20
-2.730281793038053
 30
0.0
 10
33.98457585666588
 20
-3.276382479166577
 30
0.0
 10
35.42099730811974
 20
-3.68003573544307
 30
0.0
 10
36.8580950173243
 20
-3.923243066432305
 30
0.0
 10
38.28679733915821
 20
-3.996235377310867
 30
0.0
 10
39.70625501879557
 20
-3.894980276495215
 30
0.0
 10
41.06201369136897
 20
-3.653489628014988
 30
0.0
 10
41.94750346959548
 20
-3.376633843773178
 30
0.0
 10
42.36297625719168
 20
-3.246732802259799
 30
0.0
  0
SPLINE
  5
C3
330
1F
100
AcDbEntity
  8
0
  6
Continuous
 62
     1
370
    15
100
AcDbSpline
210
0.0
220
0.0
230
1.0
 70
     8
 71
     3
 72
    26
 73
    22
 74
     0
 42
0.000000001
 43
0.00000001
 40
0.0
 40
0.0
 40
0.0
 40
0.0
 40
0.0468169400099228
 40
0.1015243680016319
 40
0.1572047399607724
 40
0.212877763173574
 40
0.2685551558668989
 40
0.3242486141360024
 40
0.3799697528360817
 40
0.4347194040371833
 40
0.4894315687311272
 40
0.5441177935197818
 40
0.5987942186302513
 40
0.6544723264661391
 40
0.71016728521463
 40
0.7658907021539944
 40
0.821630235295315
 40
0.8773382274902958
 40
0.9320272030621048
 40
0.9867040426138607
 40
1.0
 40
1.0
 40
1.0
 40
1.0
 10
46.55472398414073
 20
-3.957340319723083
 30
0.0
 10
46.15221681060631
 20
-3.949730818666062
 30
0.0
 10
45.27936424056343
 20
-3.933229317597046
 30
0.0
 10
43.92807837068968
 20
-3.705305236598575
 30
0.0
 10
42.50070148314526
 20
-3.32238604625458
 30
0.0
 10
41.06504259268928
 20
-2.788066610246939
 30
0.0
 10
39.62924372091813
 20
-2.133638171044069
 30
0.0
 10
38.19295055725888
 20
-1.385940061273342
 30
0.0
 10
36.76448587584406
 20
-0.5826854744981097
 30
0.0
 10
35.34427428989364
 20
0.2401159549602901
 30
0.0
 10
33.93326874629443
 20
1.048270572120672
 30
0.0
 10
32.52299757836489
 20
1.812295200655233
 30
0.0
 10
31.10449918282616
 20
2.504450320974437
 30
0.0
 10
29.67722783491624
 20
3.093664660903055
 30
0.0
 10
28.24089503442114
 20
3.551897962121434
 30
0.0
 10
26.80386540063591
 20
3.85584213199429
 30
0.0
 10
25.36658147675092
 20
3.991255163125814
 30
0.0
 10
23.93843038518685
 20
3.956267488683876
 30
0.0
 10
22.5195651926164
 20
3.742141365444912
 30
0.0
 10
21.46530357368049
 20
3.495731687232407
 30
0.0
 10
20.88106538062406
 20
3.283603171593457
 30
0.0
 10
20.76678427894552
 20
3.242109341246921
 30
0.0
  0
SPLINE
  5
C4
330
1F
100
AcDbEntity
  8
0
  6
Continuous
 62
     1
370
    15
100
AcDbSpline
210
0.0
220
0.0
230
1.0
 70
     8
 71
     3
 72
    10
 73
     6
 74
     0
 42
0.000000001
 43
0.00000001
 40
0.0
 40
0.0
 40
0.0
 40
0.0
 40
0.3842812076476577
 40
0.7685868552391116
 40
1.0
 40
1.0
 40
1.0
 40
1.0
 10
5.962315328507803
 20
-3.966320059451373
 30
0.0
 10
6.475740211798859
 20
-3.937968220135367
 30
0.0
 10
7.502622631747935
 20
-3.881262738351533
 30
0.0
 10
8.838703126673204
 20
-3.613858513469626
 30
0.0
 10
9.661373814509775
 20
-3.337579271274617
 30
0.0
 10
9.970568228160081
 20
-3.233741855456527
 30
0.0
  0
SPLINE
  5
C5
330
1F
100
AcDbEntity
  8
0
  6
Continuous
 62
     1
370
    15
100
AcDbSpline
210
0.0
220
0.0
230
1.0
 70
     8
 71
     3
 72
    26
 73
    22
 74
     0
 42
0.000000001
 43
0.00000001
 40
0.0
 40
0.0
 40
0.0
 40
0.0
 40
0.0354386100914824
 40
0.0901489161525851
 40
0.1448366566709366
 40
0.2005146084479572
 40
0.2561991209771926
 40
0.3119018806873907
 40
0.3676344817826923
 40
0.423376307963407
 40
0.4780911998869103
 40
0.5327812021290989
 40
0.5874624634874556
 40
0.6421511875705666
 40
0.6978555940461019
 40
0.7535906178861903
 40
0.8093304485305114
 40
0.8650383061718896
 40
0.9207255650918184
 40
0.975407087757336
 40
1.0
 40
1.0
 40
1.0
 40
1.0
 10
27.37840042369643
 20
3.950754656866579
 30
0.0
 10
27.68305088680281
 20
3.951523913679582
 30
0.0
 10
28.45802228053203
 20
3.953480753063411
 30
0.0
 10
29.70288207985333
 20
3.76743055385705
 30
0.0
 10
31.12159700657966
 20
3.421437092698426
 30
0.0
 10
32.5487142906871
 20
2.919934077309553
 30
0.0
 10
33.98457589191135
 20
2.290280707591266
 30
0.0
 10
35.42099730374896
 20
1.560439506282217
 30
0.0
 10
36.85809499952368
 20
0.7629164581681919
 30
0.0
 10
38.28679741417101
 20
-0.0627359329248032
 30
0.0
 10
39.70625474228484
 20
-0.880664609858404
 30
0.0
 10
41.11648533271138
 20
-1.656550821762405
 30
0.0
 10
42.52644288167649
 20
-2.362829179682637
 30
0.0
 10
43.94515143375286
 20
-2.973623814524401
 30
0.0
 10
45.37306754991322
 20
-3.46077595155302
 30
0.0
 10
46.81020335241223
 20
-3.800335299058537
 30
0.0
 10
48.24742064257224
 20
-3.973941069418501
 30
0.0
 10
49.68398325823046
 20
-3.976749360614795
 30
0.0
 10
51.11138712594275
 20
-3.799602489010326
 30
0.0
 10
52.27124871718244
 20
-3.54708157592591
 30
0.0
 10
52.9525694356286
 20
-3.309671087013224
 30
0.0
 10
53.16393216129496
 20
-3.236020416073971
 30
0.0
  0
LINE
  5
C6
330
1F
100
AcDbEntity
  8
0
  6
Continuous
 62
     1
370
    15
100
AcDbLine
 10
56.76231532850781
 20
-3.967675071276099
 30
0.0
 11
56.76231532850781
 21
-3.59334792613485
 31
0.0
  0
SPLINE
  5
C7
330
1F
100
AcDbEntity
  8
0
  6
Continuous
 62
     1
370
    15
100
AcDbSpline
210
0.0
220
0.0
230
1.0
 70
     8
 71
     3
 72
    25
 73
    21
 74
     0
 42
0.000000001
 43
0.00000001
 40
0.0
 40
0.0
 40
0.0
 40
0.0
 40
0.0570452161877842
 40
0.11405830319415
 40
0.1710511099687811
 40
0.2280355879193525
 40
0.2850237306258449
 40
0.3410110687762674
 40
0.3970342558822437
 40
0.4530696893226877
 40
0.5090656984165871
 40
0.5660575682418008
 40
0.6230419162279894
 40
0.680030736613633
 40
0.7370360009843149
 40
0.7940695977720296
 40
0.8501088246026042
 40
0.9061096819672256
 40
0.9620839884369177
 40
1.0
 40
1.0
 40
1.0
 40
1.0
 10
56.76231532850781
 20
-3.967675071276099
 30
0.0
 10
56.28316571187911
 20
-3.912717058088035
 30
0.0
 10
55.32513634673665
 20
-3.832013194996346
 30
0.0
 10
53.88861856395113
 20
-3.498044570388348
 30
0.0
 10
52.4526962642511
 20
-3.024245920151949
 30
0.0
 10
51.01703401746462
 20
-2.415580424948135
 30
0.0
 10
49.58977962210228
 20
-1.706911074934647
 30
0.0
 10
48.17057930452742
 20
-0.9295315705055387
 30
0.0
 10
46.75914150199768
 20
-0.11790264247772
 30
0.0
 10
45.34751866962483
 20
0.6985866560772287
 30
0.0
 10
43.92807863706501
 20
1.490847079253951
 30
0.0
 10
42.50070141098101
 20
2.224033248711404
 30
0.0
 10
41.06504261302804
 20
2.864884474323188
 30
0.0
 10
39.62924371172623
 20
3.381160370041922
 30
0.0
 10
38.19295057368998
 20
3.750555419064908
 30
0.0
 10
36.76448581971095
 20
3.955200290422109
 30
0.0
 10
35.34427449402556
 20
3.991510516880367
 30
0.0
 10
33.93326798508672
 20
3.854867704779838
 30
0.0
 10
32.67456030116919
 20
3.606041159465934
 30
0.0
 10
31.8861456557295
 20
3.345520778423074
 30
0.0
 10
31.56775778103343
 20
3.240314043724492
 30
0.0
  0
SPLINE
  5
C8
330
1F
100
AcDbEntity
  8
0
  6
Continuous
 62
     1
370
    15
100
AcDbSpline
210
0.0
220
0.0
230
1.0
 70
     8
 71
     3
 72
    13
 73
     9
 74
     0
 42
0.000000001
 43
0.00000001
 40
0.0
 40
0.0
 40
0.0
 40
0.0
 40
0.0603475336826189
 40
0.2483244755591734
 40
0.4362725785839498
 40
0.6241974411305561
 40
0.8121046955525921
 40
1.0
 40
1.0
 40
1.0
 40
1.0
 10
14.1601944266472
 20
-3.945974306042479
 30
0.0
 10
13.99527352919854
 20
-3.952053733415495
 30
0.0
 10
13.31663940998047
 20
-3.977070010336502
 30
0.0
 10
12.12442637751309
 20
-3.817927685313353
 30
0.0
 10
10.58361271594029
 20
-3.47406440063054
 30
0.0
 10
9.04303152152894
 20
-2.940910892274649
 30
0.0
 10
7.502621734555913
 20
-2.269637770739314
 30
0.0
 10
6.475739912741211
 20
-1.732688925993613
 30
0.0
 10
5.962315328507843
 20
-1.464223040716798
 30
0.0
  0
SPLINE
  5
C9
330
1F
100
AcDbEntity
  8
0
  6
Continuous
 62
     1
370
    15
100
AcDbSpline
210
0.0
220
0.0
230
1.0
 70
     8
 71
     3
 72
    10
 73
     6
 74
     0
 42
0.000000001
 43
0.00000001
 40
0.0
 40
0.0
 40
0.0
 40
0.0
 40
0.3994278132775397
 40
0.7986306595984443
 40
1.0
 40
1.0
 40
1.0
 40
1.0
 10
56.76231532850781
 20
3.969824928723901
 30
0.0
 10
56.28316639316832
 20
3.913488011966149
 30
0.0
 10
55.3251383902206
 20
3.830027118365409
 30
0.0
 10
54.12572436085482
 20
3.568438659710377
 30
0.0
 10
53.40544036891116
 20
3.321101416046321
 30
0.0
 10
53.16393216129496
 20
3.238170273521757
 30
0.0
  0
SPLINE
  5
CA
330
1F
100
AcDbEntity
  8
0
  6
Continuous
 62
     1
370
    15
100
AcDbSpline
210
0.0
220
0.0
230
1.0
 70
     8
 71
     3
 72
    26
 73
    22
 74
     0
 42
0.000000001
 43
0.00000001
 40
0.0
 40
0.0
 40
0.0
 40
0.0
 40
0.0159644835485456
 40
0.070684190373152
 40
0.1253779537166253
 40
0.1800619160310173
 40
0.2357476991538671
 40
0.2914503355122364
 40
0.3471814339844713
 40
0.4029286508802982
 40
0.458644322481832
 40
0.5133408369876581
 40
0.5680252138004677
 40
0.6227136542252384
 40
0.6774223340787291
 40
0.7371787167804328
 40
0.7969452811230465
 40
0.8567161712876249
 40
0.9164766889377559
 40
0.9762280383106852
 40
1.0
 40
1.0
 40
1.0
 40
1.0
 10
35.75570165286672
 20
-3.950424396821591
 30
0.0
 10
35.61846691480083
 20
-3.955415974213277
 30
0.0
 10
35.01084773803505
 20
-3.977516633188146
 30
0.0
 10
33.93327369165358
 20
-3.848233045532715
 30
0.0
 10
32.52299625435917
 20
-3.563741412098774
 30
0.0
 10
31.10449954567902
 20
-3.114572895845003
 30
0.0
 10
29.67722773357318
 20
-2.532420299531664
 30
0.0
 10
28.24089507404911
 20
-1.835552757782809
 30
0.0
 10
26.8038653434984
 20
-1.058993148231629
 30
0.0
 10
25.36658166566036
 20
-0.2364318525767938
 30
0.0
 10
23.93842969254079
 20
0.5917211692651045
 30
0.0
 10
22.51956772315652
 20
1.389390212861946
 30
0.0
 10
21.10959602689501
 20
2.12395697833682
 30
0.0
 10
19.69949476045405
 20
2.769479265628272
 30
0.0
 10
18.24571451217057
 20
3.314983484340832
 30
0.0
 10
16.74801325299737
 20
3.723338353814647
 30
0.0
 10
15.20680735666003
 20
3.956521682131795
 30
0.0
 10
13.66550834113072
 20
3.99451517281276
 30
0.0
 10
12.12442663978385
 20
3.822666575563557
 30
0.0
 10
10.89281035981312
 20
3.562447944510546
 30
0.0
 10
10.17489693770808
 20
3.308242358259632
 30
0.0
 10
9.970568228160069
 20
3.235891712904312
 30
0.0
  0
SPLINE
  5
CB
330
1F
100
AcDbEntity
  8
외형선
  6
Continuous
370
    15
100
AcDbSpline
210
0.0
220
0.0
230
1.0
 70
    24
 71
     3
 72
    14
 73
    10
 74
     0
 42
0.000000001
 43
0.00000001
 40
0.0
 40
0.0
 40
0.0
 40
0.0
 40
0.107132381136581
 40
0.2546313152716967
 40
0.4064077284890145
 40
0.5539066626242328
 40
0.7056830758417006
 40
0.8508078090669345
 40
1.0
 40
1.0
 40
1.0
 40
1.0
 10
5.962315328507781
 20
-1.529888028663954
 30
0.0
 10
5.962315328507788
 20
-1.593643976253718
 30
0.0
 10
5.962315328507788
 20
-1.745178560092363
 30
0.0
 10
5.962315328507822
 20
-2.041634870892234
 30
0.0
 10
5.962315328507795
 20
-2.396798539213331
 30
0.0
 10
5.962315328507843
 20
-2.783221863922411
 30
0.0
 10
5.962315328507788
 20
-3.178142054388909
 30
0.0
 10
5.962315328507865
 20
-3.5794715990752
 30
0.0
 10
5.962315328507815
 20
-3.836187966561432
 30
0.0
 10
5.962315328507795
 20
-3.966320059451371
 30
0.0
  0
LINE
  5
CC
330
1F
100
AcDbEntity
  8
0
  6
Continuous
 62
     1
370
    15
100
AcDbLine
 10
56.76231532850781
 20
1.683662490477823
 30
0.0
 11
56.76231532850781
 21
3.969824928723901
 31
0.0
  0
LINE
  5
CD
330
1F
100
AcDbEntity
  8
중심선
 48
0.8
100
AcDbLine
 10
-41.4876846714922
 20
0.0010749287238892
 30
0.0
 11
59.76231532850781
 21
0.0010749287239016
 31
0.0
  0
LINE
  5
CE
330
1F
100
AcDbEntity
  8
참조1
100
AcDbLine
 10
11.78060364977729
 20
0.0010749287238892
 30
0.0
 11
11.78060364977729
 21
-39.99892507127611
 31
0.0
  0
LINE
  5
CF
330
1F
100
AcDbEntity
  8
참조1
100
AcDbLine
 10
11.78060364977729
 20
-39.99892507127611
 30
0.0
 11
-21.63450316453139
 21
-39.9989250712761
 31
0.0
  0
CIRCLE
  5
D0
330
1F
100
AcDbEntity
  8
해칭선
100
AcDbCircle
 10
0.0
 20
0.0
 30
0.0
 40
3.000000000000001
  0
INSERT
  5
D1
330
1F
100
AcDbEntity
  8
0
  6
Continuous
 62
     7
100
AcDbBlockReference
 66
     1
  2
블럭10
 10
-4.802957603617397
 20
-52.04609937292004
 30
0.0
  0
ATTRIB
  5
D2
330
D1
100
AcDbEntity
  8
FORMAT
 62
     2
100
AcDbText
 10
-13.98425289235868
 20
-49.97073246008785
 30
0.0
 40
4.233333333333333
  1
E2036020 [ 4 FLUTE ]
 41
0.75
  7
SLDTEXTSTYLE0
 11
-13.98425289235868
 21
-52.08739912675452
 31
0.0
100
AcDbAttribute
  2
AUTOATTR0
 70
     0
 74
     1
  0
SEQEND
  5
D3
330
D1
100
AcDbEntity
  8
0
  6
Continuous
 62
     7
  0
HATCH
  5
D4
330
1F
100
AcDbEntity
  8
중심선
100
AcDbHatch
 10
0.0
 20
0.0
 30
0.0
210
0.0
220
0.0
230
1.0
  2
SOLID
 70
     1
 71
     0
 91
        1
 92
        0
 93
        4
 72
     1
 10
0.9119517007634395
 20
-35.7989250712761
 11
-2.534323543073842
 21
-35.7989250712761
 72
     1
 10
-2.534323543073842
 20
-35.7989250712761
 11
-4.662553402277865
 21
-38.33525065184867
 72
     1
 10
-4.662553402277865
 20
-38.33525065184867
 11
-1.216245073327434
 21
-38.33521122254619
 72
     1
 10
-1.216245073327434
 20
-38.33521122254619
 11
0.9119517007634392
 21
-35.7989250712761
 97
        0
 75
     0
 76
     1
 98
        1
 10
-2.643288321269479
 20
0.0
  0
HATCH
  5
D5
330
1F
100
AcDbEntity
  8
중심선
100
AcDbHatch
 10
0.0
 20
0.0
 30
0.0
210
0.0
220
0.0
230
1.0
  2
SOLID
 70
     1
 71
     0
 91
        1
 92
        0
 93
        4
 72
     1
 10
5.924715691799447
 20
-35.79892507127608
 11
2.478440447962136
 21
-35.79892507127613
 72
     1
 10
2.478440447962136
 20
-35.79892507127613
 11
-2.052697560395281
 21
-41.19892507127612
 72
     1
 10
-2.05269756039528
 20
-41.19892507127612
 11
1.393577683442002
 21
-41.19892507127612
 72
     1
 10
1.393577683442002
 20
-41.19892507127612
 11
5.924715691799447
 21
-35.79892507127608
 97
        0
 75
     0
 76
     1
 98
        1
 10
-2.643288321269479
 20
0.0
  0
HATCH
  5
D6
330
1F
100
AcDbEntity
  8
중심선
100
AcDbHatch
 10
0.0
 20
0.0
 30
0.0
210
0.0
220
0.0
230
1.0
  2
SOLID
 70
     1
 71
     0
 91
        1
 92
        0
 93
        4
 72
     1
 10
10.93747968283532
 20
-35.79892507127608
 11
7.491204438998226
 21
-35.79892507127608
 72
     1
 10
7.491204438998226
 20
-35.79892507127608
 11
0.4427675371089217
 21
-44.19892507127612
 72
     1
 10
0.4427675371089217
 20
-44.19892507127612
 11
3.889042780946204
 21
-44.19892507127612
 72
     1
 10
3.889042780946204
 20
-44.19892507127612
 11
10.93747968283532
 21
-35.79892507127608
 97
        0
 75
     0
 76
     1
 98
        1
 10
-2.643288321269479
 20
0.0
  0
HATCH
  5
D7
330
1F
100
AcDbEntity
  8
중심선
100
AcDbHatch
 10
0.0
 20
0.0
 30
0.0
210
0.0
220
0.0
230
1.0
  2
SOLID
 70
     1
 71
     0
 91
        1
 92
        0
 93
        6
 72
     3
 10
15.73737011384748
 20
-39.99892507132738
 11
3.960054785062281
 21
1.540882976769353E-10
 40
0.393933944016263
 50
17.09539180608436
 51
320.0019657685077
 73
     0
 72
     1
 10
17.42036976954805
 20
-38.58681907591441
 11
19.72567164324912
 21
-36.65249236586649
 72
     3
 10
15.73737011379464
 20
-39.99892507127625
 11
6.600054785286831
 21
-1.278976924368180E-13
 40
0.6363583540795978
 50
39.99873849337406
 51
368.4976242363724
 73
     1
 72
     1
 10
22.16270260569525
 20
-39.03892507120613
 11
14.41743742063056
 21
-39.03892507120613
 72
     1
 10
14.41743742063056
 20
-39.03892507120613
 11
14.41741237618463
 21
-40.95892507120602
 72
     1
 10
14.41741237618463
 20
-40.95892507120602
 11
18.85879214565666
 21
-40.95892507120599
 97
        0
 75
     0
 76
     1
 98
        1
 10
-2.643288321269479
 20
0.0
  0
DIMENSION
  5
D8
330
1F
100
AcDbEntity
  8
치수문자_일반주서
100
AcDbDimension
  2
_D
 10
5.962315328507799
 20
17.13606809980073
 30
0.0
 11
31.36231532850779
 21
17.13606809980073
 31
0.0
 70
   160
  1
<>
 71
     2
 42
50.80000000000001
  3
SLDDIMSTYLE1
100
AcDbAlignedDimension
 13
56.76231532850781
 23
3.969824928723901
 33
0.0
 14
5.962315328507799
 24
3.968469916899158
 34
0.0
 50
0.000000000000004
100
AcDbRotatedDimension
1001
ACAD
1000
DSTYLE
1002
{
1070
   171
1070
     6
1070
   273
1070
     7
1002
}
  0
DIMENSION
  5
ED
330
1F
100
AcDbEntity
  8
치수문자_일반주서
100
AcDbDimension
  2
_D_1
 10
-38.48768467149219
 20
32.85727329760351
 30
0.0
 11
9.137315328507809
 21
32.85727329760351
 31
0.0
 70
   160
  1
<>
 71
     2
 42
95.25
  3
SLDDIMSTYLE1
100
AcDbAlignedDimension
 13
56.76231532850781
 23
3.969824928723901
 33
0.0
 14
-38.48768467149219
 24
3.811074928723895
 34
0.0
 50
0.0000000000000043
100
AcDbRotatedDimension
1001
ACAD
1000
DSTYLE
1002
{
1070
   171
1070
     6
1070
   273
1070
     7
1002
}
  0
DIMENSION
  5
101
330
1F
100
AcDbEntity
  8
치수문자_일반주서
100
AcDbDimension
  2
_D_2
 10
-49.78845750931937
 20
-4.761425071276156
 30
0.0
 11
-49.78845750931939
 21
0.0010749287238959
 31
0.0
 70
   160
  1
%%c<>
 71
     2
 42
9.525000000000006
 52
-270.0
  3
SLDDIMSTYLE1
100
AcDbAlignedDimension
 13
-37.5351846714922
 23
4.763574928723896
 33
0.0
 14
-37.5351846714922
 24
-4.761425071276109
 34
0.0
 50
90.0000000000002
100
AcDbRotatedDimension
1001
ACAD
1000
DSTYLE
1002
{
1070
   171
1070
     6
1070
   273
1070
     7
1002
}
  0
LINE
  5
127
330
1F
100
AcDbEntity
  8
참조1
100
AcDbLine
 10
76.33783746512287
 20
7.441074928723896
 30
0.0
 11
76.33783746512287
 21
-7.438925071276109
 31
0.0
  0
LINE
  5
128
330
1F
100
AcDbEntity
  8
참조1
100
AcDbLine
 10
89.03783746512288
 20
5.441074928723896
 30
0.0
 11
76.33783746512287
 21
5.441074928723896
 31
0.0
  0
SOLID
  5
129
330
1F
100
AcDbEntity
  8
참조1
100
AcDbTrace
 10
76.33783746512287
 20
5.441074928723896
 30
0.0
 11
82.68783746512287
 21
4.425074928723896
 31
0.0
 12
82.68783746512287
 22
6.457074928723896
 32
0.0
 13
82.68783746512287
 23
6.457074928723896
 33
0.0
  0
LINE
  5
12A
330
1F
100
AcDbEntity
  8
참조1
100
AcDbLine
 10
89.03783746512288
 20
-5.438925071276109
 30
0.0
 11
76.33783746512287
 21
-5.438925071276109
 31
0.0
  0
SOLID
  5
12B
330
1F
100
AcDbEntity
  8
참조1
100
AcDbTrace
 10
76.33783746512287
 20
-5.438925071276109
 30
0.0
 11
82.68783746512287
 21
-6.454925071276109
 31
0.0
 12
82.68783746512287
 22
-4.422925071276109
 32
0.0
 13
82.68783746512287
 23
-4.422925071276109
 33
0.0
  0
MTEXT
  5
12C
330
1F
100
AcDbEntity
  8
참조1
100
AcDbMText
 10
85.72218759774887
 20
11.01136670591222
 30
0.0
 40
3.5
 41
0.0
 71
     1
 72
     1
  1
A
  7
SLDTEXTSTYLE0
 73
     1
 44
1.0
  0
MTEXT
  5
12D
330
1F
100
AcDbEntity
  8
참조1
100
AcDbMText
 10
85.72218759774887
 20
0.1313667059122201
 30
0.0
 40
3.5
 41
0.0
 71
     1
 72
     1
  1
A
  7
SLDTEXTSTYLE0
 73
     1
 44
1.0
  0
INSERT
  5
134
330
1F
100
AcDbEntity
  8
해칭선
100
AcDbBlockReference
  2
SW_DOWELSYMBOL_0
 10
0.0
 20
0.0
 30
0.0
  0
LINE
  5
275
330
1F
100
AcDbEntity
  8
외형선
  6
Continuous
370
    15
100
AcDbLine
 10
-37.53518467149219
 20
4.763574928723891
 30
0.0
 11
-23.4826346714923
 21
4.763574928723891
 31
0.0
  0
LINE
  5
2A9
330
1F
100
AcDbEntity
  8
외형선
  6
Continuous
370
    15
100
AcDbLine
 10
-23.48263467149231
 20
4.763574928723896
 30
0.0
 11
-37.5351846714922
 21
4.763574928723896
 31
0.0
  0
DIMENSION
  5
2AA
330
1F
100
AcDbEntity
  8
치수문자_일반주서
100
AcDbDimension
  2
*D16
 10
72.79784214749856
 20
-3.967675071276098
 30
0.0
 11
72.79784214749856
 21
23.92261060077092
 31
0.0
 70
   160
 71
     5
 42
7.9375
  3
SLDDIMSTYLE1
100
AcDbAlignedDimension
 13
56.76231532850781
 23
3.969824928723901
 33
0.0
 14
56.76231532850781
 24
-3.967675071276099
 34
0.0
 50
90.0
100
AcDbRotatedDimension
1001
ACAD
1000
DSTYLE
1002
{
1070
   171
1070
     6
1070
   273
1070
     7
1002
}
  0
LINE
  5
311
330
1F
100
AcDbEntity
  8
외형선
  6
Continuous
370
    15
100
AcDbLine
 10
-22.21263467149231
 20
3.493574928723898
 30
0.0
 11
-15.07523467149218
 21
3.493574928723898
 31
0.0
  0
LINE
  5
312
330
1F
100
AcDbEntity
  8
외형선
  6
Continuous
370
    15
100
AcDbLine
 10
-22.21263467149231
 20
3.493574928723898
 30
0.0
 11
-23.48263467149229
 21
4.76357492872388
 31
0.0
  0
LINE
  5
313
330
1F
100
AcDbEntity
  8
외형선
  6
Continuous
370
    15
100
AcDbLine
 10
-15.07523467149218
 20
3.493574928723898
 30
0.0
 11
-13.80523467149209
 21
4.76357492872388
 31
0.0
  0
ENDSEC
  0
SECTION
  2
OBJECTS
  0
DICTIONARY
  5
C
330
0
100
AcDbDictionary
281
     1
  3
ACAD_GROUP
350
D
  3
ACAD_IMAGE_VARS
350
158
  3
ACAD_LAYOUT
350
1A
  3
ACAD_MLINESTYLE
350
17
  3
ACAD_PLOTSETTINGS
350
19
  3
ACAD_PLOTSTYLENAME
350
E
  3
ACAD_SCALELIST
350
47
  3
APPDATA
350
156
  3
DWGPROPS
350
31A
  0
DICTIONARY
  5
205
330
2
100
AcDbDictionary
280
     1
281
     1
  3
ACAD_LAYERSTATES
360
206
  0
DICTIONARY
  5
D
102
{ACAD_REACTORS
330
C
102
}
330
C
100
AcDbDictionary
281
     1
  0
RASTERVARIABLES
  5
158
102
{ACAD_REACTORS
330
C
102
}
330
C
100
AcDbRasterVariables
 90
        0
 70
     1
 71
     1
 72
     1
  0
DICTIONARY
  5
1A
102
{ACAD_REACTORS
330
C
102
}
330
C
100
AcDbDictionary
281
     1
  3
Layout1
350
1E
  3
Layout2
350
26
  3
Model
350
22
  0
DICTIONARY
  5
17
102
{ACAD_REACTORS
330
C
102
}
330
C
100
AcDbDictionary
281
     1
  3
Standard
350
18
  0
DICTIONARY
  5
19
102
{ACAD_REACTORS
330
C
102
}
330
C
100
AcDbDictionary
281
     1
  0
ACDBDICTIONARYWDFLT
  5
E
102
{ACAD_REACTORS
330
C
102
}
330
C
100
AcDbDictionary
281
     1
  3
Normal
350
F
100
AcDbDictionaryWithDefault
340
F
  0
DICTIONARY
  5
47
102
{ACAD_REACTORS
330
C
102
}
330
C
100
AcDbDictionary
281
     1
  3
A0
350
48
  3
A1
350
49
  3
A2
350
4A
  3
A3
350
4B
  3
A4
350
4C
  3
A5
350
4D
  3
A6
350
4E
  3
A7
350
4F
  3
A8
350
50
  3
A9
350
51
  3
B0
350
52
  3
B1
350
53
  3
B2
350
54
  3
B3
350
55
  3
B4
350
56
  3
B5
350
57
  3
B6
350
58
  3
B7
350
59
  3
B8
350
5A
  3
B9
350
5B
  3
C0
350
5C
  3
C1
350
5D
  3
C2
350
5E
  3
C3
350
5F
  3
C4
350
60
  3
C5
350
61
  3
C6
350
62
  3
C7
350
63
  3
C8
350
64
  3
C9
350
65
  3
D0
350
66
  3
D1
350
67
  3
D2
350
68
  0
DICTIONARY
  5
156
102
{ACAD_REACTORS
330
C
102
}
330
C
100
AcDbDictionary
281
     1
  0
XRECORD
  5
31A
102
{ACAD_REACTORS
330
C
102
}
330
C
100
AcDbXrecord
280
     1
  1
DWGPROPS COOKIE
  2

  3

  4

  6

  7

  8
12017012
  9

300
=
301
=
302
=
303
=
304
=
305
=
306
=
307
=
308
=
309
=
 40
0.0
 41
2458312.300468577
 42
2458320.092373287
  1

 90
        0
  0
DICTIONARY
  5
206
102
{ACAD_REACTORS
330
205
102
}
330
205
100
AcDbDictionary
281
     1
  0
LAYOUT
  5
1E
102
{ACAD_REACTORS
330
1A
102
}
330
1A
100
AcDbPlotSettings
  1

  2
none_device
  4

  6

 40
0.0
 41
0.0
 42
0.0
 43
0.0
 44
0.0
 45
0.0
 46
0.0
 47
0.0
 48
0.0
 49
0.0
140
0.0
141
0.0
142
1.0
143
1.0
 70
   688
 72
     1
 73
     0
 74
     5
  7

 75
    16
147
1.0
148
0.0
149
0.0
100
AcDbLayout
  1
Layout1
 70
     1
 71
     1
 10
0.0
 20
0.0
 11
420.0
 21
297.0
 12
0.0
 22
0.0
 32
0.0
 14
1.000000000000000E+20
 24
1.000000000000000E+20
 34
1.000000000000000E+20
 15
-1.000000000000000E+20
 25
-1.000000000000000E+20
 35
-1.000000000000000E+20
146
0.0
 13
0.0
 23
0.0
 33
0.0
 16
1.0
 26
0.0
 36
0.0
 17
0.0
 27
1.0
 37
0.0
 76
     0
330
1B
  0
LAYOUT
  5
26
102
{ACAD_REACTORS
330
1A
102
}
330
1A
100
AcDbPlotSettings
  1

  2
none_device
  4

  6

 40
0.0
 41
0.0
 42
0.0
 43
0.0
 44
0.0
 45
0.0
 46
0.0
 47
0.0
 48
0.0
 49
0.0
140
0.0
141
0.0
142
1.0
143
1.0
 70
   688
 72
     1
 73
     0
 74
     5
  7

 75
    16
147
1.0
148
0.0
149
0.0
100
AcDbLayout
  1
Layout2
 70
     1
 71
     2
 10
0.0
 20
0.0
 11
0.0
 21
0.0
 12
0.0
 22
0.0
 32
0.0
 14
0.0
 24
0.0
 34
0.0
 15
0.0
 25
0.0
 35
0.0
146
0.0
 13
0.0
 23
0.0
 33
0.0
 16
1.0
 26
0.0
 36
0.0
 17
0.0
 27
1.0
 37
0.0
 76
     0
330
23
  0
LAYOUT
  5
22
102
{ACAD_REACTORS
330
1A
102
}
330
1A
100
AcDbPlotSettings
  1

  2
none_device
  4
ANSI_A_(11.00_x_8.50_Inches)
  6

 40
6.35
 41
19.05
 42
6.35000508
 43
19.05000254
 44
279.4
 45
215.9
 46
70.96361226028735
 47
93.52835777293257
 48
0.0
 49
0.0
140
0.0
141
0.0
142
0.0515868769441533
143
1.0
 70
  1696
 72
     0
 73
     0
 74
     0
  7

 75
     0
147
0.0235690232323232
148
0.0
149
0.0
100
AcDbLayout
  1
Model
 70
     1
 71
     0
 10
0.0
 20
0.0
 11
420.0
 21
297.0
 12
0.0
 22
0.0
 32
0.0
 14
1.000000000000000E+20
 24
1.000000000000000E+20
 34
1.000000000000000E+20
 15
-1.000000000000000E+20
 25
-1.000000000000000E+20
 35
-1.000000000000000E+20
146
0.0
 13
0.0
 23
0.0
 33
0.0
 16
1.0
 26
0.0
 36
0.0
 17
0.0
 27
1.0
 37
0.0
 76
     0
330
1F
331
29
  0
MLINESTYLE
  5
18
102
{ACAD_REACTORS
330
17
102
}
330
17
100
AcDbMlineStyle
  2
Standard
 70
     0
  3

 62
   256
 51
90.0
 52
90.0
 71
     2
 49
0.5
 62
   256
  6
BYLAYER
 49
-0.5
 62
   256
  6
BYLAYER
  0
ACDBPLACEHOLDER
  5
F
102
{ACAD_REACTORS
330
E
102
}
330
E
  0
SCALE
  5
48
102
{ACAD_REACTORS
330
47
102
}
330
47
100
AcDbScale
 70
     0
300
1:1
140
1.0
141
1.0
290
     1
  0
SCALE
  5
49
102
{ACAD_REACTORS
330
47
102
}
330
47
100
AcDbScale
 70
     0
300
1:2
140
1.0
141
2.0
290
     0
  0
SCALE
  5
4A
102
{ACAD_REACTORS
330
47
102
}
330
47
100
AcDbScale
 70
     0
300
1:4
140
1.0
141
4.0
290
     0
  0
SCALE
  5
4B
102
{ACAD_REACTORS
330
47
102
}
330
47
100
AcDbScale
 70
     0
300
1:5
140
1.0
141
5.0
290
     0
  0
SCALE
  5
4C
102
{ACAD_REACTORS
330
47
102
}
330
47
100
AcDbScale
 70
     0
300
1:8
140
1.0
141
8.0
290
     0
  0
SCALE
  5
4D
102
{ACAD_REACTORS
330
47
102
}
330
47
100
AcDbScale
 70
     0
300
1:10
140
1.0
141
10.0
290
     0
  0
SCALE
  5
4E
102
{ACAD_REACTORS
330
47
102
}
330
47
100
AcDbScale
 70
     0
300
1:16
140
1.0
141
16.0
290
     0
  0
SCALE
  5
4F
102
{ACAD_REACTORS
330
47
102
}
330
47
100
AcDbScale
 70
     0
300
1:20
140
1.0
141
20.0
290
     0
  0
SCALE
  5
50
102
{ACAD_REACTORS
330
47
102
}
330
47
100
AcDbScale
 70
     0
300
1:30
140
1.0
141
30.0
290
     0
  0
SCALE
  5
51
102
{ACAD_REACTORS
330
47
102
}
330
47
100
AcDbScale
 70
     0
300
1:40
140
1.0
141
40.0
290
     0
  0
SCALE
  5
52
102
{ACAD_REACTORS
330
47
102
}
330
47
100
AcDbScale
 70
     0
300
1:50
140
1.0
141
50.0
290
     0
  0
SCALE
  5
53
102
{ACAD_REACTORS
330
47
102
}
330
47
100
AcDbScale
 70
     0
300
1:100
140
1.0
141
100.0
290
     0
  0
SCALE
  5
54
102
{ACAD_REACTORS
330
47
102
}
330
47
100
AcDbScale
 70
     0
300
2:1
140
2.0
141
1.0
290
     0
  0
SCALE
  5
55
102
{ACAD_REACTORS
330
47
102
}
330
47
100
AcDbScale
 70
     0
300
4:1
140
4.0
141
1.0
290
     0
  0
SCALE
  5
56
102
{ACAD_REACTORS
330
47
102
}
330
47
100
AcDbScale
 70
     0
300
8:1
140
8.0
141
1.0
290
     0
  0
SCALE
  5
57
102
{ACAD_REACTORS
330
47
102
}
330
47
100
AcDbScale
 70
     0
300
10:1
140
10.0
141
1.0
290
     0
  0
SCALE
  5
58
102
{ACAD_REACTORS
330
47
102
}
330
47
100
AcDbScale
 70
     0
300
100:1
140
100.0
141
1.0
290
     0
  0
SCALE
  5
59
102
{ACAD_REACTORS
330
47
102
}
330
47
100
AcDbScale
 70
     0
300
1/128" = 1'-0"
140
0.0078125
141
12.0
290
     0
  0
SCALE
  5
5A
102
{ACAD_REACTORS
330
47
102
}
330
47
100
AcDbScale
 70
     0
300
1/64" = 1'-0"
140
0.015625
141
12.0
290
     0
  0
SCALE
  5
5B
102
{ACAD_REACTORS
330
47
102
}
330
47
100
AcDbScale
 70
     0
300
1/32" = 1'-0"
140
0.03125
141
12.0
290
     0
  0
SCALE
  5
5C
102
{ACAD_REACTORS
330
47
102
}
330
47
100
AcDbScale
 70
     0
300
1/16" = 1'-0"
140
0.0625
141
12.0
290
     0
  0
SCALE
  5
5D
102
{ACAD_REACTORS
330
47
102
}
330
47
100
AcDbScale
 70
     0
300
3/32" = 1'-0"
140
0.09375
141
12.0
290
     0
  0
SCALE
  5
5E
102
{ACAD_REACTORS
330
47
102
}
330
47
100
AcDbScale
 70
     0
300
1/8" = 1'-0"
140
0.125
141
12.0
290
     0
  0
SCALE
  5
5F
102
{ACAD_REACTORS
330
47
102
}
330
47
100
AcDbScale
 70
     0
300
3/16" = 1'-0"
140
0.1875
141
12.0
290
     0
  0
SCALE
  5
60
102
{ACAD_REACTORS
330
47
102
}
330
47
100
AcDbScale
 70
     0
300
1/4" = 1'-0"
140
0.25
141
12.0
290
     0
  0
SCALE
  5
61
102
{ACAD_REACTORS
330
47
102
}
330
47
100
AcDbScale
 70
     0
300
3/8" = 1'-0"
140
0.375
141
12.0
290
     0
  0
SCALE
  5
62
102
{ACAD_REACTORS
330
47
102
}
330
47
100
AcDbScale
 70
     0
300
1/2" = 1'-0"
140
0.5
141
12.0
290
     0
  0
SCALE
  5
63
102
{ACAD_REACTORS
330
47
102
}
330
47
100
AcDbScale
 70
     0
300
3/4" = 1'-0"
140
0.75
141
12.0
290
     0
  0
SCALE
  5
64
102
{ACAD_REACTORS
330
47
102
}
330
47
100
AcDbScale
 70
     0
300
1" = 1'-0"
140
1.0
141
12.0
290
     0
  0
SCALE
  5
65
102
{ACAD_REACTORS
330
47
102
}
330
47
100
AcDbScale
 70
     0
300
1-1/2" = 1'-0"
140
1.5
141
12.0
290
     0
  0
SCALE
  5
66
102
{ACAD_REACTORS
330
47
102
}
330
47
100
AcDbScale
 70
     0
300
3" = 1'-0"
140
3.0
141
12.0
290
     0
  0
SCALE
  5
67
102
{ACAD_REACTORS
330
47
102
}
330
47
100
AcDbScale
 70
     0
300
6" = 1'-0"
140
6.0
141
12.0
290
     0
  0
SCALE
  5
68
102
{ACAD_REACTORS
330
47
102
}
330
47
100
AcDbScale
 70
     0
300
1'-0" = 1'-0"
140
12.0
141
12.0
290
     0
  0
ENDSEC
  0
EOF
