  0
SECTION
  2
HEADER
  9
$ACADVER
  1
AC1015
  9
$ACADMAINTVER
 70
     6
  9
$DWGCODEPAGE
  3
ANSI_949
  9
$INSBASE
 10
0.0
 20
0.0
 30
0.0
  9
$EXTMIN
 10
1.000000000000000E+20
 20
1.000000000000000E+20
 30
1.000000000000000E+20
  9
$EXTMAX
 10
-1.000000000000000E+20
 20
-1.000000000000000E+20
 30
-1.000000000000000E+20
  9
$LIMMIN
 10
0.0
 20
0.0
  9
$LIMMAX
 10
420.0
 20
297.0
  9
$ORTHOMODE
 70
     0
  9
$REGENMODE
 70
     1
  9
$FILLMODE
 70
     1
  9
$QTEXTMODE
 70
     0
  9
$MIRRTEXT
 70
     1
  9
$LTSCALE
 40
1.0
  9
$ATTMODE
 70
     1
  9
$TEXTSIZE
 40
3.5
  9
$TRACEWID
 40
1.0
  9
$TEXTSTYLE
  7
Standard
  9
$CLAYER
  8
0
  9
$CELTYPE
  6
ByLayer
  9
$CECOLOR
 62
   256
  9
$CELTSCALE
 40
1.0
  9
$DISPSILH
 70
     0
  9
$DIMSCALE
 40
1.0
  9
$DIMASZ
 40
3.302
  9
$DIMEXO
 40
1.0
  9
$DIMDLI
 40
3.75
  9
$DIMRND
 40
0.0
  9
$DIMDLE
 40
0.0
  9
$DIMEXE
 40
1.0
  9
$DIMTP
 40
0.0
  9
$DIMTM
 40
0.0
  9
$DIMTXT
 40
3.5
  9
$DIMCEN
 40
2.5
  9
$DIMTSZ
 40
0.0
  9
$DIMTOL
 70
     0
  9
$DIMLIM
 70
     0
  9
$DIMTIH
 70
     1
  9
$DIMTOH
 70
     1
  9
$DIMSE1
 70
     0
  9
$DIMSE2
 70
     0
  9
$DIMTAD
 70
     1
  9
$DIMZIN
 70
     0
  9
$DIMBLK
  1

  9
$DIMASO
 70
     1
  9
$DIMSHO
 70
     1
  9
$DIMPOST
  1

  9
$DIMAPOST
  1

  9
$DIMALT
 70
     0
  9
$DIMALTD
 70
     3
  9
$DIMALTF
 40
0.0393700787401575
  9
$DIMLFAC
 40
1.0
  9
$DIMTOFL
 70
     1
  9
$DIMTVP
 40
0.0
  9
$DIMTIX
 70
     0
  9
$DIMSOXD
 70
     0
  9
$DIMSAH
 70
     0
  9
$DIMBLK1
  1

  9
$DIMBLK2
  1

  9
$DIMSTYLE
  2
ISO-25
  9
$DIMCLRD
 70
     0
  9
$DIMCLRE
 70
     0
  9
$DIMCLRT
 70
     0
  9
$DIMTFAC
 40
1.0
  9
$DIMGAP
 40
1.524
  9
$DIMJUST
 70
     0
  9
$DIMSD1
 70
     0
  9
$DIMSD2
 70
     0
  9
$DIMTOLJ
 70
     0
  9
$DIMTZIN
 70
     0
  9
$DIMALTZ
 70
     0
  9
$DIMALTTZ
 70
     0
  9
$DIMUPT
 70
     0
  9
$DIMDEC
 70
     2
  9
$DIMTDEC
 70
     2
  9
$DIMALTU
 70
     2
  9
$DIMALTTD
 70
     3
  9
$DIMTXSTY
  7
Standard
  9
$DIMAUNIT
 70
     0
  9
$DIMADEC
 70
     2
  9
$DIMALTRND
 40
0.0
  9
$DIMAZIN
 70
     0
  9
$DIMDSEP
 70
    44
  9
$DIMATFIT
 70
     3
  9
$DIMFRAC
 70
     0
  9
$DIMLDRBLK
  1

  9
$DIMLUNIT
 70
     2
  9
$DIMLWD
 70
    -2
  9
$DIMLWE
 70
    -2
  9
$DIMTMOVE
 70
     0
  9
$LUNITS
 70
     2
  9
$LUPREC
 70
     2
  9
$SKETCHINC
 40
1.0
  9
$FILLETRAD
 40
10.0
  9
$AUNITS
 70
     0
  9
$AUPREC
 70
     2
  9
$MENU
  1
.
  9
$ELEVATION
 40
0.0
  9
$PELEVATION
 40
0.0
  9
$THICKNESS
 40
0.0
  9
$LIMCHECK
 70
     0
  9
$CHAMFERA
 40
0.0
  9
$CHAMFERB
 40
0.0
  9
$CHAMFERC
 40
0.0
  9
$CHAMFERD
 40
0.0
  9
$SKPOLY
 70
     0
  9
$TDCREATE
 40
2458312.675256782
  9
$TDUCREATE
 40
2458312.300256782
  9
$TDUPDATE
 40
2458320.467661319
  9
$TDUUPDATE
 40
2458320.092661319
  9
$TDINDWG
 40
0.0032776968
  9
$TDUSRTIMER
 40
2458320.09237831
  9
$USRTIMER
 70
     1
  9
$ANGBASE
 50
0.0
  9
$ANGDIR
 70
     0
  9
$PDMODE
 70
     0
  9
$PDSIZE
 40
-1.0
  9
$PLINEWID
 40
0.0
  9
$SPLFRAME
 70
     0
  9
$SPLINETYPE
 70
     6
  9
$SPLINESEGS
 70
     8
  9
$HANDSEED
  5
22D
  9
$SURFTAB1
 70
     6
  9
$SURFTAB2
 70
     6
  9
$SURFTYPE
 70
     6
  9
$SURFU
 70
     6
  9
$SURFV
 70
     6
  9
$UCSBASE
  2

  9
$UCSNAME
  2

  9
$UCSORG
 10
0.0
 20
0.0
 30
0.0
  9
$UCSXDIR
 10
1.0
 20
0.0
 30
0.0
  9
$UCSYDIR
 10
0.0
 20
1.0
 30
0.0
  9
$UCSORTHOREF
  2

  9
$UCSORTHOVIEW
 70
     0
  9
$UCSORGTOP
 10
0.0
 20
0.0
 30
0.0
  9
$UCSORGBOTTOM
 10
0.0
 20
0.0
 30
0.0
  9
$UCSORGLEFT
 10
0.0
 20
0.0
 30
0.0
  9
$UCSORGRIGHT
 10
0.0
 20
0.0
 30
0.0
  9
$UCSORGFRONT
 10
0.0
 20
0.0
 30
0.0
  9
$UCSORGBACK
 10
0.0
 20
0.0
 30
0.0
  9
$PUCSBASE
  2

  9
$PUCSNAME
  2

  9
$PUCSORG
 10
0.0
 20
0.0
 30
0.0
  9
$PUCSXDIR
 10
1.0
 20
0.0
 30
0.0
  9
$PUCSYDIR
 10
0.0
 20
1.0
 30
0.0
  9
$PUCSORTHOREF
  2

  9
$PUCSORTHOVIEW
 70
     0
  9
$PUCSORGTOP
 10
0.0
 20
0.0
 30
0.0
  9
$PUCSORGBOTTOM
 10
0.0
 20
0.0
 30
0.0
  9
$PUCSORGLEFT
 10
0.0
 20
0.0
 30
0.0
  9
$PUCSORGRIGHT
 10
0.0
 20
0.0
 30
0.0
  9
$PUCSORGFRONT
 10
0.0
 20
0.0
 30
0.0
  9
$PUCSORGBACK
 10
0.0
 20
0.0
 30
0.0
  9
$USERI1
 70
     0
  9
$USERI2
 70
     0
  9
$USERI3
 70
     0
  9
$USERI4
 70
     0
  9
$USERI5
 70
     0
  9
$USERR1
 40
0.0
  9
$USERR2
 40
0.0
  9
$USERR3
 40
0.0
  9
$USERR4
 40
0.0
  9
$USERR5
 40
0.0
  9
$WORLDVIEW
 70
     1
  9
$SHADEDGE
 70
     3
  9
$SHADEDIF
 70
    70
  9
$TILEMODE
 70
     1
  9
$MAXACTVP
 70
    64
  9
$PINSBASE
 10
0.0
 20
0.0
 30
0.0
  9
$PLIMCHECK
 70
     0
  9
$PEXTMIN
 10
1.000000000000000E+20
 20
1.000000000000000E+20
 30
1.000000000000000E+20
  9
$PEXTMAX
 10
-1.000000000000000E+20
 20
-1.000000000000000E+20
 30
-1.000000000000000E+20
  9
$PLIMMIN
 10
0.0
 20
0.0
  9
$PLIMMAX
 10
0.0
 20
0.0
  9
$UNITMODE
 70
     0
  9
$VISRETAIN
 70
     1
  9
$PLINEGEN
 70
     0
  9
$PSLTSCALE
 70
     1
  9
$TREEDEPTH
 70
  3020
  9
$CMLSTYLE
  2
Standard
  9
$CMLJUST
 70
     0
  9
$CMLSCALE
 40
20.0
  9
$PROXYGRAPHICS
 70
     1
  9
$MEASUREMENT
 70
     1
  9
$CELWEIGHT
370
    -1
  9
$ENDCAPS
280
     0
  9
$JOINSTYLE
280
     0
  9
$LWDISPLAY
290
     1
  9
$INSUNITS
 70
     4
  9
$HYPERLINKBASE
  1

  9
$STYLESHEET
  1

  9
$XEDIT
290
     1
  9
$CEPSNTYPE
380
     0
  9
$PSTYLEMODE
290
     1
  9
$FINGERPRINTGUID
  2
{E00E8CE4-285A-464D-AD2D-0AC639965EC1}
  9
$VERSIONGUID
  2
{FAEB1C32-E019-11D5-929B-00C0DF256EC4}
  9
$EXTNAMES
290
     1
  9
$PSVPSCALE
 40
0.0
  9
$OLESTARTUP
290
     0
  0
ENDSEC
  0
SECTION
  2
CLASSES
  0
CLASS
  1
ACDBDICTIONARYWDFLT
  2
AcDbDictionaryWithDefault
  3
ObjectDBX Classes
 90
        0
280
     0
281
     0
  0
CLASS
  1
VISUALSTYLE
  2
AcDbVisualStyle
  3
ObjectDBX Classes
 90
     4095
280
     0
281
     0
  0
CLASS
  1
MATERIAL
  2
AcDbMaterial
  3
ObjectDBX Classes
 90
     1153
280
     0
281
     0
  0
CLASS
  1
SCALE
  2
AcDbScale
  3
ObjectDBX Classes
 90
     1153
280
     0
281
     0
  0
CLASS
  1
SUN
  2
AcDbSun
  3
SCENEOE
 90
     1153
280
     0
281
     0
  0
CLASS
  1
ACDBPLACEHOLDER
  2
AcDbPlaceHolder
  3
ObjectDBX Classes
 90
        0
280
     0
281
     0
  0
CLASS
  1
LAYOUT
  2
AcDbLayout
  3
ObjectDBX Classes
 90
        0
280
     0
281
     0
  0
CLASS
  1
TABLESTYLE
  2
AcDbTableStyle
  3
ObjectDBX Classes
 90
     4095
280
     0
281
     0
  0
CLASS
  1
MLEADERSTYLE
  2
AcDbMLeaderStyle
  3
ACDB_MLEADERSTYLE_CLASS
 90
     4095
280
     0
281
     0
  0
CLASS
  1
RASTERVARIABLES
  2
AcDbRasterVariables
  3
ISM
 90
        0
280
     0
281
     0
  0
CLASS
  1
DIMASSOC
  2
AcDbDimAssoc
  3
"AcDbDimAssoc|Product Desc:     AcDim ARX App For Dimension|Company:          Autodesk, Inc.|WEB Address:      www.autodesk.com"
 90
        0
280
     0
281
     0
  0
ENDSEC
  0
SECTION
  2
TABLES
  0
TABLE
  2
VPORT
  5
8
330
0
100
AcDbSymbolTable
 70
     1
  0
VPORT
  5
29
330
8
100
AcDbSymbolTableRecord
100
AcDbViewportTableRecord
  2
*Active
 70
     0
 10
0.0
 20
0.0
 11
1.0
 21
1.0
 12
-2.839077337982047
 22
-3.492272752887693
 13
0.0
 23
0.0
 14
10.0
 24
10.0
 15
10.0
 25
10.0
 16
0.0
 26
0.0
 36
1.0
 17
0.0
 27
0.0
 37
0.0
 40
119.7872772252105
 41
1.632093933463796
 42
50.0
 43
0.0
 44
0.0
 50
0.0
 51
0.0
 71
    16
 72
  2000
 73
     1
 74
     3
 75
     0
 76
     0
 77
     0
 78
     0
281
     0
 65
     1
110
0.0
120
0.0
130
0.0
111
1.0
121
0.0
131
0.0
112
0.0
122
1.0
132
0.0
 79
     0
146
0.0
  0
ENDTAB
  0
TABLE
  2
LTYPE
  5
5
330
0
100
AcDbSymbolTable
 70
     6
  0
LTYPE
  5
14
330
5
100
AcDbSymbolTableRecord
100
AcDbLinetypeTableRecord
  2
ByBlock
 70
     0
  3

 72
    65
 73
     0
 40
0.0
  0
LTYPE
  5
15
330
5
100
AcDbSymbolTableRecord
100
AcDbLinetypeTableRecord
  2
ByLayer
 70
     0
  3

 72
    65
 73
     0
 40
0.0
  0
LTYPE
  5
16
330
5
100
AcDbSymbolTableRecord
100
AcDbLinetypeTableRecord
  2
Continuous
 70
     0
  3
Solid line
 72
    65
 73
     0
 40
0.0
  0
LTYPE
  5
6A
330
5
100
AcDbSymbolTableRecord
100
AcDbLinetypeTableRecord
  2
HIDDEN
 70
     0
  3
Hidden __ __ __ __ __ __ __ __ __ __ __ __ __ __
 72
    65
 73
     2
 40
1.905
 49
1.27
 74
     0
 49
-0.635
 74
     0
  0
LTYPE
  5
6B
330
5
100
AcDbSymbolTableRecord
100
AcDbLinetypeTableRecord
  2
PHANTOM
 70
     0
  3
Phantom ______  __  __  ______  __  __  ______
 72
    65
 73
     6
 40
12.7
 49
6.35
 74
     0
 49
-1.27
 74
     0
 49
1.27
 74
     0
 49
-1.27
 74
     0
 49
1.27
 74
     0
 49
-1.27
 74
     0
  0
LTYPE
  5
6C
330
5
100
AcDbSymbolTableRecord
100
AcDbLinetypeTableRecord
  2
CENTER
 70
     0
  3
Center ____ _ ____ _ ____ _ ____ _ ____ _ ____
 72
    65
 73
     4
 40
10.16
 49
6.35
 74
     0
 49
-1.27
 74
     0
 49
1.27
 74
     0
 49
-1.27
 74
     0
  0
LTYPE
  5
6D
330
5
100
AcDbSymbolTableRecord
100
AcDbLinetypeTableRecord
  2
CENTERX2
 70
     0
  3
Center (2x) ________  __  ________  __  _____
 72
    65
 73
     4
 40
20.32
 49
12.7
 74
     0
 49
-2.54
 74
     0
 49
2.54
 74
     0
 49
-2.54
 74
     0
  0
LTYPE
  5
6E
330
5
100
AcDbSymbolTableRecord
100
AcDbLinetypeTableRecord
  2
DOT2
 70
     0
  3
Dot (.5x) ........................................
 72
    65
 73
     2
 40
0.635
 49
0.0
 74
     0
 49
-0.635
 74
     0
  0
ENDTAB
  0
TABLE
  2
LAYER
  5
2
102
{ACAD_XDICTIONARY
360
183
102
}
330
0
100
AcDbSymbolTable
 70
    18
  0
LAYER
  5
10
330
2
100
AcDbSymbolTableRecord
100
AcDbLayerTableRecord
  2
0
 70
     0
 62
     7
  6
Continuous
370
    -3
390
F
  0
LAYER
  5
6F
330
2
100
AcDbSymbolTableRecord
100
AcDbLayerTableRecord
  2
FORMAT
 70
     0
 62
     2
  6
Continuous
370
    -3
390
F
  0
LAYER
  5
70
330
2
100
AcDbSymbolTableRecord
100
AcDbLayerTableRecord
  2
외형선
 70
     0
 62
     4
  6
Continuous
370
    30
390
F
  0
LAYER
  5
71
330
2
100
AcDbSymbolTableRecord
100
AcDbLayerTableRecord
  2
숨은선
 70
     0
 62
     2
  6
HIDDEN
370
    15
390
F
  0
LAYER
  5
72
330
2
100
AcDbSymbolTableRecord
100
AcDbLayerTableRecord
  2
중심선
 70
     0
 62
     1
  6
CENTERX2
370
    -3
390
F
  0
LAYER
  5
73
330
2
100
AcDbSymbolTableRecord
100
AcDbLayerTableRecord
  2
파단선
 70
     0
 62
     4
  6
Continuous
370
    -3
390
F
  0
LAYER
  5
74
330
2
100
AcDbSymbolTableRecord
100
AcDbLayerTableRecord
  2
해칭선
 70
     0
 62
   100
  6
Continuous
370
    -3
390
F
  0
LAYER
  5
75
330
2
100
AcDbSymbolTableRecord
100
AcDbLayerTableRecord
  2
가는실선
 70
     0
 62
     4
  6
Continuous
370
    -3
390
F
  0
LAYER
  5
76
330
2
100
AcDbSymbolTableRecord
100
AcDbLayerTableRecord
  2
치수_보조선
 70
     0
 62
     4
  6
Continuous
370
    -3
390
F
  0
LAYER
  5
77
330
2
100
AcDbSymbolTableRecord
100
AcDbLayerTableRecord
  2
치수문자_일반주서
 70
     0
 62
     7
  6
Continuous
370
    15
390
F
  0
LAYER
  5
78
330
2
100
AcDbSymbolTableRecord
100
AcDbLayerTableRecord
  2
개별주서
 70
     0
 62
   100
  6
Continuous
370
    30
390
F
  0
LAYER
  5
79
330
2
100
AcDbSymbolTableRecord
100
AcDbLayerTableRecord
  2
중간선
 70
     0
 62
     2
  6
Continuous
370
    15
390
F
  0
LAYER
  5
7A
330
2
100
AcDbSymbolTableRecord
100
AcDbLayerTableRecord
  2
윤곽선
 70
     0
 62
     3
  6
Continuous
370
    40
390
F
  0
LAYER
  5
7B
330
2
100
AcDbSymbolTableRecord
100
AcDbLayerTableRecord
  2
중심마크
 70
     0
 62
   100
  6
Continuous
370
    30
390
F
  0
LAYER
  5
7C
330
2
100
AcDbSymbolTableRecord
100
AcDbLayerTableRecord
  2
가상선
 70
     0
 62
     4
  6
PHANTOM
370
    -3
390
F
  0
LAYER
  5
7D
330
2
100
AcDbSymbolTableRecord
100
AcDbLayerTableRecord
  2
특수지정선
 70
     0
 62
     5
  6
CENTERX2
370
    60
390
F
  0
LAYER
  5
7E
330
2
100
AcDbSymbolTableRecord
100
AcDbLayerTableRecord
  2
참조1
 70
     0
 62
    -4
  6
Continuous
370
    -3
390
F
  0
LAYER
  5
18A
330
2
100
AcDbSymbolTableRecord
100
AcDbLayerTableRecord
  2
Defpoints
 70
     0
 62
     7
  6
Continuous
290
     0
370
    -3
390
F
  0
ENDTAB
  0
TABLE
  2
STYLE
  5
3
330
0
100
AcDbSymbolTable
 70
     2
  0
STYLE
  5
11
330
3
100
AcDbSymbolTableRecord
100
AcDbTextStyleTableRecord
  2
Standard
 70
     0
 40
0.0
 41
1.0
 50
0.0
 71
     0
 42
3.5
  3
txt
  4

  0
STYLE
  5
94
330
3
100
AcDbSymbolTableRecord
100
AcDbTextStyleTableRecord
  2
SLDTEXTSTYLE0
 70
     0
 40
0.0
 41
0.75
 50
0.0
 71
     0
 42
3.5
  3
TXT
  4

  0
ENDTAB
  0
TABLE
  2
VIEW
  5
6
330
0
100
AcDbSymbolTable
 70
     0
  0
ENDTAB
  0
TABLE
  2
UCS
  5
7
330
0
100
AcDbSymbolTable
 70
     0
  0
ENDTAB
  0
TABLE
  2
APPID
  5
9
330
0
100
AcDbSymbolTable
 70
     1
  0
APPID
  5
12
330
9
100
AcDbSymbolTableRecord
100
AcDbRegAppTableRecord
  2
ACAD
 70
     0
  0
ENDTAB
  0
TABLE
  2
DIMSTYLE
  5
A
330
0
100
AcDbSymbolTable
 70
     4
100
AcDbDimStyleTable
  0
DIMSTYLE
105
27
330
A
100
AcDbSymbolTableRecord
100
AcDbDimStyleTableRecord
  2
ISO-25
 70
     0
 41
2.5
 42
0.625
 43
3.75
 44
1.25
 73
     0
 74
     0
 77
     1
 78
     8
140
2.5
141
2.5
143
0.03937007874016
147
0.625
171
     3
172
     1
178
     0
271
     2
272
     2
274
     3
278
    44
283
     0
284
     8
340
11
  0
DIMSTYLE
105
DE
330
A
100
AcDbSymbolTableRecord
100
AcDbDimStyleTableRecord
  2
SLDDIMSTYLE0
 70
     0
 41
3.302
 44
0.0
 45
0.000000001
 73
     0
 74
     0
 77
     1
 78
    12
 79
     3
140
3.5
143
0.0393700787401575
147
0.875
148
0.000000001
170
     1
173
     1
178
     0
271
     2
272
     2
276
     2
284
    12
340
94
  0
DIMSTYLE
105
106
102
{ACAD_REACTORS
330
105
330
DD
330
F2
330
18D
102
}
330
A
100
AcDbSymbolTableRecord
100
AcDbDimStyleTableRecord
  2
SLDDIMSTYLE1
 70
     0
 41
3.302
 44
0.0
 45
0.000000001
 73
     0
 74
     0
 77
     1
 78
    12
 79
     3
140
3.5
143
0.0393700787401575
147
0.875
148
0.000000001
170
     1
172
     1
173
     1
178
     0
271
     2
272
     2
276
     2
284
    12
289
     0
340
94
  0
DIMSTYLE
105
11B
330
A
100
AcDbSymbolTableRecord
100
AcDbDimStyleTableRecord
  2
SLDDIMSTYLE2
 70
     0
 41
3.302
 44
0.0
 45
0.000000001
 73
     0
 74
     0
 77
     1
 78
     8
 79
     2
140
3.5
143
0.0393700787401575
147
0.875
148
0.000000001
170
     1
172
     1
173
     1
178
     0
271
     2
272
     2
276
     2
284
    12
289
     0
340
94
341
11C
343
11C
344
11C
  0
ENDTAB
  0
TABLE
  2
BLOCK_RECORD
  5
1
330
0
100
AcDbSymbolTable
 70
    10
  0
BLOCK_RECORD
  5
1F
330
1
100
AcDbSymbolTableRecord
100
AcDbBlockTableRecord
  2
*Model_Space
340
22
  0
BLOCK_RECORD
  5
1B
330
1
100
AcDbSymbolTableRecord
100
AcDbBlockTableRecord
  2
*Paper_Space
340
1E
  0
BLOCK_RECORD
  5
23
330
1
100
AcDbSymbolTableRecord
100
AcDbBlockTableRecord
  2
*Paper_Space0
340
26
  0
BLOCK_RECORD
  5
7F
330
1
100
AcDbSymbolTableRecord
100
AcDbBlockTableRecord
  2
블럭10
340
0
102
{BLKREFS
331
D6
102
}
  0
BLOCK_RECORD
  5
DF
330
1
100
AcDbSymbolTableRecord
100
AcDbBlockTableRecord
  2
_D
340
0
  0
BLOCK_RECORD
  5
F3
330
1
100
AcDbSymbolTableRecord
100
AcDbBlockTableRecord
  2
_D_1
340
0
  0
BLOCK_RECORD
  5
107
330
1
100
AcDbSymbolTableRecord
100
AcDbBlockTableRecord
  2
_D_2
340
0
  0
BLOCK_RECORD
  5
11C
330
1
100
AcDbSymbolTableRecord
100
AcDbBlockTableRecord
  2
_NONE
340
0
  0
BLOCK_RECORD
  5
11F
330
1
100
AcDbSymbolTableRecord
100
AcDbBlockTableRecord
  2
_D_3
340
0
  0
BLOCK_RECORD
  5
132
330
1
100
AcDbSymbolTableRecord
100
AcDbBlockTableRecord
  2
SW_DOWELSYMBOL_0
340
0
102
{BLKREFS
331
138
102
}
  0
BLOCK_RECORD
  5
190
330
1
100
AcDbSymbolTableRecord
100
AcDbBlockTableRecord
  2
*D8
340
0
  0
ENDTAB
  0
ENDSEC
  0
SECTION
  2
BLOCKS
  0
BLOCK
  5
20
330
1F
100
AcDbEntity
  8
0
100
AcDbBlockBegin
  2
*Model_Space
 70
     0
 10
0.0
 20
0.0
 30
0.0
  3
*Model_Space
  1
*Model_Space
  0
ENDBLK
  5
21
330
1F
100
AcDbEntity
  8
0
100
AcDbBlockEnd
  0
BLOCK
  5
1C
330
1B
100
AcDbEntity
 67
     1
  8
0
100
AcDbBlockBegin
  2
*Paper_Space
 70
     0
 10
0.0
 20
0.0
 30
0.0
  3
*Paper_Space
  1
*Paper_Space
  0
ENDBLK
  5
1D
330
1B
100
AcDbEntity
 67
     1
  8
0
100
AcDbBlockEnd
  0
BLOCK
  5
24
330
23
100
AcDbEntity
  8
0
100
AcDbBlockBegin
  2
*Paper_Space0
 70
     0
 10
0.0
 20
0.0
 30
0.0
  3
*Paper_Space0
  1
*Paper_Space0
  0
ENDBLK
  5
25
330
23
100
AcDbEntity
  8
0
100
AcDbBlockEnd
  0
BLOCK
  5
80
330
7F
100
AcDbEntity
  8
0
100
AcDbBlockBegin
  2
블럭10
 70
     2
 10
0.0
 20
0.0
 30
0.0
  3
블럭10
  1
블럭10
  0
ELLIPSE
  5
82
330
7F
100
AcDbEntity
  8
중심선
100
AcDbEllipse
 10
20.54032771741204
 20
12.0471743016438
 30
0.0
 11
6.600054785286829
 21
-1.261213355974178E-13
 31
0.0
210
0.0
220
0.0
230
1.0
 40
0.636358354079598
 41
0.9219305317359503
 42
6.513795318482858
  0
ELLIPSE
  5
83
330
7F
100
AcDbEntity
  8
중심선
100
AcDbEllipse
 10
20.54032771746488
 20
12.04717430159265
 30
0.0
 11
3.960054785062283
 21
1.540847449632565E-10
 31
0.0
210
0.0
220
0.0
230
1.0
 40
0.3939339440162632
 41
1.131841032648279
 42
5.62031148352944
  0
LINE
  5
84
330
7F
100
AcDbEntity
  8
중심선
100
AcDbLine
 10
2.268634060543552
 20
16.24717430164393
 30
0.0
 11
5.714909304380834
 21
16.24717430164393
 31
0.0
  0
LINE
  5
85
330
7F
100
AcDbEntity
  8
중심선
100
AcDbLine
 10
5.245725140726316
 20
7.84717430164391
 30
0.0
 11
8.692000384563599
 21
7.84717430164391
 31
0.0
  0
LINE
  5
86
330
7F
100
AcDbEntity
  8
중심선
100
AcDbLine
 10
15.74043728645272
 20
16.24717430164393
 30
0.0
 11
8.692000384563599
 21
7.84717430164391
 31
0.0
  0
LINE
  5
87
330
7F
100
AcDbEntity
  8
중심선
100
AcDbLine
 10
0.1404042013395286
 20
13.71084872107135
 30
0.0
 11
3.58671253028996
 21
13.71088815037384
 31
0.0
  0
LINE
  5
88
330
7F
100
AcDbEntity
  8
중심선
100
AcDbLine
 10
2.750260043222114
 20
10.84717430164391
 30
0.0
 11
6.196535287059397
 21
10.84717430164391
 31
0.0
  0
LINE
  5
89
330
7F
100
AcDbEntity
  8
중심선
100
AcDbLine
 10
12.29416204261559
 20
16.24717430164393
 30
0.0
 11
5.245725140726316
 21
7.84717430164391
 31
0.0
  0
LINE
  5
8A
330
7F
100
AcDbEntity
  8
중심선
100
AcDbLine
 10
10.72767329541681
 20
16.24717430164393
 30
0.0
 11
6.196535287059397
 21
10.84717430164391
 31
0.0
  0
LINE
  5
8B
330
7F
100
AcDbEntity
  8
중심선
100
AcDbLine
 10
7.28139805157953
 20
16.24717430164393
 30
0.0
 11
2.750260043222114
 21
10.84717430164391
 31
0.0
  0
LINE
  5
8C
330
7F
100
AcDbEntity
  8
중심선
100
AcDbLine
 10
5.714909304380834
 20
16.24717430164393
 30
0.0
 11
3.58671253028996
 21
13.71088815037384
 31
0.0
  0
LINE
  5
8D
330
7F
100
AcDbEntity
  8
중심선
100
AcDbLine
 10
2.268634060543552
 20
16.24717430164393
 30
0.0
 11
0.1404042013395286
 21
13.71084872107135
 31
0.0
  0
LINE
  5
8E
330
7F
100
AcDbEntity
  8
중심선
100
AcDbLine
 10
7.28139805157953
 20
16.24717430164393
 30
0.0
 11
10.72767329541681
 21
16.24717430164393
 31
0.0
  0
LINE
  5
8F
330
7F
100
AcDbEntity
  8
중심선
100
AcDbLine
 10
12.29416204261559
 20
16.24717430164393
 30
0.0
 11
15.74043728645272
 21
16.24717430164393
 31
0.0
  0
LINE
  5
90
330
7F
100
AcDbEntity
  8
중심선
100
AcDbLine
 10
19.22036997980202
 20
11.08717430171403
 30
0.0
 11
23.66174974927406
 21
11.08717430171406
 31
0.0
  0
LINE
  5
91
330
7F
100
AcDbEntity
  8
중심선
100
AcDbLine
 10
19.22039502424796
 20
13.00717430171391
 30
0.0
 11
19.22036997980202
 21
11.08717430171403
 31
0.0
  0
LINE
  5
92
330
7F
100
AcDbEntity
  8
중심선
100
AcDbLine
 10
19.22039502424796
 20
13.00717430171391
 30
0.0
 11
26.96566020931264
 21
13.00717430171391
 31
0.0
  0
LINE
  5
93
330
7F
100
AcDbEntity
  8
중심선
100
AcDbLine
 10
22.22332737316547
 20
13.45928029700563
 30
0.0
 11
24.52862924686651
 21
15.39360700705356
 31
0.0
  0
ATTDEF
  5
95
330
7F
100
AcDbEntity
  8
FORMAT
 62
     2
100
AcDbText
 10
4.408487351596664
 20
2.075366912832191
 30
0.0
 40
4.233333333333333
  1
E2036016
 41
0.75
  7
SLDTEXTSTYLE0
 11
4.408487351596664
 21
-0.0412997538344756
 31
0.0
100
AcDbAttributeDefinition
  3

  2
AUTOATTR0
 70
     0
 74
     1
  0
ENDBLK
  5
81
330
7F
100
AcDbEntity
  8
0
100
AcDbBlockEnd
  0
BLOCK
  5
E0
330
DF
100
AcDbEntity
  8
0
100
AcDbBlockBegin
  2
_D
 70
     0
 10
0.0
 20
0.0
 30
0.0
  3
_D
  1
_D
  0
LINE
  5
E2
330
DF
100
AcDbEntity
  8
치수문자_일반주서
 62
     0
370
    -2
100
AcDbLine
 10
53.37463065701561
 20
3.238574928723901
 30
0.0
 11
53.37463065701561
 21
16.34523704277512
 31
0.0
  0
LINE
  5
E3
330
DF
100
AcDbEntity
  8
치수문자_일반주서
 62
     0
370
    -2
100
AcDbLine
 10
8.924630657015603
 20
3.082761117015391
 30
0.0
 11
8.924630657015605
 21
16.34523704277512
 31
0.0
  0
LINE
  5
E4
330
DF
100
AcDbEntity
  8
치수문자_일반주서
 62
     0
370
    -2
100
AcDbLine
 10
50.07263065701561
 20
16.34523704277512
 30
0.0
 11
12.2266306570156
 21
16.34523704277512
 31
0.0
  0
SOLID
  5
E5
330
DF
100
AcDbEntity
  8
치수문자_일반주서
 62
     0
100
AcDbTrace
 10
50.07263065701561
 20
15.79490370944179
 30
0.0
 11
50.07263065701561
 21
16.89557037610846
 31
0.0
 12
53.37463065701561
 22
16.34523704277512
 32
0.0
 13
53.37463065701561
 23
16.34523704277512
 33
0.0
  0
SOLID
  5
E6
330
DF
100
AcDbEntity
  8
치수문자_일반주서
 62
     0
100
AcDbTrace
 10
12.2266306570156
 20
16.89557037610846
 30
0.0
 11
12.2266306570156
 21
15.79490370944179
 31
0.0
 12
8.924630657015605
 22
16.34523704277512
 32
0.0
 13
8.924630657015605
 23
16.34523704277512
 33
0.0
  0
MTEXT
  5
E7
330
DF
100
AcDbEntity
  8
치수문자_일반주서
 62
     0
100
AcDbMText
 10
31.14963065701561
 20
20.72023704277512
 30
0.0
 40
3.5
 41
0.0
 71
     2
 72
     1
  1
\A1;44.45 [1 3/4]
  7
SLDTEXTSTYLE0
 73
     1
 44
1.0
  0
POINT
  5
E8
330
DF
100
AcDbEntity
  8
Defpoints
 62
     0
100
AcDbPoint
 10
53.37463065701561
 20
3.176074928723901
 30
0.0
  0
POINT
  5
E9
330
DF
100
AcDbEntity
  8
Defpoints
 62
     0
100
AcDbPoint
 10
8.924630657015603
 20
3.020261117015391
 30
0.0
  0
POINT
  5
EA
330
DF
100
AcDbEntity
  8
Defpoints
 62
     0
100
AcDbPoint
 10
8.924630657015603
 20
16.34523704277512
 30
0.0
  0
ENDBLK
  5
E1
330
DF
100
AcDbEntity
  8
0
100
AcDbBlockEnd
  0
BLOCK
  5
F4
330
F3
100
AcDbEntity
  8
0
100
AcDbBlockBegin
  2
_D_1
 70
     0
 10
0.0
 20
0.0
 30
0.0
  3
_D_1
  1
_D_1
  0
LINE
  5
F6
330
F3
100
AcDbEntity
  8
치수문자_일반주서
 62
     0
370
    -2
100
AcDbLine
 10
53.37463065701561
 20
3.238574928723901
 30
0.0
 11
53.37463065701562
 21
32.0664422405779
 31
0.0
  0
LINE
  5
F7
330
F3
100
AcDbEntity
  8
치수문자_일반주서
 62
     0
370
    -2
100
AcDbLine
 10
-37.11286934298439
 20
3.873574928723895
 30
0.0
 11
-37.11286934298438
 21
32.0664422405779
 31
0.0
  0
LINE
  5
F8
330
F3
100
AcDbEntity
  8
치수문자_일반주서
 62
     0
370
    -2
100
AcDbLine
 10
50.07263065701562
 20
32.0664422405779
 30
0.0
 11
-33.81086934298438
 21
32.0664422405779
 31
0.0
  0
SOLID
  5
F9
330
F3
100
AcDbEntity
  8
치수문자_일반주서
 62
     0
100
AcDbTrace
 10
50.07263065701562
 20
31.51610890724456
 30
0.0
 11
50.07263065701562
 21
32.61677557391123
 31
0.0
 12
53.37463065701562
 22
32.0664422405779
 32
0.0
 13
53.37463065701562
 23
32.0664422405779
 33
0.0
  0
SOLID
  5
FA
330
F3
100
AcDbEntity
  8
치수문자_일반주서
 62
     0
100
AcDbTrace
 10
-33.81086934298438
 20
32.61677557391123
 30
0.0
 11
-33.81086934298438
 21
31.51610890724456
 31
0.0
 12
-37.11286934298438
 22
32.0664422405779
 32
0.0
 13
-37.11286934298438
 23
32.0664422405779
 33
0.0
  0
MTEXT
  5
FB
330
F3
100
AcDbEntity
  8
치수문자_일반주서
 62
     0
100
AcDbMText
 10
8.130880657015606
 20
36.4414422405779
 30
0.0
 40
3.5
 41
0.0
 71
     2
 72
     1
  1
\A1;90.49 [3 9/16]
  7
SLDTEXTSTYLE0
 73
     1
 44
1.0
  0
POINT
  5
FC
330
F3
100
AcDbEntity
  8
Defpoints
 62
     0
100
AcDbPoint
 10
53.37463065701561
 20
3.176074928723901
 30
0.0
  0
POINT
  5
FD
330
F3
100
AcDbEntity
  8
Defpoints
 62
     0
100
AcDbPoint
 10
-37.11286934298439
 20
3.811074928723895
 30
0.0
  0
POINT
  5
FE
330
F3
100
AcDbEntity
  8
Defpoints
 62
     0
100
AcDbPoint
 10
-37.11286934298439
 20
32.0664422405779
 30
0.0
  0
ENDBLK
  5
F5
330
F3
100
AcDbEntity
  8
0
100
AcDbBlockEnd
  0
BLOCK
  5
108
330
107
100
AcDbEntity
  8
0
100
AcDbBlockBegin
  2
_D_2
 70
     0
 10
0.0
 20
0.0
 30
0.0
  3
_D_2
  1
_D_2
  0
LINE
  5
10A
330
107
100
AcDbEntity
  8
치수문자_일반주서
 62
     0
370
    -2
100
AcDbLine
 10
-36.2228693429844
 20
4.763574928723896
 30
0.0
 11
-48.41364218081161
 21
4.76357492872385
 31
0.0
  0
LINE
  5
10B
330
107
100
AcDbEntity
  8
치수문자_일반주서
 62
     0
370
    -2
100
AcDbLine
 10
-36.2228693429844
 20
-4.761425071276109
 30
0.0
 11
-48.41364218081157
 21
-4.761425071276156
 31
0.0
  0
LINE
  5
10C
330
107
100
AcDbEntity
  8
치수문자_일반주서
 62
     0
370
    -2
100
AcDbLine
 10
-48.41364218081159
 20
1.46157492872385
 30
0.0
 11
-48.41364218081159
 21
-1.459425071276156
 31
0.0
  0
SOLID
  5
10D
330
107
100
AcDbEntity
  8
치수문자_일반주서
 62
     0
100
AcDbTrace
 10
-47.86330884747826
 20
1.461574928723852
 30
0.0
 11
-48.96397551414493
 21
1.461574928723848
 31
0.0
 12
-48.41364218081161
 22
4.76357492872385
 32
0.0
 13
-48.41364218081161
 23
4.76357492872385
 33
0.0
  0
SOLID
  5
10E
330
107
100
AcDbEntity
  8
치수문자_일반주서
 62
     0
100
AcDbTrace
 10
-48.96397551414492
 20
-1.459425071276158
 30
0.0
 11
-47.86330884747825
 21
-1.459425071276154
 31
0.0
 12
-48.41364218081157
 22
-4.761425071276156
 32
0.0
 13
-48.41364218081157
 23
-4.761425071276156
 33
0.0
  0
MTEXT
  5
10F
330
107
100
AcDbEntity
  8
치수문자_일반주서
 62
     0
100
AcDbMText
 10
-52.78864218081159
 20
0.0010749287238796
 30
0.0
 40
3.5
 41
0.0
 71
     2
 72
     1
  1
\A1;%%c9.53 [3/8]
  7
SLDTEXTSTYLE0
 11
-3.729883127349605E-15
 21
1.0
 31
0.0
 73
     1
 44
1.0
  0
POINT
  5
110
330
107
100
AcDbEntity
  8
Defpoints
 62
     0
100
AcDbPoint
 10
-36.1603693429844
 20
4.763574928723896
 30
0.0
  0
POINT
  5
111
330
107
100
AcDbEntity
  8
Defpoints
 62
     0
100
AcDbPoint
 10
-36.1603693429844
 20
-4.761425071276109
 30
0.0
  0
POINT
  5
112
330
107
100
AcDbEntity
  8
Defpoints
 62
     0
100
AcDbPoint
 10
-48.41364218081157
 20
-4.761425071276156
 30
0.0
  0
ENDBLK
  5
109
330
107
100
AcDbEntity
  8
0
100
AcDbBlockEnd
  0
BLOCK
  5
11D
330
11C
100
AcDbEntity
  8
0
100
AcDbBlockBegin
  2
_NONE
 70
     0
 10
0.0
 20
0.0
 30
0.0
  3
_NONE
  1
_NONE
  0
ENDBLK
  5
11E
330
11C
100
AcDbEntity
  8
0
100
AcDbBlockEnd
  0
BLOCK
  5
120
330
11F
100
AcDbEntity
  8
0
100
AcDbBlockBegin
  2
_D_3
 70
     0
 10
0.0
 20
0.0
 30
0.0
  3
_D_3
  1
_D_3
  0
LINE
  5
122
330
11F
100
AcDbEntity
  8
치수문자_일반주서
100
AcDbLine
 10
-8.884833931663604
 20
-2.238291502344711
 30
0.0
 11
-8.884833931663604
 21
-2.949228987909211
 31
0.0
  0
LINE
  5
123
330
11F
100
AcDbEntity
  8
치수문자_일반주서
100
AcDbLine
 10
-8.884833931663604
 20
-2.949228987909211
 30
0.0
 11
-3.328583940604301
 21
-2.949228987909211
 31
0.0
  0
LINE
  5
124
330
11F
100
AcDbEntity
  8
치수문자_일반주서
100
AcDbLine
 10
-3.328583940604301
 20
-2.949228987909211
 30
0.0
 11
-3.328583940604301
 21
-2.238291502344711
 31
0.0
  0
LINE
  5
125
330
11F
100
AcDbEntity
  8
치수문자_일반주서
100
AcDbLine
 10
-8.884833931663604
 20
8.590441359792548
 30
0.0
 11
-8.884833931663604
 21
9.301378845357048
 31
0.0
  0
LINE
  5
126
330
11F
100
AcDbEntity
  8
치수문자_일반주서
100
AcDbLine
 10
-8.884833931663604
 20
9.301378845357048
 30
0.0
 11
-3.328583940604301
 21
9.301378845357048
 31
0.0
  0
LINE
  5
127
330
11F
100
AcDbEntity
  8
치수문자_일반주서
100
AcDbLine
 10
-3.328583940604301
 20
9.301378845357048
 30
0.0
 11
-3.328583940604301
 21
8.590441359792548
 31
0.0
  0
MTEXT
  5
128
330
11F
100
AcDbEntity
  8
치수문자_일반주서
100
AcDbMText
 10
-7.840320855183196
 20
-1.34961960173334
 30
0.0
 40
3.5
 41
0.0
 71
     1
 72
     1
  1
0.00
  7
SLDTEXTSTYLE0
 11
6.123233995736766E-17
 21
1.0
 31
0.0
 73
     1
 44
1.0
  0
MTEXT
  5
129
330
11F
100
AcDbEntity
  8
치수문자_일반주서
100
AcDbMText
 10
-2.603689304822725
 20
-0.7561994836398495
 30
0.0
 40
3.5
 41
0.0
 71
     1
 72
     1
  1
%%c
  7
SLDTEXTSTYLE0
 11
6.123233995736766E-17
 21
1.0
 31
0.0
 73
     1
 44
1.0
  0
MTEXT
  5
12A
330
11F
100
AcDbEntity
  8
치수문자_일반주서
100
AcDbMText
 10
-2.603689304822725
 20
4.522237914734231
 30
0.0
 40
3.5
 41
0.0
 71
     1
 72
     1
  1
0
  7
SLDTEXTSTYLE0
 11
6.123233995736766E-17
 21
1.0
 31
0.0
 73
     1
 44
1.0
  0
ENDBLK
  5
121
330
11F
100
AcDbEntity
  8
0
100
AcDbBlockEnd
  0
BLOCK
  5
133
330
132
100
AcDbEntity
  8
0
100
AcDbBlockBegin
  2
SW_DOWELSYMBOL_0
 70
     0
 10
0.0
 20
0.0
 30
0.0
  3
SW_DOWELSYMBOL_0
  1
SW_DOWELSYMBOL_0
  0
CIRCLE
  5
135
330
132
100
AcDbEntity
  8
해칭선
 62
     0
100
AcDbCircle
 10
0.0
 20
0.0
 30
0.0
 40
3.000000000000001
  0
HATCH
  5
136
330
132
100
AcDbEntity
  8
0
  6
Continuous
 62
     0
370
     0
100
AcDbHatch
 10
0.0
 20
0.0
 30
0.0
210
0.0
220
0.0
230
1.0
  2
SOLID
 70
     1
 71
     0
 91
        1
 92
        0
 93
        3
 72
     2
 10
0.0
 20
0.0
 40
3.000000000000001
 50
0.0
 51
90.0
 73
     1
 72
     1
 10
0.0
 20
3.000000000000001
 11
0.0
 21
0.0
 72
     1
 10
0.0
 20
0.0
 11
3.000000000000001
 21
0.0
 97
        0
 75
     0
 76
     1
 98
        1
 10
0.0
 20
0.0
  0
HATCH
  5
137
330
132
100
AcDbEntity
  8
0
  6
Continuous
 62
     0
370
     0
100
AcDbHatch
 10
0.0
 20
0.0
 30
0.0
210
0.0
220
0.0
230
1.0
  2
SOLID
 70
     1
 71
     0
 91
        1
 92
        0
 93
        3
 72
     2
 10
0.0
 20
0.0
 40
3.000000000000001
 50
180.0
 51
270.0000000000007
 73
     1
 72
     1
 10
0.0
 20
-3.000000000000001
 11
0.0
 21
0.0
 72
     1
 10
0.0
 20
0.0
 11
-3.000000000000001
 21
0.0
 97
        0
 75
     0
 76
     1
 98
        1
 10
0.0
 20
0.0
  0
ENDBLK
  5
134
330
132
100
AcDbEntity
  8
0
100
AcDbBlockEnd
  0
BLOCK
  5
191
330
190
100
AcDbEntity
  8
0
100
AcDbBlockBegin
  2
*D8
 70
     1
 10
0.0
 20
0.0
 30
0.0
  3
*D8
  1
*D9
  0
LINE
  5
193
330
190
100
AcDbEntity
  8
치수문자_일반주서
 62
     0
370
    -2
100
AcDbLine
 10
53.43713065701561
 20
3.176074928723901
 30
0.0
 11
68.76669398908383
 21
3.176074928723899
 31
0.0
  0
LINE
  5
194
330
190
100
AcDbEntity
  8
치수문자_일반주서
 62
     0
370
    -2
100
AcDbLine
 10
53.43713065701561
 20
-3.173925071276098
 30
0.0
 11
68.76669398908383
 21
-3.173925071276098
 31
0.0
  0
LINE
  5
195
330
190
100
AcDbEntity
  8
치수문자_일반주서
 62
     0
370
    -2
100
AcDbLine
 10
68.76669398908383
 20
3.176074928723899
 30
0.0
 11
68.76669398908383
 21
33.83361708141702
 31
0.0
  0
LINE
  5
196
330
190
100
AcDbEntity
  8
치수문자_일반주서
 62
     0
370
    -2
100
AcDbLine
 10
68.76669398908383
 20
3.176074928723899
 30
0.0
 11
68.76669398908383
 21
-3.173925071276098
 31
0.0
  0
LINE
  5
197
330
190
100
AcDbEntity
  8
치수문자_일반주서
 62
     0
370
    -2
100
AcDbLine
 10
68.76669398908383
 20
6.478074928723899
 30
0.0
 11
68.76669398908383
 21
9.780074928723899
 31
0.0
  0
LINE
  5
198
330
190
100
AcDbEntity
  8
치수문자_일반주서
 62
     0
370
    -2
100
AcDbLine
 10
68.76669398908383
 20
-6.475925071276098
 30
0.0
 11
68.76669398908383
 21
-9.777925071276098
 31
0.0
  0
SOLID
  5
199
330
190
100
AcDbEntity
  8
치수문자_일반주서
 62
     0
100
AcDbTrace
 10
68.2163606557505
 20
6.478074928723899
 30
0.0
 11
69.31702732241716
 21
6.478074928723899
 31
0.0
 12
68.76669398908383
 22
3.176074928723899
 32
0.0
 13
68.76669398908383
 23
3.176074928723899
 33
0.0
  0
SOLID
  5
19A
330
190
100
AcDbEntity
  8
치수문자_일반주서
 62
     0
100
AcDbTrace
 10
69.31702732241716
 20
-6.475925071276098
 30
0.0
 11
68.2163606557505
 21
-6.475925071276098
 31
0.0
 12
68.76669398908383
 22
-3.173925071276098
 32
0.0
 13
68.76669398908383
 23
-3.173925071276098
 33
0.0
  0
MTEXT
  5
19B
330
190
100
AcDbEntity
  8
치수문자_일반주서
 62
     0
100
AcDbMText
 10
66.14169398908383
 20
22.45861708141702
 30
0.0
 40
3.5
 41
0.0
 71
     5
 72
     1
  1
\A1;6.35 [1/4]
  7
SLDTEXTSTYLE0
 11
0.0
 21
1.0
 31
0.0
 73
     1
 44
1.0
  0
POINT
  5
19C
330
190
100
AcDbEntity
  8
Defpoints
 62
     0
100
AcDbPoint
 10
53.37463065701561
 20
3.176074928723901
 30
0.0
  0
POINT
  5
19D
330
190
100
AcDbEntity
  8
Defpoints
 62
     0
100
AcDbPoint
 10
53.37463065701561
 20
-3.173925071276098
 30
0.0
  0
POINT
  5
19F
330
190
100
AcDbEntity
  8
Defpoints
 62
     0
100
AcDbPoint
 10
68.76669398908383
 20
-3.173925071276099
 30
0.0
  0
ENDBLK
  5
192
330
190
100
AcDbEntity
  8
0
100
AcDbBlockEnd
  0
ENDSEC
  0
SECTION
  2
ENTITIES
  0
LINE
  5
96
330
1F
100
AcDbEntity
  8
외형선
  6
Continuous
370
    15
100
AcDbLine
 10
1.999999999999997
 20
-4.761425071276111
 30
0.0
 11
7.924630657015598
 21
-3.173925071276107
 31
0.0
  0
LINE
  5
97
330
1F
100
AcDbEntity
  8
외형선
  6
Continuous
370
    15
100
AcDbLine
 10
7.924630657015598
 20
3.176074928723893
 30
0.0
 11
1.999999999999997
 21
4.763574928723898
 31
0.0
  0
LINE
  5
98
330
1F
100
AcDbEntity
  8
외형선
  6
Continuous
370
    15
100
AcDbLine
 10
-36.1603693429844
 20
-4.761425071276109
 30
0.0
 11
1.999999999999997
 21
-4.761425071276109
 31
0.0
  0
LINE
  5
99
330
1F
100
AcDbEntity
  8
외형선
  6
Continuous
370
    15
100
AcDbLine
 10
1.999999999999997
 20
4.763574928723895
 30
0.0
 11
-12.43041934298428
 21
4.763574928723895
 31
0.0
  0
LINE
  5
9A
330
1F
100
AcDbEntity
  8
외형선
  6
Continuous
370
    15
100
AcDbLine
 10
-36.1603693429844
 20
4.763574928723893
 30
0.0
 11
-37.11286934298439
 21
3.811074928723895
 31
0.0
  0
LINE
  5
9B
330
1F
100
AcDbEntity
  8
외형선
  6
Continuous
370
    15
100
AcDbLine
 10
-37.11286934298439
 20
-3.808925071276108
 30
0.0
 11
-36.1603693429844
 21
-4.761425071276106
 31
0.0
  0
LINE
  5
9C
330
1F
100
AcDbEntity
  8
외형선
  6
Continuous
370
    15
100
AcDbLine
 10
7.924630657015598
 20
-3.173925071276107
 30
0.0
 11
8.424790509526972
 21
-3.173925071276107
 31
0.0
  0
LINE
  5
9D
330
1F
100
AcDbEntity
  8
외형선
  6
Continuous
370
    15
100
AcDbLine
 10
8.424790509526972
 20
3.176074928723893
 30
0.0
 11
7.924630657015598
 21
3.176074928723893
 31
0.0
  0
LINE
  5
9E
330
1F
100
AcDbEntity
  8
0
  6
Continuous
 62
     1
370
    15
100
AcDbLine
 10
22.85037030594529
 20
-0.921672617812842
 30
0.0
 11
22.90596221384553
 21
-0.9515476757907738
 31
0.0
  0
LINE
  5
9F
330
1F
100
AcDbEntity
  8
0
  6
Continuous
 62
     1
370
    15
100
AcDbLine
 10
27.9327175598145
 20
-3.173925071276109
 30
0.0
 11
29.86716648995035
 21
-3.173925071276109
 31
0.0
  0
LINE
  5
A0
330
1F
100
AcDbEntity
  8
0
  6
Continuous
 62
     1
370
    15
100
AcDbLine
 10
12.59216715233202
 20
3.176074928723895
 30
0.0
 11
10.65445504228494
 21
3.176074928723895
 31
0.0
  0
LINE
  5
A1
330
1F
100
AcDbEntity
  8
0
  6
Continuous
 62
     1
370
    15
100
AcDbLine
 10
47.14484370086023
 20
3.176074928723895
 30
0.0
 11
45.20879570980939
 21
3.176074928723895
 31
0.0
  0
LINE
  5
A2
330
1F
100
AcDbEntity
  8
0
  6
Continuous
 62
     1
370
    15
100
AcDbLine
 10
45.20879570980935
 20
-3.173925071276109
 30
0.0
 11
47.14484370086024
 21
-3.173925071276109
 31
0.0
  0
LINE
  5
A3
330
1F
100
AcDbEntity
  8
0
  6
Continuous
 62
     1
370
    15
100
AcDbLine
 10
10.65445504228486
 20
-3.173925071276109
 30
0.0
 11
12.59216715233201
 21
-3.173925071276109
 31
0.0
  0
LINE
  5
A4
330
1F
100
AcDbEntity
  8
0
  6
Continuous
 62
     1
370
    15
100
AcDbLine
 10
29.86716648995034
 20
3.176074928723895
 30
0.0
 11
27.93271755981445
 21
3.176074928723895
 31
0.0
  0
LINE
  5
A5
330
1F
100
AcDbEntity
  8
0
  6
Continuous
 62
     1
370
    15
100
AcDbLine
 10
36.57088441619873
 20
-3.173925071276109
 30
0.0
 11
38.50599570591744
 21
-3.173925071276109
 31
0.0
  0
LINE
  5
A6
330
1F
100
AcDbEntity
  8
0
  6
Continuous
 62
     1
370
    15
100
AcDbLine
 10
21.22859581486254
 20
3.176074928723895
 30
0.0
 11
19.29451183700153
 21
3.176074928723895
 31
0.0
  0
LINE
  5
A7
330
1F
100
AcDbEntity
  8
0
  6
Continuous
 62
     1
370
    15
100
AcDbLine
 10
19.29451183700147
 20
-3.173925071276109
 30
0.0
 11
21.22859581486258
 21
-3.173925071276109
 31
0.0
  0
LINE
  5
A8
330
1F
100
AcDbEntity
  8
0
  6
Continuous
 62
     1
370
    15
100
AcDbLine
 10
38.5059957059175
 20
3.176074928723895
 30
0.0
 11
36.57088441619873
 21
3.176074928723895
 31
0.0
  0
LINE
  5
A9
330
1F
100
AcDbEntity
  8
외형선
  6
Continuous
370
    15
100
AcDbLine
 10
7.924630657015598
 20
0.0010749287238931
 30
0.0
 11
7.924630657015598
 21
3.176074928723894
 31
0.0
  0
LINE
  5
AA
330
1F
100
AcDbEntity
  8
외형선
  6
Continuous
370
    15
100
AcDbLine
 10
7.924630657015598
 20
-3.173925071276108
 30
0.0
 11
7.924630657015598
 21
0.0010749287238931
 31
0.0
  0
LINE
  5
AB
330
1F
100
AcDbEntity
  8
외형선
  6
Continuous
370
    15
100
AcDbLine
 10
1.999999999999997
 20
0.0010749287238931
 30
0.0
 11
1.999999999999997
 21
4.763574928723898
 31
0.0
  0
LINE
  5
AC
330
1F
100
AcDbEntity
  8
외형선
  6
Continuous
370
    15
100
AcDbLine
 10
1.999999999999997
 20
-4.761425071276111
 30
0.0
 11
1.999999999999997
 21
0.0010749287238931
 31
0.0
  0
LINE
  5
AD
330
1F
100
AcDbEntity
  8
외형선
  6
Continuous
370
    15
100
AcDbLine
 10
-36.1603693429844
 20
0.0010749287238931
 30
0.0
 11
-36.1603693429844
 21
4.763574928723895
 31
0.0
  0
LINE
  5
AE
330
1F
100
AcDbEntity
  8
외형선
  6
Continuous
370
    15
100
AcDbLine
 10
-36.1603693429844
 20
-4.761425071276109
 30
0.0
 11
-36.1603693429844
 21
0.0010749287238931
 31
0.0
  0
LINE
  5
AF
330
1F
100
AcDbEntity
  8
외형선
  6
Continuous
370
    15
100
AcDbLine
 10
-37.11286934298439
 20
0.0010749287238931
 30
0.0
 11
-37.11286934298439
 21
3.811074928723895
 31
0.0
  0
LINE
  5
B0
330
1F
100
AcDbEntity
  8
외형선
  6
Continuous
370
    15
100
AcDbLine
 10
-37.11286934298439
 20
-3.808925071276108
 30
0.0
 11
-37.11286934298439
 21
0.0010749287238931
 31
0.0
  0
LINE
  5
B1
330
1F
100
AcDbEntity
  8
외형선
  6
Continuous
370
    15
100
AcDbLine
 10
8.424790509526979
 20
2.183244745194699
 30
0.0
 11
8.424790509526972
 21
3.176074928723893
 31
0.0
  0
SPLINE
  5
B2
330
1F
100
AcDbEntity
  8
외형선
  6
Continuous
370
    15
100
AcDbSpline
210
0.0
220
0.0
230
1.0
 70
     8
 71
     3
 72
     8
 73
     4
 74
     0
 42
0.000000001
 43
0.00000001
 40
0.0
 40
0.0
 40
0.0
 40
0.0
 40
1.0
 40
1.0
 40
1.0
 40
1.0
 10
8.924630657015648
 20
1.964260132461942
 30
0.0
 10
8.757768957010937
 20
2.040121185723378
 30
0.0
 10
8.592191332045392
 20
2.113075906809101
 30
0.0
 10
8.424790509526972
 20
2.183264090770482
 30
0.0
  0
LINE
  5
B3
330
1F
100
AcDbEntity
  8
외형선
  6
Continuous
370
    15
100
AcDbLine
 10
8.924630657015586
 20
0.9834901975536259
 30
0.0
 11
8.9246306570156
 21
1.964260132461966
 31
0.0
  0
SPLINE
  5
B4
330
1F
100
AcDbEntity
  8
외형선
  6
Continuous
370
    15
100
AcDbSpline
210
0.0
220
0.0
230
1.0
 70
     8
 71
     3
 72
     8
 73
     4
 74
     0
 42
0.000000001
 43
0.00000001
 40
0.0
 40
0.0
 40
0.0
 40
0.0
 40
1.0
 40
1.0
 40
1.0
 40
1.0
 10
8.924630657015655
 20
0.9834901975536007
 30
0.0
 10
8.757768957010951
 20
1.075278166855092
 30
0.0
 10
8.592191332045392
 20
1.165474134417353
 30
0.0
 10
8.424790509526979
 20
1.254257394860793
 30
0.0
  0
LINE
  5
B5
330
1F
100
AcDbEntity
  8
외형선
  6
Continuous
370
    15
100
AcDbLine
 10
8.424790509526979
 20
-2.305168747057977
 30
0.0
 11
8.424790509526972
 21
1.254277867148015
 31
0.0
  0
SPLINE
  5
B6
330
1F
100
AcDbEntity
  8
외형선
  6
Continuous
370
    15
100
AcDbSpline
210
0.0
220
0.0
230
1.0
 70
     8
 71
     3
 72
     8
 73
     4
 74
     0
 42
0.000000001
 43
0.00000001
 40
0.0
 40
0.0
 40
0.0
 40
0.0
 40
1.0
 40
1.0
 40
1.0
 40
1.0
 10
8.924630657015648
 20
-2.494226426989302
 30
0.0
 10
8.757768957010937
 20
-2.434542534716391
 30
0.0
 10
8.592191332045392
 20
-2.371563680064113
 30
0.0
 10
8.424790509526972
 20
-2.305150442103191
 30
0.0
  0
LINE
  5
B7
330
1F
100
AcDbEntity
  8
외형선
  6
Continuous
370
    15
100
AcDbLine
 10
8.924630657015586
 20
-3.018111259567639
 30
0.0
 11
8.9246306570156
 21
-2.494226426989282
 31
0.0
  0
SPLINE
  5
B8
330
1F
100
AcDbEntity
  8
외형선
  6
Continuous
370
    15
100
AcDbSpline
210
0.0
220
0.0
230
1.0
 70
     8
 71
     3
 72
     8
 73
     4
 74
     0
 42
0.000000001
 43
0.00000001
 40
0.0
 40
0.0
 40
0.0
 40
0.0
 40
1.0
 40
1.0
 40
1.0
 40
1.0
 10
8.924630657015655
 20
-3.01811125956762
 30
0.0
 10
8.757768957010951
 20
-2.988244303072405
 30
0.0
 10
8.592191332045392
 20
-2.954282340562625
 30
0.0
 10
8.424790509526979
 20
-2.916142702267497
 30
0.0
  0
LINE
  5
B9
330
1F
100
AcDbEntity
  8
외형선
  6
Continuous
370
    15
100
AcDbLine
 10
8.424790509526972
 20
-3.173925071276107
 30
0.0
 11
8.424790509526972
 21
-2.916133907668373
 31
0.0
  0
SPLINE
  5
BA
330
1F
100
AcDbEntity
  8
외형선
  6
Continuous
370
    15
100
AcDbSpline
210
0.0
220
0.0
230
1.0
 70
     8
 71
     3
 72
     8
 73
     4
 74
     0
 42
0.000000001
 43
0.00000001
 40
0.0
 40
0.0
 40
0.0
 40
0.0
 40
1.0
 40
1.0
 40
1.0
 40
1.0
 10
8.924630657015655
 20
3.0202611170154
 30
0.0
 10
8.757768957010951
 20
2.990394160520184
 30
0.0
 10
8.592191332045392
 20
2.956432198010404
 30
0.0
 10
8.424790509526979
 20
2.918292559715274
 30
0.0
  0
SPLINE
  5
BB
330
1F
100
AcDbEntity
  8
외형선
  6
Continuous
370
    15
100
AcDbSpline
210
0.0
220
0.0
230
1.0
 70
    24
 71
     3
 72
    22
 73
    18
 74
     0
 42
0.000000001
 43
0.00000001
 40
0.0
 40
0.0
 40
0.0
 40
0.0
 40
0.125
 40
0.125
 40
0.25
 40
0.25
 40
0.375
 40
0.375
 40
0.5
 40
0.5
 40
0.625
 40
0.625
 40
0.75
 40
0.75
 40
0.875
 40
0.875
 40
1.0
 40
1.0
 40
1.0
 40
1.0
 10
8.9246306570156
 20
-2.494226426989286
 30
0.0
 10
8.924630657015607
 20
-2.370760862038446
 30
0.0
 10
8.924630657015593
 20
-2.206364520644162
 30
0.0
 10
8.924630657015578
 20
-1.806703455383491
 30
0.0
 10
8.9246306570156
 20
-1.57174642709983
 30
0.0
 10
8.924630657015607
 20
-1.079266443620095
 30
0.0
 10
8.924630657015612
 20
-0.8231647789828808
 30
0.0
 10
8.924630657015607
 20
-0.3472818374528511
 30
0.0
 10
8.924630657015593
 20
-0.1282382166764707
 30
0.0
 10
8.924630657015586
 20
0.2433437605828323
 30
0.0
 10
8.924630657015607
 20
0.3963015927329291
 30
0.0
 10
8.924630657015612
 20
0.6385701883725131
 30
0.0
 10
8.9246306570156
 20
0.7284725311338937
 30
0.0
 10
8.924630657015607
 20
0.8616132556803358
 30
0.0
 10
8.9246306570156
 20
0.9051325002724842
 30
0.0
 10
8.924630657015593
 20
0.9624042882597482
 30
0.0
 10
8.924630657015578
 20
0.9819731354049701
 30
0.0
 10
8.924630657015593
 20
0.983490197553622
 30
0.0
  0
SPLINE
  5
BC
330
1F
100
AcDbEntity
  8
외형선
  6
Continuous
370
    15
100
AcDbSpline
210
0.0
220
0.0
230
1.0
 70
    24
 71
     3
 72
    12
 73
     8
 74
     0
 42
0.000000001
 43
0.00000001
 40
0.0
 40
0.0
 40
0.0
 40
0.0
 40
0.1094303439557732
 40
0.410257741213075
 40
0.7198091533703368
 40
0.8594849435695039
 40
0.9999999999999999
 40
0.9999999999999999
 40
0.9999999999999999
 40
0.9999999999999999
 10
8.924630657015593
 20
2.026698397584596
 30
0.0
 10
8.924630657015593
 20
2.058239269325231
 30
0.0
 10
8.924630657015571
 20
2.176486972187557
 30
0.0
 10
8.92463065701564
 20
2.412679081111744
 30
0.0
 10
8.92463065701564
 20
2.667377703288092
 30
0.0
 10
8.9246306570156
 20
2.872798711841186
 30
0.0
 10
8.924630657015593
 20
2.971008924370356
 30
0.0
 10
8.924630657015586
 20
3.020261117015418
 30
0.0
  0
SPLINE
  5
BD
330
1F
100
AcDbEntity
  8
0
  6
Continuous
 62
     1
370
    15
100
AcDbSpline
210
0.0
220
0.0
230
1.0
 70
     8
 71
     3
 72
    13
 73
     9
 74
     0
 42
0.000000001
 43
0.00000001
 40
0.0
 40
0.0
 40
0.0
 40
0.0
 40
0.191228828988786
 40
0.3824925042011407
 40
0.5737464658386314
 40
0.764966296161936
 40
0.9561573953582545
 40
1.0
 40
1.0
 40
1.0
 40
1.0
 10
8.92463065701564
 20
-2.494226426989303
 30
0.0
 10
9.372087242428837
 20
-2.639605463841401
 30
0.0
 10
10.26708194997903
 20
-2.930390028898637
 30
0.0
 10
11.60967165286175
 20
-3.152306587089283
 30
0.0
 10
12.95221451557469
 20
-3.201279608562917
 30
0.0
 10
14.29452955432471
 20
-3.045211704040149
 30
0.0
 10
15.29189616136464
 20
-2.830043805678502
 30
0.0
 10
15.84182115440348
 20
-2.626690039597156
 30
0.0
 10
15.94440279975351
 20
-2.588756932033753
 30
0.0
  0
SPLINE
  5
BE
330
1F
100
AcDbEntity
  8
0
  6
Continuous
 62
     1
370
    15
100
AcDbSpline
210
0.0
220
0.0
230
1.0
 70
     8
 71
     3
 72
    24
 73
    20
 74
     0
 42
0.000000001
 43
0.00000001
 40
0.0
 40
0.0
 40
0.0
 40
0.0
 40
0.0500064421234098
 40
0.1110083744911488
 40
0.1720328042509823
 40
0.2330915307789775
 40
0.2941573823410776
 40
0.3551871927946391
 40
0.4151006797002226
 40
0.474999915033233
 40
0.5349018981948815
 40
0.5948236107705528
 40
0.6558653001247114
 40
0.7169379525286218
 40
0.7779828681120295
 40
0.8389977552010466
 40
0.8999944620348391
 40
0.9598927341992677
 40
0.9999999999999999
 40
0.9999999999999999
 40
0.9999999999999999
 40
0.9999999999999999
 10
29.86716648995034
 20
3.165047407236157
 30
0.0
 10
30.21092758995954
 20
3.158697110742444
 30
0.0
 10
30.97403648763191
 20
3.144600205196471
 30
0.0
 10
32.15675530770802
 20
2.927346672112122
 30
0.0
 10
33.4155198069386
 20
2.560643642467529
 30
0.0
 10
34.67490839771748
 20
2.055864388207116
 30
0.0
 10
35.93438102584309
 20
1.445203856187354
 30
0.0
 10
37.18578252113691
 20
0.762842820474766
 30
0.0
 10
38.42901744695031
 20
0.0460968384260279
 30
0.0
 10
39.66444377005811
 20
-0.668582873922689
 30
0.0
 10
40.89993747312781
 20
-1.349579238510504
 30
0.0
 10
42.14336533554405
 20
-1.966400194946866
 30
0.0
 10
43.39500294919984
 20
-2.486067564059162
 30
0.0
 10
44.65456072152951
 20
-2.879082365178695
 30
0.0
 10
45.91374511775506
 20
-3.121604645928776
 30
0.0
 10
47.17228213439568
 20
-3.202602762670231
 30
0.0
 10
48.42288375468199
 20
-3.111832005408021
 30
0.0
 10
49.52964819341495
 20
-2.907035565663324
 30
0.0
 10
50.21715493151025
 20
-2.679478078521627
 30
0.0
 10
50.49287981680796
 20
-2.588216046363786
 30
0.0
  0
SPLINE
  5
BF
330
1F
100
AcDbEntity
  8
외형선
  6
Continuous
370
    15
100
AcDbSpline
210
0.0
220
0.0
230
1.0
 70
    24
 71
     3
 72
    22
 73
    18
 74
     0
 42
0.000000001
 43
0.00000001
 40
0.0
 40
0.0
 40
0.0
 40
0.0
 40
0.1250000000000001
 40
0.1250000000000001
 40
0.2500000000000001
 40
0.2500000000000001
 40
0.3750000000000002
 40
0.3750000000000002
 40
0.5000000000000002
 40
0.5000000000000002
 40
0.6250000000000002
 40
0.6250000000000002
 40
0.7500000000000001
 40
0.7500000000000001
 40
0.875
 40
0.875
 40
1.0
 40
1.0
 40
1.0
 40
1.0
 10
8.924630657015655
 20
0.9834901975535963
 30
0.0
 10
8.924630657015655
 20
0.9819731354049428
 30
0.0
 10
8.924630657015669
 20
0.9624042882597218
 30
0.0
 10
8.924630657015676
 20
0.9051325002724562
 30
0.0
 10
8.924630657015648
 20
0.8616132556803057
 30
0.0
 10
8.92463065701564
 20
0.7284725311338606
 30
0.0
 10
8.924630657015648
 20
0.6385701883724784
 30
0.0
 10
8.924630657015662
 20
0.3963015927328916
 30
0.0
 10
8.924630657015648
 20
0.243343760582794
 30
0.0
 10
8.924630657015648
 20
-0.1282382166765104
 30
0.0
 10
8.924630657015634
 20
-0.3472818374528903
 30
0.0
 10
8.924630657015634
 20
-0.8231647789829177
 30
0.0
 10
8.924630657015662
 20
-1.079266443620129
 30
0.0
 10
8.924630657015648
 20
-1.571746427099858
 30
0.0
 10
8.92463065701564
 20
-1.806703455383518
 30
0.0
 10
8.92463065701564
 20
-2.206364520644185
 30
0.0
 10
8.92463065701564
 20
-2.370760862038468
 30
0.0
 10
8.924630657015648
 20
-2.494226426989308
 30
0.0
  0
SPLINE
  5
C0
330
1F
100
AcDbEntity
  8
0
  6
Continuous
 62
     1
370
    15
100
AcDbSpline
210
0.0
220
0.0
230
1.0
 70
     8
 71
     3
 72
    24
 73
    20
 74
     0
 42
0.000000001
 43
0.00000001
 40
0.0
 40
0.0
 40
0.0
 40
0.0
 40
0.0624730272063313
 40
0.1249098723174165
 40
0.1873225934606201
 40
0.2497233723761933
 40
0.3121244521695833
 40
0.3734237314061025
 40
0.4347561445659116
 40
0.496130224177431
 40
0.5574736045231471
 40
0.6198957834572602
 40
0.6823004734529706
 40
0.7446998975060521
 40
0.8071063056911262
 40
0.8695319121733898
 40
0.9308811642237589
 40
0.9922527938384053
 40
1.0
 40
1.0
 40
1.0
 40
1.0
 10
53.37463065701561
 20
-3.173925071276098
 30
0.0
 10
52.95473824547609
 20
-3.125475257606789
 30
0.0
 10
52.11519660874334
 20
-3.051948472244951
 30
0.0
 10
50.85636554296737
 20
-2.738154834548374
 30
0.0
 10
49.59810246281195
 20
-2.293386828081041
 30
0.0
 10
48.34013561822884
 20
-1.725841642804148
 30
0.0
 10
47.08963358341001
 20
-1.073008744699042
 30
0.0
 10
45.84631487049633
 20
-0.3691255938559402
 30
0.0
 10
44.60976445923163
 20
0.3492193590376453
 30
0.0
 10
43.37264212380682
 20
1.049768448714033
 30
0.0
 10
42.12842581489554
 20
1.701729904577912
 30
0.0
 10
40.87738241312614
 20
2.270356767383381
 30
0.0
 10
39.61931830442369
 20
2.72388581937088
 30
0.0
 10
38.36137973746769
 20
3.035677398137401
 30
0.0
 10
37.10327409661621
 20
3.18832932122218
 30
0.0
 10
35.85214295087805
 20
3.178247654433392
 30
0.0
 10
34.60786012067606
 20
2.993392001642381
 30
0.0
 10
33.73086377475753
 20
2.789425583076037
 30
0.0
 10
33.26637670086555
 20
2.615813123524278
 30
0.0
 10
33.21431452301742
 20
2.596353717108302
 30
0.0
  0
SPLINE
  5
C1
330
1F
100
AcDbEntity
  8
0
  6
Continuous
 62
     1
370
    15
100
AcDbSpline
210
0.0
220
0.0
230
1.0
 70
     8
 71
     3
 72
    15
 73
    11
 74
     0
 42
0.000000001
 43
0.00000001
 40
0.0
 40
0.0
 40
0.0
 40
0.0
 40
0.0939580305424477
 40
0.2233514798102095
 40
0.3527569848052716
 40
0.4821782538588407
 40
0.6116189716154676
 40
0.7410827935752463
 40
0.8705531908577834
 40
1.0
 40
1.0
 40
1.0
 40
1.0
 10
19.29451183700147
 20
-3.155168859316008
 30
0.0
 10
18.96975711114871
 20
-3.153034239084942
 30
0.0
 10
18.19776936113083
 20
-3.147959945970356
 30
0.0
 10
16.97848864916142
 20
-2.921356455437648
 30
0.0
 10
15.63660838839811
 20
-2.523133595865279
 30
0.0
 10
14.29453108621058
 20
-1.968876728438671
 30
0.0
 10
12.95221410514103
 20
-1.299283285698456
 30
0.0
 10
11.60967176232587
 20
-0.5532715167347924
 30
0.0
 10
10.26708192261824
 20
0.22961747764104
 30
0.0
 10
9.372087233309125
 20
0.7322145536204718
 30
0.0
 10
8.924630657015648
 20
0.9834901975535963
 30
0.0
  0
LINE
  5
C2
330
1F
100
AcDbEntity
  8
0
  6
Continuous
 62
     1
370
    15
100
AcDbLine
 10
53.37463065701561
 20
1.340852399550515
 30
0.0
 11
53.37463065701561
 21
3.176074928723901
 31
0.0
  0
SPLINE
  5
C3
330
1F
100
AcDbEntity
  8
0
  6
Continuous
 62
     1
370
    15
100
AcDbSpline
210
0.0
220
0.0
230
1.0
 70
     8
 71
     3
 72
    24
 73
    20
 74
     0
 42
0.000000001
 43
0.00000001
 40
0.0
 40
0.0
 40
0.0
 40
0.0
 40
0.0174601282163563
 40
0.0825435715003076
 40
0.1476172358786375
 40
0.2126829740091421
 40
0.2777426504593838
 40
0.3427981389244114
 40
0.4038006861395773
 40
0.4648072892930609
 40
0.5258299026949856
 40
0.5868803984526152
 40
0.6479643068946683
 40
0.7079366798761234
 40
0.7678715938107525
 40
0.8277858962679342
 40
0.8876965682230368
 40
0.9487104285988429
 40
1.0
 40
1.0
 40
1.0
 40
1.0
 10
12.59216715233201
 20
3.157551745698136
 30
0.0
 10
12.71220674872159
 20
3.163028446417655
 30
0.0
 10
13.27969954629275
 20
3.188919804821538
 30
0.0
 10
14.29452925664748
 20
3.046138397765308
 30
0.0
 10
15.63660790876965
 20
2.731166646109958
 30
0.0
 10
16.9784923962469
 20
2.239891461320431
 30
0.0
 10
18.32020619814021
 20
1.619879152522601
 30
0.0
 10
19.63405121033345
 20
0.9178359819321316
 30
0.0
 10
20.91974265727418
 20
0.181220117880498
 30
0.0
 10
22.17779678312292
 20
-0.5489307444888482
 30
0.0
 10
23.43623397277894
 20
-1.250456959348186
 30
0.0
 10
24.69530449877346
 20
-1.886822522641639
 30
0.0
 10
25.94738225593002
 20
-2.421325481163328
 30
0.0
 10
27.19160333792999
 20
-2.828914371664108
 30
0.0
 10
28.42761824337835
 20
-3.091359403755511
 30
0.0
 10
29.66313005364911
 20
-3.199171329293894
 30
0.0
 10
30.90602876193477
 20
-3.141958922915556
 30
0.0
 10
32.08975023350973
 20
-2.947945918708407
 30
0.0
 10
32.86174186219833
 20
-2.705108838740671
 30
0.0
 10
33.21431452301744
 20
-2.594203859660517
 30
0.0
  0
SPLINE
  5
C4
330
1F
100
AcDbEntity
  8
0
  6
Continuous
 62
     1
370
    15
100
AcDbSpline
210
0.0
220
0.0
230
1.0
 70
     8
 71
     3
 72
    13
 73
     9
 74
     0
 42
0.000000001
 43
0.00000001
 40
0.0
 40
0.0
 40
0.0
 40
0.0
 40
0.0044229616681344
 40
0.2063666496910063
 40
0.404673716005956
 40
0.603010985929691
 40
0.801434564820005
 40
1.0
 40
1.0
 40
1.0
 40
1.0
 10
47.14484370086023
 20
3.174301440742497
 30
0.0
 10
47.15402860263944
 20
3.17489101560366
 30
0.0
 10
47.58257796619667
 20
3.202399413362793
 30
0.0
 10
48.42287615573161
 20
3.105105884622669
 30
0.0
 10
49.66576690795315
 20
2.875488248711762
 30
0.0
 10
50.90139971068732
 20
2.482238556628867
 30
0.0
 10
52.13765697995061
 20
1.973988045841778
 30
0.0
 10
52.96220788559345
 20
1.556142437027772
 30
0.0
 10
53.37463065701562
 20
1.347144978127037
 30
0.0
  0
SPLINE
  5
C5
330
1F
100
AcDbEntity
  8
0
  6
Continuous
 62
     1
370
    15
100
AcDbSpline
210
0.0
220
0.0
230
1.0
 70
     8
 71
     3
 72
    10
 73
     6
 74
     0
 42
0.000000001
 43
0.00000001
 40
0.0
 40
0.0
 40
0.0
 40
0.0
 40
0.4370780492420975
 40
0.8739029588443394
 40
0.9999999999999999
 40
0.9999999999999999
 40
0.9999999999999999
 40
0.9999999999999999
 10
53.37463065701561
 20
3.176074928723901
 30
0.0
 10
52.95473928030559
 20
3.125776936279101
 30
0.0
 10
52.11519971263253
 20
3.048554863763948
 30
0.0
 10
51.15465807527327
 20
2.830255010622852
 30
0.0
 10
50.6139915441667
 20
2.634267896252111
 30
0.0
 10
50.49287981680796
 20
2.590365903811573
 30
0.0
  0
SPLINE
  5
C6
330
1F
100
AcDbEntity
  8
0
  6
Continuous
 62
     1
370
    15
100
AcDbSpline
210
0.0
220
0.0
230
1.0
 70
     8
 71
     3
 72
    24
 73
    20
 74
     0
 42
0.000000001
 43
0.00000001
 40
0.0
 40
0.0
 40
0.0
 40
0.0
 40
0.0351978397016045
 40
0.0951607522861617
 40
0.1551455367580811
 40
0.2150870317241704
 40
0.274998241304501
 40
0.335988449342855
 40
0.3969800437371482
 40
0.4579849862141892
 40
0.5190151699307781
 40
0.5800814336199578
 40
0.6400503666298563
 40
0.6999785343929991
 40
0.7598827415104756
 40
0.819779947570178
 40
0.8848215004378382
 40
0.9498672403936002
 40
1.0
 40
1.0
 40
1.0
 40
1.0
 10
36.57088441619873
 20
-3.153652269565188
 30
0.0
 10
36.32889055035419
 20
-3.156247272215961
 30
0.0
 10
35.67463680871462
 20
-3.1632631120097
 30
0.0
 10
34.60784357232976
 20
-2.994425622125263
 30
0.0
 10
33.37075430512764
 20
-2.675576179703981
 30
0.0
 10
32.13429640046014
 20
-2.214516499943362
 30
0.0
 10
30.89104822683101
 20
-1.640568386050657
 30
0.0
 10
29.64056741783758
 20
-0.9781715564345795
 30
0.0
 10
28.38257831931152
 20
-0.2608815340991981
 30
0.0
 10
27.12425001016815
 20
0.4701652250517802
 30
0.0
 10
25.86532426272744
 20
1.176871121683356
 30
0.0
 10
24.61329905546303
 20
1.818275428871744
 30
0.0
 10
23.36893942016471
 20
2.362832544032158
 30
0.0
 10
22.13278397219041
 20
2.78540875046703
 30
0.0
 10
20.89718856131067
 20
3.067490965406713
 30
0.0
 10
19.62655522120049
 20
3.200188189097925
 30
0.0
 10
18.32020150498512
 20
3.154455909685375
 30
0.0
 10
17.0810740487953
 20
2.955710545826842
 30
0.0
 10
16.28911293484244
 20
2.701538207525017
 30
0.0
 10
15.9444027997535
 20
2.590906789481541
 30
0.0
  0
SPLINE
  5
C7
330
1F
100
AcDbEntity
  8
0
  6
Continuous
 62
     1
370
    15
100
AcDbSpline
210
0.0
220
0.0
230
1.0
 70
     8
 71
     3
 72
    24
 73
    20
 74
     0
 42
0.000000001
 43
0.00000001
 40
0.0
 40
0.0
 40
0.0
 40
0.0
 40
0.0460157734099596
 40
0.1070225655720908
 40
0.168057232860911
 40
0.2291253041712991
 40
0.2890821282071906
 40
0.3490015029082061
 40
0.4089002714756804
 40
0.4687954104823503
 40
0.5297934518877465
 40
0.590813989250258
 40
0.6518688211933376
 40
0.7129307777160572
 40
0.7739566954290932
 40
0.8338663607980085
 40
0.8937617755033764
 40
0.9536599378621142
 40
1.0
 40
1.0
 40
1.0
 40
1.0
 10
21.22859581486254
 20
3.160705638595071
 30
0.0
 10
21.54495969362442
 20
3.157727675284566
 30
0.0
 10
22.28075247619465
 20
3.150801587770395
 30
0.0
 10
23.43623544474037
 20
2.945862003923448
 30
0.0
 10
24.6953041072322
 20
2.589284574720719
 30
0.0
 10
25.94738234602948
 20
2.095338893568491
 30
0.0
 10
27.19160336038659
 20
1.498901774807416
 30
0.0
 10
28.42761806408695
 20
0.8303026938551438
 30
0.0
 10
29.66313074811263
 20
0.1201908222802549
 30
0.0
 10
30.90602614323122
 20
-0.6002723426445037
 30
0.0
 10
32.15675522016203
 20
-1.29440691281312
 30
0.0
 10
33.41551982692745
 20
-1.925270475810702
 30
0.0
 10
34.67490840538316
 20
-2.45557631992104
 30
0.0
 10
35.93438097519103
 20
-2.857802675772628
 30
0.0
 10
37.18578271445188
 20
-3.109151672564098
 30
0.0
 10
38.42901673870426
 20
-3.20115547745427
 30
0.0
 10
39.66444641466176
 20
-3.127326263378923
 30
0.0
 10
40.80658268670553
 20
-2.928054067426492
 30
0.0
 10
41.53702264505809
 20
-2.693227713088791
 30
0.0
 10
41.8556333260859
 20
-2.590798781287808
 30
0.0
  0
SPLINE
  5
C8
330
1F
100
AcDbEntity
  8
0
  6
Continuous
 62
     1
370
    15
100
AcDbSpline
210
0.0
220
0.0
230
1.0
 70
     8
 71
     3
 72
    25
 73
    21
 74
     0
 42
0.000000001
 43
0.00000001
 40
0.0
 40
0.0
 40
0.0
 40
0.0
 40
0.0290169498699224
 40
0.0889776955553582
 40
0.1489084489234964
 40
0.2098931581018743
 40
0.2708607810804346
 40
0.3318232593814897
 40
0.3927925609826236
 40
0.4537806187789242
 40
0.5137171086369889
 40
0.5736754607445436
 40
0.6335905424218388
 40
0.6934753520586653
 40
0.754438684691602
 40
0.8154034030695786
 40
0.8763814636484549
 40
0.9373847543442978
 40
0.9984241091140501
 40
1.0
 40
1.0
 40
1.0
 40
1.0
 10
45.20879570980937
 20
-3.153908695830767
 30
0.0
 10
45.00920225924663
 20
-3.157967581541842
 30
0.0
 10
44.39716807375756
 20
-3.170413765538198
 30
0.0
 10
43.37263523680755
 20
-3.018793879593117
 30
0.0
 10
42.12842769129709
 20
-2.713846009465101
 30
0.0
 10
40.87738192490063
 20
-2.258744494948984
 30
0.0
 10
39.61931836780337
 20
-1.68550931994894
 30
0.0
 10
38.36137997205829
 20
-1.023716543044045
 30
0.0
 10
37.10327309460342
 20
-0.3086341644444706
 30
0.0
 10
35.85214669810622
 20
0.4184373143845203
 30
0.0
 10
34.60784639330156
 20
1.119595867782437
 30
0.0
 10
33.37075355300958
 20
1.760063489306917
 30
0.0
 10
32.13429658958358
 20
2.312269717441381
 30
0.0
 10
30.89104822062301
 20
2.750620894531092
 30
0.0
 10
29.64056724605851
 20
3.050708179003352
 30
0.0
 10
28.38257901173514
 20
3.192507183480791
 30
0.0
 10
27.12424741118586
 20
3.171887005496024
 30
0.0
 10
25.86533397276811
 20
2.970933268923101
 30
0.0
 10
25.01482957723019
 20
2.768271097329815
 30
0.0
 10
24.58408598592779
 20
2.604727245715245
 30
0.0
 10
24.57324509737731
 20
2.600611199175563
 30
0.0
  0
SPLINE
  5
C9
330
1F
100
AcDbEntity
  8
0
  6
Continuous
 62
     1
370
    15
100
AcDbSpline
210
0.0
220
0.0
230
1.0
 70
     8
 71
     3
 72
     9
 73
     5
 74
     0
 42
0.000000001
 43
0.00000001
 40
0.0
 40
0.0
 40
0.0
 40
0.0
 40
0.2239709682970593
 40
1.0
 40
1.0
 40
1.0
 40
1.0
 10
10.65445504228487
 20
-3.154548012386534
 30
0.0
 10
10.52530739537053
 20
-3.160397744523228
 30
0.0
 10
9.948680666038976
 20
-3.186516005211977
 30
0.0
 10
9.37208535664732
 20
-3.091695063302667
 30
0.0
 10
8.924630657015648
 20
-3.018111259567624
 30
0.0
  0
LINE
  5
CA
330
1F
100
AcDbEntity
  8
0
  6
Continuous
 62
     1
370
    15
100
AcDbLine
 10
53.37463065701561
 20
0.2731132126109246
 30
0.0
 11
53.37463065701561
 21
1.347144978127036
 31
0.0
  0
SPLINE
  5
CB
330
1F
100
AcDbEntity
  8
0
  6
Continuous
 62
     1
370
    15
100
AcDbSpline
210
0.0
220
0.0
230
1.0
 70
     8
 71
     3
 72
    17
 73
    13
 74
     0
 42
0.000000001
 43
0.00000001
 40
0.0
 40
0.0
 40
0.0
 40
0.0
 40
0.1093398494406987
 40
0.2186163732347372
 40
0.3278506754311673
 40
0.437064076425439
 40
0.5462780040139331
 40
0.6535635680767723
 40
0.7609071228973178
 40
0.8683236020463369
 40
0.9756863515579272
 40
0.9999999999999999
 40
0.9999999999999999
 40
0.9999999999999999
 40
0.9999999999999999
 10
53.37463065701562
 20
0.2731132126109243
 30
0.0
 10
52.95473824532911
 20
0.5131114936010099
 30
0.0
 10
52.1151966083025
 20
0.9929690573438614
 30
0.0
 10
50.85636554472928
 20
1.657378227281717
 30
0.0
 10
49.59810245620793
 20
2.236310216597998
 30
0.0
 10
48.34013564287903
 20
2.698322139003377
 30
0.0
 10
47.08963349209736
 20
3.018061995167316
 30
0.0
 10
45.8463152046651
 20
3.180969015426636
 30
0.0
 10
44.60976321024636
 20
3.185767503873169
 30
0.0
 10
43.37264678773713
 20
3.019519948770252
 30
0.0
 10
42.45455745846517
 20
2.813329457612492
 30
0.0
 10
41.94898563371459
 20
2.627298662197704
 30
0.0
 10
41.85563332608593
 20
2.592948638735594
 30
0.0
  0
SPLINE
  5
CC
330
1F
100
AcDbEntity
  8
0
  6
Continuous
 62
     1
370
    15
100
AcDbSpline
210
0.0
220
0.0
230
1.0
 70
     8
 71
     3
 72
    22
 73
    18
 74
     0
 42
0.000000001
 43
0.00000001
 40
0.0
 40
0.0
 40
0.0
 40
0.0
 40
0.0425288622893291
 40
0.1087586569976382
 40
0.1750276055972228
 40
0.2401057338323562
 40
0.3051396237290241
 40
0.3701475115960909
 40
0.4351478019336913
 40
0.5057307238848812
 40
0.5763181896530564
 40
0.6469122321315899
 40
0.7175148743108545
 40
0.7881281262595401
 40
0.8587539821472836
 40
0.9293834250432779
 40
1.0
 40
1.0
 40
1.0
 40
1.0
 10
27.9327175598145
 20
-3.154851843786962
 30
0.0
 10
27.6632844263071
 20
-3.155752616656839
 30
0.0
 10
26.97426562416801
 20
-3.158056154591171
 30
0.0
 10
25.86532241680209
 20
-2.973922043326758
 30
0.0
 10
24.61329953953538
 20
-2.636855119471757
 30
0.0
 10
23.36893929443192
 20
-2.160554224229919
 30
0.0
 10
22.13278399508993
 20
-1.580024396751432
 30
0.0
 10
20.89718859533671
 20
-0.9195896366210466
 30
0.0
 10
19.62655505669474
 20
-0.1927867177637585
 30
0.0
 10
18.32020218825607
 20
0.565981912463463
 30
0.0
 10
16.9784936113641
 20
1.311854449362159
 30
0.0
 10
15.63660705855682
 20
1.980147064444086
 30
0.0
 10
14.29453144260747
 20
2.530954563548708
 30
0.0
 10
12.95221400965266
 20
2.932789427176215
 30
0.0
 10
11.60967178779295
 20
3.157426905016834
 30
0.0
 10
10.2670819162527
 20
3.20785608873674
 30
0.0
 10
9.372087231187406
 20
3.082788976258489
 30
0.0
 10
8.924630657015648
 20
3.020261117015404
 30
0.0
  0
LINE
  5
CD
330
1F
100
AcDbEntity
  8
0
  6
Continuous
 62
     1
370
    15
100
AcDbLine
 10
53.37463065701561
 20
-2.874463355163101
 30
0.0
 11
53.37463065701561
 21
0.2731132126109247
 31
0.0
  0
SPLINE
  5
CE
330
1F
100
AcDbEntity
  8
0
  6
Continuous
 62
     1
370
    15
100
AcDbSpline
210
0.0
220
0.0
230
1.0
 70
     8
 71
     3
 72
    19
 73
    15
 74
     0
 42
0.000000001
 43
0.00000001
 40
0.0
 40
0.0
 40
0.0
 40
0.0
 40
0.0857765994881375
 40
0.1715688294153603
 40
0.2573567022724434
 40
0.3431292653664396
 40
0.4288889409769684
 40
0.5146381706959239
 40
0.600379411810919
 40
0.6861151336385515
 40
0.7665095406627657
 40
0.8469092929515771
 40
0.927330144923738
 40
1.0
 40
1.0
 40
1.0
 40
1.0
 10
8.924630657015648
 20
1.96426013246194
 30
0.0
 10
9.372087231634637
 20
1.749954916652512
 30
0.0
 10
10.26708191759445
 20
1.321305433769775
 30
0.0
 10
11.60967178242489
 20
0.5690136233233059
 30
0.0
 10
12.95221402978012
 20
-0.2086114478485512
 30
0.0
 10
14.29453136748461
 20
-0.9760444753680593
 30
0.0
 10
15.63660733886648
 20
-1.68492846785849
 30
0.0
 10
16.97849256540973
 20
-2.29401692212141
 30
0.0
 10
18.3202060913177
 20
-2.767132060307213
 30
0.0
 10
19.63405146088381
 20
-3.069552515526511
 30
0.0
 10
20.91974181937929
 20
-3.197240853008388
 30
0.0
 10
22.17779990830582
 20
-3.152109208957308
 30
0.0
 10
23.39560417276843
 20
-2.961234152818855
 30
0.0
 10
24.19417536740414
 20
-2.715233940801292
 30
0.0
 10
24.57324509737736
 20
-2.598461341727779
 30
0.0
  0
SPLINE
  5
CF
330
1F
100
AcDbEntity
  8
0
  6
Continuous
 62
     1
370
    15
100
AcDbSpline
210
0.0
220
0.0
230
1.0
 70
     8
 71
     3
 72
    19
 73
    15
 74
     0
 42
0.000000001
 43
0.00000001
 40
0.0
 40
0.0
 40
0.0
 40
0.0
 40
0.0779198775570679
 40
0.1610154060287759
 40
0.2441383029780891
 40
0.3288148223180552
 40
0.4135342933408606
 40
0.4982152880789734
 40
0.5828546275416026
 40
0.6674687475067145
 40
0.7505591281142139
 40
0.8336621639911211
 40
0.9168013632030833
 40
0.9999999999999999
 40
0.9999999999999999
 40
0.9999999999999999
 40
0.9999999999999999
 10
38.50599570591748
 20
3.171411276861167
 30
0.0
 10
38.89213956509094
 20
3.159700558034209
 30
0.0
 10
39.69007601237032
 20
3.135501262476661
 30
0.0
 10
40.89993680676585
 20
2.901861329047378
 30
0.0
 10
42.14336552018928
 20
2.52836472811556
 30
0.0
 10
43.39500289032626
 20
2.018894849449664
 30
0.0
 10
44.65456077078283
 20
1.402286140230715
 30
0.0
 10
45.91374497970627
 20
0.7121491787743853
 30
0.0
 10
47.17228263704187
 20
-0.014978845620372
 30
0.0
 10
48.42288189689701
 20
-0.7366535658140988
 30
0.0
 10
49.66576538173329
 20
-1.41687070080498
 30
0.0
 10
50.90140011789354
 20
-2.018907697668959
 30
0.0
 10
52.13765687804569
 20
-2.529791434171124
 30
0.0
 10
52.96220785161706
 20
-2.759545348804068
 30
0.0
 10
53.37463065701562
 20
-2.874463355163101
 30
0.0
  0
SPLINE
  5
D0
330
1F
100
AcDbEntity
  8
외형선
  6
Continuous
370
    15
100
AcDbSpline
210
0.0
220
0.0
230
1.0
 70
    24
 71
     3
 72
    10
 73
     6
 74
     0
 42
0.000000001
 43
0.00000001
 40
0.0
 40
0.0
 40
0.0
 40
0.0
 40
0.4850116680623678
 40
0.786320415047753
 40
1.0
 40
1.0
 40
1.0
 40
1.0
 10
8.924630657015607
 20
3.020261117015391
 30
0.0
 10
8.924630657015612
 20
2.850436011095127
 30
0.0
 10
8.92463065701562
 20
2.575108721947149
 30
0.0
 10
8.9246306570156
 20
2.24327664508241
 30
0.0
 10
8.924630657015607
 20
2.090209290492499
 30
0.0
 10
8.924630657015607
 20
2.026698397584596
 30
0.0
  0
LINE
  5
D1
330
1F
100
AcDbEntity
  8
0
  6
Continuous
 62
     1
370
    15
100
AcDbLine
 10
53.37463065701561
 20
-3.173925071276098
 30
0.0
 11
53.37463065701561
 21
-2.874463355163101
 31
0.0
  0
LINE
  5
D2
330
1F
100
AcDbEntity
  8
중심선
 48
0.8
100
AcDbLine
 10
-40.1128693429844
 20
0.0010749287238892
 30
0.0
 11
56.37463065701561
 21
0.0010749287239019
 31
0.0
  0
LINE
  5
D3
330
1F
100
AcDbEntity
  8
참조1
100
AcDbLine
 10
9.399353649777286
 20
0.0010749287238892
 30
0.0
 11
9.399353649777293
 21
-39.99892507127612
 31
0.0
  0
LINE
  5
D4
330
1F
100
AcDbEntity
  8
참조1
100
AcDbLine
 10
9.399353649777293
 20
-39.99892507127612
 30
0.0
 11
-21.63450316453139
 21
-39.9989250712761
 31
0.0
  0
CIRCLE
  5
D5
330
1F
100
AcDbEntity
  8
해칭선
100
AcDbCircle
 10
0.0
 20
0.0
 30
0.0
 40
3.000000000000001
  0
INSERT
  5
D6
330
1F
100
AcDbEntity
  8
0
  6
Continuous
 62
     7
100
AcDbBlockReference
 66
     1
  2
블럭10
 10
-4.54091928234792
 20
-52.04609937292005
 30
0.0
  0
ATTRIB
  5
D7
330
D6
100
AcDbEntity
  8
FORMAT
 62
     2
100
AcDbText
 10
-13.7222145710892
 20
-49.97073246008787
 30
0.0
 40
4.233333333333333
  1
E2036016 [ 4 FLUTE ]
 41
0.75
  7
SLDTEXTSTYLE0
 11
-13.7222145710892
 21
-52.08739912675453
 31
0.0
100
AcDbAttribute
  2
AUTOATTR0
 70
     0
 74
     1
  0
SEQEND
  5
D8
330
D6
100
AcDbEntity
  8
0
  6
Continuous
 62
     7
  0
HATCH
  5
D9
330
1F
100
AcDbEntity
  8
중심선
100
AcDbHatch
 10
0.0
 20
0.0
 30
0.0
210
0.0
220
0.0
230
1.0
  2
SOLID
 70
     1
 71
     0
 91
        1
 92
        0
 93
        4
 72
     1
 10
1.173990022032917
 20
-35.7989250712761
 11
-2.272285221804365
 21
-35.7989250712761
 72
     1
 10
-2.272285221804365
 20
-35.7989250712761
 11
-4.400515081008388
 21
-38.3352506518487
 72
     1
 10
-4.400515081008388
 20
-38.3352506518487
 11
-0.9542067520579565
 21
-38.33521122254621
 72
     1
 10
-0.9542067520579567
 20
-38.33521122254621
 11
1.173990022032917
 21
-35.7989250712761
 97
        0
 75
     0
 76
     1
 98
        1
 10
0.0
 20
0.0
  0
HATCH
  5
DA
330
1F
100
AcDbEntity
  8
중심선
100
AcDbHatch
 10
0.0
 20
0.0
 30
0.0
210
0.0
220
0.0
230
1.0
  2
SOLID
 70
     1
 71
     0
 91
        1
 92
        0
 93
        4
 72
     1
 10
6.186754013068923
 20
-35.7989250712761
 11
2.740478769231613
 21
-35.7989250712761
 72
     1
 10
2.740478769231613
 20
-35.7989250712761
 11
-1.790659239125803
 21
-41.19892507127612
 72
     1
 10
-1.790659239125802
 20
-41.19892507127612
 11
1.65561600471148
 21
-41.19892507127612
 72
     1
 10
1.65561600471148
 20
-41.19892507127612
 11
6.186754013068922
 21
-35.7989250712761
 97
        0
 75
     0
 76
     1
 98
        1
 10
0.0
 20
0.0
  0
HATCH
  5
DB
330
1F
100
AcDbEntity
  8
중심선
100
AcDbHatch
 10
0.0
 20
0.0
 30
0.0
210
0.0
220
0.0
230
1.0
  2
SOLID
 70
     1
 71
     0
 91
        1
 92
        0
 93
        4
 72
     1
 10
11.19951800410476
 20
-35.79892507127608
 11
7.753242760267676
 21
-35.79892507127608
 72
     1
 10
7.753242760267676
 20
-35.79892507127608
 11
0.7048058583783989
 21
-44.19892507127612
 72
     1
 10
0.7048058583783989
 20
-44.19892507127612
 11
4.151081102215681
 21
-44.19892507127612
 72
     1
 10
4.151081102215681
 20
-44.19892507127612
 11
11.19951800410476
 21
-35.79892507127608
 97
        0
 75
     0
 76
     1
 98
        1
 10
0.0
 20
0.0
  0
HATCH
  5
DC
330
1F
100
AcDbEntity
  8
중심선
100
AcDbHatch
 10
0.0
 20
0.0
 30
0.0
210
0.0
220
0.0
230
1.0
  2
SOLID
 70
     1
 71
     0
 91
        1
 92
        0
 93
        6
 72
     3
 10
15.99940843511696
 20
-39.99892507132738
 11
3.960054785062284
 21
1.540850780301639E-10
 40
0.3939339440162633
 50
17.09539180608433
 51
320.0019657685081
 73
     0
 72
     1
 10
17.68240809081756
 20
-38.58681907591441
 11
19.9877099645186
 21
-36.65249236586646
 72
     3
 10
15.99940843506412
 20
-39.99892507127625
 11
6.600054785286829
 21
-1.249000902703301E-13
 40
0.6363583540795982
 50
39.9987384933743
 51
368.4976242363725
 73
     1
 72
     1
 10
22.42474092696473
 20
-39.03892507120613
 11
14.67947574190004
 21
-39.03892507120613
 72
     1
 10
14.67947574190004
 20
-39.03892507120613
 11
14.6794506974541
 21
-40.95892507120602
 72
     1
 10
14.6794506974541
 20
-40.95892507120602
 11
19.12083046692614
 21
-40.95892507120599
 97
        0
 75
     0
 76
     1
 98
        1
 10
0.0
 20
0.0
  0
DIMENSION
  5
DD
330
1F
100
AcDbEntity
  8
치수문자_일반주서
100
AcDbDimension
  2
_D
 10
8.924630657015605
 20
16.34523704277512
 30
0.0
 11
31.14963065701561
 21
16.34523704277512
 31
0.0
 70
   160
  1
<>
 71
     2
 42
44.45
  3
SLDDIMSTYLE1
100
AcDbAlignedDimension
 13
53.37463065701561
 23
3.176074928723901
 33
0.0
 14
8.924630657015603
 24
3.020261117015391
 34
0.0
 50
0.0000000000000046
100
AcDbRotatedDimension
1001
ACAD
1000
DSTYLE
1002
{
1070
   171
1070
     6
1070
   273
1070
     7
1002
}
  0
DIMENSION
  5
F2
330
1F
100
AcDbEntity
  8
치수문자_일반주서
100
AcDbDimension
  2
_D_1
 10
-37.11286934298438
 20
32.0664422405779
 30
0.0
 11
8.130880657015606
 21
32.0664422405779
 31
0.0
 70
   160
  1
<>
 71
     2
 42
90.4875
  3
SLDDIMSTYLE1
100
AcDbAlignedDimension
 13
53.37463065701561
 23
3.176074928723901
 33
0.0
 14
-37.11286934298439
 24
3.811074928723895
 34
0.0
 50
0.0000000000000045
100
AcDbRotatedDimension
1001
ACAD
1000
DSTYLE
1002
{
1070
   171
1070
     6
1070
   273
1070
     7
1002
}
  0
DIMENSION
  5
105
330
1F
100
AcDbEntity
  8
치수문자_일반주서
100
AcDbDimension
  2
_D_2
 10
-48.41364218081157
 20
-4.761425071276156
 30
0.0
 11
-48.41364218081159
 21
0.0010749287238959
 31
0.0
 70
   160
  1
%%c<>
 71
     2
 42
9.525000000000006
 52
-270.0
  3
SLDDIMSTYLE1
100
AcDbAlignedDimension
 13
-36.1603693429844
 23
4.763574928723896
 33
0.0
 14
-36.1603693429844
 24
-4.761425071276109
 34
0.0
 50
90.0000000000002
100
AcDbRotatedDimension
1001
ACAD
1000
DSTYLE
1002
{
1070
   171
1070
     6
1070
   273
1070
     7
1002
}
  0
LINE
  5
12B
330
1F
100
AcDbEntity
  8
참조1
100
AcDbLine
 10
76.33783746512287
 20
7.441074928723896
 30
0.0
 11
76.33783746512287
 21
-7.438925071276109
 31
0.0
  0
LINE
  5
12C
330
1F
100
AcDbEntity
  8
참조1
100
AcDbLine
 10
89.03783746512288
 20
5.441074928723896
 30
0.0
 11
76.33783746512287
 21
5.441074928723896
 31
0.0
  0
SOLID
  5
12D
330
1F
100
AcDbEntity
  8
참조1
100
AcDbTrace
 10
76.33783746512287
 20
5.441074928723896
 30
0.0
 11
82.68783746512287
 21
4.425074928723896
 31
0.0
 12
82.68783746512287
 22
6.457074928723896
 32
0.0
 13
82.68783746512287
 23
6.457074928723896
 33
0.0
  0
LINE
  5
12E
330
1F
100
AcDbEntity
  8
참조1
100
AcDbLine
 10
89.03783746512288
 20
-5.438925071276109
 30
0.0
 11
76.33783746512287
 21
-5.438925071276109
 31
0.0
  0
SOLID
  5
12F
330
1F
100
AcDbEntity
  8
참조1
100
AcDbTrace
 10
76.33783746512287
 20
-5.438925071276109
 30
0.0
 11
82.68783746512287
 21
-6.454925071276109
 31
0.0
 12
82.68783746512287
 22
-4.422925071276109
 32
0.0
 13
82.68783746512287
 23
-4.422925071276109
 33
0.0
  0
MTEXT
  5
130
330
1F
100
AcDbEntity
  8
참조1
100
AcDbMText
 10
85.72218759774887
 20
11.01136670591222
 30
0.0
 40
3.5
 41
0.0
 71
     1
 72
     1
  1
A
  7
SLDTEXTSTYLE0
 73
     1
 44
1.0
  0
MTEXT
  5
131
330
1F
100
AcDbEntity
  8
참조1
100
AcDbMText
 10
85.72218759774887
 20
0.1313667059122201
 30
0.0
 40
3.5
 41
0.0
 71
     1
 72
     1
  1
A
  7
SLDTEXTSTYLE0
 73
     1
 44
1.0
  0
INSERT
  5
138
330
1F
100
AcDbEntity
  8
해칭선
100
AcDbBlockReference
  2
SW_DOWELSYMBOL_0
 10
0.0
 20
0.0
 30
0.0
  0
DIMENSION
  5
18D
330
1F
100
AcDbEntity
  8
치수문자_일반주서
100
AcDbDimension
  2
*D8
 10
68.76669398908383
 20
-3.173925071276098
 30
0.0
 11
68.76669398908383
 21
22.45861708141702
 31
0.0
 70
   160
 71
     5
 42
6.35
  3
SLDDIMSTYLE1
100
AcDbAlignedDimension
 13
53.37463065701561
 23
3.176074928723901
 33
0.0
 14
53.37463065701561
 24
-3.173925071276098
 34
0.0
 50
90.0
100
AcDbRotatedDimension
1001
ACAD
1000
DSTYLE
1002
{
1070
   171
1070
     6
1070
   273
1070
     7
1002
}
  0
LINE
  5
1CD
330
1F
100
AcDbEntity
  8
외형선
  6
Continuous
370
    15
100
AcDbLine
 10
-36.1603693429844
 20
4.763574928723891
 30
0.0
 11
-22.10781934298451
 21
4.763574928723891
 31
0.0
  0
LINE
  5
223
330
1F
100
AcDbEntity
  8
외형선
  6
Continuous
370
    15
100
AcDbLine
 10
-20.83781934298452
 20
3.493574928723902
 30
0.0
 11
-13.70041934298439
 21
3.493574928723902
 31
0.0
  0
LINE
  5
224
330
1F
100
AcDbEntity
  8
외형선
  6
Continuous
370
    15
100
AcDbLine
 10
-20.83781934298452
 20
3.493574928723902
 30
0.0
 11
-22.1078193429845
 21
4.763574928723884
 31
0.0
  0
LINE
  5
225
330
1F
100
AcDbEntity
  8
외형선
  6
Continuous
370
    15
100
AcDbLine
 10
-13.70041934298439
 20
3.493574928723902
 30
0.0
 11
-12.43041934298429
 21
4.763574928723884
 31
0.0
  0
ENDSEC
  0
SECTION
  2
OBJECTS
  0
DICTIONARY
  5
C
330
0
100
AcDbDictionary
281
     1
  3
ACAD_GROUP
350
D
  3
ACAD_IMAGE_VARS
350
15C
  3
ACAD_LAYOUT
350
1A
  3
ACAD_MLINESTYLE
350
17
  3
ACAD_PLOTSETTINGS
350
19
  3
ACAD_PLOTSTYLENAME
350
E
  3
ACAD_SCALELIST
350
47
  3
APPDATA
350
15A
  3
DWGPROPS
350
22C
  0
DICTIONARY
  5
183
330
2
100
AcDbDictionary
280
     1
281
     1
  3
ACAD_LAYERSTATES
360
184
  0
DICTIONARY
  5
D
102
{ACAD_REACTORS
330
C
102
}
330
C
100
AcDbDictionary
281
     1
  0
RASTERVARIABLES
  5
15C
102
{ACAD_REACTORS
330
C
102
}
330
C
100
AcDbRasterVariables
 90
        0
 70
     1
 71
     1
 72
     1
  0
DICTIONARY
  5
1A
102
{ACAD_REACTORS
330
C
102
}
330
C
100
AcDbDictionary
281
     1
  3
Layout1
350
1E
  3
Layout2
350
26
  3
Model
350
22
  0
DICTIONARY
  5
17
102
{ACAD_REACTORS
330
C
102
}
330
C
100
AcDbDictionary
281
     1
  3
Standard
350
18
  0
DICTIONARY
  5
19
102
{ACAD_REACTORS
330
C
102
}
330
C
100
AcDbDictionary
281
     1
  0
ACDBDICTIONARYWDFLT
  5
E
102
{ACAD_REACTORS
330
C
102
}
330
C
100
AcDbDictionary
281
     1
  3
Normal
350
F
100
AcDbDictionaryWithDefault
340
F
  0
DICTIONARY
  5
47
102
{ACAD_REACTORS
330
C
102
}
330
C
100
AcDbDictionary
281
     1
  3
A0
350
48
  3
A1
350
49
  3
A2
350
4A
  3
A3
350
4B
  3
A4
350
4C
  3
A5
350
4D
  3
A6
350
4E
  3
A7
350
4F
  3
A8
350
50
  3
A9
350
51
  3
B0
350
52
  3
B1
350
53
  3
B2
350
54
  3
B3
350
55
  3
B4
350
56
  3
B5
350
57
  3
B6
350
58
  3
B7
350
59
  3
B8
350
5A
  3
B9
350
5B
  3
C0
350
5C
  3
C1
350
5D
  3
C2
350
5E
  3
C3
350
5F
  3
C4
350
60
  3
C5
350
61
  3
C6
350
62
  3
C7
350
63
  3
C8
350
64
  3
C9
350
65
  3
D0
350
66
  3
D1
350
67
  3
D2
350
68
  0
DICTIONARY
  5
15A
102
{ACAD_REACTORS
330
C
102
}
330
C
100
AcDbDictionary
281
     1
  0
XRECORD
  5
22C
102
{ACAD_REACTORS
330
C
102
}
330
C
100
AcDbXrecord
280
     1
  1
DWGPROPS COOKIE
  2

  3

  4

  6

  7

  8
12017012
  9

300
=
301
=
302
=
303
=
304
=
305
=
306
=
307
=
308
=
309
=
 40
0.0
 41
2458312.300256782
 42
2458320.092661319
  1

 90
        0
  0
DICTIONARY
  5
184
102
{ACAD_REACTORS
330
183
102
}
330
183
100
AcDbDictionary
281
     1
  0
LAYOUT
  5
1E
102
{ACAD_REACTORS
330
1A
102
}
330
1A
100
AcDbPlotSettings
  1

  2
none_device
  4

  6

 40
0.0
 41
0.0
 42
0.0
 43
0.0
 44
0.0
 45
0.0
 46
0.0
 47
0.0
 48
0.0
 49
0.0
140
0.0
141
0.0
142
1.0
143
1.0
 70
   688
 72
     1
 73
     0
 74
     5
  7

 75
    16
147
1.0
148
0.0
149
0.0
100
AcDbLayout
  1
Layout1
 70
     1
 71
     1
 10
0.0
 20
0.0
 11
420.0
 21
297.0
 12
0.0
 22
0.0
 32
0.0
 14
1.000000000000000E+20
 24
1.000000000000000E+20
 34
1.000000000000000E+20
 15
-1.000000000000000E+20
 25
-1.000000000000000E+20
 35
-1.000000000000000E+20
146
0.0
 13
0.0
 23
0.0
 33
0.0
 16
1.0
 26
0.0
 36
0.0
 17
0.0
 27
1.0
 37
0.0
 76
     0
330
1B
  0
LAYOUT
  5
26
102
{ACAD_REACTORS
330
1A
102
}
330
1A
100
AcDbPlotSettings
  1

  2
none_device
  4

  6

 40
0.0
 41
0.0
 42
0.0
 43
0.0
 44
0.0
 45
0.0
 46
0.0
 47
0.0
 48
0.0
 49
0.0
140
0.0
141
0.0
142
1.0
143
1.0
 70
   688
 72
     1
 73
     0
 74
     5
  7

 75
    16
147
1.0
148
0.0
149
0.0
100
AcDbLayout
  1
Layout2
 70
     1
 71
     2
 10
0.0
 20
0.0
 11
0.0
 21
0.0
 12
0.0
 22
0.0
 32
0.0
 14
0.0
 24
0.0
 34
0.0
 15
0.0
 25
0.0
 35
0.0
146
0.0
 13
0.0
 23
0.0
 33
0.0
 16
1.0
 26
0.0
 36
0.0
 17
0.0
 27
1.0
 37
0.0
 76
     0
330
23
  0
LAYOUT
  5
22
102
{ACAD_REACTORS
330
1A
102
}
330
1A
100
AcDbPlotSettings
  1

  2
none_device
  4
ANSI_A_(11.00_x_8.50_Inches)
  6

 40
6.35
 41
19.05
 42
6.35000508
 43
19.05000254
 44
279.4
 45
215.9
 46
76.9745185081446
 47
94.45395962837294
 48
0.0
 49
0.0
140
0.0
141
0.0
142
0.0556714094505985
143
1.0
 70
  1696
 72
     0
 73
     0
 74
     0
  7

 75
     0
147
0.0235690232323232
148
0.0
149
0.0
100
AcDbLayout
  1
Model
 70
     1
 71
     0
 10
0.0
 20
0.0
 11
420.0
 21
297.0
 12
0.0
 22
0.0
 32
0.0
 14
1.000000000000000E+20
 24
1.000000000000000E+20
 34
1.000000000000000E+20
 15
-1.000000000000000E+20
 25
-1.000000000000000E+20
 35
-1.000000000000000E+20
146
0.0
 13
0.0
 23
0.0
 33
0.0
 16
1.0
 26
0.0
 36
0.0
 17
0.0
 27
1.0
 37
0.0
 76
     0
330
1F
331
29
  0
MLINESTYLE
  5
18
102
{ACAD_REACTORS
330
17
102
}
330
17
100
AcDbMlineStyle
  2
Standard
 70
     0
  3

 62
   256
 51
90.0
 52
90.0
 71
     2
 49
0.5
 62
   256
  6
BYLAYER
 49
-0.5
 62
   256
  6
BYLAYER
  0
ACDBPLACEHOLDER
  5
F
102
{ACAD_REACTORS
330
E
102
}
330
E
  0
SCALE
  5
48
102
{ACAD_REACTORS
330
47
102
}
330
47
100
AcDbScale
 70
     0
300
1:1
140
1.0
141
1.0
290
     1
  0
SCALE
  5
49
102
{ACAD_REACTORS
330
47
102
}
330
47
100
AcDbScale
 70
     0
300
1:2
140
1.0
141
2.0
290
     0
  0
SCALE
  5
4A
102
{ACAD_REACTORS
330
47
102
}
330
47
100
AcDbScale
 70
     0
300
1:4
140
1.0
141
4.0
290
     0
  0
SCALE
  5
4B
102
{ACAD_REACTORS
330
47
102
}
330
47
100
AcDbScale
 70
     0
300
1:5
140
1.0
141
5.0
290
     0
  0
SCALE
  5
4C
102
{ACAD_REACTORS
330
47
102
}
330
47
100
AcDbScale
 70
     0
300
1:8
140
1.0
141
8.0
290
     0
  0
SCALE
  5
4D
102
{ACAD_REACTORS
330
47
102
}
330
47
100
AcDbScale
 70
     0
300
1:10
140
1.0
141
10.0
290
     0
  0
SCALE
  5
4E
102
{ACAD_REACTORS
330
47
102
}
330
47
100
AcDbScale
 70
     0
300
1:16
140
1.0
141
16.0
290
     0
  0
SCALE
  5
4F
102
{ACAD_REACTORS
330
47
102
}
330
47
100
AcDbScale
 70
     0
300
1:20
140
1.0
141
20.0
290
     0
  0
SCALE
  5
50
102
{ACAD_REACTORS
330
47
102
}
330
47
100
AcDbScale
 70
     0
300
1:30
140
1.0
141
30.0
290
     0
  0
SCALE
  5
51
102
{ACAD_REACTORS
330
47
102
}
330
47
100
AcDbScale
 70
     0
300
1:40
140
1.0
141
40.0
290
     0
  0
SCALE
  5
52
102
{ACAD_REACTORS
330
47
102
}
330
47
100
AcDbScale
 70
     0
300
1:50
140
1.0
141
50.0
290
     0
  0
SCALE
  5
53
102
{ACAD_REACTORS
330
47
102
}
330
47
100
AcDbScale
 70
     0
300
1:100
140
1.0
141
100.0
290
     0
  0
SCALE
  5
54
102
{ACAD_REACTORS
330
47
102
}
330
47
100
AcDbScale
 70
     0
300
2:1
140
2.0
141
1.0
290
     0
  0
SCALE
  5
55
102
{ACAD_REACTORS
330
47
102
}
330
47
100
AcDbScale
 70
     0
300
4:1
140
4.0
141
1.0
290
     0
  0
SCALE
  5
56
102
{ACAD_REACTORS
330
47
102
}
330
47
100
AcDbScale
 70
     0
300
8:1
140
8.0
141
1.0
290
     0
  0
SCALE
  5
57
102
{ACAD_REACTORS
330
47
102
}
330
47
100
AcDbScale
 70
     0
300
10:1
140
10.0
141
1.0
290
     0
  0
SCALE
  5
58
102
{ACAD_REACTORS
330
47
102
}
330
47
100
AcDbScale
 70
     0
300
100:1
140
100.0
141
1.0
290
     0
  0
SCALE
  5
59
102
{ACAD_REACTORS
330
47
102
}
330
47
100
AcDbScale
 70
     0
300
1/128" = 1'-0"
140
0.0078125
141
12.0
290
     0
  0
SCALE
  5
5A
102
{ACAD_REACTORS
330
47
102
}
330
47
100
AcDbScale
 70
     0
300
1/64" = 1'-0"
140
0.015625
141
12.0
290
     0
  0
SCALE
  5
5B
102
{ACAD_REACTORS
330
47
102
}
330
47
100
AcDbScale
 70
     0
300
1/32" = 1'-0"
140
0.03125
141
12.0
290
     0
  0
SCALE
  5
5C
102
{ACAD_REACTORS
330
47
102
}
330
47
100
AcDbScale
 70
     0
300
1/16" = 1'-0"
140
0.0625
141
12.0
290
     0
  0
SCALE
  5
5D
102
{ACAD_REACTORS
330
47
102
}
330
47
100
AcDbScale
 70
     0
300
3/32" = 1'-0"
140
0.09375
141
12.0
290
     0
  0
SCALE
  5
5E
102
{ACAD_REACTORS
330
47
102
}
330
47
100
AcDbScale
 70
     0
300
1/8" = 1'-0"
140
0.125
141
12.0
290
     0
  0
SCALE
  5
5F
102
{ACAD_REACTORS
330
47
102
}
330
47
100
AcDbScale
 70
     0
300
3/16" = 1'-0"
140
0.1875
141
12.0
290
     0
  0
SCALE
  5
60
102
{ACAD_REACTORS
330
47
102
}
330
47
100
AcDbScale
 70
     0
300
1/4" = 1'-0"
140
0.25
141
12.0
290
     0
  0
SCALE
  5
61
102
{ACAD_REACTORS
330
47
102
}
330
47
100
AcDbScale
 70
     0
300
3/8" = 1'-0"
140
0.375
141
12.0
290
     0
  0
SCALE
  5
62
102
{ACAD_REACTORS
330
47
102
}
330
47
100
AcDbScale
 70
     0
300
1/2" = 1'-0"
140
0.5
141
12.0
290
     0
  0
SCALE
  5
63
102
{ACAD_REACTORS
330
47
102
}
330
47
100
AcDbScale
 70
     0
300
3/4" = 1'-0"
140
0.75
141
12.0
290
     0
  0
SCALE
  5
64
102
{ACAD_REACTORS
330
47
102
}
330
47
100
AcDbScale
 70
     0
300
1" = 1'-0"
140
1.0
141
12.0
290
     0
  0
SCALE
  5
65
102
{ACAD_REACTORS
330
47
102
}
330
47
100
AcDbScale
 70
     0
300
1-1/2" = 1'-0"
140
1.5
141
12.0
290
     0
  0
SCALE
  5
66
102
{ACAD_REACTORS
330
47
102
}
330
47
100
AcDbScale
 70
     0
300
3" = 1'-0"
140
3.0
141
12.0
290
     0
  0
SCALE
  5
67
102
{ACAD_REACTORS
330
47
102
}
330
47
100
AcDbScale
 70
     0
300
6" = 1'-0"
140
6.0
141
12.0
290
     0
  0
SCALE
  5
68
102
{ACAD_REACTORS
330
47
102
}
330
47
100
AcDbScale
 70
     0
300
1'-0" = 1'-0"
140
12.0
141
12.0
290
     0
  0
ENDSEC
  0
EOF
