  0
SECTION
  2
HEADER
  9
$ACADVER
  1
AC1015
  9
$ACADMAINTVER
 70
     6
  9
$DWGCODEPAGE
  3
ANSI_949
  9
$INSBASE
 10
0.0
 20
0.0
 30
0.0
  9
$EXTMIN
 10
1.000000000000000E+20
 20
1.000000000000000E+20
 30
1.000000000000000E+20
  9
$EXTMAX
 10
-1.000000000000000E+20
 20
-1.000000000000000E+20
 30
-1.000000000000000E+20
  9
$LIMMIN
 10
0.0
 20
0.0
  9
$LIMMAX
 10
420.0
 20
297.0
  9
$ORTHOMODE
 70
     0
  9
$REGENMODE
 70
     1
  9
$FILLMODE
 70
     1
  9
$QTEXTMODE
 70
     0
  9
$MIRRTEXT
 70
     1
  9
$LTSCALE
 40
1.0
  9
$ATTMODE
 70
     1
  9
$TEXTSIZE
 40
3.5
  9
$TRACEWID
 40
1.0
  9
$TEXTSTYLE
  7
Standard
  9
$CLAYER
  8
0
  9
$CELTYPE
  6
ByLayer
  9
$CECOLOR
 62
   256
  9
$CELTSCALE
 40
1.0
  9
$DISPSILH
 70
     0
  9
$DIMSCALE
 40
1.0
  9
$DIMASZ
 40
3.302
  9
$DIMEXO
 40
1.0
  9
$DIMDLI
 40
3.75
  9
$DIMRND
 40
0.0
  9
$DIMDLE
 40
0.0
  9
$DIMEXE
 40
1.0
  9
$DIMTP
 40
0.0
  9
$DIMTM
 40
0.0
  9
$DIMTXT
 40
3.5
  9
$DIMCEN
 40
2.5
  9
$DIMTSZ
 40
0.0
  9
$DIMTOL
 70
     0
  9
$DIMLIM
 70
     0
  9
$DIMTIH
 70
     1
  9
$DIMTOH
 70
     1
  9
$DIMSE1
 70
     0
  9
$DIMSE2
 70
     0
  9
$DIMTAD
 70
     1
  9
$DIMZIN
 70
     0
  9
$DIMBLK
  1

  9
$DIMASO
 70
     1
  9
$DIMSHO
 70
     1
  9
$DIMPOST
  1

  9
$DIMAPOST
  1

  9
$DIMALT
 70
     0
  9
$DIMALTD
 70
     3
  9
$DIMALTF
 40
0.0393700787401575
  9
$DIMLFAC
 40
1.0
  9
$DIMTOFL
 70
     1
  9
$DIMTVP
 40
0.0
  9
$DIMTIX
 70
     0
  9
$DIMSOXD
 70
     0
  9
$DIMSAH
 70
     0
  9
$DIMBLK1
  1

  9
$DIMBLK2
  1

  9
$DIMSTYLE
  2
ISO-25
  9
$DIMCLRD
 70
     0
  9
$DIMCLRE
 70
     0
  9
$DIMCLRT
 70
     0
  9
$DIMTFAC
 40
1.0
  9
$DIMGAP
 40
1.524
  9
$DIMJUST
 70
     0
  9
$DIMSD1
 70
     0
  9
$DIMSD2
 70
     0
  9
$DIMTOLJ
 70
     0
  9
$DIMTZIN
 70
     0
  9
$DIMALTZ
 70
     0
  9
$DIMALTTZ
 70
     0
  9
$DIMUPT
 70
     0
  9
$DIMDEC
 70
     2
  9
$DIMTDEC
 70
     2
  9
$DIMALTU
 70
     2
  9
$DIMALTTD
 70
     3
  9
$DIMTXSTY
  7
Standard
  9
$DIMAUNIT
 70
     0
  9
$DIMADEC
 70
     2
  9
$DIMALTRND
 40
0.0
  9
$DIMAZIN
 70
     0
  9
$DIMDSEP
 70
    44
  9
$DIMATFIT
 70
     3
  9
$DIMFRAC
 70
     0
  9
$DIMLDRBLK
  1

  9
$DIMLUNIT
 70
     2
  9
$DIMLWD
 70
    -2
  9
$DIMLWE
 70
    -2
  9
$DIMTMOVE
 70
     0
  9
$LUNITS
 70
     2
  9
$LUPREC
 70
     2
  9
$SKETCHINC
 40
1.0
  9
$FILLETRAD
 40
10.0
  9
$AUNITS
 70
     0
  9
$AUPREC
 70
     2
  9
$MENU
  1
.
  9
$ELEVATION
 40
0.0
  9
$PELEVATION
 40
0.0
  9
$THICKNESS
 40
0.0
  9
$LIMCHECK
 70
     0
  9
$CHAMFERA
 40
0.0
  9
$CHAMFERB
 40
0.0
  9
$CHAMFERC
 40
0.0
  9
$CHAMFERD
 40
0.0
  9
$SKPOLY
 70
     0
  9
$TDCREATE
 40
2458323.446183576
  9
$TDUCREATE
 40
2458323.071183576
  9
$TDUPDATE
 40
2458324.407753773
  9
$TDUUPDATE
 40
2458324.032753773
  9
$TDINDWG
 40
0.0012708912
  9
$TDUSRTIMER
 40
2458324.032186736
  9
$USRTIMER
 70
     1
  9
$ANGBASE
 50
0.0
  9
$ANGDIR
 70
     0
  9
$PDMODE
 70
     0
  9
$PDSIZE
 40
-1.0
  9
$PLINEWID
 40
0.0
  9
$SPLFRAME
 70
     0
  9
$SPLINETYPE
 70
     6
  9
$SPLINESEGS
 70
     8
  9
$HANDSEED
  5
357
  9
$SURFTAB1
 70
     6
  9
$SURFTAB2
 70
     6
  9
$SURFTYPE
 70
     6
  9
$SURFU
 70
     6
  9
$SURFV
 70
     6
  9
$UCSBASE
  2

  9
$UCSNAME
  2

  9
$UCSORG
 10
0.0
 20
0.0
 30
0.0
  9
$UCSXDIR
 10
1.0
 20
0.0
 30
0.0
  9
$UCSYDIR
 10
0.0
 20
1.0
 30
0.0
  9
$UCSORTHOREF
  2

  9
$UCSORTHOVIEW
 70
     0
  9
$UCSORGTOP
 10
0.0
 20
0.0
 30
0.0
  9
$UCSORGBOTTOM
 10
0.0
 20
0.0
 30
0.0
  9
$UCSORGLEFT
 10
0.0
 20
0.0
 30
0.0
  9
$UCSORGRIGHT
 10
0.0
 20
0.0
 30
0.0
  9
$UCSORGFRONT
 10
0.0
 20
0.0
 30
0.0
  9
$UCSORGBACK
 10
0.0
 20
0.0
 30
0.0
  9
$PUCSBASE
  2

  9
$PUCSNAME
  2

  9
$PUCSORG
 10
0.0
 20
0.0
 30
0.0
  9
$PUCSXDIR
 10
1.0
 20
0.0
 30
0.0
  9
$PUCSYDIR
 10
0.0
 20
1.0
 30
0.0
  9
$PUCSORTHOREF
  2

  9
$PUCSORTHOVIEW
 70
     0
  9
$PUCSORGTOP
 10
0.0
 20
0.0
 30
0.0
  9
$PUCSORGBOTTOM
 10
0.0
 20
0.0
 30
0.0
  9
$PUCSORGLEFT
 10
0.0
 20
0.0
 30
0.0
  9
$PUCSORGRIGHT
 10
0.0
 20
0.0
 30
0.0
  9
$PUCSORGFRONT
 10
0.0
 20
0.0
 30
0.0
  9
$PUCSORGBACK
 10
0.0
 20
0.0
 30
0.0
  9
$USERI1
 70
     0
  9
$USERI2
 70
     0
  9
$USERI3
 70
     0
  9
$USERI4
 70
     0
  9
$USERI5
 70
     0
  9
$USERR1
 40
0.0
  9
$USERR2
 40
0.0
  9
$USERR3
 40
0.0
  9
$USERR4
 40
0.0
  9
$USERR5
 40
0.0
  9
$WORLDVIEW
 70
     1
  9
$SHADEDGE
 70
     3
  9
$SHADEDIF
 70
    70
  9
$TILEMODE
 70
     1
  9
$MAXACTVP
 70
    64
  9
$PINSBASE
 10
0.0
 20
0.0
 30
0.0
  9
$PLIMCHECK
 70
     0
  9
$PEXTMIN
 10
1.000000000000000E+20
 20
1.000000000000000E+20
 30
1.000000000000000E+20
  9
$PEXTMAX
 10
-1.000000000000000E+20
 20
-1.000000000000000E+20
 30
-1.000000000000000E+20
  9
$PLIMMIN
 10
0.0
 20
0.0
  9
$PLIMMAX
 10
0.0
 20
0.0
  9
$UNITMODE
 70
     0
  9
$VISRETAIN
 70
     1
  9
$PLINEGEN
 70
     0
  9
$PSLTSCALE
 70
     1
  9
$TREEDEPTH
 70
  3020
  9
$CMLSTYLE
  2
Standard
  9
$CMLJUST
 70
     0
  9
$CMLSCALE
 40
20.0
  9
$PROXYGRAPHICS
 70
     1
  9
$MEASUREMENT
 70
     1
  9
$CELWEIGHT
370
    -1
  9
$ENDCAPS
280
     0
  9
$JOINSTYLE
280
     0
  9
$LWDISPLAY
290
     1
  9
$INSUNITS
 70
     4
  9
$HYPERLINKBASE
  1

  9
$STYLESHEET
  1

  9
$XEDIT
290
     1
  9
$CEPSNTYPE
380
     0
  9
$PSTYLEMODE
290
     1
  9
$FINGERPRINTGUID
  2
{BA2F4474-2182-4F23-8E2E-226B09AB48F7}
  9
$VERSIONGUID
  2
{FAEB1C32-E019-11D5-929B-00C0DF256EC4}
  9
$EXTNAMES
290
     1
  9
$PSVPSCALE
 40
0.0
  9
$OLESTARTUP
290
     0
  0
ENDSEC
  0
SECTION
  2
CLASSES
  0
CLASS
  1
ACDBDICTIONARYWDFLT
  2
AcDbDictionaryWithDefault
  3
ObjectDBX Classes
 90
        0
280
     0
281
     0
  0
CLASS
  1
VISUALSTYLE
  2
AcDbVisualStyle
  3
ObjectDBX Classes
 90
     4095
280
     0
281
     0
  0
CLASS
  1
MATERIAL
  2
AcDbMaterial
  3
ObjectDBX Classes
 90
     1153
280
     0
281
     0
  0
CLASS
  1
SCALE
  2
AcDbScale
  3
ObjectDBX Classes
 90
     1153
280
     0
281
     0
  0
CLASS
  1
SUN
  2
AcDbSun
  3
SCENEOE
 90
     1153
280
     0
281
     0
  0
CLASS
  1
ACDBPLACEHOLDER
  2
AcDbPlaceHolder
  3
ObjectDBX Classes
 90
        0
280
     0
281
     0
  0
CLASS
  1
LAYOUT
  2
AcDbLayout
  3
ObjectDBX Classes
 90
        0
280
     0
281
     0
  0
CLASS
  1
TABLESTYLE
  2
AcDbTableStyle
  3
ObjectDBX Classes
 90
     4095
280
     0
281
     0
  0
CLASS
  1
MLEADERSTYLE
  2
AcDbMLeaderStyle
  3
ACDB_MLEADERSTYLE_CLASS
 90
     4095
280
     0
281
     0
  0
CLASS
  1
RASTERVARIABLES
  2
AcDbRasterVariables
  3
ISM
 90
        0
280
     0
281
     0
  0
ENDSEC
  0
SECTION
  2
TABLES
  0
TABLE
  2
VPORT
  5
8
330
0
100
AcDbSymbolTable
 70
     1
  0
VPORT
  5
29
330
8
100
AcDbSymbolTableRecord
100
AcDbViewportTableRecord
  2
*Active
 70
     0
 10
0.0
 20
0.0
 11
1.0
 21
1.0
 12
0.2504994684023103
 22
-8.440685888095345
 13
0.0
 23
0.0
 14
10.0
 24
10.0
 15
10.0
 25
10.0
 16
0.0
 26
0.0
 36
1.0
 17
0.0
 27
0.0
 37
0.0
 40
213.9556529165416
 41
1.632093933463796
 42
50.0
 43
0.0
 44
0.0
 50
0.0
 51
0.0
 71
    16
 72
  2000
 73
     1
 74
     3
 75
     0
 76
     0
 77
     0
 78
     0
281
     0
 65
     1
110
0.0
120
0.0
130
0.0
111
1.0
121
0.0
131
0.0
112
0.0
122
1.0
132
0.0
 79
     0
146
0.0
  0
ENDTAB
  0
TABLE
  2
LTYPE
  5
5
330
0
100
AcDbSymbolTable
 70
     6
  0
LTYPE
  5
14
330
5
100
AcDbSymbolTableRecord
100
AcDbLinetypeTableRecord
  2
ByBlock
 70
     0
  3

 72
    65
 73
     0
 40
0.0
  0
LTYPE
  5
15
330
5
100
AcDbSymbolTableRecord
100
AcDbLinetypeTableRecord
  2
ByLayer
 70
     0
  3

 72
    65
 73
     0
 40
0.0
  0
LTYPE
  5
16
330
5
100
AcDbSymbolTableRecord
100
AcDbLinetypeTableRecord
  2
Continuous
 70
     0
  3
Solid line
 72
    65
 73
     0
 40
0.0
  0
LTYPE
  5
6A
330
5
100
AcDbSymbolTableRecord
100
AcDbLinetypeTableRecord
  2
HIDDEN
 70
     0
  3
Hidden __ __ __ __ __ __ __ __ __ __ __ __ __ __
 72
    65
 73
     2
 40
1.905
 49
1.27
 74
     0
 49
-0.635
 74
     0
  0
LTYPE
  5
6B
330
5
100
AcDbSymbolTableRecord
100
AcDbLinetypeTableRecord
  2
PHANTOM
 70
     0
  3
Phantom ______  __  __  ______  __  __  ______
 72
    65
 73
     6
 40
12.7
 49
6.35
 74
     0
 49
-1.27
 74
     0
 49
1.27
 74
     0
 49
-1.27
 74
     0
 49
1.27
 74
     0
 49
-1.27
 74
     0
  0
LTYPE
  5
6C
330
5
100
AcDbSymbolTableRecord
100
AcDbLinetypeTableRecord
  2
CENTER
 70
     0
  3
Center ____ _ ____ _ ____ _ ____ _ ____ _ ____
 72
    65
 73
     4
 40
10.16
 49
6.35
 74
     0
 49
-1.27
 74
     0
 49
1.27
 74
     0
 49
-1.27
 74
     0
  0
LTYPE
  5
6D
330
5
100
AcDbSymbolTableRecord
100
AcDbLinetypeTableRecord
  2
CENTERX2
 70
     0
  3
Center (2x) ________  __  ________  __  _____
 72
    65
 73
     4
 40
20.32
 49
12.7
 74
     0
 49
-2.54
 74
     0
 49
2.54
 74
     0
 49
-2.54
 74
     0
  0
LTYPE
  5
6E
330
5
100
AcDbSymbolTableRecord
100
AcDbLinetypeTableRecord
  2
DOT2
 70
     0
  3
Dot (.5x) ........................................
 72
    65
 73
     2
 40
0.635
 49
0.0
 74
     0
 49
-0.635
 74
     0
  0
ENDTAB
  0
TABLE
  2
LAYER
  5
2
102
{ACAD_XDICTIONARY
360
20C
102
}
330
0
100
AcDbSymbolTable
 70
    18
  0
LAYER
  5
10
330
2
100
AcDbSymbolTableRecord
100
AcDbLayerTableRecord
  2
0
 70
     0
 62
     7
  6
Continuous
370
    -3
390
F
  0
LAYER
  5
6F
330
2
100
AcDbSymbolTableRecord
100
AcDbLayerTableRecord
  2
FORMAT
 70
     0
 62
     2
  6
Continuous
370
    -3
390
F
  0
LAYER
  5
70
330
2
100
AcDbSymbolTableRecord
100
AcDbLayerTableRecord
  2
외형선
 70
     0
 62
     4
  6
Continuous
370
    30
390
F
  0
LAYER
  5
71
330
2
100
AcDbSymbolTableRecord
100
AcDbLayerTableRecord
  2
숨은선
 70
     0
 62
     2
  6
HIDDEN
370
    15
390
F
  0
LAYER
  5
72
330
2
100
AcDbSymbolTableRecord
100
AcDbLayerTableRecord
  2
중심선
 70
     0
 62
     1
  6
CENTERX2
370
    -3
390
F
  0
LAYER
  5
73
330
2
100
AcDbSymbolTableRecord
100
AcDbLayerTableRecord
  2
파단선
 70
     0
 62
     4
  6
Continuous
370
    -3
390
F
  0
LAYER
  5
74
330
2
100
AcDbSymbolTableRecord
100
AcDbLayerTableRecord
  2
해칭선
 70
     0
 62
   100
  6
Continuous
370
    -3
390
F
  0
LAYER
  5
75
330
2
100
AcDbSymbolTableRecord
100
AcDbLayerTableRecord
  2
가는실선
 70
     0
 62
     4
  6
Continuous
370
    -3
390
F
  0
LAYER
  5
76
330
2
100
AcDbSymbolTableRecord
100
AcDbLayerTableRecord
  2
치수_보조선
 70
     0
 62
     4
  6
Continuous
370
    -3
390
F
  0
LAYER
  5
77
330
2
100
AcDbSymbolTableRecord
100
AcDbLayerTableRecord
  2
치수문자_일반주서
 70
     0
 62
     7
  6
Continuous
370
    15
390
F
  0
LAYER
  5
78
330
2
100
AcDbSymbolTableRecord
100
AcDbLayerTableRecord
  2
개별주서
 70
     0
 62
   100
  6
Continuous
370
    30
390
F
  0
LAYER
  5
79
330
2
100
AcDbSymbolTableRecord
100
AcDbLayerTableRecord
  2
중간선
 70
     0
 62
     2
  6
Continuous
370
    15
390
F
  0
LAYER
  5
7A
330
2
100
AcDbSymbolTableRecord
100
AcDbLayerTableRecord
  2
윤곽선
 70
     0
 62
     3
  6
Continuous
370
    40
390
F
  0
LAYER
  5
7B
330
2
100
AcDbSymbolTableRecord
100
AcDbLayerTableRecord
  2
중심마크
 70
     0
 62
   100
  6
Continuous
370
    30
390
F
  0
LAYER
  5
7C
330
2
100
AcDbSymbolTableRecord
100
AcDbLayerTableRecord
  2
가상선
 70
     0
 62
     4
  6
PHANTOM
370
    -3
390
F
  0
LAYER
  5
7D
330
2
100
AcDbSymbolTableRecord
100
AcDbLayerTableRecord
  2
특수지정선
 70
     0
 62
     5
  6
CENTERX2
370
    60
390
F
  0
LAYER
  5
7E
330
2
100
AcDbSymbolTableRecord
100
AcDbLayerTableRecord
  2
참조1
 70
     0
 62
    -4
  6
Continuous
370
    -3
390
F
  0
LAYER
  5
14F
330
2
100
AcDbSymbolTableRecord
100
AcDbLayerTableRecord
  2
Defpoints
 70
     0
 62
     7
  6
Continuous
290
     0
370
    -3
390
F
  0
ENDTAB
  0
TABLE
  2
STYLE
  5
3
330
0
100
AcDbSymbolTable
 70
     2
  0
STYLE
  5
11
330
3
100
AcDbSymbolTableRecord
100
AcDbTextStyleTableRecord
  2
Standard
 70
     0
 40
0.0
 41
1.0
 50
0.0
 71
     0
 42
3.5
  3
txt
  4

  0
STYLE
  5
94
330
3
100
AcDbSymbolTableRecord
100
AcDbTextStyleTableRecord
  2
SLDTEXTSTYLE0
 70
     0
 40
0.0
 41
0.75
 50
0.0
 71
     0
 42
3.5
  3
TXT
  4

  0
ENDTAB
  0
TABLE
  2
VIEW
  5
6
330
0
100
AcDbSymbolTable
 70
     0
  0
ENDTAB
  0
TABLE
  2
UCS
  5
7
330
0
100
AcDbSymbolTable
 70
     0
  0
ENDTAB
  0
TABLE
  2
APPID
  5
9
330
0
100
AcDbSymbolTable
 70
     1
  0
APPID
  5
12
330
9
100
AcDbSymbolTableRecord
100
AcDbRegAppTableRecord
  2
ACAD
 70
     0
  0
ENDTAB
  0
TABLE
  2
DIMSTYLE
  5
A
330
0
100
AcDbSymbolTable
 70
     3
100
AcDbDimStyleTable
  0
DIMSTYLE
105
27
330
A
100
AcDbSymbolTableRecord
100
AcDbDimStyleTableRecord
  2
ISO-25
 70
     0
 41
2.5
 42
0.625
 43
3.75
 44
1.25
 73
     0
 74
     0
 77
     1
 78
     8
140
2.5
141
2.5
143
0.03937007874016
147
0.625
171
     3
172
     1
178
     0
271
     2
272
     2
274
     3
278
    44
283
     0
284
     8
340
11
  0
DIMSTYLE
105
D4
102
{ACAD_REACTORS
330
D3
330
E6
330
10D
330
1BF
330
1CC
330
1D9
330
1E6
330
F9
330
2A8
330
2C4
102
}
330
A
100
AcDbSymbolTableRecord
100
AcDbDimStyleTableRecord
  2
SLDDIMSTYLE0
 70
     0
 41
3.302
 44
0.0
 45
0.000000001
 73
     0
 74
     0
 77
     1
 78
     4
 79
     1
140
3.5
143
0.0393700787401575
147
0.875
148
0.000000001
170
     1
173
     1
178
     0
271
     2
272
     2
276
     2
284
    12
340
94
  0
DIMSTYLE
105
FA
330
A
100
AcDbSymbolTableRecord
100
AcDbDimStyleTableRecord
  2
SLDDIMSTYLE1
 70
     0
 41
3.302
 44
0.0
 45
0.000000001
 73
     0
 74
     0
 77
     1
 78
    12
 79
     3
140
3.5
143
0.0393700787401575
147
0.875
148
0.000000001
170
     1
173
     1
178
     0
271
     2
272
     2
276
     2
284
    12
340
94
  0
ENDTAB
  0
TABLE
  2
BLOCK_RECORD
  5
1
330
0
100
AcDbSymbolTable
 70
    21
  0
BLOCK_RECORD
  5
1F
330
1
100
AcDbSymbolTableRecord
100
AcDbBlockTableRecord
  2
*Model_Space
340
22
  0
BLOCK_RECORD
  5
1B
330
1
100
AcDbSymbolTableRecord
100
AcDbBlockTableRecord
  2
*Paper_Space
340
1E
  0
BLOCK_RECORD
  5
23
330
1
100
AcDbSymbolTableRecord
100
AcDbBlockTableRecord
  2
*Paper_Space0
340
26
  0
BLOCK_RECORD
  5
7F
330
1
100
AcDbSymbolTableRecord
100
AcDbBlockTableRecord
  2
블럭10
340
0
102
{BLKREFS
331
CC
102
}
  0
BLOCK_RECORD
  5
D5
330
1
100
AcDbSymbolTableRecord
100
AcDbBlockTableRecord
  2
_D
340
0
  0
BLOCK_RECORD
  5
E7
330
1
100
AcDbSymbolTableRecord
100
AcDbBlockTableRecord
  2
_D_1
340
0
  0
BLOCK_RECORD
  5
FB
330
1
100
AcDbSymbolTableRecord
100
AcDbBlockTableRecord
  2
_D_2
340
0
  0
BLOCK_RECORD
  5
10E
330
1
100
AcDbSymbolTableRecord
100
AcDbBlockTableRecord
  2
_D_3
340
0
  0
BLOCK_RECORD
  5
126
330
1
100
AcDbSymbolTableRecord
100
AcDbBlockTableRecord
  2
SW_DOWELSYMBOL_0
340
0
102
{BLKREFS
331
12C
331
1F3
331
0
331
2B5
331
0
102
}
  0
BLOCK_RECORD
  5
1C0
330
1
100
AcDbSymbolTableRecord
100
AcDbBlockTableRecord
  2
*D8
340
0
  0
BLOCK_RECORD
  5
1CD
330
1
100
AcDbSymbolTableRecord
100
AcDbBlockTableRecord
  2
*D9
340
0
  0
BLOCK_RECORD
  5
1DA
330
1
100
AcDbSymbolTableRecord
100
AcDbBlockTableRecord
  2
*D10
340
0
  0
BLOCK_RECORD
  5
1E7
330
1
100
AcDbSymbolTableRecord
100
AcDbBlockTableRecord
  2
*D11
340
0
  0
BLOCK_RECORD
  5
24A
330
1
100
AcDbSymbolTableRecord
100
AcDbBlockTableRecord
  2
*D12
340
0
  0
BLOCK_RECORD
  5
256
330
1
100
AcDbSymbolTableRecord
100
AcDbBlockTableRecord
  2
*D13
340
0
  0
BLOCK_RECORD
  5
262
330
1
100
AcDbSymbolTableRecord
100
AcDbBlockTableRecord
  2
*D14
340
0
  0
BLOCK_RECORD
  5
26E
330
1
100
AcDbSymbolTableRecord
100
AcDbBlockTableRecord
  2
*D15
340
0
  0
BLOCK_RECORD
  5
2C5
330
1
100
AcDbSymbolTableRecord
100
AcDbBlockTableRecord
  2
*D17
340
0
  0
BLOCK_RECORD
  5
2F9
330
1
100
AcDbSymbolTableRecord
100
AcDbBlockTableRecord
  2
*D18
340
0
  0
BLOCK_RECORD
  5
33C
330
1
100
AcDbSymbolTableRecord
100
AcDbBlockTableRecord
  2
*D19
340
0
  0
BLOCK_RECORD
  5
348
330
1
100
AcDbSymbolTableRecord
100
AcDbBlockTableRecord
  2
*D20
340
0
  0
ENDTAB
  0
ENDSEC
  0
SECTION
  2
BLOCKS
  0
BLOCK
  5
20
330
1F
100
AcDbEntity
  8
0
100
AcDbBlockBegin
  2
*Model_Space
 70
     0
 10
0.0
 20
0.0
 30
0.0
  3
*Model_Space
  1
*Model_Space
  0
ENDBLK
  5
21
330
1F
100
AcDbEntity
  8
0
100
AcDbBlockEnd
  0
BLOCK
  5
1C
330
1B
100
AcDbEntity
 67
     1
  8
0
100
AcDbBlockBegin
  2
*Paper_Space
 70
     0
 10
0.0
 20
0.0
 30
0.0
  3
*Paper_Space
  1
*Paper_Space
  0
ENDBLK
  5
1D
330
1B
100
AcDbEntity
 67
     1
  8
0
100
AcDbBlockEnd
  0
BLOCK
  5
24
330
23
100
AcDbEntity
  8
0
100
AcDbBlockBegin
  2
*Paper_Space0
 70
     0
 10
0.0
 20
0.0
 30
0.0
  3
*Paper_Space0
  1
*Paper_Space0
  0
ENDBLK
  5
25
330
23
100
AcDbEntity
  8
0
100
AcDbBlockEnd
  0
BLOCK
  5
80
330
7F
100
AcDbEntity
  8
0
100
AcDbBlockBegin
  2
블럭10
 70
     2
 10
0.0
 20
0.0
 30
0.0
  3
블럭10
  1
블럭10
  0
ELLIPSE
  5
82
330
7F
100
AcDbEntity
  8
중심선
100
AcDbEllipse
 10
20.54032771741204
 20
12.0471743016438
 30
0.0
 11
6.600054785286829
 21
-1.261213355974178E-13
 31
0.0
210
0.0
220
0.0
230
1.0
 40
0.636358354079598
 41
0.9219305317359503
 42
6.513795318482858
  0
ELLIPSE
  5
83
330
7F
100
AcDbEntity
  8
중심선
100
AcDbEllipse
 10
20.54032771746488
 20
12.04717430159265
 30
0.0
 11
3.960054785062283
 21
1.540847449632565E-10
 31
0.0
210
0.0
220
0.0
230
1.0
 40
0.3939339440162632
 41
1.131841032648279
 42
5.62031148352944
  0
LINE
  5
84
330
7F
100
AcDbEntity
  8
중심선
100
AcDbLine
 10
2.268634060543552
 20
16.24717430164393
 30
0.0
 11
5.714909304380834
 21
16.24717430164393
 31
0.0
  0
LINE
  5
85
330
7F
100
AcDbEntity
  8
중심선
100
AcDbLine
 10
5.245725140726316
 20
7.84717430164391
 30
0.0
 11
8.692000384563599
 21
7.84717430164391
 31
0.0
  0
LINE
  5
86
330
7F
100
AcDbEntity
  8
중심선
100
AcDbLine
 10
15.74043728645272
 20
16.24717430164393
 30
0.0
 11
8.692000384563599
 21
7.84717430164391
 31
0.0
  0
LINE
  5
87
330
7F
100
AcDbEntity
  8
중심선
100
AcDbLine
 10
0.1404042013395286
 20
13.71084872107135
 30
0.0
 11
3.58671253028996
 21
13.71088815037384
 31
0.0
  0
LINE
  5
88
330
7F
100
AcDbEntity
  8
중심선
100
AcDbLine
 10
2.750260043222114
 20
10.84717430164391
 30
0.0
 11
6.196535287059397
 21
10.84717430164391
 31
0.0
  0
LINE
  5
89
330
7F
100
AcDbEntity
  8
중심선
100
AcDbLine
 10
12.29416204261559
 20
16.24717430164393
 30
0.0
 11
5.245725140726316
 21
7.84717430164391
 31
0.0
  0
LINE
  5
8A
330
7F
100
AcDbEntity
  8
중심선
100
AcDbLine
 10
10.72767329541681
 20
16.24717430164393
 30
0.0
 11
6.196535287059397
 21
10.84717430164391
 31
0.0
  0
LINE
  5
8B
330
7F
100
AcDbEntity
  8
중심선
100
AcDbLine
 10
7.28139805157953
 20
16.24717430164393
 30
0.0
 11
2.750260043222114
 21
10.84717430164391
 31
0.0
  0
LINE
  5
8C
330
7F
100
AcDbEntity
  8
중심선
100
AcDbLine
 10
5.714909304380834
 20
16.24717430164393
 30
0.0
 11
3.58671253028996
 21
13.71088815037384
 31
0.0
  0
LINE
  5
8D
330
7F
100
AcDbEntity
  8
중심선
100
AcDbLine
 10
2.268634060543552
 20
16.24717430164393
 30
0.0
 11
0.1404042013395286
 21
13.71084872107135
 31
0.0
  0
LINE
  5
8E
330
7F
100
AcDbEntity
  8
중심선
100
AcDbLine
 10
7.28139805157953
 20
16.24717430164393
 30
0.0
 11
10.72767329541681
 21
16.24717430164393
 31
0.0
  0
LINE
  5
8F
330
7F
100
AcDbEntity
  8
중심선
100
AcDbLine
 10
12.29416204261559
 20
16.24717430164393
 30
0.0
 11
15.74043728645272
 21
16.24717430164393
 31
0.0
  0
LINE
  5
90
330
7F
100
AcDbEntity
  8
중심선
100
AcDbLine
 10
19.22036997980202
 20
11.08717430171403
 30
0.0
 11
23.66174974927406
 21
11.08717430171406
 31
0.0
  0
LINE
  5
91
330
7F
100
AcDbEntity
  8
중심선
100
AcDbLine
 10
19.22039502424796
 20
13.00717430171391
 30
0.0
 11
19.22036997980202
 21
11.08717430171403
 31
0.0
  0
LINE
  5
92
330
7F
100
AcDbEntity
  8
중심선
100
AcDbLine
 10
19.22039502424796
 20
13.00717430171391
 30
0.0
 11
26.96566020931264
 21
13.00717430171391
 31
0.0
  0
LINE
  5
93
330
7F
100
AcDbEntity
  8
중심선
100
AcDbLine
 10
22.22332737316547
 20
13.45928029700563
 30
0.0
 11
24.52862924686651
 21
15.39360700705356
 31
0.0
  0
ATTDEF
  5
95
330
7F
100
AcDbEntity
  8
FORMAT
 62
     2
100
AcDbText
 10
4.408487351596664
 20
2.075366912832191
 30
0.0
 40
4.233333333333333
  1
E2032910
 41
0.75
  7
SLDTEXTSTYLE0
 11
4.408487351596664
 21
-0.0412997538344756
 31
0.0
100
AcDbAttributeDefinition
  3

  2
AUTOATTR0
 70
     0
 74
     1
  0
ENDBLK
  5
81
330
7F
100
AcDbEntity
  8
0
100
AcDbBlockEnd
  0
BLOCK
  5
D6
330
D5
100
AcDbEntity
  8
0
100
AcDbBlockBegin
  2
_D
 70
     0
 10
0.0
 20
0.0
 30
0.0
  3
_D
  1
_D
  0
LINE
  5
D8
330
D5
100
AcDbEntity
  8
치수문자_일반주서
 62
     0
370
    -2
100
AcDbLine
 10
-83.37500000000003
 20
25.40000000000003
 30
0.0
 11
-111.2500000000001
 21
25.39999999999993
 31
0.0
  0
LINE
  5
D9
330
D5
100
AcDbEntity
  8
치수문자_일반주서
 62
     0
370
    -2
100
AcDbLine
 10
-82.31250000000003
 20
-25.39999999999998
 30
0.0
 11
-111.2499999999999
 21
-25.40000000000009
 31
0.0
  0
LINE
  5
DA
330
D5
100
AcDbEntity
  8
치수문자_일반주서
 62
     0
370
    -2
100
AcDbLine
 10
-111.2500000000001
 20
22.09799999999993
 30
0.0
 11
-111.2499999999999
 21
-22.09800000000009
 31
0.0
  0
SOLID
  5
DB
330
D5
100
AcDbEntity
  8
치수문자_일반주서
 62
     0
100
AcDbTrace
 10
-110.6996666666667
 20
22.09799999999993
 30
0.0
 11
-111.8003333333334
 21
22.09799999999992
 31
0.0
 12
-111.2500000000001
 22
25.39999999999993
 32
0.0
 13
-111.2500000000001
 23
25.39999999999993
 33
0.0
  0
SOLID
  5
DC
330
D5
100
AcDbEntity
  8
치수문자_일반주서
 62
     0
100
AcDbTrace
 10
-111.8003333333333
 20
-22.09800000000009
 30
0.0
 11
-110.6996666666666
 21
-22.09800000000008
 31
0.0
 12
-111.2499999999999
 22
-25.40000000000009
 32
0.0
 13
-111.2499999999999
 23
-25.40000000000009
 33
0.0
  0
MTEXT
  5
DD
330
D5
100
AcDbEntity
  8
치수문자_일반주서
 62
     0
100
AcDbMText
 10
-115.625
 20
-0.0000000000000147
 30
0.0
 40
3.5
 41
0.0
 71
     2
 72
     1
  1
\A1;%%c50.80 [2]
  7
SLDTEXTSTYLE0
 11
-3.356894814614646E-15
 21
1.0
 31
0.0
 73
     1
 44
1.0
  0
POINT
  5
DE
330
D5
100
AcDbEntity
  8
Defpoints
 62
     0
100
AcDbPoint
 10
-83.31250000000003
 20
25.40000000000003
 30
0.0
  0
POINT
  5
DF
330
D5
100
AcDbEntity
  8
Defpoints
 62
     0
100
AcDbPoint
 10
-82.25000000000003
 20
-25.39999999999998
 30
0.0
  0
POINT
  5
E0
330
D5
100
AcDbEntity
  8
Defpoints
 62
     0
100
AcDbPoint
 10
-111.2499999999999
 20
-25.40000000000008
 30
0.0
  0
ENDBLK
  5
D7
330
D5
100
AcDbEntity
  8
0
100
AcDbBlockEnd
  0
BLOCK
  5
E8
330
E7
100
AcDbEntity
  8
0
100
AcDbBlockBegin
  2
_D_1
 70
     0
 10
0.0
 20
0.0
 30
0.0
  3
_D_1
  1
_D_1
  0
LINE
  5
EA
330
E7
100
AcDbEntity
  8
치수문자_일반주서
 62
     0
370
    -2
100
AcDbLine
 10
62.79999999999998
 20
25.27714479297017
 30
0.0
 11
62.79999999999998
 21
47.75463133356092
 31
0.0
  0
LINE
  5
EB
330
E7
100
AcDbEntity
  8
치수문자_일반주서
 62
     0
370
    -2
100
AcDbLine
 10
11.99999999999998
 20
25.4625
 30
0.0
 11
11.99999999999998
 21
47.75463133356092
 31
0.0
  0
LINE
  5
EC
330
E7
100
AcDbEntity
  8
치수문자_일반주서
 62
     0
370
    -2
100
AcDbLine
 10
59.49799999999998
 20
47.75463133356092
 30
0.0
 11
15.30199999999998
 21
47.75463133356092
 31
0.0
  0
SOLID
  5
ED
330
E7
100
AcDbEntity
  8
치수문자_일반주서
 62
     0
100
AcDbTrace
 10
59.49799999999998
 20
47.20429800022759
 30
0.0
 11
59.49799999999998
 21
48.30496466689426
 31
0.0
 12
62.79999999999998
 22
47.75463133356092
 32
0.0
 13
62.79999999999998
 23
47.75463133356092
 33
0.0
  0
SOLID
  5
EE
330
E7
100
AcDbEntity
  8
치수문자_일반주서
 62
     0
100
AcDbTrace
 10
15.30199999999998
 20
48.30496466689426
 30
0.0
 11
15.30199999999998
 21
47.20429800022759
 31
0.0
 12
11.99999999999998
 22
47.75463133356092
 32
0.0
 13
11.99999999999998
 23
47.75463133356092
 33
0.0
  0
MTEXT
  5
EF
330
E7
100
AcDbEntity
  8
치수문자_일반주서
 62
     0
100
AcDbMText
 10
37.39999999999998
 20
52.12963133356092
 30
0.0
 40
3.5
 41
0.0
 71
     2
 72
     1
  1
\A1;50.80 [2]
  7
SLDTEXTSTYLE0
 73
     1
 44
1.0
  0
POINT
  5
F0
330
E7
100
AcDbEntity
  8
Defpoints
 62
     0
100
AcDbPoint
 10
62.79999999999998
 20
25.21464479297017
 30
0.0
  0
POINT
  5
F1
330
E7
100
AcDbEntity
  8
Defpoints
 62
     0
100
AcDbPoint
 10
11.99999999999998
 20
25.4
 30
0.0
  0
POINT
  5
F2
330
E7
100
AcDbEntity
  8
Defpoints
 62
     0
100
AcDbPoint
 10
11.99999999999998
 20
47.75463133356092
 30
0.0
  0
ENDBLK
  5
E9
330
E7
100
AcDbEntity
  8
0
100
AcDbBlockEnd
  0
BLOCK
  5
FC
330
FB
100
AcDbEntity
  8
0
100
AcDbBlockBegin
  2
_D_2
 70
     0
 10
0.0
 20
0.0
 30
0.0
  3
_D_2
  1
_D_2
  0
LINE
  5
FE
330
FB
100
AcDbEntity
  8
치수문자_일반주서
 62
     0
370
    -2
100
AcDbLine
 10
62.79999999999998
 20
25.27714479297017
 30
0.0
 11
62.79999999999998
 21
59.75463133356094
 31
0.0
  0
LINE
  5
FF
330
FB
100
AcDbEntity
  8
치수문자_일반주서
 62
     0
370
    -2
100
AcDbLine
 10
-83.25000000000003
 20
20.38250000000001
 30
0.0
 11
-83.25000000000003
 21
59.75463133356094
 31
0.0
  0
LINE
  5
100
330
FB
100
AcDbEntity
  8
치수문자_일반주서
 62
     0
370
    -2
100
AcDbLine
 10
59.49799999999998
 20
59.75463133356094
 30
0.0
 11
-79.94800000000002
 21
59.75463133356094
 31
0.0
  0
SOLID
  5
101
330
FB
100
AcDbEntity
  8
치수문자_일반주서
 62
     0
100
AcDbTrace
 10
59.49799999999998
 20
59.2042980002276
 30
0.0
 11
59.49799999999998
 21
60.30496466689427
 31
0.0
 12
62.79999999999998
 22
59.75463133356094
 32
0.0
 13
62.79999999999998
 23
59.75463133356094
 33
0.0
  0
SOLID
  5
102
330
FB
100
AcDbEntity
  8
치수문자_일반주서
 62
     0
100
AcDbTrace
 10
-79.94800000000002
 20
60.30496466689427
 30
0.0
 11
-79.94800000000002
 21
59.2042980002276
 31
0.0
 12
-83.25000000000003
 22
59.75463133356094
 32
0.0
 13
-83.25000000000003
 23
59.75463133356094
 33
0.0
  0
MTEXT
  5
103
330
FB
100
AcDbEntity
  8
치수문자_일반주서
 62
     0
100
AcDbMText
 10
-10.22500000000003
 20
64.12963133356094
 30
0.0
 40
3.5
 41
0.0
 71
     2
 72
     1
  1
\A1;146.05 [5 3/4]
  7
SLDTEXTSTYLE0
 73
     1
 44
1.0
  0
POINT
  5
104
330
FB
100
AcDbEntity
  8
Defpoints
 62
     0
100
AcDbPoint
 10
62.79999999999998
 20
25.21464479297017
 30
0.0
  0
POINT
  5
105
330
FB
100
AcDbEntity
  8
Defpoints
 62
     0
100
AcDbPoint
 10
-83.25000000000003
 20
20.32000000000001
 30
0.0
  0
POINT
  5
106
330
FB
100
AcDbEntity
  8
Defpoints
 62
     0
100
AcDbPoint
 10
-83.25000000000003
 20
59.75463133356094
 30
0.0
  0
ENDBLK
  5
FD
330
FB
100
AcDbEntity
  8
0
100
AcDbBlockEnd
  0
BLOCK
  5
10F
330
10E
100
AcDbEntity
  8
0
100
AcDbBlockBegin
  2
_D_3
 70
     0
 10
0.0
 20
0.0
 30
0.0
  3
_D_3
  1
_D_3
  0
LINE
  5
111
330
10E
100
AcDbEntity
  8
치수문자_일반주서
 62
     0
370
    -2
100
AcDbLine
 10
62.86249999999998
 20
25.4
 30
0.0
 11
90.79999999999993
 21
25.40000000000011
 31
0.0
  0
LINE
  5
112
330
10E
100
AcDbEntity
  8
치수문자_일반주서
 62
     0
370
    -2
100
AcDbLine
 10
62.86249999999998
 20
-25.40000000000001
 30
0.0
 11
90.8000000000001
 21
-25.3999999999999
 31
0.0
  0
LINE
  5
113
330
10E
100
AcDbEntity
  8
치수문자_일반주서
 62
     0
370
    -2
100
AcDbLine
 10
90.79999999999994
 20
22.09800000000011
 30
0.0
 11
90.80000000000008
 21
-22.0979999999999
 31
0.0
  0
SOLID
  5
114
330
10E
100
AcDbEntity
  8
치수문자_일반주서
 62
     0
100
AcDbTrace
 10
91.35033333333327
 20
22.09800000000011
 30
0.0
 11
90.24966666666661
 21
22.0980000000001
 31
0.0
 12
90.79999999999993
 22
25.40000000000011
 32
0.0
 13
90.79999999999993
 23
25.40000000000011
 33
0.0
  0
SOLID
  5
115
330
10E
100
AcDbEntity
  8
치수문자_일반주서
 62
     0
100
AcDbTrace
 10
90.24966666666676
 20
-22.09799999999991
 30
0.0
 11
91.35033333333341
 21
-22.0979999999999
 31
0.0
 12
90.8000000000001
 22
-25.3999999999999
 32
0.0
 13
90.8000000000001
 23
-25.3999999999999
 33
0.0
  0
MTEXT
  5
116
330
10E
100
AcDbEntity
  8
치수문자_일반주서
 62
     0
100
AcDbMText
 10
86.42500000000001
 20
-0.0000000000000216
 30
0.0
 40
3.5
 41
0.0
 71
     2
 72
     1
  1
\A1;%%c50.80 [2]
  7
SLDTEXTSTYLE0
 11
-3.356894814614646E-15
 21
1.0
 31
0.0
 73
     1
 44
1.0
  0
POINT
  5
117
330
10E
100
AcDbEntity
  8
Defpoints
 62
     0
100
AcDbPoint
 10
62.79999999999998
 20
25.4
 30
0.0
  0
POINT
  5
118
330
10E
100
AcDbEntity
  8
Defpoints
 62
     0
100
AcDbPoint
 10
62.79999999999998
 20
-25.40000000000001
 30
0.0
  0
POINT
  5
119
330
10E
100
AcDbEntity
  8
Defpoints
 62
     0
100
AcDbPoint
 10
90.8000000000001
 20
-25.39999999999991
 30
0.0
  0
ENDBLK
  5
110
330
10E
100
AcDbEntity
  8
0
100
AcDbBlockEnd
  0
BLOCK
  5
127
330
126
100
AcDbEntity
  8
0
100
AcDbBlockBegin
  2
SW_DOWELSYMBOL_0
 70
     0
 10
0.0
 20
0.0
 30
0.0
  3
SW_DOWELSYMBOL_0
  1
SW_DOWELSYMBOL_0
  0
CIRCLE
  5
129
330
126
100
AcDbEntity
  8
해칭선
 62
     0
100
AcDbCircle
 10
0.0
 20
0.0
 30
0.0
 40
3.000000000000001
  0
HATCH
  5
12A
330
126
100
AcDbEntity
  8
0
  6
Continuous
 62
     0
370
     0
100
AcDbHatch
 10
0.0
 20
0.0
 30
0.0
210
0.0
220
0.0
230
1.0
  2
SOLID
 70
     1
 71
     0
 91
        1
 92
        0
 93
        3
 72
     2
 10
0.0
 20
0.0
 40
3.000000000000001
 50
0.0
 51
90.0
 73
     1
 72
     1
 10
0.0
 20
3.000000000000001
 11
0.0
 21
0.0
 72
     1
 10
0.0
 20
0.0
 11
3.000000000000001
 21
0.0
 97
        0
 75
     0
 76
     1
 98
        1
 10
0.0
 20
0.0
  0
HATCH
  5
12B
330
126
100
AcDbEntity
  8
0
  6
Continuous
 62
     0
370
     0
100
AcDbHatch
 10
0.0
 20
0.0
 30
0.0
210
0.0
220
0.0
230
1.0
  2
SOLID
 70
     1
 71
     0
 91
        1
 92
        0
 93
        3
 72
     2
 10
0.0
 20
0.0
 40
3.000000000000001
 50
180.0
 51
270.0000000000007
 73
     1
 72
     1
 10
0.0
 20
-3.000000000000001
 11
0.0
 21
0.0
 72
     1
 10
0.0
 20
0.0
 11
-3.000000000000001
 21
0.0
 97
        0
 75
     0
 76
     1
 98
        1
 10
0.0
 20
0.0
  0
ENDBLK
  5
128
330
126
100
AcDbEntity
  8
0
100
AcDbBlockEnd
  0
BLOCK
  5
1C1
330
1C0
100
AcDbEntity
  8
0
100
AcDbBlockBegin
  2
*D8
 70
     1
 10
0.0
 20
0.0
 30
0.0
  3
*D8
  1
*D8
  0
LINE
  5
1C2
330
1C0
100
AcDbEntity
  8
치수문자_일반주서
 62
     0
370
    -2
100
AcDbLine
 10
15.72499999999999
 20
41.34331651581745
 30
0.0
 11
4.374999999999988
 21
41.34331651581741
 31
0.0
  0
LINE
  5
1C3
330
1C0
100
AcDbEntity
  8
치수문자_일반주서
 62
     0
370
    -2
100
AcDbLine
 10
18.90000000000006
 20
9.593316515817463
 30
0.0
 11
4.375000000000099
 21
9.593316515817408
 31
0.0
  0
LINE
  5
1C4
330
1C0
100
AcDbEntity
  8
치수문자_일반주서
 62
     0
370
    -2
100
AcDbLine
 10
4.374999999999999
 20
38.04131651581741
 30
0.0
 11
4.375000000000087
 21
12.89531651581741
 31
0.0
  0
SOLID
  5
1C5
330
1C0
100
AcDbEntity
  8
치수문자_일반주서
 62
     0
100
AcDbTrace
 10
4.925333333333333
 20
38.04131651581741
 30
0.0
 11
3.824666666666666
 21
38.04131651581741
 31
0.0
 12
4.374999999999988
 22
41.34331651581741
 32
0.0
 13
4.374999999999988
 23
41.34331651581741
 33
0.0
  0
SOLID
  5
1C6
330
1C0
100
AcDbEntity
  8
치수문자_일반주서
 62
     0
100
AcDbTrace
 10
3.824666666666753
 20
12.89531651581741
 30
0.0
 11
4.925333333333421
 21
12.89531651581741
 31
0.0
 12
4.375000000000099
 22
9.593316515817408
 32
0.0
 13
4.375000000000099
 23
9.593316515817408
 33
0.0
  0
MTEXT
  5
1C7
330
1C0
100
AcDbEntity
  8
치수문자_일반주서
 62
     0
100
AcDbMText
 10
0.0000000000000426
 20
25.46831651581745
 30
0.0
 40
3.5
 41
0.0
 71
     2
 72
     1
  1
\A1;%%c31.75 [1 1/4]
  7
SLDTEXTSTYLE0
 11
-3.496765431890257E-15
 21
1.0
 31
0.0
 73
     1
 44
1.0
  0
POINT
  5
1C8
330
1C0
100
AcDbEntity
  8
Defpoints
 62
     0
100
AcDbPoint
 10
15.78749999999999
 20
41.34331651581745
 30
0.0
  0
POINT
  5
1C9
330
1C0
100
AcDbEntity
  8
Defpoints
 62
     0
100
AcDbPoint
 10
18.96250000000006
 20
9.593316515817463
 30
0.0
  0
POINT
  5
1CA
330
1C0
100
AcDbEntity
  8
Defpoints
 62
     0
100
AcDbPoint
 10
4.375000000000099
 20
9.593316515817408
 30
0.0
  0
ENDBLK
  5
1CB
330
1C0
100
AcDbEntity
  8
0
100
AcDbBlockEnd
  0
BLOCK
  5
1CE
330
1CD
100
AcDbEntity
  8
0
100
AcDbBlockBegin
  2
*D9
 70
     1
 10
0.0
 20
0.0
 30
0.0
  3
*D9
  1
*D9
  0
LINE
  5
1CF
330
1CD
100
AcDbEntity
  8
치수문자_일반주서
 62
     0
370
    -2
100
AcDbLine
 10
130.0875
 20
50.93081637384954
 30
0.0
 11
130.0875
 21
86.74693943122908
 31
0.0
  0
LINE
  5
1D0
330
1CD
100
AcDbEntity
  8
치수문자_일반주서
 62
     0
370
    -2
100
AcDbLine
 10
79.28750000000005
 20
50.86890421493155
 30
0.0
 11
79.28750000000005
 21
86.74693943122908
 31
0.0
  0
LINE
  5
1D1
330
1CD
100
AcDbEntity
  8
치수문자_일반주서
 62
     0
370
    -2
100
AcDbLine
 10
126.7855
 20
86.74693943122908
 30
0.0
 11
82.58950000000006
 21
86.74693943122908
 31
0.0
  0
SOLID
  5
1D2
330
1CD
100
AcDbEntity
  8
치수문자_일반주서
 62
     0
100
AcDbTrace
 10
126.7855
 20
86.19660609789575
 30
0.0
 11
126.7855
 21
87.29727276456241
 31
0.0
 12
130.0875
 22
86.74693943122908
 32
0.0
 13
130.0875
 23
86.74693943122908
 33
0.0
  0
SOLID
  5
1D3
330
1CD
100
AcDbEntity
  8
치수문자_일반주서
 62
     0
100
AcDbTrace
 10
82.58950000000006
 20
87.29727276456241
 30
0.0
 11
82.58950000000006
 21
86.19660609789575
 31
0.0
 12
79.28750000000005
 22
86.74693943122908
 32
0.0
 13
79.28750000000005
 23
86.74693943122908
 33
0.0
  0
MTEXT
  5
1D4
330
1CD
100
AcDbEntity
  8
치수문자_일반주서
 62
     0
100
AcDbMText
 10
101.0589285678
 20
91.12193943122908
 30
0.0
 40
3.5
 41
0.0
 71
     2
 72
     1
  1
\A1;50.80 [2]
  7
SLDTEXTSTYLE0
 73
     1
 44
1.0
  0
POINT
  5
1D5
330
1CD
100
AcDbEntity
  8
Defpoints
 62
     0
100
AcDbPoint
 10
130.0875
 20
50.86831637384954
 30
0.0
  0
POINT
  5
1D6
330
1CD
100
AcDbEntity
  8
Defpoints
 62
     0
100
AcDbPoint
 10
79.28750000000005
 20
50.80640421493155
 30
0.0
  0
POINT
  5
1D7
330
1CD
100
AcDbEntity
  8
Defpoints
 62
     0
100
AcDbPoint
 10
79.28750000000005
 20
86.74693943122908
 30
0.0
  0
ENDBLK
  5
1D8
330
1CD
100
AcDbEntity
  8
0
100
AcDbBlockEnd
  0
BLOCK
  5
1DB
330
1DA
100
AcDbEntity
  8
0
100
AcDbBlockBegin
  2
*D10
 70
     1
 10
0.0
 20
0.0
 30
0.0
  3
*D10
  1
*D10
  0
LINE
  5
1DC
330
1DA
100
AcDbEntity
  8
치수문자_일반주서
 62
     0
370
    -2
100
AcDbLine
 10
130.0875
 20
50.93081637384954
 30
0.0
 11
130.0875
 21
105.9469393239148
 31
0.0
  0
LINE
  5
1DD
330
1DA
100
AcDbEntity
  8
치수문자_일반주서
 62
     0
370
    -2
100
AcDbLine
 10
15.78749999999999
 20
38.23081651581749
 30
0.0
 11
15.78749999999999
 21
105.9469393239148
 31
0.0
  0
LINE
  5
1DE
330
1DA
100
AcDbEntity
  8
치수문자_일반주서
 62
     0
370
    -2
100
AcDbLine
 10
126.7855
 20
105.9469393239148
 30
0.0
 11
19.08949999999999
 21
105.9469393239148
 31
0.0
  0
SOLID
  5
1DF
330
1DA
100
AcDbEntity
  8
치수문자_일반주서
 62
     0
100
AcDbTrace
 10
126.7855
 20
105.3966059905814
 30
0.0
 11
126.7855
 21
106.4972726572481
 31
0.0
 12
130.0875
 22
105.9469393239148
 32
0.0
 13
130.0875
 23
105.9469393239148
 33
0.0
  0
SOLID
  5
1E0
330
1DA
100
AcDbEntity
  8
치수문자_일반주서
 62
     0
100
AcDbTrace
 10
19.08949999999999
 20
106.4972726572481
 30
0.0
 11
19.08949999999999
 21
105.3966059905814
 31
0.0
 12
15.78749999999999
 22
105.9469393239148
 32
0.0
 13
15.78749999999999
 23
105.9469393239148
 33
0.0
  0
MTEXT
  5
1E1
330
1DA
100
AcDbEntity
  8
치수문자_일반주서
 62
     0
100
AcDbMText
 10
66.86667503153575
 20
110.3219393239148
 30
0.0
 40
3.5
 41
0.0
 71
     2
 72
     1
  1
\A1;114.30 [4 1/2]
  7
SLDTEXTSTYLE0
 73
     1
 44
1.0
  0
POINT
  5
1E2
330
1DA
100
AcDbEntity
  8
Defpoints
 62
     0
100
AcDbPoint
 10
130.0875
 20
50.86831637384954
 30
0.0
  0
POINT
  5
1E3
330
1DA
100
AcDbEntity
  8
Defpoints
 62
     0
100
AcDbPoint
 10
15.78749999999999
 20
38.16831651581749
 30
0.0
  0
POINT
  5
1E4
330
1DA
100
AcDbEntity
  8
Defpoints
 62
     0
100
AcDbPoint
 10
15.78749999999999
 20
105.9469393239148
 30
0.0
  0
ENDBLK
  5
1E5
330
1DA
100
AcDbEntity
  8
0
100
AcDbBlockEnd
  0
BLOCK
  5
1E8
330
1E7
100
AcDbEntity
  8
0
100
AcDbBlockBegin
  2
*D11
 70
     1
 10
0.0
 20
0.0
 30
0.0
  3
*D11
  1
*D11
  0
LINE
  5
1E9
330
1E7
100
AcDbEntity
  8
치수문자_일반주서
 62
     0
370
    -2
100
AcDbLine
 10
130.15
 20
50.86831637384954
 30
0.0
 11
158.9667679839085
 21
50.86831637384964
 31
0.0
  0
LINE
  5
1EA
330
1E7
100
AcDbEntity
  8
치수문자_일반주서
 62
     0
370
    -2
100
AcDbLine
 10
130.15
 20
0.0683166577852179
 30
0.0
 11
158.9667679839087
 21
0.0683166577853243
 31
0.0
  0
LINE
  5
1EB
330
1E7
100
AcDbEntity
  8
치수문자_일반주서
 62
     0
370
    -2
100
AcDbLine
 10
158.9667679839085
 20
47.56631637384965
 30
0.0
 11
158.9667679839087
 21
3.370316657785324
 31
0.0
  0
SOLID
  5
1EC
330
1E7
100
AcDbEntity
  8
치수문자_일반주서
 62
     0
100
AcDbTrace
 10
159.5171013172418
 20
47.56631637384965
 30
0.0
 11
158.4164346505752
 21
47.56631637384965
 31
0.0
 12
158.9667679839085
 22
50.86831637384964
 32
0.0
 13
158.9667679839085
 23
50.86831637384964
 33
0.0
  0
SOLID
  5
1ED
330
1E7
100
AcDbEntity
  8
치수문자_일반주서
 62
     0
100
AcDbTrace
 10
158.4164346505753
 20
3.370316657785323
 30
0.0
 11
159.517101317242
 21
3.370316657785326
 31
0.0
 12
158.9667679839087
 22
0.0683166577853243
 32
0.0
 13
158.9667679839087
 23
0.0683166577853243
 33
0.0
  0
MTEXT
  5
1EE
330
1E7
100
AcDbEntity
  8
치수문자_일반주서
 62
     0
100
AcDbMText
 10
154.5917679839086
 20
25.14677243979116
 30
0.0
 40
3.5
 41
0.0
 71
     2
 72
     1
  1
\A1;%%c50.80 [2]
  7
SLDTEXTSTYLE0
 11
-3.356894833377289E-15
 21
1.0
 31
0.0
 73
     1
 44
1.0
  0
POINT
  5
1EF
330
1E7
100
AcDbEntity
  8
Defpoints
 62
     0
100
AcDbPoint
 10
130.0875
 20
50.86831637384954
 30
0.0
  0
POINT
  5
1F0
330
1E7
100
AcDbEntity
  8
Defpoints
 62
     0
100
AcDbPoint
 10
130.0875
 20
0.0683166577852177
 30
0.0
  0
POINT
  5
1F1
330
1E7
100
AcDbEntity
  8
Defpoints
 62
     0
100
AcDbPoint
 10
158.9667679839087
 20
0.0683166577853256
 30
0.0
  0
ENDBLK
  5
1F2
330
1E7
100
AcDbEntity
  8
0
100
AcDbBlockEnd
  0
BLOCK
  5
24B
330
24A
100
AcDbEntity
  8
0
100
AcDbBlockBegin
  2
*D12
 70
     1
 10
0.0
 20
0.0
 30
0.0
  3
*D12
  1
*D12
  0
LINE
  5
24D
330
24A
100
AcDbEntity
  8
치수문자_일반주서
 62
     0
370
    -2
100
AcDbLine
 10
150.1116994223297
 20
-68.70907073568772
 30
0.0
 11
138.7616994223296
 21
-68.70907073568776
 31
0.0
  0
LINE
  5
24E
330
24A
100
AcDbEntity
  8
치수문자_일반주서
 62
     0
370
    -2
100
AcDbLine
 10
153.2866994223297
 20
-100.4590707356877
 30
0.0
 11
138.7616994223297
 21
-100.4590707356878
 31
0.0
  0
LINE
  5
24F
330
24A
100
AcDbEntity
  8
치수문자_일반주서
 62
     0
370
    -2
100
AcDbLine
 10
138.7616994223296
 20
-72.01107073568777
 30
0.0
 11
138.7616994223297
 21
-97.15707073568775
 31
0.0
  0
SOLID
  5
250
330
24A
100
AcDbEntity
  8
치수문자_일반주서
 62
     0
100
AcDbTrace
 10
139.312032755663
 20
-72.01107073568777
 30
0.0
 11
138.2113660889963
 21
-72.01107073568777
 31
0.0
 12
138.7616994223296
 22
-68.70907073568776
 32
0.0
 13
138.7616994223296
 23
-68.70907073568776
 33
0.0
  0
SOLID
  5
251
330
24A
100
AcDbEntity
  8
치수문자_일반주서
 62
     0
100
AcDbTrace
 10
138.2113660889964
 20
-97.15707073568775
 30
0.0
 11
139.3120327556631
 21
-97.15707073568775
 31
0.0
 12
138.7616994223297
 22
-100.4590707356878
 32
0.0
 13
138.7616994223297
 23
-100.4590707356878
 33
0.0
  0
MTEXT
  5
252
330
24A
100
AcDbEntity
  8
치수문자_일반주서
 62
     0
100
AcDbMText
 10
134.3866994223297
 20
-84.58407073568772
 30
0.0
 40
3.5
 41
0.0
 71
     2
 72
     1
  1
\A1;%%c31.75 [1 1/4]
  7
SLDTEXTSTYLE0
 11
-3.580687802255623E-15
 21
1.0
 31
0.0
 73
     1
 44
1.0
  0
POINT
  5
253
330
24A
100
AcDbEntity
  8
Defpoints
 62
     0
100
AcDbPoint
 10
150.1741994223297
 20
-68.70907073568772
 30
0.0
  0
POINT
  5
254
330
24A
100
AcDbEntity
  8
Defpoints
 62
     0
100
AcDbPoint
 10
153.3491994223297
 20
-100.4590707356877
 30
0.0
  0
POINT
  5
255
330
24A
100
AcDbEntity
  8
Defpoints
 62
     0
100
AcDbPoint
 10
138.7616994223297
 20
-100.4590707356878
 30
0.0
  0
ENDBLK
  5
24C
330
24A
100
AcDbEntity
  8
0
100
AcDbBlockEnd
  0
BLOCK
  5
257
330
256
100
AcDbEntity
  8
0
100
AcDbBlockBegin
  2
*D13
 70
     1
 10
0.0
 20
0.0
 30
0.0
  3
*D13
  1
*D13
  0
LINE
  5
259
330
256
100
AcDbEntity
  8
치수문자_일반주서
 62
     0
370
    -2
100
AcDbLine
 10
264.4741994223297
 20
-59.12157087765563
 30
0.0
 11
264.4741994223297
 21
-23.30544782027609
 31
0.0
  0
LINE
  5
25A
330
256
100
AcDbEntity
  8
치수문자_일반주서
 62
     0
370
    -2
100
AcDbLine
 10
213.6741994223297
 20
-59.18348303657361
 30
0.0
 11
213.6741994223297
 21
-23.30544782027609
 31
0.0
  0
LINE
  5
25B
330
256
100
AcDbEntity
  8
치수문자_일반주서
 62
     0
370
    -2
100
AcDbLine
 10
261.1721994223296
 20
-23.30544782027609
 30
0.0
 11
216.9761994223297
 21
-23.30544782027609
 31
0.0
  0
SOLID
  5
25C
330
256
100
AcDbEntity
  8
치수문자_일반주서
 62
     0
100
AcDbTrace
 10
261.1721994223296
 20
-23.85578115360942
 30
0.0
 11
261.1721994223296
 21
-22.75511448694275
 31
0.0
 12
264.4741994223297
 22
-23.30544782027609
 32
0.0
 13
264.4741994223297
 23
-23.30544782027609
 33
0.0
  0
SOLID
  5
25D
330
256
100
AcDbEntity
  8
치수문자_일반주서
 62
     0
100
AcDbTrace
 10
216.9761994223297
 20
-22.75511448694275
 30
0.0
 11
216.9761994223297
 21
-23.85578115360942
 31
0.0
 12
213.6741994223297
 22
-23.30544782027609
 32
0.0
 13
213.6741994223297
 23
-23.30544782027609
 33
0.0
  0
MTEXT
  5
25E
330
256
100
AcDbEntity
  8
치수문자_일반주서
 62
     0
100
AcDbMText
 10
235.4456279901297
 20
-18.93044782027609
 30
0.0
 40
3.5
 41
0.0
 71
     2
 72
     1
  1
\A1;50.80 [2]
  7
SLDTEXTSTYLE0
 73
     1
 44
1.0
  0
POINT
  5
25F
330
256
100
AcDbEntity
  8
Defpoints
 62
     0
100
AcDbPoint
 10
264.4741994223297
 20
-59.18407087765563
 30
0.0
  0
POINT
  5
260
330
256
100
AcDbEntity
  8
Defpoints
 62
     0
100
AcDbPoint
 10
213.6741994223297
 20
-59.24598303657361
 30
0.0
  0
POINT
  5
261
330
256
100
AcDbEntity
  8
Defpoints
 62
     0
100
AcDbPoint
 10
213.6741994223297
 20
-23.30544782027609
 30
0.0
  0
ENDBLK
  5
258
330
256
100
AcDbEntity
  8
0
100
AcDbBlockEnd
  0
BLOCK
  5
263
330
262
100
AcDbEntity
  8
0
100
AcDbBlockBegin
  2
*D14
 70
     1
 10
0.0
 20
0.0
 30
0.0
  3
*D14
  1
*D14
  0
LINE
  5
265
330
262
100
AcDbEntity
  8
치수문자_일반주서
 62
     0
370
    -2
100
AcDbLine
 10
264.4741994223297
 20
-59.12157087765563
 30
0.0
 11
264.4741994223297
 21
-4.105447927590404
 31
0.0
  0
LINE
  5
266
330
262
100
AcDbEntity
  8
치수문자_일반주서
 62
     0
370
    -2
100
AcDbLine
 10
150.1741994223297
 20
-71.82157073568767
 30
0.0
 11
150.1741994223297
 21
-4.105447927590404
 31
0.0
  0
LINE
  5
267
330
262
100
AcDbEntity
  8
치수문자_일반주서
 62
     0
370
    -2
100
AcDbLine
 10
261.1721994223296
 20
-4.105447927590404
 30
0.0
 11
153.4761994223296
 21
-4.105447927590404
 31
0.0
  0
SOLID
  5
268
330
262
100
AcDbEntity
  8
치수문자_일반주서
 62
     0
100
AcDbTrace
 10
261.1721994223296
 20
-4.655781260923738
 30
0.0
 11
261.1721994223296
 21
-3.555114594257071
 31
0.0
 12
264.4741994223297
 22
-4.105447927590404
 32
0.0
 13
264.4741994223297
 23
-4.105447927590404
 33
0.0
  0
SOLID
  5
269
330
262
100
AcDbEntity
  8
치수문자_일반주서
 62
     0
100
AcDbTrace
 10
153.4761994223296
 20
-3.555114594257071
 30
0.0
 11
153.4761994223296
 21
-4.655781260923738
 31
0.0
 12
150.1741994223297
 22
-4.105447927590404
 32
0.0
 13
150.1741994223297
 23
-4.105447927590404
 33
0.0
  0
MTEXT
  5
26A
330
262
100
AcDbEntity
  8
치수문자_일반주서
 62
     0
100
AcDbMText
 10
201.2533744538654
 20
0.2695520724095957
 30
0.0
 40
3.5
 41
0.0
 71
     2
 72
     1
  1
\A1;114.30 [4 1/2]
  7
SLDTEXTSTYLE0
 73
     1
 44
1.0
  0
POINT
  5
26B
330
262
100
AcDbEntity
  8
Defpoints
 62
     0
100
AcDbPoint
 10
264.4741994223297
 20
-59.18407087765563
 30
0.0
  0
POINT
  5
26C
330
262
100
AcDbEntity
  8
Defpoints
 62
     0
100
AcDbPoint
 10
150.1741994223297
 20
-71.88407073568767
 30
0.0
  0
POINT
  5
26D
330
262
100
AcDbEntity
  8
Defpoints
 62
     0
100
AcDbPoint
 10
150.1741994223297
 20
-4.105447927590404
 30
0.0
  0
ENDBLK
  5
264
330
262
100
AcDbEntity
  8
0
100
AcDbBlockEnd
  0
BLOCK
  5
26F
330
26E
100
AcDbEntity
  8
0
100
AcDbBlockBegin
  2
*D15
 70
     1
 10
0.0
 20
0.0
 30
0.0
  3
*D15
  1
*D15
  0
LINE
  5
271
330
26E
100
AcDbEntity
  8
치수문자_일반주서
 62
     0
370
    -2
100
AcDbLine
 10
264.5366994223297
 20
-59.18407087765563
 30
0.0
 11
293.3534674062381
 21
-59.18407087765552
 31
0.0
  0
LINE
  5
272
330
26E
100
AcDbEntity
  8
치수문자_일반주서
 62
     0
370
    -2
100
AcDbLine
 10
264.5366994223297
 20
-109.9840705937199
 30
0.0
 11
293.3534674062383
 21
-109.9840705937198
 31
0.0
  0
LINE
  5
273
330
26E
100
AcDbEntity
  8
치수문자_일반주서
 62
     0
370
    -2
100
AcDbLine
 10
293.3534674062381
 20
-62.48607087765552
 30
0.0
 11
293.3534674062383
 21
-106.6820705937198
 31
0.0
  0
SOLID
  5
274
330
26E
100
AcDbEntity
  8
치수문자_일반주서
 62
     0
100
AcDbTrace
 10
293.9038007395715
 20
-62.48607087765552
 30
0.0
 11
292.8031340729048
 21
-62.48607087765552
 31
0.0
 12
293.3534674062381
 22
-59.18407087765552
 32
0.0
 13
293.3534674062381
 23
-59.18407087765552
 33
0.0
  0
SOLID
  5
275
330
26E
100
AcDbEntity
  8
치수문자_일반주서
 62
     0
100
AcDbTrace
 10
292.8031340729049
 20
-106.6820705937198
 30
0.0
 11
293.9038007395716
 21
-106.6820705937198
 31
0.0
 12
293.3534674062383
 22
-109.9840705937198
 32
0.0
 13
293.3534674062383
 23
-109.9840705937198
 33
0.0
  0
MTEXT
  5
276
330
26E
100
AcDbEntity
  8
치수문자_일반주서
 62
     0
100
AcDbMText
 10
288.9784674062382
 20
-84.90561481171402
 30
0.0
 40
3.5
 41
0.0
 71
     2
 72
     1
  1
\A1;%%c50.80 [2]
  7
SLDTEXTSTYLE0
 11
-3.356894833377289E-15
 21
1.0
 31
0.0
 73
     1
 44
1.0
  0
POINT
  5
277
330
26E
100
AcDbEntity
  8
Defpoints
 62
     0
100
AcDbPoint
 10
264.4741994223297
 20
-59.18407087765563
 30
0.0
  0
POINT
  5
278
330
26E
100
AcDbEntity
  8
Defpoints
 62
     0
100
AcDbPoint
 10
264.4741994223297
 20
-109.9840705937199
 30
0.0
  0
POINT
  5
279
330
26E
100
AcDbEntity
  8
Defpoints
 62
     0
100
AcDbPoint
 10
293.3534674062383
 20
-109.9840705937198
 30
0.0
  0
ENDBLK
  5
270
330
26E
100
AcDbEntity
  8
0
100
AcDbBlockEnd
  0
BLOCK
  5
2C6
330
2C5
100
AcDbEntity
  8
0
100
AcDbBlockBegin
  2
*D17
 70
     1
 10
0.0
 20
0.0
 30
0.0
  3
*D17
  1
*D15
  0
LINE
  5
2C7
330
2C5
100
AcDbEntity
  8
치수문자_일반주서
 62
     0
370
    -2
100
AcDbLine
 10
16.81250000000004
 20
50.80000000000007
 30
0.0
 11
4.374999999999954
 21
50.80000000000002
 31
0.0
  0
LINE
  5
2C8
330
2C5
100
AcDbEntity
  8
치수문자_일반주서
 62
     0
370
    -2
100
AcDbLine
 10
17.81250000000004
 20
0.0000000000000566
 30
0.0
 11
4.375000000000131
 21
0.0000000000000036
 31
0.0
  0
LINE
  5
2C9
330
2C5
100
AcDbEntity
  8
치수문자_일반주서
 62
     0
370
    -2
100
AcDbLine
 10
4.374999999999965
 20
47.49800000000002
 30
0.0
 11
4.37500000000012
 21
3.302000000000004
 31
0.0
  0
SOLID
  5
2CA
330
2C5
100
AcDbEntity
  8
치수문자_일반주서
 62
     0
100
AcDbTrace
 10
4.925333333333299
 20
47.49800000000002
 30
0.0
 11
3.824666666666632
 21
47.49800000000002
 31
0.0
 12
4.374999999999954
 22
50.80000000000002
 32
0.0
 13
4.374999999999954
 23
50.80000000000002
 33
0.0
  0
SOLID
  5
2CB
330
2C5
100
AcDbEntity
  8
치수문자_일반주서
 62
     0
100
AcDbTrace
 10
3.824666666666786
 20
3.302000000000002
 30
0.0
 11
4.925333333333453
 21
3.302000000000005
 31
0.0
 12
4.375000000000131
 22
0.0000000000000036
 32
0.0
 13
4.375000000000131
 23
0.0000000000000036
 33
0.0
  0
MTEXT
  5
2CC
330
2C5
100
AcDbEntity
  8
치수문자_일반주서
 62
     0
100
AcDbMText
 10
0.0000000000000426
 20
25.40000000000004
 30
0.0
 40
3.5
 41
0.0
 71
     2
 72
     1
  1
\A1;%%c50.80 [2]
  7
SLDTEXTSTYLE0
 11
-3.496765431890256E-15
 21
1.0
 31
0.0
 73
     1
 44
1.0
  0
POINT
  5
2CD
330
2C5
100
AcDbEntity
  8
Defpoints
 62
     0
100
AcDbPoint
 10
16.87500000000004
 20
50.80000000000007
 30
0.0
  0
POINT
  5
2CE
330
2C5
100
AcDbEntity
  8
Defpoints
 62
     0
100
AcDbPoint
 10
17.87500000000004
 20
0.0000000000000568
 30
0.0
  0
POINT
  5
2CF
330
2C5
100
AcDbEntity
  8
Defpoints
 62
     0
100
AcDbPoint
 10
4.375000000000128
 20
0.0000000000000064
 30
0.0
  0
ENDBLK
  5
2D0
330
2C5
100
AcDbEntity
  8
0
100
AcDbBlockEnd
  0
BLOCK
  5
2FA
330
2F9
100
AcDbEntity
  8
0
100
AcDbBlockBegin
  2
*D18
 70
     1
 10
0.0
 20
0.0
 30
0.0
  3
*D18
  1
*D18
  0
LINE
  5
2FC
330
2F9
100
AcDbEntity
  8
치수문자_일반주서
 62
     0
370
    -2
100
AcDbLine
 10
315.325
 20
50.86250000000004
 30
0.0
 11
315.325
 21
85.15463133356099
 31
0.0
  0
LINE
  5
2FD
330
2F9
100
AcDbEntity
  8
치수문자_일반주서
 62
     0
370
    -2
100
AcDbLine
 10
16.87500000000004
 20
45.78250000000004
 30
0.0
 11
16.87500000000003
 21
85.15463133356099
 31
0.0
  0
LINE
  5
2FE
330
2F9
100
AcDbEntity
  8
치수문자_일반주서
 62
     0
370
    -2
100
AcDbLine
 10
312.023
 20
85.15463133356099
 30
0.0
 11
20.17700000000003
 21
85.15463133356099
 31
0.0
  0
SOLID
  5
2FF
330
2F9
100
AcDbEntity
  8
치수문자_일반주서
 62
     0
100
AcDbTrace
 10
312.023
 20
84.60429800022766
 30
0.0
 11
312.023
 21
85.70496466689431
 31
0.0
 12
315.325
 22
85.15463133356099
 32
0.0
 13
315.325
 23
85.15463133356099
 33
0.0
  0
SOLID
  5
300
330
2F9
100
AcDbEntity
  8
치수문자_일반주서
 62
     0
100
AcDbTrace
 10
20.17700000000003
 20
85.70496466689431
 30
0.0
 11
20.17700000000003
 21
84.60429800022766
 31
0.0
 12
16.87500000000003
 22
85.15463133356099
 32
0.0
 13
16.87500000000003
 23
85.15463133356099
 33
0.0
  0
MTEXT
  5
301
330
2F9
100
AcDbEntity
  8
치수문자_일반주서
 62
     0
100
AcDbMText
 10
166.1000000000001
 20
89.52963133356099
 30
0.0
 40
3.5
 41
0.0
 71
     2
 72
     1
  1
\A1;298.45 [11 3/4]
  7
SLDTEXTSTYLE0
 73
     1
 44
1.0
  0
POINT
  5
302
330
2F9
100
AcDbEntity
  8
Defpoints
 62
     0
100
AcDbPoint
 10
315.325
 20
50.80000000000004
 30
0.0
  0
POINT
  5
303
330
2F9
100
AcDbEntity
  8
Defpoints
 62
     0
100
AcDbPoint
 10
16.87500000000004
 20
45.72000000000004
 30
0.0
  0
POINT
  5
304
330
2F9
100
AcDbEntity
  8
Defpoints
 62
     0
100
AcDbPoint
 10
16.87500000000004
 20
85.15463133356099
 30
0.0
  0
ENDBLK
  5
2FB
330
2F9
100
AcDbEntity
  8
0
100
AcDbBlockEnd
  0
BLOCK
  5
33D
330
33C
100
AcDbEntity
  8
0
100
AcDbBlockBegin
  2
*D19
 70
     1
 10
0.0
 20
0.0
 30
0.0
  3
*D19
  1
*D19
  0
LINE
  5
33F
330
33C
100
AcDbEntity
  8
치수문자_일반주서
 62
     0
370
    -2
100
AcDbLine
 10
263.8678200069616
 20
-110.0475332471818
 30
0.0
 11
263.8678200069616
 21
-75.75540191362089
 31
0.0
  0
LINE
  5
340
330
33C
100
AcDbEntity
  8
치수문자_일반주서
 62
     0
370
    -2
100
AcDbLine
 10
-34.58217999303845
 20
-115.1275332471818
 30
0.0
 11
-34.58217999303847
 21
-75.75540191362089
 31
0.0
  0
LINE
  5
341
330
33C
100
AcDbEntity
  8
치수문자_일반주서
 62
     0
370
    -2
100
AcDbLine
 10
260.5658200069615
 20
-75.75540191362089
 30
0.0
 11
-31.28017999303847
 21
-75.75540191362089
 31
0.0
  0
SOLID
  5
342
330
33C
100
AcDbEntity
  8
치수문자_일반주서
 62
     0
100
AcDbTrace
 10
260.5658200069615
 20
-76.30573524695421
 30
0.0
 11
260.5658200069615
 21
-75.20506858028756
 31
0.0
 12
263.8678200069616
 22
-75.75540191362089
 32
0.0
 13
263.8678200069616
 23
-75.75540191362089
 33
0.0
  0
SOLID
  5
343
330
33C
100
AcDbEntity
  8
치수문자_일반주서
 62
     0
100
AcDbTrace
 10
-31.28017999303847
 20
-75.20506858028756
 30
0.0
 11
-31.28017999303847
 21
-76.30573524695421
 31
0.0
 12
-34.58217999303847
 22
-75.75540191362089
 32
0.0
 13
-34.58217999303847
 23
-75.75540191362089
 33
0.0
  0
MTEXT
  5
344
330
33C
100
AcDbEntity
  8
치수문자_일반주서
 62
     0
100
AcDbMText
 10
114.6428200069616
 20
-71.38040191362089
 30
0.0
 40
3.5
 41
0.0
 71
     2
 72
     1
  1
\A1;298.45 [11 3/4]
  7
SLDTEXTSTYLE0
 73
     1
 44
1.0
  0
POINT
  5
345
330
33C
100
AcDbEntity
  8
Defpoints
 62
     0
100
AcDbPoint
 10
263.8678200069616
 20
-110.1100332471818
 30
0.0
  0
POINT
  5
346
330
33C
100
AcDbEntity
  8
Defpoints
 62
     0
100
AcDbPoint
 10
-34.58217999303845
 20
-115.1900332471818
 30
0.0
  0
POINT
  5
347
330
33C
100
AcDbEntity
  8
Defpoints
 62
     0
100
AcDbPoint
 10
-34.58217999303845
 20
-75.75540191362089
 30
0.0
  0
ENDBLK
  5
33E
330
33C
100
AcDbEntity
  8
0
100
AcDbBlockEnd
  0
BLOCK
  5
349
330
348
100
AcDbEntity
  8
0
100
AcDbBlockBegin
  2
*D20
 70
     1
 10
0.0
 20
0.0
 30
0.0
  3
*D20
  1
*D20
  0
LINE
  5
34B
330
348
100
AcDbEntity
  8
치수문자_일반주서
 62
     0
370
    -2
100
AcDbLine
 10
-83.31250000000003
 20
25.40000000000003
 30
0.0
 11
-95.75000000000011
 21
25.39999999999998
 31
0.0
  0
LINE
  5
34C
330
348
100
AcDbEntity
  8
치수문자_일반주서
 62
     0
370
    -2
100
AcDbLine
 10
-82.31250000000003
 20
-25.39999999999998
 30
0.0
 11
-95.74999999999994
 21
-25.40000000000003
 31
0.0
  0
LINE
  5
34D
330
348
100
AcDbEntity
  8
치수문자_일반주서
 62
     0
370
    -2
100
AcDbLine
 10
-95.7500000000001
 20
22.09799999999998
 30
0.0
 11
-95.74999999999996
 21
-22.09800000000003
 31
0.0
  0
SOLID
  5
34E
330
348
100
AcDbEntity
  8
치수문자_일반주서
 62
     0
100
AcDbTrace
 10
-95.19966666666677
 20
22.09799999999999
 30
0.0
 11
-96.30033333333343
 21
22.09799999999998
 31
0.0
 12
-95.75000000000011
 22
25.39999999999998
 32
0.0
 13
-95.75000000000011
 23
25.39999999999998
 33
0.0
  0
SOLID
  5
34F
330
348
100
AcDbEntity
  8
치수문자_일반주서
 62
     0
100
AcDbTrace
 10
-96.30033333333328
 20
-22.09800000000003
 30
0.0
 11
-95.19966666666663
 21
-22.09800000000003
 31
0.0
 12
-95.74999999999994
 22
-25.40000000000003
 32
0.0
 13
-95.74999999999994
 23
-25.40000000000003
 33
0.0
  0
MTEXT
  5
350
330
348
100
AcDbEntity
  8
치수문자_일반주서
 62
     0
100
AcDbMText
 10
-100.125
 20
0.0000000000000139
 30
0.0
 40
3.5
 41
0.0
 71
     2
 72
     1
  1
\A1;%%c50.80 [2]
  7
SLDTEXTSTYLE0
 11
-3.356894814614646E-15
 21
1.0
 31
0.0
 73
     1
 44
1.0
  0
POINT
  5
351
330
348
100
AcDbEntity
  8
Defpoints
 62
     0
100
AcDbPoint
 10
-83.25000000000003
 20
25.40000000000003
 30
0.0
  0
POINT
  5
352
330
348
100
AcDbEntity
  8
Defpoints
 62
     0
100
AcDbPoint
 10
-82.25000000000003
 20
-25.39999999999998
 30
0.0
  0
POINT
  5
353
330
348
100
AcDbEntity
  8
Defpoints
 62
     0
100
AcDbPoint
 10
-95.74999999999994
 20
-25.40000000000003
 30
0.0
  0
ENDBLK
  5
34A
330
348
100
AcDbEntity
  8
0
100
AcDbBlockEnd
  0
ENDSEC
  0
SECTION
  2
ENTITIES
  0
LINE
  5
96
330
1F
100
AcDbEntity
  8
외형선
  6
Continuous
370
    15
100
AcDbLine
 10
12.67170575203336
 20
25.4
 30
0.0
 11
11.99999999999998
 21
25.4
 31
0.0
  0
LINE
  5
97
330
1F
100
AcDbEntity
  8
0
  6
Continuous
 62
     1
370
    15
100
AcDbLine
 10
59.72867766752539
 20
-25.40000000000001
 30
0.0
 11
62.79999999999998
 21
-25.40000000000001
 31
0.0
  0
LINE
  5
98
330
1F
100
AcDbEntity
  8
0
  6
Continuous
 62
     1
370
    15
100
AcDbLine
 10
39.27175441717547
 20
25.4
 30
0.0
 11
33.13123775105424
 21
25.4
 31
0.0
  0
LINE
  5
99
330
1F
100
AcDbEntity
  8
0
  6
Continuous
 62
     1
370
    15
100
AcDbLine
 10
33.13123775105407
 20
-25.40000000000001
 30
0.0
 11
39.27175441717544
 21
-25.40000000000001
 31
0.0
  0
LINE
  5
9A
330
1F
100
AcDbEntity
  8
0
  6
Continuous
 62
     1
370
    15
100
AcDbLine
 10
62.79999999999998
 20
25.4
 30
0.0
 11
59.72867766752536
 21
25.4
 31
0.0
  0
LINE
  5
9B
330
1F
100
AcDbEntity
  8
외형선
  6
Continuous
370
    15
100
AcDbLine
 10
11.99999999999998
 20
-25.40000000000001
 30
0.0
 11
12.67170575203316
 21
-25.40000000000001
 31
0.0
  0
LINE
  5
9C
330
1F
100
AcDbEntity
  8
외형선
  6
Continuous
370
    15
100
AcDbLine
 10
-78.17000000000003
 20
-25.40000000000001
 30
0.0
 11
-73.725
 21
-25.40000000000001
 31
0.0
  0
LINE
  5
9D
330
1F
100
AcDbEntity
  8
외형선
  6
Continuous
370
    15
100
AcDbLine
 10
11.99999999999998
 20
25.4
 30
0.0
 11
-28.18280000000003
 21
25.4
 31
0.0
  0
LINE
  5
A0
330
1F
100
AcDbEntity
  8
0
  6
Continuous
 62
     1
370
    15
100
AcDbLine
 10
62.79999999999998
 20
-9.954726314670603
 30
0.0
 11
62.79999999999998
 21
9.954726314671067
 31
0.0
  0
SPLINE
  5
A1
330
1F
100
AcDbEntity
  8
0
  6
Continuous
 62
     1
370
    15
100
AcDbSpline
210
0.0
220
0.0
230
1.0
 70
     8
 71
     3
 72
    23
 73
    19
 74
     0
 42
0.000000001
 43
0.00000001
 40
0.0
 40
0.0
 40
0.0
 40
0.0
 40
0.0501662761727921
 40
0.1137483496514469
 40
0.1773056747677265
 40
0.2408499471515491
 40
0.3043972439882339
 40
0.3668310083514191
 40
0.4292777226463118
 40
0.4916963342475509
 40
0.5541045517271329
 40
0.617795067008846
 40
0.6815092242415648
 40
0.7452229065173495
 40
0.8089131822232574
 40
0.872595684522781
 40
0.9362860795625799
 40
1.0
 40
1.0
 40
1.0
 40
1.0
 10
12.67170575203335
 20
25.36677534625225
 30
0.0
 10
13.50995707040704
 20
25.35611586577776
 30
0.0
 10
15.41063041777162
 20
25.33194627607294
 30
0.0
 10
18.37415649139296
 20
24.82041018555423
 30
0.0
 10
21.56015545378354
 20
23.92591062487153
 30
0.0
 10
24.74535800259709
 20
22.64324636639099
 30
0.0
 10
27.91181546950523
 20
21.01772261268914
 30
0.0
 10
31.0604885285901
 20
19.07778761685884
 30
0.0
 10
34.1909459058332
 20
16.86095666298114
 30
0.0
 10
37.31979842786233
 20
14.38792792666273
 30
0.0
 10
40.46927243527533
 20
11.67880108127008
 30
0.0
 10
43.64064183277382
 20
8.769596735482397
 30
0.0
 10
46.83465082710504
 20
5.702710232921133
 30
0.0
 10
50.02864347906717
 20
2.546028828009238
 30
0.0
 10
53.2212571824605
 20
-0.6519596811224673
 30
0.0
 10
56.41337427386171
 20
-3.836359019174033
 30
0.0
 10
59.60599614442884
 20
-6.971764903085869
 30
0.0
 10
61.73520099452169
 20
-8.960283449833307
 30
0.0
 10
62.79999999999998
 20
-9.954726314670605
 30
0.0
  0
SPLINE
  5
A2
330
1F
100
AcDbEntity
  8
0
  6
Continuous
 62
     1
370
    15
100
AcDbSpline
210
0.0
220
0.0
230
1.0
 70
     8
 71
     3
 72
    20
 73
    16
 74
     0
 42
0.000000001
 43
0.00000001
 40
0.0
 40
0.0
 40
0.0
 40
0.0
 40
0.0798761983513669
 40
0.1597224945146255
 40
0.2395590501910189
 40
0.3194060691167971
 40
0.3992836459054539
 40
0.4777332858135322
 40
0.556151099926989
 40
0.6345618541138989
 40
0.7129903490347371
 40
0.7930499726575297
 40
0.8730881120404588
 40
0.9531035403868522
 40
1.0
 40
1.0
 40
1.0
 40
1.0
 10
62.80000000000001
 20
9.954726314671069
 30
0.0
 10
61.73752226979688
 20
10.91678287056248
 30
0.0
 10
59.61296455502203
 20
12.84053583005089
 30
0.0
 10
56.42732565190682
 20
15.4829446554596
 30
0.0
 10
53.24217652606834
 20
17.89305545191147
 30
0.0
 10
50.05650242473818
 20
20.01919892053447
 30
0.0
 10
46.88835724736253
 20
21.82053605624904
 30
0.0
 10
43.73935061711485
 20
23.27498290528226
 30
0.0
 10
40.61076265129791
 20
24.36798098107107
 30
0.0
 10
37.48250722625211
 20
25.09181818894882
 30
0.0
 10
34.33215108699904
 20
25.43649472497919
 30
0.0
 10
31.15901971339209
 20
25.39314218565409
 30
0.0
 10
27.96558606915352
 20
24.93203285452858
 30
0.0
 10
25.21363269581262
 20
24.24892233659038
 30
0.0
 10
23.52598400454967
 20
23.57298102838439
 30
0.0
 10
22.90236434240876
 20
23.32320730922542
 30
0.0
  0
SPLINE
  5
A3
330
1F
100
AcDbEntity
  8
0
  6
Continuous
 62
     1
370
    15
100
AcDbSpline
210
0.0
220
0.0
230
1.0
 70
     8
 71
     3
 72
    19
 73
    15
 74
     0
 42
0.000000001
 43
0.00000001
 40
0.0
 40
0.0
 40
0.0
 40
0.0
 40
0.0849683561007411
 40
0.1699589651643267
 40
0.2549164929162074
 40
0.3398565729879359
 40
0.4248006958672794
 40
0.5082563519830062
 40
0.5917293183643935
 40
0.6751647196756396
 40
0.7585862270906665
 40
0.8437217910823573
 40
0.9288889574378197
 40
1.0
 40
1.0
 40
1.0
 40
1.0
 10
11.99999999999995
 20
-12.11361622269763
 30
0.0
 10
13.06213834050248
 20
-13.02880641755623
 30
0.0
 10
15.18669319241863
 20
-14.85942649289685
 30
0.0
 10
18.37415137165984
 20
-17.319872498421
 30
0.0
 10
21.56015682615674
 20
-19.52238905997414
 30
0.0
 10
24.74535763082979
 20
-21.414204289409
 30
0.0
 10
27.91181558140905
 20
-22.96136954326717
 30
0.0
 10
31.06048844684859
 20
-24.14542812074326
 30
0.0
 10
34.1909461220206
 20
-24.95650587836578
 30
0.0
 10
37.31979764529849
 20
-25.38869735995033
 30
0.0
 10
40.46927537428323
 20
-25.43902552076771
 30
0.0
 10
43.64063061300418
 20
-25.08450672945648
 30
0.0
 10
46.65896076737704
 20
-24.40983826496123
 30
0.0
 10
48.61271645309202
 20
-23.67599638987464
 30
0.0
 10
49.50173101683199
 20
-23.34207740542624
 30
0.0
  0
SPLINE
  5
A4
330
1F
100
AcDbEntity
  8
외형선
  6
Continuous
370
    15
100
AcDbSpline
210
0.0
220
0.0
230
1.0
 70
    24
 71
     3
 72
    36
 73
    32
 74
     0
 42
0.000000001
 43
0.00000001
 40
0.0
 40
0.0
 40
0.0
 40
0.0
 40
0.1249999999999999
 40
0.1249999999999999
 40
0.1562499999999998
 40
0.1562499999999998
 40
0.1874999999999998
 40
0.1874999999999998
 40
0.2499999999999998
 40
0.2499999999999998
 40
0.375
 40
0.375
 40
0.4375000000000001
 40
0.4375000000000001
 40
0.5000000000000001
 40
0.5000000000000001
 40
0.5625000000000002
 40
0.5625000000000002
 40
0.6250000000000002
 40
0.6250000000000002
 40
0.6875000000000002
 40
0.6875000000000002
 40
0.7500000000000002
 40
0.7500000000000002
 40
0.8125000000000002
 40
0.8125000000000002
 40
0.8750000000000001
 40
0.8750000000000001
 40
0.9375000000000001
 40
0.9375000000000001
 40
1.0
 40
1.0
 40
1.0
 40
1.0
 10
11.99999999999999
 20
7.707146068126994
 30
0.0
 10
12.00000000000002
 20
7.604244693912353
 30
0.0
 10
12.0
 20
7.37804402400122
 30
0.0
 10
11.99999999999998
 20
7.031126456766735
 30
0.0
 10
11.99999999999999
 20
6.958375852363575
 30
0.0
 10
11.99999999999998
 20
6.807758815224586
 30
0.0
 10
11.99999999999998
 20
6.728420776818693
 30
0.0
 10
11.99999999999998
 20
6.465837190214632
 30
0.0
 10
11.99999999999995
 20
6.262108659479789
 30
0.0
 10
11.99999999999999
 20
5.546100606064853
 30
0.0
 10
12.00000000000004
 20
4.92739227526299
 30
0.0
 10
12.00000000000002
 20
3.722258558500791
 30
0.0
 10
12.00000000000002
 20
3.274617105359376
 30
0.0
 10
12.00000000000002
 20
2.284900121066785
 30
0.0
 10
12.0
 20
1.742677354320926
 30
0.0
 10
12.0
 20
0.5720171335842023
 30
0.0
 10
11.99999999999998
 20
-0.0565031890208276
 30
0.0
 10
12.0
 20
-1.376706266469506
 30
0.0
 10
12.0
 20
-2.068321616116382
 30
0.0
 10
12.00000000000002
 20
-3.476275894830702
 30
0.0
 10
12.00000000000002
 20
-4.192356762401934
 30
0.0
 10
12.0
 20
-5.600230847659549
 30
0.0
 10
11.99999999999999
 20
-6.291644658317079
 30
0.0
 10
12.0
 20
-7.600553581129141
 30
0.0
 10
12.0
 20
-8.217712618415387
 30
0.0
 10
11.99999999999998
 20
-9.339274754994388
 30
0.0
 10
11.99999999999996
 20
-9.843533654600884
 30
0.0
 10
11.99999999999993
 20
-10.71894449588111
 30
0.0
 10
11.99999999999992
 20
-11.09017169853845
 30
0.0
 10
11.99999999999996
 20
-11.69866153773529
 30
0.0
 10
11.99999999999998
 20
-11.93613115778973
 30
0.0
 10
12.0
 20
-12.11361622269749
 30
0.0
  0
SPLINE
  5
A5
330
1F
100
AcDbEntity
  8
0
  6
Continuous
 62
     1
370
    15
100
AcDbSpline
210
0.0
220
0.0
230
1.0
 70
     8
 71
     3
 72
    23
 73
    19
 74
     0
 42
0.000000001
 43
0.00000001
 40
0.0
 40
0.0
 40
0.0
 40
0.0
 40
0.002429383960045
 40
0.0691752732744605
 40
0.1359130202267451
 40
0.2026595137198071
 40
0.2694315514376031
 40
0.3350099343265741
 40
0.4005617130890268
 40
0.4661075902492948
 40
0.5316682974157125
 40
0.5985925134864835
 40
0.665498770243362
 40
0.7323860421705908
 40
0.7992707679641188
 40
0.8661693971251699
 40
0.9330935356324245
 40
1.0
 40
1.0
 40
1.0
 40
1.0
 10
59.72867766752539
 20
-25.39300049161271
 30
0.0
 10
59.69002222963206
 20
-25.39532234573351
 30
0.0
 10
58.58933146860233
 20
-25.46143577035145
 30
0.0
 10
56.42736710139977
 20
-25.22291639459376
 30
0.0
 10
53.24216541840303
 20
-24.64818445730567
 30
0.0
 10
50.05650540395821
 20
-23.63969909627941
 30
0.0
 10
46.88835646591051
 20
-22.28042399982866
 30
0.0
 10
43.73935082081847
 20
-20.58333852701296
 30
0.0
 10
40.61076261165246
 20
-18.58509544581272
 30
0.0
 10
37.48250718118894
 20
-16.30504594972636
 30
0.0
 10
34.3321513088035
 20
-13.76050366054151
 30
0.0
 10
31.15901885200335
 20
-10.98544963106742
 30
0.0
 10
27.96558928417618
 20
-8.01783715966345
 30
0.0
 10
24.77325605412997
 20
-4.923978138043505
 30
0.0
 10
21.58107758925832
 20
-1.751873908064799
 30
0.0
 10
18.38807589238631
 20
1.445888988863815
 30
0.0
 10
15.19364922542462
 20
4.628847079261924
 30
0.0
 10
13.06445601222903
 20
6.681136749367104
 30
0.0
 10
11.99999999999993
 20
7.707146068127036
 30
0.0
  0
LINE
  5
A6
330
1F
100
AcDbEntity
  8
0
  6
Continuous
 62
     1
370
    15
100
AcDbLine
 10
62.79999999999998
 20
-25.21464479297017
 30
0.0
 11
62.79999999999998
 21
-15.25938465264862
 31
0.0
  0
SPLINE
  5
A7
330
1F
100
AcDbEntity
  8
0
  6
Continuous
 62
     1
370
    15
100
AcDbSpline
210
0.0
220
0.0
230
1.0
 70
     8
 71
     3
 72
    50
 73
    46
 74
     0
 42
0.000000001
 43
0.00000001
 40
0.0
 40
0.0
 40
0.0
 40
0.0
 40
0.0624999999999997
 40
0.0624999999999997
 40
0.0937499999999996
 40
0.0937499999999996
 40
0.1249999999999994
 40
0.1249999999999994
 40
0.1874999999999999
 40
0.1874999999999999
 40
0.2187500000000002
 40
0.2187500000000002
 40
0.2500000000000004
 40
0.2500000000000004
 40
0.3125000000000017
 40
0.3125000000000017
 40
0.375000000000003
 40
0.375000000000003
 40
0.4062500000000036
 40
0.4062500000000036
 40
0.4375000000000038
 40
0.4375000000000038
 40
0.5000000000000037
 40
0.5000000000000037
 40
0.5312500000000037
 40
0.5312500000000037
 40
0.5625000000000036
 40
0.5625000000000036
 40
0.6250000000000031
 40
0.6250000000000031
 40
0.6875000000000026
 40
0.6875000000000026
 40
0.7187500000000023
 40
0.7187500000000023
 40
0.750000000000002
 40
0.750000000000002
 40
0.8125000000000016
 40
0.8125000000000016
 40
0.8437500000000013
 40
0.8437500000000013
 40
0.875000000000001
 40
0.875000000000001
 40
0.9375000000000006
 40
0.9375000000000006
 40
1.0
 40
1.0
 40
1.0
 40
1.0
 10
62.79999999999998
 20
-25.21464479297017
 30
0.0
 10
61.74495244054291
 20
-25.08715568499301
 30
0.0
 10
60.6821141939897
 20
-24.89357245888873
 30
0.0
 10
59.09477259826788
 20
-24.50715345992003
 30
0.0
 10
58.56783422016772
 20
-24.36250975527989
 30
0.0
 10
57.50973166010152
 20
-24.04133405003678
 30
0.0
 10
56.97948504330012
 20
-23.86485623415715
 30
0.0
 10
55.38981612919498
 20
-23.28922927060504
 30
0.0
 10
54.33556340233574
 20
-22.8445042214863
 30
0.0
 10
52.74602207386044
 20
-22.088869445583
 30
0.0
 10
52.21573503791411
 20
-21.82235069920743
 30
0.0
 10
51.1573865314942
 20
-21.26162957338584
 30
0.0
 10
50.63043374898517
 20
-20.96765727912712
 30
0.0
 10
49.04347425361959
 20
-20.0442758028762
 30
0.0
 10
47.98055904001948
 20
-19.37373975698671
 30
0.0
 10
45.86965252122118
 20
-17.93866688399186
 30
0.0
 10
44.80770473389638
 20
-17.17100535662996
 30
0.0
 10
43.22000740458525
 20
-15.95669830759924
 30
0.0
 10
42.69302581345809
 20
-15.54186577598813
 30
0.0
 10
41.63518677064788
 20
-14.69151469755063
 30
0.0
 10
41.10498942479372
 20
-14.25614914536542
 30
0.0
 10
39.5152194210343
 20
-12.92325328636253
 30
0.0
 10
38.46091776574452
 20
-12.00024002399262
 30
0.0
 10
36.87153051178544
 20
-10.57019733518217
 30
0.0
 10
36.34121191074836
 20
-10.08615554704089
 30
0.0
 10
35.28263504251895
 20
-9.106198348701106
 30
0.0
 10
34.75561023896338
 20
-8.610678688218327
 30
0.0
 10
33.16905918952957
 20
-7.106580980549095
 30
0.0
 10
32.10608484664891
 20
-6.081003813163512
 30
0.0
 10
29.99440177635716
 20
-4.008160838613547
 30
0.0
 10
28.93329594657827
 20
-2.956869409193716
 30
0.0
 10
27.34526927017945
 20
-1.373671744042177
 30
0.0
 10
26.81818685098358
 20
-0.8454538117744491
 30
0.0
 10
25.76062888171881
 20
0.2125235647288423
 30
0.0
 10
25.23048965586912
 20
0.7421716628594287
 30
0.0
 10
23.64064506404852
 20
2.328440053992637
 30
0.0
 10
22.58624555461568
 20
3.380812840715893
 30
0.0
 10
20.99703885549884
 20
4.944592417121987
 30
0.0
 10
20.46669754518392
 20
5.463165967204576
 30
0.0
 10
19.40790991235975
 20
6.491907129359753
 30
0.0
 10
18.88075547510939
 20
7.001664529797038
 30
0.0
 10
17.29463919453713
 20
8.517782606464355
 30
0.0
 10
16.23162356346287
 20
9.510687653057133
 30
0.0
 10
14.11919883301439
 20
11.43768978541828
 30
0.0
 10
13.05888641247271
 20
12.37512626813691
 30
0.0
 10
11.99999999999992
 20
13.27749369934262
 30
0.0
  0
SPLINE
  5
A8
330
1F
100
AcDbEntity
  8
외형선
  6
Continuous
370
    15
100
AcDbSpline
210
0.0
220
0.0
230
1.0
 70
    24
 71
     3
 72
    15
 73
    11
 74
     0
 42
0.000000001
 43
0.00000001
 40
0.0
 40
0.0
 40
0.0
 40
0.0
 40
0.154896715817831
 40
0.2910026447735151
 40
0.4310556548893846
 40
0.5671615838450706
 40
0.7072145939609411
 40
0.8433205229166244
 40
0.9833735330324929
 40
1.0
 40
1.0
 40
1.0
 40
1.0
 10
11.99999999999991
 20
24.81353306774243
 30
0.0
 10
11.99999999999998
 20
24.21316698314785
 30
0.0
 10
12.0000000000001
 20
23.08526625570564
 30
0.0
 10
11.99999999999985
 20
21.30744182439615
 30
0.0
 10
12.00000000000006
 20
19.59739268979037
 30
0.0
 10
11.99999999999995
 20
17.9024276303415
 30
0.0
 10
11.99999999999989
 20
16.29679436006846
 30
0.0
 10
12.00000000000006
 20
14.82310993426035
 30
0.0
 10
11.99999999999989
 20
13.84778115263026
 30
0.0
 10
11.99999999999993
 20
13.43301350658325
 30
0.0
 10
11.99999999999992
 20
13.38899931471482
 30
0.0
  0
SPLINE
  5
A9
330
1F
100
AcDbEntity
  8
0
  6
Continuous
 62
     1
370
    15
100
AcDbSpline
210
0.0
220
0.0
230
1.0
 70
     8
 71
     3
 72
    50
 73
    46
 74
     0
 42
0.000000001
 43
0.00000001
 40
0.0
 40
0.0
 40
0.0
 40
0.0
 40
0.0625000000000024
 40
0.0625000000000024
 40
0.0937500000000032
 40
0.0937500000000032
 40
0.1250000000000041
 40
0.1250000000000041
 40
0.1875000000000057
 40
0.1875000000000057
 40
0.2187500000000065
 40
0.2187500000000065
 40
0.2500000000000073
 40
0.2500000000000073
 40
0.3125000000000082
 40
0.3125000000000082
 40
0.375000000000009
 40
0.375000000000009
 40
0.406250000000009
 40
0.406250000000009
 40
0.4375000000000086
 40
0.4375000000000086
 40
0.5000000000000079
 40
0.5000000000000079
 40
0.5312500000000073
 40
0.5312500000000073
 40
0.5625000000000068
 40
0.5625000000000068
 40
0.6250000000000056
 40
0.6250000000000056
 40
0.6875000000000043
 40
0.6875000000000043
 40
0.718750000000004
 40
0.718750000000004
 40
0.7500000000000036
 40
0.7500000000000036
 40
0.8125000000000024
 40
0.8125000000000024
 40
0.8437500000000019
 40
0.8437500000000019
 40
0.8750000000000013
 40
0.8750000000000013
 40
0.9375000000000007
 40
0.9375000000000007
 40
1.0
 40
1.0
 40
1.0
 40
1.0
 10
62.80000000000001
 20
-15.25991847829919
 30
0.0
 10
61.744952440543
 20
-14.41476308857172
 30
0.0
 10
60.6821141939897
 20
-13.52772490626135
 30
0.0
 10
59.09477259826791
 20
-12.14970915920501
 30
0.0
 10
58.56783422016766
 20
-11.6828037708607
 30
0.0
 10
57.50973166010152
 20
-10.7331597382805
 30
0.0
 10
56.97948504330015
 20
-10.25067767252306
 30
0.0
 10
55.38981612919504
 20
-8.784457568671229
 30
0.0
 10
54.33556340233571
 20
-7.783258600323405
 30
0.0
 10
52.74602207386046
 20
-6.252427035631918
 30
0.0
 10
52.21573503791414
 20
-5.737598345173829
 30
0.0
 10
51.15738653149417
 20
-4.701863315398501
 30
0.0
 10
50.6304337489852
 20
-4.181327082433961
 30
0.0
 10
49.04347425361961
 20
-2.610574941486687
 30
0.0
 10
47.98055904001948
 20
-1.552229670352745
 30
0.0
 10
45.86965252122123
 20
0.562083882038712
 30
0.0
 10
44.80770473389638
 20
1.622691591475003
 30
0.0
 10
43.22000740458522
 20
3.201404643418984
 30
0.0
 10
42.6930258134582
 20
3.725157112799444
 30
0.0
 10
41.63518677064791
 20
4.768415337609749
 30
0.0
 10
41.10498942479372
 20
5.287697621543717
 30
0.0
 10
39.51521942103424
 20
6.833923860049158
 30
0.0
 10
38.46091776574463
 20
7.847831066868263
 30
0.0
 10
36.8715305117855
 20
9.336644118443076
 30
0.0
 10
36.34121191074836
 20
9.827312490787087
 30
0.0
 10
35.28263504251887
 20
10.79458178354857
 30
0.0
 10
34.75561023896338
 20
11.27082259671546
 30
0.0
 10
33.1690591895296
 20
12.67827503586059
 30
0.0
 10
32.10608484664897
 20
13.5874453629175
 30
0.0
 10
29.99440177635728
 20
15.32641847774723
 30
0.0
 10
28.93329594657835
 20
16.15964665317545
 30
0.0
 10
27.34526927017948
 20
17.34219167367837
 30
0.0
 10
26.81818685098358
 20
17.72479108904073
 30
0.0
 10
25.76062888171879
 20
18.46726420622531
 30
0.0
 10
25.23048965586918
 20
18.8270321876373
 30
0.0
 10
23.64064506404851
 20
19.86869009071722
 30
0.0
 10
22.58624555461567
 20
20.51199235639362
 30
0.0
 10
20.99703885549885
 20
21.39594804872804
 30
0.0
 10
20.46669754518388
 20
21.67695132159479
 30
0.0
 10
19.40790991235968
 20
22.21003264453599
 30
0.0
 10
18.88075547510939
 20
22.46192566483021
 30
0.0
 10
17.29463919453716
 20
23.17404873256665
 30
0.0
 10
16.23162356346292
 20
23.59032317268562
 30
0.0
 10
14.11919883301429
 20
24.29634248996899
 30
0.0
 10
13.05888641247269
 20
24.58738639860271
 30
0.0
 10
11.99999999999993
 20
24.81353306774244
 30
0.0
  0
LINE
  5
AA
330
1F
100
AcDbEntity
  8
0
  6
Continuous
 62
     1
370
    15
100
AcDbLine
 10
62.79999999999998
 20
-15.25991847829919
 30
0.0
 11
62.79999999999998
 21
-9.954726314670603
 31
0.0
  0
LINE
  5
AB
330
1F
100
AcDbEntity
  8
외형선
  6
Continuous
370
    15
100
AcDbLine
 10
11.99999999999991
 20
24.81353306774243
 30
0.0
 11
11.99999999999998
 21
25.4
 31
0.0
  0
LINE
  5
AC
330
1F
100
AcDbEntity
  8
0
  6
Continuous
 62
     1
370
    15
100
AcDbLine
 10
62.79999999999998
 20
-25.40000000000001
 30
0.0
 11
62.79999999999998
 21
-25.21464479297017
 31
0.0
  0
LINE
  5
AD
330
1F
100
AcDbEntity
  8
외형선
  6
Continuous
370
    15
100
AcDbLine
 10
11.99999999999991
 20
7.707146068127019
 30
0.0
 11
11.99999999999995
 21
13.27749369934257
 31
0.0
  0
SPLINE
  5
AE
330
1F
100
AcDbEntity
  8
0
  6
Continuous
 62
     1
370
    15
100
AcDbSpline
210
0.0
220
0.0
230
1.0
 70
     8
 71
     3
 72
    15
 73
    11
 74
     0
 42
0.000000001
 43
0.00000001
 40
0.0
 40
0.0
 40
0.0
 40
0.0
 40
0.0499957183751898
 40
0.1856917934324324
 40
0.3214382389403456
 40
0.4571836725269152
 40
0.5928792371549942
 40
0.7285582401218667
 40
0.8642540589972315
 40
1.0
 40
1.0
 40
1.0
 40
1.0
 10
39.27175441717547
 20
25.35480369147335
 30
0.0
 10
39.66379740837588
 20
25.3665129236347
 30
0.0
 10
41.1199054213122
 20
25.41000281417773
 30
0.0
 10
43.6406445679114
 20
25.0749853700298
 30
0.0
 10
46.83465009411038
 20
24.35070670984573
 30
0.0
 10
50.02864367538744
 20
23.21617287501537
 30
0.0
 10
53.22125712989033
 20
21.72319152828663
 30
0.0
 10
56.41337428788147
 20
19.88103684812047
 30
0.0
 10
59.60599614092225
 20
17.74270250695379
 30
0.0
 10
61.73520099335271
 20
16.08761502597801
 30
0.0
 10
62.79999999999998
 20
15.25991847829932
 30
0.0
  0
LINE
  5
AF
330
1F
100
AcDbEntity
  8
0
  6
Continuous
 62
     1
370
    15
100
AcDbLine
 10
62.79999999999998
 20
9.954726314671067
 30
0.0
 11
62.79999999999998
 21
15.25991847829932
 31
0.0
  0
SPLINE
  5
B0
330
1F
100
AcDbEntity
  8
0
  6
Continuous
 62
     1
370
    15
100
AcDbSpline
210
0.0
220
0.0
230
1.0
 70
     8
 71
     3
 72
    14
 73
    10
 74
     0
 42
0.000000001
 43
0.00000001
 40
0.0
 40
0.0
 40
0.0
 40
0.0
 40
0.0933245004433076
 40
0.2444483977462756
 40
0.395529413238403
 40
0.5466046776742529
 40
0.6977113462147052
 40
0.8488756337582636
 40
1.0
 40
1.0
 40
1.0
 40
1.0
 10
33.13123775105407
 20
-25.3525903128024
 30
0.0
 10
32.47376797387515
 20
-25.35644820647551
 30
0.0
 10
30.75163249139672
 20
-25.36655333345274
 30
0.0
 10
27.96558128809638
 20
-24.93183346306894
 30
0.0
 10
24.77325819625576
 20
-24.10345518416731
 30
0.0
 10
21.581077015358
 20
-22.87902897861758
 30
0.0
 10
18.38807604550636
 20
-21.2927030877681
 30
0.0
 10
15.19364918715035
 20
-19.38891501497315
 30
0.0
 10
13.06445599947204
 20
-17.86716268208113
 30
0.0
 10
11.99999999999993
 20
-17.10638699961527
 30
0.0
  0
LINE
  5
B1
330
1F
100
AcDbEntity
  8
외형선
  6
Continuous
370
    15
100
AcDbLine
 10
11.99999999999991
 20
-17.10638699961528
 30
0.0
 11
11.99999999999998
 21
-12.11361622269763
 31
0.0
  0
SPLINE
  5
B2
330
1F
100
AcDbEntity
  8
0
  6
Continuous
 62
     1
370
    15
100
AcDbSpline
210
0.0
220
0.0
230
1.0
 70
     8
 71
     3
 72
    12
 73
     8
 74
     0
 42
0.000000001
 43
0.00000001
 40
0.0
 40
0.0
 40
0.0
 40
0.0
 40
0.239641527937605
 40
0.4791933444693737
 40
0.718715937963449
 40
0.9582699228998004
 40
1.0
 40
1.0
 40
1.0
 40
1.0
 10
62.80000000000001
 20
25.21464479297017
 30
0.0
 10
61.73752160722711
 20
25.30404021820088
 30
0.0
 10
59.61296256756081
 20
25.48279760288806
 30
0.0
 10
56.4273335978757
 20
25.25256632958264
 30
0.0
 10
53.24214673072363
 20
24.62111166335862
 30
0.0
 10
50.93381854850441
 20
23.9669546599276
 30
0.0
 10
49.6867418750893
 20
23.42280506669269
 30
0.0
 10
49.50173101683202
 20
23.34207740542624
 30
0.0
  0
LINE
  5
B3
330
1F
100
AcDbEntity
  8
0
  6
Continuous
 62
     1
370
    15
100
AcDbLine
 10
62.79999999999998
 20
15.25155254389376
 30
0.0
 11
62.79999999999998
 21
25.21464479297017
 31
0.0
  0
SPLINE
  5
B4
330
1F
100
AcDbEntity
  8
0
  6
Continuous
 62
     1
370
    15
100
AcDbSpline
210
0.0
220
0.0
230
1.0
 70
     8
 71
     3
 72
    11
 73
     7
 74
     0
 42
0.000000001
 43
0.00000001
 40
0.0
 40
0.0
 40
0.0
 40
0.0
 40
0.2922817649540858
 40
0.5846400776437541
 40
0.8768845942731495
 40
1.0
 40
1.0
 40
1.0
 40
1.0
 10
11.99999999999993
 20
-25.39110992204004
 30
0.0
 10
13.06213867117936
 20
-25.38184692270563
 30
0.0
 10
15.18669418453584
 20
-25.36331849808449
 30
0.0
 10
18.37414740262216
 20
-24.80951196309707
 30
0.0
 10
20.94581720492014
 20
-24.13733589470564
 30
0.0
 10
22.45502519408938
 20
-23.50934726009752
 30
0.0
 10
22.90236434240857
 20
-23.32320730922543
 30
0.0
  0
SPLINE
  5
B5
330
1F
100
AcDbEntity
  8
외형선
  6
Continuous
370
    15
100
AcDbSpline
210
0.0
220
0.0
230
1.0
 70
    24
 71
     3
 72
    13
 73
     9
 74
     0
 42
0.000000001
 43
0.00000001
 40
0.0
 40
0.0
 40
0.0
 40
0.0
 40
0.1763976790418527
 40
0.3786797010888068
 40
0.5752608563167948
 40
0.7775428783637492
 40
0.8882792815150677
 40
1.0
 40
1.0
 40
1.0
 40
1.0
 10
11.99999999999996
 20
-17.21790261498754
 30
0.0
 10
12.00000000000002
 20
-17.63957888797157
 30
0.0
 10
12.00000000000013
 20
-18.54480760683668
 30
0.0
 10
11.99999999999989
 20
-20.09043595535982
 30
0.0
 10
12.00000000000009
 20
-21.77551813819543
 30
0.0
 10
11.99999999999995
 20
-23.23995905188043
 30
0.0
 10
12.00000000000003
 20
-24.45337180809734
 30
0.0
 10
11.99999999999996
 20
-25.07760985332693
 30
0.0
 10
11.99999999999995
 20
-25.39110992204002
 30
0.0
  0
LINE
  5
B6
330
1F
100
AcDbEntity
  8
0
  6
Continuous
 62
     1
370
    15
100
AcDbLine
 10
62.79999999999998
 20
25.21464479297017
 30
0.0
 11
62.79999999999998
 21
25.4
 31
0.0
  0
LINE
  5
B7
330
1F
100
AcDbEntity
  8
외형선
  6
Continuous
370
    15
100
AcDbLine
 10
11.99999999999998
 20
-25.40000000000001
 30
0.0
 11
11.99999999999995
 21
-25.39110992204002
 31
0.0
  0
SPLINE
  5
B8
330
1F
100
AcDbEntity
  8
외형선
  6
Continuous
370
    15
100
AcDbSpline
210
0.0
220
0.0
230
1.0
 70
     8
 71
     3
 72
     8
 73
     4
 74
     0
 42
0.000000001
 43
0.00000001
 40
0.0
 40
0.0
 40
0.0
 40
0.0
 40
1.0
 40
1.0
 40
1.0
 40
1.0
 10
11.99999999999999
 20
24.81353306774242
 30
0.0
 10
11.6661583332111
 20
24.88483172647963
 30
0.0
 10
11.33267709160778
 20
24.94967714558807
 30
0.0
 10
10.99994277463179
 20
25.00801532244833
 30
0.0
  0
LINE
  5
B9
330
1F
100
AcDbEntity
  8
외형선
  6
Continuous
370
    15
100
AcDbLine
 10
10.99994277463182
 20
14.1200302228326
 30
0.0
 11
10.99994277463182
 21
25.00801668214188
 31
0.0
  0
SPLINE
  5
BA
330
1F
100
AcDbEntity
  8
외형선
  6
Continuous
370
    15
100
AcDbSpline
210
0.0
220
0.0
230
1.0
 70
     8
 71
     3
 72
     8
 73
     4
 74
     0
 42
0.000000001
 43
0.00000001
 40
0.0
 40
0.0
 40
0.0
 40
0.0
 40
1.0
 40
1.0
 40
1.0
 40
1.0
 10
11.99999999999999
 20
13.27749369934256
 30
0.0
 10
11.66615833321111
 20
13.56198865908638
 30
0.0
 10
11.33267709160781
 20
13.84294182069089
 30
0.0
 10
10.99994277463184
 20
14.12003829432864
 30
0.0
  0
SPLINE
  5
BB
330
1F
100
AcDbEntity
  8
외형선
  6
Continuous
370
    15
100
AcDbSpline
210
0.0
220
0.0
230
1.0
 70
     8
 71
     3
 72
     8
 73
     4
 74
     0
 42
0.000000001
 43
0.00000001
 40
0.0
 40
0.0
 40
0.0
 40
0.0
 40
1.0
 40
1.0
 40
1.0
 40
1.0
 10
11.99999999999999
 20
7.707146068126967
 30
0.0
 10
11.6661583332111
 20
8.025132818010247
 30
0.0
 10
11.33267709160778
 20
8.341008618318886
 30
0.0
 10
10.99994277463179
 20
8.654413237892847
 30
0.0
  0
LINE
  5
BC
330
1F
100
AcDbEntity
  8
외형선
  6
Continuous
370
    15
100
AcDbLine
 10
10.99994277463182
 20
-11.22491201120927
 30
0.0
 11
10.99994277463182
 21
8.654420542450602
 31
0.0
  0
SPLINE
  5
BD
330
1F
100
AcDbEntity
  8
외형선
  6
Continuous
370
    15
100
AcDbSpline
210
0.0
220
0.0
230
1.0
 70
     8
 71
     3
 72
     8
 73
     4
 74
     0
 42
0.000000001
 43
0.00000001
 40
0.0
 40
0.0
 40
0.0
 40
0.0
 40
1.0
 40
1.0
 40
1.0
 40
1.0
 10
11.99999999999999
 20
-12.11361622269767
 30
0.0
 10
11.66615833321111
 20
-11.82029258161414
 30
0.0
 10
11.33267709160781
 20
-11.5239367472819
 30
0.0
 10
10.99994277463184
 20
-11.22490330071681
 30
0.0
  0
SPLINE
  5
BE
330
1F
100
AcDbEntity
  8
외형선
  6
Continuous
370
    15
100
AcDbSpline
210
0.0
220
0.0
230
1.0
 70
     8
 71
     3
 72
     8
 73
     4
 74
     0
 42
0.000000001
 43
0.00000001
 40
0.0
 40
0.0
 40
0.0
 40
0.0
 40
1.0
 40
1.0
 40
1.0
 40
1.0
 10
11.99999999999999
 20
-17.10638699961531
 30
0.0
 10
11.6661583332111
 20
-16.85969890846925
 30
0.0
 10
11.33267709160778
 20
-16.60866852726905
 30
0.0
 10
10.99994277463179
 20
-16.35360208455536
 30
0.0
  0
LINE
  5
BF
330
1F
100
AcDbEntity
  8
외형선
  6
Continuous
370
    15
100
AcDbLine
 10
10.99994277463182
 20
-25.34494223404167
 30
0.0
 11
10.99994277463182
 21
-16.35359613969115
 31
0.0
  0
SPLINE
  5
C0
330
1F
100
AcDbEntity
  8
외형선
  6
Continuous
370
    15
100
AcDbSpline
210
0.0
220
0.0
230
1.0
 70
     8
 71
     3
 72
     8
 73
     4
 74
     0
 42
0.000000001
 43
0.00000001
 40
0.0
 40
0.0
 40
0.0
 40
0.0
 40
1.0
 40
1.0
 40
1.0
 40
1.0
 10
11.99999999999999
 20
-25.39110992204003
 30
0.0
 10
11.66615833321111
 20
-25.38228124070033
 30
0.0
 10
11.33267709160781
 20
-25.36687856797259
 30
0.0
 10
10.99994277463184
 20
-25.34494159504526
 30
0.0
  0
LINE
  5
C3
330
1F
100
AcDbEntity
  8
외형선
  6
Continuous
370
    15
100
AcDbLine
 10
-83.25000000000003
 20
-0.0000000000000051
 30
0.0
 11
-83.25000000000003
 21
20.32
 31
0.0
  0
SPLINE
  5
C5
330
1F
100
AcDbEntity
  8
외형선
  6
Continuous
370
    15
100
AcDbSpline
210
0.0
220
0.0
230
1.0
 70
    24
 71
     3
 72
    36
 73
    32
 74
     0
 42
0.000000001
 43
0.00000001
 40
0.0
 40
0.0
 40
0.0
 40
0.0
 40
0.0624999999999999
 40
0.0624999999999999
 40
0.1249999999999998
 40
0.1249999999999998
 40
0.1874999999999997
 40
0.1874999999999997
 40
0.2499999999999996
 40
0.2499999999999996
 40
0.3124999999999995
 40
0.3124999999999995
 40
0.3749999999999994
 40
0.3749999999999994
 40
0.4374999999999994
 40
0.4374999999999994
 40
0.4999999999999993
 40
0.4999999999999993
 40
0.5624999999999992
 40
0.5624999999999992
 40
0.6249999999999991
 40
0.6249999999999991
 40
0.7499999999999991
 40
0.7499999999999991
 40
0.8124999999999991
 40
0.8124999999999991
 40
0.8437499999999993
 40
0.8437499999999993
 40
0.8749999999999997
 40
0.8749999999999997
 40
1.0
 40
1.0
 40
1.0
 40
1.0
 10
11.99999999999998
 20
-12.11361622269749
 30
0.0
 10
11.99999999999998
 20
-11.93613115778979
 30
0.0
 10
11.99999999999996
 20
-11.69866153773548
 30
0.0
 10
11.99999999999996
 20
-11.09017169853898
 30
0.0
 10
11.99999999999999
 20
-10.71894449588186
 30
0.0
 10
12.0
 20
-9.843533654602172
 30
0.0
 10
11.99999999999998
 20
-9.339274754995994
 30
0.0
 10
11.99999999999999
 20
-8.217712618417682
 30
0.0
 10
11.99999999999996
 20
-7.600553581131798
 30
0.0
 10
11.99999999999999
 20
-6.291644658320473
 30
0.0
 10
12.00000000000003
 20
-5.600230847663303
 30
0.0
 10
12.00000000000003
 20
-4.192356762406327
 30
0.0
 10
12.0
 20
-3.476275894835357
 30
0.0
 10
12.0
 20
-2.068321616121469
 30
0.0
 10
11.99999999999999
 20
-1.376706266474758
 30
0.0
 10
12.0
 20
-0.0565031890262552
 30
0.0
 10
11.99999999999999
 20
0.5720171335787617
 30
0.0
 10
11.99999999999996
 20
1.742677354315558
 30
0.0
 10
12.0
 20
2.28490012106151
 30
0.0
 10
12.0
 20
3.274617105354366
 30
0.0
 10
11.99999999999999
 20
3.722258558495958
 30
0.0
 10
12.00000000000002
 20
4.927392275258747
 30
0.0
 10
11.99999999999996
 20
5.546100606061088
 30
0.0
 10
11.99999999999998
 20
6.262108659476723
 30
0.0
 10
11.99999999999999
 20
6.46583719021179
 30
0.0
 10
11.99999999999999
 20
6.728420776816185
 30
0.0
 10
12.0
 20
6.807758815222225
 30
0.0
 10
11.99999999999999
 20
6.958375852361263
 30
0.0
 10
11.99999999999998
 20
7.031126456764451
 30
0.0
 10
11.99999999999993
 20
7.378044023999159
 30
0.0
 10
11.99999999999999
 20
7.604244693910671
 30
0.0
 10
11.99999999999999
 20
7.70714606812605
 30
0.0
  0
SPLINE
  5
C6
330
1F
100
AcDbEntity
  8
외형선
  6
Continuous
370
    15
100
AcDbSpline
210
0.0
220
0.0
230
1.0
 70
    24
 71
     3
 72
    15
 73
    11
 74
     0
 42
0.000000001
 43
0.00000001
 40
0.0
 40
0.0
 40
0.0
 40
0.0
 40
0.1381849388583248
 40
0.2764213244607908
 40
0.4146577100632567
 40
0.5528940956657292
 40
0.6911304812682014
 40
0.8293668668706717
 40
0.967603252473142
 40
1.0
 40
1.0
 40
1.0
 40
1.0
 10
11.99999999999999
 20
13.38899931471482
 30
0.0
 10
11.99999999999996
 20
13.80507001440775
 30
0.0
 10
11.99999999999993
 20
14.63736631839471
 30
0.0
 10
12.00000000000002
 20
16.11602382868453
 30
0.0
 10
11.99999999999998
 20
17.70776735451264
 30
0.0
 10
11.99999999999996
 20
19.39008022990661
 30
0.0
 10
11.99999999999986
 20
21.10811591437681
 30
0.0
 10
11.99999999999991
 20
22.81350985160839
 30
0.0
 10
12.00000000000014
 20
24.04306496568502
 30
0.0
 10
11.99999999999995
 20
24.69059224494052
 30
0.0
 10
11.99999999999993
 20
24.81353306773426
 30
0.0
  0
SPLINE
  5
C7
330
1F
100
AcDbEntity
  8
외형선
  6
Continuous
370
    15
100
AcDbSpline
210
0.0
220
0.0
230
1.0
 70
    24
 71
     3
 72
    14
 73
    10
 74
     0
 42
0.000000001
 43
0.00000001
 40
0.0
 40
0.0
 40
0.0
 40
0.0
 40
0.0005193144106126
 40
0.200153190788662
 40
0.3997870671667112
 40
0.5994209435447617
 40
0.7990548199228118
 40
0.9986886963008634
 40
1.0
 40
1.0
 40
1.0
 40
1.0
 10
11.99999999999998
 20
-25.39110992204003
 30
0.0
 10
11.99999999999998
 20
-25.38966397666789
 30
0.0
 10
11.99999999999927
 20
-24.83237041033285
 30
0.0
 10
12.00000000000034
 20
-23.69461191010984
 30
0.0
 10
11.99999999999989
 20
-21.97685788271139
 30
0.0
 10
12.00000000000009
 20
-20.2852121226774
 30
0.0
 10
11.99999999999948
 20
-18.69374848415605
 30
0.0
 10
12.000000000001
 20
-17.65992744947477
 30
0.0
 10
11.99999999999995
 20
-17.22075849054707
 30
0.0
 10
11.99999999999995
 20
-17.21789261498754
 30
0.0
  0
LINE
  5
C8
330
1F
100
AcDbEntity
  8
중심선
100
AcDbLine
 10
-86.25000000000003
 20
-0.0000000000000112
 30
0.0
 11
65.79999999999998
 21
0.0000000000000083
 31
0.0
  0
LINE
  5
C9
330
1F
100
AcDbEntity
  8
참조1
100
AcDbLine
 10
-10.22500000000003
 20
-0.0000000000000108
 30
0.0
 11
-10.22500000000003
 21
-40.00000000000001
 31
0.0
  0
LINE
  5
CA
330
1F
100
AcDbEntity
  8
참조1
100
AcDbLine
 10
-10.22500000000003
 20
-40.00000000000001
 30
0.0
 11
-50.78385681430871
 21
-40.00000000000001
 31
0.0
  0
CIRCLE
  5
CB
330
1F
100
AcDbEntity
  8
해칭선
100
AcDbCircle
 10
-0.0000000000000138
 20
-0.0010749287239
 30
0.0
 40
3.000000000000001
  0
INSERT
  5
CC
330
1F
100
AcDbEntity
  8
0
  6
Continuous
 62
     7
100
AcDbBlockReference
 66
     1
  2
블럭10
 10
-24.16527293212524
 20
-52.04717430164394
 30
0.0
  0
ATTRIB
  5
CD
330
CC
100
AcDbEntity
  8
FORMAT
 62
     2
100
AcDbText
 10
-33.34656822086652
 20
-49.97180738881175
 30
0.0
 40
4.233333333333333
  1
E2032910 [ 6 FLUTE ]
 41
0.75
  7
SLDTEXTSTYLE0
 11
-33.34656822086652
 21
-52.08847405547842
 31
0.0
100
AcDbAttribute
  2
AUTOATTR0
 70
     0
 74
     1
  0
SEQEND
  5
CE
330
CC
100
AcDbEntity
  8
0
  6
Continuous
 62
     7
  0
HATCH
  5
CF
330
1F
100
AcDbEntity
  8
중심선
100
AcDbHatch
 10
0.0
 20
0.0
 30
0.0
210
0.0
220
0.0
230
1.0
  2
SOLID
 70
     1
 71
     0
 91
        1
 92
        0
 93
        4
 72
     1
 10
-18.45036362774439
 20
-35.8
 11
-21.89663887158168
 21
-35.8
 72
     1
 10
-21.89663887158168
 20
-35.8
 11
-24.0248687307857
 21
-38.33632558057261
 72
     1
 10
-24.0248687307857
 20
-38.33632558057261
 11
-20.57856040183527
 21
-38.33628615127012
 72
     1
 10
-20.57856040183527
 20
-38.33628615127012
 11
-18.45036362774439
 21
-35.8
 97
        0
 75
     0
 76
     1
 98
        1
 10
-0.0000000000000138
 20
-0.0010749287239
  0
HATCH
  5
D0
330
1F
100
AcDbEntity
  8
중심선
100
AcDbHatch
 10
0.0
 20
0.0
 30
0.0
210
0.0
220
0.0
230
1.0
  2
SOLID
 70
     1
 71
     0
 91
        1
 92
        0
 93
        4
 72
     1
 10
-13.43759963670839
 20
-35.8
 11
-16.88387488054567
 21
-35.79999999999998
 72
     1
 10
-16.88387488054567
 20
-35.79999999999998
 11
-21.41501288890311
 21
-41.20000000000002
 72
     1
 10
-21.41501288890311
 20
-41.20000000000002
 11
-17.96873764506583
 21
-41.20000000000002
 72
     1
 10
-17.96873764506583
 20
-41.20000000000002
 11
-13.43759963670839
 21
-35.8
 97
        0
 75
     0
 76
     1
 98
        1
 10
-0.0000000000000138
 20
-0.0010749287239
  0
HATCH
  5
D1
330
1F
100
AcDbEntity
  8
중심선
100
AcDbHatch
 10
0.0
 20
0.0
 30
0.0
210
0.0
220
0.0
230
1.0
  2
SOLID
 70
     1
 71
     0
 91
        1
 92
        0
 93
        4
 72
     1
 10
-8.424835645672548
 20
-35.8
 11
-11.87111088950961
 21
-35.79999999999998
 72
     1
 10
-11.87111088950961
 20
-35.79999999999998
 11
-18.91954779139891
 21
-44.20000000000002
 72
     1
 10
-18.91954779139891
 20
-44.20000000000002
 11
-15.47327254756163
 21
-44.20000000000002
 72
     1
 10
-15.47327254756163
 20
-44.20000000000002
 11
-8.424835645672548
 21
-35.8
 97
        0
 75
     0
 76
     1
 98
        1
 10
-0.0000000000000138
 20
-0.0010749287239
  0
HATCH
  5
D2
330
1F
100
AcDbEntity
  8
중심선
100
AcDbHatch
 10
0.0
 20
0.0
 30
0.0
210
0.0
220
0.0
230
1.0
  2
SOLID
 70
     1
 71
     0
 91
        1
 92
        0
 93
        6
 72
     3
 10
-3.624945214660349
 20
-40.00000000005128
 11
3.960054785062284
 21
1.540882976769353E-10
 40
0.3939339440162627
 50
17.09539180608438
 51
320.0019657685081
 73
     0
 72
     1
 10
-1.941945558959754
 20
-38.58789400463831
 11
0.3633563147413117
 21
-36.65356729459039
 72
     3
 10
-3.624945214713196
 20
-40.00000000000016
 11
6.600054785286829
 21
-1.278976924368180E-13
 40
0.636358354079598
 50
39.99873849337385
 51
368.4976242363724
 73
     1
 72
     1
 10
2.800387277187414
 20
-39.03999999993003
 11
-4.944877907877274
 21
-39.03999999993
 72
     1
 10
-4.944877907877274
 20
-39.03999999993
 11
-4.944902952323208
 21
-40.95999999992992
 72
     1
 10
-4.944902952323208
 20
-40.95999999992992
 11
-0.503523182851171
 21
-40.95999999992989
 97
        0
 75
     0
 76
     1
 98
        1
 10
-0.0000000000000138
 20
-0.0010749287239
  0
DIMENSION
  5
D3
330
1F
100
AcDbEntity
  8
치수문자_일반주서
100
AcDbDimension
  2
_D
 10
-111.2499999999999
 20
-25.40000000000009
 30
0.0
 11
-111.25
 21
-0.0000000000000002
 31
0.0
 70
   160
  1
%%c<>
 71
     2
 42
50.80000000000002
 52
-270.0
  3
SLDDIMSTYLE0
100
AcDbAlignedDimension
 13
-83.31250000000003
 23
25.40000000000003
 33
0.0
 14
-82.25000000000003
 24
-25.39999999999998
 34
0.0
 50
90.0000000000002
100
AcDbRotatedDimension
1001
ACAD
1000
DSTYLE
1002
{
1070
   171
1070
     6
1070
   273
1070
     7
1002
}
  0
DIMENSION
  5
E6
330
1F
100
AcDbEntity
  8
치수문자_일반주서
100
AcDbDimension
  2
_D_1
 10
11.99999999999998
 20
47.75463133356092
 30
0.0
 11
37.39999999999998
 21
47.75463133356092
 31
0.0
 70
   160
  1
<>
 71
     2
 42
50.8
  3
SLDDIMSTYLE0
100
AcDbAlignedDimension
 13
62.79999999999998
 23
25.21464479297017
 33
0.0
 14
11.99999999999998
 24
25.4
 34
0.0
100
AcDbRotatedDimension
1001
ACAD
1000
DSTYLE
1002
{
1070
   171
1070
     6
1070
   273
1070
     7
1002
}
  0
DIMENSION
  5
F9
330
1F
100
AcDbEntity
  8
치수문자_일반주서
100
AcDbDimension
  2
_D_2
 10
-83.25000000000003
 20
59.75463133356094
 30
0.0
 11
-10.22500000000003
 21
59.75463133356094
 31
0.0
 70
   160
  1
<>
 71
     2
 42
146.05
  3
SLDDIMSTYLE0
100
AcDbAlignedDimension
 13
62.79999999999998
 23
25.21464479297017
 33
0.0
 14
-83.25000000000003
 24
20.32000000000001
 34
0.0
 50
0.0000000000000056
100
AcDbRotatedDimension
1001
ACAD
1000
DSTYLE
1002
{
1070
   171
1070
     6
1070
   273
1070
     7
1002
}
  0
DIMENSION
  5
10D
330
1F
100
AcDbEntity
  8
치수문자_일반주서
100
AcDbDimension
  2
_D_3
 10
90.8000000000001
 20
-25.3999999999999
 30
0.0
 11
90.80000000000001
 21
-0.0000000000000071
 31
0.0
 70
   160
  1
%%c<>
 71
     2
 42
50.80000000000001
 52
-270.0
  3
SLDDIMSTYLE0
100
AcDbAlignedDimension
 13
62.79999999999998
 23
25.4
 33
0.0
 14
62.79999999999998
 24
-25.40000000000001
 34
0.0
 50
90.0000000000002
100
AcDbRotatedDimension
1001
ACAD
1000
DSTYLE
1002
{
1070
   171
1070
     6
1070
   273
1070
     7
1002
}
  0
LINE
  5
11F
330
1F
100
AcDbEntity
  8
참조1
100
AcDbLine
 10
47.18848381534556
 20
7.439999999999996
 30
0.0
 11
47.18848381534556
 21
-7.440000000000008
 31
0.0
  0
LINE
  5
120
330
1F
100
AcDbEntity
  8
참조1
100
AcDbLine
 10
59.88848381534556
 20
5.439999999999996
 30
0.0
 11
47.18848381534556
 21
5.439999999999996
 31
0.0
  0
SOLID
  5
121
330
1F
100
AcDbEntity
  8
참조1
100
AcDbTrace
 10
47.18848381534556
 20
5.439999999999996
 30
0.0
 11
53.53848381534556
 21
4.423999999999996
 31
0.0
 12
53.53848381534556
 22
6.455999999999996
 32
0.0
 13
53.53848381534556
 23
6.455999999999996
 33
0.0
  0
LINE
  5
122
330
1F
100
AcDbEntity
  8
참조1
100
AcDbLine
 10
59.88848381534556
 20
-5.440000000000008
 30
0.0
 11
47.18848381534556
 21
-5.440000000000008
 31
0.0
  0
SOLID
  5
123
330
1F
100
AcDbEntity
  8
참조1
100
AcDbTrace
 10
47.18848381534556
 20
-5.440000000000008
 30
0.0
 11
53.53848381534556
 21
-6.456000000000008
 31
0.0
 12
53.53848381534556
 22
-4.424000000000008
 32
0.0
 13
53.53848381534556
 23
-4.424000000000008
 33
0.0
  0
MTEXT
  5
124
330
1F
100
AcDbEntity
  8
참조1
100
AcDbMText
 10
56.58597390781584
 20
10.98821664464993
 30
0.0
 40
3.5
 41
0.0
 71
     1
 72
     1
  1
A
  7
SLDTEXTSTYLE0
 73
     1
 44
1.0
  0
MTEXT
  5
125
330
1F
100
AcDbEntity
  8
참조1
100
AcDbMText
 10
56.58597390781584
 20
0.108216644649925
 30
0.0
 40
3.5
 41
0.0
 71
     1
 72
     1
  1
A
  7
SLDTEXTSTYLE0
 73
     1
 44
1.0
  0
INSERT
  5
12C
330
1F
100
AcDbEntity
  8
해칭선
100
AcDbBlockReference
  2
SW_DOWELSYMBOL_0
 10
0.0000000000000004
 20
-0.0000000000000002
 30
0.0
  0
LINE
  5
306
330
1F
100
AcDbEntity
  8
외형선
  6
Continuous
370
    15
100
AcDbLine
 10
-78.17000000000003
 20
-25.40000000000001
 30
0.0
 11
-73.725
 21
-25.40000000000001
 31
0.0
  0
LINE
  5
307
330
1F
100
AcDbEntity
  8
외형선
  6
Continuous
370
    15
100
AcDbLine
 10
11.0003350172281
 20
25.39999999999999
 30
0.0
 11
-28.18280000000004
 21
25.39999999999999
 31
0.0
  0
LINE
  5
308
330
1F
100
AcDbEntity
  8
외형선
  6
Continuous
370
    15
100
AcDbLine
 10
-83.25000000000003
 20
0.0
 30
0.0
 11
-83.25000000000003
 21
20.32000000000001
 31
0.0
  0
LINE
  5
30D
330
1F
100
AcDbEntity
  8
외형선
  6
Continuous
370
    15
100
AcDbLine
 10
-83.25000000000003
 20
-20.32000000000002
 30
0.0
 11
-83.25000000000003
 21
0.0
 31
0.0
  0
LINE
  5
30E
330
1F
100
AcDbEntity
  8
외형선
  6
Continuous
370
    15
100
AcDbLine
 10
10.99968921090576
 20
25.40000000000001
 30
0.0
 11
-28.18280000000001
 21
25.40000000000001
 31
0.0
  0
LINE
  5
30F
330
1F
100
AcDbEntity
  8
외형선
  6
Continuous
370
    15
100
AcDbLine
 10
-83.25000000000003
 20
-20.31999999999999
 30
0.0
 11
-83.25000000000003
 21
0.0
 31
0.0
  0
LINE
  5
310
330
1F
100
AcDbEntity
  8
외형선
  6
Continuous
370
    15
100
AcDbLine
 10
8.949890311373707
 20
25.40000000000002
 30
0.0
 11
-28.18280000000001
 21
25.40000000000002
 31
0.0
  0
LINE
  5
311
330
1F
100
AcDbEntity
  8
외형선
  6
Continuous
370
    15
100
AcDbLine
 10
-82.25000000000003
 20
-25.39999999999998
 30
0.0
 11
-73.725
 21
-25.39999999999998
 31
0.0
  0
LINE
  5
312
330
1F
100
AcDbEntity
  8
외형선
  6
Continuous
370
    15
100
AcDbLine
 10
-83.25000000000003
 20
-24.39999999999998
 30
0.0
 11
-82.25000000000003
 21
-25.39999999999998
 31
0.0
  0
LINE
  5
313
330
1F
100
AcDbEntity
  8
외형선
  6
Continuous
370
    15
100
AcDbLine
 10
-82.25000000000003
 20
19.86280000000004
 30
0.0
 11
-82.25000000000003
 21
-25.39999999999998
 31
0.0
  0
LINE
  5
314
330
1F
100
AcDbEntity
  8
외형선
  6
Continuous
370
    15
100
AcDbLine
 10
-83.25000000000003
 20
19.86280000000004
 30
0.0
 11
-83.25000000000003
 21
-24.39999999999998
 31
0.0
  0
LINE
  5
316
330
1F
100
AcDbEntity
  8
외형선
  6
Continuous
370
    15
100
AcDbLine
 10
-47.69000000000003
 20
-14.82489881786719
 30
0.0
 11
-47.69000000000003
 21
14.82489881786719
 31
0.0
  0
LINE
  5
317
330
1F
100
AcDbEntity
  8
외형선
  6
Continuous
370
    15
100
AcDbLine
 10
-47.69000000000003
 20
14.82489881786719
 30
0.0
 11
-29.91
 21
14.82489881786719
 31
0.0
  0
LINE
  5
318
330
1F
100
AcDbEntity
  8
외형선
  6
Continuous
370
    15
100
AcDbLine
 10
-47.69000000000003
 20
-14.82489881786719
 30
0.0
 11
-29.91
 21
-14.82489881786719
 31
0.0
  0
LINE
  5
319
330
1F
100
AcDbEntity
  8
외형선
  6
Continuous
370
    15
100
AcDbLine
 10
-29.91
 20
14.82489881786719
 30
0.0
 11
-29.91
 21
-14.82489881786719
 31
0.0
  0
SPLINE
  5
31A
330
1F
100
AcDbEntity
  8
외형선
  6
Continuous
370
    15
100
AcDbSpline
210
0.0
220
0.0
230
1.0
 70
  1064
 71
     3
 72
     9
 73
     5
 74
     3
 42
0.000000001
 43
0.0000000001
 44
0.0
 40
0.0
 40
0.0
 40
0.0
 40
0.0
 40
15.44052883416384
 40
30.88105766832772
 40
30.88105766832772
 40
30.88105766832772
 40
30.88105766832772
 10
-47.69000000000003
 20
14.82489881786719
 30
0.0
 10
-49.84825773012897
 20
9.883265878578138
 30
0.0
 10
-54.16477319038688
 20
0.0000000000000124
 30
0.0
 10
-49.84825773012899
 20
-9.88326587857812
 30
0.0
 10
-47.69000000000003
 20
-14.82489881786719
 30
0.0
 11
-47.69000000000003
 21
14.82489881786719
 31
0.0
 11
-52.00651546025793
 21
0.0000000000000284
 31
0.0
 11
-47.69000000000003
 21
-14.82489881786719
 31
0.0
  0
SPLINE
  5
31B
330
1F
100
AcDbEntity
  8
외형선
  6
Continuous
370
    15
100
AcDbSpline
210
0.0
220
0.0
230
1.0
 70
  1064
 71
     3
 72
     9
 73
     5
 74
     3
 42
0.000000001
 43
0.0000000001
 44
0.0
 40
0.0
 40
0.0
 40
0.0
 40
0.0
 40
15.44052883416384
 40
30.88105766832772
 40
30.88105766832772
 40
30.88105766832772
 40
30.88105766832772
 10
-29.91
 20
14.82489881786719
 30
0.0
 10
-27.75174226987104
 20
9.883265878578138
 30
0.0
 10
-23.43522680961314
 20
0.0000000000000124
 30
0.0
 10
-27.75174226987104
 20
-9.88326587857812
 30
0.0
 10
-29.91
 20
-14.82489881786719
 30
0.0
 11
-29.91
 21
14.82489881786719
 31
0.0
 11
-25.59348453974209
 21
0.0000000000000284
 31
0.0
 11
-29.91
 21
-14.82489881786719
 31
0.0
  0
LINE
  5
31C
330
1F
100
AcDbEntity
  8
외형선
  6
Continuous
370
    15
100
AcDbLine
 10
-61.02500000000001
 20
25.40000000000002
 30
0.0
 11
-61.02500000000001
 21
-25.39999999999998
 31
0.0
  0
LINE
  5
31D
330
1F
100
AcDbEntity
  8
외형선
  6
Continuous
370
    15
100
AcDbLine
 10
-73.725
 20
19.86280000000004
 30
0.0
 11
-73.725
 21
-25.39999999999998
 31
0.0
  0
LINE
  5
31E
330
1F
100
AcDbEntity
  8
외형선
  6
Continuous
370
    15
100
AcDbLine
 10
-61.02500000000001
 20
-25.39999999999998
 30
0.0
 11
8.949890311373707
 21
-25.39999999999995
 31
0.0
  0
LINE
  5
31F
330
1F
100
AcDbEntity
  8
외형선
  6
Continuous
370
    15
100
AcDbLine
 10
-61.02500000000001
 20
25.01900000000001
 30
0.0
 11
-61.02500000000001
 21
-25.01899999999998
 31
0.0
  0
LINE
  5
320
330
1F
100
AcDbEntity
  8
외형선
  6
Continuous
370
    15
100
AcDbLine
 10
-61.02500000000001
 20
25.01900000000001
 30
0.0
 11
-61.59680376681743
 21
25.01900000000001
 31
0.0
  0
LINE
  5
321
330
1F
100
AcDbEntity
  8
외형선
  6
Continuous
370
    15
100
AcDbLine
 10
-61.02500000000001
 20
-25.01899999999998
 30
0.0
 11
-73.725
 21
-25.01899999999998
 31
0.0
  0
LINE
  5
322
330
1F
100
AcDbEntity
  8
외형선
  6
Continuous
370
    15
100
AcDbLine
 10
-48.45199999999997
 20
22.91080000000002
 30
0.0
 11
-30.672
 21
22.91080000000002
 31
0.0
  0
LINE
  5
323
330
1F
100
AcDbEntity
  8
외형선
  6
Continuous
370
    15
100
AcDbLine
 10
-48.45199999999997
 20
22.91080000000002
 30
0.0
 11
-50.94120000000001
 21
25.40000000000002
 31
0.0
  0
LINE
  5
324
330
1F
100
AcDbEntity
  8
외형선
  6
Continuous
370
    15
100
AcDbLine
 10
-30.672
 20
22.91080000000002
 30
0.0
 11
-28.18280000000001
 21
25.40000000000002
 31
0.0
  0
LINE
  5
325
330
1F
100
AcDbEntity
  8
외형선
  6
Continuous
370
    15
100
AcDbLine
 10
-62.09180000000001
 20
23.07205154696246
 30
0.0
 11
-62.09180000000001
 21
-6.942039972351381
 31
0.0
  0
LINE
  5
326
330
1F
100
AcDbEntity
  8
외형선
  6
Continuous
370
    15
100
AcDbLine
 10
-82.25000000000003
 20
19.86280000000004
 30
0.0
 11
-82.25000000000003
 21
-25.39999999999998
 31
0.0
  0
LINE
  5
327
330
1F
100
AcDbEntity
  8
외형선
  6
Continuous
370
    15
100
AcDbLine
 10
-67.92357134821705
 20
19.86280000000004
 30
0.0
 11
-83.25000000000003
 21
19.86280000000004
 31
0.0
  0
ARC
  5
328
330
1F
100
AcDbEntity
  8
외형선
  6
Continuous
370
    15
100
AcDbCircle
 10
-67.17179999999999
 20
25.40000000000002
 30
0.0
 40
5.588
100
AcDbArc
 50
262.2683738127856
 51
356.0904364753406
  0
LINE
  5
329
330
1F
100
AcDbEntity
  8
외형선
  6
Continuous
370
    15
100
AcDbLine
 10
-71.87515845852457
 20
19.86280000000004
 30
0.0
 11
-71.87515845852457
 21
-6.942039972351381
 31
0.0
  0
ARC
  5
32A
330
1F
100
AcDbEntity
  8
외형선
  6
Continuous
370
    15
100
AcDbCircle
 10
-66.98347922926231
 20
-6.942039972351381
 30
0.0
 40
4.891679229262294
100
AcDbArc
 50
180.0
 51
0.0
  0
LINE
  5
32B
330
1F
100
AcDbEntity
  8
외형선
  6
Continuous
370
    15
100
AcDbLine
 10
-50.94120000000001
 20
25.40000000000001
 30
0.0
 11
-61.02500000000001
 21
25.40000000000001
 31
0.0
  0
LINE
  5
32C
330
1F
100
AcDbEntity
  8
외형선
  6
Continuous
370
    15
100
AcDbLine
 10
-61.02500000000001
 20
-25.39999999999998
 30
0.0
 11
12.00000000000003
 21
-25.39999999999998
 31
0.0
  0
LINE
  5
32D
330
1F
100
AcDbEntity
  8
외형선
  6
Continuous
370
    15
100
AcDbLine
 10
12.00000000000003
 20
25.40000000000001
 30
0.0
 11
-28.18280000000001
 21
25.40000000000001
 31
0.0
  0
LINE
  5
32E
330
1F
100
AcDbEntity
  8
외형선
  6
Continuous
370
    15
100
AcDbLine
 10
-78.17000000000004
 20
-25.39999999999998
 30
0.0
 11
-73.725
 21
-25.39999999999998
 31
0.0
  0
LINE
  5
32F
330
1F
100
AcDbEntity
  8
외형선
  6
Continuous
370
    15
100
AcDbLine
 10
-50.94120000000001
 20
25.40000000000001
 30
0.0
 11
-61.02500000000001
 21
25.40000000000001
 31
0.0
  0
LINE
  5
330
330
1F
100
AcDbEntity
  8
외형선
  6
Continuous
370
    15
100
AcDbLine
 10
-61.02500000000001
 20
-25.39999999999998
 30
0.0
 11
10.99968921090576
 21
-25.39999999999998
 31
0.0
  0
LINE
  5
331
330
1F
100
AcDbEntity
  8
외형선
  6
Continuous
370
    15
100
AcDbLine
 10
-61.02500000000001
 20
-25.39999999999998
 30
0.0
 11
11.0002226029695
 21
-25.39999999999998
 31
0.0
  0
LINE
  5
332
330
1F
100
AcDbEntity
  8
외형선
  6
Continuous
370
    15
100
AcDbLine
 10
-78.17000000000004
 20
-25.39999999999998
 30
0.0
 11
-73.725
 21
-25.39999999999998
 31
0.0
  0
LINE
  5
333
330
1F
100
AcDbEntity
  8
외형선
  6
Continuous
370
    15
100
AcDbLine
 10
-50.94120000000001
 20
25.40000000000001
 30
0.0
 11
-61.02500000000001
 21
25.40000000000001
 31
0.0
  0
LINE
  5
334
330
1F
100
AcDbEntity
  8
외형선
  6
Continuous
370
    15
100
AcDbLine
 10
-78.17000000000004
 20
-25.39999999999998
 30
0.0
 11
-73.725
 21
-25.39999999999998
 31
0.0
  0
LINE
  5
335
330
1F
100
AcDbEntity
  8
외형선
  6
Continuous
370
    15
100
AcDbLine
 10
11.0002226029695
 20
25.40000000000001
 30
0.0
 11
-28.18280000000001
 21
25.40000000000001
 31
0.0
  0
LINE
  5
336
330
1F
100
AcDbEntity
  8
외형선
  6
Continuous
370
    15
100
AcDbLine
 10
-61.02500000000001
 20
-25.40000000000001
 30
0.0
 11
11.00009137382503
 21
-25.40000000000001
 31
0.0
  0
LINE
  5
337
330
1F
100
AcDbEntity
  8
외형선
  6
Continuous
370
    15
100
AcDbLine
 10
-78.17000000000004
 20
-25.40000000000001
 30
0.0
 11
-73.725
 21
-25.40000000000001
 31
0.0
  0
LINE
  5
338
330
1F
100
AcDbEntity
  8
외형선
  6
Continuous
370
    15
100
AcDbLine
 10
-50.94119999999998
 20
25.39999999999999
 30
0.0
 11
-61.02500000000004
 21
25.39999999999999
 31
0.0
  0
LINE
  5
339
330
1F
100
AcDbEntity
  8
외형선
  6
Continuous
370
    15
100
AcDbLine
 10
11.00009137382503
 20
25.39999999999999
 30
0.0
 11
-28.18280000000007
 21
25.39999999999999
 31
0.0
  0
LINE
  5
33A
330
1F
100
AcDbEntity
  8
외형선
  6
Continuous
370
    15
100
AcDbLine
 10
-50.94119999999998
 20
25.39999999999999
 30
0.0
 11
-61.02500000000001
 21
25.39999999999999
 31
0.0
  0
LINE
  5
33B
330
1F
100
AcDbEntity
  8
외형선
  6
Continuous
370
    15
100
AcDbLine
 10
-61.02500000000001
 20
-25.40000000000001
 30
0.0
 11
11.0003350172281
 21
-25.40000000000001
 31
0.0
  0
LINE
  5
354
330
1F
100
AcDbEntity
  8
외형선
  6
Continuous
370
    15
100
AcDbLine
 10
-61.02500000000001
 20
-25.40000000000001
 30
0.0
 11
11.99999999999999
 21
-25.40000000000001
 31
0.0
  0
LINE
  5
355
330
1F
100
AcDbEntity
  8
외형선
  6
Continuous
370
    15
100
AcDbLine
 10
-50.94120000000001
 20
25.4
 30
0.0
 11
-61.02500000000001
 21
25.4
 31
0.0
  0
ENDSEC
  0
SECTION
  2
OBJECTS
  0
DICTIONARY
  5
C
330
0
100
AcDbDictionary
281
     1
  3
ACAD_GROUP
350
D
  3
ACAD_IMAGE_VARS
350
173
  3
ACAD_LAYOUT
350
1A
  3
ACAD_MLINESTYLE
350
17
  3
ACAD_PLOTSETTINGS
350
19
  3
ACAD_PLOTSTYLENAME
350
E
  3
ACAD_SCALELIST
350
47
  3
APPDATA
350
14E
  3
DWGPROPS
350
356
  0
DICTIONARY
  5
20C
330
2
100
AcDbDictionary
280
     1
281
     1
  3
ACAD_LAYERSTATES
360
20D
  0
DICTIONARY
  5
D
102
{ACAD_REACTORS
330
C
102
}
330
C
100
AcDbDictionary
281
     1
  0
RASTERVARIABLES
  5
173
102
{ACAD_REACTORS
330
C
102
}
330
C
100
AcDbRasterVariables
 90
        0
 70
     1
 71
     1
 72
     1
  0
DICTIONARY
  5
1A
102
{ACAD_REACTORS
330
C
102
}
330
C
100
AcDbDictionary
281
     1
  3
Layout1
350
1E
  3
Layout2
350
26
  3
Model
350
22
  0
DICTIONARY
  5
17
102
{ACAD_REACTORS
330
C
102
}
330
C
100
AcDbDictionary
281
     1
  3
Standard
350
18
  0
DICTIONARY
  5
19
102
{ACAD_REACTORS
330
C
102
}
330
C
100
AcDbDictionary
281
     1
  0
ACDBDICTIONARYWDFLT
  5
E
102
{ACAD_REACTORS
330
C
102
}
330
C
100
AcDbDictionary
281
     1
  3
Normal
350
F
100
AcDbDictionaryWithDefault
340
F
  0
DICTIONARY
  5
47
102
{ACAD_REACTORS
330
C
102
}
330
C
100
AcDbDictionary
281
     1
  3
A0
350
48
  3
A1
350
49
  3
A2
350
4A
  3
A3
350
4B
  3
A4
350
4C
  3
A5
350
4D
  3
A6
350
4E
  3
A7
350
4F
  3
A8
350
50
  3
A9
350
51
  3
B0
350
52
  3
B1
350
53
  3
B2
350
54
  3
B3
350
55
  3
B4
350
56
  3
B5
350
57
  3
B6
350
58
  3
B7
350
59
  3
B8
350
5A
  3
B9
350
5B
  3
C0
350
5C
  3
C1
350
5D
  3
C2
350
5E
  3
C3
350
5F
  3
C4
350
60
  3
C5
350
61
  3
C6
350
62
  3
C7
350
63
  3
C8
350
64
  3
C9
350
65
  3
D0
350
66
  3
D1
350
67
  3
D2
350
68
  0
DICTIONARY
  5
14E
102
{ACAD_REACTORS
330
C
102
}
330
C
100
AcDbDictionary
281
     1
  0
XRECORD
  5
356
102
{ACAD_REACTORS
330
C
102
}
330
C
100
AcDbXrecord
280
     1
  1
DWGPROPS COOKIE
  2

  3

  4

  6

  7

  8
12017012
  9

300
=
301
=
302
=
303
=
304
=
305
=
306
=
307
=
308
=
309
=
 40
0.0
 41
2458323.071183576
 42
2458324.032753773
  1

 90
        0
  0
DICTIONARY
  5
20D
102
{ACAD_REACTORS
330
20C
102
}
330
20C
100
AcDbDictionary
281
     1
  0
LAYOUT
  5
1E
102
{ACAD_REACTORS
330
1A
102
}
330
1A
100
AcDbPlotSettings
  1

  2
none_device
  4

  6

 40
0.0
 41
0.0
 42
0.0
 43
0.0
 44
0.0
 45
0.0
 46
0.0
 47
0.0
 48
0.0
 49
0.0
140
0.0
141
0.0
142
1.0
143
1.0
 70
   688
 72
     1
 73
     0
 74
     5
  7

 75
    16
147
1.0
148
0.0
149
0.0
100
AcDbLayout
  1
Layout1
 70
     1
 71
     1
 10
0.0
 20
0.0
 11
420.0
 21
297.0
 12
0.0
 22
0.0
 32
0.0
 14
1.000000000000000E+20
 24
1.000000000000000E+20
 34
1.000000000000000E+20
 15
-1.000000000000000E+20
 25
-1.000000000000000E+20
 35
-1.000000000000000E+20
146
0.0
 13
0.0
 23
0.0
 33
0.0
 16
1.0
 26
0.0
 36
0.0
 17
0.0
 27
1.0
 37
0.0
 76
     0
330
1B
  0
LAYOUT
  5
26
102
{ACAD_REACTORS
330
1A
102
}
330
1A
100
AcDbPlotSettings
  1

  2
none_device
  4

  6

 40
0.0
 41
0.0
 42
0.0
 43
0.0
 44
0.0
 45
0.0
 46
0.0
 47
0.0
 48
0.0
 49
0.0
140
0.0
141
0.0
142
1.0
143
1.0
 70
   688
 72
     1
 73
     0
 74
     5
  7

 75
    16
147
1.0
148
0.0
149
0.0
100
AcDbLayout
  1
Layout2
 70
     1
 71
     2
 10
0.0
 20
0.0
 11
0.0
 21
0.0
 12
0.0
 22
0.0
 32
0.0
 14
0.0
 24
0.0
 34
0.0
 15
0.0
 25
0.0
 35
0.0
146
0.0
 13
0.0
 23
0.0
 33
0.0
 16
1.0
 26
0.0
 36
0.0
 17
0.0
 27
1.0
 37
0.0
 76
     0
330
23
  0
LAYOUT
  5
22
102
{ACAD_REACTORS
330
1A
102
}
330
1A
100
AcDbPlotSettings
  1

  2
none_device
  4
ANSI_A_(11.00_x_8.50_Inches)
  6

 40
6.35
 41
19.05
 42
6.35000508
 43
19.05000254
 44
279.4
 45
215.9
 46
152.9095976506108
 47
76.07241973236755
 48
0.0
 49
0.0
140
0.0
141
0.0
142
0.0509252396554428
143
1.0
 70
  1696
 72
     0
 73
     0
 74
     0
  7

 75
     0
147
0.0235690232323232
148
0.0
149
0.0
100
AcDbLayout
  1
Model
 70
     1
 71
     0
 10
0.0
 20
0.0
 11
420.0
 21
297.0
 12
0.0
 22
0.0
 32
0.0
 14
1.000000000000000E+20
 24
1.000000000000000E+20
 34
1.000000000000000E+20
 15
-1.000000000000000E+20
 25
-1.000000000000000E+20
 35
-1.000000000000000E+20
146
0.0
 13
0.0
 23
0.0
 33
0.0
 16
1.0
 26
0.0
 36
0.0
 17
0.0
 27
1.0
 37
0.0
 76
     0
330
1F
331
29
  0
MLINESTYLE
  5
18
102
{ACAD_REACTORS
330
17
102
}
330
17
100
AcDbMlineStyle
  2
Standard
 70
     0
  3

 62
   256
 51
90.0
 52
90.0
 71
     2
 49
0.5
 62
   256
  6
BYLAYER
 49
-0.5
 62
   256
  6
BYLAYER
  0
ACDBPLACEHOLDER
  5
F
102
{ACAD_REACTORS
330
E
102
}
330
E
  0
SCALE
  5
48
102
{ACAD_REACTORS
330
47
102
}
330
47
100
AcDbScale
 70
     0
300
1:1
140
1.0
141
1.0
290
     1
  0
SCALE
  5
49
102
{ACAD_REACTORS
330
47
102
}
330
47
100
AcDbScale
 70
     0
300
1:2
140
1.0
141
2.0
290
     0
  0
SCALE
  5
4A
102
{ACAD_REACTORS
330
47
102
}
330
47
100
AcDbScale
 70
     0
300
1:4
140
1.0
141
4.0
290
     0
  0
SCALE
  5
4B
102
{ACAD_REACTORS
330
47
102
}
330
47
100
AcDbScale
 70
     0
300
1:5
140
1.0
141
5.0
290
     0
  0
SCALE
  5
4C
102
{ACAD_REACTORS
330
47
102
}
330
47
100
AcDbScale
 70
     0
300
1:8
140
1.0
141
8.0
290
     0
  0
SCALE
  5
4D
102
{ACAD_REACTORS
330
47
102
}
330
47
100
AcDbScale
 70
     0
300
1:10
140
1.0
141
10.0
290
     0
  0
SCALE
  5
4E
102
{ACAD_REACTORS
330
47
102
}
330
47
100
AcDbScale
 70
     0
300
1:16
140
1.0
141
16.0
290
     0
  0
SCALE
  5
4F
102
{ACAD_REACTORS
330
47
102
}
330
47
100
AcDbScale
 70
     0
300
1:20
140
1.0
141
20.0
290
     0
  0
SCALE
  5
50
102
{ACAD_REACTORS
330
47
102
}
330
47
100
AcDbScale
 70
     0
300
1:30
140
1.0
141
30.0
290
     0
  0
SCALE
  5
51
102
{ACAD_REACTORS
330
47
102
}
330
47
100
AcDbScale
 70
     0
300
1:40
140
1.0
141
40.0
290
     0
  0
SCALE
  5
52
102
{ACAD_REACTORS
330
47
102
}
330
47
100
AcDbScale
 70
     0
300
1:50
140
1.0
141
50.0
290
     0
  0
SCALE
  5
53
102
{ACAD_REACTORS
330
47
102
}
330
47
100
AcDbScale
 70
     0
300
1:100
140
1.0
141
100.0
290
     0
  0
SCALE
  5
54
102
{ACAD_REACTORS
330
47
102
}
330
47
100
AcDbScale
 70
     0
300
2:1
140
2.0
141
1.0
290
     0
  0
SCALE
  5
55
102
{ACAD_REACTORS
330
47
102
}
330
47
100
AcDbScale
 70
     0
300
4:1
140
4.0
141
1.0
290
     0
  0
SCALE
  5
56
102
{ACAD_REACTORS
330
47
102
}
330
47
100
AcDbScale
 70
     0
300
8:1
140
8.0
141
1.0
290
     0
  0
SCALE
  5
57
102
{ACAD_REACTORS
330
47
102
}
330
47
100
AcDbScale
 70
     0
300
10:1
140
10.0
141
1.0
290
     0
  0
SCALE
  5
58
102
{ACAD_REACTORS
330
47
102
}
330
47
100
AcDbScale
 70
     0
300
100:1
140
100.0
141
1.0
290
     0
  0
SCALE
  5
59
102
{ACAD_REACTORS
330
47
102
}
330
47
100
AcDbScale
 70
     0
300
1/128" = 1'-0"
140
0.0078125
141
12.0
290
     0
  0
SCALE
  5
5A
102
{ACAD_REACTORS
330
47
102
}
330
47
100
AcDbScale
 70
     0
300
1/64" = 1'-0"
140
0.015625
141
12.0
290
     0
  0
SCALE
  5
5B
102
{ACAD_REACTORS
330
47
102
}
330
47
100
AcDbScale
 70
     0
300
1/32" = 1'-0"
140
0.03125
141
12.0
290
     0
  0
SCALE
  5
5C
102
{ACAD_REACTORS
330
47
102
}
330
47
100
AcDbScale
 70
     0
300
1/16" = 1'-0"
140
0.0625
141
12.0
290
     0
  0
SCALE
  5
5D
102
{ACAD_REACTORS
330
47
102
}
330
47
100
AcDbScale
 70
     0
300
3/32" = 1'-0"
140
0.09375
141
12.0
290
     0
  0
SCALE
  5
5E
102
{ACAD_REACTORS
330
47
102
}
330
47
100
AcDbScale
 70
     0
300
1/8" = 1'-0"
140
0.125
141
12.0
290
     0
  0
SCALE
  5
5F
102
{ACAD_REACTORS
330
47
102
}
330
47
100
AcDbScale
 70
     0
300
3/16" = 1'-0"
140
0.1875
141
12.0
290
     0
  0
SCALE
  5
60
102
{ACAD_REACTORS
330
47
102
}
330
47
100
AcDbScale
 70
     0
300
1/4" = 1'-0"
140
0.25
141
12.0
290
     0
  0
SCALE
  5
61
102
{ACAD_REACTORS
330
47
102
}
330
47
100
AcDbScale
 70
     0
300
3/8" = 1'-0"
140
0.375
141
12.0
290
     0
  0
SCALE
  5
62
102
{ACAD_REACTORS
330
47
102
}
330
47
100
AcDbScale
 70
     0
300
1/2" = 1'-0"
140
0.5
141
12.0
290
     0
  0
SCALE
  5
63
102
{ACAD_REACTORS
330
47
102
}
330
47
100
AcDbScale
 70
     0
300
3/4" = 1'-0"
140
0.75
141
12.0
290
     0
  0
SCALE
  5
64
102
{ACAD_REACTORS
330
47
102
}
330
47
100
AcDbScale
 70
     0
300
1" = 1'-0"
140
1.0
141
12.0
290
     0
  0
SCALE
  5
65
102
{ACAD_REACTORS
330
47
102
}
330
47
100
AcDbScale
 70
     0
300
1-1/2" = 1'-0"
140
1.5
141
12.0
290
     0
  0
SCALE
  5
66
102
{ACAD_REACTORS
330
47
102
}
330
47
100
AcDbScale
 70
     0
300
3" = 1'-0"
140
3.0
141
12.0
290
     0
  0
SCALE
  5
67
102
{ACAD_REACTORS
330
47
102
}
330
47
100
AcDbScale
 70
     0
300
6" = 1'-0"
140
6.0
141
12.0
290
     0
  0
SCALE
  5
68
102
{ACAD_REACTORS
330
47
102
}
330
47
100
AcDbScale
 70
     0
300
1'-0" = 1'-0"
140
12.0
141
12.0
290
     0
  0
ENDSEC
  0
EOF
