  0
SECTION
  2
HEADER
  9
$ACADVER
  1
AC1015
  9
$ACADMAINTVER
 70
     6
  9
$DWGCODEPAGE
  3
ANSI_949
  9
$INSBASE
 10
0.0
 20
0.0
 30
0.0
  9
$EXTMIN
 10
1.000000000000000E+20
 20
1.000000000000000E+20
 30
1.000000000000000E+20
  9
$EXTMAX
 10
-1.000000000000000E+20
 20
-1.000000000000000E+20
 30
-1.000000000000000E+20
  9
$LIMMIN
 10
0.0
 20
0.0
  9
$LIMMAX
 10
420.0
 20
297.0
  9
$ORTHOMODE
 70
     1
  9
$REGENMODE
 70
     1
  9
$FILLMODE
 70
     1
  9
$QTEXTMODE
 70
     0
  9
$MIRRTEXT
 70
     1
  9
$LTSCALE
 40
1.0
  9
$ATTMODE
 70
     1
  9
$TEXTSIZE
 40
3.5
  9
$TRACEWID
 40
1.0
  9
$TEXTSTYLE
  7
Standard
  9
$CLAYER
  8
0
  9
$CELTYPE
  6
ByLayer
  9
$CECOLOR
 62
   256
  9
$CELTSCALE
 40
1.0
  9
$DISPSILH
 70
     0
  9
$DIMSCALE
 40
1.0
  9
$DIMASZ
 40
3.302
  9
$DIMEXO
 40
1.0
  9
$DIMDLI
 40
3.75
  9
$DIMRND
 40
0.0
  9
$DIMDLE
 40
0.0
  9
$DIMEXE
 40
1.0
  9
$DIMTP
 40
0.0
  9
$DIMTM
 40
0.0
  9
$DIMTXT
 40
3.5
  9
$DIMCEN
 40
2.5
  9
$DIMTSZ
 40
0.0
  9
$DIMTOL
 70
     0
  9
$DIMLIM
 70
     0
  9
$DIMTIH
 70
     1
  9
$DIMTOH
 70
     1
  9
$DIMSE1
 70
     0
  9
$DIMSE2
 70
     0
  9
$DIMTAD
 70
     1
  9
$DIMZIN
 70
     0
  9
$DIMBLK
  1

  9
$DIMASO
 70
     1
  9
$DIMSHO
 70
     1
  9
$DIMPOST
  1

  9
$DIMAPOST
  1

  9
$DIMALT
 70
     0
  9
$DIMALTD
 70
     3
  9
$DIMALTF
 40
0.0393700787401575
  9
$DIMLFAC
 40
1.0
  9
$DIMTOFL
 70
     1
  9
$DIMTVP
 40
0.0
  9
$DIMTIX
 70
     0
  9
$DIMSOXD
 70
     0
  9
$DIMSAH
 70
     0
  9
$DIMBLK1
  1

  9
$DIMBLK2
  1

  9
$DIMSTYLE
  2
ISO-25
  9
$DIMCLRD
 70
     0
  9
$DIMCLRE
 70
     0
  9
$DIMCLRT
 70
     0
  9
$DIMTFAC
 40
1.0
  9
$DIMGAP
 40
1.524
  9
$DIMJUST
 70
     0
  9
$DIMSD1
 70
     0
  9
$DIMSD2
 70
     0
  9
$DIMTOLJ
 70
     0
  9
$DIMTZIN
 70
     0
  9
$DIMALTZ
 70
     0
  9
$DIMALTTZ
 70
     0
  9
$DIMUPT
 70
     0
  9
$DIMDEC
 70
     2
  9
$DIMTDEC
 70
     2
  9
$DIMALTU
 70
     2
  9
$DIMALTTD
 70
     3
  9
$DIMTXSTY
  7
Standard
  9
$DIMAUNIT
 70
     0
  9
$DIMADEC
 70
     2
  9
$DIMALTRND
 40
0.0
  9
$DIMAZIN
 70
     0
  9
$DIMDSEP
 70
    44
  9
$DIMATFIT
 70
     3
  9
$DIMFRAC
 70
     0
  9
$DIMLDRBLK
  1

  9
$DIMLUNIT
 70
     2
  9
$DIMLWD
 70
    -2
  9
$DIMLWE
 70
    -2
  9
$DIMTMOVE
 70
     0
  9
$LUNITS
 70
     2
  9
$LUPREC
 70
     2
  9
$SKETCHINC
 40
1.0
  9
$FILLETRAD
 40
10.0
  9
$AUNITS
 70
     0
  9
$AUPREC
 70
     2
  9
$MENU
  1
.
  9
$ELEVATION
 40
0.0
  9
$PELEVATION
 40
0.0
  9
$THICKNESS
 40
0.0
  9
$LIMCHECK
 70
     0
  9
$CHAMFERA
 40
0.0
  9
$CHAMFERB
 40
0.0
  9
$CHAMFERC
 40
0.0
  9
$CHAMFERD
 40
0.0
  9
$SKPOLY
 70
     0
  9
$TDCREATE
 40
2458323.48392632
  9
$TDUCREATE
 40
2458323.10892632
  9
$TDUPDATE
 40
2458324.391559167
  9
$TDUUPDATE
 40
2458324.016559167
  9
$TDINDWG
 40
0.0003268403
  9
$TDUSRTIMER
 40
2458324.014982998
  9
$USRTIMER
 70
     1
  9
$ANGBASE
 50
0.0
  9
$ANGDIR
 70
     0
  9
$PDMODE
 70
     0
  9
$PDSIZE
 40
-1.0
  9
$PLINEWID
 40
0.0
  9
$SPLFRAME
 70
     0
  9
$SPLINETYPE
 70
     6
  9
$SPLINESEGS
 70
     8
  9
$HANDSEED
  5
2AB
  9
$SURFTAB1
 70
     6
  9
$SURFTAB2
 70
     6
  9
$SURFTYPE
 70
     6
  9
$SURFU
 70
     6
  9
$SURFV
 70
     6
  9
$UCSBASE
  2

  9
$UCSNAME
  2

  9
$UCSORG
 10
0.0
 20
0.0
 30
0.0
  9
$UCSXDIR
 10
1.0
 20
0.0
 30
0.0
  9
$UCSYDIR
 10
0.0
 20
1.0
 30
0.0
  9
$UCSORTHOREF
  2

  9
$UCSORTHOVIEW
 70
     0
  9
$UCSORGTOP
 10
0.0
 20
0.0
 30
0.0
  9
$UCSORGBOTTOM
 10
0.0
 20
0.0
 30
0.0
  9
$UCSORGLEFT
 10
0.0
 20
0.0
 30
0.0
  9
$UCSORGRIGHT
 10
0.0
 20
0.0
 30
0.0
  9
$UCSORGFRONT
 10
0.0
 20
0.0
 30
0.0
  9
$UCSORGBACK
 10
0.0
 20
0.0
 30
0.0
  9
$PUCSBASE
  2

  9
$PUCSNAME
  2

  9
$PUCSORG
 10
0.0
 20
0.0
 30
0.0
  9
$PUCSXDIR
 10
1.0
 20
0.0
 30
0.0
  9
$PUCSYDIR
 10
0.0
 20
1.0
 30
0.0
  9
$PUCSORTHOREF
  2

  9
$PUCSORTHOVIEW
 70
     0
  9
$PUCSORGTOP
 10
0.0
 20
0.0
 30
0.0
  9
$PUCSORGBOTTOM
 10
0.0
 20
0.0
 30
0.0
  9
$PUCSORGLEFT
 10
0.0
 20
0.0
 30
0.0
  9
$PUCSORGRIGHT
 10
0.0
 20
0.0
 30
0.0
  9
$PUCSORGFRONT
 10
0.0
 20
0.0
 30
0.0
  9
$PUCSORGBACK
 10
0.0
 20
0.0
 30
0.0
  9
$USERI1
 70
     0
  9
$USERI2
 70
     0
  9
$USERI3
 70
     0
  9
$USERI4
 70
     0
  9
$USERI5
 70
     0
  9
$USERR1
 40
0.0
  9
$USERR2
 40
0.0
  9
$USERR3
 40
0.0
  9
$USERR4
 40
0.0
  9
$USERR5
 40
0.0
  9
$WORLDVIEW
 70
     1
  9
$SHADEDGE
 70
     3
  9
$SHADEDIF
 70
    70
  9
$TILEMODE
 70
     1
  9
$MAXACTVP
 70
    64
  9
$PINSBASE
 10
0.0
 20
0.0
 30
0.0
  9
$PLIMCHECK
 70
     0
  9
$PEXTMIN
 10
1.000000000000000E+20
 20
1.000000000000000E+20
 30
1.000000000000000E+20
  9
$PEXTMAX
 10
-1.000000000000000E+20
 20
-1.000000000000000E+20
 30
-1.000000000000000E+20
  9
$PLIMMIN
 10
0.0
 20
0.0
  9
$PLIMMAX
 10
0.0
 20
0.0
  9
$UNITMODE
 70
     0
  9
$VISRETAIN
 70
     1
  9
$PLINEGEN
 70
     0
  9
$PSLTSCALE
 70
     1
  9
$TREEDEPTH
 70
  3020
  9
$CMLSTYLE
  2
Standard
  9
$CMLJUST
 70
     0
  9
$CMLSCALE
 40
20.0
  9
$PROXYGRAPHICS
 70
     1
  9
$MEASUREMENT
 70
     1
  9
$CELWEIGHT
370
    -1
  9
$ENDCAPS
280
     0
  9
$JOINSTYLE
280
     0
  9
$LWDISPLAY
290
     1
  9
$INSUNITS
 70
     4
  9
$HYPERLINKBASE
  1

  9
$STYLESHEET
  1

  9
$XEDIT
290
     1
  9
$CEPSNTYPE
380
     0
  9
$PSTYLEMODE
290
     1
  9
$FINGERPRINTGUID
  2
{E9DB6B96-9DDD-42D8-864A-FDB877C9F957}
  9
$VERSIONGUID
  2
{FAEB1C32-E019-11D5-929B-00C0DF256EC4}
  9
$EXTNAMES
290
     1
  9
$PSVPSCALE
 40
0.0
  9
$OLESTARTUP
290
     0
  0
ENDSEC
  0
SECTION
  2
CLASSES
  0
CLASS
  1
ACDBDICTIONARYWDFLT
  2
AcDbDictionaryWithDefault
  3
ObjectDBX Classes
 90
        0
280
     0
281
     0
  0
CLASS
  1
VISUALSTYLE
  2
AcDbVisualStyle
  3
ObjectDBX Classes
 90
     4095
280
     0
281
     0
  0
CLASS
  1
MATERIAL
  2
AcDbMaterial
  3
ObjectDBX Classes
 90
     1153
280
     0
281
     0
  0
CLASS
  1
SCALE
  2
AcDbScale
  3
ObjectDBX Classes
 90
     1153
280
     0
281
     0
  0
CLASS
  1
SUN
  2
AcDbSun
  3
SCENEOE
 90
     1153
280
     0
281
     0
  0
CLASS
  1
ACDBPLACEHOLDER
  2
AcDbPlaceHolder
  3
ObjectDBX Classes
 90
        0
280
     0
281
     0
  0
CLASS
  1
LAYOUT
  2
AcDbLayout
  3
ObjectDBX Classes
 90
        0
280
     0
281
     0
  0
CLASS
  1
TABLESTYLE
  2
AcDbTableStyle
  3
ObjectDBX Classes
 90
     4095
280
     0
281
     0
  0
CLASS
  1
MLEADERSTYLE
  2
AcDbMLeaderStyle
  3
ACDB_MLEADERSTYLE_CLASS
 90
     4095
280
     0
281
     0
  0
CLASS
  1
RASTERVARIABLES
  2
AcDbRasterVariables
  3
ISM
 90
        0
280
     0
281
     0
  0
ENDSEC
  0
SECTION
  2
TABLES
  0
TABLE
  2
VPORT
  5
8
330
0
100
AcDbSymbolTable
 70
     1
  0
VPORT
  5
29
330
8
100
AcDbSymbolTableRecord
100
AcDbViewportTableRecord
  2
*Active
 70
     0
 10
0.0
 20
0.0
 11
1.0
 21
1.0
 12
-4.435067832775438
 22
-1.580282031845996
 13
0.0
 23
0.0
 14
10.0
 24
10.0
 15
10.0
 25
10.0
 16
0.0
 26
0.0
 36
1.0
 17
0.0
 27
0.0
 37
0.0
 40
175.5820478160038
 41
1.632093933463796
 42
50.0
 43
0.0
 44
0.0
 50
0.0
 51
0.0
 71
    16
 72
  2000
 73
     1
 74
     3
 75
     0
 76
     0
 77
     0
 78
     0
281
     0
 65
     1
110
0.0
120
0.0
130
0.0
111
1.0
121
0.0
131
0.0
112
0.0
122
1.0
132
0.0
 79
     0
146
0.0
  0
ENDTAB
  0
TABLE
  2
LTYPE
  5
5
330
0
100
AcDbSymbolTable
 70
     6
  0
LTYPE
  5
14
330
5
100
AcDbSymbolTableRecord
100
AcDbLinetypeTableRecord
  2
ByBlock
 70
     0
  3

 72
    65
 73
     0
 40
0.0
  0
LTYPE
  5
15
330
5
100
AcDbSymbolTableRecord
100
AcDbLinetypeTableRecord
  2
ByLayer
 70
     0
  3

 72
    65
 73
     0
 40
0.0
  0
LTYPE
  5
16
330
5
100
AcDbSymbolTableRecord
100
AcDbLinetypeTableRecord
  2
Continuous
 70
     0
  3
Solid line
 72
    65
 73
     0
 40
0.0
  0
LTYPE
  5
6A
330
5
100
AcDbSymbolTableRecord
100
AcDbLinetypeTableRecord
  2
HIDDEN
 70
     0
  3
Hidden __ __ __ __ __ __ __ __ __ __ __ __ __ __
 72
    65
 73
     2
 40
1.905
 49
1.27
 74
     0
 49
-0.635
 74
     0
  0
LTYPE
  5
6B
330
5
100
AcDbSymbolTableRecord
100
AcDbLinetypeTableRecord
  2
PHANTOM
 70
     0
  3
Phantom ______  __  __  ______  __  __  ______
 72
    65
 73
     6
 40
12.7
 49
6.35
 74
     0
 49
-1.27
 74
     0
 49
1.27
 74
     0
 49
-1.27
 74
     0
 49
1.27
 74
     0
 49
-1.27
 74
     0
  0
LTYPE
  5
6C
330
5
100
AcDbSymbolTableRecord
100
AcDbLinetypeTableRecord
  2
CENTER
 70
     0
  3
Center ____ _ ____ _ ____ _ ____ _ ____ _ ____
 72
    65
 73
     4
 40
10.16
 49
6.35
 74
     0
 49
-1.27
 74
     0
 49
1.27
 74
     0
 49
-1.27
 74
     0
  0
LTYPE
  5
6D
330
5
100
AcDbSymbolTableRecord
100
AcDbLinetypeTableRecord
  2
CENTERX2
 70
     0
  3
Center (2x) ________  __  ________  __  _____
 72
    65
 73
     4
 40
20.32
 49
12.7
 74
     0
 49
-2.54
 74
     0
 49
2.54
 74
     0
 49
-2.54
 74
     0
  0
LTYPE
  5
6E
330
5
100
AcDbSymbolTableRecord
100
AcDbLinetypeTableRecord
  2
DOT2
 70
     0
  3
Dot (.5x) ........................................
 72
    65
 73
     2
 40
0.635
 49
0.0
 74
     0
 49
-0.635
 74
     0
  0
ENDTAB
  0
TABLE
  2
LAYER
  5
2
102
{ACAD_XDICTIONARY
360
1F0
102
}
330
0
100
AcDbSymbolTable
 70
    18
  0
LAYER
  5
10
330
2
100
AcDbSymbolTableRecord
100
AcDbLayerTableRecord
  2
0
 70
     0
 62
     7
  6
Continuous
370
    -3
390
F
  0
LAYER
  5
6F
330
2
100
AcDbSymbolTableRecord
100
AcDbLayerTableRecord
  2
FORMAT
 70
     0
 62
     2
  6
Continuous
370
    -3
390
F
  0
LAYER
  5
70
330
2
100
AcDbSymbolTableRecord
100
AcDbLayerTableRecord
  2
외형선
 70
     0
 62
     4
  6
Continuous
370
    30
390
F
  0
LAYER
  5
71
330
2
100
AcDbSymbolTableRecord
100
AcDbLayerTableRecord
  2
숨은선
 70
     0
 62
     2
  6
HIDDEN
370
    15
390
F
  0
LAYER
  5
72
330
2
100
AcDbSymbolTableRecord
100
AcDbLayerTableRecord
  2
중심선
 70
     0
 62
     1
  6
CENTERX2
370
    -3
390
F
  0
LAYER
  5
73
330
2
100
AcDbSymbolTableRecord
100
AcDbLayerTableRecord
  2
파단선
 70
     0
 62
     4
  6
Continuous
370
    -3
390
F
  0
LAYER
  5
74
330
2
100
AcDbSymbolTableRecord
100
AcDbLayerTableRecord
  2
해칭선
 70
     0
 62
   100
  6
Continuous
370
    -3
390
F
  0
LAYER
  5
75
330
2
100
AcDbSymbolTableRecord
100
AcDbLayerTableRecord
  2
가는실선
 70
     0
 62
     4
  6
Continuous
370
    -3
390
F
  0
LAYER
  5
76
330
2
100
AcDbSymbolTableRecord
100
AcDbLayerTableRecord
  2
치수_보조선
 70
     0
 62
     4
  6
Continuous
370
    -3
390
F
  0
LAYER
  5
77
330
2
100
AcDbSymbolTableRecord
100
AcDbLayerTableRecord
  2
치수문자_일반주서
 70
     0
 62
     7
  6
Continuous
370
    15
390
F
  0
LAYER
  5
78
330
2
100
AcDbSymbolTableRecord
100
AcDbLayerTableRecord
  2
개별주서
 70
     0
 62
   100
  6
Continuous
370
    30
390
F
  0
LAYER
  5
79
330
2
100
AcDbSymbolTableRecord
100
AcDbLayerTableRecord
  2
중간선
 70
     0
 62
     2
  6
Continuous
370
    15
390
F
  0
LAYER
  5
7A
330
2
100
AcDbSymbolTableRecord
100
AcDbLayerTableRecord
  2
윤곽선
 70
     0
 62
     3
  6
Continuous
370
    40
390
F
  0
LAYER
  5
7B
330
2
100
AcDbSymbolTableRecord
100
AcDbLayerTableRecord
  2
중심마크
 70
     0
 62
   100
  6
Continuous
370
    30
390
F
  0
LAYER
  5
7C
330
2
100
AcDbSymbolTableRecord
100
AcDbLayerTableRecord
  2
가상선
 70
     0
 62
     4
  6
PHANTOM
370
    -3
390
F
  0
LAYER
  5
7D
330
2
100
AcDbSymbolTableRecord
100
AcDbLayerTableRecord
  2
특수지정선
 70
     0
 62
     5
  6
CENTERX2
370
    60
390
F
  0
LAYER
  5
7E
330
2
100
AcDbSymbolTableRecord
100
AcDbLayerTableRecord
  2
참조1
 70
     0
 62
    -4
  6
Continuous
370
    -3
390
F
  0
LAYER
  5
148
330
2
100
AcDbSymbolTableRecord
100
AcDbLayerTableRecord
  2
Defpoints
 70
     0
 62
     7
  6
Continuous
290
     0
370
    -3
390
F
  0
ENDTAB
  0
TABLE
  2
STYLE
  5
3
330
0
100
AcDbSymbolTable
 70
     2
  0
STYLE
  5
11
330
3
100
AcDbSymbolTableRecord
100
AcDbTextStyleTableRecord
  2
Standard
 70
     0
 40
0.0
 41
1.0
 50
0.0
 71
     0
 42
3.5
  3
txt
  4

  0
STYLE
  5
94
330
3
100
AcDbSymbolTableRecord
100
AcDbTextStyleTableRecord
  2
SLDTEXTSTYLE0
 70
     0
 40
0.0
 41
0.75
 50
0.0
 71
     0
 42
3.5
  3
TXT
  4

  0
ENDTAB
  0
TABLE
  2
VIEW
  5
6
330
0
100
AcDbSymbolTable
 70
     0
  0
ENDTAB
  0
TABLE
  2
UCS
  5
7
330
0
100
AcDbSymbolTable
 70
     0
  0
ENDTAB
  0
TABLE
  2
APPID
  5
9
330
0
100
AcDbSymbolTable
 70
     1
  0
APPID
  5
12
330
9
100
AcDbSymbolTableRecord
100
AcDbRegAppTableRecord
  2
ACAD
 70
     0
  0
ENDTAB
  0
TABLE
  2
DIMSTYLE
  5
A
330
0
100
AcDbSymbolTable
 70
     3
100
AcDbDimStyleTable
  0
DIMSTYLE
105
27
330
A
100
AcDbSymbolTableRecord
100
AcDbDimStyleTableRecord
  2
ISO-25
 70
     0
 41
2.5
 42
0.625
 43
3.75
 44
1.25
 73
     0
 74
     0
 77
     1
 78
     8
140
2.5
141
2.5
143
0.03937007874016
147
0.625
171
     3
172
     1
178
     0
271
     2
272
     2
274
     3
278
    44
283
     0
284
     8
340
11
  0
DIMSTYLE
105
C6
102
{ACAD_REACTORS
330
1A9
330
1B6
330
1C3
330
1D0
330
260
330
261
330
262
330
263
102
}
330
A
100
AcDbSymbolTableRecord
100
AcDbDimStyleTableRecord
  2
SLDDIMSTYLE0
 70
     0
 41
3.302
 44
0.0
 45
0.000000001
 73
     0
 74
     0
 77
     1
 78
    12
 79
     3
140
3.5
143
0.0393700787401575
147
0.875
148
0.000000001
170
     1
172
     1
173
     1
178
     0
271
     2
272
     2
276
     2
284
    12
289
     0
340
94
  0
DIMSTYLE
105
EF
330
A
100
AcDbSymbolTableRecord
100
AcDbDimStyleTableRecord
  2
SLDDIMSTYLE1
 70
     0
 41
3.302
 44
0.0
 45
0.000000001
 73
     0
 74
     0
 77
     1
 78
    12
 79
     3
140
3.5
143
0.0393700787401575
147
0.875
148
0.000000001
170
     1
173
     1
178
     0
271
     2
272
     2
276
     2
284
    12
340
94
  0
ENDTAB
  0
TABLE
  2
BLOCK_RECORD
  5
1
330
0
100
AcDbSymbolTable
 70
    16
  0
BLOCK_RECORD
  5
1F
330
1
100
AcDbSymbolTableRecord
100
AcDbBlockTableRecord
  2
*Model_Space
340
22
  0
BLOCK_RECORD
  5
1B
330
1
100
AcDbSymbolTableRecord
100
AcDbBlockTableRecord
  2
*Paper_Space
340
1E
  0
BLOCK_RECORD
  5
23
330
1
100
AcDbSymbolTableRecord
100
AcDbBlockTableRecord
  2
*Paper_Space0
340
26
  0
BLOCK_RECORD
  5
7F
330
1
100
AcDbSymbolTableRecord
100
AcDbBlockTableRecord
  2
블럭10
340
0
102
{BLKREFS
331
BE
102
}
  0
BLOCK_RECORD
  5
C7
330
1
100
AcDbSymbolTableRecord
100
AcDbBlockTableRecord
  2
_D
340
0
  0
BLOCK_RECORD
  5
DB
330
1
100
AcDbSymbolTableRecord
100
AcDbBlockTableRecord
  2
_D_1
340
0
  0
BLOCK_RECORD
  5
F0
330
1
100
AcDbSymbolTableRecord
100
AcDbBlockTableRecord
  2
_D_2
340
0
  0
BLOCK_RECORD
  5
103
330
1
100
AcDbSymbolTableRecord
100
AcDbBlockTableRecord
  2
_D_3
340
0
  0
BLOCK_RECORD
  5
11C
330
1
100
AcDbSymbolTableRecord
100
AcDbBlockTableRecord
  2
SW_DOWELSYMBOL_0
340
0
102
{BLKREFS
331
0
331
1E0
331
264
102
}
  0
BLOCK_RECORD
  5
1F4
330
1
100
AcDbSymbolTableRecord
100
AcDbBlockTableRecord
  2
*D8
340
0
  0
BLOCK_RECORD
  5
200
330
1
100
AcDbSymbolTableRecord
100
AcDbBlockTableRecord
  2
*D9
340
0
  0
BLOCK_RECORD
  5
20C
330
1
100
AcDbSymbolTableRecord
100
AcDbBlockTableRecord
  2
*D10
340
0
  0
BLOCK_RECORD
  5
218
330
1
100
AcDbSymbolTableRecord
100
AcDbBlockTableRecord
  2
*D11
340
0
  0
BLOCK_RECORD
  5
26E
330
1
100
AcDbSymbolTableRecord
100
AcDbBlockTableRecord
  2
*D12
340
0
  0
BLOCK_RECORD
  5
27A
330
1
100
AcDbSymbolTableRecord
100
AcDbBlockTableRecord
  2
*D13
340
0
  0
BLOCK_RECORD
  5
286
330
1
100
AcDbSymbolTableRecord
100
AcDbBlockTableRecord
  2
*D14
340
0
  0
BLOCK_RECORD
  5
292
330
1
100
AcDbSymbolTableRecord
100
AcDbBlockTableRecord
  2
*D15
340
0
  0
ENDTAB
  0
ENDSEC
  0
SECTION
  2
BLOCKS
  0
BLOCK
  5
20
330
1F
100
AcDbEntity
  8
0
100
AcDbBlockBegin
  2
*Model_Space
 70
     0
 10
0.0
 20
0.0
 30
0.0
  3
*Model_Space
  1
*Model_Space
  0
ENDBLK
  5
21
330
1F
100
AcDbEntity
  8
0
100
AcDbBlockEnd
  0
BLOCK
  5
1C
330
1B
100
AcDbEntity
 67
     1
  8
0
100
AcDbBlockBegin
  2
*Paper_Space
 70
     0
 10
0.0
 20
0.0
 30
0.0
  3
*Paper_Space
  1
*Paper_Space
  0
ENDBLK
  5
1D
330
1B
100
AcDbEntity
 67
     1
  8
0
100
AcDbBlockEnd
  0
BLOCK
  5
24
330
23
100
AcDbEntity
  8
0
100
AcDbBlockBegin
  2
*Paper_Space0
 70
     0
 10
0.0
 20
0.0
 30
0.0
  3
*Paper_Space0
  1
*Paper_Space0
  0
ENDBLK
  5
25
330
23
100
AcDbEntity
  8
0
100
AcDbBlockEnd
  0
BLOCK
  5
80
330
7F
100
AcDbEntity
  8
0
100
AcDbBlockBegin
  2
블럭10
 70
     2
 10
0.0
 20
0.0
 30
0.0
  3
블럭10
  1
블럭10
  0
ELLIPSE
  5
82
330
7F
100
AcDbEntity
  8
중심선
100
AcDbEllipse
 10
20.54032771741204
 20
12.0471743016438
 30
0.0
 11
6.600054785286829
 21
-1.261213355974178E-13
 31
0.0
210
0.0
220
0.0
230
1.0
 40
0.636358354079598
 41
0.9219305317359503
 42
6.513795318482858
  0
ELLIPSE
  5
83
330
7F
100
AcDbEntity
  8
중심선
100
AcDbEllipse
 10
20.54032771746488
 20
12.04717430159265
 30
0.0
 11
3.960054785062283
 21
1.540847449632565E-10
 31
0.0
210
0.0
220
0.0
230
1.0
 40
0.3939339440162632
 41
1.131841032648279
 42
5.62031148352944
  0
LINE
  5
84
330
7F
100
AcDbEntity
  8
중심선
100
AcDbLine
 10
2.268634060543552
 20
16.24717430164393
 30
0.0
 11
5.714909304380834
 21
16.24717430164393
 31
0.0
  0
LINE
  5
85
330
7F
100
AcDbEntity
  8
중심선
100
AcDbLine
 10
5.245725140726316
 20
7.84717430164391
 30
0.0
 11
8.692000384563599
 21
7.84717430164391
 31
0.0
  0
LINE
  5
86
330
7F
100
AcDbEntity
  8
중심선
100
AcDbLine
 10
15.74043728645272
 20
16.24717430164393
 30
0.0
 11
8.692000384563599
 21
7.84717430164391
 31
0.0
  0
LINE
  5
87
330
7F
100
AcDbEntity
  8
중심선
100
AcDbLine
 10
0.1404042013395286
 20
13.71084872107135
 30
0.0
 11
3.58671253028996
 21
13.71088815037384
 31
0.0
  0
LINE
  5
88
330
7F
100
AcDbEntity
  8
중심선
100
AcDbLine
 10
2.750260043222114
 20
10.84717430164391
 30
0.0
 11
6.196535287059397
 21
10.84717430164391
 31
0.0
  0
LINE
  5
89
330
7F
100
AcDbEntity
  8
중심선
100
AcDbLine
 10
12.29416204261559
 20
16.24717430164393
 30
0.0
 11
5.245725140726316
 21
7.84717430164391
 31
0.0
  0
LINE
  5
8A
330
7F
100
AcDbEntity
  8
중심선
100
AcDbLine
 10
10.72767329541681
 20
16.24717430164393
 30
0.0
 11
6.196535287059397
 21
10.84717430164391
 31
0.0
  0
LINE
  5
8B
330
7F
100
AcDbEntity
  8
중심선
100
AcDbLine
 10
7.28139805157953
 20
16.24717430164393
 30
0.0
 11
2.750260043222114
 21
10.84717430164391
 31
0.0
  0
LINE
  5
8C
330
7F
100
AcDbEntity
  8
중심선
100
AcDbLine
 10
5.714909304380834
 20
16.24717430164393
 30
0.0
 11
3.58671253028996
 21
13.71088815037384
 31
0.0
  0
LINE
  5
8D
330
7F
100
AcDbEntity
  8
중심선
100
AcDbLine
 10
2.268634060543552
 20
16.24717430164393
 30
0.0
 11
0.1404042013395286
 21
13.71084872107135
 31
0.0
  0
LINE
  5
8E
330
7F
100
AcDbEntity
  8
중심선
100
AcDbLine
 10
7.28139805157953
 20
16.24717430164393
 30
0.0
 11
10.72767329541681
 21
16.24717430164393
 31
0.0
  0
LINE
  5
8F
330
7F
100
AcDbEntity
  8
중심선
100
AcDbLine
 10
12.29416204261559
 20
16.24717430164393
 30
0.0
 11
15.74043728645272
 21
16.24717430164393
 31
0.0
  0
LINE
  5
90
330
7F
100
AcDbEntity
  8
중심선
100
AcDbLine
 10
19.22036997980202
 20
11.08717430171403
 30
0.0
 11
23.66174974927406
 21
11.08717430171406
 31
0.0
  0
LINE
  5
91
330
7F
100
AcDbEntity
  8
중심선
100
AcDbLine
 10
19.22039502424796
 20
13.00717430171391
 30
0.0
 11
19.22036997980202
 21
11.08717430171403
 31
0.0
  0
LINE
  5
92
330
7F
100
AcDbEntity
  8
중심선
100
AcDbLine
 10
19.22039502424796
 20
13.00717430171391
 30
0.0
 11
26.96566020931264
 21
13.00717430171391
 31
0.0
  0
LINE
  5
93
330
7F
100
AcDbEntity
  8
중심선
100
AcDbLine
 10
22.22332737316547
 20
13.45928029700563
 30
0.0
 11
24.52862924686651
 21
15.39360700705356
 31
0.0
  0
ATTDEF
  5
95
330
7F
100
AcDbEntity
  8
FORMAT
 62
     2
100
AcDbText
 10
4.408487351596664
 20
2.075366912832191
 30
0.0
 40
4.233333333333333
  1
E2032904
 41
0.75
  7
SLDTEXTSTYLE0
 11
4.408487351596664
 21
-0.0412997538344756
 31
0.0
100
AcDbAttributeDefinition
  3

  2
AUTOATTR0
 70
     0
 74
     1
  0
ENDBLK
  5
81
330
7F
100
AcDbEntity
  8
0
100
AcDbBlockEnd
  0
BLOCK
  5
C8
330
C7
100
AcDbEntity
  8
0
100
AcDbBlockBegin
  2
_D
 70
     0
 10
0.0
 20
0.0
 30
0.0
  3
_D
  1
_D
  0
SOLID
  5
CA
330
C7
100
AcDbEntity
  8
치수문자_일반주서
100
AcDbTrace
 10
97.9119459855236
 20
12.5010749287239
 30
0.0
 11
98.4199459855236
 21
15.80307492872389
 31
0.0
 12
97.4039459855236
 22
15.80307492872389
 32
0.0
 13
97.4039459855236
 23
15.80307492872389
 33
0.0
  0
SOLID
  5
CB
330
C7
100
AcDbEntity
  8
치수문자_일반주서
100
AcDbTrace
 10
97.9119459855236
 20
-12.49892507127611
 30
0.0
 11
97.4039459855236
 21
-15.80092507127611
 31
0.0
 12
98.4199459855236
 22
-15.80092507127611
 32
0.0
 13
98.4199459855236
 23
-15.80092507127611
 33
0.0
  0
LINE
  5
CC
330
C7
100
AcDbEntity
  8
치수문자_일반주서
100
AcDbLine
 10
87.11906426948089
 20
-5.413291502344828
 30
0.0
 11
87.11906426948089
 21
-6.124228987909328
 31
0.0
  0
LINE
  5
CD
330
C7
100
AcDbEntity
  8
치수문자_일반주서
100
AcDbLine
 10
87.11906426948089
 20
-6.124228987909328
 30
0.0
 11
92.67531426054019
 21
-6.124228987909289
 31
0.0
  0
LINE
  5
CE
330
C7
100
AcDbEntity
  8
치수문자_일반주서
100
AcDbLine
 10
92.67531426054019
 20
-6.124228987909289
 30
0.0
 11
92.67531426054019
 21
-5.413291502344789
 31
0.0
  0
LINE
  5
CF
330
C7
100
AcDbEntity
  8
치수문자_일반주서
100
AcDbLine
 10
87.1190642694808
 20
5.41544135979243
 30
0.0
 11
87.1190642694808
 21
6.12637884535693
 31
0.0
  0
LINE
  5
D0
330
C7
100
AcDbEntity
  8
치수문자_일반주서
100
AcDbLine
 10
87.1190642694808
 20
6.12637884535693
 30
0.0
 11
92.6753142605401
 21
6.126378845356969
 31
0.0
  0
LINE
  5
D1
330
C7
100
AcDbEntity
  8
치수문자_일반주서
100
AcDbLine
 10
92.6753142605401
 20
6.126378845356969
 30
0.0
 11
92.6753142605401
 21
5.415441359792469
 31
0.0
  0
LINE
  5
D2
330
C7
100
AcDbEntity
  8
치수문자_일반주서
100
AcDbLine
 10
79.91194598552357
 20
12.5010749287239
 30
0.0
 11
98.9119459855236
 21
12.5010749287239
 31
0.0
  0
LINE
  5
D3
330
C7
100
AcDbEntity
  8
치수문자_일반주서
100
AcDbLine
 10
79.91194598552357
 20
-12.49892507127611
 30
0.0
 11
98.9119459855236
 21
-12.49892507127611
 31
0.0
  0
LINE
  5
D4
330
C7
100
AcDbEntity
  8
치수문자_일반주서
100
AcDbLine
 10
97.9119459855236
 20
12.5010749287239
 30
0.0
 11
97.9119459855236
 21
18.8510749287239
 31
0.0
  0
LINE
  5
D5
330
C7
100
AcDbEntity
  8
치수문자_일반주서
100
AcDbLine
 10
97.9119459855236
 20
12.5010749287239
 30
0.0
 11
97.9119459855236
 21
-12.49892507127611
 31
0.0
  0
LINE
  5
D6
330
C7
100
AcDbEntity
  8
치수문자_일반주서
100
AcDbLine
 10
97.9119459855236
 20
-12.49892507127611
 30
0.0
 11
97.9119459855236
 21
-18.84892507127611
 31
0.0
  0
MTEXT
  5
D7
330
C7
100
AcDbEntity
  8
치수문자_일반주서
100
AcDbMText
 10
88.16357734596129
 20
-4.52461960173345
 30
0.0
 40
3.5
 41
0.0
 71
     1
 72
     1
  1
0.98
  7
SLDTEXTSTYLE0
 11
-7.044195017643634E-15
 21
1.0
 31
0.0
 73
     1
 44
1.0
  0
MTEXT
  5
D8
330
C7
100
AcDbEntity
  8
치수문자_일반주서
100
AcDbMText
 10
93.40020889632177
 20
-5.22425519681665
 30
0.0
 40
3.5
 41
0.0
 71
     1
 72
     1
  1
%%c
  7
SLDTEXTSTYLE0
 11
-7.044195017643634E-15
 21
1.0
 31
0.0
 73
     1
 44
1.0
  0
MTEXT
  5
D9
330
C7
100
AcDbEntity
  8
치수문자_일반주서
100
AcDbMText
 10
93.40020889632173
 20
0.0541822015574309
 30
0.0
 40
3.5
 41
0.0
 71
     1
 72
     1
  1
25
  7
SLDTEXTSTYLE0
 11
-7.044195017643634E-15
 21
1.0
 31
0.0
 73
     1
 44
1.0
  0
ENDBLK
  5
C9
330
C7
100
AcDbEntity
  8
0
100
AcDbBlockEnd
  0
BLOCK
  5
DC
330
DB
100
AcDbEntity
  8
0
100
AcDbBlockBegin
  2
_D_1
 70
     0
 10
0.0
 20
0.0
 30
0.0
  3
_D_1
  1
_D_1
  0
SOLID
  5
DE
330
DB
100
AcDbEntity
  8
치수문자_일반주서
100
AcDbTrace
 10
-55.08805401447646
 20
7.938574928723906
 30
0.0
 11
-54.58005401447646
 21
11.24057492872391
 31
0.0
 12
-55.59605401447646
 22
11.24057492872391
 32
0.0
 13
-55.59605401447646
 23
11.24057492872391
 33
0.0
  0
SOLID
  5
DF
330
DB
100
AcDbEntity
  8
치수문자_일반주서
100
AcDbTrace
 10
-55.08805401447646
 20
-7.936425071276123
 30
0.0
 11
-55.59605401447646
 21
-11.23842507127612
 31
0.0
 12
-54.58005401447646
 22
-11.23842507127612
 32
0.0
 13
-54.58005401447646
 23
-11.23842507127612
 33
0.0
  0
LINE
  5
E0
330
DB
100
AcDbEntity
  8
치수문자_일반주서
100
AcDbLine
 10
-65.88093573051917
 20
-6.595745043212554
 30
0.0
 11
-65.88093573051917
 21
-7.306682528777054
 31
0.0
  0
LINE
  5
E1
330
DB
100
AcDbEntity
  8
치수문자_일반주서
100
AcDbLine
 10
-65.88093573051917
 20
-7.306682528777054
 30
0.0
 11
-60.32468573945987
 21
-7.306682528777015
 31
0.0
  0
LINE
  5
E2
330
DB
100
AcDbEntity
  8
치수문자_일반주서
100
AcDbLine
 10
-60.32468573945987
 20
-7.306682528777015
 30
0.0
 11
-60.32468573945987
 21
-6.595745043212514
 31
0.0
  0
LINE
  5
E3
330
DB
100
AcDbEntity
  8
치수문자_일반주서
100
AcDbLine
 10
-65.88093573051925
 20
4.232987818924705
 30
0.0
 11
-65.88093573051925
 21
4.943925304489205
 31
0.0
  0
LINE
  5
E4
330
DB
100
AcDbEntity
  8
치수문자_일반주서
100
AcDbLine
 10
-65.88093573051925
 20
4.943925304489205
 30
0.0
 11
-60.32468573945995
 21
4.943925304489244
 31
0.0
  0
LINE
  5
E5
330
DB
100
AcDbEntity
  8
치수문자_일반주서
100
AcDbLine
 10
-60.32468573945995
 20
4.943925304489244
 30
0.0
 11
-60.32468573945994
 21
4.232987818924744
 31
0.0
  0
LINE
  5
E6
330
DB
100
AcDbEntity
  8
치수문자_일반주서
100
AcDbLine
 10
-41.50055401447643
 20
7.938574928723908
 30
0.0
 11
-56.08805401447646
 21
7.938574928723906
 31
0.0
  0
LINE
  5
E7
330
DB
100
AcDbEntity
  8
치수문자_일반주서
100
AcDbLine
 10
-41.50055401447643
 20
-7.936425071276121
 30
0.0
 11
-56.08805401447646
 21
-7.936425071276123
 31
0.0
  0
LINE
  5
E8
330
DB
100
AcDbEntity
  8
치수문자_일반주서
100
AcDbLine
 10
-55.08805401447646
 20
7.938574928723906
 30
0.0
 11
-55.08805401447646
 21
14.28857492872391
 31
0.0
  0
LINE
  5
E9
330
DB
100
AcDbEntity
  8
치수문자_일반주서
100
AcDbLine
 10
-55.08805401447646
 20
7.938574928723906
 30
0.0
 11
-55.08805401447646
 21
-7.936425071276123
 31
0.0
  0
LINE
  5
EA
330
DB
100
AcDbEntity
  8
치수문자_일반주서
100
AcDbLine
 10
-55.08805401447646
 20
-7.936425071276123
 30
0.0
 11
-55.08805401447646
 21
-14.28642507127612
 31
0.0
  0
MTEXT
  5
EB
330
DB
100
AcDbEntity
  8
치수문자_일반주서
100
AcDbMText
 10
-64.83642265403878
 20
-5.707073142601175
 30
0.0
 40
3.5
 41
0.0
 71
     1
 72
     1
  1
0.63
  7
SLDTEXTSTYLE0
 11
-7.044195017643634E-15
 21
1.0
 31
0.0
 73
     1
 44
1.0
  0
MTEXT
  5
EC
330
DB
100
AcDbEntity
  8
치수문자_일반주서
100
AcDbMText
 10
-59.59979110367827
 20
-9.639347554964907
 30
0.0
 40
3.5
 41
0.0
 71
     1
 72
     1
  1
%%c
  7
SLDTEXTSTYLE0
 11
-7.044195017643634E-15
 21
1.0
 31
0.0
 73
     1
 44
1.0
  0
MTEXT
  5
ED
330
DB
100
AcDbEntity
  8
치수문자_일반주서
100
AcDbMText
 10
-59.59979110367831
 20
-4.360910156590827
 30
0.0
 40
3.5
 41
0.0
 71
     1
 72
     1
  1
15.88
  7
SLDTEXTSTYLE0
 11
-7.044195017643634E-15
 21
1.0
 31
0.0
 73
     1
 44
1.0
  0
ENDBLK
  5
DD
330
DB
100
AcDbEntity
  8
0
100
AcDbBlockEnd
  0
BLOCK
  5
F1
330
F0
100
AcDbEntity
  8
0
100
AcDbBlockBegin
  2
_D_2
 70
     0
 10
0.0
 20
0.0
 30
0.0
  3
_D_2
  1
_D_2
  0
SOLID
  5
F3
330
F0
100
AcDbEntity
  8
치수문자_일반주서
100
AcDbTrace
 10
78.91194598552362
 20
22.67013489242326
 30
0.0
 11
75.60994598552361
 21
23.17813489242326
 31
0.0
 12
75.60994598552361
 22
22.16213489242326
 32
0.0
 13
75.60994598552361
 23
22.16213489242326
 33
0.0
  0
SOLID
  5
F4
330
F0
100
AcDbEntity
  8
치수문자_일반주서
100
AcDbTrace
 10
33.91194598552358
 20
22.67013489242331
 30
0.0
 11
37.21394598552358
 21
22.1621348924233
 31
0.0
 12
37.21394598552358
 22
23.1781348924233
 32
0.0
 13
37.21394598552358
 23
23.1781348924233
 33
0.0
  0
LINE
  5
F5
330
F0
100
AcDbEntity
  8
치수문자_일반주서
100
AcDbLine
 10
50.99757990370092
 20
33.46301660846601
 30
0.0
 11
50.28664241813642
 21
33.46301660846602
 31
0.0
  0
LINE
  5
F6
330
F0
100
AcDbEntity
  8
치수문자_일반주서
100
AcDbLine
 10
50.28664241813642
 20
33.46301660846602
 30
0.0
 11
50.28664241813637
 21
27.90676661740672
 31
0.0
  0
LINE
  5
F7
330
F0
100
AcDbEntity
  8
치수문자_일반주서
100
AcDbLine
 10
50.28664241813637
 20
27.90676661740672
 30
0.0
 11
50.99757990370087
 21
27.90676661740671
 31
0.0
  0
LINE
  5
F8
330
F0
100
AcDbEntity
  8
치수문자_일반주서
100
AcDbLine
 10
61.82631276583817
 20
33.46301660846593
 30
0.0
 11
62.53725025140267
 21
33.46301660846592
 31
0.0
  0
LINE
  5
F9
330
F0
100
AcDbEntity
  8
치수문자_일반주서
100
AcDbLine
 10
62.53725025140267
 20
33.46301660846592
 30
0.0
 11
62.53725025140263
 21
27.90676661740662
 31
0.0
  0
LINE
  5
FA
330
F0
100
AcDbEntity
  8
치수문자_일반주서
100
AcDbLine
 10
62.53725025140263
 20
27.90676661740662
 30
0.0
 11
61.82631276583813
 21
27.90676661740662
 31
0.0
  0
LINE
  5
FB
330
F0
100
AcDbEntity
  8
치수문자_일반주서
100
AcDbLine
 10
78.9119459855236
 20
13.37981113989325
 30
0.0
 11
78.91194598552362
 21
23.67013489242326
 31
0.0
  0
LINE
  5
FC
330
F0
100
AcDbEntity
  8
치수문자_일반주서
100
AcDbLine
 10
33.91194598552357
 20
13.32612381527873
 30
0.0
 11
33.91194598552358
 21
23.67013489242331
 31
0.0
  0
LINE
  5
FD
330
F0
100
AcDbEntity
  8
치수문자_일반주서
100
AcDbLine
 10
78.91194598552362
 20
22.67013489242326
 30
0.0
 11
33.91194598552358
 21
22.67013489242331
 31
0.0
  0
MTEXT
  5
FE
330
F0
100
AcDbEntity
  8
치수문자_일반주서
100
AcDbMText
 10
49.77288369264967
 20
27.235344158285
 30
0.0
 40
3.5
 41
0.0
 71
     1
 72
     1
  1

  7
SLDTEXTSTYLE0
 73
     1
 44
1.0
  0
MTEXT
  5
FF
330
F0
100
AcDbEntity
  8
치수문자_일반주서
100
AcDbMText
 10
51.88625180431228
 20
32.4185035319856
 30
0.0
 40
3.5
 41
0.0
 71
     1
 72
     1
  1
1.77
  7
SLDTEXTSTYLE0
 73
     1
 44
1.0
  0
MTEXT
  5
100
330
F0
100
AcDbEntity
  8
치수문자_일반주서
100
AcDbMText
 10
53.82583514124669
 20
27.18187198162511
 30
0.0
 40
3.5
 41
0.0
 71
     1
 72
     1
  1
45
  7
SLDTEXTSTYLE0
 73
     1
 44
1.0
  0
MTEXT
  5
101
330
F0
100
AcDbEntity
  8
치수문자_일반주서
100
AcDbMText
 10
64.38295349654322
 20
27.23534415828488
 30
0.0
 40
3.5
 41
0.0
 71
     1
 72
     1
  1

  7
SLDTEXTSTYLE0
 73
     1
 44
1.0
  0
ENDBLK
  5
F2
330
F0
100
AcDbEntity
  8
0
100
AcDbBlockEnd
  0
BLOCK
  5
104
330
103
100
AcDbEntity
  8
0
100
AcDbBlockBegin
  2
_D_3
 70
     0
 10
0.0
 20
0.0
 30
0.0
  3
_D_3
  1
_D_3
  0
SOLID
  5
106
330
103
100
AcDbEntity
  8
치수문자_일반주서
100
AcDbTrace
 10
78.91194598552357
 20
38.36394344956528
 30
0.0
 11
75.60994598552358
 21
38.87194344956529
 31
0.0
 12
75.60994598552358
 22
37.85594344956528
 32
0.0
 13
75.60994598552358
 23
37.85594344956528
 33
0.0
  0
SOLID
  5
107
330
103
100
AcDbEntity
  8
치수문자_일반주서
100
AcDbTrace
 10
-42.08805401447642
 20
38.36394344956528
 30
0.0
 11
-38.78605401447642
 21
37.85594344956527
 31
0.0
 12
-38.78605401447642
 22
38.87194344956528
 32
0.0
 13
-38.78605401447642
 23
38.87194344956528
 33
0.0
  0
LINE
  5
108
330
103
100
AcDbEntity
  8
치수문자_일반주서
100
AcDbLine
 10
14.47912979228456
 20
49.15682516560803
 30
0.0
 11
13.76819230672006
 21
49.15682516560804
 31
0.0
  0
LINE
  5
109
330
103
100
AcDbEntity
  8
치수문자_일반주서
100
AcDbLine
 10
13.76819230672006
 20
49.15682516560804
 30
0.0
 11
13.76819230672002
 21
43.60057517454874
 31
0.0
  0
LINE
  5
10A
330
103
100
AcDbEntity
  8
치수문자_일반주서
100
AcDbLine
 10
13.76819230672002
 20
43.60057517454874
 30
0.0
 11
14.47912979228452
 21
43.60057517454873
 31
0.0
  0
LINE
  5
10B
330
103
100
AcDbEntity
  8
치수문자_일반주서
100
AcDbLine
 10
25.30786265442182
 20
49.15682516560796
 30
0.0
 11
26.01880013998632
 21
49.15682516560796
 31
0.0
  0
LINE
  5
10C
330
103
100
AcDbEntity
  8
치수문자_일반주서
100
AcDbLine
 10
26.01880013998632
 20
49.15682516560796
 30
0.0
 11
26.01880013998629
 21
43.60057517454865
 31
0.0
  0
LINE
  5
10D
330
103
100
AcDbEntity
  8
치수문자_일반주서
100
AcDbLine
 10
26.01880013998629
 20
43.60057517454865
 30
0.0
 11
25.30786265442179
 21
43.60057517454866
 31
0.0
  0
LINE
  5
10E
330
103
100
AcDbEntity
  8
치수문자_일반주서
100
AcDbLine
 10
78.91194598552357
 20
13.21639659633511
 30
0.0
 11
78.91194598552357
 21
39.36394344956528
 31
0.0
  0
LINE
  5
10F
330
103
100
AcDbEntity
  8
치수문자_일반주서
100
AcDbLine
 10
-42.08805401447642
 20
7.351074928723897
 30
0.0
 11
-42.08805401447642
 21
39.36394344956528
 31
0.0
  0
LINE
  5
110
330
103
100
AcDbEntity
  8
치수문자_일반주서
100
AcDbLine
 10
78.91194598552357
 20
38.36394344956528
 30
0.0
 11
-42.08805401447642
 21
38.36394344956528
 31
0.0
  0
MTEXT
  5
111
330
103
100
AcDbEntity
  8
치수문자_일반주서
100
AcDbMText
 10
13.25443358123332
 20
42.92915271542702
 30
0.0
 40
3.5
 41
0.0
 71
     1
 72
     1
  1

  7
SLDTEXTSTYLE0
 73
     1
 44
1.0
  0
MTEXT
  5
112
330
103
100
AcDbEntity
  8
치수문자_일반주서
100
AcDbMText
 10
15.36780169289593
 20
48.11231208912763
 30
0.0
 40
3.5
 41
0.0
 71
     1
 72
     1
  1
4.76
  7
SLDTEXTSTYLE0
 73
     1
 44
1.0
  0
MTEXT
  5
113
330
103
100
AcDbEntity
  8
치수문자_일반주서
100
AcDbMText
 10
16.01432954948426
 20
42.87568053876715
 30
0.0
 40
3.5
 41
0.0
 71
     1
 72
     1
  1
121
  7
SLDTEXTSTYLE0
 73
     1
 44
1.0
  0
MTEXT
  5
114
330
103
100
AcDbEntity
  8
치수문자_일반주서
100
AcDbMText
 10
27.86450338512689
 20
42.92915271542692
 30
0.0
 40
3.5
 41
0.0
 71
     1
 72
     1
  1

  7
SLDTEXTSTYLE0
 73
     1
 44
1.0
  0
ENDBLK
  5
105
330
103
100
AcDbEntity
  8
0
100
AcDbBlockEnd
  0
BLOCK
  5
11D
330
11C
100
AcDbEntity
  8
0
100
AcDbBlockBegin
  2
SW_DOWELSYMBOL_0
 70
     0
 10
0.0
 20
0.0
 30
0.0
  3
SW_DOWELSYMBOL_0
  1
SW_DOWELSYMBOL_0
  0
CIRCLE
  5
11F
330
11C
100
AcDbEntity
  8
해칭선
 62
     0
100
AcDbCircle
 10
0.0
 20
0.0
 30
0.0
 40
3.000000000000001
  0
HATCH
  5
120
330
11C
100
AcDbEntity
  8
0
  6
Continuous
 62
     0
370
     0
100
AcDbHatch
 10
0.0
 20
0.0
 30
0.0
210
0.0
220
0.0
230
1.0
  2
SOLID
 70
     1
 71
     0
 91
        1
 92
        0
 93
        3
 72
     2
 10
0.0
 20
0.0
 40
3.000000000000001
 50
0.0
 51
90.0
 73
     1
 72
     1
 10
0.0
 20
3.000000000000001
 11
0.0
 21
0.0
 72
     1
 10
0.0
 20
0.0
 11
3.000000000000001
 21
0.0
 97
        0
 75
     0
 76
     1
 98
        1
 10
0.0
 20
0.0
  0
HATCH
  5
121
330
11C
100
AcDbEntity
  8
0
  6
Continuous
 62
     0
370
     0
100
AcDbHatch
 10
0.0
 20
0.0
 30
0.0
210
0.0
220
0.0
230
1.0
  2
SOLID
 70
     1
 71
     0
 91
        1
 92
        0
 93
        3
 72
     2
 10
0.0
 20
0.0
 40
3.000000000000001
 50
180.0
 51
270.0000000000008
 73
     1
 72
     1
 10
0.0
 20
-3.000000000000001
 11
0.0
 21
0.0
 72
     1
 10
0.0
 20
0.0
 11
-3.000000000000001
 21
0.0
 97
        0
 75
     0
 76
     1
 98
        1
 10
0.0
 20
0.0
  0
ENDBLK
  5
11E
330
11C
100
AcDbEntity
  8
0
100
AcDbBlockEnd
  0
BLOCK
  5
1F5
330
1F4
100
AcDbEntity
  8
0
100
AcDbBlockBegin
  2
*D8
 70
     1
 10
0.0
 20
0.0
 30
0.0
  3
*D8
  1
*D8
  0
LINE
  5
1F7
330
1F4
100
AcDbEntity
  8
치수문자_일반주서
 62
     0
370
    -2
100
AcDbLine
 10
18.90000000000003
 20
32.00399999999993
 30
0.0
 11
4.374999999999984
 21
32.00399999999987
 31
0.0
  0
LINE
  5
1F8
330
1F4
100
AcDbEntity
  8
치수문자_일반주서
 62
     0
370
    -2
100
AcDbLine
 10
18.90000000000003
 20
6.603999999999949
 30
0.0
 11
4.375000000000073
 21
6.603999999999893
 31
0.0
  0
LINE
  5
1F9
330
1F4
100
AcDbEntity
  8
치수문자_일반주서
 62
     0
370
    -2
100
AcDbLine
 10
4.374999999999996
 20
28.70199999999987
 30
0.0
 11
4.375000000000061
 21
9.905999999999892
 31
0.0
  0
SOLID
  5
1FA
330
1F4
100
AcDbEntity
  8
치수문자_일반주서
 62
     0
100
AcDbTrace
 10
4.925333333333329
 20
28.70199999999987
 30
0.0
 11
3.824666666666662
 21
28.70199999999987
 31
0.0
 12
4.374999999999984
 22
32.00399999999987
 32
0.0
 13
4.374999999999984
 23
32.00399999999987
 33
0.0
  0
SOLID
  5
1FB
330
1F4
100
AcDbEntity
  8
치수문자_일반주서
 62
     0
100
AcDbTrace
 10
3.824666666666728
 20
9.90599999999989
 30
0.0
 11
4.925333333333395
 21
9.905999999999894
 31
0.0
 12
4.375000000000073
 22
6.603999999999893
 32
0.0
 13
4.375000000000073
 23
6.603999999999893
 33
0.0
  0
MTEXT
  5
1FC
330
1F4
100
AcDbEntity
  8
치수문자_일반주서
 62
     0
100
AcDbMText
 10
0.0000000000000284
 20
19.30399999999991
 30
0.0
 40
3.5
 41
0.0
 71
     2
 72
     1
  1
\A1;%%c25.4 [1]
  7
SLDTEXTSTYLE0
 11
-3.496765431890260E-15
 21
1.0
 31
0.0
 73
     1
 44
1.0
  0
POINT
  5
1FD
330
1F4
100
AcDbEntity
  8
Defpoints
 62
     0
100
AcDbPoint
 10
18.96250000000003
 20
32.00399999999993
 30
0.0
  0
POINT
  5
1FE
330
1F4
100
AcDbEntity
  8
Defpoints
 62
     0
100
AcDbPoint
 10
18.96250000000003
 20
6.603999999999949
 30
0.0
  0
POINT
  5
1FF
330
1F4
100
AcDbEntity
  8
Defpoints
 62
     0
100
AcDbPoint
 10
4.375000000000071
 20
6.603999999999895
 30
0.0
  0
ENDBLK
  5
1F6
330
1F4
100
AcDbEntity
  8
0
100
AcDbBlockEnd
  0
BLOCK
  5
201
330
200
100
AcDbEntity
  8
0
100
AcDbBlockBegin
  2
*D9
 70
     1
 10
0.0
 20
0.0
 30
0.0
  3
*D9
  1
*D9
  0
LINE
  5
203
330
200
100
AcDbEntity
  8
치수문자_일반주서
 62
     0
370
    -2
100
AcDbLine
 10
130.7225
 20
32.06649999999994
 30
0.0
 11
130.7225
 21
54.45130893707579
 31
0.0
  0
LINE
  5
204
330
200
100
AcDbEntity
  8
치수문자_일반주서
 62
     0
370
    -2
100
AcDbLine
 10
79.92250000000001
 20
32.03726140992451
 30
0.0
 11
79.92250000000001
 21
54.45130893707579
 31
0.0
  0
LINE
  5
205
330
200
100
AcDbEntity
  8
치수문자_일반주서
 62
     0
370
    -2
100
AcDbLine
 10
127.4205
 20
54.45130893707579
 30
0.0
 11
83.2245
 21
54.45130893707579
 31
0.0
  0
SOLID
  5
206
330
200
100
AcDbEntity
  8
치수문자_일반주서
 62
     0
100
AcDbTrace
 10
127.4205
 20
53.90097560374245
 30
0.0
 11
127.4205
 21
55.00164227040912
 31
0.0
 12
130.7225
 22
54.45130893707579
 32
0.0
 13
130.7225
 23
54.45130893707579
 33
0.0
  0
SOLID
  5
207
330
200
100
AcDbEntity
  8
치수문자_일반주서
 62
     0
100
AcDbTrace
 10
83.2245
 20
55.00164227040912
 30
0.0
 11
83.2245
 21
53.90097560374245
 31
0.0
 12
79.92250000000001
 22
54.45130893707579
 32
0.0
 13
79.92250000000001
 23
54.45130893707579
 33
0.0
  0
MTEXT
  5
208
330
200
100
AcDbEntity
  8
치수문자_일반주서
 62
     0
100
AcDbMText
 10
105.3225
 20
58.82630893707579
 30
0.0
 40
3.5
 41
0.0
 71
     2
 72
     1
  1
\A1;50.8 [2]
  7
SLDTEXTSTYLE0
 73
     1
 44
1.0
  0
POINT
  5
209
330
200
100
AcDbEntity
  8
Defpoints
 62
     0
100
AcDbPoint
 10
130.7225
 20
32.00399999999994
 30
0.0
  0
POINT
  5
20A
330
200
100
AcDbEntity
  8
Defpoints
 62
     0
100
AcDbPoint
 10
79.92250000000001
 20
31.97476140992451
 30
0.0
  0
POINT
  5
20B
330
200
100
AcDbEntity
  8
Defpoints
 62
     0
100
AcDbPoint
 10
79.92250000000001
 20
54.45130893707579
 30
0.0
  0
ENDBLK
  5
202
330
200
100
AcDbEntity
  8
0
100
AcDbBlockEnd
  0
BLOCK
  5
20D
330
20C
100
AcDbEntity
  8
0
100
AcDbBlockBegin
  2
*D10
 70
     1
 10
0.0
 20
0.0
 30
0.0
  3
*D10
  1
*D10
  0
LINE
  5
20F
330
20C
100
AcDbEntity
  8
치수문자_일반주서
 62
     0
370
    -2
100
AcDbLine
 10
130.7225
 20
32.06649999999994
 30
0.0
 11
130.7225
 21
66.4513089370758
 31
0.0
  0
LINE
  5
210
330
20C
100
AcDbEntity
  8
치수문자_일반주서
 62
     0
370
    -2
100
AcDbLine
 10
16.42250000000001
 20
29.52649999999995
 30
0.0
 11
16.42250000000001
 21
66.4513089370758
 31
0.0
  0
LINE
  5
211
330
20C
100
AcDbEntity
  8
치수문자_일반주서
 62
     0
370
    -2
100
AcDbLine
 10
127.4205
 20
66.4513089370758
 30
0.0
 11
19.72450000000001
 21
66.4513089370758
 31
0.0
  0
SOLID
  5
212
330
20C
100
AcDbEntity
  8
치수문자_일반주서
 62
     0
100
AcDbTrace
 10
127.4205
 20
65.90097560374247
 30
0.0
 11
127.4205
 21
67.00164227040912
 31
0.0
 12
130.7225
 22
66.4513089370758
 32
0.0
 13
130.7225
 23
66.4513089370758
 33
0.0
  0
SOLID
  5
213
330
20C
100
AcDbEntity
  8
치수문자_일반주서
 62
     0
100
AcDbTrace
 10
19.72450000000001
 20
67.00164227040912
 30
0.0
 11
19.72450000000001
 21
65.90097560374247
 31
0.0
 12
16.42250000000001
 22
66.4513089370758
 32
0.0
 13
16.42250000000001
 23
66.4513089370758
 33
0.0
  0
MTEXT
  5
214
330
20C
100
AcDbEntity
  8
치수문자_일반주서
 62
     0
100
AcDbMText
 10
73.57250000000002
 20
70.8263089370758
 30
0.0
 40
3.5
 41
0.0
 71
     2
 72
     1
  1
\A1;114.3 [4 1/2]
  7
SLDTEXTSTYLE0
 73
     1
 44
1.0
  0
POINT
  5
215
330
20C
100
AcDbEntity
  8
Defpoints
 62
     0
100
AcDbPoint
 10
130.7225
 20
32.00399999999994
 30
0.0
  0
POINT
  5
216
330
20C
100
AcDbEntity
  8
Defpoints
 62
     0
100
AcDbPoint
 10
16.42250000000001
 20
29.46399999999995
 30
0.0
  0
POINT
  5
217
330
20C
100
AcDbEntity
  8
Defpoints
 62
     0
100
AcDbPoint
 10
16.42250000000001
 20
66.4513089370758
 30
0.0
  0
ENDBLK
  5
20E
330
20C
100
AcDbEntity
  8
0
100
AcDbBlockEnd
  0
BLOCK
  5
219
330
218
100
AcDbEntity
  8
0
100
AcDbBlockBegin
  2
*D11
 70
     1
 10
0.0
 20
0.0
 30
0.0
  3
*D11
  1
*D11
  0
LINE
  5
21B
330
218
100
AcDbEntity
  8
치수문자_일반주서
 62
     0
370
    -2
100
AcDbLine
 10
130.785
 20
32.00399999999994
 30
0.0
 11
148.224350938141
 21
32.004
 31
0.0
  0
LINE
  5
21C
330
218
100
AcDbEntity
  8
치수문자_일반주서
 62
     0
370
    -2
100
AcDbLine
 10
130.785
 20
6.603999999999933
 30
0.0
 11
148.2243509381411
 21
6.603999999999999
 31
0.0
  0
LINE
  5
21D
330
218
100
AcDbEntity
  8
치수문자_일반주서
 62
     0
370
    -2
100
AcDbLine
 10
148.224350938141
 20
32.004
 30
0.0
 11
148.2243509381409
 21
69.05326930339933
 31
0.0
  0
LINE
  5
21E
330
218
100
AcDbEntity
  8
치수문자_일반주서
 62
     0
370
    -2
100
AcDbLine
 10
148.224350938141
 20
32.004
 30
0.0
 11
148.2243509381411
 21
6.603999999999999
 31
0.0
  0
LINE
  5
21F
330
218
100
AcDbEntity
  8
치수문자_일반주서
 62
     0
370
    -2
100
AcDbLine
 10
148.224350938141
 20
35.306
 30
0.0
 11
148.224350938141
 21
38.608
 31
0.0
  0
LINE
  5
220
330
218
100
AcDbEntity
  8
치수문자_일반주서
 62
     0
370
    -2
100
AcDbLine
 10
148.2243509381411
 20
3.302
 30
0.0
 11
148.2243509381411
 21
0.0
 31
0.0
  0
SOLID
  5
221
330
218
100
AcDbEntity
  8
치수문자_일반주서
 62
     0
100
AcDbTrace
 10
147.6740176048077
 20
35.306
 30
0.0
 11
148.7746842714744
 21
35.306
 31
0.0
 12
148.224350938141
 22
32.004
 32
0.0
 13
148.224350938141
 23
32.004
 33
0.0
  0
SOLID
  5
222
330
218
100
AcDbEntity
  8
치수문자_일반주서
 62
     0
100
AcDbTrace
 10
148.7746842714745
 20
3.302000000000001
 30
0.0
 11
147.6740176048078
 21
3.301999999999998
 31
0.0
 12
148.2243509381411
 22
6.603999999999999
 32
0.0
 13
148.2243509381411
 23
6.603999999999999
 33
0.0
  0
MTEXT
  5
223
330
218
100
AcDbEntity
  8
치수문자_일반주서
 62
     0
100
AcDbMText
 10
143.849350938141
 20
58.99076930339931
 30
0.0
 40
3.5
 41
0.0
 71
     2
 72
     1
  1
\A1;%%c25.4 [1]
  7
SLDTEXTSTYLE0
 11
-3.356894814614646E-15
 21
1.0
 31
0.0
 73
     1
 44
1.0
  0
POINT
  5
224
330
218
100
AcDbEntity
  8
Defpoints
 62
     0
100
AcDbPoint
 10
130.7225
 20
32.00399999999994
 30
0.0
  0
POINT
  5
225
330
218
100
AcDbEntity
  8
Defpoints
 62
     0
100
AcDbPoint
 10
130.7225
 20
6.603999999999933
 30
0.0
  0
POINT
  5
226
330
218
100
AcDbEntity
  8
Defpoints
 62
     0
100
AcDbPoint
 10
148.2243509381411
 20
6.603999999999999
 30
0.0
  0
ENDBLK
  5
21A
330
218
100
AcDbEntity
  8
0
100
AcDbBlockEnd
  0
BLOCK
  5
26F
330
26E
100
AcDbEntity
  8
0
100
AcDbBlockBegin
  2
*D12
 70
     1
 10
0.0
 20
0.0
 30
0.0
  3
*D12
  1
*D12
  0
LINE
  5
271
330
26E
100
AcDbEntity
  8
치수문자_일반주서
 62
     0
370
    -2
100
AcDbLine
 10
-61.56249998687545
 20
12.70084580380242
 30
0.0
 11
-73.54749998687548
 21
12.70084580380238
 31
0.0
  0
LINE
  5
272
330
26E
100
AcDbEntity
  8
치수문자_일반주서
 62
     0
370
    -2
100
AcDbLine
 10
-59.02249998687543
 20
-12.69915419619754
 30
0.0
 11
-73.5474999868754
 21
-12.6991541961976
 31
0.0
  0
LINE
  5
273
330
26E
100
AcDbEntity
  8
치수문자_일반주서
 62
     0
370
    -2
100
AcDbLine
 10
-73.54749998687547
 20
9.398845803802375
 30
0.0
 11
-73.54749998687541
 21
-9.397154196197603
 31
0.0
  0
SOLID
  5
274
330
26E
100
AcDbEntity
  8
치수문자_일반주서
 62
     0
100
AcDbTrace
 10
-72.99716665354214
 20
9.398845803802377
 30
0.0
 11
-74.09783332020879
 21
9.398845803802374
 31
0.0
 12
-73.54749998687548
 22
12.70084580380238
 32
0.0
 13
-73.54749998687548
 23
12.70084580380238
 33
0.0
  0
SOLID
  5
275
330
26E
100
AcDbEntity
  8
치수문자_일반주서
 62
     0
100
AcDbTrace
 10
-74.09783332020874
 20
-9.397154196197604
 30
0.0
 11
-72.99716665354208
 21
-9.3971541961976
 31
0.0
 12
-73.5474999868754
 22
-12.6991541961976
 32
0.0
 13
-73.5474999868754
 23
-12.6991541961976
 33
0.0
  0
MTEXT
  5
276
330
26E
100
AcDbEntity
  8
치수문자_일반주서
 62
     0
100
AcDbMText
 10
-77.92249998687544
 20
0.0008458038024163
 30
0.0
 40
3.5
 41
0.0
 71
     2
 72
     1
  1
\A1;%%c25.4 [1]
  7
SLDTEXTSTYLE0
 11
-3.356894814614650E-15
 21
1.0
 31
0.0
 73
     1
 44
1.0
  0
POINT
  5
277
330
26E
100
AcDbEntity
  8
Defpoints
 62
     0
100
AcDbPoint
 10
-61.49999998687545
 20
12.70084580380242
 30
0.0
  0
POINT
  5
278
330
26E
100
AcDbEntity
  8
Defpoints
 62
     0
100
AcDbPoint
 10
-58.95999998687543
 20
-12.69915419619754
 30
0.0
  0
POINT
  5
279
330
26E
100
AcDbEntity
  8
Defpoints
 62
     0
100
AcDbPoint
 10
-73.54749998687538
 20
-12.6991541961976
 30
0.0
  0
ENDBLK
  5
270
330
26E
100
AcDbEntity
  8
0
100
AcDbBlockEnd
  0
BLOCK
  5
27B
330
27A
100
AcDbEntity
  8
0
100
AcDbBlockBegin
  2
*D13
 70
     1
 10
0.0
 20
0.0
 30
0.0
  3
*D13
  1
*D13
  0
LINE
  5
27D
330
27A
100
AcDbEntity
  8
치수문자_일반주서
 62
     0
370
    -2
100
AcDbLine
 10
52.80000001312456
 20
15.93834580380242
 30
0.0
 11
52.80000001312456
 21
43.93498197514722
 31
0.0
  0
LINE
  5
27E
330
27A
100
AcDbEntity
  8
치수문자_일반주서
 62
     0
370
    -2
100
AcDbLine
 10
2.000000013124549
 20
15.90910721372698
 30
0.0
 11
2.000000013124549
 21
43.93498197514722
 31
0.0
  0
LINE
  5
27F
330
27A
100
AcDbEntity
  8
치수문자_일반주서
 62
     0
370
    -2
100
AcDbLine
 10
49.49800001312456
 20
43.93498197514722
 30
0.0
 11
5.302000013124548
 21
43.93498197514722
 31
0.0
  0
SOLID
  5
280
330
27A
100
AcDbEntity
  8
치수문자_일반주서
 62
     0
100
AcDbTrace
 10
49.49800001312456
 20
43.38464864181389
 30
0.0
 11
49.49800001312456
 21
44.48531530848056
 31
0.0
 12
52.80000001312456
 22
43.93498197514722
 32
0.0
 13
52.80000001312456
 23
43.93498197514722
 33
0.0
  0
SOLID
  5
281
330
27A
100
AcDbEntity
  8
치수문자_일반주서
 62
     0
100
AcDbTrace
 10
5.302000013124548
 20
44.48531530848056
 30
0.0
 11
5.302000013124548
 21
43.38464864181389
 31
0.0
 12
2.000000013124549
 22
43.93498197514722
 32
0.0
 13
2.000000013124549
 23
43.93498197514722
 33
0.0
  0
MTEXT
  5
282
330
27A
100
AcDbEntity
  8
치수문자_일반주서
 62
     0
100
AcDbMText
 10
25.2985669345444
 20
48.30998197514722
 30
0.0
 40
3.5
 41
0.0
 71
     2
 72
     1
  1
\A1;50.8 [2]
  7
SLDTEXTSTYLE0
 73
     1
 44
1.0
  0
POINT
  5
283
330
27A
100
AcDbEntity
  8
Defpoints
 62
     0
100
AcDbPoint
 10
52.80000001312456
 20
15.87584580380242
 30
0.0
  0
POINT
  5
284
330
27A
100
AcDbEntity
  8
Defpoints
 62
     0
100
AcDbPoint
 10
2.000000013124549
 20
15.84660721372698
 30
0.0
  0
POINT
  5
285
330
27A
100
AcDbEntity
  8
Defpoints
 62
     0
100
AcDbPoint
 10
2.000000013124549
 20
43.93498197514722
 30
0.0
  0
ENDBLK
  5
27C
330
27A
100
AcDbEntity
  8
0
100
AcDbBlockEnd
  0
BLOCK
  5
287
330
286
100
AcDbEntity
  8
0
100
AcDbBlockBegin
  2
*D14
 70
     1
 10
0.0
 20
0.0
 30
0.0
  3
*D14
  1
*D14
  0
LINE
  5
289
330
286
100
AcDbEntity
  8
치수문자_일반주서
 62
     0
370
    -2
100
AcDbLine
 10
52.80000001312456
 20
15.93834580380242
 30
0.0
 11
52.80000001312456
 21
58.93498197514724
 31
0.0
  0
LINE
  5
28A
330
286
100
AcDbEntity
  8
치수문자_일반주서
 62
     0
370
    -2
100
AcDbLine
 10
-61.49999998687545
 20
10.22334580380246
 30
0.0
 11
-61.49999998687545
 21
58.93498197514724
 31
0.0
  0
LINE
  5
28B
330
286
100
AcDbEntity
  8
치수문자_일반주서
 62
     0
370
    -2
100
AcDbLine
 10
49.49800001312456
 20
58.93498197514724
 30
0.0
 11
-58.19799998687545
 21
58.93498197514724
 31
0.0
  0
SOLID
  5
28C
330
286
100
AcDbEntity
  8
치수문자_일반주서
 62
     0
100
AcDbTrace
 10
49.49800001312456
 20
58.3846486418139
 30
0.0
 11
49.49800001312456
 21
59.48531530848057
 31
0.0
 12
52.80000001312456
 22
58.93498197514724
 32
0.0
 13
52.80000001312456
 23
58.93498197514724
 33
0.0
  0
SOLID
  5
28D
330
286
100
AcDbEntity
  8
치수문자_일반주서
 62
     0
100
AcDbTrace
 10
-58.19799998687545
 20
59.48531530848057
 30
0.0
 11
-58.19799998687545
 21
58.3846486418139
 31
0.0
 12
-61.49999998687545
 22
58.93498197514724
 32
0.0
 13
-61.49999998687545
 23
58.93498197514724
 33
0.0
  0
MTEXT
  5
28E
330
286
100
AcDbEntity
  8
치수문자_일반주서
 62
     0
100
AcDbMText
 10
-6.313073768141237
 20
63.30998197514724
 30
0.0
 40
3.5
 41
0.0
 71
     2
 72
     1
  1
\A1;114.3 [4 1/2]
  7
SLDTEXTSTYLE0
 73
     1
 44
1.0
  0
POINT
  5
28F
330
286
100
AcDbEntity
  8
Defpoints
 62
     0
100
AcDbPoint
 10
52.80000001312456
 20
15.87584580380242
 30
0.0
  0
POINT
  5
290
330
286
100
AcDbEntity
  8
Defpoints
 62
     0
100
AcDbPoint
 10
-61.49999998687545
 20
10.16084580380246
 30
0.0
  0
POINT
  5
291
330
286
100
AcDbEntity
  8
Defpoints
 62
     0
100
AcDbPoint
 10
-61.49999998687545
 20
58.93498197514724
 30
0.0
  0
ENDBLK
  5
288
330
286
100
AcDbEntity
  8
0
100
AcDbBlockEnd
  0
BLOCK
  5
293
330
292
100
AcDbEntity
  8
0
100
AcDbBlockBegin
  2
*D15
 70
     1
 10
0.0
 20
0.0
 30
0.0
  3
*D15
  1
*D15
  0
LINE
  5
295
330
292
100
AcDbEntity
  8
치수문자_일반주서
 62
     0
370
    -2
100
AcDbLine
 10
52.86250001312456
 20
15.87584580380242
 30
0.0
 11
74.67731368580084
 21
15.87584580380249
 31
0.0
  0
LINE
  5
296
330
292
100
AcDbEntity
  8
치수문자_일반주서
 62
     0
370
    -2
100
AcDbLine
 10
52.86250001312456
 20
-15.87415419619759
 30
0.0
 11
74.67731368580095
 21
-15.8741541961975
 31
0.0
  0
LINE
  5
297
330
292
100
AcDbEntity
  8
치수문자_일반주서
 62
     0
370
    -2
100
AcDbLine
 10
74.67731368580084
 20
15.87584580380249
 30
0.0
 11
74.67731368580067
 21
65.35930743305164
 31
0.0
  0
LINE
  5
298
330
292
100
AcDbEntity
  8
치수문자_일반주서
 62
     0
370
    -2
100
AcDbLine
 10
74.67731368580084
 20
15.87584580380249
 30
0.0
 11
74.67731368580095
 21
-15.8741541961975
 31
0.0
  0
LINE
  5
299
330
292
100
AcDbEntity
  8
치수문자_일반주서
 62
     0
370
    -2
100
AcDbLine
 10
74.67731368580083
 20
19.17784580380249
 30
0.0
 11
74.67731368580081
 21
22.47984580380249
 31
0.0
  0
LINE
  5
29A
330
292
100
AcDbEntity
  8
치수문자_일반주서
 62
     0
370
    -2
100
AcDbLine
 10
74.67731368580097
 20
-19.1761541961975
 30
0.0
 11
74.67731368580098
 21
-22.4781541961975
 31
0.0
  0
SOLID
  5
29B
330
292
100
AcDbEntity
  8
치수문자_일반주서
 62
     0
100
AcDbTrace
 10
74.1269803524675
 20
19.17784580380249
 30
0.0
 11
75.22764701913415
 21
19.17784580380249
 31
0.0
 12
74.67731368580084
 22
15.87584580380249
 32
0.0
 13
74.67731368580084
 23
15.87584580380249
 33
0.0
  0
SOLID
  5
29C
330
292
100
AcDbEntity
  8
치수문자_일반주서
 62
     0
100
AcDbTrace
 10
75.2276470191343
 20
-19.1761541961975
 30
0.0
 11
74.12698035246764
 21
-19.1761541961975
 31
0.0
 12
74.67731368580095
 22
-15.8741541961975
 32
0.0
 13
74.67731368580095
 23
-15.8741541961975
 33
0.0
  0
MTEXT
  5
29D
330
292
100
AcDbEntity
  8
치수문자_일반주서
 62
     0
100
AcDbMText
 10
70.30231368580073
 20
49.60930743305163
 30
0.0
 40
3.5
 41
0.0
 71
     2
 72
     1
  1
\A1;%%c31.75 [1 1/4]
  7
SLDTEXTSTYLE0
 11
-3.580687802255622E-15
 21
1.0
 31
0.0
 73
     1
 44
1.0
  0
POINT
  5
29E
330
292
100
AcDbEntity
  8
Defpoints
 62
     0
100
AcDbPoint
 10
52.80000001312456
 20
15.87584580380242
 30
0.0
  0
POINT
  5
29F
330
292
100
AcDbEntity
  8
Defpoints
 62
     0
100
AcDbPoint
 10
52.80000001312456
 20
-15.87415419619759
 30
0.0
  0
POINT
  5
2A0
330
292
100
AcDbEntity
  8
Defpoints
 62
     0
100
AcDbPoint
 10
74.67731368580095
 20
-15.87415419619751
 30
0.0
  0
ENDBLK
  5
294
330
292
100
AcDbEntity
  8
0
100
AcDbBlockEnd
  0
ENDSEC
  0
SECTION
  2
ENTITIES
  0
LINE
  5
BB
330
1F
100
AcDbEntity
  8
참조1
100
AcDbLine
 10
18.41194598552359
 20
0.0010749287238892
 30
0.0
 11
18.4119459855236
 21
-39.99892507127611
 31
0.0
  0
LINE
  5
BC
330
1F
100
AcDbEntity
  8
참조1
100
AcDbLine
 10
18.4119459855236
 20
-39.99892507127611
 30
0.0
 11
3.253089171214916
 21
-39.9989250712761
 31
0.0
  0
INSERT
  5
BE
330
1F
100
AcDbEntity
  8
0
  6
Continuous
 62
     7
100
AcDbBlockReference
 66
     1
  2
블럭10
 10
-11.67775208819102
 20
-52.04609937292004
 30
0.0
  0
ATTRIB
  5
BF
330
BE
100
AcDbEntity
  8
FORMAT
 62
     2
100
AcDbText
 10
-20.8590473769323
 20
-49.97073246008785
 30
0.0
 40
4.233333333333333
  1
E2032904 [ 6 FLUTE ]
 41
0.75
  7
SLDTEXTSTYLE0
 11
-20.8590473769323
 21
-52.08739912675452
 31
0.0
100
AcDbAttribute
  2
AUTOATTR0
 70
     0
 74
     1
  0
SEQEND
  5
C0
330
BE
100
AcDbEntity
  8
0
  6
Continuous
 62
     7
  0
HATCH
  5
C1
330
1F
100
AcDbEntity
  8
중심선
100
AcDbHatch
 10
0.0
 20
0.0
 30
0.0
210
0.0
220
0.0
230
1.0
  2
SOLID
 70
     1
 71
     0
 91
        1
 92
        0
 93
        4
 72
     1
 10
-5.962842783810181
 20
-35.7989250712761
 11
-9.409118027647464
 21
-35.7989250712761
 72
     1
 10
-9.409118027647464
 20
-35.7989250712761
 11
-11.53734788685149
 21
-38.3352506518487
 72
     1
 10
-11.53734788685149
 20
-38.3352506518487
 11
-8.091039557901055
 21
-38.33521122254621
 72
     1
 10
-8.091039557901055
 20
-38.33521122254621
 11
-5.962842783810181
 21
-35.7989250712761
 97
        0
 75
     0
 76
     1
 98
        1
 10
-16.1494251415894
 20
0.0
  0
HATCH
  5
C2
330
1F
100
AcDbEntity
  8
중심선
100
AcDbHatch
 10
0.0
 20
0.0
 30
0.0
210
0.0
220
0.0
230
1.0
  2
SOLID
 70
     1
 71
     0
 91
        1
 92
        0
 93
        4
 72
     1
 10
-0.9500787927742032
 20
-35.7989250712761
 11
-4.396354036611484
 21
-35.7989250712761
 72
     1
 10
-4.396354036611484
 20
-35.7989250712761
 11
-8.9274920449689
 21
-41.19892507127612
 72
     1
 10
-8.9274920449689
 20
-41.19892507127612
 11
-5.48121680113162
 21
-41.19892507127612
 72
     1
 10
-5.48121680113162
 20
-41.19892507127612
 11
-0.9500787927742032
 21
-35.7989250712761
 97
        0
 75
     0
 76
     1
 98
        1
 10
-16.1494251415894
 20
0.0
  0
HATCH
  5
C3
330
1F
100
AcDbEntity
  8
중심선
100
AcDbHatch
 10
0.0
 20
0.0
 30
0.0
210
0.0
220
0.0
230
1.0
  2
SOLID
 70
     1
 71
     0
 91
        1
 92
        0
 93
        4
 72
     1
 10
4.062685198261665
 20
-35.7989250712761
 11
0.6164099544245509
 21
-35.7989250712761
 72
     1
 10
0.6164099544245509
 20
-35.7989250712761
 11
-6.432026947464699
 21
-44.19892507127612
 72
     1
 10
-6.432026947464699
 20
-44.19892507127612
 11
-2.985751703627418
 21
-44.19892507127612
 72
     1
 10
-2.985751703627418
 20
-44.19892507127612
 11
4.062685198261665
 21
-35.7989250712761
 97
        0
 75
     0
 76
     1
 98
        1
 10
-16.1494251415894
 20
0.0
  0
HATCH
  5
C4
330
1F
100
AcDbEntity
  8
중심선
100
AcDbHatch
 10
0.0
 20
0.0
 30
0.0
210
0.0
220
0.0
230
1.0
  2
SOLID
 70
     1
 71
     0
 91
        1
 92
        0
 93
        6
 72
     3
 10
8.862575629273863
 20
-39.99892507132738
 11
3.960054785062283
 21
1.540882976769353E-10
 40
0.3939339440162628
 50
17.09539180608437
 51
320.0019657685075
 73
     0
 72
     1
 10
10.54557528497446
 20
-38.58681907591438
 11
12.8508771586755
 21
-36.65249236586649
 72
     3
 10
8.862575629221016
 20
-39.99892507127625
 11
6.600054785286829
 21
-1.278976924368180E-13
 40
0.636358354079598
 50
39.99873849337408
 51
368.4976242363725
 73
     1
 72
     1
 10
15.28790812112163
 20
-39.03892507120613
 11
7.542642936056939
 21
-39.0389250712061
 72
     1
 10
7.542642936056939
 20
-39.0389250712061
 11
7.542617891611005
 21
-40.95892507120602
 72
     1
 10
7.542617891611005
 20
-40.95892507120602
 11
11.98399766108304
 21
-40.95892507120599
 97
        0
 75
     0
 76
     1
 98
        1
 10
-16.1494251415894
 20
0.0
  0
LINE
  5
115
330
1F
100
AcDbEntity
  8
참조1
100
AcDbLine
 10
101.2254298008692
 20
7.441074928723896
 30
0.0
 11
101.2254298008692
 21
-7.438925071276109
 31
0.0
  0
LINE
  5
116
330
1F
100
AcDbEntity
  8
참조1
100
AcDbLine
 10
113.9254298008692
 20
5.441074928723896
 30
0.0
 11
101.2254298008692
 21
5.441074928723896
 31
0.0
  0
SOLID
  5
117
330
1F
100
AcDbEntity
  8
참조1
100
AcDbTrace
 10
101.2254298008692
 20
5.441074928723896
 30
0.0
 11
107.5754298008692
 21
4.425074928723896
 31
0.0
 12
107.5754298008692
 22
6.457074928723896
 32
0.0
 13
107.5754298008692
 23
6.457074928723896
 33
0.0
  0
LINE
  5
118
330
1F
100
AcDbEntity
  8
참조1
100
AcDbLine
 10
113.9254298008692
 20
-5.438925071276109
 30
0.0
 11
101.2254298008692
 21
-5.438925071276109
 31
0.0
  0
SOLID
  5
119
330
1F
100
AcDbEntity
  8
참조1
100
AcDbTrace
 10
101.2254298008692
 20
-5.438925071276109
 30
0.0
 11
107.5754298008692
 21
-6.454925071276109
 31
0.0
 12
107.5754298008692
 22
-4.422925071276109
 32
0.0
 13
107.5754298008692
 23
-4.422925071276109
 33
0.0
  0
MTEXT
  5
11A
330
1F
100
AcDbEntity
  8
참조1
100
AcDbMText
 10
110.6229198933395
 20
10.98929157337383
 30
0.0
 40
3.5
 41
0.0
 71
     1
 72
     1
  1
A
  7
SLDTEXTSTYLE0
 73
     1
 44
1.0
  0
MTEXT
  5
11B
330
1F
100
AcDbEntity
  8
참조1
100
AcDbMText
 10
110.6229198933395
 20
0.1092915733738259
 30
0.0
 40
3.5
 41
0.0
 71
     1
 72
     1
  1
A
  7
SLDTEXTSTYLE0
 73
     1
 44
1.0
  0
LINE
  5
229
330
1F
100
AcDbEntity
  8
0
  6
Continuous
 62
     1
370
    15
100
AcDbLine
 10
21.47039352126953
 20
15.87584580380242
 30
0.0
 11
17.6333404335243
 21
15.87584580380242
 31
0.0
  0
LINE
  5
22A
330
1F
100
AcDbEntity
  8
0
  6
Continuous
 62
     1
370
    15
100
AcDbLine
 10
17.63334043352418
 20
-15.87415419619759
 30
0.0
 11
21.47039352126947
 21
-15.87415419619759
 31
0.0
  0
LINE
  5
22B
330
1F
100
AcDbEntity
  8
0
  6
Continuous
 62
     1
370
    15
100
AcDbLine
 10
50.87983121387711
 20
-15.87415419619759
 30
0.0
 11
52.80000001312456
 21
-15.87415419619759
 31
0.0
  0
LINE
  5
22C
330
1F
100
AcDbEntity
  8
0
  6
Continuous
 62
     1
370
    15
100
AcDbLine
 10
4.845329332165278
 20
15.87584580380242
 30
0.0
 11
2.000000013124549
 21
15.87584580380242
 31
0.0
  0
LINE
  5
22D
330
1F
100
AcDbEntity
  8
0
  6
Continuous
 62
     1
370
    15
100
AcDbLine
 10
34.25626074117471
 20
-15.87415419619759
 30
0.0
 11
38.09551995742848
 21
-15.87415419619759
 31
0.0
  0
LINE
  5
22E
330
1F
100
AcDbEntity
  8
0
  6
Continuous
 62
     1
370
    15
100
AcDbLine
 10
38.09551995742848
 20
15.87584580380242
 30
0.0
 11
34.25626074117477
 21
15.87584580380242
 31
0.0
  0
LINE
  5
22F
330
1F
100
AcDbEntity
  8
0
  6
Continuous
 62
     1
370
    15
100
AcDbLine
 10
2.000000013124577
 20
-15.87415419619759
 30
0.0
 11
4.845329332165164
 21
-15.87415419619759
 31
0.0
  0
LINE
  5
230
330
1F
100
AcDbEntity
  8
0
  6
Continuous
 62
     1
370
    15
100
AcDbLine
 10
52.80000001312456
 20
15.87584580380242
 30
0.0
 11
50.87983121387711
 21
15.87584580380242
 31
0.0
  0
LINE
  5
231
330
1F
100
AcDbEntity
  8
외형선
  6
Continuous
370
    15
100
AcDbLine
 10
-58.95999998687543
 20
-12.69915419619756
 30
0.0
 11
1.136936448457988
 21
-12.69915419619756
 31
0.0
  0
LINE
  5
232
330
1F
100
AcDbEntity
  8
외형선
  6
Continuous
370
    15
100
AcDbLine
 10
-61.49999998687545
 20
-10.15915419619757
 30
0.0
 11
-58.95999998687543
 21
-12.69915419619756
 31
0.0
  0
SPLINE
  5
234
330
1F
100
AcDbEntity
  8
0
  6
Continuous
 62
     1
370
    15
100
AcDbSpline
210
0.0
220
0.0
230
1.0
 70
     8
 71
     3
 72
    29
 73
    25
 74
     0
 42
0.000000001
 43
0.00000001
 40
0.0
 40
0.0
 40
0.0
 40
0.0
 40
0.0069957427474156
 40
0.0480780149304182
 40
0.0891626052647702
 40
0.1302851366952333
 40
0.1713955108738117
 40
0.2124760482464426
 40
0.253563539672792
 40
0.2946902051100725
 40
0.3357948059422572
 40
0.3768741921451447
 40
0.4179651671032655
 40
0.4590942942619535
 40
0.5001937012364768
 40
0.5412725201091169
 40
0.5823675604375417
 40
0.6234974765076522
 40
0.6645922700085645
 40
0.7056711054884681
 40
0.746770792324322
 40
0.787899824327747
 40
0.8289905855347521
 40
0.8687668297368578
 40
0.8687668297368578
 40
0.8687668297368578
 40
0.8687668297368578
 10
50.87983121387711
 20
-15.85038818982468
 30
0.0
 10
50.7485977911355
 20
-15.85791960129145
 30
0.0
 10
49.84670035354415
 20
-15.90967898210632
 30
0.0
 10
48.17520777076393
 20
-15.68025879253245
 30
0.0
 10
45.86361981654906
 20
-15.14599674370051
 30
0.0
 10
43.54982440221906
 20
-14.26042930803263
 30
0.0
 10
41.23675771379195
 20
-13.08092702223982
 30
0.0
 10
38.92546774056129
 20
-11.62182918898214
 30
0.0
 10
36.6137813436583
 20
-9.916888130344741
 30
0.0
 10
34.29971121949049
 20
-8.002903222951776
 30
0.0
 10
31.98700306710722
 20
-5.918593402045548
 30
0.0
 10
29.67577792290368
 20
-3.708725444442965
 30
0.0
 10
27.36388911274318
 20
-1.420017117180496
 30
0.0
 10
25.04966583502417
 20
0.8972237654896169
 30
0.0
 10
22.73727330439229
 20
3.196837202064639
 30
0.0
 10
20.42608071644534
 20
5.428671087814863
 30
0.0
 10
18.11395080638002
 20
7.545679728044682
 30
0.0
 10
15.79967827613265
 20
9.501589258312272
 30
0.0
 10
13.48756381252164
 20
11.25754561313202
 30
0.0
 10
11.17636746842751
 20
12.77485780747373
 30
0.0
 10
8.863968529520406
 20
14.02151792823159
 30
0.0
 10
6.549711888263317
 20
14.97082941511597
 30
0.0
 10
4.262415579373794
 20
15.59639091219748
 30
0.0
 10
2.745924187223778
 20
15.7991064324081
 30
0.0
 10
2.000000013124492
 20
15.84513281557178
 30
0.0
  0
LINE
  5
235
330
1F
100
AcDbEntity
  8
0
  6
Continuous
 62
     1
370
    15
100
AcDbLine
 10
52.80000001312456
 20
-15.75830719180395
 30
0.0
 11
52.80000001312456
 21
-9.523337113931984
 31
0.0
  0
SPLINE
  5
236
330
1F
100
AcDbEntity
  8
0
  6
Continuous
 62
     1
370
    15
100
AcDbSpline
210
0.0
220
0.0
230
1.0
 70
     8
 71
     3
 72
    28
 73
    24
 74
     0
 42
0.000000001
 43
0.00000001
 40
0.0
 40
0.0
 40
0.0
 40
0.0
 40
0.0355383131885413
 40
0.0837942395790062
 40
0.132015735831507
 40
0.1802127675768494
 40
0.2284285225707008
 40
0.2766854862201239
 40
0.3249015308120935
 40
0.3730985430724428
 40
0.4213197109688626
 40
0.4695757490032232
 40
0.5177870237720148
 40
0.5659847016703654
 40
0.6142119634231383
 40
0.662465113165672
 40
0.7106723007715863
 40
0.7588713293159334
 40
0.8071053648283851
 40
0.855353664217799
 40
0.9035574480265649
 40
0.9517585119915748
 40
1.0
 40
1.0
 40
1.0
 40
1.0
 10
4.845329332165278
 20
15.84324273590299
 30
0.0
 10
5.413266158665039
 20
15.83859717068581
 30
0.0
 10
6.752379645931086
 20
15.82764359495689
 30
0.0
 10
8.863977321717954
 20
15.41773561794244
 30
0.0
 10
11.17636511464107
 20
14.68449812281515
 30
0.0
 10
13.48756444333767
 20
13.62872031818099
 30
0.0
 10
15.79967810691207
 20
12.28715200740996
 30
0.0
 10
18.11395085169843
 20
10.68557331962308
 30
0.0
 10
20.42608070430558
 20
8.856840326067456
 30
0.0
 10
22.73727330767107
 20
6.840564046314665
 30
0.0
 10
25.04966583405221
 20
4.679329025816809
 30
0.0
 10
27.36388911334896
 20
2.420322818308701
 30
0.0
 10
29.67577792145366
 20
0.1085391028740723
 30
0.0
 10
31.98700307230192
 20
-2.205282770142727
 30
0.0
 10
34.29971120014383
 20
-4.472213687188589
 30
0.0
 10
36.61378141585837
 20
-6.643443331848882
 30
0.0
 10
38.92546747142129
 20
-8.675262621779485
 30
0.0
 10
41.23675871838427
 20
-10.52317618461234
 30
0.0
 10
43.54982064949999
 20
-12.14735114726433
 30
0.0
 10
45.8636338207036
 20
-13.51564968193602
 30
0.0
 10
48.17515556207437
 20
-14.59191730185318
 30
0.0
 10
50.48654649535879
 20
-15.38284445588726
 30
0.0
 10
52.02863338450854
 20
-15.63311797898816
 30
0.0
 10
52.80000001312456
 20
-15.75830719180395
 30
0.0
  0
SPLINE
  5
237
330
1F
100
AcDbEntity
  8
0
  6
Continuous
 62
     1
370
    15
100
AcDbSpline
210
0.0
220
0.0
230
1.0
 70
     8
 71
     3
 72
    25
 73
    21
 74
     0
 42
0.000000001
 43
0.00000001
 40
0.0
 40
0.0
 40
0.0
 40
0.0
 40
0.0556637349421874
 40
0.1112808263555195
 40
0.1669010560771449
 40
0.2225726503727973
 40
0.2782277862070873
 40
0.3338425290378822
 40
0.3894666862515924
 40
0.4451438771567518
 40
0.5007911970471546
 40
0.5564043814268355
 40
0.6120332546383392
 40
0.6677137782166268
 40
0.7233540666737375
 40
0.778966483002954
 40
0.834600859904001
 40
0.8902824515088699
 40
0.9459164942553632
 40
0.9999999999999999
 40
0.9999999999999999
 40
0.9999999999999999
 40
0.9999999999999999
 10
52.80000001312456
 20
-9.53660324513459
 30
0.0
 10
52.02863338450854
 20
-8.900837522127862
 30
0.0
 10
50.48654649535879
 20
-7.629838817168864
 30
0.0
 10
48.17515556207437
 20
-5.506596379361813
 30
0.0
 10
45.86363382070377
 20
-3.281050927689382
 30
0.0
 10
43.54982064949908
 20
-0.983314912054329
 30
0.0
 10
41.23675871838751
 20
1.334806898712937
 30
0.0
 10
38.92546747140918
 20
3.625407509251271
 30
0.0
 10
36.61378141590396
 20
5.839328085466672
 30
0.0
 10
34.29971119997342
 20
7.928263812133888
 30
0.0
 10
31.98700307293709
 20
9.85024872610003
 30
0.0
 10
29.67577791908454
 20
11.563689861668
 30
0.0
 10
27.36388912219681
 20
13.03229254947802
 30
0.0
 10
25.04966580100788
 20
14.22401175519169
 30
0.0
 10
22.73727343086492
 20
15.11530335440289
 30
0.0
 10
20.42608024470971
 20
15.68588439287612
 30
0.0
 10
18.11395256833461
 20
15.92586429570736
 30
0.0
 10
15.79967169667614
 20
15.82221017247088
 30
0.0
 10
13.50876524881281
 20
15.41096607399308
 30
0.0
 10
11.98922441793533
 20
14.86890976231037
 30
0.0
 10
11.24019113760627
 20
14.60171179762764
 30
0.0
  0
SPLINE
  5
239
330
1F
100
AcDbEntity
  8
외형선
  6
Continuous
370
    15
100
AcDbSpline
210
0.0
220
0.0
230
1.0
 70
    24
 71
     3
 72
    34
 73
    30
 74
     0
 42
0.000000001
 43
0.00000001
 40
0.0
 40
0.0
 40
0.0
 40
0.0
 40
0.1250000000000012
 40
0.1250000000000012
 40
0.1562500000000016
 40
0.1562500000000016
 40
0.1875000000000018
 40
0.1875000000000018
 40
0.2500000000000018
 40
0.2500000000000018
 40
0.3750000000000016
 40
0.3750000000000016
 40
0.5000000000000012
 40
0.5000000000000012
 40
0.5625000000000011
 40
0.5625000000000011
 40
0.6250000000000009
 40
0.6250000000000009
 40
0.6875000000000008
 40
0.6875000000000008
 40
0.7500000000000007
 40
0.7500000000000007
 40
0.8125000000000004
 40
0.8125000000000004
 40
0.8750000000000003
 40
0.8750000000000003
 40
0.9375000000000001
 40
0.9375000000000001
 40
1.0
 40
1.0
 40
1.0
 40
1.0
 10
2.000000013124577
 20
2.697494954080515
 30
0.0
 10
2.000000013124549
 20
2.691418451945005
 30
0.0
 10
2.000000013124549
 20
2.618491298326624
 30
0.0
 10
2.000000013124549
 20
2.488723607103985
 30
0.0
 10
2.000000013124577
 20
2.460768184249595
 30
0.0
 10
2.000000013124577
 20
2.401687343804831
 30
0.0
 10
2.000000013124577
 20
2.370002326191141
 30
0.0
 10
2.000000013124549
 20
2.263346434897187
 30
0.0
 10
2.00000001312452
 20
2.178379195641643
 30
0.0
 10
2.000000013124549
 20
1.871868026355319
 30
0.0
 10
2.000000013124549
 20
1.598083698175884
 30
0.0
 10
2.000000013124577
 20
0.8615326313241738
 30
0.0
 10
2.000000013124549
 20
0.3965204683800252
 30
0.0
 10
2.000000013124549
 20
-0.446711278320322
 30
0.0
 10
2.000000013124549
 20
-0.7514436913103353
 30
0.0
 10
2.000000013124577
 20
-1.398197888419308
 30
0.0
 10
2.000000013124577
 20
-1.740199894088907
 30
0.0
 10
2.000000013124577
 20
-2.443512648725978
 30
0.0
 10
2.000000013124549
 20
-2.804706000990198
 30
0.0
 10
2.000000013124577
 20
-3.522356303611478
 30
0.0
 10
2.000000013124549
 20
-3.878626329935575
 30
0.0
 10
2.000000013124549
 20
-4.561056650525682
 30
0.0
 10
2.000000013124577
 20
-4.887040289676609
 30
0.0
 10
2.000000013124577
 20
-5.487987215122491
 30
0.0
 10
2.000000013124577
 20
-5.762862507695363
 30
0.0
 10
2.000000013124577
 20
-6.249380357435857
 30
0.0
 10
2.000000013124577
 20
-6.461045038539286
 30
0.0
 10
2.000000013124577
 20
-6.818632021826179
 30
0.0
 10
2.000000013124577
 20
-6.964648309509887
 30
0.0
 10
2.000000013124549
 20
-7.080426293773161
 30
0.0
  0
SPLINE
  5
23A
330
1F
100
AcDbEntity
  8
0
  6
Continuous
 62
     1
370
    15
100
AcDbSpline
210
0.0
220
0.0
230
1.0
 70
     8
 71
     3
 72
    14
 73
    10
 74
     0
 42
0.000000001
 43
0.00000001
 40
0.0
 40
0.0
 40
0.0
 40
0.0
 40
0.0647087327981283
 40
0.1463171501753122
 40
0.2278938771915519
 40
0.3095120120362361
 40
0.391188422211665
 40
0.4727888320264275
 40
0.5517788154642967
 40
0.5517788154642967
 40
0.5517788154642967
 40
0.5517788154642967
 10
17.63334043352418
 20
-15.84643700028759
 30
0.0
 10
17.02194969463196
 20
-15.8371903823279
 30
0.0
 10
15.63949408640102
 20
-15.816282249374
 30
0.0
 10
13.48754937540346
 20
-15.38421059693296
 30
0.0
 10
11.17637135304912
 20
-14.6323915970167
 30
0.0
 10
8.863967432494604
 20
-13.56023839622373
 30
0.0
 10
6.549712387586311
 20
-12.20440722881751
 30
0.0
 10
4.262414528897722
 20
-10.60544003244483
 30
0.0
 10
2.745925539783144
 20
-9.40076416587782
 30
0.0
 10
2.000000013124577
 20
-8.779118596102972
 30
0.0
  0
SPLINE
  5
23C
330
1F
100
AcDbEntity
  8
외형선
  6
Continuous
370
    15
100
AcDbSpline
210
0.0
220
0.0
230
1.0
 70
    24
 71
     3
 72
    16
 73
    12
 74
     0
 42
0.000000001
 43
0.00000001
 40
0.0
 40
0.0
 40
0.0
 40
0.0
 40
0.1079026091461844
 40
0.2183750054846438
 40
0.3369164798318586
 40
0.4588956649657114
 40
0.5774371393129287
 40
0.6994163244467861
 40
0.8179577987940018
 40
0.9399369839278564
 40
1.0
 40
1.0
 40
1.0
 40
1.0
 10
2.000000013124549
 20
12.09689397606799
 30
0.0
 10
2.000000013124549
 20
11.86790342646201
 30
0.0
 10
2.000000013124577
 20
11.40446873362347
 30
0.0
 10
2.000000013124492
 20
10.63037539992205
 30
0.0
 10
2.000000013124605
 20
9.801016761959104
 30
0.0
 10
2.00000001312452
 20
8.945575404463359
 30
0.0
 10
2.000000013124549
 20
8.102101002943936
 30
0.0
 10
2.000000013124662
 20
7.307293089093751
 30
0.0
 10
2.000000013124577
 20
6.576743186823659
 30
0.0
 10
2.000000013124577
 20
6.02452541676195
 30
0.0
 10
2.000000013124577
 20
5.760624045875861
 30
0.0
 10
2.000000013124577
 20
5.673552409870673
 30
0.0
  0
SPLINE
  5
23D
330
1F
100
AcDbEntity
  8
0
  6
Continuous
 62
     1
370
    15
100
AcDbSpline
210
0.0
220
0.0
230
1.0
 70
     8
 71
     3
 72
    21
 73
    17
 74
     0
 42
0.000000001
 43
0.00000001
 40
0.0
 40
0.0
 40
0.0
 40
0.0
 40
0.0504823625578424
 40
0.1018949118745436
 40
0.1533219649972903
 40
0.2047967671755733
 40
0.2562343733152759
 40
0.3076462125947294
 40
0.359078353696401
 40
0.4105541432299288
 40
0.461985975416769
 40
0.5133978354808991
 40
0.5648357918786212
 40
0.6163104749661605
 40
0.6677372605705534
 40
0.7175188849577455
 40
0.7175188849577455
 40
0.7175188849577455
 40
0.7175188849577455
 10
34.25626074117471
 20
-15.87106920221915
 30
0.0
 10
33.49966759700672
 20
-15.84107708712361
 30
0.0
 10
31.97254034218494
 20
-15.7805402229646
 30
0.0
 10
29.67579290137357
 20
-15.26734707546541
 30
0.0
 10
27.36388509454409
 20
-14.45259148786224
 30
0.0
 10
25.04966691127552
 20
-13.32565922363905
 30
0.0
 10
22.73727301624442
 20
-11.91762503509957
 30
0.0
 10
20.42608079374608
 20
-10.25663136244515
 30
0.0
 10
18.11395078535898
 20
-8.37827772390369
 30
0.0
 10
15.7996782828254
 20
-6.323757477646691
 30
0.0
 10
13.48756380676625
 20
-4.133922345256853
 30
0.0
 10
11.17636748475942
 20
-1.856667501274604
 30
0.0
 10
8.863968469895468
 20
0.459998894346267
 30
0.0
 10
6.54971211050227
 20
2.765601714665987
 30
0.0
 10
4.262414595366607
 20
4.990434626071647
 30
0.0
 10
2.745925555893905
 20
6.396738756812351
 30
0.0
 10
2.000000013124492
 20
7.064946197720904
 30
0.0
  0
LINE
  5
23E
330
1F
100
AcDbEntity
  8
0
  6
Continuous
 62
     1
370
    15
100
AcDbLine
 10
52.80000001312456
 20
-6.220858142866707
 30
0.0
 11
52.80000001312456
 21
6.222549750471838
 31
0.0
  0
SPLINE
  5
23F
330
1F
100
AcDbEntity
  8
0
  6
Continuous
 62
     1
370
    15
100
AcDbSpline
210
0.0
220
0.0
230
1.0
 70
     8
 71
     3
 72
    21
 73
    17
 74
     0
 42
0.000000001
 43
0.00000001
 40
0.0
 40
0.0
 40
0.0
 40
0.0
 40
0.0404383461544571
 40
0.1142476874883044
 40
0.1881104025172715
 40
0.2619046010151854
 40
0.3356779875731311
 40
0.4094966564190075
 40
0.483354950507408
 40
0.5571428930224607
 40
0.6309183469357967
 40
0.7047473839822385
 40
0.7785982539167946
 40
0.8523809864372223
 40
0.9261595558507631
 40
1.0
 40
1.0
 40
1.0
 40
1.0
 10
21.47039352126953
 20
15.83417073424396
 30
0.0
 10
21.89257906140872
 20
15.84060413873857
 30
0.0
 10
23.08535092867723
 20
15.85877999547064
 30
0.0
 10
25.04966807067356
 20
15.51847896855854
 30
0.0
 10
27.36388851447933
 20
14.85011374943929
 30
0.0
 10
29.67577808180349
 20
13.85051757511926
 30
0.0
 10
31.98700302931283
 20
12.56191208971914
 30
0.0
 10
34.29971121167287
 20
11.00612780856222
 30
0.0
 10
36.61378141277171
 20
9.218386624777583
 30
0.0
 10
38.92546747224785
 20
7.234179161153669
 30
0.0
 10
41.23675871816263
 20
5.09684953814256
 30
0.0
 10
43.54982064955945
 20
2.852180947010577
 30
0.0
 10
45.86363382068762
 20
0.5470440170423991
 30
0.0
 10
48.17515556207869
 20
-1.768352873325338
 30
0.0
 10
50.48654649535783
 20
-4.055625023070906
 30
0.0
 10
52.0286333845082
 20
-5.49891211760249
 30
0.0
 10
52.80000001312456
 20
-6.220858142866721
 30
0.0
  0
SPLINE
  5
240
330
1F
100
AcDbEntity
  8
0
  6
Continuous
 62
     1
370
    15
100
AcDbSpline
210
0.0
220
0.0
230
1.0
 70
     8
 71
     3
 72
    18
 73
    14
 74
     0
 42
0.000000001
 43
0.00000001
 40
0.0
 40
0.0
 40
0.0
 40
0.0
 40
0.0927761442179505
 40
0.1854745464955799
 40
0.2781781794704154
 40
0.3709674230700599
 40
0.4637292349390355
 40
0.5564237227751997
 40
0.6491339017996748
 40
0.7419324734088626
 40
0.8346812582479769
 40
0.9273731485745513
 40
1.0
 40
1.0
 40
1.0
 40
1.0
 10
52.80000001312456
 20
6.222549750471838
 30
0.0
 10
52.02863338428071
 20
6.919048469040238
 30
0.0
 10
50.48654649467531
 20
8.311462273797527
 30
0.0
 10
48.17515556480586
 20
10.18978200834342
 30
0.0
 10
45.86363381045547
 20
11.86169259610274
 30
0.0
 10
43.54982068779393
 20
13.27906635950762
 30
0.0
 10
41.23675857556108
 20
14.41625475524542
 30
0.0
 10
38.92546800405702
 20
15.24827716227934
 30
0.0
 10
36.61377942680954
 20
15.75660799082304
 30
0.0
 10
34.29971862954059
 20
15.93363547255517
 30
0.0
 10
31.98697537004617
 20
15.76365714408692
 30
0.0
 10
29.84280978395955
 20
15.32954725131058
 30
0.0
 10
28.46881498352698
 20
14.80848414979244
 30
0.0
 10
27.86519971781169
 20
14.57957379119555
 30
0.0
  0
LINE
  5
241
330
1F
100
AcDbEntity
  8
0
  6
Continuous
 62
     1
370
    15
100
AcDbLine
 10
52.80000001312456
 20
-9.53660324513459
 30
0.0
 11
52.80000001312456
 21
-6.220858142866707
 31
0.0
  0
LINE
  5
242
330
1F
100
AcDbEntity
  8
외형선
  6
Continuous
370
    15
100
AcDbLine
 10
2.000000013124549
 20
2.697494954080515
 30
0.0
 11
2.000000013124549
 21
5.590335116151319
 31
0.0
  0
LINE
  5
243
330
1F
100
AcDbEntity
  8
0
  6
Continuous
 62
     1
370
    15
100
AcDbLine
 10
52.80000001312456
 20
-15.87415419619759
 30
0.0
 11
52.80000001312456
 21
-15.75830719180395
 31
0.0
  0
LINE
  5
244
330
1F
100
AcDbEntity
  8
외형선
  6
Continuous
370
    15
100
AcDbLine
 10
2.000000013124549
 20
12.09689397606799
 30
0.0
 11
2.000000013124549
 21
12.67160721372701
 31
0.0
  0
SPLINE
  5
246
330
1F
100
AcDbEntity
  8
0
  6
Continuous
 62
     1
370
    15
100
AcDbSpline
210
0.0
220
0.0
230
1.0
 70
     8
 71
     3
 72
    14
 73
    10
 74
     0
 42
0.000000001
 43
0.00000001
 40
0.0
 40
0.0
 40
0.0
 40
0.0
 40
0.0564574553181504
 40
0.213641970195944
 40
0.3709406482314828
 40
0.5282858429842305
 40
0.6854858655175381
 40
0.8426770182181077
 40
1.0
 40
1.0
 40
1.0
 40
1.0
 10
38.09551995742854
 20
15.83711561695788
 30
0.0
 10
38.37221424823073
 20
15.84744361167765
 30
0.0
 10
39.41925955156287
 20
15.88652601678555
 30
0.0
 10
41.23672141355505
 20
15.60687542211762
 30
0.0
 10
43.54983065171857
 20
15.00413055151572
 30
0.0
 10
45.86363114395604
 20
14.06253523499419
 30
0.0
 10
48.17515627553061
 20
12.82467790834542
 30
0.0
 10
50.48654631682447
 20
11.32799825371001
 30
0.0
 10
52.02863332498052
 20
10.1350293313135
 30
0.0
 10
52.80000001312456
 20
9.538294852739494
 30
0.0
  0
LINE
  5
247
330
1F
100
AcDbEntity
  8
0
  6
Continuous
 62
     1
370
    15
100
AcDbLine
 10
52.80000001312456
 20
6.222549750471838
 30
0.0
 11
52.80000001312456
 21
9.538294852739494
 31
0.0
  0
SPLINE
  5
248
330
1F
100
AcDbEntity
  8
0
  6
Continuous
 62
     1
370
    15
100
AcDbSpline
210
0.0
220
0.0
230
1.0
 70
     8
 71
     3
 72
    11
 73
     7
 74
     0
 42
0.000000001
 43
0.00000001
 40
0.0
 40
0.0
 40
0.0
 40
0.0
 40
0.2783312547540752
 40
0.5564292813224033
 40
0.8345430001414588
 40
1.0
 40
1.0
 40
1.0
 40
1.0
 10
52.80000001312456
 20
15.75999879940878
 30
0.0
 10
52.02863434402181
 20
15.82144903012104
 30
0.0
 10
50.48654937309445
 20
15.94429799921195
 30
0.0
 10
48.1751440621139
 20
15.68862798274627
 30
0.0
 10
46.17640342102251
 20
15.24521740677353
 30
0.0
 10
44.94702864045993
 20
14.75233652902496
 30
0.0
 10
44.48845765205019
 20
14.56848627046181
 30
0.0
  0
LINE
  5
24A
330
1F
100
AcDbEntity
  8
0
  6
Continuous
 62
     1
370
    15
100
AcDbLine
 10
52.80000001312456
 20
15.75999879940878
 30
0.0
 11
52.80000001312456
 21
15.87584580380242
 31
0.0
  0
LINE
  5
24B
330
1F
100
AcDbEntity
  8
외형선
  6
Continuous
370
    15
100
AcDbLine
 10
2.000000013124549
 20
-9.398553218185047
 30
0.0
 11
2.000000013124549
 21
-7.080426293773282
 31
0.0
  0
LINE
  5
24C
330
1F
100
AcDbEntity
  8
0
  6
Continuous
 62
     1
370
    15
100
AcDbLine
 10
52.80000001312456
 20
9.503836576906934
 30
0.0
 11
52.80000001312456
 21
15.75999879940878
 31
0.0
  0
SPLINE
  5
24D
330
1F
100
AcDbEntity
  8
외형선
  6
Continuous
370
    15
100
AcDbSpline
210
0.0
220
0.0
230
1.0
 70
    24
 71
     3
 72
    12
 73
     8
 74
     0
 42
0.000000001
 43
0.00000001
 40
0.0
 40
0.0
 40
0.0
 40
0.0
 40
0.1159378987235673
 40
0.3743116182073007
 40
0.6326853376910334
 40
0.8910590571747663
 40
1.0
 40
1.0
 40
1.0
 40
1.0
 10
2.000000013124549
 20
-9.481780511904393
 30
0.0
 10
2.000000013124549
 20
-9.591072429027253
 30
0.0
 10
2.000000013124549
 20
-9.943927145264393
 30
0.0
 10
2.000000013124492
 20
-10.61063522319458
 30
0.0
 10
2.000000013124549
 20
-11.45171062332065
 30
0.0
 10
2.000000013124549
 20
-12.14724032224596
 30
0.0
 10
2.000000013124549
 20
-12.55035640807159
 30
0.0
 10
2.000000013124577
 20
-12.66991560612212
 30
0.0
  0
LINE
  5
24E
330
1F
100
AcDbEntity
  8
외형선
  6
Continuous
370
    15
100
AcDbLine
 10
1.136936448458016
 20
12.69619476198931
 30
0.0
 11
2.000000013124549
 21
12.67160721372701
 31
0.0
  0
LINE
  5
255
330
1F
100
AcDbEntity
  8
외형선
  6
Continuous
370
    15
100
AcDbLine
 10
0.9996683352897264
 20
-12.69841387377758
 30
0.0
 11
0.9996683352897264
 21
-12.69841374277626
 31
0.0
  0
SPLINE
  5
256
330
1F
100
AcDbEntity
  8
외형선
  6
Continuous
370
    15
100
AcDbSpline
210
0.0
220
0.0
230
1.0
 70
     8
 71
     3
 72
     8
 73
     4
 74
     0
 42
0.000000001
 43
0.00000001
 40
0.0
 40
0.0
 40
0.0
 40
0.0
 40
1.0
 40
1.0
 40
1.0
 40
1.0
 10
2.000000013124549
 20
-12.66991560612212
 30
0.0
 10
1.666534576625281
 20
-12.69250119015465
 30
0.0
 10
1.332574988071201
 20
-12.70200794946719
 30
0.0
 10
0.9996683352897264
 20
-12.69841374277626
 30
0.0
  0
LINE
  5
257
330
1F
100
AcDbEntity
  8
외형선
  6
Continuous
370
    15
100
AcDbLine
 10
-58.95999998687543
 20
-12.69915419619756
 30
0.0
 11
-58.95999998687543
 21
0.000845803802445
 31
0.0
  0
LINE
  5
259
330
1F
100
AcDbEntity
  8
외형선
  6
Continuous
370
    15
100
AcDbLine
 10
-61.49999998687545
 20
0.000845803802445
 30
0.0
 11
-61.49999998687545
 21
10.16084580380246
 31
0.0
  0
LINE
  5
25A
330
1F
100
AcDbEntity
  8
외형선
  6
Continuous
370
    15
100
AcDbLine
 10
-61.49999998687545
 20
-10.15915419619757
 30
0.0
 11
-61.49999998687545
 21
0.000845803802445
 31
0.0
  0
SPLINE
  5
25B
330
1F
100
AcDbEntity
  8
외형선
  6
Continuous
370
    15
100
AcDbSpline
210
0.0
220
0.0
230
1.0
 70
    24
 71
     3
 72
    34
 73
    30
 74
     0
 42
0.000000001
 43
0.00000001
 40
0.0
 40
0.0
 40
0.0
 40
0.0
 40
0.0625000000000001
 40
0.0625000000000001
 40
0.1250000000000002
 40
0.1250000000000002
 40
0.1875000000000003
 40
0.1875000000000003
 40
0.2500000000000004
 40
0.2500000000000004
 40
0.3125000000000005
 40
0.3125000000000005
 40
0.3750000000000006
 40
0.3750000000000006
 40
0.4375000000000006
 40
0.4375000000000006
 40
0.5000000000000007
 40
0.5000000000000007
 40
0.6250000000000006
 40
0.6250000000000006
 40
0.7500000000000004
 40
0.7500000000000004
 40
0.8125000000000002
 40
0.8125000000000002
 40
0.84375
 40
0.84375
 40
0.8749999999999999
 40
0.8749999999999999
 40
1.0
 40
1.0
 40
1.0
 40
1.0
 10
2.000000013124549
 20
-7.080426293773161
 30
0.0
 10
2.000000013124577
 20
-6.964648309509887
 30
0.0
 10
2.000000013124577
 20
-6.818632021826179
 30
0.0
 10
2.000000013124577
 20
-6.461045038539307
 30
0.0
 10
2.000000013124577
 20
-6.249380357435886
 30
0.0
 10
2.000000013124605
 20
-5.762862507695399
 30
0.0
 10
2.000000013124577
 20
-5.487987215122541
 30
0.0
 10
2.000000013124577
 20
-4.88704028967668
 30
0.0
 10
2.000000013124549
 20
-4.56105665052576
 30
0.0
 10
2.00000001312452
 20
-3.878626329935674
 30
0.0
 10
2.000000013124577
 20
-3.522356303611577
 30
0.0
 10
2.000000013124549
 20
-2.804706000990322
 30
0.0
 10
2.000000013124577
 20
-2.443512648726117
 30
0.0
 10
2.000000013124577
 20
-1.740199894089056
 30
0.0
 10
2.000000013124577
 20
-1.398197888419457
 30
0.0
 10
2.000000013124577
 20
-0.751443691310488
 30
0.0
 10
2.000000013124577
 20
-0.4467112783204783
 30
0.0
 10
2.000000013124605
 20
0.396520468379876
 30
0.0
 10
2.000000013124577
 20
0.8615326313240281
 30
0.0
 10
2.000000013124577
 20
1.598083698175767
 30
0.0
 10
2.000000013124577
 20
1.871868026355212
 30
0.0
 10
2.000000013124577
 20
2.178379195641561
 30
0.0
 10
2.000000013124577
 20
2.263346434897112
 30
0.0
 10
2.000000013124549
 20
2.370002326191074
 30
0.0
 10
2.000000013124549
 20
2.401687343804767
 30
0.0
 10
2.000000013124549
 20
2.460768184249531
 30
0.0
 10
2.000000013124577
 20
2.488723607103925
 30
0.0
 10
2.000000013124577
 20
2.618491298326575
 30
0.0
 10
2.000000013124549
 20
2.691418451944969
 30
0.0
 10
2.000000013124549
 20
2.697494954080504
 30
0.0
  0
SPLINE
  5
25C
330
1F
100
AcDbEntity
  8
외형선
  6
Continuous
370
    15
100
AcDbSpline
210
0.0
220
0.0
230
1.0
 70
    24
 71
     3
 72
    16
 73
    12
 74
     0
 42
0.000000001
 43
0.00000001
 40
0.0
 40
0.0
 40
0.0
 40
0.0
 40
0.102531879483829
 40
0.2229720492942685
 40
0.3434122191047071
 40
0.4638523889151456
 40
0.5842925587255856
 40
0.7047327285360251
 40
0.825172898346464
 40
0.9456130681569035
 40
1.0
 40
1.0
 40
1.0
 40
1.0
 10
2.000000013124605
 20
5.673552409870673
 30
0.0
 10
2.000000013124577
 20
5.831935762733313
 30
0.0
 10
2.000000013124549
 20
6.176365816485028
 30
0.0
 10
2.00000001312452
 20
6.828899154406283
 30
0.0
 10
2.000000013124549
 20
7.584783197278046
 30
0.0
 10
2.000000013124549
 20
8.400095398795145
 30
0.0
 10
2.000000013124549
 20
9.249655133758264
 30
0.0
 10
2.000000013124549
 20
10.10977061890821
 30
0.0
 10
2.000000013124577
 20
10.95449482917143
 30
0.0
 10
2.000000013124662
 20
11.61714829914822
 30
0.0
 10
2.000000013124549
 20
11.9830619604857
 30
0.0
 10
2.00000001312452
 20
12.09689397606792
 30
0.0
  0
SPLINE
  5
25D
330
1F
100
AcDbEntity
  8
외형선
  6
Continuous
370
    15
100
AcDbSpline
210
0.0
220
0.0
230
1.0
 70
    24
 71
     3
 72
    12
 73
     8
 74
     0
 42
0.000000001
 43
0.00000001
 40
0.0
 40
0.0
 40
0.0
 40
0.0
 40
0.2312373071319782
 40
0.4624746142639563
 40
0.7214153688438023
 40
0.9803561234236483
 40
0.9999999999999999
 40
0.9999999999999999
 40
0.9999999999999999
 40
0.9999999999999999
 10
2.000000013124549
 20
-12.66991560612212
 30
0.0
 10
2.000000013124577
 20
-12.41579570373335
 30
0.0
 10
2.000000013124577
 20
-11.9075558989558
 30
0.0
 10
2.000000013124605
 20
-11.11064531125875
 30
0.0
 10
2.000000013124577
 20
-10.3146432893489
 30
0.0
 10
2.00000001312452
 20
-9.753873777622918
 30
0.0
 10
2.00000001312452
 20
-9.499693556915876
 30
0.0
 10
2.00000001312452
 20
-9.481770511904397
 30
0.0
  0
LINE
  5
25E
330
1F
100
AcDbEntity
  8
중심선
100
AcDbLine
 10
-64.49999998687545
 20
0.0008458038024379
 30
0.0
 11
55.80000001312456
 21
0.0008458038024557
 31
0.0
  0
CIRCLE
  5
25F
330
1F
100
AcDbEntity
  8
해칭선
100
AcDbCircle
 10
0.0
 20
0.0
 30
0.0
 40
3.000000000000001
  0
DIMENSION
  5
260
330
1F
100
AcDbEntity
  8
치수문자_일반주서
100
AcDbDimension
  2
*D12
 10
-73.5474999868754
 20
-12.6991541961976
 30
0.0
 11
-73.54749998687544
 21
0.0008458038024308
 31
0.0
 70
   160
  1
%%c<>
 71
     2
 42
25.39999999999997
 52
-270.0
  3
SLDDIMSTYLE0
100
AcDbAlignedDimension
 13
-61.49999998687545
 23
12.70084580380242
 33
0.0
 14
-58.95999998687543
 24
-12.69915419619754
 34
0.0
 50
90.0000000000002
100
AcDbRotatedDimension
1001
ACAD
1000
DSTYLE
1002
{
1070
   171
1070
     6
1070
   273
1070
     7
1002
}
  0
DIMENSION
  5
261
330
1F
100
AcDbEntity
  8
치수문자_일반주서
100
AcDbDimension
  2
*D13
 10
2.000000013124549
 20
43.93498197514722
 30
0.0
 11
25.2985669345444
 21
43.93498197514722
 31
0.0
 70
   160
  1
<>
 71
     2
 42
50.80000000000001
  3
SLDDIMSTYLE0
100
AcDbAlignedDimension
 13
52.80000001312456
 23
15.87584580380242
 33
0.0
 14
2.000000013124549
 24
15.84660721372698
 34
0.0
100
AcDbRotatedDimension
1001
ACAD
1000
DSTYLE
1002
{
1070
   171
1070
     6
1070
   273
1070
     7
1002
}
  0
DIMENSION
  5
262
330
1F
100
AcDbEntity
  8
치수문자_일반주서
100
AcDbDimension
  2
*D14
 10
-61.49999998687545
 20
58.93498197514724
 30
0.0
 11
-6.313073768141237
 21
58.93498197514724
 31
0.0
 70
   160
  1
<>
 71
     2
 42
114.3
  3
SLDDIMSTYLE0
100
AcDbAlignedDimension
 13
52.80000001312456
 23
15.87584580380242
 33
0.0
 14
-61.49999998687545
 24
10.16084580380246
 34
0.0
100
AcDbRotatedDimension
1001
ACAD
1000
DSTYLE
1002
{
1070
   171
1070
     6
1070
   273
1070
     7
1002
}
  0
DIMENSION
  5
263
330
1F
100
AcDbEntity
  8
치수문자_일반주서
100
AcDbDimension
  2
*D15
 10
74.67731368580095
 20
-15.8741541961975
 30
0.0
 11
74.67731368580073
 21
49.60930743305165
 31
0.0
 70
   160
  1
%%c<>
 71
     2
 42
31.75000000000001
 52
-270.0
  3
SLDDIMSTYLE0
100
AcDbAlignedDimension
 13
52.80000001312456
 23
15.87584580380242
 33
0.0
 14
52.80000001312456
 24
-15.87415419619759
 34
0.0
 50
90.0000000000002
100
AcDbRotatedDimension
1001
ACAD
1000
DSTYLE
1002
{
1070
   171
1070
     6
1070
   273
1070
     7
1002
}
  0
INSERT
  5
264
330
1F
100
AcDbEntity
  8
해칭선
100
AcDbBlockReference
  2
SW_DOWELSYMBOL_0
 10
0.0
 20
0.0
 30
0.0
  0
LINE
  5
265
330
1F
100
AcDbEntity
  8
외형선
  6
Continuous
370
    15
100
AcDbLine
 10
-39.08132498687536
 20
10.79584580380245
 30
0.0
 11
-25.97492498687546
 21
10.79584580380245
 31
0.0
  0
LINE
  5
266
330
1F
100
AcDbEntity
  8
외형선
  6
Continuous
370
    15
100
AcDbLine
 10
-39.08132498687536
 20
10.79584580380245
 30
0.0
 11
-40.98632498687533
 21
12.70084580380245
 31
0.0
  0
LINE
  5
267
330
1F
100
AcDbEntity
  8
외형선
  6
Continuous
370
    15
100
AcDbLine
 10
-25.97492498687546
 20
10.79584580380245
 30
0.0
 11
-24.06992498687544
 21
12.70084580380245
 31
0.0
  0
LINE
  5
268
330
1F
100
AcDbEntity
  8
외형선
  6
Continuous
370
    15
100
AcDbLine
 10
-48.79999998687543
 20
10.79584580380245
 30
0.0
 11
-46.89499998687546
 21
12.70084580380244
 31
0.0
  0
LINE
  5
269
330
1F
100
AcDbEntity
  8
외형선
  6
Continuous
370
    15
100
AcDbLine
 10
-58.95999998687543
 20
0.000845803802445
 30
0.0
 11
-58.95999998687543
 21
10.79584580380245
 31
0.0
  0
LINE
  5
26A
330
1F
100
AcDbEntity
  8
외형선
  6
Continuous
370
    15
100
AcDbLine
 10
-60.86499998687546
 20
10.79584580380245
 30
0.0
 11
-48.79999998687543
 21
10.79584580380245
 31
0.0
  0
LINE
  5
26B
330
1F
100
AcDbEntity
  8
외형선
  6
Continuous
370
    15
100
AcDbLine
 10
-60.86499998687546
 20
10.79584580380245
 30
0.0
 11
-61.49999998687545
 21
10.16084580380246
 31
0.0
  0
LINE
  5
26C
330
1F
100
AcDbEntity
  8
외형선
  6
Continuous
370
    15
100
AcDbLine
 10
-40.98632498687533
 20
12.70084580380245
 30
0.0
 11
-46.89499998687546
 21
12.70084580380245
 31
0.0
  0
LINE
  5
26D
330
1F
100
AcDbEntity
  8
외형선
  6
Continuous
370
    15
100
AcDbLine
 10
1.136936448458016
 20
12.70084580380245
 30
0.0
 11
-24.06992498687544
 21
12.70084580380245
 31
0.0
  0
LINE
  5
2A1
330
1F
100
AcDbEntity
  8
외형선
  6
Continuous
370
    15
100
AcDbLine
 10
2.000000013124549
 20
12.67160721372701
 30
0.0
 11
2.000000013124549
 21
15.87584580380242
 31
0.0
  0
LINE
  5
2A2
330
1F
100
AcDbEntity
  8
외형선
  6
Continuous
370
    15
100
AcDbLine
 10
2.000000013124577
 20
-12.66991560612212
 30
0.0
 11
2.000000013124577
 21
-15.87415419619759
 31
0.0
  0
SPLINE
  5
2A3
330
1F
100
AcDbEntity
  8
0
  6
Continuous
 62
     1
370
    15
100
AcDbSpline
210
0.0
220
0.0
230
1.0
 70
     8
 71
     3
 72
    12
 73
     8
 74
     0
 42
0.000000001
 43
0.00000001
 40
0.5788362288721848
 40
0.5788362288721848
 40
0.5788362288721848
 40
0.5788362288721848
 40
0.6808444870928552
 40
0.786223873080527
 40
0.8917014065083898
 40
0.997103682733673
 40
1.0
 40
1.0
 40
1.0
 40
1.0
 10
2.000000013124577
 20
-15.61950772721413
 30
0.0
 10
2.745925268907314
 20
-15.75228559400547
 30
0.0
 10
4.262413411333711
 20
-15.916402329998
 30
0.0
 10
6.549717046288862
 20
-15.84455830842852
 30
0.0
 10
8.863949990342888
 20
-15.40084694215517
 30
0.0
 10
10.42723164321851
 20
-14.97048765710614
 30
0.0
 10
11.21901581038688
 20
-14.6096698341856
 30
0.0
 10
11.24019113760616
 20
-14.60002019002281
 30
0.0
  0
SPLINE
  5
2A6
330
1F
100
AcDbEntity
  8
0
  6
Continuous
 62
     1
370
    15
100
AcDbSpline
210
0.0
220
0.0
230
1.0
 70
     8
 71
     3
 72
    19
 73
    15
 74
     0
 42
0.000000001
 43
0.00000001
 40
0.3293004514488581
 40
0.3293004514488581
 40
0.3293004514488581
 40
0.3293004514488581
 40
0.3873330437598808
 40
0.4472834716445755
 40
0.5072897356966581
 40
0.5672531858582083
 40
0.6271862143951775
 40
0.6871425252992671
 40
0.7471500791832852
 40
0.8071067502027521
 40
0.8670397545101246
 40
0.9270027963607548
 40
0.987009199242067
 40
1.0
 40
1.0
 40
1.0
 40
1.0
 10
2.000000013124634
 20
-5.357225547151597
 30
0.0
 10
2.745925555999634
 20
-6.059598017338306
 30
0.0
 10
4.262414595802397
 20
-7.451517005461429
 30
0.0
 10
6.54971210868618
 20
-9.397898463248982
 30
0.0
 10
8.863968476695021
 20
-11.1647691614791
 30
0.0
 10
11.17636745940499
 20
-12.69617167713154
 30
0.0
 10
13.48756390135551
 20
-13.95856243084151
 30
0.0
 10
15.79967792952598
 20
-14.92513466238018
 30
0.0
 10
18.11395210465665
 20
-15.57561862325833
 30
0.0
 10
20.42607587567224
 20
-15.89472781482681
 30
0.0
 10
22.73729136704671
 20
-15.88398276219393
 30
0.0
 10
25.04959836496138
 20
-15.51068080154953
 30
0.0
 10
26.76003546666934
 20
-15.06405977623709
 30
0.0
 10
27.69823493368816
 20
-14.65133238496844
 30
0.0
 10
27.86519971781163
 20
-14.57788218359073
 30
0.0
  0
SPLINE
  5
2A8
330
1F
100
AcDbEntity
  8
0
  6
Continuous
 62
     1
370
    15
100
AcDbSpline
210
0.0
220
0.0
230
1.0
 70
     8
 71
     3
 72
    26
 73
    22
 74
     0
 42
0.000000001
 43
0.00000001
 40
0.2301089026841287
 40
0.2301089026841287
 40
0.2301089026841287
 40
0.2301089026841287
 40
0.2706609762620706
 40
0.3125531969233666
 40
0.3544844348382108
 40
0.3963857552193051
 40
0.4382658175467911
 40
0.4801621491503329
 40
0.5220942883752421
 40
0.5639908716205716
 40
0.6058709170168755
 40
0.6477719520780519
 40
0.6897032870041256
 40
0.7315957255856709
 40
0.7734763493777799
 40
0.8153826796008085
 40
0.8573115047905489
 40
0.8992003918953777
 40
0.9410821893103524
 40
0.9829944054866704
 40
1.0
 40
1.0
 40
1.0
 40
1.0
 10
2.00000001312452
 20
10.26322394436649
 30
0.0
 10
2.745925555895553
 20
9.693944506051931
 30
0.0
 10
4.262414595373542
 20
8.467195360348374
 30
0.0
 10
6.549712110473791
 20
6.441535153933778
 30
0.0
 10
8.86396847000205
 20
4.259277078511257
 30
0.0
 10
11.17636748436192
 20
1.985559199113776
 30
0.0
 10
13.48756380824912
 20
-0.3301521754575738
 30
0.0
 10
15.7996782772864
 20
-2.639049840842919
 30
0.0
 10
18.11395080604288
 20
-4.890541765705041
 30
0.0
 10
20.4260807166406
 20
-7.03990797021115
 30
0.0
 10
22.73727330394829
 20
-9.039915639745121
 30
0.0
 10
25.04966583660641
 20
-10.84843290840145
 30
0.0
 10
27.36388910685625
 20
-12.42622898829644
 30
0.0
 10
29.67577794484274
 20
-13.74187519387473
 30
0.0
 10
31.98700298523309
 20
-14.76609300979264
 30
0.0
 10
34.29971152533031
 20
-15.47777721136121
 30
0.0
 10
36.61378020204873
 20
-15.86011421284336
 30
0.0
 10
38.92547199620216
 20
-15.91179054350547
 30
0.0
 10
41.23674182915974
 20
-15.6072688341713
 30
0.0
 10
43.09138985544425
 20
-15.15498746263098
 30
0.0
 10
44.17553743471805
 20
-14.69854017956392
 30
0.0
 10
44.48845765205019
 20
-14.56679466285698
 30
0.0
  0
ENDSEC
  0
SECTION
  2
OBJECTS
  0
DICTIONARY
  5
C
330
0
100
AcDbDictionary
281
     1
  3
ACAD_GROUP
350
D
  3
ACAD_IMAGE_VARS
350
146
  3
ACAD_LAYOUT
350
1A
  3
ACAD_MLINESTYLE
350
17
  3
ACAD_PLOTSETTINGS
350
19
  3
ACAD_PLOTSTYLENAME
350
E
  3
ACAD_SCALELIST
350
47
  3
APPDATA
350
144
  3
DWGPROPS
350
2AA
  0
DICTIONARY
  5
1F0
330
2
100
AcDbDictionary
280
     1
281
     1
  3
ACAD_LAYERSTATES
360
1F1
  0
DICTIONARY
  5
D
102
{ACAD_REACTORS
330
C
102
}
330
C
100
AcDbDictionary
281
     1
  0
RASTERVARIABLES
  5
146
102
{ACAD_REACTORS
330
C
102
}
330
C
100
AcDbRasterVariables
 90
        0
 70
     1
 71
     1
 72
     1
  0
DICTIONARY
  5
1A
102
{ACAD_REACTORS
330
C
102
}
330
C
100
AcDbDictionary
281
     1
  3
Layout1
350
1E
  3
Layout2
350
26
  3
Model
350
22
  0
DICTIONARY
  5
17
102
{ACAD_REACTORS
330
C
102
}
330
C
100
AcDbDictionary
281
     1
  3
Standard
350
18
  0
DICTIONARY
  5
19
102
{ACAD_REACTORS
330
C
102
}
330
C
100
AcDbDictionary
281
     1
  0
ACDBDICTIONARYWDFLT
  5
E
102
{ACAD_REACTORS
330
C
102
}
330
C
100
AcDbDictionary
281
     1
  3
Normal
350
F
100
AcDbDictionaryWithDefault
340
F
  0
DICTIONARY
  5
47
102
{ACAD_REACTORS
330
C
102
}
330
C
100
AcDbDictionary
281
     1
  3
A0
350
48
  3
A1
350
49
  3
A2
350
4A
  3
A3
350
4B
  3
A4
350
4C
  3
A5
350
4D
  3
A6
350
4E
  3
A7
350
4F
  3
A8
350
50
  3
A9
350
51
  3
B0
350
52
  3
B1
350
53
  3
B2
350
54
  3
B3
350
55
  3
B4
350
56
  3
B5
350
57
  3
B6
350
58
  3
B7
350
59
  3
B8
350
5A
  3
B9
350
5B
  3
C0
350
5C
  3
C1
350
5D
  3
C2
350
5E
  3
C3
350
5F
  3
C4
350
60
  3
C5
350
61
  3
C6
350
62
  3
C7
350
63
  3
C8
350
64
  3
C9
350
65
  3
D0
350
66
  3
D1
350
67
  3
D2
350
68
  0
DICTIONARY
  5
144
102
{ACAD_REACTORS
330
C
102
}
330
C
100
AcDbDictionary
281
     1
  0
XRECORD
  5
2AA
102
{ACAD_REACTORS
330
C
102
}
330
C
100
AcDbXrecord
280
     1
  1
DWGPROPS COOKIE
  2

  3

  4

  6

  7

  8
12017012
  9

300
=
301
=
302
=
303
=
304
=
305
=
306
=
307
=
308
=
309
=
 40
0.0
 41
2458323.10892632
 42
2458324.016559167
  1

 90
        0
  0
DICTIONARY
  5
1F1
102
{ACAD_REACTORS
330
1F0
102
}
330
1F0
100
AcDbDictionary
281
     1
  0
LAYOUT
  5
1E
102
{ACAD_REACTORS
330
1A
102
}
330
1A
100
AcDbPlotSettings
  1

  2
none_device
  4

  6

 40
0.0
 41
0.0
 42
0.0
 43
0.0
 44
0.0
 45
0.0
 46
0.0
 47
0.0
 48
0.0
 49
0.0
140
0.0
141
0.0
142
1.0
143
1.0
 70
   688
 72
     1
 73
     0
 74
     5
  7

 75
    16
147
1.0
148
0.0
149
0.0
100
AcDbLayout
  1
Layout1
 70
     1
 71
     1
 10
0.0
 20
0.0
 11
420.0
 21
297.0
 12
0.0
 22
0.0
 32
0.0
 14
1.000000000000000E+20
 24
1.000000000000000E+20
 34
1.000000000000000E+20
 15
-1.000000000000000E+20
 25
-1.000000000000000E+20
 35
-1.000000000000000E+20
146
0.0
 13
0.0
 23
0.0
 33
0.0
 16
1.0
 26
0.0
 36
0.0
 17
0.0
 27
1.0
 37
0.0
 76
     0
330
1B
  0
LAYOUT
  5
26
102
{ACAD_REACTORS
330
1A
102
}
330
1A
100
AcDbPlotSettings
  1

  2
none_device
  4

  6

 40
0.0
 41
0.0
 42
0.0
 43
0.0
 44
0.0
 45
0.0
 46
0.0
 47
0.0
 48
0.0
 49
0.0
140
0.0
141
0.0
142
1.0
143
1.0
 70
   688
 72
     1
 73
     0
 74
     5
  7

 75
    16
147
1.0
148
0.0
149
0.0
100
AcDbLayout
  1
Layout2
 70
     1
 71
     2
 10
0.0
 20
0.0
 11
0.0
 21
0.0
 12
0.0
 22
0.0
 32
0.0
 14
0.0
 24
0.0
 34
0.0
 15
0.0
 25
0.0
 35
0.0
146
0.0
 13
0.0
 23
0.0
 33
0.0
 16
1.0
 26
0.0
 36
0.0
 17
0.0
 27
1.0
 37
0.0
 76
     0
330
23
  0
LAYOUT
  5
22
102
{ACAD_REACTORS
330
1A
102
}
330
1A
100
AcDbPlotSettings
  1

  2
none_device
  4
ANSI_A_(11.00_x_8.50_Inches)
  6

 40
6.35
 41
19.05
 42
6.35000508
 43
19.05000254
 44
279.4
 45
215.9
 46
96.39525648754174
 47
90.09827952143297
 48
0.0
 49
0.0
140
0.0
141
0.0
142
0.0605651527843098
143
1.0
 70
  1696
 72
     0
 73
     0
 74
     0
  7

 75
     0
147
0.0235690232323232
148
0.0
149
0.0
100
AcDbLayout
  1
Model
 70
     1
 71
     0
 10
0.0
 20
0.0
 11
420.0
 21
297.0
 12
0.0
 22
0.0
 32
0.0
 14
1.000000000000000E+20
 24
1.000000000000000E+20
 34
1.000000000000000E+20
 15
-1.000000000000000E+20
 25
-1.000000000000000E+20
 35
-1.000000000000000E+20
146
0.0
 13
0.0
 23
0.0
 33
0.0
 16
1.0
 26
0.0
 36
0.0
 17
0.0
 27
1.0
 37
0.0
 76
     0
330
1F
331
29
  0
MLINESTYLE
  5
18
102
{ACAD_REACTORS
330
17
102
}
330
17
100
AcDbMlineStyle
  2
Standard
 70
     0
  3

 62
   256
 51
90.0
 52
90.0
 71
     2
 49
0.5
 62
   256
  6
BYLAYER
 49
-0.5
 62
   256
  6
BYLAYER
  0
ACDBPLACEHOLDER
  5
F
102
{ACAD_REACTORS
330
E
102
}
330
E
  0
SCALE
  5
48
102
{ACAD_REACTORS
330
47
102
}
330
47
100
AcDbScale
 70
     0
300
1:1
140
1.0
141
1.0
290
     1
  0
SCALE
  5
49
102
{ACAD_REACTORS
330
47
102
}
330
47
100
AcDbScale
 70
     0
300
1:2
140
1.0
141
2.0
290
     0
  0
SCALE
  5
4A
102
{ACAD_REACTORS
330
47
102
}
330
47
100
AcDbScale
 70
     0
300
1:4
140
1.0
141
4.0
290
     0
  0
SCALE
  5
4B
102
{ACAD_REACTORS
330
47
102
}
330
47
100
AcDbScale
 70
     0
300
1:5
140
1.0
141
5.0
290
     0
  0
SCALE
  5
4C
102
{ACAD_REACTORS
330
47
102
}
330
47
100
AcDbScale
 70
     0
300
1:8
140
1.0
141
8.0
290
     0
  0
SCALE
  5
4D
102
{ACAD_REACTORS
330
47
102
}
330
47
100
AcDbScale
 70
     0
300
1:10
140
1.0
141
10.0
290
     0
  0
SCALE
  5
4E
102
{ACAD_REACTORS
330
47
102
}
330
47
100
AcDbScale
 70
     0
300
1:16
140
1.0
141
16.0
290
     0
  0
SCALE
  5
4F
102
{ACAD_REACTORS
330
47
102
}
330
47
100
AcDbScale
 70
     0
300
1:20
140
1.0
141
20.0
290
     0
  0
SCALE
  5
50
102
{ACAD_REACTORS
330
47
102
}
330
47
100
AcDbScale
 70
     0
300
1:30
140
1.0
141
30.0
290
     0
  0
SCALE
  5
51
102
{ACAD_REACTORS
330
47
102
}
330
47
100
AcDbScale
 70
     0
300
1:40
140
1.0
141
40.0
290
     0
  0
SCALE
  5
52
102
{ACAD_REACTORS
330
47
102
}
330
47
100
AcDbScale
 70
     0
300
1:50
140
1.0
141
50.0
290
     0
  0
SCALE
  5
53
102
{ACAD_REACTORS
330
47
102
}
330
47
100
AcDbScale
 70
     0
300
1:100
140
1.0
141
100.0
290
     0
  0
SCALE
  5
54
102
{ACAD_REACTORS
330
47
102
}
330
47
100
AcDbScale
 70
     0
300
2:1
140
2.0
141
1.0
290
     0
  0
SCALE
  5
55
102
{ACAD_REACTORS
330
47
102
}
330
47
100
AcDbScale
 70
     0
300
4:1
140
4.0
141
1.0
290
     0
  0
SCALE
  5
56
102
{ACAD_REACTORS
330
47
102
}
330
47
100
AcDbScale
 70
     0
300
8:1
140
8.0
141
1.0
290
     0
  0
SCALE
  5
57
102
{ACAD_REACTORS
330
47
102
}
330
47
100
AcDbScale
 70
     0
300
10:1
140
10.0
141
1.0
290
     0
  0
SCALE
  5
58
102
{ACAD_REACTORS
330
47
102
}
330
47
100
AcDbScale
 70
     0
300
100:1
140
100.0
141
1.0
290
     0
  0
SCALE
  5
59
102
{ACAD_REACTORS
330
47
102
}
330
47
100
AcDbScale
 70
     0
300
1/128" = 1'-0"
140
0.0078125
141
12.0
290
     0
  0
SCALE
  5
5A
102
{ACAD_REACTORS
330
47
102
}
330
47
100
AcDbScale
 70
     0
300
1/64" = 1'-0"
140
0.015625
141
12.0
290
     0
  0
SCALE
  5
5B
102
{ACAD_REACTORS
330
47
102
}
330
47
100
AcDbScale
 70
     0
300
1/32" = 1'-0"
140
0.03125
141
12.0
290
     0
  0
SCALE
  5
5C
102
{ACAD_REACTORS
330
47
102
}
330
47
100
AcDbScale
 70
     0
300
1/16" = 1'-0"
140
0.0625
141
12.0
290
     0
  0
SCALE
  5
5D
102
{ACAD_REACTORS
330
47
102
}
330
47
100
AcDbScale
 70
     0
300
3/32" = 1'-0"
140
0.09375
141
12.0
290
     0
  0
SCALE
  5
5E
102
{ACAD_REACTORS
330
47
102
}
330
47
100
AcDbScale
 70
     0
300
1/8" = 1'-0"
140
0.125
141
12.0
290
     0
  0
SCALE
  5
5F
102
{ACAD_REACTORS
330
47
102
}
330
47
100
AcDbScale
 70
     0
300
3/16" = 1'-0"
140
0.1875
141
12.0
290
     0
  0
SCALE
  5
60
102
{ACAD_REACTORS
330
47
102
}
330
47
100
AcDbScale
 70
     0
300
1/4" = 1'-0"
140
0.25
141
12.0
290
     0
  0
SCALE
  5
61
102
{ACAD_REACTORS
330
47
102
}
330
47
100
AcDbScale
 70
     0
300
3/8" = 1'-0"
140
0.375
141
12.0
290
     0
  0
SCALE
  5
62
102
{ACAD_REACTORS
330
47
102
}
330
47
100
AcDbScale
 70
     0
300
1/2" = 1'-0"
140
0.5
141
12.0
290
     0
  0
SCALE
  5
63
102
{ACAD_REACTORS
330
47
102
}
330
47
100
AcDbScale
 70
     0
300
3/4" = 1'-0"
140
0.75
141
12.0
290
     0
  0
SCALE
  5
64
102
{ACAD_REACTORS
330
47
102
}
330
47
100
AcDbScale
 70
     0
300
1" = 1'-0"
140
1.0
141
12.0
290
     0
  0
SCALE
  5
65
102
{ACAD_REACTORS
330
47
102
}
330
47
100
AcDbScale
 70
     0
300
1-1/2" = 1'-0"
140
1.5
141
12.0
290
     0
  0
SCALE
  5
66
102
{ACAD_REACTORS
330
47
102
}
330
47
100
AcDbScale
 70
     0
300
3" = 1'-0"
140
3.0
141
12.0
290
     0
  0
SCALE
  5
67
102
{ACAD_REACTORS
330
47
102
}
330
47
100
AcDbScale
 70
     0
300
6" = 1'-0"
140
6.0
141
12.0
290
     0
  0
SCALE
  5
68
102
{ACAD_REACTORS
330
47
102
}
330
47
100
AcDbScale
 70
     0
300
1'-0" = 1'-0"
140
12.0
141
12.0
290
     0
  0
ENDSEC
  0
EOF
