  0
SECTION
  2
HEADER
  9
$ACADVER
  1
AC1015
  9
$ACADMAINTVER
 70
     6
  9
$DWGCODEPAGE
  3
ANSI_949
  9
$INSBASE
 10
0.0
 20
0.0
 30
0.0
  9
$EXTMIN
 10
1.000000000000000E+20
 20
1.000000000000000E+20
 30
1.000000000000000E+20
  9
$EXTMAX
 10
-1.000000000000000E+20
 20
-1.000000000000000E+20
 30
-1.000000000000000E+20
  9
$LIMMIN
 10
0.0
 20
0.0
  9
$LIMMAX
 10
420.0
 20
297.0
  9
$ORTHOMODE
 70
     1
  9
$REGENMODE
 70
     1
  9
$FILLMODE
 70
     1
  9
$QTEXTMODE
 70
     0
  9
$MIRRTEXT
 70
     1
  9
$LTSCALE
 40
1.0
  9
$ATTMODE
 70
     1
  9
$TEXTSIZE
 40
3.5
  9
$TRACEWID
 40
1.0
  9
$TEXTSTYLE
  7
Standard
  9
$CLAYER
  8
0
  9
$CELTYPE
  6
ByLayer
  9
$CECOLOR
 62
   256
  9
$CELTSCALE
 40
1.0
  9
$DISPSILH
 70
     0
  9
$DIMSCALE
 40
1.0
  9
$DIMASZ
 40
3.302
  9
$DIMEXO
 40
1.0
  9
$DIMDLI
 40
3.75
  9
$DIMRND
 40
0.0
  9
$DIMDLE
 40
0.0
  9
$DIMEXE
 40
1.0
  9
$DIMTP
 40
0.0
  9
$DIMTM
 40
0.0
  9
$DIMTXT
 40
3.5
  9
$DIMCEN
 40
2.5
  9
$DIMTSZ
 40
0.0
  9
$DIMTOL
 70
     0
  9
$DIMLIM
 70
     0
  9
$DIMTIH
 70
     1
  9
$DIMTOH
 70
     1
  9
$DIMSE1
 70
     0
  9
$DIMSE2
 70
     0
  9
$DIMTAD
 70
     1
  9
$DIMZIN
 70
     0
  9
$DIMBLK
  1

  9
$DIMASO
 70
     1
  9
$DIMSHO
 70
     1
  9
$DIMPOST
  1

  9
$DIMAPOST
  1

  9
$DIMALT
 70
     0
  9
$DIMALTD
 70
     3
  9
$DIMALTF
 40
0.0393700787401575
  9
$DIMLFAC
 40
1.0
  9
$DIMTOFL
 70
     1
  9
$DIMTVP
 40
0.0
  9
$DIMTIX
 70
     0
  9
$DIMSOXD
 70
     0
  9
$DIMSAH
 70
     0
  9
$DIMBLK1
  1

  9
$DIMBLK2
  1

  9
$DIMSTYLE
  2
ISO-25
  9
$DIMCLRD
 70
     0
  9
$DIMCLRE
 70
     0
  9
$DIMCLRT
 70
     0
  9
$DIMTFAC
 40
1.0
  9
$DIMGAP
 40
1.524
  9
$DIMJUST
 70
     0
  9
$DIMSD1
 70
     0
  9
$DIMSD2
 70
     0
  9
$DIMTOLJ
 70
     0
  9
$DIMTZIN
 70
     0
  9
$DIMALTZ
 70
     0
  9
$DIMALTTZ
 70
     0
  9
$DIMUPT
 70
     0
  9
$DIMDEC
 70
     2
  9
$DIMTDEC
 70
     2
  9
$DIMALTU
 70
     2
  9
$DIMALTTD
 70
     3
  9
$DIMTXSTY
  7
Standard
  9
$DIMAUNIT
 70
     0
  9
$DIMADEC
 70
     2
  9
$DIMALTRND
 40
0.0
  9
$DIMAZIN
 70
     0
  9
$DIMDSEP
 70
    44
  9
$DIMATFIT
 70
     3
  9
$DIMFRAC
 70
     0
  9
$DIMLDRBLK
  1

  9
$DIMLUNIT
 70
     2
  9
$DIMLWD
 70
    -2
  9
$DIMLWE
 70
    -2
  9
$DIMTMOVE
 70
     0
  9
$LUNITS
 70
     2
  9
$LUPREC
 70
     2
  9
$SKETCHINC
 40
1.0
  9
$FILLETRAD
 40
10.0
  9
$AUNITS
 70
     0
  9
$AUPREC
 70
     2
  9
$MENU
  1
.
  9
$ELEVATION
 40
0.0
  9
$PELEVATION
 40
0.0
  9
$THICKNESS
 40
0.0
  9
$LIMCHECK
 70
     0
  9
$CHAMFERA
 40
0.0
  9
$CHAMFERB
 40
0.0
  9
$CHAMFERC
 40
0.0
  9
$CHAMFERD
 40
0.0
  9
$SKPOLY
 70
     0
  9
$TDCREATE
 40
2458323.483290752
  9
$TDUCREATE
 40
2458323.108290752
  9
$TDUPDATE
 40
2458323.791680104
  9
$TDUUPDATE
 40
2458323.416680104
  9
$TDINDWG
 40
0.0012246759
  9
$TDUSRTIMER
 40
2458323.415455741
  9
$USRTIMER
 70
     1
  9
$ANGBASE
 50
0.0
  9
$ANGDIR
 70
     0
  9
$PDMODE
 70
     0
  9
$PDSIZE
 40
-1.0
  9
$PLINEWID
 40
0.0
  9
$SPLFRAME
 70
     0
  9
$SPLINETYPE
 70
     6
  9
$SPLINESEGS
 70
     8
  9
$HANDSEED
  5
25D
  9
$SURFTAB1
 70
     6
  9
$SURFTAB2
 70
     6
  9
$SURFTYPE
 70
     6
  9
$SURFU
 70
     6
  9
$SURFV
 70
     6
  9
$UCSBASE
  2

  9
$UCSNAME
  2

  9
$UCSORG
 10
0.0
 20
0.0
 30
0.0
  9
$UCSXDIR
 10
1.0
 20
0.0
 30
0.0
  9
$UCSYDIR
 10
0.0
 20
1.0
 30
0.0
  9
$UCSORTHOREF
  2

  9
$UCSORTHOVIEW
 70
     0
  9
$UCSORGTOP
 10
0.0
 20
0.0
 30
0.0
  9
$UCSORGBOTTOM
 10
0.0
 20
0.0
 30
0.0
  9
$UCSORGLEFT
 10
0.0
 20
0.0
 30
0.0
  9
$UCSORGRIGHT
 10
0.0
 20
0.0
 30
0.0
  9
$UCSORGFRONT
 10
0.0
 20
0.0
 30
0.0
  9
$UCSORGBACK
 10
0.0
 20
0.0
 30
0.0
  9
$PUCSBASE
  2

  9
$PUCSNAME
  2

  9
$PUCSORG
 10
0.0
 20
0.0
 30
0.0
  9
$PUCSXDIR
 10
1.0
 20
0.0
 30
0.0
  9
$PUCSYDIR
 10
0.0
 20
1.0
 30
0.0
  9
$PUCSORTHOREF
  2

  9
$PUCSORTHOVIEW
 70
     0
  9
$PUCSORGTOP
 10
0.0
 20
0.0
 30
0.0
  9
$PUCSORGBOTTOM
 10
0.0
 20
0.0
 30
0.0
  9
$PUCSORGLEFT
 10
0.0
 20
0.0
 30
0.0
  9
$PUCSORGRIGHT
 10
0.0
 20
0.0
 30
0.0
  9
$PUCSORGFRONT
 10
0.0
 20
0.0
 30
0.0
  9
$PUCSORGBACK
 10
0.0
 20
0.0
 30
0.0
  9
$USERI1
 70
     0
  9
$USERI2
 70
     0
  9
$USERI3
 70
     0
  9
$USERI4
 70
     0
  9
$USERI5
 70
     0
  9
$USERR1
 40
0.0
  9
$USERR2
 40
0.0
  9
$USERR3
 40
0.0
  9
$USERR4
 40
0.0
  9
$USERR5
 40
0.0
  9
$WORLDVIEW
 70
     1
  9
$SHADEDGE
 70
     3
  9
$SHADEDIF
 70
    70
  9
$TILEMODE
 70
     1
  9
$MAXACTVP
 70
    64
  9
$PINSBASE
 10
0.0
 20
0.0
 30
0.0
  9
$PLIMCHECK
 70
     0
  9
$PEXTMIN
 10
1.000000000000000E+20
 20
1.000000000000000E+20
 30
1.000000000000000E+20
  9
$PEXTMAX
 10
-1.000000000000000E+20
 20
-1.000000000000000E+20
 30
-1.000000000000000E+20
  9
$PLIMMIN
 10
0.0
 20
0.0
  9
$PLIMMAX
 10
0.0
 20
0.0
  9
$UNITMODE
 70
     0
  9
$VISRETAIN
 70
     1
  9
$PLINEGEN
 70
     0
  9
$PSLTSCALE
 70
     1
  9
$TREEDEPTH
 70
  3020
  9
$CMLSTYLE
  2
Standard
  9
$CMLJUST
 70
     0
  9
$CMLSCALE
 40
20.0
  9
$PROXYGRAPHICS
 70
     1
  9
$MEASUREMENT
 70
     1
  9
$CELWEIGHT
370
    -1
  9
$ENDCAPS
280
     0
  9
$JOINSTYLE
280
     0
  9
$LWDISPLAY
290
     1
  9
$INSUNITS
 70
     4
  9
$HYPERLINKBASE
  1

  9
$STYLESHEET
  1

  9
$XEDIT
290
     1
  9
$CEPSNTYPE
380
     0
  9
$PSTYLEMODE
290
     1
  9
$FINGERPRINTGUID
  2
{F28FEDD6-6C76-4C74-9F31-3B6FE3D8E5EB}
  9
$VERSIONGUID
  2
{FAEB1C32-E019-11D5-929B-00C0DF256EC4}
  9
$EXTNAMES
290
     1
  9
$PSVPSCALE
 40
0.0
  9
$OLESTARTUP
290
     0
  0
ENDSEC
  0
SECTION
  2
CLASSES
  0
CLASS
  1
ACDBDICTIONARYWDFLT
  2
AcDbDictionaryWithDefault
  3
ObjectDBX Classes
 90
        0
280
     0
281
     0
  0
CLASS
  1
VISUALSTYLE
  2
AcDbVisualStyle
  3
ObjectDBX Classes
 90
     4095
280
     0
281
     0
  0
CLASS
  1
MATERIAL
  2
AcDbMaterial
  3
ObjectDBX Classes
 90
     1153
280
     0
281
     0
  0
CLASS
  1
SCALE
  2
AcDbScale
  3
ObjectDBX Classes
 90
     1153
280
     0
281
     0
  0
CLASS
  1
SUN
  2
AcDbSun
  3
SCENEOE
 90
     1153
280
     0
281
     0
  0
CLASS
  1
ACDBPLACEHOLDER
  2
AcDbPlaceHolder
  3
ObjectDBX Classes
 90
        0
280
     0
281
     0
  0
CLASS
  1
LAYOUT
  2
AcDbLayout
  3
ObjectDBX Classes
 90
        0
280
     0
281
     0
  0
CLASS
  1
TABLESTYLE
  2
AcDbTableStyle
  3
ObjectDBX Classes
 90
     4095
280
     0
281
     0
  0
CLASS
  1
MLEADERSTYLE
  2
AcDbMLeaderStyle
  3
ACDB_MLEADERSTYLE_CLASS
 90
     4095
280
     0
281
     0
  0
CLASS
  1
RASTERVARIABLES
  2
AcDbRasterVariables
  3
ISM
 90
        0
280
     0
281
     0
  0
ENDSEC
  0
SECTION
  2
TABLES
  0
TABLE
  2
VPORT
  5
8
330
0
100
AcDbSymbolTable
 70
     1
  0
VPORT
  5
29
330
8
100
AcDbSymbolTableRecord
100
AcDbViewportTableRecord
  2
*Active
 70
     0
 10
0.0
 20
0.0
 11
1.0
 21
1.0
 12
114.2005934826718
 22
40.25438539086825
 13
0.0
 23
0.0
 14
10.0
 24
10.0
 15
10.0
 25
10.0
 16
0.0
 26
0.0
 36
1.0
 17
0.0
 27
0.0
 37
0.0
 40
274.346949712506
 41
1.632093933463796
 42
50.0
 43
0.0
 44
0.0
 50
0.0
 51
0.0
 71
    16
 72
  2000
 73
     1
 74
     3
 75
     0
 76
     0
 77
     0
 78
     0
281
     0
 65
     1
110
0.0
120
0.0
130
0.0
111
1.0
121
0.0
131
0.0
112
0.0
122
1.0
132
0.0
 79
     0
146
0.0
  0
ENDTAB
  0
TABLE
  2
LTYPE
  5
5
330
0
100
AcDbSymbolTable
 70
     6
  0
LTYPE
  5
14
330
5
100
AcDbSymbolTableRecord
100
AcDbLinetypeTableRecord
  2
ByBlock
 70
     0
  3

 72
    65
 73
     0
 40
0.0
  0
LTYPE
  5
15
330
5
100
AcDbSymbolTableRecord
100
AcDbLinetypeTableRecord
  2
ByLayer
 70
     0
  3

 72
    65
 73
     0
 40
0.0
  0
LTYPE
  5
16
330
5
100
AcDbSymbolTableRecord
100
AcDbLinetypeTableRecord
  2
Continuous
 70
     0
  3
Solid line
 72
    65
 73
     0
 40
0.0
  0
LTYPE
  5
6A
330
5
100
AcDbSymbolTableRecord
100
AcDbLinetypeTableRecord
  2
HIDDEN
 70
     0
  3
Hidden __ __ __ __ __ __ __ __ __ __ __ __ __ __
 72
    65
 73
     2
 40
1.905
 49
1.27
 74
     0
 49
-0.635
 74
     0
  0
LTYPE
  5
6B
330
5
100
AcDbSymbolTableRecord
100
AcDbLinetypeTableRecord
  2
PHANTOM
 70
     0
  3
Phantom ______  __  __  ______  __  __  ______
 72
    65
 73
     6
 40
12.7
 49
6.35
 74
     0
 49
-1.27
 74
     0
 49
1.27
 74
     0
 49
-1.27
 74
     0
 49
1.27
 74
     0
 49
-1.27
 74
     0
  0
LTYPE
  5
6C
330
5
100
AcDbSymbolTableRecord
100
AcDbLinetypeTableRecord
  2
CENTER
 70
     0
  3
Center ____ _ ____ _ ____ _ ____ _ ____ _ ____
 72
    65
 73
     4
 40
10.16
 49
6.35
 74
     0
 49
-1.27
 74
     0
 49
1.27
 74
     0
 49
-1.27
 74
     0
  0
LTYPE
  5
6D
330
5
100
AcDbSymbolTableRecord
100
AcDbLinetypeTableRecord
  2
CENTERX2
 70
     0
  3
Center (2x) ________  __  ________  __  _____
 72
    65
 73
     4
 40
20.32
 49
12.7
 74
     0
 49
-2.54
 74
     0
 49
2.54
 74
     0
 49
-2.54
 74
     0
  0
LTYPE
  5
6E
330
5
100
AcDbSymbolTableRecord
100
AcDbLinetypeTableRecord
  2
DOT2
 70
     0
  3
Dot (.5x) ........................................
 72
    65
 73
     2
 40
0.635
 49
0.0
 74
     0
 49
-0.635
 74
     0
  0
ENDTAB
  0
TABLE
  2
LAYER
  5
2
102
{ACAD_XDICTIONARY
360
1E6
102
}
330
0
100
AcDbSymbolTable
 70
    18
  0
LAYER
  5
10
330
2
100
AcDbSymbolTableRecord
100
AcDbLayerTableRecord
  2
0
 70
     0
 62
     7
  6
Continuous
370
    -3
390
F
  0
LAYER
  5
6F
330
2
100
AcDbSymbolTableRecord
100
AcDbLayerTableRecord
  2
FORMAT
 70
     0
 62
     2
  6
Continuous
370
    -3
390
F
  0
LAYER
  5
70
330
2
100
AcDbSymbolTableRecord
100
AcDbLayerTableRecord
  2
외형선
 70
     0
 62
     4
  6
Continuous
370
    30
390
F
  0
LAYER
  5
71
330
2
100
AcDbSymbolTableRecord
100
AcDbLayerTableRecord
  2
숨은선
 70
     0
 62
     2
  6
HIDDEN
370
    15
390
F
  0
LAYER
  5
72
330
2
100
AcDbSymbolTableRecord
100
AcDbLayerTableRecord
  2
중심선
 70
     0
 62
     1
  6
CENTERX2
370
    -3
390
F
  0
LAYER
  5
73
330
2
100
AcDbSymbolTableRecord
100
AcDbLayerTableRecord
  2
파단선
 70
     0
 62
     4
  6
Continuous
370
    -3
390
F
  0
LAYER
  5
74
330
2
100
AcDbSymbolTableRecord
100
AcDbLayerTableRecord
  2
해칭선
 70
     0
 62
   100
  6
Continuous
370
    -3
390
F
  0
LAYER
  5
75
330
2
100
AcDbSymbolTableRecord
100
AcDbLayerTableRecord
  2
가는실선
 70
     0
 62
     4
  6
Continuous
370
    -3
390
F
  0
LAYER
  5
76
330
2
100
AcDbSymbolTableRecord
100
AcDbLayerTableRecord
  2
치수_보조선
 70
     0
 62
     4
  6
Continuous
370
    -3
390
F
  0
LAYER
  5
77
330
2
100
AcDbSymbolTableRecord
100
AcDbLayerTableRecord
  2
치수문자_일반주서
 70
     0
 62
     7
  6
Continuous
370
    15
390
F
  0
LAYER
  5
78
330
2
100
AcDbSymbolTableRecord
100
AcDbLayerTableRecord
  2
개별주서
 70
     0
 62
   100
  6
Continuous
370
    30
390
F
  0
LAYER
  5
79
330
2
100
AcDbSymbolTableRecord
100
AcDbLayerTableRecord
  2
중간선
 70
     0
 62
     2
  6
Continuous
370
    15
390
F
  0
LAYER
  5
7A
330
2
100
AcDbSymbolTableRecord
100
AcDbLayerTableRecord
  2
윤곽선
 70
     0
 62
     3
  6
Continuous
370
    40
390
F
  0
LAYER
  5
7B
330
2
100
AcDbSymbolTableRecord
100
AcDbLayerTableRecord
  2
중심마크
 70
     0
 62
   100
  6
Continuous
370
    30
390
F
  0
LAYER
  5
7C
330
2
100
AcDbSymbolTableRecord
100
AcDbLayerTableRecord
  2
가상선
 70
     0
 62
     4
  6
PHANTOM
370
    -3
390
F
  0
LAYER
  5
7D
330
2
100
AcDbSymbolTableRecord
100
AcDbLayerTableRecord
  2
특수지정선
 70
     0
 62
     5
  6
CENTERX2
370
    60
390
F
  0
LAYER
  5
7E
330
2
100
AcDbSymbolTableRecord
100
AcDbLayerTableRecord
  2
참조1
 70
     0
 62
    -4
  6
Continuous
370
    -3
390
F
  0
LAYER
  5
149
330
2
100
AcDbSymbolTableRecord
100
AcDbLayerTableRecord
  2
Defpoints
 70
     0
 62
     7
  6
Continuous
290
     0
370
    -3
390
F
  0
ENDTAB
  0
TABLE
  2
STYLE
  5
3
330
0
100
AcDbSymbolTable
 70
     2
  0
STYLE
  5
11
330
3
100
AcDbSymbolTableRecord
100
AcDbTextStyleTableRecord
  2
Standard
 70
     0
 40
0.0
 41
1.0
 50
0.0
 71
     0
 42
3.5
  3
txt
  4

  0
STYLE
  5
94
330
3
100
AcDbSymbolTableRecord
100
AcDbTextStyleTableRecord
  2
SLDTEXTSTYLE0
 70
     0
 40
0.0
 41
0.75
 50
0.0
 71
     0
 42
3.5
  3
TXT
  4

  0
ENDTAB
  0
TABLE
  2
VIEW
  5
6
330
0
100
AcDbSymbolTable
 70
     0
  0
ENDTAB
  0
TABLE
  2
UCS
  5
7
330
0
100
AcDbSymbolTable
 70
     0
  0
ENDTAB
  0
TABLE
  2
APPID
  5
9
330
0
100
AcDbSymbolTable
 70
     1
  0
APPID
  5
12
330
9
100
AcDbSymbolTableRecord
100
AcDbRegAppTableRecord
  2
ACAD
 70
     0
  0
ENDTAB
  0
TABLE
  2
DIMSTYLE
  5
A
330
0
100
AcDbSymbolTable
 70
     3
100
AcDbDimStyleTable
  0
DIMSTYLE
105
27
330
A
100
AcDbSymbolTableRecord
100
AcDbDimStyleTableRecord
  2
ISO-25
 70
     0
 41
2.5
 42
0.625
 43
3.75
 44
1.25
 73
     0
 74
     0
 77
     1
 78
     8
140
2.5
141
2.5
143
0.03937007874016
147
0.625
171
     3
172
     1
178
     0
271
     2
272
     2
274
     3
278
    44
283
     0
284
     8
340
11
  0
DIMSTYLE
105
C8
102
{ACAD_REACTORS
330
19A
330
1A7
330
1B4
330
1C1
330
212
330
213
330
214
330
215
102
}
330
A
100
AcDbSymbolTableRecord
100
AcDbDimStyleTableRecord
  2
SLDDIMSTYLE0
 70
     0
 41
3.302
 44
0.0
 45
0.000000001
 73
     0
 74
     0
 77
     1
 78
    12
 79
     3
140
3.5
143
0.0393700787401575
147
0.875
148
0.000000001
170
     1
172
     1
173
     1
178
     0
271
     2
272
     2
276
     2
284
    12
289
     0
340
94
  0
DIMSTYLE
105
F1
330
A
100
AcDbSymbolTableRecord
100
AcDbDimStyleTableRecord
  2
SLDDIMSTYLE1
 70
     0
 41
3.302
 44
0.0
 45
0.000000001
 73
     0
 74
     0
 77
     1
 78
    12
 79
     3
140
3.5
143
0.0393700787401575
147
0.875
148
0.000000001
170
     1
173
     1
178
     0
271
     2
272
     2
276
     2
284
    12
340
94
  0
ENDTAB
  0
TABLE
  2
BLOCK_RECORD
  5
1
330
0
100
AcDbSymbolTable
 70
    16
  0
BLOCK_RECORD
  5
1F
330
1
100
AcDbSymbolTableRecord
100
AcDbBlockTableRecord
  2
*Model_Space
340
22
  0
BLOCK_RECORD
  5
1B
330
1
100
AcDbSymbolTableRecord
100
AcDbBlockTableRecord
  2
*Paper_Space
340
1E
  0
BLOCK_RECORD
  5
23
330
1
100
AcDbSymbolTableRecord
100
AcDbBlockTableRecord
  2
*Paper_Space0
340
26
  0
BLOCK_RECORD
  5
7F
330
1
100
AcDbSymbolTableRecord
100
AcDbBlockTableRecord
  2
블럭10
340
0
102
{BLKREFS
331
C0
102
}
  0
BLOCK_RECORD
  5
C9
330
1
100
AcDbSymbolTableRecord
100
AcDbBlockTableRecord
  2
_D
340
0
  0
BLOCK_RECORD
  5
DD
330
1
100
AcDbSymbolTableRecord
100
AcDbBlockTableRecord
  2
_D_1
340
0
  0
BLOCK_RECORD
  5
F2
330
1
100
AcDbSymbolTableRecord
100
AcDbBlockTableRecord
  2
_D_2
340
0
  0
BLOCK_RECORD
  5
105
330
1
100
AcDbSymbolTableRecord
100
AcDbBlockTableRecord
  2
_D_3
340
0
  0
BLOCK_RECORD
  5
11E
330
1
100
AcDbSymbolTableRecord
100
AcDbBlockTableRecord
  2
SW_DOWELSYMBOL_0
340
0
102
{BLKREFS
331
0
331
1D1
331
216
102
}
  0
BLOCK_RECORD
  5
19B
330
1
100
AcDbSymbolTableRecord
100
AcDbBlockTableRecord
  2
*D8
340
0
  0
BLOCK_RECORD
  5
1A8
330
1
100
AcDbSymbolTableRecord
100
AcDbBlockTableRecord
  2
*D9
340
0
  0
BLOCK_RECORD
  5
1B5
330
1
100
AcDbSymbolTableRecord
100
AcDbBlockTableRecord
  2
*D10
340
0
  0
BLOCK_RECORD
  5
1C2
330
1
100
AcDbSymbolTableRecord
100
AcDbBlockTableRecord
  2
*D11
340
0
  0
BLOCK_RECORD
  5
225
330
1
100
AcDbSymbolTableRecord
100
AcDbBlockTableRecord
  2
*D12
340
0
  0
BLOCK_RECORD
  5
231
330
1
100
AcDbSymbolTableRecord
100
AcDbBlockTableRecord
  2
*D13
340
0
  0
BLOCK_RECORD
  5
23D
330
1
100
AcDbSymbolTableRecord
100
AcDbBlockTableRecord
  2
*D14
340
0
  0
BLOCK_RECORD
  5
249
330
1
100
AcDbSymbolTableRecord
100
AcDbBlockTableRecord
  2
*D15
340
0
  0
ENDTAB
  0
ENDSEC
  0
SECTION
  2
BLOCKS
  0
BLOCK
  5
20
330
1F
100
AcDbEntity
  8
0
100
AcDbBlockBegin
  2
*Model_Space
 70
     0
 10
0.0
 20
0.0
 30
0.0
  3
*Model_Space
  1
*Model_Space
  0
ENDBLK
  5
21
330
1F
100
AcDbEntity
  8
0
100
AcDbBlockEnd
  0
BLOCK
  5
1C
330
1B
100
AcDbEntity
 67
     1
  8
0
100
AcDbBlockBegin
  2
*Paper_Space
 70
     0
 10
0.0
 20
0.0
 30
0.0
  3
*Paper_Space
  1
*Paper_Space
  0
ENDBLK
  5
1D
330
1B
100
AcDbEntity
 67
     1
  8
0
100
AcDbBlockEnd
  0
BLOCK
  5
24
330
23
100
AcDbEntity
  8
0
100
AcDbBlockBegin
  2
*Paper_Space0
 70
     0
 10
0.0
 20
0.0
 30
0.0
  3
*Paper_Space0
  1
*Paper_Space0
  0
ENDBLK
  5
25
330
23
100
AcDbEntity
  8
0
100
AcDbBlockEnd
  0
BLOCK
  5
80
330
7F
100
AcDbEntity
  8
0
100
AcDbBlockBegin
  2
블럭10
 70
     2
 10
0.0
 20
0.0
 30
0.0
  3
블럭10
  1
블럭10
  0
ELLIPSE
  5
82
330
7F
100
AcDbEntity
  8
중심선
100
AcDbEllipse
 10
20.54032771741204
 20
12.0471743016438
 30
0.0
 11
6.600054785286829
 21
-1.261213355974178E-13
 31
0.0
210
0.0
220
0.0
230
1.0
 40
0.636358354079598
 41
0.9219305317359503
 42
6.513795318482858
  0
ELLIPSE
  5
83
330
7F
100
AcDbEntity
  8
중심선
100
AcDbEllipse
 10
20.54032771746488
 20
12.04717430159265
 30
0.0
 11
3.960054785062283
 21
1.540847449632565E-10
 31
0.0
210
0.0
220
0.0
230
1.0
 40
0.3939339440162632
 41
1.131841032648279
 42
5.62031148352944
  0
LINE
  5
84
330
7F
100
AcDbEntity
  8
중심선
100
AcDbLine
 10
2.268634060543552
 20
16.24717430164393
 30
0.0
 11
5.714909304380834
 21
16.24717430164393
 31
0.0
  0
LINE
  5
85
330
7F
100
AcDbEntity
  8
중심선
100
AcDbLine
 10
5.245725140726316
 20
7.84717430164391
 30
0.0
 11
8.692000384563599
 21
7.84717430164391
 31
0.0
  0
LINE
  5
86
330
7F
100
AcDbEntity
  8
중심선
100
AcDbLine
 10
15.74043728645272
 20
16.24717430164393
 30
0.0
 11
8.692000384563599
 21
7.84717430164391
 31
0.0
  0
LINE
  5
87
330
7F
100
AcDbEntity
  8
중심선
100
AcDbLine
 10
0.1404042013395286
 20
13.71084872107135
 30
0.0
 11
3.58671253028996
 21
13.71088815037384
 31
0.0
  0
LINE
  5
88
330
7F
100
AcDbEntity
  8
중심선
100
AcDbLine
 10
2.750260043222114
 20
10.84717430164391
 30
0.0
 11
6.196535287059397
 21
10.84717430164391
 31
0.0
  0
LINE
  5
89
330
7F
100
AcDbEntity
  8
중심선
100
AcDbLine
 10
12.29416204261559
 20
16.24717430164393
 30
0.0
 11
5.245725140726316
 21
7.84717430164391
 31
0.0
  0
LINE
  5
8A
330
7F
100
AcDbEntity
  8
중심선
100
AcDbLine
 10
10.72767329541681
 20
16.24717430164393
 30
0.0
 11
6.196535287059397
 21
10.84717430164391
 31
0.0
  0
LINE
  5
8B
330
7F
100
AcDbEntity
  8
중심선
100
AcDbLine
 10
7.28139805157953
 20
16.24717430164393
 30
0.0
 11
2.750260043222114
 21
10.84717430164391
 31
0.0
  0
LINE
  5
8C
330
7F
100
AcDbEntity
  8
중심선
100
AcDbLine
 10
5.714909304380834
 20
16.24717430164393
 30
0.0
 11
3.58671253028996
 21
13.71088815037384
 31
0.0
  0
LINE
  5
8D
330
7F
100
AcDbEntity
  8
중심선
100
AcDbLine
 10
2.268634060543552
 20
16.24717430164393
 30
0.0
 11
0.1404042013395286
 21
13.71084872107135
 31
0.0
  0
LINE
  5
8E
330
7F
100
AcDbEntity
  8
중심선
100
AcDbLine
 10
7.28139805157953
 20
16.24717430164393
 30
0.0
 11
10.72767329541681
 21
16.24717430164393
 31
0.0
  0
LINE
  5
8F
330
7F
100
AcDbEntity
  8
중심선
100
AcDbLine
 10
12.29416204261559
 20
16.24717430164393
 30
0.0
 11
15.74043728645272
 21
16.24717430164393
 31
0.0
  0
LINE
  5
90
330
7F
100
AcDbEntity
  8
중심선
100
AcDbLine
 10
19.22036997980202
 20
11.08717430171403
 30
0.0
 11
23.66174974927406
 21
11.08717430171406
 31
0.0
  0
LINE
  5
91
330
7F
100
AcDbEntity
  8
중심선
100
AcDbLine
 10
19.22039502424796
 20
13.00717430171391
 30
0.0
 11
19.22036997980202
 21
11.08717430171403
 31
0.0
  0
LINE
  5
92
330
7F
100
AcDbEntity
  8
중심선
100
AcDbLine
 10
19.22039502424796
 20
13.00717430171391
 30
0.0
 11
26.96566020931264
 21
13.00717430171391
 31
0.0
  0
LINE
  5
93
330
7F
100
AcDbEntity
  8
중심선
100
AcDbLine
 10
22.22332737316547
 20
13.45928029700563
 30
0.0
 11
24.52862924686651
 21
15.39360700705356
 31
0.0
  0
ATTDEF
  5
95
330
7F
100
AcDbEntity
  8
FORMAT
 62
     2
100
AcDbText
 10
4.408487351596664
 20
2.075366912832191
 30
0.0
 40
4.233333333333333
  1
E2032901
 41
0.75
  7
SLDTEXTSTYLE0
 11
4.408487351596664
 21
-0.0412997538344756
 31
0.0
100
AcDbAttributeDefinition
  3

  2
AUTOATTR0
 70
     0
 74
     1
  0
ENDBLK
  5
81
330
7F
100
AcDbEntity
  8
0
100
AcDbBlockEnd
  0
BLOCK
  5
CA
330
C9
100
AcDbEntity
  8
0
100
AcDbBlockBegin
  2
_D
 70
     0
 10
0.0
 20
0.0
 30
0.0
  3
_D
  1
_D
  0
SOLID
  5
CC
330
C9
100
AcDbEntity
  8
치수문자_일반주서
100
AcDbTrace
 10
97.9119459855236
 20
12.5010749287239
 30
0.0
 11
98.4199459855236
 21
15.80307492872389
 31
0.0
 12
97.4039459855236
 22
15.80307492872389
 32
0.0
 13
97.4039459855236
 23
15.80307492872389
 33
0.0
  0
SOLID
  5
CD
330
C9
100
AcDbEntity
  8
치수문자_일반주서
100
AcDbTrace
 10
97.9119459855236
 20
-12.49892507127611
 30
0.0
 11
97.4039459855236
 21
-15.80092507127611
 31
0.0
 12
98.4199459855236
 22
-15.80092507127611
 32
0.0
 13
98.4199459855236
 23
-15.80092507127611
 33
0.0
  0
LINE
  5
CE
330
C9
100
AcDbEntity
  8
치수문자_일반주서
100
AcDbLine
 10
87.11906426948089
 20
-5.413291502344828
 30
0.0
 11
87.11906426948089
 21
-6.124228987909328
 31
0.0
  0
LINE
  5
CF
330
C9
100
AcDbEntity
  8
치수문자_일반주서
100
AcDbLine
 10
87.11906426948089
 20
-6.124228987909328
 30
0.0
 11
92.67531426054019
 21
-6.124228987909289
 31
0.0
  0
LINE
  5
D0
330
C9
100
AcDbEntity
  8
치수문자_일반주서
100
AcDbLine
 10
92.67531426054019
 20
-6.124228987909289
 30
0.0
 11
92.67531426054019
 21
-5.413291502344789
 31
0.0
  0
LINE
  5
D1
330
C9
100
AcDbEntity
  8
치수문자_일반주서
100
AcDbLine
 10
87.1190642694808
 20
5.41544135979243
 30
0.0
 11
87.1190642694808
 21
6.12637884535693
 31
0.0
  0
LINE
  5
D2
330
C9
100
AcDbEntity
  8
치수문자_일반주서
100
AcDbLine
 10
87.1190642694808
 20
6.12637884535693
 30
0.0
 11
92.6753142605401
 21
6.126378845356969
 31
0.0
  0
LINE
  5
D3
330
C9
100
AcDbEntity
  8
치수문자_일반주서
100
AcDbLine
 10
92.6753142605401
 20
6.126378845356969
 30
0.0
 11
92.6753142605401
 21
5.415441359792469
 31
0.0
  0
LINE
  5
D4
330
C9
100
AcDbEntity
  8
치수문자_일반주서
100
AcDbLine
 10
79.91194598552357
 20
12.5010749287239
 30
0.0
 11
98.9119459855236
 21
12.5010749287239
 31
0.0
  0
LINE
  5
D5
330
C9
100
AcDbEntity
  8
치수문자_일반주서
100
AcDbLine
 10
79.91194598552357
 20
-12.49892507127611
 30
0.0
 11
98.9119459855236
 21
-12.49892507127611
 31
0.0
  0
LINE
  5
D6
330
C9
100
AcDbEntity
  8
치수문자_일반주서
100
AcDbLine
 10
97.9119459855236
 20
12.5010749287239
 30
0.0
 11
97.9119459855236
 21
18.8510749287239
 31
0.0
  0
LINE
  5
D7
330
C9
100
AcDbEntity
  8
치수문자_일반주서
100
AcDbLine
 10
97.9119459855236
 20
12.5010749287239
 30
0.0
 11
97.9119459855236
 21
-12.49892507127611
 31
0.0
  0
LINE
  5
D8
330
C9
100
AcDbEntity
  8
치수문자_일반주서
100
AcDbLine
 10
97.9119459855236
 20
-12.49892507127611
 30
0.0
 11
97.9119459855236
 21
-18.84892507127611
 31
0.0
  0
MTEXT
  5
D9
330
C9
100
AcDbEntity
  8
치수문자_일반주서
100
AcDbMText
 10
88.16357734596129
 20
-4.52461960173345
 30
0.0
 40
3.5
 41
0.0
 71
     1
 72
     1
  1
0.98
  7
SLDTEXTSTYLE0
 11
-7.044195017643634E-15
 21
1.0
 31
0.0
 73
     1
 44
1.0
  0
MTEXT
  5
DA
330
C9
100
AcDbEntity
  8
치수문자_일반주서
100
AcDbMText
 10
93.40020889632177
 20
-5.22425519681665
 30
0.0
 40
3.5
 41
0.0
 71
     1
 72
     1
  1
%%c
  7
SLDTEXTSTYLE0
 11
-7.044195017643634E-15
 21
1.0
 31
0.0
 73
     1
 44
1.0
  0
MTEXT
  5
DB
330
C9
100
AcDbEntity
  8
치수문자_일반주서
100
AcDbMText
 10
93.40020889632173
 20
0.0541822015574309
 30
0.0
 40
3.5
 41
0.0
 71
     1
 72
     1
  1
25
  7
SLDTEXTSTYLE0
 11
-7.044195017643634E-15
 21
1.0
 31
0.0
 73
     1
 44
1.0
  0
ENDBLK
  5
CB
330
C9
100
AcDbEntity
  8
0
100
AcDbBlockEnd
  0
BLOCK
  5
DE
330
DD
100
AcDbEntity
  8
0
100
AcDbBlockBegin
  2
_D_1
 70
     0
 10
0.0
 20
0.0
 30
0.0
  3
_D_1
  1
_D_1
  0
SOLID
  5
E0
330
DD
100
AcDbEntity
  8
치수문자_일반주서
100
AcDbTrace
 10
-55.08805401447646
 20
7.938574928723906
 30
0.0
 11
-54.58005401447646
 21
11.24057492872391
 31
0.0
 12
-55.59605401447646
 22
11.24057492872391
 32
0.0
 13
-55.59605401447646
 23
11.24057492872391
 33
0.0
  0
SOLID
  5
E1
330
DD
100
AcDbEntity
  8
치수문자_일반주서
100
AcDbTrace
 10
-55.08805401447646
 20
-7.936425071276123
 30
0.0
 11
-55.59605401447646
 21
-11.23842507127612
 31
0.0
 12
-54.58005401447646
 22
-11.23842507127612
 32
0.0
 13
-54.58005401447646
 23
-11.23842507127612
 33
0.0
  0
LINE
  5
E2
330
DD
100
AcDbEntity
  8
치수문자_일반주서
100
AcDbLine
 10
-65.88093573051917
 20
-6.595745043212554
 30
0.0
 11
-65.88093573051917
 21
-7.306682528777054
 31
0.0
  0
LINE
  5
E3
330
DD
100
AcDbEntity
  8
치수문자_일반주서
100
AcDbLine
 10
-65.88093573051917
 20
-7.306682528777054
 30
0.0
 11
-60.32468573945987
 21
-7.306682528777015
 31
0.0
  0
LINE
  5
E4
330
DD
100
AcDbEntity
  8
치수문자_일반주서
100
AcDbLine
 10
-60.32468573945987
 20
-7.306682528777015
 30
0.0
 11
-60.32468573945987
 21
-6.595745043212514
 31
0.0
  0
LINE
  5
E5
330
DD
100
AcDbEntity
  8
치수문자_일반주서
100
AcDbLine
 10
-65.88093573051925
 20
4.232987818924705
 30
0.0
 11
-65.88093573051925
 21
4.943925304489205
 31
0.0
  0
LINE
  5
E6
330
DD
100
AcDbEntity
  8
치수문자_일반주서
100
AcDbLine
 10
-65.88093573051925
 20
4.943925304489205
 30
0.0
 11
-60.32468573945995
 21
4.943925304489244
 31
0.0
  0
LINE
  5
E7
330
DD
100
AcDbEntity
  8
치수문자_일반주서
100
AcDbLine
 10
-60.32468573945995
 20
4.943925304489244
 30
0.0
 11
-60.32468573945994
 21
4.232987818924744
 31
0.0
  0
LINE
  5
E8
330
DD
100
AcDbEntity
  8
치수문자_일반주서
100
AcDbLine
 10
-41.50055401447643
 20
7.938574928723908
 30
0.0
 11
-56.08805401447646
 21
7.938574928723906
 31
0.0
  0
LINE
  5
E9
330
DD
100
AcDbEntity
  8
치수문자_일반주서
100
AcDbLine
 10
-41.50055401447643
 20
-7.936425071276121
 30
0.0
 11
-56.08805401447646
 21
-7.936425071276123
 31
0.0
  0
LINE
  5
EA
330
DD
100
AcDbEntity
  8
치수문자_일반주서
100
AcDbLine
 10
-55.08805401447646
 20
7.938574928723906
 30
0.0
 11
-55.08805401447646
 21
14.28857492872391
 31
0.0
  0
LINE
  5
EB
330
DD
100
AcDbEntity
  8
치수문자_일반주서
100
AcDbLine
 10
-55.08805401447646
 20
7.938574928723906
 30
0.0
 11
-55.08805401447646
 21
-7.936425071276123
 31
0.0
  0
LINE
  5
EC
330
DD
100
AcDbEntity
  8
치수문자_일반주서
100
AcDbLine
 10
-55.08805401447646
 20
-7.936425071276123
 30
0.0
 11
-55.08805401447646
 21
-14.28642507127612
 31
0.0
  0
MTEXT
  5
ED
330
DD
100
AcDbEntity
  8
치수문자_일반주서
100
AcDbMText
 10
-64.83642265403878
 20
-5.707073142601175
 30
0.0
 40
3.5
 41
0.0
 71
     1
 72
     1
  1
0.63
  7
SLDTEXTSTYLE0
 11
-7.044195017643634E-15
 21
1.0
 31
0.0
 73
     1
 44
1.0
  0
MTEXT
  5
EE
330
DD
100
AcDbEntity
  8
치수문자_일반주서
100
AcDbMText
 10
-59.59979110367827
 20
-9.639347554964907
 30
0.0
 40
3.5
 41
0.0
 71
     1
 72
     1
  1
%%c
  7
SLDTEXTSTYLE0
 11
-7.044195017643634E-15
 21
1.0
 31
0.0
 73
     1
 44
1.0
  0
MTEXT
  5
EF
330
DD
100
AcDbEntity
  8
치수문자_일반주서
100
AcDbMText
 10
-59.59979110367831
 20
-4.360910156590827
 30
0.0
 40
3.5
 41
0.0
 71
     1
 72
     1
  1
15.88
  7
SLDTEXTSTYLE0
 11
-7.044195017643634E-15
 21
1.0
 31
0.0
 73
     1
 44
1.0
  0
ENDBLK
  5
DF
330
DD
100
AcDbEntity
  8
0
100
AcDbBlockEnd
  0
BLOCK
  5
F3
330
F2
100
AcDbEntity
  8
0
100
AcDbBlockBegin
  2
_D_2
 70
     0
 10
0.0
 20
0.0
 30
0.0
  3
_D_2
  1
_D_2
  0
SOLID
  5
F5
330
F2
100
AcDbEntity
  8
치수문자_일반주서
100
AcDbTrace
 10
78.91194598552357
 20
22.70945704078098
 30
0.0
 11
75.60994598552358
 21
23.21745704078098
 31
0.0
 12
75.60994598552358
 22
22.20145704078098
 32
0.0
 13
75.60994598552358
 23
22.20145704078098
 33
0.0
  0
SOLID
  5
F6
330
F2
100
AcDbEntity
  8
치수문자_일반주서
100
AcDbTrace
 10
33.91194598552359
 20
22.70945704078098
 30
0.0
 11
37.21394598552359
 21
22.20145704078098
 31
0.0
 12
37.21394598552359
 22
23.21745704078098
 32
0.0
 13
37.21394598552359
 23
23.21745704078098
 33
0.0
  0
LINE
  5
F7
330
F2
100
AcDbEntity
  8
치수문자_일반주서
100
AcDbLine
 10
50.99757990370087
 20
33.5023387568237
 30
0.0
 11
50.28664241813637
 21
33.50233875682371
 31
0.0
  0
LINE
  5
F8
330
F2
100
AcDbEntity
  8
치수문자_일반주서
100
AcDbLine
 10
50.28664241813637
 20
33.50233875682371
 30
0.0
 11
50.28664241813632
 21
27.94608876576441
 31
0.0
  0
LINE
  5
F9
330
F2
100
AcDbEntity
  8
치수문자_일반주서
100
AcDbLine
 10
50.28664241813632
 20
27.94608876576441
 30
0.0
 11
50.99757990370082
 21
27.9460887657644
 31
0.0
  0
LINE
  5
FA
330
F2
100
AcDbEntity
  8
치수문자_일반주서
100
AcDbLine
 10
61.82631276583813
 20
33.50233875682363
 30
0.0
 11
62.53725025140263
 21
33.50233875682363
 31
0.0
  0
LINE
  5
FB
330
F2
100
AcDbEntity
  8
치수문자_일반주서
100
AcDbLine
 10
62.53725025140263
 20
33.50233875682363
 30
0.0
 11
62.53725025140258
 21
27.94608876576432
 31
0.0
  0
LINE
  5
FC
330
F2
100
AcDbEntity
  8
치수문자_일반주서
100
AcDbLine
 10
62.53725025140258
 20
27.94608876576432
 30
0.0
 11
61.82631276583808
 21
27.94608876576432
 31
0.0
  0
LINE
  5
FD
330
F2
100
AcDbEntity
  8
치수문자_일반주서
100
AcDbLine
 10
78.91194598552357
 20
13.41913328825097
 30
0.0
 11
78.91194598552357
 21
23.70945704078098
 31
0.0
  0
LINE
  5
FE
330
F2
100
AcDbEntity
  8
치수문자_일반주서
100
AcDbLine
 10
33.91194598552359
 20
13.43021557357927
 30
0.0
 11
33.91194598552359
 21
23.70945704078098
 31
0.0
  0
LINE
  5
FF
330
F2
100
AcDbEntity
  8
치수문자_일반주서
100
AcDbLine
 10
78.91194598552357
 20
22.70945704078098
 30
0.0
 11
33.91194598552359
 21
22.70945704078098
 31
0.0
  0
MTEXT
  5
100
330
F2
100
AcDbEntity
  8
치수문자_일반주서
100
AcDbMText
 10
49.77288369264962
 20
27.2746663066427
 30
0.0
 40
3.5
 41
0.0
 71
     1
 72
     1
  1

  7
SLDTEXTSTYLE0
 73
     1
 44
1.0
  0
MTEXT
  5
101
330
F2
100
AcDbEntity
  8
치수문자_일반주서
100
AcDbMText
 10
51.88625180431223
 20
32.4578256803433
 30
0.0
 40
3.5
 41
0.0
 71
     1
 72
     1
  1
1.77
  7
SLDTEXTSTYLE0
 73
     1
 44
1.0
  0
MTEXT
  5
102
330
F2
100
AcDbEntity
  8
치수문자_일반주서
100
AcDbMText
 10
53.82583514124664
 20
27.22119412998281
 30
0.0
 40
3.5
 41
0.0
 71
     1
 72
     1
  1
45
  7
SLDTEXTSTYLE0
 73
     1
 44
1.0
  0
MTEXT
  5
103
330
F2
100
AcDbEntity
  8
치수문자_일반주서
100
AcDbMText
 10
64.3829534965432
 20
27.27466630664259
 30
0.0
 40
3.5
 41
0.0
 71
     1
 72
     1
  1

  7
SLDTEXTSTYLE0
 73
     1
 44
1.0
  0
ENDBLK
  5
F4
330
F2
100
AcDbEntity
  8
0
100
AcDbBlockEnd
  0
BLOCK
  5
106
330
105
100
AcDbEntity
  8
0
100
AcDbBlockBegin
  2
_D_3
 70
     0
 10
0.0
 20
0.0
 30
0.0
  3
_D_3
  1
_D_3
  0
SOLID
  5
108
330
105
100
AcDbEntity
  8
치수문자_일반주서
100
AcDbTrace
 10
78.91194598552357
 20
38.36394344956528
 30
0.0
 11
75.60994598552358
 21
38.87194344956529
 31
0.0
 12
75.60994598552358
 22
37.85594344956528
 32
0.0
 13
75.60994598552358
 23
37.85594344956528
 33
0.0
  0
SOLID
  5
109
330
105
100
AcDbEntity
  8
치수문자_일반주서
100
AcDbTrace
 10
-42.08805401447642
 20
38.36394344956528
 30
0.0
 11
-38.78605401447642
 21
37.85594344956527
 31
0.0
 12
-38.78605401447642
 22
38.87194344956528
 32
0.0
 13
-38.78605401447642
 23
38.87194344956528
 33
0.0
  0
LINE
  5
10A
330
105
100
AcDbEntity
  8
치수문자_일반주서
100
AcDbLine
 10
14.47912979228456
 20
49.15682516560803
 30
0.0
 11
13.76819230672006
 21
49.15682516560804
 31
0.0
  0
LINE
  5
10B
330
105
100
AcDbEntity
  8
치수문자_일반주서
100
AcDbLine
 10
13.76819230672006
 20
49.15682516560804
 30
0.0
 11
13.76819230672002
 21
43.60057517454874
 31
0.0
  0
LINE
  5
10C
330
105
100
AcDbEntity
  8
치수문자_일반주서
100
AcDbLine
 10
13.76819230672002
 20
43.60057517454874
 30
0.0
 11
14.47912979228452
 21
43.60057517454873
 31
0.0
  0
LINE
  5
10D
330
105
100
AcDbEntity
  8
치수문자_일반주서
100
AcDbLine
 10
25.30786265442182
 20
49.15682516560796
 30
0.0
 11
26.01880013998632
 21
49.15682516560796
 31
0.0
  0
LINE
  5
10E
330
105
100
AcDbEntity
  8
치수문자_일반주서
100
AcDbLine
 10
26.01880013998632
 20
49.15682516560796
 30
0.0
 11
26.01880013998629
 21
43.60057517454865
 31
0.0
  0
LINE
  5
10F
330
105
100
AcDbEntity
  8
치수문자_일반주서
100
AcDbLine
 10
26.01880013998629
 20
43.60057517454865
 30
0.0
 11
25.30786265442179
 21
43.60057517454866
 31
0.0
  0
LINE
  5
110
330
105
100
AcDbEntity
  8
치수문자_일반주서
100
AcDbLine
 10
78.91194598552357
 20
13.21639659633511
 30
0.0
 11
78.91194598552357
 21
39.36394344956528
 31
0.0
  0
LINE
  5
111
330
105
100
AcDbEntity
  8
치수문자_일반주서
100
AcDbLine
 10
-42.08805401447642
 20
7.351074928723897
 30
0.0
 11
-42.08805401447642
 21
39.36394344956528
 31
0.0
  0
LINE
  5
112
330
105
100
AcDbEntity
  8
치수문자_일반주서
100
AcDbLine
 10
78.91194598552357
 20
38.36394344956528
 30
0.0
 11
-42.08805401447642
 21
38.36394344956528
 31
0.0
  0
MTEXT
  5
113
330
105
100
AcDbEntity
  8
치수문자_일반주서
100
AcDbMText
 10
13.25443358123332
 20
42.92915271542702
 30
0.0
 40
3.5
 41
0.0
 71
     1
 72
     1
  1

  7
SLDTEXTSTYLE0
 73
     1
 44
1.0
  0
MTEXT
  5
114
330
105
100
AcDbEntity
  8
치수문자_일반주서
100
AcDbMText
 10
15.36780169289593
 20
48.11231208912763
 30
0.0
 40
3.5
 41
0.0
 71
     1
 72
     1
  1
4.76
  7
SLDTEXTSTYLE0
 73
     1
 44
1.0
  0
MTEXT
  5
115
330
105
100
AcDbEntity
  8
치수문자_일반주서
100
AcDbMText
 10
16.01432954948426
 20
42.87568053876715
 30
0.0
 40
3.5
 41
0.0
 71
     1
 72
     1
  1
121
  7
SLDTEXTSTYLE0
 73
     1
 44
1.0
  0
MTEXT
  5
116
330
105
100
AcDbEntity
  8
치수문자_일반주서
100
AcDbMText
 10
27.86450338512689
 20
42.92915271542692
 30
0.0
 40
3.5
 41
0.0
 71
     1
 72
     1
  1

  7
SLDTEXTSTYLE0
 73
     1
 44
1.0
  0
ENDBLK
  5
107
330
105
100
AcDbEntity
  8
0
100
AcDbBlockEnd
  0
BLOCK
  5
11F
330
11E
100
AcDbEntity
  8
0
100
AcDbBlockBegin
  2
SW_DOWELSYMBOL_0
 70
     0
 10
0.0
 20
0.0
 30
0.0
  3
SW_DOWELSYMBOL_0
  1
SW_DOWELSYMBOL_0
  0
CIRCLE
  5
121
330
11E
100
AcDbEntity
  8
해칭선
 62
     0
100
AcDbCircle
 10
0.0
 20
0.0
 30
0.0
 40
3.000000000000001
  0
HATCH
  5
122
330
11E
100
AcDbEntity
  8
0
  6
Continuous
 62
     0
370
     0
100
AcDbHatch
 10
0.0
 20
0.0
 30
0.0
210
0.0
220
0.0
230
1.0
  2
SOLID
 70
     1
 71
     0
 91
        1
 92
        0
 93
        3
 72
     2
 10
0.0
 20
0.0
 40
3.000000000000001
 50
0.0
 51
90.0
 73
     1
 72
     1
 10
0.0
 20
3.000000000000001
 11
0.0
 21
0.0
 72
     1
 10
0.0
 20
0.0
 11
3.000000000000001
 21
0.0
 97
        0
 75
     0
 76
     1
 98
        1
 10
0.0
 20
0.0
  0
HATCH
  5
123
330
11E
100
AcDbEntity
  8
0
  6
Continuous
 62
     0
370
     0
100
AcDbHatch
 10
0.0
 20
0.0
 30
0.0
210
0.0
220
0.0
230
1.0
  2
SOLID
 70
     1
 71
     0
 91
        1
 92
        0
 93
        3
 72
     2
 10
0.0
 20
0.0
 40
3.000000000000001
 50
180.0
 51
270.0000000000008
 73
     1
 72
     1
 10
0.0
 20
-3.000000000000001
 11
0.0
 21
0.0
 72
     1
 10
0.0
 20
0.0
 11
-3.000000000000001
 21
0.0
 97
        0
 75
     0
 76
     1
 98
        1
 10
0.0
 20
0.0
  0
ENDBLK
  5
120
330
11E
100
AcDbEntity
  8
0
100
AcDbBlockEnd
  0
BLOCK
  5
19C
330
19B
100
AcDbEntity
  8
0
100
AcDbBlockBegin
  2
*D8
 70
     1
 10
0.0
 20
0.0
 30
0.0
  3
*D8
  1
*D8
  0
LINE
  5
19D
330
19B
100
AcDbEntity
  8
치수문자_일반주서
 62
     0
370
    -2
100
AcDbLine
 10
18.90000000000004
 20
29.62274993650013
 30
0.0
 11
4.375000000000003
 21
29.62274993650009
 31
0.0
  0
LINE
  5
19E
330
19B
100
AcDbEntity
  8
치수문자_일반주서
 62
     0
370
    -2
100
AcDbLine
 10
18.90000000000004
 20
10.57274993650012
 30
0.0
 11
4.375000000000069
 21
10.57274993650007
 31
0.0
  0
LINE
  5
19F
330
19B
100
AcDbEntity
  8
치수문자_일반주서
 62
     0
370
    -2
100
AcDbLine
 10
4.375000000000014
 20
26.32074993650009
 30
0.0
 11
4.375000000000058
 21
13.87474993650007
 31
0.0
  0
SOLID
  5
1A0
330
19B
100
AcDbEntity
  8
치수문자_일반주서
 62
     0
100
AcDbTrace
 10
4.925333333333348
 20
26.32074993650009
 30
0.0
 11
3.824666666666681
 21
26.32074993650008
 31
0.0
 12
4.375000000000003
 22
29.62274993650009
 32
0.0
 13
4.375000000000003
 23
29.62274993650009
 33
0.0
  0
SOLID
  5
1A1
330
19B
100
AcDbEntity
  8
치수문자_일반주서
 62
     0
100
AcDbTrace
 10
3.824666666666725
 20
13.87474993650007
 30
0.0
 11
4.925333333333391
 21
13.87474993650008
 31
0.0
 12
4.375000000000069
 22
10.57274993650007
 32
0.0
 13
4.375000000000069
 23
10.57274993650007
 33
0.0
  0
MTEXT
  5
1A2
330
19B
100
AcDbEntity
  8
치수문자_일반주서
 62
     0
100
AcDbMText
 10
0.0000000000000355
 20
20.09774993650012
 30
0.0
 40
3.5
 41
0.0
 71
     2
 72
     1
  1
\A1;%%c19.05 [3/4]
  7
SLDTEXTSTYLE0
 11
-3.496765431890253E-15
 21
1.0
 31
0.0
 73
     1
 44
1.0
  0
POINT
  5
1A3
330
19B
100
AcDbEntity
  8
Defpoints
 62
     0
100
AcDbPoint
 10
18.96250000000004
 20
29.62274993650013
 30
0.0
  0
POINT
  5
1A4
330
19B
100
AcDbEntity
  8
Defpoints
 62
     0
100
AcDbPoint
 10
18.96250000000004
 20
10.57274993650012
 30
0.0
  0
POINT
  5
1A5
330
19B
100
AcDbEntity
  8
Defpoints
 62
     0
100
AcDbPoint
 10
4.375000000000071
 20
10.57274993650007
 30
0.0
  0
ENDBLK
  5
1A6
330
19B
100
AcDbEntity
  8
0
100
AcDbBlockEnd
  0
BLOCK
  5
1A9
330
1A8
100
AcDbEntity
  8
0
100
AcDbBlockBegin
  2
*D9
 70
     1
 10
0.0
 20
0.0
 30
0.0
  3
*D9
  1
*D9
  0
LINE
  5
1AA
330
1A8
100
AcDbEntity
  8
치수문자_일반주서
 62
     0
370
    -2
100
AcDbLine
 10
125.0075000000001
 20
33.65399987299992
 30
0.0
 11
125.0075000000001
 21
65.42467736863236
 31
0.0
  0
LINE
  5
1AB
330
1A8
100
AcDbEntity
  8
치수문자_일반주서
 62
     0
370
    -2
100
AcDbLine
 10
74.20750000000007
 20
33.03458605930603
 30
0.0
 11
74.20750000000007
 21
65.42467736863236
 31
0.0
  0
LINE
  5
1AC
330
1A8
100
AcDbEntity
  8
치수문자_일반주서
 62
     0
370
    -2
100
AcDbLine
 10
121.7055000000001
 20
65.42467736863236
 30
0.0
 11
77.50950000000006
 21
65.42467736863236
 31
0.0
  0
SOLID
  5
1AD
330
1A8
100
AcDbEntity
  8
치수문자_일반주서
 62
     0
100
AcDbTrace
 10
121.7055000000001
 20
64.87434403529903
 30
0.0
 11
121.7055000000001
 21
65.97501070196569
 31
0.0
 12
125.0075000000001
 22
65.42467736863236
 32
0.0
 13
125.0075000000001
 23
65.42467736863236
 33
0.0
  0
SOLID
  5
1AE
330
1A8
100
AcDbEntity
  8
치수문자_일반주서
 62
     0
100
AcDbTrace
 10
77.50950000000006
 20
65.97501070196569
 30
0.0
 11
77.50950000000006
 21
64.87434403529903
 31
0.0
 12
74.20750000000007
 22
65.42467736863236
 32
0.0
 13
74.20750000000007
 23
65.42467736863236
 33
0.0
  0
MTEXT
  5
1AF
330
1A8
100
AcDbEntity
  8
치수문자_일반주서
 62
     0
100
AcDbMText
 10
95.77104180425007
 20
69.79967736863236
 30
0.0
 40
3.5
 41
0.0
 71
     2
 72
     1
  1
\A1;50.8 [2]
  7
SLDTEXTSTYLE0
 73
     1
 44
1.0
  0
POINT
  5
1B0
330
1A8
100
AcDbEntity
  8
Defpoints
 62
     0
100
AcDbPoint
 10
125.0075000000001
 20
33.59149987299992
 30
0.0
  0
POINT
  5
1B1
330
1A8
100
AcDbEntity
  8
Defpoints
 62
     0
100
AcDbPoint
 10
74.20750000000007
 20
32.97208605930603
 30
0.0
  0
POINT
  5
1B2
330
1A8
100
AcDbEntity
  8
Defpoints
 62
     0
100
AcDbPoint
 10
74.20750000000007
 20
65.42467736863236
 30
0.0
  0
ENDBLK
  5
1B3
330
1A8
100
AcDbEntity
  8
0
100
AcDbBlockEnd
  0
BLOCK
  5
1B6
330
1B5
100
AcDbEntity
  8
0
100
AcDbBlockBegin
  2
*D10
 70
     1
 10
0.0
 20
0.0
 30
0.0
  3
*D10
  1
*D10
  0
LINE
  5
1B7
330
1B5
100
AcDbEntity
  8
치수문자_일반주서
 62
     0
370
    -2
100
AcDbLine
 10
125.0075000000001
 20
33.65399987299992
 30
0.0
 11
125.0075000000001
 21
82.42467728863237
 31
0.0
  0
LINE
  5
1B8
330
1B5
100
AcDbEntity
  8
치수문자_일반주서
 62
     0
370
    -2
100
AcDbLine
 10
17.05750000000004
 20
27.78024993650013
 30
0.0
 11
17.05750000000004
 21
82.42467728863237
 31
0.0
  0
LINE
  5
1B9
330
1B5
100
AcDbEntity
  8
치수문자_일반주서
 62
     0
370
    -2
100
AcDbLine
 10
121.7055000000001
 20
82.42467728863237
 30
0.0
 11
20.35950000000004
 21
82.42467728863237
 31
0.0
  0
SOLID
  5
1BA
330
1B5
100
AcDbEntity
  8
치수문자_일반주서
 62
     0
100
AcDbTrace
 10
121.7055000000001
 20
81.87434395529904
 30
0.0
 11
121.7055000000001
 21
82.9750106219657
 31
0.0
 12
125.0075000000001
 22
82.42467728863237
 32
0.0
 13
125.0075000000001
 23
82.42467728863237
 33
0.0
  0
SOLID
  5
1BB
330
1B5
100
AcDbEntity
  8
치수문자_일반주서
 62
     0
100
AcDbTrace
 10
20.35950000000004
 20
82.9750106219657
 30
0.0
 11
20.35950000000004
 21
81.87434395529904
 31
0.0
 12
17.05750000000004
 22
82.42467728863237
 32
0.0
 13
17.05750000000004
 23
82.42467728863237
 33
0.0
  0
MTEXT
  5
1BC
330
1B5
100
AcDbEntity
  8
치수문자_일반주서
 62
     0
100
AcDbMText
 10
55.2897919947501
 20
86.79967728863237
 30
0.0
 40
3.5
 41
0.0
 71
     2
 72
     1
  1
\A1;107.95 [4 1/4]
  7
SLDTEXTSTYLE0
 73
     1
 44
1.0
  0
POINT
  5
1BD
330
1B5
100
AcDbEntity
  8
Defpoints
 62
     0
100
AcDbPoint
 10
125.0075000000001
 20
33.59149987299992
 30
0.0
  0
POINT
  5
1BE
330
1B5
100
AcDbEntity
  8
Defpoints
 62
     0
100
AcDbPoint
 10
17.05750000000004
 20
27.71774993650013
 30
0.0
  0
POINT
  5
1BF
330
1B5
100
AcDbEntity
  8
Defpoints
 62
     0
100
AcDbPoint
 10
17.05750000000004
 20
82.42467728863237
 30
0.0
  0
ENDBLK
  5
1C0
330
1B5
100
AcDbEntity
  8
0
100
AcDbBlockEnd
  0
BLOCK
  5
1C3
330
1C2
100
AcDbEntity
  8
0
100
AcDbBlockBegin
  2
*D11
 70
     1
 10
0.0
 20
0.0
 30
0.0
  3
*D11
  1
*D11
  0
LINE
  5
1C4
330
1C2
100
AcDbEntity
  8
치수문자_일반주서
 62
     0
370
    -2
100
AcDbLine
 10
125.0700000000001
 20
33.59149987299992
 30
0.0
 11
149.7180163519222
 21
33.59149987300001
 31
0.0
  0
LINE
  5
1C5
330
1C2
100
AcDbEntity
  8
치수문자_일반주서
 62
     0
370
    -2
100
AcDbLine
 10
125.0700000000001
 20
6.603999999999907
 30
0.0
 11
149.7180163519223
 21
6.603999999999999
 31
0.0
  0
LINE
  5
1C6
330
1C2
100
AcDbEntity
  8
치수문자_일반주서
 62
     0
370
    -2
100
AcDbLine
 10
149.7180163519222
 20
33.59149987300001
 30
0.0
 11
149.7180163519221
 21
79.84299973563999
 31
0.0
  0
LINE
  5
1C7
330
1C2
100
AcDbEntity
  8
치수문자_일반주서
 62
     0
370
    -2
100
AcDbLine
 10
149.7180163519222
 20
33.59149987300001
 30
0.0
 11
149.7180163519223
 21
6.603999999999999
 31
0.0
  0
LINE
  5
1C8
330
1C2
100
AcDbEntity
  8
치수문자_일반주서
 62
     0
370
    -2
100
AcDbLine
 10
149.7180163519222
 20
36.89349987300001
 30
0.0
 11
149.7180163519222
 21
40.19549987300001
 31
0.0
  0
LINE
  5
1C9
330
1C2
100
AcDbEntity
  8
치수문자_일반주서
 62
     0
370
    -2
100
AcDbLine
 10
149.7180163519223
 20
3.302
 30
0.0
 11
149.7180163519223
 21
0.0
 31
0.0
  0
SOLID
  5
1CA
330
1C2
100
AcDbEntity
  8
치수문자_일반주서
 62
     0
100
AcDbTrace
 10
149.1676830185889
 20
36.89349987300001
 30
0.0
 11
150.2683496852556
 21
36.89349987300001
 31
0.0
 12
149.7180163519222
 22
33.59149987300001
 32
0.0
 13
149.7180163519222
 23
33.59149987300001
 33
0.0
  0
SOLID
  5
1CB
330
1C2
100
AcDbEntity
  8
치수문자_일반주서
 62
     0
100
AcDbTrace
 10
150.2683496852557
 20
3.302000000000001
 30
0.0
 11
149.167683018589
 21
3.301999999999998
 31
0.0
 12
149.7180163519223
 22
6.603999999999999
 32
0.0
 13
149.7180163519223
 23
6.603999999999999
 33
0.0
  0
MTEXT
  5
1CC
330
1C2
100
AcDbEntity
  8
치수문자_일반주서
 62
     0
100
AcDbMText
 10
145.3430163519222
 20
62.78049973563998
 30
0.0
 40
3.5
 41
0.0
 71
     2
 72
     1
  1
\A1;%%c26.99 [1 1/16]
  7
SLDTEXTSTYLE0
 11
-3.159430428622868E-15
 21
1.0
 31
0.0
 73
     1
 44
1.0
  0
POINT
  5
1CD
330
1C2
100
AcDbEntity
  8
Defpoints
 62
     0
100
AcDbPoint
 10
125.0075000000001
 20
33.59149987299992
 30
0.0
  0
POINT
  5
1CE
330
1C2
100
AcDbEntity
  8
Defpoints
 62
     0
100
AcDbPoint
 10
125.0075000000001
 20
6.603999999999907
 30
0.0
  0
POINT
  5
1CF
330
1C2
100
AcDbEntity
  8
Defpoints
 62
     0
100
AcDbPoint
 10
149.7180163519224
 20
6.603999999999999
 30
0.0
  0
ENDBLK
  5
1D0
330
1C2
100
AcDbEntity
  8
0
100
AcDbBlockEnd
  0
BLOCK
  5
226
330
225
100
AcDbEntity
  8
0
100
AcDbBlockBegin
  2
*D12
 70
     1
 10
0.0
 20
0.0
 30
0.0
  3
*D12
  1
*D12
  0
LINE
  5
228
330
225
100
AcDbEntity
  8
치수문자_일반주서
 62
     0
370
    -2
100
AcDbLine
 10
-53.30749999999998
 20
9.525000000000006
 30
0.0
 11
-67.83250000000001
 21
9.524999999999954
 31
0.0
  0
LINE
  5
229
330
225
100
AcDbEntity
  8
치수문자_일반주서
 62
     0
370
    -2
100
AcDbLine
 10
-53.30749999999998
 20
-9.525000000000006
 30
0.0
 11
-67.83249999999994
 21
-9.525000000000057
 31
0.0
  0
LINE
  5
22A
330
225
100
AcDbEntity
  8
치수문자_일반주서
 62
     0
370
    -2
100
AcDbLine
 10
-67.8325
 20
6.222999999999955
 30
0.0
 11
-67.83249999999995
 21
-6.223000000000058
 31
0.0
  0
SOLID
  5
22B
330
225
100
AcDbEntity
  8
치수문자_일반주서
 62
     0
100
AcDbTrace
 10
-67.28216666666667
 20
6.222999999999956
 30
0.0
 11
-68.38283333333332
 21
6.222999999999953
 31
0.0
 12
-67.83250000000001
 22
9.524999999999954
 32
0.0
 13
-67.83250000000001
 23
9.524999999999954
 33
0.0
  0
SOLID
  5
22C
330
225
100
AcDbEntity
  8
치수문자_일반주서
 62
     0
100
AcDbTrace
 10
-68.38283333333328
 20
-6.223000000000059
 30
0.0
 11
-67.28216666666663
 21
-6.223000000000056
 31
0.0
 12
-67.83249999999994
 22
-9.525000000000057
 32
0.0
 13
-67.83249999999994
 23
-9.525000000000057
 33
0.0
  0
MTEXT
  5
22D
330
225
100
AcDbEntity
  8
치수문자_일반주서
 62
     0
100
AcDbMText
 10
-72.20749999999998
 20
-0.0000000000000092
 30
0.0
 40
3.5
 41
0.0
 71
     2
 72
     1
  1
\A1;%%c19.05 [3/4]
  7
SLDTEXTSTYLE0
 11
-3.729883127349604E-15
 21
1.0
 31
0.0
 73
     1
 44
1.0
  0
POINT
  5
22E
330
225
100
AcDbEntity
  8
Defpoints
 62
     0
100
AcDbPoint
 10
-53.24499999999998
 20
9.525000000000006
 30
0.0
  0
POINT
  5
22F
330
225
100
AcDbEntity
  8
Defpoints
 62
     0
100
AcDbPoint
 10
-53.24499999999998
 20
-9.525000000000006
 30
0.0
  0
POINT
  5
230
330
225
100
AcDbEntity
  8
Defpoints
 62
     0
100
AcDbPoint
 10
-67.83249999999994
 20
-9.52500000000006
 30
0.0
  0
ENDBLK
  5
227
330
225
100
AcDbEntity
  8
0
100
AcDbBlockEnd
  0
BLOCK
  5
232
330
231
100
AcDbEntity
  8
0
100
AcDbBlockBegin
  2
*D13
 70
     1
 10
0.0
 20
0.0
 30
0.0
  3
*D13
  1
*D13
  0
LINE
  5
234
330
231
100
AcDbEntity
  8
치수문자_일반주서
 62
     0
370
    -2
100
AcDbLine
 10
52.80000000000007
 20
14.34999992720824
 30
0.0
 11
52.80000000000007
 21
47.99321726241716
 31
0.0
  0
LINE
  5
235
330
231
100
AcDbEntity
  8
치수문자_일반주서
 62
     0
370
    -2
100
AcDbLine
 10
2.000000000000057
 20
13.76195645877156
 30
0.0
 11
2.000000000000057
 21
47.99321726241716
 31
0.0
  0
LINE
  5
236
330
231
100
AcDbEntity
  8
치수문자_일반주서
 62
     0
370
    -2
100
AcDbLine
 10
49.49800000000007
 20
47.99321726241716
 30
0.0
 11
5.302000000000056
 21
47.99321726241716
 31
0.0
  0
SOLID
  5
237
330
231
100
AcDbEntity
  8
치수문자_일반주서
 62
     0
100
AcDbTrace
 10
49.49800000000007
 20
47.44288392908383
 30
0.0
 11
49.49800000000007
 21
48.5435505957505
 31
0.0
 12
52.80000000000007
 22
47.99321726241716
 32
0.0
 13
52.80000000000007
 23
47.99321726241716
 33
0.0
  0
SOLID
  5
238
330
231
100
AcDbEntity
  8
치수문자_일반주서
 62
     0
100
AcDbTrace
 10
5.302000000000056
 20
48.5435505957505
 30
0.0
 11
5.302000000000056
 21
47.44288392908383
 31
0.0
 12
2.000000000000057
 22
47.99321726241716
 32
0.0
 13
2.000000000000057
 23
47.99321726241716
 33
0.0
  0
MTEXT
  5
239
330
231
100
AcDbEntity
  8
치수문자_일반주서
 62
     0
100
AcDbMText
 10
21.84375015771508
 20
52.36821726241716
 30
0.0
 40
3.5
 41
0.0
 71
     2
 72
     1
  1
\A1;50.8 [2]
  7
SLDTEXTSTYLE0
 73
     1
 44
1.0
  0
POINT
  5
23A
330
231
100
AcDbEntity
  8
Defpoints
 62
     0
100
AcDbPoint
 10
52.80000000000007
 20
14.28749992720824
 30
0.0
  0
POINT
  5
23B
330
231
100
AcDbEntity
  8
Defpoints
 62
     0
100
AcDbPoint
 10
2.000000000000057
 20
13.69945645877156
 30
0.0
  0
POINT
  5
23C
330
231
100
AcDbEntity
  8
Defpoints
 62
     0
100
AcDbPoint
 10
2.000000000000057
 20
47.99321726241716
 30
0.0
  0
ENDBLK
  5
233
330
231
100
AcDbEntity
  8
0
100
AcDbBlockEnd
  0
BLOCK
  5
23E
330
23D
100
AcDbEntity
  8
0
100
AcDbBlockBegin
  2
*D14
 70
     1
 10
0.0
 20
0.0
 30
0.0
  3
*D14
  1
*D14
  0
LINE
  5
240
330
23D
100
AcDbEntity
  8
치수문자_일반주서
 62
     0
370
    -2
100
AcDbLine
 10
52.80000000000007
 20
14.34999992720824
 30
0.0
 11
52.80000000000007
 21
65.99321717071129
 31
0.0
  0
LINE
  5
241
330
23D
100
AcDbEntity
  8
치수문자_일반주서
 62
     0
370
    -2
100
AcDbLine
 10
-55.14999999999998
 20
7.682500000000005
 30
0.0
 11
-55.14999999999998
 21
65.99321717071129
 31
0.0
  0
LINE
  5
242
330
23D
100
AcDbEntity
  8
치수문자_일반주서
 62
     0
370
    -2
100
AcDbLine
 10
49.49800000000007
 20
65.99321717071129
 30
0.0
 11
-51.84799999999998
 21
65.99321717071129
 31
0.0
  0
SOLID
  5
243
330
23D
100
AcDbEntity
  8
치수문자_일반주서
 62
     0
100
AcDbTrace
 10
49.49800000000007
 20
65.44288383737796
 30
0.0
 11
49.49800000000007
 21
66.54355050404462
 31
0.0
 12
52.80000000000007
 22
65.99321717071129
 32
0.0
 13
52.80000000000007
 23
65.99321717071129
 33
0.0
  0
SOLID
  5
244
330
23D
100
AcDbEntity
  8
치수문자_일반주서
 62
     0
100
AcDbTrace
 10
-51.84799999999998
 20
66.54355050404462
 30
0.0
 11
-51.84799999999998
 21
65.44288383737796
 31
0.0
 12
-55.14999999999998
 22
65.99321717071129
 32
0.0
 13
-55.14999999999998
 23
65.99321717071129
 33
0.0
  0
MTEXT
  5
245
330
23D
100
AcDbEntity
  8
치수문자_일반주서
 62
     0
100
AcDbMText
 10
-2.914088372552385
 20
70.36821717071129
 30
0.0
 40
3.5
 41
0.0
 71
     2
 72
     1
  1
\A1;107.95 [4 1/4]
  7
SLDTEXTSTYLE0
 73
     1
 44
1.0
  0
POINT
  5
246
330
23D
100
AcDbEntity
  8
Defpoints
 62
     0
100
AcDbPoint
 10
52.80000000000007
 20
14.28749992720824
 30
0.0
  0
POINT
  5
247
330
23D
100
AcDbEntity
  8
Defpoints
 62
     0
100
AcDbPoint
 10
-55.14999999999998
 20
7.620000000000005
 30
0.0
  0
POINT
  5
248
330
23D
100
AcDbEntity
  8
Defpoints
 62
     0
100
AcDbPoint
 10
-55.14999999999998
 20
65.99321717071129
 30
0.0
  0
ENDBLK
  5
23F
330
23D
100
AcDbEntity
  8
0
100
AcDbBlockEnd
  0
BLOCK
  5
24A
330
249
100
AcDbEntity
  8
0
100
AcDbBlockBegin
  2
*D15
 70
     1
 10
0.0
 20
0.0
 30
0.0
  3
*D15
  1
*D15
  0
LINE
  5
24C
330
249
100
AcDbEntity
  8
치수문자_일반주서
 62
     0
370
    -2
100
AcDbLine
 10
52.86250000000007
 20
14.28749992720824
 30
0.0
 11
78.96407612715453
 21
14.28749992720834
 31
0.0
  0
LINE
  5
24D
330
249
100
AcDbEntity
  8
치수문자_일반주서
 62
     0
370
    -2
100
AcDbLine
 10
52.86250000000007
 20
-14.28749992720869
 30
0.0
 11
78.96407612715463
 21
-14.28749992720859
 31
0.0
  0
LINE
  5
24E
330
249
100
AcDbEntity
  8
치수문자_일반주서
 62
     0
370
    -2
100
AcDbLine
 10
78.96407612715453
 20
14.28749992720834
 30
0.0
 11
78.96407612715436
 21
61.38099976974932
 31
0.0
  0
LINE
  5
24F
330
249
100
AcDbEntity
  8
치수문자_일반주서
 62
     0
370
    -2
100
AcDbLine
 10
78.96407612715453
 20
14.28749992720834
 30
0.0
 11
78.96407612715463
 21
-14.28749992720859
 31
0.0
  0
LINE
  5
250
330
249
100
AcDbEntity
  8
치수문자_일반주서
 62
     0
370
    -2
100
AcDbLine
 10
78.96407612715451
 20
17.58949992720834
 30
0.0
 11
78.9640761271545
 21
20.89149992720834
 31
0.0
  0
LINE
  5
251
330
249
100
AcDbEntity
  8
치수문자_일반주서
 62
     0
370
    -2
100
AcDbLine
 10
78.96407612715464
 20
-17.58949992720859
 30
0.0
 11
78.96407612715466
 21
-20.89149992720859
 31
0.0
  0
SOLID
  5
252
330
249
100
AcDbEntity
  8
치수문자_일반주서
 62
     0
100
AcDbTrace
 10
78.41374279382119
 20
17.58949992720833
 30
0.0
 11
79.51440946048784
 21
17.58949992720834
 31
0.0
 12
78.96407612715453
 22
14.28749992720834
 32
0.0
 13
78.96407612715453
 23
14.28749992720834
 33
0.0
  0
SOLID
  5
253
330
249
100
AcDbEntity
  8
치수문자_일반주서
 62
     0
100
AcDbTrace
 10
79.51440946048797
 20
-17.58949992720858
 30
0.0
 11
78.41374279382131
 21
-17.58949992720859
 31
0.0
 12
78.96407612715463
 22
-14.28749992720859
 32
0.0
 13
78.96407612715463
 23
-14.28749992720859
 33
0.0
  0
MTEXT
  5
254
330
249
100
AcDbEntity
  8
치수문자_일반주서
 62
     0
100
AcDbMText
 10
74.58907612715441
 20
45.1934997697493
 30
0.0
 40
3.5
 41
0.0
 71
     2
 72
     1
  1
\A1;%%c28.57 [1 1/8]
  7
SLDTEXTSTYLE0
 11
-3.481224269929006E-15
 21
1.0
 31
0.0
 73
     1
 44
1.0
  0
POINT
  5
255
330
249
100
AcDbEntity
  8
Defpoints
 62
     0
100
AcDbPoint
 10
52.80000000000007
 20
14.28749992720824
 30
0.0
  0
POINT
  5
256
330
249
100
AcDbEntity
  8
Defpoints
 62
     0
100
AcDbPoint
 10
52.80000000000007
 20
-14.28749992720869
 30
0.0
  0
POINT
  5
257
330
249
100
AcDbEntity
  8
Defpoints
 62
     0
100
AcDbPoint
 10
78.96407612715464
 20
-14.28749992720859
 30
0.0
  0
ENDBLK
  5
24B
330
249
100
AcDbEntity
  8
0
100
AcDbBlockEnd
  0
ENDSEC
  0
SECTION
  2
ENTITIES
  0
LINE
  5
BD
330
1F
100
AcDbEntity
  8
참조1
100
AcDbLine
 10
18.41194598552359
 20
0.0010749287238892
 30
0.0
 11
18.4119459855236
 21
-39.99892507127611
 31
0.0
  0
LINE
  5
BE
330
1F
100
AcDbEntity
  8
참조1
100
AcDbLine
 10
18.4119459855236
 20
-39.99892507127611
 30
0.0
 11
3.253089171214916
 21
-39.9989250712761
 31
0.0
  0
INSERT
  5
C0
330
1F
100
AcDbEntity
  8
0
  6
Continuous
 62
     7
100
AcDbBlockReference
 66
     1
  2
블럭10
 10
-12.70856645893075
 20
-52.04609937292004
 30
0.0
  0
ATTRIB
  5
C1
330
C0
100
AcDbEntity
  8
FORMAT
 62
     2
100
AcDbText
 10
-21.88986174767203
 20
-49.97073246008785
 30
0.0
 40
4.233333333333333
  1
E2032901 [ 6 FLUTE ]
 41
0.75
  7
SLDTEXTSTYLE0
 11
-21.88986174767203
 21
-52.08739912675452
 31
0.0
100
AcDbAttribute
  2
AUTOATTR0
 70
     0
 74
     1
  0
SEQEND
  5
C2
330
C0
100
AcDbEntity
  8
0
  6
Continuous
 62
     7
  0
HATCH
  5
C3
330
1F
100
AcDbEntity
  8
중심선
100
AcDbHatch
 10
0.0
 20
0.0
 30
0.0
210
0.0
220
0.0
230
1.0
  2
SOLID
 70
     1
 71
     0
 91
        1
 92
        0
 93
        4
 72
     1
 10
-6.993657154549915
 20
-35.7989250712761
 11
-10.4399323983872
 21
-35.7989250712761
 72
     1
 10
-10.4399323983872
 20
-35.7989250712761
 11
-12.56816225759122
 21
-38.3352506518487
 72
     1
 10
-12.56816225759122
 20
-38.3352506518487
 11
-9.121853928640789
 21
-38.33521122254621
 72
     1
 10
-9.121853928640789
 20
-38.33521122254621
 11
-6.993657154549915
 21
-35.7989250712761
 97
        0
 75
     0
 76
     1
 98
        1
 10
-17.18023951232914
 20
0.0
  0
HATCH
  5
C4
330
1F
100
AcDbEntity
  8
중심선
100
AcDbHatch
 10
0.0
 20
0.0
 30
0.0
210
0.0
220
0.0
230
1.0
  2
SOLID
 70
     1
 71
     0
 91
        1
 92
        0
 93
        4
 72
     1
 10
-1.980893163513937
 20
-35.7989250712761
 11
-5.427168407351218
 21
-35.7989250712761
 72
     1
 10
-5.427168407351218
 20
-35.7989250712761
 11
-9.958306415708634
 21
-41.19892507127612
 72
     1
 10
-9.958306415708634
 20
-41.19892507127612
 11
-6.512031171871353
 21
-41.19892507127612
 72
     1
 10
-6.512031171871353
 20
-41.19892507127612
 11
-1.980893163513937
 21
-35.7989250712761
 97
        0
 75
     0
 76
     1
 98
        1
 10
-17.18023951232914
 20
0.0
  0
HATCH
  5
C5
330
1F
100
AcDbEntity
  8
중심선
100
AcDbHatch
 10
0.0
 20
0.0
 30
0.0
210
0.0
220
0.0
230
1.0
  2
SOLID
 70
     1
 71
     0
 91
        1
 92
        0
 93
        4
 72
     1
 10
3.031870827521931
 20
-35.7989250712761
 11
-0.4144044163151825
 21
-35.7989250712761
 72
     1
 10
-0.4144044163151825
 20
-35.7989250712761
 11
-7.462841318204433
 21
-44.19892507127612
 72
     1
 10
-7.462841318204433
 20
-44.19892507127612
 11
-4.016566074367152
 21
-44.19892507127612
 72
     1
 10
-4.016566074367152
 20
-44.19892507127612
 11
3.031870827521931
 21
-35.7989250712761
 97
        0
 75
     0
 76
     1
 98
        1
 10
-17.18023951232914
 20
0.0
  0
HATCH
  5
C6
330
1F
100
AcDbEntity
  8
중심선
100
AcDbHatch
 10
0.0
 20
0.0
 30
0.0
210
0.0
220
0.0
230
1.0
  2
SOLID
 70
     1
 71
     0
 91
        1
 92
        0
 93
        6
 72
     3
 10
7.831761258534129
 20
-39.99892507132738
 11
3.960054785062283
 21
1.540882976769353E-10
 40
0.3939339440162628
 50
17.09539180608437
 51
320.0019657685075
 73
     0
 72
     1
 10
9.514760914234728
 20
-38.58681907591438
 11
11.82006278793576
 21
-36.65249236586649
 72
     3
 10
7.831761258481283
 20
-39.99892507127625
 11
6.600054785286829
 21
-1.278976924368180E-13
 40
0.636358354079598
 50
39.99873849337408
 51
368.4976242363725
 73
     1
 72
     1
 10
14.25709375038189
 20
-39.03892507120613
 11
6.511828565317206
 21
-39.0389250712061
 72
     1
 10
6.511828565317206
 20
-39.0389250712061
 11
6.511803520871272
 21
-40.95892507120602
 72
     1
 10
6.511803520871272
 20
-40.95892507120602
 11
10.95318329034331
 21
-40.95892507120599
 97
        0
 75
     0
 76
     1
 98
        1
 10
-17.18023951232914
 20
0.0
  0
LINE
  5
117
330
1F
100
AcDbEntity
  8
참조1
100
AcDbLine
 10
101.2254298008692
 20
7.441074928723896
 30
0.0
 11
101.2254298008692
 21
-7.438925071276109
 31
0.0
  0
LINE
  5
118
330
1F
100
AcDbEntity
  8
참조1
100
AcDbLine
 10
113.9254298008692
 20
5.441074928723896
 30
0.0
 11
101.2254298008692
 21
5.441074928723896
 31
0.0
  0
SOLID
  5
119
330
1F
100
AcDbEntity
  8
참조1
100
AcDbTrace
 10
101.2254298008692
 20
5.441074928723896
 30
0.0
 11
107.5754298008692
 21
4.425074928723896
 31
0.0
 12
107.5754298008692
 22
6.457074928723896
 32
0.0
 13
107.5754298008692
 23
6.457074928723896
 33
0.0
  0
LINE
  5
11A
330
1F
100
AcDbEntity
  8
참조1
100
AcDbLine
 10
113.9254298008692
 20
-5.438925071276109
 30
0.0
 11
101.2254298008692
 21
-5.438925071276109
 31
0.0
  0
SOLID
  5
11B
330
1F
100
AcDbEntity
  8
참조1
100
AcDbTrace
 10
101.2254298008692
 20
-5.438925071276109
 30
0.0
 11
107.5754298008692
 21
-6.454925071276109
 31
0.0
 12
107.5754298008692
 22
-4.422925071276109
 32
0.0
 13
107.5754298008692
 23
-4.422925071276109
 33
0.0
  0
MTEXT
  5
11C
330
1F
100
AcDbEntity
  8
참조1
100
AcDbMText
 10
110.6229198933395
 20
10.98929157337383
 30
0.0
 40
3.5
 41
0.0
 71
     1
 72
     1
  1
A
  7
SLDTEXTSTYLE0
 73
     1
 44
1.0
  0
MTEXT
  5
11D
330
1F
100
AcDbEntity
  8
참조1
100
AcDbMText
 10
110.6229198933395
 20
0.1092915733738259
 30
0.0
 40
3.5
 41
0.0
 71
     1
 72
     1
  1
A
  7
SLDTEXTSTYLE0
 73
     1
 44
1.0
  0
LINE
  5
1EB
330
1F
100
AcDbEntity
  8
0
  6
Continuous
 62
     1
370
    15
100
AcDbLine
 10
24.6042231967765
 20
14.28749992720824
 30
0.0
 11
21.1481313727854
 21
14.28749992720824
 31
0.0
  0
LINE
  5
1EC
330
1F
100
AcDbEntity
  8
0
  6
Continuous
 62
     1
370
    15
100
AcDbLine
 10
21.14813137278529
 20
-14.28749992720869
 30
0.0
 11
24.60422319677639
 21
-14.28749992720869
 31
0.0
  0
LINE
  5
1ED
330
1F
100
AcDbEntity
  8
0
  6
Continuous
 62
     1
370
    15
100
AcDbLine
 10
51.07155368738347
 20
-14.28749992720869
 30
0.0
 11
52.80000000000007
 21
-14.28749992720869
 31
0.0
  0
LINE
  5
1EE
330
1F
100
AcDbEntity
  8
0
  6
Continuous
 62
     1
370
    15
100
AcDbLine
 10
9.642390589604105
 20
14.28749992720824
 30
0.0
 11
6.186929614714131
 21
14.28749992720824
 31
0.0
  0
LINE
  5
1EF
330
1F
100
AcDbEntity
  8
0
  6
Continuous
 62
     1
370
    15
100
AcDbLine
 10
36.11060325866657
 20
-14.28749992720869
 30
0.0
 11
39.5658985158955
 21
-14.28749992720869
 31
0.0
  0
LINE
  5
1F0
330
1F
100
AcDbEntity
  8
0
  6
Continuous
 62
     1
370
    15
100
AcDbLine
 10
6.186929614714074
 20
-14.28749992720869
 30
0.0
 11
9.642390589603963
 21
-14.28749992720869
 31
0.0
  0
LINE
  5
1F1
330
1F
100
AcDbEntity
  8
0
  6
Continuous
 62
     1
370
    15
100
AcDbLine
 10
52.80000000000007
 20
14.28749992720824
 30
0.0
 11
51.07155368738347
 21
14.28749992720824
 31
0.0
  0
LINE
  5
1F2
330
1F
100
AcDbEntity
  8
0
  6
Continuous
 62
     1
370
    15
100
AcDbLine
 10
39.5658985158955
 20
14.28749992720824
 30
0.0
 11
36.11060325866669
 21
14.28749992720824
 31
0.0
  0
LINE
  5
1F3
330
1F
100
AcDbEntity
  8
외형선
  6
Continuous
370
    15
100
AcDbLine
 10
-53.24499999999995
 20
-9.524999999999999
 30
0.0
 11
2.000000000000057
 21
-9.524999999999999
 31
0.0
  0
LINE
  5
1F4
330
1F
100
AcDbEntity
  8
외형선
  6
Continuous
370
    15
100
AcDbLine
 10
-53.24499999999995
 20
9.524999999999999
 30
0.0
 11
-55.14999999999998
 21
7.620000000000005
 31
0.0
  0
LINE
  5
1F5
330
1F
100
AcDbEntity
  8
외형선
  6
Continuous
370
    15
100
AcDbLine
 10
-55.14999999999998
 20
-7.620000000000005
 30
0.0
 11
-53.24499999999995
 21
-9.524999999999999
 31
0.0
  0
SPLINE
  5
1F6
330
1F
100
AcDbEntity
  8
0
  6
Continuous
 62
     1
370
    15
100
AcDbSpline
210
0.0
220
0.0
230
1.0
 70
     8
 71
     3
 72
    30
 73
    26
 74
     0
 42
0.000000001
 43
0.00000001
 40
0.0
 40
0.0
 40
0.0
 40
0.0
 40
0.010621130384621
 40
0.0553103356962516
 40
0.1000235952205715
 40
0.144793012593145
 40
0.189495537381884
 40
0.2341892878839403
 40
0.2789501686486359
 40
0.323679292547674
 40
0.3683668399039782
 40
0.4130937058042314
 40
0.457856199732353
 40
0.5025508683821793
 40
0.5472520483610601
 40
0.5920208772638855
 40
0.636735970336883
 40
0.6814247480487925
 40
0.7261680831555413
 40
0.7709167358010489
 40
0.8156064320028231
 40
0.8603179209270223
 40
0.9050877750001022
 40
0.952320681780472
 40
0.9690785287373521
 40
0.9690785287373521
 40
0.9690785287373521
 40
0.9690785287373521
 10
51.07155368738347
 20
-14.25502355307091
 30
0.0
 10
50.89221889084581
 20
-14.26488448506092
 30
0.0
 10
49.95831944329962
 20
-14.31623603041385
 30
0.0
 10
48.271295416463
 20
-14.05404056186539
 30
0.0
 10
46.00704872931831
 20
-13.45922481755076
 30
0.0
 10
43.73998590178596
 20
-12.49871093192595
 30
0.0
 10
41.47636160959274
 20
-11.23151009547769
 30
0.0
 10
39.21319338760324
 20
-9.680162999675392
 30
0.0
 10
36.94655522644936
 20
-7.888630080895617
 30
0.0
 10
34.6815945479905
 20
-5.898105247646527
 30
0.0
 10
32.4187570839261
 20
-3.758775752986882
 30
0.0
 10
30.15391310506394
 20
-1.525991872881098
 30
0.0
 10
27.88719001923079
 20
0.7434079118948294
 30
0.0
 10
25.62397250891962
 20
2.996789461953377
 30
0.0
 10
23.36042280931582
 20
5.174826047883258
 30
0.0
 10
21.09336576952933
 20
7.22058485795057
 30
0.0
 10
18.82912055058924
 20
9.087491082488818
 30
0.0
 10
16.56621499296935
 20
10.72670617624569
 30
0.0
 10
14.30050929021607
 20
12.09588956643353
 30
0.0
 10
12.03451803998604
 20
13.16170702037285
 30
0.0
 10
9.77157135957765
 20
13.89907244953485
 30
0.0
 10
7.507470866168745
 20
14.2846131215183
 30
0.0
 10
5.197763372584035
 20
14.32355098597534
 30
0.0
 10
3.36240077235243
 20
14.02164610007014
 30
0.0
 10
2.282751075320647
 20
13.77453861759821
 30
0.0
 10
2.000000000000057
 20
13.69945645877156
 30
0.0
  0
LINE
  5
1F7
330
1F
100
AcDbEntity
  8
0
  6
Continuous
 62
     1
370
    15
100
AcDbLine
 10
52.80000000000007
 20
-14.18323762378558
 30
0.0
 11
52.80000000000007
 21
-8.566408975556794
 31
0.0
  0
SPLINE
  5
1F8
330
1F
100
AcDbEntity
  8
0
  6
Continuous
 62
     1
370
    15
100
AcDbSpline
210
0.0
220
0.0
230
1.0
 70
     8
 71
     3
 72
    27
 73
    23
 74
     0
 42
0.000000001
 43
0.00000001
 40
0.0
 40
0.0
 40
0.0
 40
0.0
 40
0.0029990537496655
 40
0.0554340628778992
 40
0.1079382463780368
 40
0.1604361907399152
 40
0.2128701221918942
 40
0.2653349298036183
 40
0.3178627863721936
 40
0.3703112695673505
 40
0.4227521129343723
 40
0.4752725365936945
 40
0.5277511574186876
 40
0.5801836452782315
 40
0.6326649154429382
 40
0.685183446356367
 40
0.7376232124485183
 40
0.7900732735267929
 40
0.8426018205546745
 40
0.8950644768395852
 40
0.9474989099999485
 40
0.9999999999999999
 40
0.9999999999999999
 40
0.9999999999999999
 40
0.9999999999999999
 10
9.642390589604162
 20
14.27784523994728
 30
0.0
 10
9.685529749762992
 20
14.28103437726215
 30
0.0
 10
10.48290756168643
 20
14.33998191645145
 30
0.0
 10
12.03441782520702
 20
14.12133440607818
 30
0.0
 10
14.30053615514166
 20
13.59815848797217
 30
0.0
 10
16.56620780482518
 20
12.69417623595404
 30
0.0
 10
18.82912247684777
 20
11.48183363665436
 30
0.0
 10
21.09336525253536
 20
9.978770876107028
 30
0.0
 10
23.36042294771613
 20
8.228173956792794
 30
0.0
 10
25.62397247173752
 20
6.2688990926438
 30
0.0
 10
27.88719002969313
 20
4.152203810790155
 30
0.0
 10
30.15391310045587
 20
1.933929491786088
 30
0.0
 10
32.41875709188699
 20
-0.334396862134053
 30
0.0
 10
34.68159452076375
 20
-2.595215037990029
 30
0.0
 10
36.94655532753657
 20
-4.78998047406006
 30
0.0
 10
39.21319301047041
 20
-6.863342899113498
 30
0.0
 10
41.47636301475509
 20
-8.767046875562883
 30
0.0
 10
43.73998065294535
 20
-10.45005757157019
 30
0.0
 10
46.00706834042506
 20
-11.87113873538449
 30
0.0
 10
48.2712223492839
 20
-12.98934731443144
 30
0.0
 10
50.53415134384409
 20
-13.8072438916143
 30
0.0
 10
52.04439733658342
 20
-14.05785331593045
 30
0.0
 10
52.80000000000007
 20
-14.18323762378558
 30
0.0
  0
SPLINE
  5
1F9
330
1F
100
AcDbEntity
  8
0
  6
Continuous
 62
     1
370
    15
100
AcDbSpline
210
0.0
220
0.0
230
1.0
 70
     8
 71
     3
 72
    24
 73
    20
 74
     0
 42
0.000000001
 43
0.00000001
 40
0.0
 40
0.0
 40
0.0
 40
0.0
 40
0.0605770353720136
 40
0.1210771604601533
 40
0.1816098500762692
 40
0.2422185660352196
 40
0.3027367229953863
 40
0.3632430013500115
 40
0.4238401604723424
 40
0.4843943272359753
 40
0.5448922077886856
 40
0.6054433176796805
 40
0.6660426606982873
 40
0.7265501820388764
 40
0.7870665183991001
 40
0.8476744376892998
 40
0.9082096095586483
 40
0.9687091557634441
 40
1.0
 40
1.0
 40
1.0
 40
1.0
 10
52.80000000000007
 20
-8.583704100311513
 30
0.0
 10
52.04439733658336
 20
-7.959398990285672
 30
0.0
 10
50.53415134384372
 20
-6.711581405313281
 30
0.0
 10
48.27122234928541
 20
-4.611960926587798
 30
0.0
 10
46.00706834041935
 20
-2.412437011016195
 30
0.0
 10
43.73998065296644
 20
-0.1507605673364267
 30
0.0
 10
41.47636301467654
 20
2.116370756720052
 30
0.0
 10
39.21319301076343
 20
4.330831253733351
 30
0.0
 10
36.94655532644109
 20
6.434229540434487
 30
0.0
 10
34.68159452484733
 20
8.37775496259561
 30
0.0
 10
32.41875707665719
 20
10.11190398586763
 30
0.0
 10
30.15391315737151
 20
11.5917777481388
 30
0.0
 10
27.88718981723477
 20
12.78020667163498
 30
0.0
 10
25.62397326333195
 20
13.64982838050302
 30
0.0
 10
23.36041999093308
 20
14.17555777981306
 30
0.0
 10
21.09337630036873
 20
14.35013693766366
 30
0.0
 10
18.82908131317976
 20
14.14841791550228
 30
0.0
 10
16.9312032141741
 20
13.73379824336384
 30
0.0
 10
15.78636153212329
 20
13.26356636362532
 30
0.0
 10
15.39609123720106
 20
13.1032668765743
 30
0.0
  0
SPLINE
  5
1FA
330
1F
100
AcDbEntity
  8
외형선
  6
Continuous
370
    15
100
AcDbSpline
210
0.0
220
0.0
230
1.0
 70
    24
 71
     3
 72
    13
 73
     9
 74
     0
 42
0.000000001
 43
0.00000001
 40
0.0
 40
0.0
 40
0.0
 40
0.0
 40
0.0003507726836289
 40
0.2256889105158204
 40
0.4575618696106359
 40
0.6829000074427783
 40
0.9147729665375414
 40
1.0
 40
1.0
 40
1.0
 40
1.0
 10
2.000000000000057
 20
9.52231682407525
 30
0.0
 10
2.000000000000057
 20
9.521993660962593
 30
0.0
 10
2.000000000003297
 20
9.314068887401781
 30
0.0
 10
1.999999999998522
 20
8.885561866462211
 30
0.0
 10
2.000000000000398
 20
8.244643658088908
 30
0.0
 10
1.999999999999886
 20
7.618679826625034
 30
0.0
 10
2.000000000000057
 20
7.142295342576926
 30
0.0
 10
2.000000000000057
 20
6.897092698722243
 30
0.0
 10
2.0
 20
6.831189531193424
 30
0.0
  0
LINE
  5
1FB
330
1F
100
AcDbEntity
  8
0
  6
Continuous
 62
     1
370
    15
100
AcDbLine
 10
52.80000000000007
 20
-5.599533523474085
 30
0.0
 11
52.80000000000007
 21
5.599533523473909
 31
0.0
  0
SPLINE
  5
1FC
330
1F
100
AcDbEntity
  8
0
  6
Continuous
 62
     1
370
    15
100
AcDbSpline
210
0.0
220
0.0
230
1.0
 70
     8
 71
     3
 72
    20
 73
    16
 74
     0
 42
0.000000001
 43
0.00000001
 40
0.0
 40
0.0
 40
0.0
 40
0.0
 40
0.0361778070629655
 40
0.1164454793440665
 40
0.1968349598267959
 40
0.2771604555222694
 40
0.3574153385899841
 40
0.4377448894515885
 40
0.5181314728354661
 40
0.5983974962043699
 40
0.6786792774161922
 40
0.7590811917928767
 40
0.8393822516404659
 40
0.9196401122493226
 40
1.0
 40
1.0
 40
1.0
 40
1.0
 10
24.6042231967765
 20
14.24311159867234
 30
0.0
 10
24.94418087367222
 20
14.25303984745357
 30
0.0
 10
26.03840238284002
 20
14.28499589405322
 30
0.0
 10
27.88713217608694
 20
13.95686466954305
 30
0.0
 10
30.15392859889198
 20
13.28223054590315
 30
0.0
 10
32.41875294468835
 20
12.25378513452951
 30
0.0
 10
34.68159563271755
 20
10.92295016413414
 30
0.0
 10
36.94655502922208
 20
9.317274601627794
 30
0.0
 10
39.21319309029323
 20
7.479689702486851
 30
0.0
 10
41.47636299337654
 20
5.452294566645094
 30
0.0
 10
43.73998065868383
 20
3.288402797250825
 30
0.0
 10
46.0070683388891
 20
1.044092912206301
 30
0.0
 10
48.27122234969298
 20
-1.226128912817583
 30
0.0
 10
50.53415134374171
 20
-3.476078972639273
 30
0.0
 10
52.04439733654928
 20
-4.89141565783652
 30
0.0
 10
52.80000000000007
 20
-5.599533523474085
 30
0.0
  0
SPLINE
  5
1FD
330
1F
100
AcDbEntity
  8
0
  6
Continuous
 62
     1
370
    15
100
AcDbSpline
210
0.0
220
0.0
230
1.0
 70
     8
 71
     3
 72
    17
 73
    13
 74
     0
 42
0.000000001
 43
0.00000001
 40
0.0
 40
0.0
 40
0.0
 40
0.0
 40
0.1009651853894501
 40
0.2018021825798246
 40
0.3026934558433685
 40
0.4037114440204375
 40
0.5045784953607212
 40
0.6054257483466731
 40
0.7064244744693241
 40
0.8073515442053657
 40
0.9081848003751646
 40
1.0
 40
1.0
 40
1.0
 40
1.0
 10
52.80000000000007
 20
5.599533523473909
 30
0.0
 10
52.04439733736277
 20
6.280532572250948
 30
0.0
 10
50.53415134618109
 20
7.64166605452899
 30
0.0
 10
48.2712223399478
 20
9.456129905369785
 30
0.0
 10
46.00706837547651
 20
11.04302303576749
 30
0.0
 10
43.73998052198812
 20
12.34893446573364
 30
0.0
 10
41.47636350263187
 20
13.34770502336842
 30
0.0
 10
39.21319118884296
 20
14.01071428312171
 30
0.0
 10
36.94656213533727
 20
14.32415754423926
 30
0.0
 10
34.68156914499531
 20
14.27095503283071
 30
0.0
 10
32.48692990978546
 20
13.90048441095503
 30
0.0
 10
31.04555378560676
 20
13.37933934892062
 30
0.0
 10
30.35860181378811
 20
13.13096446469526
 30
0.0
  0
SPLINE
  5
1FE
330
1F
100
AcDbEntity
  8
외형선
  6
Continuous
370
    15
100
AcDbSpline
210
0.0
220
0.0
230
1.0
 70
    24
 71
     3
 72
    24
 73
    20
 74
     0
 42
0.000000001
 43
0.00000001
 40
0.0
 40
0.0
 40
0.0
 40
0.0
 40
0.1250000000000001
 40
0.1250000000000001
 40
0.1875000000000001
 40
0.1875000000000001
 40
0.2499999999999999
 40
0.2499999999999999
 40
0.3749999999999999
 40
0.3749999999999999
 40
0.4999999999999999
 40
0.4999999999999999
 40
0.625
 40
0.625
 40
0.75
 40
0.75
 40
0.8750000000000001
 40
0.8750000000000001
 40
1.0
 40
1.0
 40
1.0
 40
1.0
 10
2.0
 20
4.956940118154666
 30
0.0
 10
2.0
 20
4.834332971294167
 30
0.0
 10
2.0
 20
4.677125952041671
 30
0.0
 10
2.000000000000057
 20
4.428347558340043
 30
0.0
 10
2.000000000000057
 20
4.34627496053346
 30
0.0
 10
2.000000000000057
 20
4.158252976469097
 30
0.0
 10
2.000000000000057
 20
4.053023630712097
 30
0.0
 10
2.000000000000057
 20
3.69807254580034
 30
0.0
 10
2.0
 20
3.408184526413038
 30
0.0
 10
2.0
 20
2.703407674048705
 30
0.0
 10
2.000000000000057
 20
2.287015632627075
 30
0.0
 10
2.0
 20
1.356408753422187
 30
0.0
 10
2.000000000000057
 20
0.8420105248779279
 30
0.0
 10
2.0
 20
-0.1746328723197905
 30
0.0
 10
2.0
 20
-0.6733745278170993
 30
0.0
 10
2.0
 20
-1.510680802263963
 30
0.0
 10
2.0
 20
-1.846105737847147
 30
0.0
 10
2.000000000000057
 20
-2.292597075749804
 30
0.0
 10
2.0
 20
-2.405268413316989
 30
0.0
 10
2.0
 20
-2.43116522133019
 30
0.0
  0
LINE
  5
1FF
330
1F
100
AcDbEntity
  8
0
  6
Continuous
 62
     1
370
    15
100
AcDbLine
 10
52.80000000000007
 20
-8.583704100311504
 30
0.0
 11
52.80000000000007
 21
-5.599533523474085
 31
0.0
  0
LINE
  5
200
330
1F
100
AcDbEntity
  8
외형선
  6
Continuous
370
    15
100
AcDbLine
 10
2.000000000000057
 20
4.956940118154662
 30
0.0
 11
2.0
 21
6.76008635813908
 31
0.0
  0
LINE
  5
201
330
1F
100
AcDbEntity
  8
0
  6
Continuous
 62
     1
370
    15
100
AcDbLine
 10
52.80000000000007
 20
-14.28749992720869
 30
0.0
 11
52.80000000000007
 21
-14.18323762378558
 31
0.0
  0
LINE
  5
202
330
1F
100
AcDbEntity
  8
0
  6
Continuous
 62
     1
370
    15
100
AcDbLine
 10
52.80000000000007
 20
14.18323762378515
 30
0.0
 11
52.80000000000007
 21
14.28749992720824
 31
0.0
  0
SPLINE
  5
203
330
1F
100
AcDbEntity
  8
0
  6
Continuous
 62
     1
370
    15
100
AcDbSpline
210
0.0
220
0.0
230
1.0
 70
     8
 71
     3
 72
    11
 73
     7
 74
     0
 42
0.000000001
 43
0.00000001
 40
0.0
 40
0.0
 40
0.0
 40
0.0
 40
0.3028575261632664
 40
0.605330536013255
 40
0.9079663536388797
 40
1.0
 40
1.0
 40
1.0
 40
1.0
 10
52.80000000000007
 20
14.18323762378515
 30
0.0
 10
52.04439833603695
 20
14.24118371455239
 30
0.0
 10
50.53415434093566
 20
14.35700232612321
 30
0.0
 10
48.27121037598903
 20
14.05309024841253
 30
0.0
 10
46.5331251017455
 20
13.63753988838951
 30
0.0
 10
45.54830886395561
 20
13.20940732654287
 30
0.0
 10
45.3186578835026
 20
13.10957036324033
 30
0.0
  0
LINE
  5
204
330
1F
100
AcDbEntity
  8
외형선
  6
Continuous
370
    15
100
AcDbLine
 10
2.000000000000057
 20
-4.565376705920606
 30
0.0
 11
2.0
 21
-2.431165221330211
 31
0.0
  0
SPLINE
  5
205
330
1F
100
AcDbEntity
  8
0
  6
Continuous
 62
     1
370
    15
100
AcDbSpline
210
0.0
220
0.0
230
1.0
 70
     8
 71
     3
 72
    13
 73
     9
 74
     0
 42
0.000000001
 43
0.00000001
 40
0.0
 40
0.0
 40
0.0
 40
0.0
 40
0.14439379469308
 40
0.3154325445233918
 40
0.4867272356895962
 40
0.6578070582727822
 40
0.828794845730752
 40
1.0
 40
1.0
 40
1.0
 40
1.0
 10
39.5658985158955
 20
14.26396083219111
 30
0.0
 10
40.20270931954971
 20
14.24884089431761
 30
0.0
 10
41.59384148422174
 20
14.21581093976443
 30
0.0
 10
43.73994245991315
 20
13.73231231778713
 30
0.0
 10
46.00707856302191
 20
12.91687721076154
 30
0.0
 10
48.27121962645501
 20
11.76278009938646
 30
0.0
 10
50.53415202540819
 20
10.33127463245672
 30
0.0
 10
52.04439756386759
 20
9.166474244738069
 30
0.0
 10
52.80000000000007
 20
8.583704100311131
 30
0.0
  0
LINE
  5
206
330
1F
100
AcDbEntity
  8
0
  6
Continuous
 62
     1
370
    15
100
AcDbLine
 10
52.80000000000007
 20
5.599533523473909
 30
0.0
 11
52.80000000000007
 21
8.583704100311131
 31
0.0
  0
LINE
  5
207
330
1F
100
AcDbEntity
  8
외형선
  6
Continuous
370
    15
100
AcDbLine
 10
2.000000000000057
 20
-9.522316824075247
 30
0.0
 11
2.0
 21
-9.19125157946928
 31
0.0
  0
LINE
  5
208
330
1F
100
AcDbEntity
  8
0
  6
Continuous
 62
     1
370
    15
100
AcDbLine
 10
52.80000000000007
 20
8.564965837376754
 30
0.0
 11
52.80000000000007
 21
14.18323762378515
 31
0.0
  0
SPLINE
  5
209
330
1F
100
AcDbEntity
  8
외형선
  6
Continuous
370
    15
100
AcDbSpline
210
0.0
220
0.0
230
1.0
 70
    24
 71
     3
 72
    16
 73
    12
 74
     0
 42
0.000000001
 43
0.00000001
 40
0.0
 40
0.0
 40
0.0
 40
0.0
 40
0.0697567896657073
 40
0.1983246771167234
 40
0.32689256456774
 40
0.4554604520187567
 40
0.5840283394697736
 40
0.7125962269207903
 40
0.841164114371808
 40
0.9697320018228263
 40
1.0
 40
1.0
 40
1.0
 40
1.0
 10
2.000000000000057
 20
-4.636489878974949
 30
0.0
 10
2.000000000000057
 20
-4.712114515308855
 30
0.0
 10
2.000000000000057
 20
-4.927121995654005
 30
0.0
 10
2.000000000000057
 20
-5.365076774635213
 30
0.0
 10
2.000000000000057
 20
-5.928318344718051
 30
0.0
 10
2.000000000000057
 20
-6.538542074403679
 30
0.0
 10
2.000000000000057
 20
-7.174851147030843
 30
0.0
 10
2.000000000000057
 20
-7.819951603912585
 30
0.0
 10
2.000000000000057
 20
-8.454559327207988
 30
0.0
 10
2.000000000000057
 20
-8.908475781833559
 30
0.0
 10
2.000000000000057
 20
-9.14599043963888
 30
0.0
 10
2.000000000000057
 20
-9.19125157946928
 30
0.0
  0
LINE
  5
20A
330
1F
100
AcDbEntity
  8
외형선
  6
Continuous
370
    15
100
AcDbLine
 10
-53.24499999999995
 20
0.0
 30
0.0
 11
-53.24499999999995
 21
9.525000000000002
 31
0.0
  0
LINE
  5
20B
330
1F
100
AcDbEntity
  8
외형선
  6
Continuous
370
    15
100
AcDbLine
 10
-53.24499999999995
 20
-9.525000000000013
 30
0.0
 11
-53.24499999999995
 21
0.0
 31
0.0
  0
LINE
  5
20C
330
1F
100
AcDbEntity
  8
외형선
  6
Continuous
370
    15
100
AcDbLine
 10
-55.14999999999998
 20
0.0
 30
0.0
 11
-55.14999999999998
 21
7.620000000000005
 31
0.0
  0
LINE
  5
20D
330
1F
100
AcDbEntity
  8
외형선
  6
Continuous
370
    15
100
AcDbLine
 10
-55.14999999999998
 20
-7.620000000000005
 30
0.0
 11
-55.14999999999998
 21
0.0
 31
0.0
  0
SPLINE
  5
20E
330
1F
100
AcDbEntity
  8
외형선
  6
Continuous
370
    15
100
AcDbSpline
210
0.0
220
0.0
230
1.0
 70
    24
 71
     3
 72
    24
 73
    20
 74
     0
 42
0.000000001
 43
0.00000001
 40
0.0
 40
0.0
 40
0.0
 40
0.0
 40
0.125
 40
0.125
 40
0.2499999999999999
 40
0.2499999999999999
 40
0.3749999999999999
 40
0.3749999999999999
 40
0.4999999999999999
 40
0.4999999999999999
 40
0.6249999999999999
 40
0.6249999999999999
 40
0.7499999999999998
 40
0.7499999999999998
 40
0.8124999999999998
 40
0.8124999999999998
 40
0.8749999999999998
 40
0.8749999999999998
 40
1.0
 40
1.0
 40
1.0
 40
1.0
 10
2.0
 20
-2.43116522133019
 30
0.0
 10
2.000000000000057
 20
-2.405268413316989
 30
0.0
 10
2.0
 20
-2.292597075749804
 30
0.0
 10
2.000000000000057
 20
-1.846105737847139
 30
0.0
 10
2.000000000000057
 20
-1.510680802263963
 30
0.0
 10
2.000000000000057
 20
-0.6733745278170957
 30
0.0
 10
2.0
 20
-0.1746328723197799
 30
0.0
 10
2.0
 20
0.8420105248779421
 30
0.0
 10
2.000000000000057
 20
1.356408753422201
 30
0.0
 10
2.000000000000057
 20
2.287015632627089
 30
0.0
 10
2.000000000000057
 20
2.703407674048719
 30
0.0
 10
2.000000000000057
 20
3.408184526413052
 30
0.0
 10
2.000000000000057
 20
3.69807254580035
 30
0.0
 10
2.0
 20
4.053023630712111
 30
0.0
 10
2.000000000000057
 20
4.158252976469107
 30
0.0
 10
2.000000000000057
 20
4.346274960533467
 30
0.0
 10
2.000000000000057
 20
4.428347558340057
 30
0.0
 10
2.000000000000057
 20
4.677125952041681
 30
0.0
 10
2.000000000000057
 20
4.834332971294177
 30
0.0
 10
2.0
 20
4.956940118154673
 30
0.0
  0
SPLINE
  5
20F
330
1F
100
AcDbEntity
  8
외형선
  6
Continuous
370
    15
100
AcDbSpline
210
0.0
220
0.0
230
1.0
 70
    24
 71
     3
 72
    15
 73
    11
 74
     0
 42
0.000000001
 43
0.00000001
 40
0.0
 40
0.0
 40
0.0
 40
0.0
 40
0.1528066956371142
 40
0.2813962787283935
 40
0.4099858618196724
 40
0.5385754449109516
 40
0.6671650280022304
 40
0.7957546110935112
 40
0.9243441941847917
 40
1.0
 40
1.0
 40
1.0
 40
1.0
 10
2.0
 20
-9.19125157946928
 30
0.0
 10
2.0
 20
-8.957216706167486
 30
0.0
 10
2.0
 20
-8.526237277123393
 30
0.0
 10
2.000000000000057
 20
-7.848936090302296
 30
0.0
 10
2.0
 20
-7.204760480498265
 30
0.0
 10
2.000000000000057
 20
-6.567763981805243
 30
0.0
 10
2.000000000000057
 20
-5.955322018472671
 30
0.0
 10
2.000000000000057
 20
-5.390473661737381
 30
0.0
 10
2.0
 20
-4.941613173092023
 30
0.0
 10
2.0
 20
-4.718955787198311
 30
0.0
 10
2.0
 20
-4.636479878974953
 30
0.0
  0
SPLINE
  5
210
330
1F
100
AcDbEntity
  8
외형선
  6
Continuous
370
    15
100
AcDbSpline
210
0.0
220
0.0
230
1.0
 70
    24
 71
     3
 72
    13
 73
     9
 74
     0
 42
0.000000001
 43
0.00000001
 40
0.0
 40
0.0
 40
0.0
 40
0.0
 40
0.071165962259181
 40
0.303039914261123
 40
0.5283790170176681
 40
0.7602529690197102
 40
0.8796577514716799
 40
0.9999999999999999
 40
0.9999999999999999
 40
0.9999999999999999
 40
0.9999999999999999
 10
2.000000000000057
 20
6.831189531193424
 30
0.0
 10
2.000000000000057
 20
6.885914143001763
 30
0.0
 10
2.000000000000057
 20
7.118943264563768
 30
0.0
 10
2.000000000000057
 20
7.581977842994576
 30
0.0
 10
2.000000000000057
 20
8.20588792089993
 30
0.0
 10
2.0
 20
8.747194623239256
 30
0.0
 10
2.0
 20
9.18890459007978
 30
0.0
 10
2.0
 20
9.410890074629627
 30
0.0
 10
2.0
 20
9.522316824075268
 30
0.0
  0
CIRCLE
  5
211
330
1F
100
AcDbEntity
  8
해칭선
100
AcDbCircle
 10
0.0
 20
0.0
 30
0.0
 40
3.000000000000001
  0
DIMENSION
  5
212
330
1F
100
AcDbEntity
  8
치수문자_일반주서
100
AcDbDimension
  2
*D12
 10
-67.83249999999994
 20
-9.525000000000057
 30
0.0
 11
-67.83249999999998
 21
0.0000000000000071
 31
0.0
 70
   160
  1
%%c<>
 71
     2
 42
19.05000000000001
 52
-270.0
  3
SLDDIMSTYLE0
100
AcDbAlignedDimension
 13
-53.24499999999998
 23
9.525000000000006
 33
0.0
 14
-53.24499999999998
 24
-9.525000000000006
 34
0.0
 50
90.0000000000002
100
AcDbRotatedDimension
1001
ACAD
1000
DSTYLE
1002
{
1070
   171
1070
     6
1070
   273
1070
     7
1002
}
  0
DIMENSION
  5
213
330
1F
100
AcDbEntity
  8
치수문자_일반주서
100
AcDbDimension
  2
*D13
 10
2.000000000000057
 20
47.99321726241716
 30
0.0
 11
21.84375015771508
 21
47.99321726241716
 31
0.0
 70
   160
  1
<>
 71
     2
 42
50.80000000000001
  3
SLDDIMSTYLE0
100
AcDbAlignedDimension
 13
52.80000000000007
 23
14.28749992720824
 33
0.0
 14
2.000000000000057
 24
13.69945645877156
 34
0.0
100
AcDbRotatedDimension
1001
ACAD
1000
DSTYLE
1002
{
1070
   171
1070
     6
1070
   273
1070
     7
1002
}
  0
DIMENSION
  5
214
330
1F
100
AcDbEntity
  8
치수문자_일반주서
100
AcDbDimension
  2
*D14
 10
-55.14999999999998
 20
65.99321717071129
 30
0.0
 11
-2.914088372552385
 21
65.99321717071129
 31
0.0
 70
   160
  1
<>
 71
     2
 42
107.95
  3
SLDDIMSTYLE0
100
AcDbAlignedDimension
 13
52.80000000000007
 23
14.28749992720824
 33
0.0
 14
-55.14999999999998
 24
7.620000000000005
 34
0.0
100
AcDbRotatedDimension
1001
ACAD
1000
DSTYLE
1002
{
1070
   171
1070
     6
1070
   273
1070
     7
1002
}
  0
DIMENSION
  5
215
330
1F
100
AcDbEntity
  8
치수문자_일반주서
100
AcDbDimension
  2
*D15
 10
78.96407612715463
 20
-14.28749992720859
 30
0.0
 11
78.96407612715441
 21
45.19349976974932
 31
0.0
 70
   160
  1
%%c<>
 71
     2
 42
28.57499985441692
 52
-270.0
  3
SLDDIMSTYLE0
100
AcDbAlignedDimension
 13
52.80000000000007
 23
14.28749992720824
 33
0.0
 14
52.80000000000007
 24
-14.28749992720869
 34
0.0
 50
90.0000000000002
100
AcDbRotatedDimension
1001
ACAD
1000
DSTYLE
1002
{
1070
   171
1070
     6
1070
   273
1070
     7
1002
}
  0
INSERT
  5
216
330
1F
100
AcDbEntity
  8
해칭선
100
AcDbBlockReference
  2
SW_DOWELSYMBOL_0
 10
0.0
 20
0.0
 30
0.0
  0
LINE
  5
217
330
1F
100
AcDbEntity
  8
외형선
  6
Continuous
370
    15
100
AcDbLine
 10
-35.14432499999992
 20
7.619999999999997
 30
0.0
 11
-23.56192499999992
 21
7.619999999999997
 31
0.0
  0
LINE
  5
218
330
1F
100
AcDbEntity
  8
외형선
  6
Continuous
370
    15
100
AcDbLine
 10
-35.14432499999992
 20
7.619999999999983
 30
0.0
 11
-37.04932500000007
 21
9.525000000000013
 31
0.0
  0
LINE
  5
219
330
1F
100
AcDbEntity
  8
외형선
  6
Continuous
370
    15
100
AcDbLine
 10
-23.56192499999992
 20
7.619999999999983
 30
0.0
 11
-21.65692499999994
 21
9.525000000000013
 31
0.0
  0
LINE
  5
21A
330
1F
100
AcDbEntity
  8
외형선
  6
Continuous
370
    15
100
AcDbLine
 10
-37.04932500000007
 20
9.524999999999999
 30
0.0
 11
-53.24499999999995
 21
9.524999999999999
 31
0.0
  0
LINE
  5
21B
330
1F
100
AcDbEntity
  8
외형선
  6
Continuous
370
    15
100
AcDbLine
 10
2.000000000000057
 20
9.524999999999999
 30
0.0
 11
-21.65692499999997
 21
9.524999999999999
 31
0.0
  0
SPLINE
  5
21C
330
1F
100
AcDbEntity
  8
0
  6
Continuous
 62
     1
370
    15
100
AcDbSpline
210
0.0
220
0.0
230
1.0
 70
     8
 71
     3
 72
    21
 73
    17
 74
     0
 42
0.000000001
 43
0.00000001
 40
0.2815352906273849
 40
0.2815352906273849
 40
0.2815352906273849
 40
0.2815352906273849
 40
0.3030325686897802
 40
0.3636290041490491
 40
0.4210655194470607
 40
0.4784271564405538
 40
0.5357608349324862
 40
0.5931701503178713
 40
0.6505726436819969
 40
0.7079051438172372
 40
0.7652714046754244
 40
0.8227066047534467
 40
0.8800550161086664
 40
0.9373950738952053
 40
0.994822146654544
 40
1.0
 40
1.0
 40
1.0
 40
1.0
 10
1.999999999999943
 20
0.1607505325308409
 30
0.0
 10
2.2827496876194
 20
-0.1221716987184909
 30
0.0
 10
3.36249260580837
 20
-1.202956372359846
 30
0.0
 10
5.197739846028895
 20
-3.030037494148837
 30
0.0
 10
7.507477018675189
 20
-5.242867614963346
 30
0.0
 10
9.771569710221911
 20
-7.285795179746847
 30
0.0
 10
12.03451849245965
 20
-9.146205497958114
 30
0.0
 10
14.30050913165448
 20
-10.77578350962477
 30
0.0
 10
16.56621517437267
 20
-12.13561878482396
 30
0.0
 10
18.82911998395852
 20
-13.19184997977786
 30
0.0
 10
21.09336785732432
 20
-13.91749995068627
 30
0.0
 10
23.36041502014828
 20
-14.29143190005194
 30
0.0
 10
25.62400152450238
 20
-14.31664483507834
 30
0.0
 10
27.88708167514832
 20
-13.94829502534262
 30
0.0
 10
29.46678543264485
 20
-13.53739819807698
 30
0.0
 10
30.29047692321728
 20
-13.16201149881208
 30
0.0
 10
30.35860181378806
 20
-13.13096446469571
 30
0.0
  0
LINE
  5
21D
330
1F
100
AcDbEntity
  8
중심선
100
AcDbLine
 10
-62.14999999999998
 20
-0.0000000000000071
 30
0.0
 11
59.80000000000007
 21
0.0000000000000071
 31
0.0
  0
SPLINE
  5
21E
330
1F
100
AcDbEntity
  8
0
  6
Continuous
 62
     1
370
    15
100
AcDbSpline
210
0.0
220
0.0
230
1.0
 70
     8
 71
     3
 72
    23
 73
    19
 74
     0
 42
0.000000001
 43
0.00000001
 40
0.0
 40
0.0
 40
0.0
 40
0.0
 40
0.0316067779912803
 40
0.0816447707909824
 40
0.1317267897486503
 40
0.1818487024822671
 40
0.231894669208825
 40
0.2819479268666514
 40
0.3320769330622588
 40
0.3821457696306413
 40
0.432185140096574
 40
0.4822856001208207
 40
0.5323920143533841
 40
0.5824324132800839
 40
0.6324972141744971
 40
0.6826273682841173
 40
0.7355154766992175
 40
0.7542781376404417
 40
0.7542781376404417
 40
0.7542781376404417
 40
0.7542781376404417
 10
36.11060325866657
 20
-14.2457328825966
 30
0.0
 10
35.63406482590057
 20
-14.24839389160944
 30
0.0
 10
34.40309876137457
 20
-14.25526765365458
 30
0.0
 10
32.41879757858965
 20
-13.86139157529682
 30
0.0
 10
30.15390224036159
 20
-13.12024820060195
 30
0.0
 10
27.88719292642219
 20
-12.0361856805125
 30
0.0
 10
25.62397173050147
 20
-10.65301628629329
 30
0.0
 10
23.36042301769916
 20
-9.00143563172114
 30
0.0
 10
21.09336571584666
 20
-7.12675565803288
 30
0.0
 10
18.82912055707536
 20
-5.071390567286535
 30
0.0
 10
16.56621502063624
 20
-2.888327892242199
 30
0.0
 10
14.30050917287653
 20
-0.6344588777504381
 30
0.0
 10
12.03451848143018
 20
1.635055211040816
 30
0.0
 10
9.77156971317666
 20
3.865507098899251
 30
0.0
 10
7.507477017883616
 20
5.99856529101654
 30
0.0
 10
5.197739846254194
 20
8.01633609694455
 30
0.0
 10
3.362492605815561
 20
9.457063535955573
 30
0.0
 10
2.282749687614029
 20
10.22011331556096
 30
0.0
 10
2.000000000000085
 20
10.41380874846836
 30
0.0
  0
SPLINE
  5
220
330
1F
100
AcDbEntity
  8
0
  6
Continuous
 62
     1
370
    15
100
AcDbSpline
210
0.0
220
0.0
230
1.0
 70
     8
 71
     3
 72
    17
 73
    13
 74
     0
 42
0.000000001
 43
0.00000001
 40
0.0
 40
0.0
 40
0.0
 40
0.0
 40
0.0018245045924714
 40
0.0766497175848269
 40
0.1514308950544305
 40
0.2263033676194617
 40
0.3011847384321064
 40
0.3759674528816205
 40
0.4507866347738944
 40
0.5257034835700299
 40
0.6047419483747355
 40
0.6327817470787338
 40
0.6327817470787338
 40
0.6327817470787338
 40
0.6327817470787338
 10
21.14813137278529
 20
-14.28323910650531
 30
0.0
 10
21.1297182304578
 20
-14.28465519940239
 30
0.0
 10
20.35615911469736
 20
-14.34414703136794
 30
0.0
 10
18.82916854853778
 20
-14.13237896287908
 30
0.0
 10
16.56620214710037
 20
-13.62215194971035
 30
0.0
 10
14.30051262470982
 20
-12.72840763346122
 30
0.0
 10
12.03451755785079
 20
-11.52729145537731
 30
0.0
 10
9.77156996060296
 20
-10.03294544563621
 30
0.0
 10
7.507476951594214
 20
-8.287890112419682
 30
0.0
 10
5.197739865117995
 20
-6.300298944426848
 30
0.0
 10
3.362492606412303
 20
-4.584441570229643
 30
0.0
 10
2.282749687158571
 20
-3.539832252411346
 30
0.0
 10
2.000000000000028
 20
-3.264370405417095
 30
0.0
  0
SPLINE
  5
221
330
1F
100
AcDbEntity
  8
0
  6
Continuous
 62
     1
370
    15
100
AcDbSpline
210
0.0
220
0.0
230
1.0
 70
     8
 71
     3
 72
    14
 73
    10
 74
     0
 42
0.000000001
 43
0.00000001
 40
0.4534165007320361
 40
0.4534165007320361
 40
0.4534165007320361
 40
0.4534165007320361
 40
0.4880381630055759
 40
0.5856295643988113
 40
0.6781318704601089
 40
0.7705135839714236
 40
0.862850269927446
 40
0.9553087701514716
 40
0.9999999999999999
 40
0.9999999999999999
 40
0.9999999999999999
 40
0.9999999999999999
 10
2.000000000000057
 20
-12.29210269668944
 30
0.0
 10
2.282749667120868
 20
-12.43634225573192
 30
0.0
 10
3.36249263266717
 20
-12.95960145318198
 30
0.0
 10
5.197740695055018
 20
-13.66329448597927
 30
0.0
 10
7.507474035099904
 20
-14.186569160409
 30
0.0
 10
9.771580846473256
 20
-14.34987646189354
 30
0.0
 10
12.03447692366828
 20
-14.13525751180175
 30
0.0
 10
13.9103036429122
 20
-13.71946560946305
 30
0.0
 10
15.03092777286784
 20
-13.25471063938723
 30
0.0
 10
15.39609123720101
 20
-13.10326687657474
 30
0.0
  0
SPLINE
  5
223
330
1F
100
AcDbEntity
  8
0
  6
Continuous
 62
     1
370
    15
100
AcDbSpline
210
0.0
220
0.0
230
1.0
 70
     8
 71
     3
 72
    10
 73
     6
 74
     0
 42
0.000000001
 43
0.00000001
 40
0.0
 40
0.0
 40
0.0
 40
0.0
 40
0.0618752683822969
 40
0.2182077228993599
 40
0.2736685899246999
 40
0.2736685899246999
 40
0.2736685899246999
 40
0.2736685899246999
 10
6.186929614714131
 20
-14.24382750871574
 30
0.0
 10
5.87119027650607
 20
-14.25425436516026
 30
0.0
 10
4.757712083660863
 20
-14.29102544771459
 30
0.0
 10
3.362491751153101
 20
-14.0417614581428
 30
0.0
 10
2.282750339904595
 20
-13.75582543500288
 30
0.0
 10
2.000000000000114
 20
-13.67391820921554
 30
0.0
  0
LINE
  5
224
330
1F
100
AcDbEntity
  8
외형선
  6
Continuous
370
    15
100
AcDbLine
 10
2.000000000000057
 20
13.69945645877157
 30
0.0
 11
2.000000000000057
 21
-13.67391820921553
 31
0.0
  0
SPLINE
  5
259
330
1F
100
AcDbEntity
  8
0
  6
Continuous
 62
     1
370
    15
100
AcDbSpline
210
0.0
220
0.0
230
1.0
 70
     8
 71
     3
 72
    27
 73
    23
 74
     0
 42
0.000000001
 43
0.00000001
 40
0.1445538191010501
 40
0.1445538191010501
 40
0.1445538191010501
 40
0.1445538191010501
 40
0.1613099867400801
 40
0.20854236066931
 40
0.2533117096778193
 40
0.2980226941958862
 40
0.3427118862373791
 40
0.3874600340574971
 40
0.4322028643988451
 40
0.4768911379608354
 40
0.5216057265870412
 40
0.5663740504368616
 40
0.6110747261259085
 40
0.6557688905593577
 40
0.7005308795059416
 40
0.7452572408265887
 40
0.7899442840468545
 40
0.8346729033408139
 40
0.8794332791421704
 40
0.9241265254382078
 40
0.9688285459219412
 40
1.0
 40
1.0
 40
1.0
 40
1.0
 10
2.000000000000057
 20
12.45378801280353
 30
0.0
 10
2.282749632627002
 20
12.31481670037257
 30
0.0
 10
3.362496248251489
 20
11.7557875544318
 30
0.0
 10
5.197738913078325
 20
10.63332787466423
 30
0.0
 10
7.5074772619123
 20
8.94442062033437
 30
0.0
 10
9.771569647792006
 20
7.061127643512044
 30
0.0
 10
12.03451849924011
 20
5.000149364067248
 30
0.0
 10
14.3005091671009
 20
2.815660318016874
 30
0.0
 10
16.56621502591548
 20
0.5603814382870809
 30
0.0
 10
18.82912054174261
 20
-1.710607153344599
 30
0.0
 10
21.09336577197001
 20
-3.938189268105404
 30
0.0
 10
23.36042280841477
 20
-6.064826443315884
 30
0.0
 10
25.623972510084
 20
-8.042021901514786
 30
0.0
 10
27.88719001547096
 20
-9.817432079012754
 30
0.0
 10
30.1539131189565
 20
-11.34488961347745
 30
0.0
 10
32.41875703218844
 20
-12.58905815348797
 30
0.0
 10
34.68159474095776
 20
-13.51806717799252
 30
0.0
 10
36.94655450530396
 20
-14.10676973229625
 30
0.0
 10
39.21319607929632
 20
-14.34507238643681
 30
0.0
 10
41.47635158025389
 20
-14.21168018468031
 30
0.0
 10
43.51060160202081
 20
-13.81215312577864
 30
0.0
 10
44.79215238655954
 20
-13.31416227242096
 30
0.0
 10
45.31865788350251
 20
-13.10957036324077
 30
0.0
  0
ENDSEC
  0
SECTION
  2
OBJECTS
  0
DICTIONARY
  5
C
330
0
100
AcDbDictionary
281
     1
  3
ACAD_GROUP
350
D
  3
ACAD_IMAGE_VARS
350
148
  3
ACAD_LAYOUT
350
1A
  3
ACAD_MLINESTYLE
350
17
  3
ACAD_PLOTSETTINGS
350
19
  3
ACAD_PLOTSTYLENAME
350
E
  3
ACAD_SCALELIST
350
47
  3
APPDATA
350
146
  3
DWGPROPS
350
25C
  0
DICTIONARY
  5
1E6
330
2
100
AcDbDictionary
280
     1
281
     1
  3
ACAD_LAYERSTATES
360
1E7
  0
DICTIONARY
  5
D
102
{ACAD_REACTORS
330
C
102
}
330
C
100
AcDbDictionary
281
     1
  0
RASTERVARIABLES
  5
148
102
{ACAD_REACTORS
330
C
102
}
330
C
100
AcDbRasterVariables
 90
        0
 70
     1
 71
     1
 72
     1
  0
DICTIONARY
  5
1A
102
{ACAD_REACTORS
330
C
102
}
330
C
100
AcDbDictionary
281
     1
  3
Layout1
350
1E
  3
Layout2
350
26
  3
Model
350
22
  0
DICTIONARY
  5
17
102
{ACAD_REACTORS
330
C
102
}
330
C
100
AcDbDictionary
281
     1
  3
Standard
350
18
  0
DICTIONARY
  5
19
102
{ACAD_REACTORS
330
C
102
}
330
C
100
AcDbDictionary
281
     1
  0
ACDBDICTIONARYWDFLT
  5
E
102
{ACAD_REACTORS
330
C
102
}
330
C
100
AcDbDictionary
281
     1
  3
Normal
350
F
100
AcDbDictionaryWithDefault
340
F
  0
DICTIONARY
  5
47
102
{ACAD_REACTORS
330
C
102
}
330
C
100
AcDbDictionary
281
     1
  3
A0
350
48
  3
A1
350
49
  3
A2
350
4A
  3
A3
350
4B
  3
A4
350
4C
  3
A5
350
4D
  3
A6
350
4E
  3
A7
350
4F
  3
A8
350
50
  3
A9
350
51
  3
B0
350
52
  3
B1
350
53
  3
B2
350
54
  3
B3
350
55
  3
B4
350
56
  3
B5
350
57
  3
B6
350
58
  3
B7
350
59
  3
B8
350
5A
  3
B9
350
5B
  3
C0
350
5C
  3
C1
350
5D
  3
C2
350
5E
  3
C3
350
5F
  3
C4
350
60
  3
C5
350
61
  3
C6
350
62
  3
C7
350
63
  3
C8
350
64
  3
C9
350
65
  3
D0
350
66
  3
D1
350
67
  3
D2
350
68
  0
DICTIONARY
  5
146
102
{ACAD_REACTORS
330
C
102
}
330
C
100
AcDbDictionary
281
     1
  0
XRECORD
  5
25C
102
{ACAD_REACTORS
330
C
102
}
330
C
100
AcDbXrecord
280
     1
  1
DWGPROPS COOKIE
  2

  3

  4

  6

  7

  8
12017012
  9

300
=
301
=
302
=
303
=
304
=
305
=
306
=
307
=
308
=
309
=
 40
0.0
 41
2458323.108290752
 42
2458323.416680104
  1

 90
        0
  0
DICTIONARY
  5
1E7
102
{ACAD_REACTORS
330
1E6
102
}
330
1E6
100
AcDbDictionary
281
     1
  0
LAYOUT
  5
1E
102
{ACAD_REACTORS
330
1A
102
}
330
1A
100
AcDbPlotSettings
  1

  2
none_device
  4

  6

 40
0.0
 41
0.0
 42
0.0
 43
0.0
 44
0.0
 45
0.0
 46
0.0
 47
0.0
 48
0.0
 49
0.0
140
0.0
141
0.0
142
1.0
143
1.0
 70
   688
 72
     1
 73
     0
 74
     5
  7

 75
    16
147
1.0
148
0.0
149
0.0
100
AcDbLayout
  1
Layout1
 70
     1
 71
     1
 10
0.0
 20
0.0
 11
420.0
 21
297.0
 12
0.0
 22
0.0
 32
0.0
 14
1.000000000000000E+20
 24
1.000000000000000E+20
 34
1.000000000000000E+20
 15
-1.000000000000000E+20
 25
-1.000000000000000E+20
 35
-1.000000000000000E+20
146
0.0
 13
0.0
 23
0.0
 33
0.0
 16
1.0
 26
0.0
 36
0.0
 17
0.0
 27
1.0
 37
0.0
 76
     0
330
1B
  0
LAYOUT
  5
26
102
{ACAD_REACTORS
330
1A
102
}
330
1A
100
AcDbPlotSettings
  1

  2
none_device
  4

  6

 40
0.0
 41
0.0
 42
0.0
 43
0.0
 44
0.0
 45
0.0
 46
0.0
 47
0.0
 48
0.0
 49
0.0
140
0.0
141
0.0
142
1.0
143
1.0
 70
   688
 72
     1
 73
     0
 74
     5
  7

 75
    16
147
1.0
148
0.0
149
0.0
100
AcDbLayout
  1
Layout2
 70
     1
 71
     2
 10
0.0
 20
0.0
 11
0.0
 21
0.0
 12
0.0
 22
0.0
 32
0.0
 14
0.0
 24
0.0
 34
0.0
 15
0.0
 25
0.0
 35
0.0
146
0.0
 13
0.0
 23
0.0
 33
0.0
 16
1.0
 26
0.0
 36
0.0
 17
0.0
 27
1.0
 37
0.0
 76
     0
330
23
  0
LAYOUT
  5
22
102
{ACAD_REACTORS
330
1A
102
}
330
1A
100
AcDbPlotSettings
  1

  2
none_device
  4
ANSI_A_(11.00_x_8.50_Inches)
  6

 40
6.35
 41
19.05
 42
6.35000508
 43
19.05000254
 44
279.4
 45
215.9
 46
96.39525648754174
 47
90.09827952143297
 48
0.0
 49
0.0
140
0.0
141
0.0
142
0.0605651527843098
143
1.0
 70
  1696
 72
     0
 73
     0
 74
     0
  7

 75
     0
147
0.0235690232323232
148
0.0
149
0.0
100
AcDbLayout
  1
Model
 70
     1
 71
     0
 10
0.0
 20
0.0
 11
420.0
 21
297.0
 12
0.0
 22
0.0
 32
0.0
 14
1.000000000000000E+20
 24
1.000000000000000E+20
 34
1.000000000000000E+20
 15
-1.000000000000000E+20
 25
-1.000000000000000E+20
 35
-1.000000000000000E+20
146
0.0
 13
0.0
 23
0.0
 33
0.0
 16
1.0
 26
0.0
 36
0.0
 17
0.0
 27
1.0
 37
0.0
 76
     0
330
1F
331
29
  0
MLINESTYLE
  5
18
102
{ACAD_REACTORS
330
17
102
}
330
17
100
AcDbMlineStyle
  2
Standard
 70
     0
  3

 62
   256
 51
90.0
 52
90.0
 71
     2
 49
0.5
 62
   256
  6
BYLAYER
 49
-0.5
 62
   256
  6
BYLAYER
  0
ACDBPLACEHOLDER
  5
F
102
{ACAD_REACTORS
330
E
102
}
330
E
  0
SCALE
  5
48
102
{ACAD_REACTORS
330
47
102
}
330
47
100
AcDbScale
 70
     0
300
1:1
140
1.0
141
1.0
290
     1
  0
SCALE
  5
49
102
{ACAD_REACTORS
330
47
102
}
330
47
100
AcDbScale
 70
     0
300
1:2
140
1.0
141
2.0
290
     0
  0
SCALE
  5
4A
102
{ACAD_REACTORS
330
47
102
}
330
47
100
AcDbScale
 70
     0
300
1:4
140
1.0
141
4.0
290
     0
  0
SCALE
  5
4B
102
{ACAD_REACTORS
330
47
102
}
330
47
100
AcDbScale
 70
     0
300
1:5
140
1.0
141
5.0
290
     0
  0
SCALE
  5
4C
102
{ACAD_REACTORS
330
47
102
}
330
47
100
AcDbScale
 70
     0
300
1:8
140
1.0
141
8.0
290
     0
  0
SCALE
  5
4D
102
{ACAD_REACTORS
330
47
102
}
330
47
100
AcDbScale
 70
     0
300
1:10
140
1.0
141
10.0
290
     0
  0
SCALE
  5
4E
102
{ACAD_REACTORS
330
47
102
}
330
47
100
AcDbScale
 70
     0
300
1:16
140
1.0
141
16.0
290
     0
  0
SCALE
  5
4F
102
{ACAD_REACTORS
330
47
102
}
330
47
100
AcDbScale
 70
     0
300
1:20
140
1.0
141
20.0
290
     0
  0
SCALE
  5
50
102
{ACAD_REACTORS
330
47
102
}
330
47
100
AcDbScale
 70
     0
300
1:30
140
1.0
141
30.0
290
     0
  0
SCALE
  5
51
102
{ACAD_REACTORS
330
47
102
}
330
47
100
AcDbScale
 70
     0
300
1:40
140
1.0
141
40.0
290
     0
  0
SCALE
  5
52
102
{ACAD_REACTORS
330
47
102
}
330
47
100
AcDbScale
 70
     0
300
1:50
140
1.0
141
50.0
290
     0
  0
SCALE
  5
53
102
{ACAD_REACTORS
330
47
102
}
330
47
100
AcDbScale
 70
     0
300
1:100
140
1.0
141
100.0
290
     0
  0
SCALE
  5
54
102
{ACAD_REACTORS
330
47
102
}
330
47
100
AcDbScale
 70
     0
300
2:1
140
2.0
141
1.0
290
     0
  0
SCALE
  5
55
102
{ACAD_REACTORS
330
47
102
}
330
47
100
AcDbScale
 70
     0
300
4:1
140
4.0
141
1.0
290
     0
  0
SCALE
  5
56
102
{ACAD_REACTORS
330
47
102
}
330
47
100
AcDbScale
 70
     0
300
8:1
140
8.0
141
1.0
290
     0
  0
SCALE
  5
57
102
{ACAD_REACTORS
330
47
102
}
330
47
100
AcDbScale
 70
     0
300
10:1
140
10.0
141
1.0
290
     0
  0
SCALE
  5
58
102
{ACAD_REACTORS
330
47
102
}
330
47
100
AcDbScale
 70
     0
300
100:1
140
100.0
141
1.0
290
     0
  0
SCALE
  5
59
102
{ACAD_REACTORS
330
47
102
}
330
47
100
AcDbScale
 70
     0
300
1/128" = 1'-0"
140
0.0078125
141
12.0
290
     0
  0
SCALE
  5
5A
102
{ACAD_REACTORS
330
47
102
}
330
47
100
AcDbScale
 70
     0
300
1/64" = 1'-0"
140
0.015625
141
12.0
290
     0
  0
SCALE
  5
5B
102
{ACAD_REACTORS
330
47
102
}
330
47
100
AcDbScale
 70
     0
300
1/32" = 1'-0"
140
0.03125
141
12.0
290
     0
  0
SCALE
  5
5C
102
{ACAD_REACTORS
330
47
102
}
330
47
100
AcDbScale
 70
     0
300
1/16" = 1'-0"
140
0.0625
141
12.0
290
     0
  0
SCALE
  5
5D
102
{ACAD_REACTORS
330
47
102
}
330
47
100
AcDbScale
 70
     0
300
3/32" = 1'-0"
140
0.09375
141
12.0
290
     0
  0
SCALE
  5
5E
102
{ACAD_REACTORS
330
47
102
}
330
47
100
AcDbScale
 70
     0
300
1/8" = 1'-0"
140
0.125
141
12.0
290
     0
  0
SCALE
  5
5F
102
{ACAD_REACTORS
330
47
102
}
330
47
100
AcDbScale
 70
     0
300
3/16" = 1'-0"
140
0.1875
141
12.0
290
     0
  0
SCALE
  5
60
102
{ACAD_REACTORS
330
47
102
}
330
47
100
AcDbScale
 70
     0
300
1/4" = 1'-0"
140
0.25
141
12.0
290
     0
  0
SCALE
  5
61
102
{ACAD_REACTORS
330
47
102
}
330
47
100
AcDbScale
 70
     0
300
3/8" = 1'-0"
140
0.375
141
12.0
290
     0
  0
SCALE
  5
62
102
{ACAD_REACTORS
330
47
102
}
330
47
100
AcDbScale
 70
     0
300
1/2" = 1'-0"
140
0.5
141
12.0
290
     0
  0
SCALE
  5
63
102
{ACAD_REACTORS
330
47
102
}
330
47
100
AcDbScale
 70
     0
300
3/4" = 1'-0"
140
0.75
141
12.0
290
     0
  0
SCALE
  5
64
102
{ACAD_REACTORS
330
47
102
}
330
47
100
AcDbScale
 70
     0
300
1" = 1'-0"
140
1.0
141
12.0
290
     0
  0
SCALE
  5
65
102
{ACAD_REACTORS
330
47
102
}
330
47
100
AcDbScale
 70
     0
300
1-1/2" = 1'-0"
140
1.5
141
12.0
290
     0
  0
SCALE
  5
66
102
{ACAD_REACTORS
330
47
102
}
330
47
100
AcDbScale
 70
     0
300
3" = 1'-0"
140
3.0
141
12.0
290
     0
  0
SCALE
  5
67
102
{ACAD_REACTORS
330
47
102
}
330
47
100
AcDbScale
 70
     0
300
6" = 1'-0"
140
6.0
141
12.0
290
     0
  0
SCALE
  5
68
102
{ACAD_REACTORS
330
47
102
}
330
47
100
AcDbScale
 70
     0
300
1'-0" = 1'-0"
140
12.0
141
12.0
290
     0
  0
ENDSEC
  0
EOF
