  0
SECTION
  2
HEADER
  9
$ACADVER
  1
AC1015
  9
$ACADMAINTVER
 70
     6
  9
$DWGCODEPAGE
  3
ANSI_949
  9
$INSBASE
 10
0.0
 20
0.0
 30
0.0
  9
$EXTMIN
 10
1.000000000000000E+20
 20
1.000000000000000E+20
 30
1.000000000000000E+20
  9
$EXTMAX
 10
-1.000000000000000E+20
 20
-1.000000000000000E+20
 30
-1.000000000000000E+20
  9
$LIMMIN
 10
0.0
 20
0.0
  9
$LIMMAX
 10
420.0
 20
297.0
  9
$ORTHOMODE
 70
     1
  9
$REGENMODE
 70
     1
  9
$FILLMODE
 70
     1
  9
$QTEXTMODE
 70
     0
  9
$MIRRTEXT
 70
     1
  9
$LTSCALE
 40
1.0
  9
$ATTMODE
 70
     1
  9
$TEXTSIZE
 40
3.5
  9
$TRACEWID
 40
1.0
  9
$TEXTSTYLE
  7
Standard
  9
$CLAYER
  8
0
  9
$CELTYPE
  6
ByLayer
  9
$CECOLOR
 62
   256
  9
$CELTSCALE
 40
1.0
  9
$DISPSILH
 70
     0
  9
$DIMSCALE
 40
1.0
  9
$DIMASZ
 40
3.302
  9
$DIMEXO
 40
1.0
  9
$DIMDLI
 40
3.75
  9
$DIMRND
 40
0.0
  9
$DIMDLE
 40
0.0
  9
$DIMEXE
 40
1.0
  9
$DIMTP
 40
0.0
  9
$DIMTM
 40
0.0
  9
$DIMTXT
 40
3.5
  9
$DIMCEN
 40
2.5
  9
$DIMTSZ
 40
0.0
  9
$DIMTOL
 70
     0
  9
$DIMLIM
 70
     0
  9
$DIMTIH
 70
     1
  9
$DIMTOH
 70
     1
  9
$DIMSE1
 70
     0
  9
$DIMSE2
 70
     0
  9
$DIMTAD
 70
     1
  9
$DIMZIN
 70
     0
  9
$DIMBLK
  1

  9
$DIMASO
 70
     1
  9
$DIMSHO
 70
     1
  9
$DIMPOST
  1

  9
$DIMAPOST
  1

  9
$DIMALT
 70
     0
  9
$DIMALTD
 70
     3
  9
$DIMALTF
 40
0.0393700787401575
  9
$DIMLFAC
 40
1.0
  9
$DIMTOFL
 70
     1
  9
$DIMTVP
 40
0.0
  9
$DIMTIX
 70
     0
  9
$DIMSOXD
 70
     0
  9
$DIMSAH
 70
     0
  9
$DIMBLK1
  1

  9
$DIMBLK2
  1

  9
$DIMSTYLE
  2
ISO-25
  9
$DIMCLRD
 70
     0
  9
$DIMCLRE
 70
     0
  9
$DIMCLRT
 70
     0
  9
$DIMTFAC
 40
1.0
  9
$DIMGAP
 40
1.524
  9
$DIMJUST
 70
     0
  9
$DIMSD1
 70
     0
  9
$DIMSD2
 70
     0
  9
$DIMTOLJ
 70
     0
  9
$DIMTZIN
 70
     0
  9
$DIMALTZ
 70
     0
  9
$DIMALTTZ
 70
     0
  9
$DIMUPT
 70
     0
  9
$DIMDEC
 70
     2
  9
$DIMTDEC
 70
     2
  9
$DIMALTU
 70
     2
  9
$DIMALTTD
 70
     3
  9
$DIMTXSTY
  7
Standard
  9
$DIMAUNIT
 70
     0
  9
$DIMADEC
 70
     2
  9
$DIMALTRND
 40
0.0
  9
$DIMAZIN
 70
     0
  9
$DIMDSEP
 70
    44
  9
$DIMATFIT
 70
     3
  9
$DIMFRAC
 70
     0
  9
$DIMLDRBLK
  1

  9
$DIMLUNIT
 70
     2
  9
$DIMLWD
 70
    -2
  9
$DIMLWE
 70
    -2
  9
$DIMTMOVE
 70
     0
  9
$LUNITS
 70
     2
  9
$LUPREC
 70
     2
  9
$SKETCHINC
 40
1.0
  9
$FILLETRAD
 40
10.0
  9
$AUNITS
 70
     0
  9
$AUPREC
 70
     2
  9
$MENU
  1
.
  9
$ELEVATION
 40
0.0
  9
$PELEVATION
 40
0.0
  9
$THICKNESS
 40
0.0
  9
$LIMCHECK
 70
     0
  9
$CHAMFERA
 40
0.0
  9
$CHAMFERB
 40
0.0
  9
$CHAMFERC
 40
0.0
  9
$CHAMFERD
 40
0.0
  9
$SKPOLY
 70
     0
  9
$TDCREATE
 40
2458323.482867535
  9
$TDUCREATE
 40
2458323.107867535
  9
$TDUPDATE
 40
2458324.405145741
  9
$TDUUPDATE
 40
2458324.030145741
  9
$TDINDWG
 40
0.0000233218
  9
$TDUSRTIMER
 40
2458324.029031968
  9
$USRTIMER
 70
     1
  9
$ANGBASE
 50
0.0
  9
$ANGDIR
 70
     0
  9
$PDMODE
 70
     0
  9
$PDSIZE
 40
-1.0
  9
$PLINEWID
 40
0.0
  9
$SPLFRAME
 70
     0
  9
$SPLINETYPE
 70
     6
  9
$SPLINESEGS
 70
     8
  9
$HANDSEED
  5
25F
  9
$SURFTAB1
 70
     6
  9
$SURFTAB2
 70
     6
  9
$SURFTYPE
 70
     6
  9
$SURFU
 70
     6
  9
$SURFV
 70
     6
  9
$UCSBASE
  2

  9
$UCSNAME
  2

  9
$UCSORG
 10
0.0
 20
0.0
 30
0.0
  9
$UCSXDIR
 10
1.0
 20
0.0
 30
0.0
  9
$UCSYDIR
 10
0.0
 20
1.0
 30
0.0
  9
$UCSORTHOREF
  2

  9
$UCSORTHOVIEW
 70
     0
  9
$UCSORGTOP
 10
0.0
 20
0.0
 30
0.0
  9
$UCSORGBOTTOM
 10
0.0
 20
0.0
 30
0.0
  9
$UCSORGLEFT
 10
0.0
 20
0.0
 30
0.0
  9
$UCSORGRIGHT
 10
0.0
 20
0.0
 30
0.0
  9
$UCSORGFRONT
 10
0.0
 20
0.0
 30
0.0
  9
$UCSORGBACK
 10
0.0
 20
0.0
 30
0.0
  9
$PUCSBASE
  2

  9
$PUCSNAME
  2

  9
$PUCSORG
 10
0.0
 20
0.0
 30
0.0
  9
$PUCSXDIR
 10
1.0
 20
0.0
 30
0.0
  9
$PUCSYDIR
 10
0.0
 20
1.0
 30
0.0
  9
$PUCSORTHOREF
  2

  9
$PUCSORTHOVIEW
 70
     0
  9
$PUCSORGTOP
 10
0.0
 20
0.0
 30
0.0
  9
$PUCSORGBOTTOM
 10
0.0
 20
0.0
 30
0.0
  9
$PUCSORGLEFT
 10
0.0
 20
0.0
 30
0.0
  9
$PUCSORGRIGHT
 10
0.0
 20
0.0
 30
0.0
  9
$PUCSORGFRONT
 10
0.0
 20
0.0
 30
0.0
  9
$PUCSORGBACK
 10
0.0
 20
0.0
 30
0.0
  9
$USERI1
 70
     0
  9
$USERI2
 70
     0
  9
$USERI3
 70
     0
  9
$USERI4
 70
     0
  9
$USERI5
 70
     0
  9
$USERR1
 40
0.0
  9
$USERR2
 40
0.0
  9
$USERR3
 40
0.0
  9
$USERR4
 40
0.0
  9
$USERR5
 40
0.0
  9
$WORLDVIEW
 70
     1
  9
$SHADEDGE
 70
     3
  9
$SHADEDIF
 70
    70
  9
$TILEMODE
 70
     1
  9
$MAXACTVP
 70
    64
  9
$PINSBASE
 10
0.0
 20
0.0
 30
0.0
  9
$PLIMCHECK
 70
     0
  9
$PEXTMIN
 10
1.000000000000000E+20
 20
1.000000000000000E+20
 30
1.000000000000000E+20
  9
$PEXTMAX
 10
-1.000000000000000E+20
 20
-1.000000000000000E+20
 30
-1.000000000000000E+20
  9
$PLIMMIN
 10
0.0
 20
0.0
  9
$PLIMMAX
 10
0.0
 20
0.0
  9
$UNITMODE
 70
     0
  9
$VISRETAIN
 70
     1
  9
$PLINEGEN
 70
     0
  9
$PSLTSCALE
 70
     1
  9
$TREEDEPTH
 70
  3020
  9
$CMLSTYLE
  2
Standard
  9
$CMLJUST
 70
     0
  9
$CMLSCALE
 40
20.0
  9
$PROXYGRAPHICS
 70
     1
  9
$MEASUREMENT
 70
     1
  9
$CELWEIGHT
370
    -1
  9
$ENDCAPS
280
     0
  9
$JOINSTYLE
280
     0
  9
$LWDISPLAY
290
     1
  9
$INSUNITS
 70
     4
  9
$HYPERLINKBASE
  1

  9
$STYLESHEET
  1

  9
$XEDIT
290
     1
  9
$CEPSNTYPE
380
     0
  9
$PSTYLEMODE
290
     1
  9
$FINGERPRINTGUID
  2
{F23CAF8E-08A1-4465-9633-DD7058AA344F}
  9
$VERSIONGUID
  2
{FAEB1C32-E019-11D5-929B-00C0DF256EC4}
  9
$EXTNAMES
290
     1
  9
$PSVPSCALE
 40
0.0
  9
$OLESTARTUP
290
     0
  0
ENDSEC
  0
SECTION
  2
CLASSES
  0
CLASS
  1
ACDBDICTIONARYWDFLT
  2
AcDbDictionaryWithDefault
  3
ObjectDBX Classes
 90
        0
280
     0
281
     0
  0
CLASS
  1
VISUALSTYLE
  2
AcDbVisualStyle
  3
ObjectDBX Classes
 90
     4095
280
     0
281
     0
  0
CLASS
  1
MATERIAL
  2
AcDbMaterial
  3
ObjectDBX Classes
 90
     1153
280
     0
281
     0
  0
CLASS
  1
SCALE
  2
AcDbScale
  3
ObjectDBX Classes
 90
     1153
280
     0
281
     0
  0
CLASS
  1
SUN
  2
AcDbSun
  3
SCENEOE
 90
     1153
280
     0
281
     0
  0
CLASS
  1
ACDBPLACEHOLDER
  2
AcDbPlaceHolder
  3
ObjectDBX Classes
 90
        0
280
     0
281
     0
  0
CLASS
  1
LAYOUT
  2
AcDbLayout
  3
ObjectDBX Classes
 90
        0
280
     0
281
     0
  0
CLASS
  1
TABLESTYLE
  2
AcDbTableStyle
  3
ObjectDBX Classes
 90
     4095
280
     0
281
     0
  0
CLASS
  1
MLEADERSTYLE
  2
AcDbMLeaderStyle
  3
ACDB_MLEADERSTYLE_CLASS
 90
     4095
280
     0
281
     0
  0
CLASS
  1
RASTERVARIABLES
  2
AcDbRasterVariables
  3
ISM
 90
        0
280
     0
281
     0
  0
ENDSEC
  0
SECTION
  2
TABLES
  0
TABLE
  2
VPORT
  5
8
330
0
100
AcDbSymbolTable
 70
     1
  0
VPORT
  5
29
330
8
100
AcDbSymbolTableRecord
100
AcDbViewportTableRecord
  2
*Active
 70
     0
 10
0.0
 20
0.0
 11
1.0
 21
1.0
 12
-28.61671698563523
 22
16.06843395050775
 13
0.0
 23
0.0
 14
10.0
 24
10.0
 15
10.0
 25
10.0
 16
0.0
 26
0.0
 36
1.0
 17
0.0
 27
0.0
 37
0.0
 40
219.4775597700048
 41
1.632093933463796
 42
50.0
 43
0.0
 44
0.0
 50
0.0
 51
0.0
 71
    16
 72
  2000
 73
     1
 74
     3
 75
     0
 76
     0
 77
     0
 78
     0
281
     0
 65
     1
110
0.0
120
0.0
130
0.0
111
1.0
121
0.0
131
0.0
112
0.0
122
1.0
132
0.0
 79
     0
146
0.0
  0
ENDTAB
  0
TABLE
  2
LTYPE
  5
5
330
0
100
AcDbSymbolTable
 70
     6
  0
LTYPE
  5
14
330
5
100
AcDbSymbolTableRecord
100
AcDbLinetypeTableRecord
  2
ByBlock
 70
     0
  3

 72
    65
 73
     0
 40
0.0
  0
LTYPE
  5
15
330
5
100
AcDbSymbolTableRecord
100
AcDbLinetypeTableRecord
  2
ByLayer
 70
     0
  3

 72
    65
 73
     0
 40
0.0
  0
LTYPE
  5
16
330
5
100
AcDbSymbolTableRecord
100
AcDbLinetypeTableRecord
  2
Continuous
 70
     0
  3
Solid line
 72
    65
 73
     0
 40
0.0
  0
LTYPE
  5
6A
330
5
100
AcDbSymbolTableRecord
100
AcDbLinetypeTableRecord
  2
HIDDEN
 70
     0
  3
Hidden __ __ __ __ __ __ __ __ __ __ __ __ __ __
 72
    65
 73
     2
 40
1.905
 49
1.27
 74
     0
 49
-0.635
 74
     0
  0
LTYPE
  5
6B
330
5
100
AcDbSymbolTableRecord
100
AcDbLinetypeTableRecord
  2
PHANTOM
 70
     0
  3
Phantom ______  __  __  ______  __  __  ______
 72
    65
 73
     6
 40
12.7
 49
6.35
 74
     0
 49
-1.27
 74
     0
 49
1.27
 74
     0
 49
-1.27
 74
     0
 49
1.27
 74
     0
 49
-1.27
 74
     0
  0
LTYPE
  5
6C
330
5
100
AcDbSymbolTableRecord
100
AcDbLinetypeTableRecord
  2
CENTER
 70
     0
  3
Center ____ _ ____ _ ____ _ ____ _ ____ _ ____
 72
    65
 73
     4
 40
10.16
 49
6.35
 74
     0
 49
-1.27
 74
     0
 49
1.27
 74
     0
 49
-1.27
 74
     0
  0
LTYPE
  5
6D
330
5
100
AcDbSymbolTableRecord
100
AcDbLinetypeTableRecord
  2
CENTERX2
 70
     0
  3
Center (2x) ________  __  ________  __  _____
 72
    65
 73
     4
 40
20.32
 49
12.7
 74
     0
 49
-2.54
 74
     0
 49
2.54
 74
     0
 49
-2.54
 74
     0
  0
LTYPE
  5
6E
330
5
100
AcDbSymbolTableRecord
100
AcDbLinetypeTableRecord
  2
DOT2
 70
     0
  3
Dot (.5x) ........................................
 72
    65
 73
     2
 40
0.635
 49
0.0
 74
     0
 49
-0.635
 74
     0
  0
ENDTAB
  0
TABLE
  2
LAYER
  5
2
102
{ACAD_XDICTIONARY
360
1E2
102
}
330
0
100
AcDbSymbolTable
 70
    18
  0
LAYER
  5
10
330
2
100
AcDbSymbolTableRecord
100
AcDbLayerTableRecord
  2
0
 70
     0
 62
     7
  6
Continuous
370
    -3
390
F
  0
LAYER
  5
6F
330
2
100
AcDbSymbolTableRecord
100
AcDbLayerTableRecord
  2
FORMAT
 70
     0
 62
     2
  6
Continuous
370
    -3
390
F
  0
LAYER
  5
70
330
2
100
AcDbSymbolTableRecord
100
AcDbLayerTableRecord
  2
외형선
 70
     0
 62
     4
  6
Continuous
370
    30
390
F
  0
LAYER
  5
71
330
2
100
AcDbSymbolTableRecord
100
AcDbLayerTableRecord
  2
숨은선
 70
     0
 62
     2
  6
HIDDEN
370
    15
390
F
  0
LAYER
  5
72
330
2
100
AcDbSymbolTableRecord
100
AcDbLayerTableRecord
  2
중심선
 70
     0
 62
     1
  6
CENTERX2
370
    -3
390
F
  0
LAYER
  5
73
330
2
100
AcDbSymbolTableRecord
100
AcDbLayerTableRecord
  2
파단선
 70
     0
 62
     4
  6
Continuous
370
    -3
390
F
  0
LAYER
  5
74
330
2
100
AcDbSymbolTableRecord
100
AcDbLayerTableRecord
  2
해칭선
 70
     0
 62
   100
  6
Continuous
370
    -3
390
F
  0
LAYER
  5
75
330
2
100
AcDbSymbolTableRecord
100
AcDbLayerTableRecord
  2
가는실선
 70
     0
 62
     4
  6
Continuous
370
    -3
390
F
  0
LAYER
  5
76
330
2
100
AcDbSymbolTableRecord
100
AcDbLayerTableRecord
  2
치수_보조선
 70
     0
 62
     4
  6
Continuous
370
    -3
390
F
  0
LAYER
  5
77
330
2
100
AcDbSymbolTableRecord
100
AcDbLayerTableRecord
  2
치수문자_일반주서
 70
     0
 62
     7
  6
Continuous
370
    15
390
F
  0
LAYER
  5
78
330
2
100
AcDbSymbolTableRecord
100
AcDbLayerTableRecord
  2
개별주서
 70
     0
 62
   100
  6
Continuous
370
    30
390
F
  0
LAYER
  5
79
330
2
100
AcDbSymbolTableRecord
100
AcDbLayerTableRecord
  2
중간선
 70
     0
 62
     2
  6
Continuous
370
    15
390
F
  0
LAYER
  5
7A
330
2
100
AcDbSymbolTableRecord
100
AcDbLayerTableRecord
  2
윤곽선
 70
     0
 62
     3
  6
Continuous
370
    40
390
F
  0
LAYER
  5
7B
330
2
100
AcDbSymbolTableRecord
100
AcDbLayerTableRecord
  2
중심마크
 70
     0
 62
   100
  6
Continuous
370
    30
390
F
  0
LAYER
  5
7C
330
2
100
AcDbSymbolTableRecord
100
AcDbLayerTableRecord
  2
가상선
 70
     0
 62
     4
  6
PHANTOM
370
    -3
390
F
  0
LAYER
  5
7D
330
2
100
AcDbSymbolTableRecord
100
AcDbLayerTableRecord
  2
특수지정선
 70
     0
 62
     5
  6
CENTERX2
370
    60
390
F
  0
LAYER
  5
7E
330
2
100
AcDbSymbolTableRecord
100
AcDbLayerTableRecord
  2
참조1
 70
     0
 62
    -4
  6
Continuous
370
    -3
390
F
  0
LAYER
  5
12A
330
2
100
AcDbSymbolTableRecord
100
AcDbLayerTableRecord
  2
Defpoints
 70
     0
 62
     7
  6
Continuous
290
     0
370
    -3
390
F
  0
ENDTAB
  0
TABLE
  2
STYLE
  5
3
330
0
100
AcDbSymbolTable
 70
     2
  0
STYLE
  5
11
330
3
100
AcDbSymbolTableRecord
100
AcDbTextStyleTableRecord
  2
Standard
 70
     0
 40
0.0
 41
1.0
 50
0.0
 71
     0
 42
3.5
  3
txt
  4

  0
STYLE
  5
94
330
3
100
AcDbSymbolTableRecord
100
AcDbTextStyleTableRecord
  2
SLDTEXTSTYLE0
 70
     0
 40
0.0
 41
0.75
 50
0.0
 71
     0
 42
3.5
  3
TXT
  4

  0
ENDTAB
  0
TABLE
  2
VIEW
  5
6
330
0
100
AcDbSymbolTable
 70
     0
  0
ENDTAB
  0
TABLE
  2
UCS
  5
7
330
0
100
AcDbSymbolTable
 70
     0
  0
ENDTAB
  0
TABLE
  2
APPID
  5
9
330
0
100
AcDbSymbolTable
 70
     1
  0
APPID
  5
12
330
9
100
AcDbSymbolTableRecord
100
AcDbRegAppTableRecord
  2
ACAD
 70
     0
  0
ENDTAB
  0
TABLE
  2
DIMSTYLE
  5
A
330
0
100
AcDbSymbolTable
 70
     3
100
AcDbDimStyleTable
  0
DIMSTYLE
105
27
330
A
100
AcDbSymbolTableRecord
100
AcDbDimStyleTableRecord
  2
ISO-25
 70
     0
 41
2.5
 42
0.625
 43
3.75
 44
1.25
 73
     0
 74
     0
 77
     1
 78
     8
140
2.5
141
2.5
143
0.03937007874016
147
0.625
171
     3
172
     1
178
     0
271
     2
272
     2
274
     3
278
    44
283
     0
284
     8
340
11
  0
DIMSTYLE
105
A8
102
{ACAD_REACTORS
330
196
330
1A3
330
1B0
330
1BD
330
213
330
214
330
215
330
216
102
}
330
A
100
AcDbSymbolTableRecord
100
AcDbDimStyleTableRecord
  2
SLDDIMSTYLE0
 70
     0
 41
3.302
 44
0.0
 45
0.000000001
 73
     0
 74
     0
 77
     1
 78
    12
 79
     3
140
3.5
143
0.0393700787401575
147
0.875
148
0.000000001
170
     1
172
     1
173
     1
178
     0
271
     2
272
     2
276
     2
284
    12
289
     0
340
94
  0
DIMSTYLE
105
D1
330
A
100
AcDbSymbolTableRecord
100
AcDbDimStyleTableRecord
  2
SLDDIMSTYLE1
 70
     0
 41
3.302
 44
0.0
 45
0.000000001
 73
     0
 74
     0
 77
     1
 78
    12
 79
     3
140
3.5
143
0.0393700787401575
147
0.875
148
0.000000001
170
     1
173
     1
178
     0
271
     2
272
     2
276
     2
284
    12
340
94
  0
ENDTAB
  0
TABLE
  2
BLOCK_RECORD
  5
1
330
0
100
AcDbSymbolTable
 70
    16
  0
BLOCK_RECORD
  5
1F
330
1
100
AcDbSymbolTableRecord
100
AcDbBlockTableRecord
  2
*Model_Space
340
22
  0
BLOCK_RECORD
  5
1B
330
1
100
AcDbSymbolTableRecord
100
AcDbBlockTableRecord
  2
*Paper_Space
340
1E
  0
BLOCK_RECORD
  5
23
330
1
100
AcDbSymbolTableRecord
100
AcDbBlockTableRecord
  2
*Paper_Space0
340
26
  0
BLOCK_RECORD
  5
7F
330
1
100
AcDbSymbolTableRecord
100
AcDbBlockTableRecord
  2
블럭10
340
0
102
{BLKREFS
331
A0
331
154
331
0
102
}
  0
BLOCK_RECORD
  5
A9
330
1
100
AcDbSymbolTableRecord
100
AcDbBlockTableRecord
  2
_D
340
0
  0
BLOCK_RECORD
  5
BD
330
1
100
AcDbSymbolTableRecord
100
AcDbBlockTableRecord
  2
_D_1
340
0
  0
BLOCK_RECORD
  5
D2
330
1
100
AcDbSymbolTableRecord
100
AcDbBlockTableRecord
  2
_D_2
340
0
  0
BLOCK_RECORD
  5
E5
330
1
100
AcDbSymbolTableRecord
100
AcDbBlockTableRecord
  2
_D_3
340
0
  0
BLOCK_RECORD
  5
FE
330
1
100
AcDbSymbolTableRecord
100
AcDbBlockTableRecord
  2
SW_DOWELSYMBOL_0
340
0
102
{BLKREFS
331
0
331
1CA
331
217
102
}
  0
BLOCK_RECORD
  5
197
330
1
100
AcDbSymbolTableRecord
100
AcDbBlockTableRecord
  2
*D8
340
0
  0
BLOCK_RECORD
  5
1A4
330
1
100
AcDbSymbolTableRecord
100
AcDbBlockTableRecord
  2
*D9
340
0
  0
BLOCK_RECORD
  5
1B1
330
1
100
AcDbSymbolTableRecord
100
AcDbBlockTableRecord
  2
*D10
340
0
  0
BLOCK_RECORD
  5
1BE
330
1
100
AcDbSymbolTableRecord
100
AcDbBlockTableRecord
  2
*D11
340
0
  0
BLOCK_RECORD
  5
229
330
1
100
AcDbSymbolTableRecord
100
AcDbBlockTableRecord
  2
*D12
340
0
  0
BLOCK_RECORD
  5
235
330
1
100
AcDbSymbolTableRecord
100
AcDbBlockTableRecord
  2
*D13
340
0
  0
BLOCK_RECORD
  5
241
330
1
100
AcDbSymbolTableRecord
100
AcDbBlockTableRecord
  2
*D14
340
0
  0
BLOCK_RECORD
  5
24D
330
1
100
AcDbSymbolTableRecord
100
AcDbBlockTableRecord
  2
*D15
340
0
  0
ENDTAB
  0
ENDSEC
  0
SECTION
  2
BLOCKS
  0
BLOCK
  5
20
330
1F
100
AcDbEntity
  8
0
100
AcDbBlockBegin
  2
*Model_Space
 70
     0
 10
0.0
 20
0.0
 30
0.0
  3
*Model_Space
  1
*Model_Space
  0
ENDBLK
  5
21
330
1F
100
AcDbEntity
  8
0
100
AcDbBlockEnd
  0
BLOCK
  5
1C
330
1B
100
AcDbEntity
 67
     1
  8
0
100
AcDbBlockBegin
  2
*Paper_Space
 70
     0
 10
0.0
 20
0.0
 30
0.0
  3
*Paper_Space
  1
*Paper_Space
  0
ENDBLK
  5
1D
330
1B
100
AcDbEntity
 67
     1
  8
0
100
AcDbBlockEnd
  0
BLOCK
  5
24
330
23
100
AcDbEntity
  8
0
100
AcDbBlockBegin
  2
*Paper_Space0
 70
     0
 10
0.0
 20
0.0
 30
0.0
  3
*Paper_Space0
  1
*Paper_Space0
  0
ENDBLK
  5
25
330
23
100
AcDbEntity
  8
0
100
AcDbBlockEnd
  0
BLOCK
  5
80
330
7F
100
AcDbEntity
  8
0
100
AcDbBlockBegin
  2
블럭10
 70
     2
 10
0.0
 20
0.0
 30
0.0
  3
블럭10
  1
블럭10
  0
ELLIPSE
  5
82
330
7F
100
AcDbEntity
  8
중심선
100
AcDbEllipse
 10
20.54032771741204
 20
12.0471743016438
 30
0.0
 11
6.600054785286829
 21
-1.261213355974178E-13
 31
0.0
210
0.0
220
0.0
230
1.0
 40
0.636358354079598
 41
0.9219305317359503
 42
6.513795318482858
  0
ELLIPSE
  5
83
330
7F
100
AcDbEntity
  8
중심선
100
AcDbEllipse
 10
20.54032771746488
 20
12.04717430159265
 30
0.0
 11
3.960054785062283
 21
1.540847449632565E-10
 31
0.0
210
0.0
220
0.0
230
1.0
 40
0.3939339440162632
 41
1.131841032648279
 42
5.62031148352944
  0
LINE
  5
84
330
7F
100
AcDbEntity
  8
중심선
100
AcDbLine
 10
2.268634060543552
 20
16.24717430164393
 30
0.0
 11
5.714909304380834
 21
16.24717430164393
 31
0.0
  0
LINE
  5
85
330
7F
100
AcDbEntity
  8
중심선
100
AcDbLine
 10
5.245725140726316
 20
7.84717430164391
 30
0.0
 11
8.692000384563599
 21
7.84717430164391
 31
0.0
  0
LINE
  5
86
330
7F
100
AcDbEntity
  8
중심선
100
AcDbLine
 10
15.74043728645272
 20
16.24717430164393
 30
0.0
 11
8.692000384563599
 21
7.84717430164391
 31
0.0
  0
LINE
  5
87
330
7F
100
AcDbEntity
  8
중심선
100
AcDbLine
 10
0.1404042013395286
 20
13.71084872107135
 30
0.0
 11
3.58671253028996
 21
13.71088815037384
 31
0.0
  0
LINE
  5
88
330
7F
100
AcDbEntity
  8
중심선
100
AcDbLine
 10
2.750260043222114
 20
10.84717430164391
 30
0.0
 11
6.196535287059397
 21
10.84717430164391
 31
0.0
  0
LINE
  5
89
330
7F
100
AcDbEntity
  8
중심선
100
AcDbLine
 10
12.29416204261559
 20
16.24717430164393
 30
0.0
 11
5.245725140726316
 21
7.84717430164391
 31
0.0
  0
LINE
  5
8A
330
7F
100
AcDbEntity
  8
중심선
100
AcDbLine
 10
10.72767329541681
 20
16.24717430164393
 30
0.0
 11
6.196535287059397
 21
10.84717430164391
 31
0.0
  0
LINE
  5
8B
330
7F
100
AcDbEntity
  8
중심선
100
AcDbLine
 10
7.28139805157953
 20
16.24717430164393
 30
0.0
 11
2.750260043222114
 21
10.84717430164391
 31
0.0
  0
LINE
  5
8C
330
7F
100
AcDbEntity
  8
중심선
100
AcDbLine
 10
5.714909304380834
 20
16.24717430164393
 30
0.0
 11
3.58671253028996
 21
13.71088815037384
 31
0.0
  0
LINE
  5
8D
330
7F
100
AcDbEntity
  8
중심선
100
AcDbLine
 10
2.268634060543552
 20
16.24717430164393
 30
0.0
 11
0.1404042013395286
 21
13.71084872107135
 31
0.0
  0
LINE
  5
8E
330
7F
100
AcDbEntity
  8
중심선
100
AcDbLine
 10
7.28139805157953
 20
16.24717430164393
 30
0.0
 11
10.72767329541681
 21
16.24717430164393
 31
0.0
  0
LINE
  5
8F
330
7F
100
AcDbEntity
  8
중심선
100
AcDbLine
 10
12.29416204261559
 20
16.24717430164393
 30
0.0
 11
15.74043728645272
 21
16.24717430164393
 31
0.0
  0
LINE
  5
90
330
7F
100
AcDbEntity
  8
중심선
100
AcDbLine
 10
19.22036997980202
 20
11.08717430171403
 30
0.0
 11
23.66174974927406
 21
11.08717430171406
 31
0.0
  0
LINE
  5
91
330
7F
100
AcDbEntity
  8
중심선
100
AcDbLine
 10
19.22039502424796
 20
13.00717430171391
 30
0.0
 11
19.22036997980202
 21
11.08717430171403
 31
0.0
  0
LINE
  5
92
330
7F
100
AcDbEntity
  8
중심선
100
AcDbLine
 10
19.22039502424796
 20
13.00717430171391
 30
0.0
 11
26.96566020931264
 21
13.00717430171391
 31
0.0
  0
LINE
  5
93
330
7F
100
AcDbEntity
  8
중심선
100
AcDbLine
 10
22.22332737316547
 20
13.45928029700563
 30
0.0
 11
24.52862924686651
 21
15.39360700705356
 31
0.0
  0
ATTDEF
  5
95
330
7F
100
AcDbEntity
  8
FORMAT
 62
     2
100
AcDbText
 10
4.408487351596664
 20
2.075366912832191
 30
0.0
 40
4.233333333333333
  1
E2032148
 41
0.75
  7
SLDTEXTSTYLE0
 11
4.408487351596664
 21
-0.0412997538344756
 31
0.0
100
AcDbAttributeDefinition
  3

  2
AUTOATTR0
 70
     0
 74
     1
  0
ENDBLK
  5
81
330
7F
100
AcDbEntity
  8
0
100
AcDbBlockEnd
  0
BLOCK
  5
AA
330
A9
100
AcDbEntity
  8
0
100
AcDbBlockBegin
  2
_D
 70
     0
 10
0.0
 20
0.0
 30
0.0
  3
_D
  1
_D
  0
SOLID
  5
AC
330
A9
100
AcDbEntity
  8
치수문자_일반주서
100
AcDbTrace
 10
97.9119459855236
 20
12.5010749287239
 30
0.0
 11
98.4199459855236
 21
15.80307492872389
 31
0.0
 12
97.4039459855236
 22
15.80307492872389
 32
0.0
 13
97.4039459855236
 23
15.80307492872389
 33
0.0
  0
SOLID
  5
AD
330
A9
100
AcDbEntity
  8
치수문자_일반주서
100
AcDbTrace
 10
97.9119459855236
 20
-12.49892507127611
 30
0.0
 11
97.4039459855236
 21
-15.80092507127611
 31
0.0
 12
98.4199459855236
 22
-15.80092507127611
 32
0.0
 13
98.4199459855236
 23
-15.80092507127611
 33
0.0
  0
LINE
  5
AE
330
A9
100
AcDbEntity
  8
치수문자_일반주서
100
AcDbLine
 10
87.11906426948089
 20
-5.413291502344828
 30
0.0
 11
87.11906426948089
 21
-6.124228987909328
 31
0.0
  0
LINE
  5
AF
330
A9
100
AcDbEntity
  8
치수문자_일반주서
100
AcDbLine
 10
87.11906426948089
 20
-6.124228987909328
 30
0.0
 11
92.67531426054019
 21
-6.124228987909289
 31
0.0
  0
LINE
  5
B0
330
A9
100
AcDbEntity
  8
치수문자_일반주서
100
AcDbLine
 10
92.67531426054019
 20
-6.124228987909289
 30
0.0
 11
92.67531426054019
 21
-5.413291502344789
 31
0.0
  0
LINE
  5
B1
330
A9
100
AcDbEntity
  8
치수문자_일반주서
100
AcDbLine
 10
87.1190642694808
 20
5.41544135979243
 30
0.0
 11
87.1190642694808
 21
6.12637884535693
 31
0.0
  0
LINE
  5
B2
330
A9
100
AcDbEntity
  8
치수문자_일반주서
100
AcDbLine
 10
87.1190642694808
 20
6.12637884535693
 30
0.0
 11
92.6753142605401
 21
6.126378845356969
 31
0.0
  0
LINE
  5
B3
330
A9
100
AcDbEntity
  8
치수문자_일반주서
100
AcDbLine
 10
92.6753142605401
 20
6.126378845356969
 30
0.0
 11
92.6753142605401
 21
5.415441359792469
 31
0.0
  0
LINE
  5
B4
330
A9
100
AcDbEntity
  8
치수문자_일반주서
100
AcDbLine
 10
79.91194598552357
 20
12.5010749287239
 30
0.0
 11
98.9119459855236
 21
12.5010749287239
 31
0.0
  0
LINE
  5
B5
330
A9
100
AcDbEntity
  8
치수문자_일반주서
100
AcDbLine
 10
79.91194598552357
 20
-12.49892507127611
 30
0.0
 11
98.9119459855236
 21
-12.49892507127611
 31
0.0
  0
LINE
  5
B6
330
A9
100
AcDbEntity
  8
치수문자_일반주서
100
AcDbLine
 10
97.9119459855236
 20
12.5010749287239
 30
0.0
 11
97.9119459855236
 21
18.8510749287239
 31
0.0
  0
LINE
  5
B7
330
A9
100
AcDbEntity
  8
치수문자_일반주서
100
AcDbLine
 10
97.9119459855236
 20
12.5010749287239
 30
0.0
 11
97.9119459855236
 21
-12.49892507127611
 31
0.0
  0
LINE
  5
B8
330
A9
100
AcDbEntity
  8
치수문자_일반주서
100
AcDbLine
 10
97.9119459855236
 20
-12.49892507127611
 30
0.0
 11
97.9119459855236
 21
-18.84892507127611
 31
0.0
  0
MTEXT
  5
B9
330
A9
100
AcDbEntity
  8
치수문자_일반주서
100
AcDbMText
 10
88.16357734596129
 20
-4.52461960173345
 30
0.0
 40
3.5
 41
0.0
 71
     1
 72
     1
  1
0.98
  7
SLDTEXTSTYLE0
 11
-7.044195017643634E-15
 21
1.0
 31
0.0
 73
     1
 44
1.0
  0
MTEXT
  5
BA
330
A9
100
AcDbEntity
  8
치수문자_일반주서
100
AcDbMText
 10
93.40020889632177
 20
-5.22425519681665
 30
0.0
 40
3.5
 41
0.0
 71
     1
 72
     1
  1
%%c
  7
SLDTEXTSTYLE0
 11
-7.044195017643634E-15
 21
1.0
 31
0.0
 73
     1
 44
1.0
  0
MTEXT
  5
BB
330
A9
100
AcDbEntity
  8
치수문자_일반주서
100
AcDbMText
 10
93.40020889632173
 20
0.0541822015574309
 30
0.0
 40
3.5
 41
0.0
 71
     1
 72
     1
  1
25
  7
SLDTEXTSTYLE0
 11
-7.044195017643634E-15
 21
1.0
 31
0.0
 73
     1
 44
1.0
  0
ENDBLK
  5
AB
330
A9
100
AcDbEntity
  8
0
100
AcDbBlockEnd
  0
BLOCK
  5
BE
330
BD
100
AcDbEntity
  8
0
100
AcDbBlockBegin
  2
_D_1
 70
     0
 10
0.0
 20
0.0
 30
0.0
  3
_D_1
  1
_D_1
  0
SOLID
  5
C0
330
BD
100
AcDbEntity
  8
치수문자_일반주서
100
AcDbTrace
 10
-55.08805401447646
 20
7.938574928723906
 30
0.0
 11
-54.58005401447646
 21
11.24057492872391
 31
0.0
 12
-55.59605401447646
 22
11.24057492872391
 32
0.0
 13
-55.59605401447646
 23
11.24057492872391
 33
0.0
  0
SOLID
  5
C1
330
BD
100
AcDbEntity
  8
치수문자_일반주서
100
AcDbTrace
 10
-55.08805401447646
 20
-7.936425071276123
 30
0.0
 11
-55.59605401447646
 21
-11.23842507127612
 31
0.0
 12
-54.58005401447646
 22
-11.23842507127612
 32
0.0
 13
-54.58005401447646
 23
-11.23842507127612
 33
0.0
  0
LINE
  5
C2
330
BD
100
AcDbEntity
  8
치수문자_일반주서
100
AcDbLine
 10
-65.88093573051917
 20
-6.595745043212554
 30
0.0
 11
-65.88093573051917
 21
-7.306682528777054
 31
0.0
  0
LINE
  5
C3
330
BD
100
AcDbEntity
  8
치수문자_일반주서
100
AcDbLine
 10
-65.88093573051917
 20
-7.306682528777054
 30
0.0
 11
-60.32468573945987
 21
-7.306682528777015
 31
0.0
  0
LINE
  5
C4
330
BD
100
AcDbEntity
  8
치수문자_일반주서
100
AcDbLine
 10
-60.32468573945987
 20
-7.306682528777015
 30
0.0
 11
-60.32468573945987
 21
-6.595745043212514
 31
0.0
  0
LINE
  5
C5
330
BD
100
AcDbEntity
  8
치수문자_일반주서
100
AcDbLine
 10
-65.88093573051925
 20
4.232987818924705
 30
0.0
 11
-65.88093573051925
 21
4.943925304489205
 31
0.0
  0
LINE
  5
C6
330
BD
100
AcDbEntity
  8
치수문자_일반주서
100
AcDbLine
 10
-65.88093573051925
 20
4.943925304489205
 30
0.0
 11
-60.32468573945995
 21
4.943925304489244
 31
0.0
  0
LINE
  5
C7
330
BD
100
AcDbEntity
  8
치수문자_일반주서
100
AcDbLine
 10
-60.32468573945995
 20
4.943925304489244
 30
0.0
 11
-60.32468573945994
 21
4.232987818924744
 31
0.0
  0
LINE
  5
C8
330
BD
100
AcDbEntity
  8
치수문자_일반주서
100
AcDbLine
 10
-41.50055401447643
 20
7.938574928723908
 30
0.0
 11
-56.08805401447646
 21
7.938574928723906
 31
0.0
  0
LINE
  5
C9
330
BD
100
AcDbEntity
  8
치수문자_일반주서
100
AcDbLine
 10
-41.50055401447643
 20
-7.936425071276121
 30
0.0
 11
-56.08805401447646
 21
-7.936425071276123
 31
0.0
  0
LINE
  5
CA
330
BD
100
AcDbEntity
  8
치수문자_일반주서
100
AcDbLine
 10
-55.08805401447646
 20
7.938574928723906
 30
0.0
 11
-55.08805401447646
 21
14.28857492872391
 31
0.0
  0
LINE
  5
CB
330
BD
100
AcDbEntity
  8
치수문자_일반주서
100
AcDbLine
 10
-55.08805401447646
 20
7.938574928723906
 30
0.0
 11
-55.08805401447646
 21
-7.936425071276123
 31
0.0
  0
LINE
  5
CC
330
BD
100
AcDbEntity
  8
치수문자_일반주서
100
AcDbLine
 10
-55.08805401447646
 20
-7.936425071276123
 30
0.0
 11
-55.08805401447646
 21
-14.28642507127612
 31
0.0
  0
MTEXT
  5
CD
330
BD
100
AcDbEntity
  8
치수문자_일반주서
100
AcDbMText
 10
-64.83642265403878
 20
-5.707073142601175
 30
0.0
 40
3.5
 41
0.0
 71
     1
 72
     1
  1
0.63
  7
SLDTEXTSTYLE0
 11
-7.044195017643634E-15
 21
1.0
 31
0.0
 73
     1
 44
1.0
  0
MTEXT
  5
CE
330
BD
100
AcDbEntity
  8
치수문자_일반주서
100
AcDbMText
 10
-59.59979110367827
 20
-9.639347554964907
 30
0.0
 40
3.5
 41
0.0
 71
     1
 72
     1
  1
%%c
  7
SLDTEXTSTYLE0
 11
-7.044195017643634E-15
 21
1.0
 31
0.0
 73
     1
 44
1.0
  0
MTEXT
  5
CF
330
BD
100
AcDbEntity
  8
치수문자_일반주서
100
AcDbMText
 10
-59.59979110367831
 20
-4.360910156590827
 30
0.0
 40
3.5
 41
0.0
 71
     1
 72
     1
  1
15.88
  7
SLDTEXTSTYLE0
 11
-7.044195017643634E-15
 21
1.0
 31
0.0
 73
     1
 44
1.0
  0
ENDBLK
  5
BF
330
BD
100
AcDbEntity
  8
0
100
AcDbBlockEnd
  0
BLOCK
  5
D3
330
D2
100
AcDbEntity
  8
0
100
AcDbBlockBegin
  2
_D_2
 70
     0
 10
0.0
 20
0.0
 30
0.0
  3
_D_2
  1
_D_2
  0
SOLID
  5
D5
330
D2
100
AcDbEntity
  8
치수문자_일반주서
100
AcDbTrace
 10
78.9119459855236
 20
22.33656116902758
 30
0.0
 11
75.60994598552361
 21
22.84456116902758
 31
0.0
 12
75.60994598552361
 22
21.82856116902758
 32
0.0
 13
75.60994598552361
 23
21.82856116902758
 33
0.0
  0
SOLID
  5
D6
330
D2
100
AcDbEntity
  8
치수문자_일반주서
100
AcDbTrace
 10
33.9119459855236
 20
22.3365611690276
 30
0.0
 11
37.2139459855236
 21
21.8285611690276
 31
0.0
 12
37.2139459855236
 22
22.8445611690276
 32
0.0
 13
37.2139459855236
 23
22.8445611690276
 33
0.0
  0
LINE
  5
D7
330
D2
100
AcDbEntity
  8
치수문자_일반주서
100
AcDbLine
 10
50.99757990370091
 20
33.12944288507032
 30
0.0
 11
50.28664241813641
 21
33.12944288507033
 31
0.0
  0
LINE
  5
D8
330
D2
100
AcDbEntity
  8
치수문자_일반주서
100
AcDbLine
 10
50.28664241813641
 20
33.12944288507033
 30
0.0
 11
50.28664241813637
 21
27.57319289401102
 31
0.0
  0
LINE
  5
D9
330
D2
100
AcDbEntity
  8
치수문자_일반주서
100
AcDbLine
 10
50.28664241813637
 20
27.57319289401102
 30
0.0
 11
50.99757990370087
 21
27.57319289401102
 31
0.0
  0
LINE
  5
DA
330
D2
100
AcDbEntity
  8
치수문자_일반주서
100
AcDbLine
 10
61.82631276583817
 20
33.12944288507024
 30
0.0
 11
62.53725025140267
 21
33.12944288507023
 31
0.0
  0
LINE
  5
DB
330
D2
100
AcDbEntity
  8
치수문자_일반주서
100
AcDbLine
 10
62.53725025140267
 20
33.12944288507023
 30
0.0
 11
62.53725025140263
 21
27.57319289401093
 31
0.0
  0
LINE
  5
DC
330
D2
100
AcDbEntity
  8
치수문자_일반주서
100
AcDbLine
 10
62.53725025140263
 20
27.57319289401093
 30
0.0
 11
61.82631276583813
 21
27.57319289401094
 31
0.0
  0
LINE
  5
DD
330
D2
100
AcDbEntity
  8
치수문자_일반주서
100
AcDbLine
 10
78.9119459855236
 20
13.04623741649756
 30
0.0
 11
78.9119459855236
 21
23.33656116902758
 31
0.0
  0
LINE
  5
DE
330
D2
100
AcDbEntity
  8
치수문자_일반주서
100
AcDbLine
 10
33.91194598552359
 20
13.50102630229547
 30
0.0
 11
33.9119459855236
 21
23.3365611690276
 31
0.0
  0
LINE
  5
DF
330
D2
100
AcDbEntity
  8
치수문자_일반주서
100
AcDbLine
 10
78.9119459855236
 20
22.33656116902758
 30
0.0
 11
33.9119459855236
 21
22.3365611690276
 31
0.0
  0
MTEXT
  5
E0
330
D2
100
AcDbEntity
  8
치수문자_일반주서
100
AcDbMText
 10
49.77288369264966
 20
26.90177043488931
 30
0.0
 40
3.5
 41
0.0
 71
     1
 72
     1
  1

  7
SLDTEXTSTYLE0
 73
     1
 44
1.0
  0
MTEXT
  5
E1
330
D2
100
AcDbEntity
  8
치수문자_일반주서
100
AcDbMText
 10
51.88625180431227
 20
32.08492980858991
 30
0.0
 40
3.5
 41
0.0
 71
     1
 72
     1
  1
1.77
  7
SLDTEXTSTYLE0
 73
     1
 44
1.0
  0
MTEXT
  5
E2
330
D2
100
AcDbEntity
  8
치수문자_일반주서
100
AcDbMText
 10
53.82583514124668
 20
26.84829825822942
 30
0.0
 40
3.5
 41
0.0
 71
     1
 72
     1
  1
45
  7
SLDTEXTSTYLE0
 73
     1
 44
1.0
  0
MTEXT
  5
E3
330
D2
100
AcDbEntity
  8
치수문자_일반주서
100
AcDbMText
 10
64.38295349654321
 20
26.9017704348892
 30
0.0
 40
3.5
 41
0.0
 71
     1
 72
     1
  1

  7
SLDTEXTSTYLE0
 73
     1
 44
1.0
  0
ENDBLK
  5
D4
330
D2
100
AcDbEntity
  8
0
100
AcDbBlockEnd
  0
BLOCK
  5
E6
330
E5
100
AcDbEntity
  8
0
100
AcDbBlockBegin
  2
_D_3
 70
     0
 10
0.0
 20
0.0
 30
0.0
  3
_D_3
  1
_D_3
  0
SOLID
  5
E8
330
E5
100
AcDbEntity
  8
치수문자_일반주서
100
AcDbTrace
 10
78.91194598552357
 20
38.36394344956528
 30
0.0
 11
75.60994598552358
 21
38.87194344956529
 31
0.0
 12
75.60994598552358
 22
37.85594344956528
 32
0.0
 13
75.60994598552358
 23
37.85594344956528
 33
0.0
  0
SOLID
  5
E9
330
E5
100
AcDbEntity
  8
치수문자_일반주서
100
AcDbTrace
 10
-42.08805401447642
 20
38.36394344956528
 30
0.0
 11
-38.78605401447642
 21
37.85594344956527
 31
0.0
 12
-38.78605401447642
 22
38.87194344956528
 32
0.0
 13
-38.78605401447642
 23
38.87194344956528
 33
0.0
  0
LINE
  5
EA
330
E5
100
AcDbEntity
  8
치수문자_일반주서
100
AcDbLine
 10
14.47912979228456
 20
49.15682516560803
 30
0.0
 11
13.76819230672006
 21
49.15682516560804
 31
0.0
  0
LINE
  5
EB
330
E5
100
AcDbEntity
  8
치수문자_일반주서
100
AcDbLine
 10
13.76819230672006
 20
49.15682516560804
 30
0.0
 11
13.76819230672002
 21
43.60057517454874
 31
0.0
  0
LINE
  5
EC
330
E5
100
AcDbEntity
  8
치수문자_일반주서
100
AcDbLine
 10
13.76819230672002
 20
43.60057517454874
 30
0.0
 11
14.47912979228452
 21
43.60057517454873
 31
0.0
  0
LINE
  5
ED
330
E5
100
AcDbEntity
  8
치수문자_일반주서
100
AcDbLine
 10
25.30786265442182
 20
49.15682516560796
 30
0.0
 11
26.01880013998632
 21
49.15682516560796
 31
0.0
  0
LINE
  5
EE
330
E5
100
AcDbEntity
  8
치수문자_일반주서
100
AcDbLine
 10
26.01880013998632
 20
49.15682516560796
 30
0.0
 11
26.01880013998629
 21
43.60057517454865
 31
0.0
  0
LINE
  5
EF
330
E5
100
AcDbEntity
  8
치수문자_일반주서
100
AcDbLine
 10
26.01880013998629
 20
43.60057517454865
 30
0.0
 11
25.30786265442179
 21
43.60057517454866
 31
0.0
  0
LINE
  5
F0
330
E5
100
AcDbEntity
  8
치수문자_일반주서
100
AcDbLine
 10
78.91194598552357
 20
13.21639659633511
 30
0.0
 11
78.91194598552357
 21
39.36394344956528
 31
0.0
  0
LINE
  5
F1
330
E5
100
AcDbEntity
  8
치수문자_일반주서
100
AcDbLine
 10
-42.08805401447642
 20
7.351074928723897
 30
0.0
 11
-42.08805401447642
 21
39.36394344956528
 31
0.0
  0
LINE
  5
F2
330
E5
100
AcDbEntity
  8
치수문자_일반주서
100
AcDbLine
 10
78.91194598552357
 20
38.36394344956528
 30
0.0
 11
-42.08805401447642
 21
38.36394344956528
 31
0.0
  0
MTEXT
  5
F3
330
E5
100
AcDbEntity
  8
치수문자_일반주서
100
AcDbMText
 10
13.25443358123332
 20
42.92915271542702
 30
0.0
 40
3.5
 41
0.0
 71
     1
 72
     1
  1

  7
SLDTEXTSTYLE0
 73
     1
 44
1.0
  0
MTEXT
  5
F4
330
E5
100
AcDbEntity
  8
치수문자_일반주서
100
AcDbMText
 10
15.36780169289593
 20
48.11231208912763
 30
0.0
 40
3.5
 41
0.0
 71
     1
 72
     1
  1
4.76
  7
SLDTEXTSTYLE0
 73
     1
 44
1.0
  0
MTEXT
  5
F5
330
E5
100
AcDbEntity
  8
치수문자_일반주서
100
AcDbMText
 10
16.01432954948426
 20
42.87568053876715
 30
0.0
 40
3.5
 41
0.0
 71
     1
 72
     1
  1
121
  7
SLDTEXTSTYLE0
 73
     1
 44
1.0
  0
MTEXT
  5
F6
330
E5
100
AcDbEntity
  8
치수문자_일반주서
100
AcDbMText
 10
27.86450338512689
 20
42.92915271542692
 30
0.0
 40
3.5
 41
0.0
 71
     1
 72
     1
  1

  7
SLDTEXTSTYLE0
 73
     1
 44
1.0
  0
ENDBLK
  5
E7
330
E5
100
AcDbEntity
  8
0
100
AcDbBlockEnd
  0
BLOCK
  5
FF
330
FE
100
AcDbEntity
  8
0
100
AcDbBlockBegin
  2
SW_DOWELSYMBOL_0
 70
     0
 10
0.0
 20
0.0
 30
0.0
  3
SW_DOWELSYMBOL_0
  1
SW_DOWELSYMBOL_0
  0
CIRCLE
  5
101
330
FE
100
AcDbEntity
  8
해칭선
 62
     0
100
AcDbCircle
 10
0.0
 20
0.0
 30
0.0
 40
3.000000000000001
  0
HATCH
  5
102
330
FE
100
AcDbEntity
  8
0
  6
Continuous
 62
     0
370
     0
100
AcDbHatch
 10
0.0
 20
0.0
 30
0.0
210
0.0
220
0.0
230
1.0
  2
SOLID
 70
     1
 71
     0
 91
        1
 92
        0
 93
        3
 72
     2
 10
0.0
 20
0.0
 40
3.000000000000001
 50
0.0
 51
90.0
 73
     1
 72
     1
 10
0.0
 20
3.000000000000001
 11
0.0
 21
0.0
 72
     1
 10
0.0
 20
0.0
 11
3.000000000000001
 21
0.0
 97
        0
 75
     0
 76
     1
 98
        1
 10
0.0
 20
0.0
  0
HATCH
  5
103
330
FE
100
AcDbEntity
  8
0
  6
Continuous
 62
     0
370
     0
100
AcDbHatch
 10
0.0
 20
0.0
 30
0.0
210
0.0
220
0.0
230
1.0
  2
SOLID
 70
     1
 71
     0
 91
        1
 92
        0
 93
        3
 72
     2
 10
0.0
 20
0.0
 40
3.000000000000001
 50
180.0
 51
270.0000000000008
 73
     1
 72
     1
 10
0.0
 20
-3.000000000000001
 11
0.0
 21
0.0
 72
     1
 10
0.0
 20
0.0
 11
-3.000000000000001
 21
0.0
 97
        0
 75
     0
 76
     1
 98
        1
 10
0.0
 20
0.0
  0
ENDBLK
  5
100
330
FE
100
AcDbEntity
  8
0
100
AcDbBlockEnd
  0
BLOCK
  5
198
330
197
100
AcDbEntity
  8
0
100
AcDbBlockBegin
  2
*D8
 70
     1
 10
0.0
 20
0.0
 30
0.0
  3
*D8
  1
*D8
  0
LINE
  5
199
330
197
100
AcDbEntity
  8
치수문자_일반주서
 62
     0
370
    -2
100
AcDbLine
 10
15.72500000000004
 20
65.84573246008783
 30
0.0
 11
4.374999999999988
 21
65.84573246008779
 31
0.0
  0
LINE
  5
19A
330
197
100
AcDbEntity
  8
치수문자_일반주서
 62
     0
370
    -2
100
AcDbLine
 10
18.90000000000008
 20
34.09573246008785
 30
0.0
 11
4.375000000000099
 21
34.09573246008779
 31
0.0
  0
LINE
  5
19B
330
197
100
AcDbEntity
  8
치수문자_일반주서
 62
     0
370
    -2
100
AcDbLine
 10
4.374999999999999
 20
62.54373246008779
 30
0.0
 11
4.375000000000087
 21
37.39773246008779
 31
0.0
  0
SOLID
  5
19C
330
197
100
AcDbEntity
  8
치수문자_일반주서
 62
     0
100
AcDbTrace
 10
4.925333333333333
 20
62.54373246008779
 30
0.0
 11
3.824666666666666
 21
62.54373246008779
 31
0.0
 12
4.374999999999988
 22
65.84573246008779
 32
0.0
 13
4.374999999999988
 23
65.84573246008779
 33
0.0
  0
SOLID
  5
19D
330
197
100
AcDbEntity
  8
치수문자_일반주서
 62
     0
100
AcDbTrace
 10
3.824666666666754
 20
37.39773246008779
 30
0.0
 11
4.925333333333421
 21
37.39773246008779
 31
0.0
 12
4.375000000000099
 22
34.09573246008779
 32
0.0
 13
4.375000000000099
 23
34.09573246008779
 33
0.0
  0
MTEXT
  5
19E
330
197
100
AcDbEntity
  8
치수문자_일반주서
 62
     0
100
AcDbMText
 10
0.0000000000000426
 20
49.97073246008783
 30
0.0
 40
3.5
 41
0.0
 71
     2
 72
     1
  1
\A1;%%c31.75 [1 1/4]
  7
SLDTEXTSTYLE0
 11
-3.496765431890257E-15
 21
1.0
 31
0.0
 73
     1
 44
1.0
  0
POINT
  5
19F
330
197
100
AcDbEntity
  8
Defpoints
 62
     0
100
AcDbPoint
 10
15.78750000000004
 20
65.84573246008783
 30
0.0
  0
POINT
  5
1A0
330
197
100
AcDbEntity
  8
Defpoints
 62
     0
100
AcDbPoint
 10
18.96250000000008
 20
34.09573246008785
 30
0.0
  0
POINT
  5
1A1
330
197
100
AcDbEntity
  8
Defpoints
 62
     0
100
AcDbPoint
 10
4.375000000000099
 20
34.09573246008779
 30
0.0
  0
ENDBLK
  5
1A2
330
197
100
AcDbEntity
  8
0
100
AcDbBlockEnd
  0
BLOCK
  5
1A5
330
1A4
100
AcDbEntity
  8
0
100
AcDbBlockBegin
  2
*D9
 70
     1
 10
0.0
 20
0.0
 30
0.0
  3
*D9
  1
*D9
  0
LINE
  5
1A6
330
1A4
100
AcDbEntity
  8
치수문자_일반주서
 62
     0
370
    -2
100
AcDbLine
 10
130.0875
 20
69.08323246008783
 30
0.0
 11
130.0875
 21
95.9296999035244
 31
0.0
  0
LINE
  5
1A7
330
1A4
100
AcDbEntity
  8
치수문자_일반주서
 62
     0
370
    -2
100
AcDbLine
 10
79.28750000000007
 20
67.90207300685668
 30
0.0
 11
79.28750000000007
 21
95.9296999035244
 31
0.0
  0
LINE
  5
1A8
330
1A4
100
AcDbEntity
  8
치수문자_일반주서
 62
     0
370
    -2
100
AcDbLine
 10
126.7855
 20
95.9296999035244
 30
0.0
 11
82.58950000000007
 21
95.9296999035244
 31
0.0
  0
SOLID
  5
1A9
330
1A4
100
AcDbEntity
  8
치수문자_일반주서
 62
     0
100
AcDbTrace
 10
126.7855
 20
95.37936657019107
 30
0.0
 11
126.7855
 21
96.48003323685772
 31
0.0
 12
130.0875
 22
95.9296999035244
 32
0.0
 13
130.0875
 23
95.9296999035244
 33
0.0
  0
SOLID
  5
1AA
330
1A4
100
AcDbEntity
  8
치수문자_일반주서
 62
     0
100
AcDbTrace
 10
82.58950000000007
 20
96.48003323685772
 30
0.0
 11
82.58950000000007
 21
95.37936657019107
 31
0.0
 12
79.28750000000007
 22
95.9296999035244
 32
0.0
 13
79.28750000000007
 23
95.9296999035244
 33
0.0
  0
MTEXT
  5
1AB
330
1A4
100
AcDbEntity
  8
치수문자_일반주서
 62
     0
100
AcDbMText
 10
99.60750000000006
 20
100.3046999035244
 30
0.0
 40
3.5
 41
0.0
 71
     2
 72
     1
  1
\A1;50.8 [2]
  7
SLDTEXTSTYLE0
 73
     1
 44
1.0
  0
POINT
  5
1AC
330
1A4
100
AcDbEntity
  8
Defpoints
 62
     0
100
AcDbPoint
 10
130.0875
 20
69.02073246008783
 30
0.0
  0
POINT
  5
1AD
330
1A4
100
AcDbEntity
  8
Defpoints
 62
     0
100
AcDbPoint
 10
79.28750000000007
 20
67.83957300685668
 30
0.0
  0
POINT
  5
1AE
330
1A4
100
AcDbEntity
  8
Defpoints
 62
     0
100
AcDbPoint
 10
79.28750000000007
 20
95.9296999035244
 30
0.0
  0
ENDBLK
  5
1AF
330
1A4
100
AcDbEntity
  8
0
100
AcDbBlockEnd
  0
BLOCK
  5
1B2
330
1B1
100
AcDbEntity
  8
0
100
AcDbBlockBegin
  2
*D10
 70
     1
 10
0.0
 20
0.0
 30
0.0
  3
*D10
  1
*D10
  0
LINE
  5
1B3
330
1B1
100
AcDbEntity
  8
치수문자_일반주서
 62
     0
370
    -2
100
AcDbLine
 10
130.0875
 20
69.08323246008783
 30
0.0
 11
130.0875
 21
110.3296999035244
 31
0.0
  0
LINE
  5
1B4
330
1B1
100
AcDbEntity
  8
치수문자_일반주서
 62
     0
370
    -2
100
AcDbLine
 10
15.78750000000004
 20
62.73323246008786
 30
0.0
 11
15.78750000000004
 21
110.3296999035244
 31
0.0
  0
LINE
  5
1B5
330
1B1
100
AcDbEntity
  8
치수문자_일반주서
 62
     0
370
    -2
100
AcDbLine
 10
126.7855
 20
110.3296999035244
 30
0.0
 11
19.08950000000004
 21
110.3296999035244
 31
0.0
  0
SOLID
  5
1B6
330
1B1
100
AcDbEntity
  8
치수문자_일반주서
 62
     0
100
AcDbTrace
 10
126.7855
 20
109.779366570191
 30
0.0
 11
126.7855
 21
110.8800332368577
 31
0.0
 12
130.0875
 22
110.3296999035244
 32
0.0
 13
130.0875
 23
110.3296999035244
 33
0.0
  0
SOLID
  5
1B7
330
1B1
100
AcDbEntity
  8
치수문자_일반주서
 62
     0
100
AcDbTrace
 10
19.08950000000004
 20
110.8800332368577
 30
0.0
 11
19.08950000000004
 21
109.779366570191
 31
0.0
 12
15.78750000000004
 22
110.3296999035244
 32
0.0
 13
15.78750000000004
 23
110.3296999035244
 33
0.0
  0
MTEXT
  5
1B8
330
1B1
100
AcDbEntity
  8
치수문자_일반주서
 62
     0
100
AcDbMText
 10
61.50750000000006
 20
114.7046999035244
 30
0.0
 40
3.5
 41
0.0
 71
     2
 72
     1
  1
\A1;114.3 [4 1/2]
  7
SLDTEXTSTYLE0
 73
     1
 44
1.0
  0
POINT
  5
1B9
330
1B1
100
AcDbEntity
  8
Defpoints
 62
     0
100
AcDbPoint
 10
130.0875
 20
69.02073246008783
 30
0.0
  0
POINT
  5
1BA
330
1B1
100
AcDbEntity
  8
Defpoints
 62
     0
100
AcDbPoint
 10
15.78750000000004
 20
62.67073246008786
 30
0.0
  0
POINT
  5
1BB
330
1B1
100
AcDbEntity
  8
Defpoints
 62
     0
100
AcDbPoint
 10
15.78750000000004
 20
110.3296999035244
 30
0.0
  0
ENDBLK
  5
1BC
330
1B1
100
AcDbEntity
  8
0
100
AcDbBlockEnd
  0
BLOCK
  5
1BF
330
1BE
100
AcDbEntity
  8
0
100
AcDbBlockBegin
  2
*D11
 70
     1
 10
0.0
 20
0.0
 30
0.0
  3
*D11
  1
*D11
  0
LINE
  5
1C0
330
1BE
100
AcDbEntity
  8
치수문자_일반주서
 62
     0
370
    -2
100
AcDbLine
 10
130.15
 20
69.02073246008783
 30
0.0
 11
151.7469511089922
 21
69.02073246008791
 31
0.0
  0
LINE
  5
1C1
330
1BE
100
AcDbEntity
  8
치수문자_일반주서
 62
     0
370
    -2
100
AcDbLine
 10
130.15
 20
30.92073246008781
 30
0.0
 11
151.7469511089923
 21
30.9207324600879
 31
0.0
  0
LINE
  5
1C2
330
1BE
100
AcDbEntity
  8
치수문자_일반주서
 62
     0
370
    -2
100
AcDbLine
 10
151.7469511089922
 20
65.71873246008792
 30
0.0
 11
151.7469511089923
 21
34.2227324600879
 31
0.0
  0
SOLID
  5
1C3
330
1BE
100
AcDbEntity
  8
치수문자_일반주서
 62
     0
100
AcDbTrace
 10
152.2972844423255
 20
65.71873246008792
 30
0.0
 11
151.1966177756589
 21
65.71873246008792
 31
0.0
 12
151.7469511089922
 22
69.02073246008791
 32
0.0
 13
151.7469511089922
 23
69.02073246008791
 33
0.0
  0
SOLID
  5
1C4
330
1BE
100
AcDbEntity
  8
치수문자_일반주서
 62
     0
100
AcDbTrace
 10
151.196617775659
 20
34.2227324600879
 30
0.0
 11
152.2972844423257
 21
34.2227324600879
 31
0.0
 12
151.7469511089923
 22
30.9207324600879
 32
0.0
 13
151.7469511089923
 23
30.9207324600879
 33
0.0
  0
MTEXT
  5
1C5
330
1BE
100
AcDbEntity
  8
치수문자_일반주서
 62
     0
100
AcDbMText
 10
147.3719511089923
 20
49.72957440172025
 30
0.0
 40
3.5
 41
0.0
 71
     2
 72
     1
  1
\A1;%%c38.1 [1 1/2]
  7
SLDTEXTSTYLE0
 11
-3.729883127349605E-15
 21
1.0
 31
0.0
 73
     1
 44
1.0
  0
POINT
  5
1C6
330
1BE
100
AcDbEntity
  8
Defpoints
 62
     0
100
AcDbPoint
 10
130.0875
 20
69.02073246008783
 30
0.0
  0
POINT
  5
1C7
330
1BE
100
AcDbEntity
  8
Defpoints
 62
     0
100
AcDbPoint
 10
130.0875
 20
30.92073246008781
 30
0.0
  0
POINT
  5
1C8
330
1BE
100
AcDbEntity
  8
Defpoints
 62
     0
100
AcDbPoint
 10
151.7469511089923
 20
30.92073246008789
 30
0.0
  0
ENDBLK
  5
1C9
330
1BE
100
AcDbEntity
  8
0
100
AcDbBlockEnd
  0
BLOCK
  5
22A
330
229
100
AcDbEntity
  8
0
100
AcDbBlockBegin
  2
*D12
 70
     1
 10
0.0
 20
0.0
 30
0.0
  3
*D12
  1
*D12
  0
LINE
  5
22C
330
229
100
AcDbEntity
  8
치수문자_일반주서
 62
     0
370
    -2
100
AcDbLine
 10
-61.56452890264313
 20
15.87499999999998
 30
0.0
 11
-72.91452890264316
 21
15.87499999999994
 31
0.0
  0
LINE
  5
22D
330
229
100
AcDbEntity
  8
치수문자_일반주서
 62
     0
370
    -2
100
AcDbLine
 10
-58.38952890264306
 20
-15.87500000000001
 30
0.0
 11
-72.91452890264304
 21
-15.87500000000006
 31
0.0
  0
LINE
  5
22E
330
229
100
AcDbEntity
  8
치수문자_일반주서
 62
     0
370
    -2
100
AcDbLine
 10
-72.91452890264314
 20
12.57299999999994
 30
0.0
 11
-72.91452890264306
 21
-12.57300000000006
 31
0.0
  0
SOLID
  5
22F
330
229
100
AcDbEntity
  8
치수문자_일반주서
 62
     0
100
AcDbTrace
 10
-72.36419556930981
 20
12.57299999999994
 30
0.0
 11
-73.46486223597647
 21
12.57299999999994
 31
0.0
 12
-72.91452890264316
 22
15.87499999999994
 32
0.0
 13
-72.91452890264316
 23
15.87499999999994
 33
0.0
  0
SOLID
  5
230
330
229
100
AcDbEntity
  8
치수문자_일반주서
 62
     0
100
AcDbTrace
 10
-73.46486223597638
 20
-12.57300000000006
 30
0.0
 11
-72.36419556930973
 21
-12.57300000000006
 31
0.0
 12
-72.91452890264304
 22
-15.87500000000006
 32
0.0
 13
-72.91452890264304
 23
-15.87500000000006
 33
0.0
  0
MTEXT
  5
231
330
229
100
AcDbEntity
  8
치수문자_일반주서
 62
     0
100
AcDbMText
 10
-77.2895289026431
 20
-0.0000000000000226
 30
0.0
 40
3.5
 41
0.0
 71
     2
 72
     1
  1
\A1;%%c31.75 [1 1/4]
  7
SLDTEXTSTYLE0
 11
-3.580687802255623E-15
 21
1.0
 31
0.0
 73
     1
 44
1.0
  0
POINT
  5
232
330
229
100
AcDbEntity
  8
Defpoints
 62
     0
100
AcDbPoint
 10
-61.50202890264313
 20
15.87499999999998
 30
0.0
  0
POINT
  5
233
330
229
100
AcDbEntity
  8
Defpoints
 62
     0
100
AcDbPoint
 10
-58.32702890264306
 20
-15.87500000000001
 30
0.0
  0
POINT
  5
234
330
229
100
AcDbEntity
  8
Defpoints
 62
     0
100
AcDbPoint
 10
-72.91452890264304
 20
-15.87500000000006
 30
0.0
  0
ENDBLK
  5
22B
330
229
100
AcDbEntity
  8
0
100
AcDbBlockEnd
  0
BLOCK
  5
236
330
235
100
AcDbEntity
  8
0
100
AcDbBlockBegin
  2
*D13
 70
     1
 10
0.0
 20
0.0
 30
0.0
  3
*D13
  1
*D13
  0
LINE
  5
238
330
235
100
AcDbEntity
  8
치수문자_일반주서
 62
     0
370
    -2
100
AcDbLine
 10
52.79797109735688
 20
22.28749987299994
 30
0.0
 11
52.79797109735688
 21
53.61879504428282
 31
0.0
  0
LINE
  5
239
330
235
100
AcDbEntity
  8
치수문자_일반주서
 62
     0
370
    -2
100
AcDbLine
 10
1.997971097356924
 20
22.23332673395348
 30
0.0
 11
1.997971097356924
 21
53.61879504428282
 31
0.0
  0
LINE
  5
23A
330
235
100
AcDbEntity
  8
치수문자_일반주서
 62
     0
370
    -2
100
AcDbLine
 10
49.49597109735688
 20
53.61879504428282
 30
0.0
 11
5.299971097356924
 21
53.61879504428282
 31
0.0
  0
SOLID
  5
23B
330
235
100
AcDbEntity
  8
치수문자_일반주서
 62
     0
100
AcDbTrace
 10
49.49597109735688
 20
53.06846171094949
 30
0.0
 11
49.49597109735688
 21
54.16912837761615
 31
0.0
 12
52.79797109735688
 22
53.61879504428282
 32
0.0
 13
52.79797109735688
 23
53.61879504428282
 33
0.0
  0
SOLID
  5
23C
330
235
100
AcDbEntity
  8
치수문자_일반주서
 62
     0
100
AcDbTrace
 10
5.299971097356924
 20
54.16912837761615
 30
0.0
 11
5.299971097356924
 21
53.06846171094949
 31
0.0
 12
1.997971097356924
 22
53.61879504428282
 32
0.0
 13
1.997971097356924
 23
53.61879504428282
 33
0.0
  0
MTEXT
  5
23D
330
235
100
AcDbEntity
  8
치수문자_일반주서
 62
     0
100
AcDbMText
 10
27.3979710973569
 20
57.99379504428282
 30
0.0
 40
3.5
 41
0.0
 71
     2
 72
     1
  1
\A1;50.8 [2]
  7
SLDTEXTSTYLE0
 73
     1
 44
1.0
  0
POINT
  5
23E
330
235
100
AcDbEntity
  8
Defpoints
 62
     0
100
AcDbPoint
 10
52.79797109735688
 20
22.22499987299994
 30
0.0
  0
POINT
  5
23F
330
235
100
AcDbEntity
  8
Defpoints
 62
     0
100
AcDbPoint
 10
1.997971097356924
 20
22.17082673395348
 30
0.0
  0
POINT
  5
240
330
235
100
AcDbEntity
  8
Defpoints
 62
     0
100
AcDbPoint
 10
1.997971097356924
 20
53.61879504428282
 30
0.0
  0
ENDBLK
  5
237
330
235
100
AcDbEntity
  8
0
100
AcDbBlockEnd
  0
BLOCK
  5
242
330
241
100
AcDbEntity
  8
0
100
AcDbBlockBegin
  2
*D14
 70
     1
 10
0.0
 20
0.0
 30
0.0
  3
*D14
  1
*D14
  0
LINE
  5
244
330
241
100
AcDbEntity
  8
치수문자_일반주서
 62
     0
370
    -2
100
AcDbLine
 10
52.79797109735688
 20
22.28749987299994
 30
0.0
 11
52.79797109735688
 21
70.41879494828278
 31
0.0
  0
LINE
  5
245
330
241
100
AcDbEntity
  8
치수문자_일반주서
 62
     0
370
    -2
100
AcDbLine
 10
-61.50202890264313
 20
12.76250000000002
 30
0.0
 11
-61.50202890264313
 21
70.41879494828278
 31
0.0
  0
LINE
  5
246
330
241
100
AcDbEntity
  8
치수문자_일반주서
 62
     0
370
    -2
100
AcDbLine
 10
49.49597109735688
 20
70.41879494828278
 30
0.0
 11
-58.20002890264313
 21
70.41879494828278
 31
0.0
  0
SOLID
  5
247
330
241
100
AcDbEntity
  8
치수문자_일반주서
 62
     0
100
AcDbTrace
 10
49.49597109735688
 20
69.86846161494945
 30
0.0
 11
49.49597109735688
 21
70.96912828161611
 31
0.0
 12
52.79797109735688
 22
70.41879494828278
 32
0.0
 13
52.79797109735688
 23
70.41879494828278
 33
0.0
  0
SOLID
  5
248
330
241
100
AcDbEntity
  8
치수문자_일반주서
 62
     0
100
AcDbTrace
 10
-58.20002890264313
 20
70.96912828161611
 30
0.0
 11
-58.20002890264313
 21
69.86846161494945
 31
0.0
 12
-61.50202890264313
 22
70.41879494828278
 32
0.0
 13
-61.50202890264313
 23
70.41879494828278
 33
0.0
  0
MTEXT
  5
249
330
241
100
AcDbEntity
  8
치수문자_일반주서
 62
     0
100
AcDbMText
 10
-2.520250743134579
 20
74.79379494828278
 30
0.0
 40
3.5
 41
0.0
 71
     2
 72
     1
  1
\A1;114.3 [4 1/2]
  7
SLDTEXTSTYLE0
 73
     1
 44
1.0
  0
POINT
  5
24A
330
241
100
AcDbEntity
  8
Defpoints
 62
     0
100
AcDbPoint
 10
52.79797109735688
 20
22.22499987299994
 30
0.0
  0
POINT
  5
24B
330
241
100
AcDbEntity
  8
Defpoints
 62
     0
100
AcDbPoint
 10
-61.50202890264313
 20
12.70000000000002
 30
0.0
  0
POINT
  5
24C
330
241
100
AcDbEntity
  8
Defpoints
 62
     0
100
AcDbPoint
 10
-61.50202890264313
 20
70.41879494828278
 30
0.0
  0
ENDBLK
  5
243
330
241
100
AcDbEntity
  8
0
100
AcDbBlockEnd
  0
BLOCK
  5
24E
330
24D
100
AcDbEntity
  8
0
100
AcDbBlockBegin
  2
*D15
 70
     1
 10
0.0
 20
0.0
 30
0.0
  3
*D15
  1
*D15
  0
LINE
  5
250
330
24D
100
AcDbEntity
  8
치수문자_일반주서
 62
     0
370
    -2
100
AcDbLine
 10
52.86047109735688
 20
22.22499987299994
 30
0.0
 11
78.06733058011807
 21
22.22499987300003
 31
0.0
  0
LINE
  5
251
330
24D
100
AcDbEntity
  8
치수문자_일반주서
 62
     0
370
    -2
100
AcDbLine
 10
52.86047109735688
 20
-22.22499987300007
 30
0.0
 11
78.06733058011822
 21
-22.22499987299998
 31
0.0
  0
LINE
  5
252
330
24D
100
AcDbEntity
  8
치수문자_일반주서
 62
     0
370
    -2
100
AcDbLine
 10
78.06733058011808
 20
18.92299987300003
 30
0.0
 11
78.06733058011821
 21
-18.92299987299998
 31
0.0
  0
SOLID
  5
253
330
24D
100
AcDbEntity
  8
치수문자_일반주서
 62
     0
100
AcDbTrace
 10
78.61766391345141
 20
18.92299987300004
 30
0.0
 11
77.51699724678475
 21
18.92299987300003
 31
0.0
 12
78.06733058011807
 22
22.22499987300003
 32
0.0
 13
78.06733058011807
 23
22.22499987300003
 33
0.0
  0
SOLID
  5
254
330
24D
100
AcDbEntity
  8
치수문자_일반주서
 62
     0
100
AcDbTrace
 10
77.51699724678488
 20
-18.92299987299999
 30
0.0
 11
78.61766391345154
 21
-18.92299987299998
 31
0.0
 12
78.06733058011822
 22
-22.22499987299998
 32
0.0
 13
78.06733058011822
 23
-22.22499987299998
 33
0.0
  0
MTEXT
  5
255
330
24D
100
AcDbEntity
  8
치수문자_일반주서
 62
     0
100
AcDbMText
 10
73.69233058011815
 20
-0.2813510664878398
 30
0.0
 40
3.5
 41
0.0
 71
     2
 72
     1
  1
\A1;%%c44.45 [1 3/4]
  7
SLDTEXTSTYLE0
 11
-3.516746968739612E-15
 21
1.0
 31
0.0
 73
     1
 44
1.0
  0
POINT
  5
256
330
24D
100
AcDbEntity
  8
Defpoints
 62
     0
100
AcDbPoint
 10
52.79797109735688
 20
22.22499987299994
 30
0.0
  0
POINT
  5
257
330
24D
100
AcDbEntity
  8
Defpoints
 62
     0
100
AcDbPoint
 10
52.79797109735688
 20
-22.22499987300007
 30
0.0
  0
POINT
  5
258
330
24D
100
AcDbEntity
  8
Defpoints
 62
     0
100
AcDbPoint
 10
78.06733058011822
 20
-22.22499987299998
 30
0.0
  0
ENDBLK
  5
24F
330
24D
100
AcDbEntity
  8
0
100
AcDbBlockEnd
  0
ENDSEC
  0
SECTION
  2
ENTITIES
  0
LINE
  5
9D
330
1F
100
AcDbEntity
  8
참조1
100
AcDbLine
 10
18.41194598552359
 20
0.0010749287238892
 30
0.0
 11
18.4119459855236
 21
-39.99892507127611
 31
0.0
  0
LINE
  5
9E
330
1F
100
AcDbEntity
  8
참조1
100
AcDbLine
 10
18.4119459855236
 20
-39.99892507127611
 30
0.0
 11
3.253089171214916
 21
-39.9989250712761
 31
0.0
  0
INSERT
  5
A0
330
1F
100
AcDbEntity
  8
0
  6
Continuous
 62
     7
100
AcDbBlockReference
 66
     1
  2
블럭10
 10
-15.31996286480479
 20
-52.04609937292004
 30
0.0
  0
ATTRIB
  5
A1
330
A0
100
AcDbEntity
  8
FORMAT
 62
     2
100
AcDbText
 10
-24.50125815354608
 20
-49.97073246008785
 30
0.0
 40
4.233333333333333
  1
E2032148 [ 6 FLUTE ]
 41
0.75
  7
SLDTEXTSTYLE0
 11
-24.50125815354608
 21
-52.08739912675452
 31
0.0
100
AcDbAttribute
  2
AUTOATTR0
 70
     0
 74
     1
  0
SEQEND
  5
A2
330
A0
100
AcDbEntity
  8
0
  6
Continuous
 62
     7
  0
HATCH
  5
A3
330
1F
100
AcDbEntity
  8
중심선
100
AcDbHatch
 10
0.0
 20
0.0
 30
0.0
210
0.0
220
0.0
230
1.0
  2
SOLID
 70
     1
 71
     0
 91
        1
 92
        0
 93
        4
 72
     1
 10
-9.605053560423958
 20
-35.7989250712761
 11
-13.05132880426124
 21
-35.7989250712761
 72
     1
 10
-13.05132880426124
 20
-35.7989250712761
 11
-15.17955866346526
 21
-38.3352506518487
 72
     1
 10
-15.17955866346526
 20
-38.3352506518487
 11
-11.73325033451483
 21
-38.33521122254621
 72
     1
 10
-11.73325033451483
 20
-38.33521122254621
 11
-9.605053560423958
 21
-35.7989250712761
 97
        0
 75
     0
 76
     1
 98
        1
 10
-19.79163591820318
 20
0.0
  0
HATCH
  5
A4
330
1F
100
AcDbEntity
  8
중심선
100
AcDbHatch
 10
0.0
 20
0.0
 30
0.0
210
0.0
220
0.0
230
1.0
  2
SOLID
 70
     1
 71
     0
 91
        1
 92
        0
 93
        4
 72
     1
 10
-4.592289569387979
 20
-35.7989250712761
 11
-8.03856481322526
 21
-35.7989250712761
 72
     1
 10
-8.03856481322526
 20
-35.7989250712761
 11
-12.56970282158268
 21
-41.19892507127612
 72
     1
 10
-12.56970282158268
 20
-41.19892507127612
 11
-9.123427577745396
 21
-41.19892507127612
 72
     1
 10
-9.123427577745396
 20
-41.19892507127612
 11
-4.592289569387979
 21
-35.7989250712761
 97
        0
 75
     0
 76
     1
 98
        1
 10
-19.79163591820318
 20
0.0
  0
HATCH
  5
A5
330
1F
100
AcDbEntity
  8
중심선
100
AcDbHatch
 10
0.0
 20
0.0
 30
0.0
210
0.0
220
0.0
230
1.0
  2
SOLID
 70
     1
 71
     0
 91
        1
 92
        0
 93
        4
 72
     1
 10
0.4204744216478886
 20
-35.7989250712761
 11
-3.025800822189225
 21
-35.7989250712761
 72
     1
 10
-3.025800822189225
 20
-35.7989250712761
 11
-10.07423772407848
 21
-44.19892507127612
 72
     1
 10
-10.07423772407848
 20
-44.19892507127612
 11
-6.627962480241194
 21
-44.19892507127612
 72
     1
 10
-6.627962480241194
 20
-44.19892507127612
 11
0.4204744216478886
 21
-35.7989250712761
 97
        0
 75
     0
 76
     1
 98
        1
 10
-19.79163591820318
 20
0.0
  0
HATCH
  5
A6
330
1F
100
AcDbEntity
  8
중심선
100
AcDbHatch
 10
0.0
 20
0.0
 30
0.0
210
0.0
220
0.0
230
1.0
  2
SOLID
 70
     1
 71
     0
 91
        1
 92
        0
 93
        6
 72
     3
 10
5.220364852660087
 20
-39.99892507132738
 11
3.960054785062283
 21
1.540882976769353E-10
 40
0.3939339440162628
 50
17.09539180608439
 51
320.0019657685076
 73
     0
 72
     1
 10
6.903364508360685
 20
-38.58681907591438
 11
9.208666382061722
 21
-36.65249236586649
 72
     3
 10
5.22036485260724
 20
-39.99892507127625
 11
6.600054785286829
 21
-1.278976924368180E-13
 40
0.636358354079598
 50
39.99873849337411
 51
368.4976242363725
 73
     1
 72
     1
 10
11.64569734450785
 20
-39.03892507120613
 11
3.900432159443163
 21
-39.0389250712061
 72
     1
 10
3.900432159443163
 20
-39.0389250712061
 11
3.900407114997229
 21
-40.95892507120602
 72
     1
 10
3.900407114997229
 20
-40.95892507120602
 11
8.341786884469268
 21
-40.95892507120599
 97
        0
 75
     0
 76
     1
 98
        1
 10
-19.79163591820318
 20
0.0
  0
LINE
  5
F7
330
1F
100
AcDbEntity
  8
참조1
100
AcDbLine
 10
101.2254298008692
 20
7.441074928723896
 30
0.0
 11
101.2254298008692
 21
-7.438925071276109
 31
0.0
  0
LINE
  5
F8
330
1F
100
AcDbEntity
  8
참조1
100
AcDbLine
 10
113.9254298008692
 20
5.441074928723896
 30
0.0
 11
101.2254298008692
 21
5.441074928723896
 31
0.0
  0
SOLID
  5
F9
330
1F
100
AcDbEntity
  8
참조1
100
AcDbTrace
 10
101.2254298008692
 20
5.441074928723896
 30
0.0
 11
107.5754298008692
 21
4.425074928723896
 31
0.0
 12
107.5754298008692
 22
6.457074928723896
 32
0.0
 13
107.5754298008692
 23
6.457074928723896
 33
0.0
  0
LINE
  5
FA
330
1F
100
AcDbEntity
  8
참조1
100
AcDbLine
 10
113.9254298008692
 20
-5.438925071276109
 30
0.0
 11
101.2254298008692
 21
-5.438925071276109
 31
0.0
  0
SOLID
  5
FB
330
1F
100
AcDbEntity
  8
참조1
100
AcDbTrace
 10
101.2254298008692
 20
-5.438925071276109
 30
0.0
 11
107.5754298008692
 21
-6.454925071276109
 31
0.0
 12
107.5754298008692
 22
-4.422925071276109
 32
0.0
 13
107.5754298008692
 23
-4.422925071276109
 33
0.0
  0
MTEXT
  5
FC
330
1F
100
AcDbEntity
  8
참조1
100
AcDbMText
 10
110.6229198933395
 20
10.98929157337383
 30
0.0
 40
3.5
 41
0.0
 71
     1
 72
     1
  1
A
  7
SLDTEXTSTYLE0
 73
     1
 44
1.0
  0
MTEXT
  5
FD
330
1F
100
AcDbEntity
  8
참조1
100
AcDbMText
 10
110.6229198933395
 20
0.1092915733738259
 30
0.0
 40
3.5
 41
0.0
 71
     1
 72
     1
  1
A
  7
SLDTEXTSTYLE0
 73
     1
 44
1.0
  0
LINE
  5
1EE
330
1F
100
AcDbEntity
  8
0
  6
Continuous
 62
     1
370
    15
100
AcDbLine
 10
50.11003654526155
 20
-22.22499987300007
 30
0.0
 11
52.79797109735688
 21
-22.22499987300007
 31
0.0
  0
LINE
  5
1EF
330
1F
100
AcDbEntity
  8
0
  6
Continuous
 62
     1
370
    15
100
AcDbLine
 10
8.937294181649946
 20
22.22499987299994
 30
0.0
 11
3.563012614217541
 21
22.22499987299994
 31
0.0
  0
LINE
  5
1F0
330
1F
100
AcDbEntity
  8
0
  6
Continuous
 62
     1
370
    15
100
AcDbLine
 10
26.83640831305922
 20
-22.22499987300007
 30
0.0
 11
32.21112576600115
 21
-22.22499987300007
 31
0.0
  0
LINE
  5
1F1
330
1F
100
AcDbEntity
  8
0
  6
Continuous
 62
     1
370
    15
100
AcDbLine
 10
3.563012614217342
 20
-22.22499987300007
 30
0.0
 11
8.937294181649804
 21
-22.22499987300007
 31
0.0
  0
LINE
  5
1F2
330
1F
100
AcDbEntity
  8
0
  6
Continuous
 62
     1
370
    15
100
AcDbLine
 10
32.21112576600115
 20
22.22499987299994
 30
0.0
 11
26.83640831305934
 21
22.22499987299994
 31
0.0
  0
LINE
  5
1F3
330
1F
100
AcDbEntity
  8
0
  6
Continuous
 62
     1
370
    15
100
AcDbLine
 10
52.79797109735688
 20
22.22499987299994
 30
0.0
 11
50.11003654526155
 21
22.22499987299994
 31
0.0
  0
LINE
  5
1F4
330
1F
100
AcDbEntity
  8
외형선
  6
Continuous
370
    15
100
AcDbLine
 10
1.005587699474745
 20
-15.87500000000001
 30
0.0
 11
1.997971097356924
 21
-15.87500000000001
 31
0.0
  0
LINE
  5
1F5
330
1F
100
AcDbEntity
  8
외형선
  6
Continuous
370
    15
100
AcDbLine
 10
-58.32702890264312
 20
-15.87500000000001
 30
0.0
 11
1.005587699474745
 21
-15.87500000000001
 31
0.0
  0
LINE
  5
1F6
330
1F
100
AcDbEntity
  8
외형선
  6
Continuous
370
    15
100
AcDbLine
 10
1.997971097356924
 20
15.87500000000001
 30
0.0
 11
0.9977161312569365
 21
15.87500000000001
 31
0.0
  0
LINE
  5
1F7
330
1F
100
AcDbEntity
  8
외형선
  6
Continuous
370
    15
100
AcDbLine
 10
-61.50202890264313
 20
-12.70000000000002
 30
0.0
 11
-58.32702890264312
 21
-15.87500000000001
 31
0.0
  0
LINE
  5
1F8
330
1F
100
AcDbEntity
  8
0
  6
Continuous
 62
     1
370
    15
100
AcDbLine
 10
52.79797109735688
 20
-22.06281406777573
 30
0.0
 11
52.79797109735688
 21
-13.31252815249658
 31
0.0
  0
SPLINE
  5
1F9
330
1F
100
AcDbEntity
  8
0
  6
Continuous
 62
     1
370
    15
100
AcDbSpline
210
0.0
220
0.0
230
1.0
 70
     8
 71
     3
 72
    24
 73
    20
 74
     0
 42
0.000000001
 43
0.00000001
 40
0.0
 40
0.0
 40
0.0
 40
0.0
 40
0.0519490220846624
 40
0.103858318866666
 40
0.1557724436465229
 40
0.2077319676236349
 40
0.2596686251080083
 40
0.31157518338629
 40
0.3634962233737148
 40
0.4154604474659532
 40
0.4673868169089557
 40
0.5192927274737626
 40
0.5712227666078845
 40
0.6231858862868047
 40
0.6751040491081155
 40
0.7270114030562902
 40
0.7789525210225546
 40
0.8309087324061996
 40
0.8730598971567854
 40
0.8730598971567854
 40
0.8730598971567854
 40
0.8730598971567854
 10
52.79797109735688
 20
-13.35242859221225
 30
0.0
 10
51.7901274467273
 20
-12.52340775970034
 30
0.0
 10
49.7752108412858
 20
-10.86600004507942
 30
0.0
 10
46.75488109701399
 20
-8.112099254350468
 30
0.0
 10
43.73426985276262
 20
-5.225971007724667
 30
0.0
 10
40.71084105647304
 20
-2.240366602813901
 30
0.0
 10
37.68886058833755
 20
0.7864352591015606
 30
0.0
 10
34.66869550513286
 20
3.799390067421883
 30
0.0
 10
31.64767738479037
 20
6.742307781090016
 30
0.0
 10
28.62394724473489
 20
9.559018953169844
 30
0.0
 10
25.60260527363408
 20
12.20097100672671
 30
0.0
 10
22.5824790666714
 20
14.61759263275076
 30
0.0
 10
19.56091094379383
 20
16.76434727031186
 30
0.0
 10
16.53725170023375
 20
18.60074963316571
 30
0.0
 10
13.51640495116152
 20
20.09503506249512
 30
0.0
 10
10.49619329155254
 20
21.21807387201844
 30
0.0
 10
7.473928026370515
 20
21.94976871991298
 30
0.0
 10
4.640120146364893
 20
22.25429741959271
 30
0.0
 10
2.81526287691878
 20
22.22914916896655
 30
0.0
 10
1.997971097356952
 20
22.17082673395348
 30
0.0
  0
SPLINE
  5
1FA
330
1F
100
AcDbEntity
  8
외형선
  6
Continuous
370
    15
100
AcDbSpline
210
0.0
220
0.0
230
1.0
 70
    24
 71
     3
 72
    13
 73
     9
 74
     0
 42
0.000000001
 43
0.00000001
 40
0.0
 40
0.0
 40
0.0
 40
0.0
 40
0.1625496257372143
 40
0.3288386962523394
 40
0.5104086693975421
 40
0.6972441840643805
 40
0.8788141572095834
 40
1.0
 40
1.0
 40
1.0
 40
1.0
 10
1.997971097356924
 20
15.84406987694461
 30
0.0
 10
1.997971097356924
 20
15.53641670658495
 30
0.0
 10
1.997971097356924
 20
14.91403282240102
 30
0.0
 10
1.997971097356924
 20
13.92085853186495
 30
0.0
 10
1.997971097356867
 20
12.88811690174962
 30
0.0
 10
1.997971097356924
 20
11.86580262734508
 30
0.0
 10
1.997971097356981
 20
11.00034263627492
 30
0.0
 10
1.997971097356924
 20
10.53478808901755
 30
0.0
 10
1.997971097356924
 20
10.34843784501003
 30
0.0
  0
SPLINE
  5
1FB
330
1F
100
AcDbEntity
  8
외형선
  6
Continuous
370
    15
100
AcDbSpline
210
0.0
220
0.0
230
1.0
 70
    24
 71
     3
 72
    34
 73
    30
 74
     0
 42
0.000000001
 43
0.00000001
 40
0.0
 40
0.0
 40
0.0
 40
0.0
 40
0.125
 40
0.125
 40
0.1562500000000001
 40
0.1562500000000001
 40
0.1875000000000003
 40
0.1875000000000003
 40
0.2500000000000003
 40
0.2500000000000003
 40
0.3750000000000004
 40
0.3750000000000004
 40
0.5000000000000004
 40
0.5000000000000004
 40
0.5625000000000004
 40
0.5625000000000004
 40
0.6250000000000003
 40
0.6250000000000003
 40
0.6875000000000003
 40
0.6875000000000003
 40
0.7500000000000002
 40
0.7500000000000002
 40
0.8125000000000002
 40
0.8125000000000002
 40
0.8750000000000002
 40
0.8750000000000002
 40
0.9375000000000001
 40
0.9375000000000001
 40
1.0
 40
1.0
 40
1.0
 40
1.0
 10
1.997971097356924
 20
7.064243558894887
 30
0.0
 10
1.997971097356924
 20
6.90944388924828
 30
0.0
 10
1.997971097356867
 20
6.689545696370011
 30
0.0
 10
1.997971097356924
 20
6.38851213239591
 30
0.0
 10
1.997971097356867
 20
6.326884000990638
 30
0.0
 10
1.997971097356924
 20
6.201727595347954
 30
0.0
 10
1.997971097356924
 20
6.13694080907667
 30
0.0
 10
1.997971097356924
 20
5.926131870639189
 30
0.0
 10
1.997971097356924
 20
5.767053782772976
 30
0.0
 10
1.997971097356867
 20
5.223920061680509
 30
0.0
 10
1.997971097356924
 20
4.772631868294759
 30
0.0
 10
1.997971097356924
 20
3.652141004927472
 30
0.0
 10
1.997971097356924
 20
2.980326727338714
 30
0.0
 10
1.997971097356924
 20
1.833265507948127
 30
0.0
 10
1.997971097356924
 20
1.428589974450986
 30
0.0
 10
1.997971097356924
 20
0.5920423656296165
 30
0.0
 10
1.997971097356924
 20
0.1602397643433378
 30
0.0
 10
1.997971097356924
 20
-0.7044870108493271
 30
0.0
 10
1.997971097356924
 20
-1.137229424850958
 30
0.0
 10
1.997971097356924
 20
-1.972850634038458
 30
0.0
 10
1.997971097356924
 20
-2.375491152513966
 30
0.0
 10
1.997971097356924
 20
-3.121601169901979
 30
0.0
 10
1.997971097356924
 20
-3.464881997208671
 30
0.0
 10
1.997971097356924
 20
-4.071472153228129
 30
0.0
 10
1.997971097356924
 20
-4.334725176588059
 30
0.0
 10
1.997971097356924
 20
-4.772896497722371
 30
0.0
 10
1.997971097356867
 20
-4.947892284804382
 30
0.0
 10
1.997971097356867
 20
-5.213228488219315
 30
0.0
 10
1.997971097356867
 20
-5.303715042340521
 30
0.0
 10
1.997971097356924
 20
-5.357915141064332
 30
0.0
  0
LINE
  5
1FC
330
1F
100
AcDbEntity
  8
0
  6
Continuous
 62
     1
370
    15
100
AcDbLine
 10
52.79797109735688
 20
-8.7103854755632
 30
0.0
 11
52.79797109735688
 21
8.7103854755635
 31
0.0
  0
SPLINE
  5
1FD
330
1F
100
AcDbEntity
  8
0
  6
Continuous
 62
     1
370
    15
100
AcDbSpline
210
0.0
220
0.0
230
1.0
 70
     8
 71
     3
 72
    22
 73
    18
 74
     0
 42
0.000000001
 43
0.00000001
 40
0.0
 40
0.0
 40
0.0
 40
0.0
 40
0.0355481218190962
 40
0.1044083141025477
 40
0.1732828454155568
 40
0.2422170164062614
 40
0.3111073028121729
 40
0.3799655803061252
 40
0.4488509985071132
 40
0.5177866346103233
 40
0.5866649827661642
 40
0.6555241195155215
 40
0.7244231858116853
 40
0.7933525867515369
 40
0.8622217612068025
 40
0.9310845308497387
 40
1.0
 40
1.0
 40
1.0
 40
1.0
 10
8.937294181649946
 20
22.17371001270142
 30
0.0
 10
9.45710320107878
 20
22.18298710174661
 30
0.0
 10
10.98383318276532
 20
22.21023482054074
 30
0.0
 10
13.51637074521119
 20
21.80880852856458
 30
0.0
 10
16.53726087553758
 20
21.0054416563754
 30
0.0
 10
19.56090848608682
 20
19.79422264273323
 30
0.0
 10
22.58247972468456
 20
18.22268754158358
 30
0.0
 10
25.60260509728118
 20
16.3132339892642
 30
0.0
 10
28.62394729203612
 20
14.10294893368803
 30
0.0
 10
31.64767737212384
 20
11.63373537321643
 30
0.0
 10
34.66869550852459
 20
8.948278938912901
 30
0.0
 10
37.68886058742817
 20
6.097730961708976
 30
0.0
 10
40.7108410567169
 20
3.135167850902287
 30
0.0
 10
43.73426985269737
 20
0.1150645910222898
 30
0.0
 10
46.75488109703139
 20
-2.905812153220923
 30
0.0
 10
49.77521084128142
 20
-5.884443206401062
 30
0.0
 10
51.79012744672588
 20
-7.768164547753751
 30
0.0
 10
52.79797109735688
 20
-8.710385475563218
 30
0.0
  0
SPLINE
  5
1FE
330
1F
100
AcDbEntity
  8
0
  6
Continuous
 62
     1
370
    15
100
AcDbSpline
210
0.0
220
0.0
230
1.0
 70
     8
 71
     3
 72
    19
 73
    15
 74
     0
 42
0.000000001
 43
0.00000001
 40
0.0
 40
0.0
 40
0.0
 40
0.0
 40
0.0865835215555369
 40
0.1731008328830264
 40
0.2596261910425723
 40
0.3462272161197308
 40
0.4327901295753904
 40
0.5193028766341697
 40
0.6058397603816762
 40
0.6924486191485374
 40
0.7789943855085242
 40
0.8655060530221772
 40
0.952057935662459
 40
0.9999999999999999
 40
0.9999999999999999
 40
0.9999999999999999
 40
0.9999999999999999
 10
52.79797109735688
 20
8.710385475563491
 30
0.0
 10
51.7901274467024
 20
9.621578877637576
 30
0.0
 10
49.77521084121122
 20
11.4432688942
 30
0.0
 10
46.75488109731231
 20
13.92282936215898
 30
0.0
 10
43.73426985164338
 20
16.1569322092276
 30
0.0
 10
40.7108410606549
 20
18.08860599878424
 30
0.0
 10
37.68886057274216
 20
19.68808407787881
 30
0.0
 10
34.66869556330562
 20
20.92398566447204
 30
0.0
 10
31.64767716753852
 20
21.77404459713238
 30
0.0
 10
28.62394805602423
 20
22.22063612876093
 30
0.0
 10
25.60260224890555
 20
22.26224969441361
 30
0.0
 10
22.58249035262827
 20
21.87482185848104
 30
0.0
 10
20.01078831185663
 20
21.2587496101019
 30
0.0
 10
18.4451238024979
 20
20.6258818903856
 30
0.0
 10
17.8870229338317
 20
20.40028820667286
 30
0.0
  0
LINE
  5
1FF
330
1F
100
AcDbEntity
  8
0
  6
Continuous
 62
     1
370
    15
100
AcDbLine
 10
52.79797109735688
 20
-22.22499987300007
 30
0.0
 11
52.79797109735688
 21
-22.06281406777573
 31
0.0
  0
LINE
  5
200
330
1F
100
AcDbEntity
  8
0
  6
Continuous
 62
     1
370
    15
100
AcDbLine
 10
52.79797109735688
 20
-13.35242859221225
 30
0.0
 11
52.79797109735688
 21
-8.7103854755632
 31
0.0
  0
LINE
  5
201
330
1F
100
AcDbEntity
  8
외형선
  6
Continuous
370
    15
100
AcDbLine
 10
1.997971097356924
 20
7.064243558894901
 30
0.0
 11
1.997971097356924
 21
10.26249821140609
 31
0.0
  0
LINE
  5
202
330
1F
100
AcDbEntity
  8
외형선
  6
Continuous
370
    15
100
AcDbLine
 10
1.997971097356924
 20
-8.77982631804975
 30
0.0
 11
1.997971097356924
 21
-5.357915141064368
 31
0.0
  0
SPLINE
  5
203
330
1F
100
AcDbEntity
  8
0
  6
Continuous
 62
     1
370
    15
100
AcDbSpline
210
0.0
220
0.0
230
1.0
 70
     8
 71
     3
 72
    14
 73
    10
 74
     0
 42
0.000000001
 43
0.00000001
 40
0.0
 40
0.0
 40
0.0
 40
0.0
 40
0.1193950496622267
 40
0.2660985569122916
 40
0.4128871335494553
 40
0.5597403377557442
 40
0.7064652302094439
 40
0.8531764772926617
 40
1.0
 40
1.0
 40
1.0
 40
1.0
 10
32.21112576600115
 20
22.1938843422828
 30
0.0
 10
33.03043007387362
 20
22.18021412004024
 30
0.0
 10
34.85643286556075
 20
22.14974697402619
 30
0.0
 10
37.68882807990093
 20
21.61200726239249
 30
0.0
 10
40.7108497735266
 20
20.68425234416779
 30
0.0
 10
43.73426751967219
 20
19.36458178718468
 30
0.0
 10
46.75488171886138
 20
17.68520752760322
 30
0.0
 10
49.77521068569126
 20
15.69616828034986
 30
0.0
 10
51.79012739484915
 20
14.13387434487286
 30
0.0
 10
52.79797109735688
 20
13.35242859221224
 30
0.0
  0
LINE
  5
204
330
1F
100
AcDbEntity
  8
0
  6
Continuous
 62
     1
370
    15
100
AcDbLine
 10
52.79797109735688
 20
8.7103854755635
 30
0.0
 11
52.79797109735688
 21
13.35242859221225
 31
0.0
  0
SPLINE
  5
205
330
1F
100
AcDbEntity
  8
외형선
  6
Continuous
370
    15
100
AcDbSpline
210
0.0
220
0.0
230
1.0
 70
    24
 71
     3
 72
    15
 73
    11
 74
     0
 42
0.000000001
 43
0.00000001
 40
0.0
 40
0.0
 40
0.0
 40
0.0
 40
0.0523271191531792
 40
0.197100631220203
 40
0.3460725849448263
 40
0.4908460970118227
 40
0.639818050736476
 40
0.7845915628035012
 40
0.9335635165281236
 40
1.0
 40
1.0
 40
1.0
 40
1.0
 10
1.997971097356867
 20
-8.865775951653681
 30
0.0
 10
1.997971097356867
 20
-8.953223786202877
 30
0.0
 10
1.99797109735681
 20
-9.282613664098314
 30
0.0
 10
1.997971097356867
 20
-9.98736682430254
 30
0.0
 10
1.997971097356924
 20
-10.94126055641767
 30
0.0
 10
1.997971097356924
 20
-11.97869421225447
 30
0.0
 10
1.997971097356924
 20
-13.04096132749608
 30
0.0
 10
1.997971097356924
 20
-14.11884010024386
 30
0.0
 10
1.997971097356981
 20
-14.97909789898494
 30
0.0
 10
1.997971097356924
 20
-15.46924247656928
 30
0.0
 10
1.997971097356924
 20
-15.62041335247053
 30
0.0
  0
SPLINE
  5
206
330
1F
100
AcDbEntity
  8
0
  6
Continuous
 62
     1
370
    15
100
AcDbSpline
210
0.0
220
0.0
230
1.0
 70
     8
 71
     3
 72
    11
 73
     7
 74
     0
 42
0.000000001
 43
0.00000001
 40
0.0
 40
0.0
 40
0.0
 40
0.0
 40
0.2597647419880049
 40
0.5193308424505017
 40
0.7789210847267679
 40
0.9999999999999999
 40
0.9999999999999999
 40
0.9999999999999999
 40
0.9999999999999999
 10
52.79797109735688
 20
22.06281406777562
 30
0.0
 10
51.79012677864381
 20
22.14551868234996
 30
0.0
 10
49.77520883754607
 20
22.31086466746225
 30
0.0
 10
46.75488910513343
 20
22.02855115074155
 30
0.0
 10
43.88445663142159
 20
21.43774878658311
 30
0.0
 10
42.01934864804724
 20
20.74271062408955
 30
0.0
 10
41.16151110354173
 20
20.42303485412555
 30
0.0
  0
LINE
  5
207
330
1F
100
AcDbEntity
  8
0
  6
Continuous
 62
     1
370
    15
100
AcDbLine
 10
52.79797109735688
 20
13.32384828222202
 30
0.0
 11
52.79797109735688
 21
22.06281406777562
 31
0.0
  0
LINE
  5
208
330
1F
100
AcDbEntity
  8
0
  6
Continuous
 62
     1
370
    15
100
AcDbLine
 10
52.79797109735688
 20
22.06281406777562
 30
0.0
 11
52.79797109735688
 21
22.22499987299994
 31
0.0
  0
LINE
  5
209
330
1F
100
AcDbEntity
  8
외형선
  6
Continuous
370
    15
100
AcDbLine
 10
1.997971097356924
 20
-15.87500000000001
 30
0.0
 11
1.997971097356924
 21
-15.62041335247053
 31
0.0
  0
SPLINE
  5
20A
330
1F
100
AcDbEntity
  8
외형선
  6
Continuous
370
    15
100
AcDbSpline
210
0.0
220
0.0
230
1.0
 70
     8
 71
     3
 72
     8
 73
     4
 74
     0
 42
0.000000001
 43
0.00000001
 40
0.0
 40
0.0
 40
0.0
 40
0.0
 40
1.0
 40
1.0
 40
1.0
 40
1.0
 10
1.997971097356867
 20
15.8440698769444
 30
0.0
 10
1.664756917131967
 20
15.8648425780183
 30
0.0
 10
1.331008534301077
 20
15.87516299436623
 30
0.0
 10
0.9977161312569365
 20
15.87499805209195
 30
0.0
  0
LINE
  5
20B
330
1F
100
AcDbEntity
  8
외형선
  6
Continuous
370
    15
100
AcDbLine
 10
-58.32702890264312
 20
-15.87500000000001
 30
0.0
 11
-58.32702890264312
 21
0.0
 31
0.0
  0
LINE
  5
20C
330
1F
100
AcDbEntity
  8
외형선
  6
Continuous
370
    15
100
AcDbLine
 10
-61.50202890264313
 20
0.0
 30
0.0
 11
-61.50202890264313
 21
12.70000000000002
 31
0.0
  0
LINE
  5
20D
330
1F
100
AcDbEntity
  8
외형선
  6
Continuous
370
    15
100
AcDbLine
 10
-61.50202890264313
 20
-12.70000000000003
 30
0.0
 11
-61.50202890264313
 21
0.0
 31
0.0
  0
SPLINE
  5
20E
330
1F
100
AcDbEntity
  8
외형선
  6
Continuous
370
    15
100
AcDbSpline
210
0.0
220
0.0
230
1.0
 70
    24
 71
     3
 72
    34
 73
    30
 74
     0
 42
0.000000001
 43
0.00000001
 40
0.0
 40
0.0
 40
0.0
 40
0.0
 40
0.0625
 40
0.0625
 40
0.125
 40
0.125
 40
0.1875
 40
0.1875
 40
0.2499999999999999
 40
0.2499999999999999
 40
0.3124999999999999
 40
0.3124999999999999
 40
0.3749999999999999
 40
0.3749999999999999
 40
0.4374999999999999
 40
0.4374999999999999
 40
0.4999999999999999
 40
0.4999999999999999
 40
0.6249999999999999
 40
0.6249999999999999
 40
0.7499999999999999
 40
0.7499999999999999
 40
0.8124999999999997
 40
0.8124999999999997
 40
0.8437499999999998
 40
0.8437499999999998
 40
0.8749999999999999
 40
0.8749999999999999
 40
1.0
 40
1.0
 40
1.0
 40
1.0
 10
1.997971097356867
 20
-5.357915141064289
 30
0.0
 10
1.997971097356867
 20
-5.303715042340464
 30
0.0
 10
1.997971097356924
 20
-5.213228488219251
 30
0.0
 10
1.997971097356924
 20
-4.947892284804304
 30
0.0
 10
1.997971097356924
 20
-4.772896497722279
 30
0.0
 10
1.997971097356924
 20
-4.334725176587966
 30
0.0
 10
1.997971097356867
 20
-4.071472153228029
 30
0.0
 10
1.997971097356924
 20
-3.464881997208572
 30
0.0
 10
1.997971097356924
 20
-3.121601169901886
 30
0.0
 10
1.997971097356924
 20
-2.375491152513881
 30
0.0
 10
1.997971097356924
 20
-1.97285063403838
 30
0.0
 10
1.997971097356924
 20
-1.137229424850901
 30
0.0
 10
1.997971097356924
 20
-0.7044870108492844
 30
0.0
 10
1.997971097356924
 20
0.1602397643433662
 30
0.0
 10
1.997971097356924
 20
0.5920423656296236
 30
0.0
 10
1.997971097356867
 20
1.428589974450979
 30
0.0
 10
1.997971097356867
 20
1.833265507948106
 30
0.0
 10
1.997971097356867
 20
2.980326727338671
 30
0.0
 10
1.997971097356924
 20
3.652141004927422
 30
0.0
 10
1.997971097356924
 20
4.772631868294702
 30
0.0
 10
1.997971097356924
 20
5.223920061680452
 30
0.0
 10
1.997971097356924
 20
5.767053782772926
 30
0.0
 10
1.997971097356924
 20
5.926131870639139
 30
0.0
 10
1.997971097356867
 20
6.136940809076627
 30
0.0
 10
1.997971097356867
 20
6.201727595347911
 30
0.0
 10
1.997971097356924
 20
6.326884000990589
 30
0.0
 10
1.997971097356924
 20
6.38851213239586
 30
0.0
 10
1.997971097356924
 20
6.689545696369962
 30
0.0
 10
1.997971097356867
 20
6.909443889248237
 30
0.0
 10
1.997971097356924
 20
7.064243558894859
 30
0.0
  0
SPLINE
  5
20F
330
1F
100
AcDbEntity
  8
외형선
  6
Continuous
370
    15
100
AcDbSpline
210
0.0
220
0.0
230
1.0
 70
    24
 71
     3
 72
    15
 73
    11
 74
     0
 42
0.000000001
 43
0.00000001
 40
0.0
 40
0.0
 40
0.0
 40
0.0
 40
0.039657994486877
 40
0.186510017707677
 40
0.3333620409284768
 40
0.4802140641492775
 40
0.6270660873700784
 40
0.7739181105908793
 40
0.9207701338116803
 40
1.0
 40
1.0
 40
1.0
 40
1.0
 10
1.997971097356924
 20
-15.62041335247052
 30
0.0
 10
1.997971097356924
 20
-15.53050080882252
 30
0.0
 10
1.997971097356981
 20
-15.10764558568516
 30
0.0
 10
1.997971097356924
 20
-14.3177816913081
 30
0.0
 10
1.997971097356867
 20
-13.24713364522334
 30
0.0
 10
1.997971097356924
 20
-12.17660133410865
 30
0.0
 10
1.997971097356924
 20
-11.13478096375676
 30
0.0
 10
1.997971097356867
 20
-10.16059277963389
 30
0.0
 10
1.997971097356867
 20
-9.389690461887461
 30
0.0
 10
1.997971097356867
 20
-9.00172687709324
 30
0.0
 10
1.997971097356867
 20
-8.865765951653685
 30
0.0
  0
SPLINE
  5
210
330
1F
100
AcDbEntity
  8
외형선
  6
Continuous
370
    15
100
AcDbSpline
210
0.0
220
0.0
230
1.0
 70
    24
 71
     3
 72
    18
 73
    14
 74
     0
 42
0.000000001
 43
0.00000001
 40
0.0
 40
0.0
 40
0.0
 40
0.0
 40
0.0801434416924622
 40
0.1734537690411363
 40
0.267450367467248
 40
0.3581449224249797
 40
0.4494691854285555
 40
0.542779512777236
 40
0.6367761112033566
 40
0.7260248684479775
 40
0.8158734639975721
 40
0.9076108001185951
 40
1.0
 40
1.0
 40
1.0
 40
1.0
 10
1.997971097356924
 20
10.34843784501003
 30
0.0
 10
1.997971097356924
 20
10.47324944424125
 30
0.0
 10
1.997971097356867
 20
10.74337812663278
 30
0.0
 10
1.997971097356924
 20
11.19092235995691
 30
0.0
 10
1.997971097356924
 20
11.67522946816965
 30
0.0
 10
1.99797109735681
 20
12.17451679065066
 30
0.0
 10
1.997971097356867
 20
12.68642074588836
 30
0.0
 10
1.997971097356924
 20
13.21529008457892
 30
0.0
 10
1.99797109735681
 20
13.74721486721689
 30
0.0
 10
1.997971097356924
 20
14.27552021152231
 30
0.0
 10
1.997971097356867
 20
14.79866417207389
 30
0.0
 10
1.997971097356867
 20
15.32451983542607
 30
0.0
 10
1.997971097356924
 20
15.67047826386385
 30
0.0
 10
1.997971097356924
 20
15.8440698769444
 30
0.0
  0
LINE
  5
211
330
1F
100
AcDbEntity
  8
중심선
100
AcDbLine
 10
-64.50202890264308
 20
-0.0000000000000071
 30
0.0
 11
55.79797109735688
 21
0.0000000000000071
 31
0.0
  0
CIRCLE
  5
212
330
1F
100
AcDbEntity
  8
해칭선
100
AcDbCircle
 10
0.0
 20
0.0
 30
0.0
 40
3.000000000000001
  0
DIMENSION
  5
213
330
1F
100
AcDbEntity
  8
치수문자_일반주서
100
AcDbDimension
  2
*D12
 10
-72.91452890264304
 20
-15.87500000000006
 30
0.0
 11
-72.9145289026431
 21
-0.0000000000000071
 31
0.0
 70
   160
  1
%%c<>
 71
     2
 42
31.75
 52
-270.0
  3
SLDDIMSTYLE0
100
AcDbAlignedDimension
 13
-61.50202890264313
 23
15.87499999999998
 33
0.0
 14
-58.32702890264306
 24
-15.87500000000001
 34
0.0
 50
90.0000000000002
100
AcDbRotatedDimension
1001
ACAD
1000
DSTYLE
1002
{
1070
   171
1070
     6
1070
   273
1070
     7
1002
}
  0
DIMENSION
  5
214
330
1F
100
AcDbEntity
  8
치수문자_일반주서
100
AcDbDimension
  2
*D13
 10
1.997971097356924
 20
53.61879504428282
 30
0.0
 11
27.3979710973569
 21
53.61879504428282
 31
0.0
 70
   160
  1
<>
 71
     2
 42
50.79999999999995
  3
SLDDIMSTYLE0
100
AcDbAlignedDimension
 13
52.79797109735688
 23
22.22499987299994
 33
0.0
 14
1.997971097356924
 24
22.17082673395348
 34
0.0
 50
-0.0000000000000481
100
AcDbRotatedDimension
1001
ACAD
1000
DSTYLE
1002
{
1070
   171
1070
     6
1070
   273
1070
     7
1002
}
  0
DIMENSION
  5
215
330
1F
100
AcDbEntity
  8
치수문자_일반주서
100
AcDbDimension
  2
*D14
 10
-61.50202890264313
 20
70.41879494828278
 30
0.0
 11
-2.520250743134579
 21
70.41879494828278
 31
0.0
 70
   160
  1
<>
 71
     2
 42
114.3
  3
SLDDIMSTYLE0
100
AcDbAlignedDimension
 13
52.79797109735688
 23
22.22499987299994
 33
0.0
 14
-61.50202890264313
 24
12.70000000000002
 34
0.0
100
AcDbRotatedDimension
1001
ACAD
1000
DSTYLE
1002
{
1070
   171
1070
     6
1070
   273
1070
     7
1002
}
  0
DIMENSION
  5
216
330
1F
100
AcDbEntity
  8
치수문자_일반주서
100
AcDbDimension
  2
*D15
 10
78.06733058011822
 20
-22.22499987299998
 30
0.0
 11
78.06733058011815
 21
-0.2813510664878245
 31
0.0
 70
   160
  1
%%c<>
 71
     2
 42
44.44999974600002
 52
-270.0
  3
SLDDIMSTYLE0
100
AcDbAlignedDimension
 13
52.79797109735688
 23
22.22499987299994
 33
0.0
 14
52.79797109735688
 24
-22.22499987300007
 34
0.0
 50
90.0000000000002
100
AcDbRotatedDimension
1001
ACAD
1000
DSTYLE
1002
{
1070
   171
1070
     6
1070
   273
1070
     7
1002
}
  0
INSERT
  5
217
330
1F
100
AcDbEntity
  8
해칭선
100
AcDbBlockReference
  2
SW_DOWELSYMBOL_0
 10
0.0
 20
0.0
 30
0.0
  0
LINE
  5
218
330
1F
100
AcDbEntity
  8
외형선
  6
Continuous
370
    15
100
AcDbLine
 10
-39.08335390264313
 20
13.48739999999999
 30
0.0
 11
-25.97695390264312
 21
13.48739999999999
 31
0.0
  0
LINE
  5
219
330
1F
100
AcDbEntity
  8
외형선
  6
Continuous
370
    15
100
AcDbLine
 10
-25.97695390264312
 20
13.48739999999999
 30
0.0
 11
-23.5893539026431
 21
15.87500000000001
 31
0.0
  0
LINE
  5
21A
330
1F
100
AcDbEntity
  8
외형선
  6
Continuous
370
    15
100
AcDbLine
 10
-39.08335390264313
 20
13.48739999999999
 30
0.0
 11
-41.47095390264315
 21
15.87500000000001
 31
0.0
  0
LINE
  5
21B
330
1F
100
AcDbEntity
  8
외형선
  6
Continuous
370
    15
100
AcDbLine
 10
-48.80202890264314
 20
13.48739999999999
 30
0.0
 11
-46.41442890264324
 21
15.87499999999999
 31
0.0
  0
LINE
  5
21C
330
1F
100
AcDbEntity
  8
외형선
  6
Continuous
370
    15
100
AcDbLine
 10
-60.71462890264314
 20
13.48739999999999
 30
0.0
 11
-61.50202890264313
 21
12.70000000000001
 31
0.0
  0
LINE
  5
21D
330
1F
100
AcDbEntity
  8
외형선
  6
Continuous
370
    15
100
AcDbLine
 10
-60.71462890264314
 20
13.48739999999999
 30
0.0
 11
-48.80202890264314
 21
13.48739999999999
 31
0.0
  0
LINE
  5
21E
330
1F
100
AcDbEntity
  8
외형선
  6
Continuous
370
    15
100
AcDbLine
 10
-58.32702890264312
 20
0.0
 30
0.0
 11
-58.32702890264312
 21
13.48739999999999
 31
0.0
  0
LINE
  5
21F
330
1F
100
AcDbEntity
  8
외형선
  6
Continuous
370
    15
100
AcDbLine
 10
-41.47095390264309
 20
15.87500000000001
 30
0.0
 11
-46.41442890264318
 21
15.87500000000001
 31
0.0
  0
LINE
  5
220
330
1F
100
AcDbEntity
  8
외형선
  6
Continuous
370
    15
100
AcDbLine
 10
0.9977161312569365
 20
15.87500000000001
 30
0.0
 11
-23.58935390264304
 21
15.87500000000001
 31
0.0
  0
SPLINE
  5
221
330
1F
100
AcDbEntity
  8
0
  6
Continuous
 62
     1
370
    15
100
AcDbSpline
210
0.0
220
0.0
230
1.0
 70
     8
 71
     3
 72
     8
 73
     4
 74
     0
 42
0.000000001
 43
0.00000001
 40
0.0
 40
0.0
 40
0.0
 40
0.0
 40
0.0715175974533205
 40
0.0715175974533205
 40
0.0715175974533205
 40
0.0715175974533205
 10
3.563012614217342
 20
-22.18242428040138
 30
0.0
 10
3.041322204268056
 20
-22.1803748819573
 30
0.0
 10
2.519631794318798
 20
-22.17832548351323
 30
0.0
 10
1.997971097356924
 20
-22.15599238820782
 30
0.0
  0
SPLINE
  5
224
330
1F
100
AcDbEntity
  8
0
  6
Continuous
 62
     1
370
    15
100
AcDbSpline
210
0.0
220
0.0
230
1.0
 70
     8
 71
     3
 72
    24
 73
    20
 74
     0
 42
0.000000001
 43
0.00000001
 40
0.0
 40
0.0
 40
0.0
 40
0.0
 40
0.0048988018589237
 40
0.0490346462380552
 40
0.0931745956190867
 40
0.1373531456367903
 40
0.1815122534345532
 40
0.2256457694027527
 40
0.2697915984343283
 40
0.3139741447217301
 40
0.3581245051192957
 40
0.4022574703695527
 40
0.4464109509195033
 40
0.4905925581802304
 40
0.5347359409032691
 40
0.5788701333892554
 40
0.6230330337087207
 40
0.6672087671960758
 40
0.703047831879099
 40
0.703047831879099
 40
0.703047831879099
 40
0.703047831879099
 10
50.11003654526155
 20
-22.20476006631869
 30
0.0
 10
49.99826628675396
 20
-22.21134290016552
 30
0.0
 10
48.8794998529018
 20
-22.27723389519231
 30
0.0
 10
46.75495236856426
 20
-22.01376307883291
 30
0.0
 10
43.73425073595877
 20
-21.38857930420907
 30
0.0
 10
40.71084617828132
 20
-20.32745572699611
 30
0.0
 10
37.68885921711143
 20
-18.90204047925857
 30
0.0
 10
34.66869587255695
 20
-17.12454451762075
 30
0.0
 10
31.64767728626896
 20
-15.03154933257028
 30
0.0
 10
28.62394727099183
 20
-12.66241876284861
 30
0.0
 10
25.60260526708822
 20
-10.05826300339013
 30
0.0
 10
22.58247906661876
 20
-7.268488705752024
 30
0.0
 10
19.56091095055774
 20
-4.344563852435469
 30
0.0
 10
16.53725167322153
 20
-1.34204950371864
 30
0.0
 10
13.51640505233519
 20
1.687135813456247
 30
0.0
 10
10.49619291381478
 20
4.684961279507349
 30
0.0
 10
7.473929437347664
 20
7.595748192581269
 30
0.0
 10
4.640113805586282
 20
10.19217076770299
 30
0.0
 10
2.815268293086433
 20
11.7615129698924
 30
0.0
 10
1.997971097356952
 20
12.43921390699525
 30
0.0
  0
SPLINE
  5
225
330
1F
100
AcDbEntity
  8
0
  6
Continuous
 62
     1
370
    15
100
AcDbSpline
210
0.0
220
0.0
230
1.0
 70
     8
 71
     3
 72
    13
 73
     9
 74
     0
 42
0.000000001
 43
0.00000001
 40
0.5612062836764304
 40
0.5612062836764304
 40
0.5612062836764304
 40
0.5612062836764304
 40
0.628938094423346
 40
0.7124252746750588
 40
0.7958882016792016
 40
0.8792968740987777
 40
0.9627229150353375
 40
1.0
 40
1.0
 40
1.0
 40
1.0
 10
1.997971097356924
 20
-21.15077477883512
 30
0.0
 10
2.815268240804841
 20
-21.40197368562916
 30
0.0
 10
4.640113636494505
 20
-21.86682899840645
 30
0.0
 10
7.473930383054807
 20
-22.24428791218575
 30
0.0
 10
10.49618938664619
 20
-22.24243243373975
 30
0.0
 10
13.51641820762734
 20
-21.80835076101443
 30
0.0
 10
15.97944840180833
 20
-21.19195816735467
 30
0.0
 10
17.43691074878689
 20
-20.58709102347234
 30
0.0
 10
17.88702293383159
 20
-20.400288206673
 30
0.0
  0
SPLINE
  5
226
330
1F
100
AcDbEntity
  8
0
  6
Continuous
 62
     1
370
    15
100
AcDbSpline
210
0.0
220
0.0
230
1.0
 70
     8
 71
     3
 72
    16
 73
    12
 74
     0
 42
0.000000001
 43
0.00000001
 40
0.0
 40
0.0
 40
0.0
 40
0.0
 40
0.0273284138121237
 40
0.0942056846465868
 40
0.1611140435179873
 40
0.2280650244439818
 40
0.2949580814859812
 40
0.3618372120227277
 40
0.4287598452233843
 40
0.4957019252760659
 40
0.5500109621498283
 40
0.5500109621498283
 40
0.5500109621498283
 40
0.5500109621498283
 10
26.83640831305922
 20
-22.17539438042468
 30
0.0
 10
26.42502398195938
 20
-22.18757456146039
 30
0.0
 10
25.00691231142611
 20
-22.22956171451944
 30
0.0
 10
22.58252720321491
 20
-21.87038714448111
 30
0.0
 10
19.56089804033633
 20
-21.11311892401364
 30
0.0
 10
16.53725513012199
 20
-19.94167757826747
 30
0.0
 10
13.51640412663551
 20
-18.40818041734835
 30
0.0
 10
10.49619316201139
 20
-16.53310873992408
 30
0.0
 10
7.473929370800874
 20
-14.35375434853061
 30
0.0
 10
4.640113817484718
 20
-12.06311169623894
 30
0.0
 10
2.815268296765225
 20
-10.46592046321236
 30
0.0
 10
1.997971097356839
 20
-9.730698398507345
 30
0.0
  0
LINE
  5
228
330
1F
100
AcDbEntity
  8
외형선
  6
Continuous
370
    15
100
AcDbLine
 10
1.997971097356924
 20
-22.15599238820782
 30
0.0
 11
1.997971097356924
 21
22.17082673395348
 31
0.0
  0
SPLINE
  5
25A
330
1F
100
AcDbEntity
  8
0
  6
Continuous
 62
     1
370
    15
100
AcDbSpline
210
0.0
220
0.0
230
1.0
 70
     8
 71
     3
 72
    21
 73
    17
 74
     0
 42
0.000000001
 43
0.00000001
 40
0.3416251945893916
 40
0.3416251945893916
 40
0.3416251945893916
 40
0.3416251945893916
 40
0.382855832923222
 40
0.4336772956666849
 40
0.4844839946402604
 40
0.5352576670181368
 40
0.5860419121981626
 40
0.6368701323564104
 40
0.6876659944648644
 40
0.7384382549835596
 40
0.7892305275487135
 40
0.8400598279993607
 40
0.8908468875068091
 40
0.9416197815926055
 40
0.9924221175033594
 40
1.0
 40
1.0
 40
1.0
 40
1.0
 10
1.997971097356867
 20
-4.66375607001998
 30
0.0
 10
2.815268293086405
 20
-5.46332235339399
 30
0.0
 10
4.64011380558631
 20
-7.227141226446212
 30
0.0
 10
7.473929437347124
 20
-9.852307891298137
 30
0.0
 10
10.49619291381637
 20
-12.47182098709459
 30
0.0
 10
13.51640505232928
 20
-14.86161839785294
 30
0.0
 10
16.53725167324365
 20
-16.9771722467406
 30
0.0
 10
19.5609109504752
 20
-18.77822600624741
 30
0.0
 10
22.58247906692708
 20
-20.23374349247764
 30
0.0
 10
25.60260526593817
 20
-21.31556366115466
 30
0.0
 10
28.62394727528743
 20
-22.00457726099869
 30
0.0
 10
31.64767727023036
 20
-22.28477694855466
 30
0.0
 10
34.66869593234986
 20
-22.16337352827868
 30
0.0
 10
37.68885899397071
 20
-21.59729881759591
 30
0.0
 10
39.85329169153113
 20
-21.00129908651335
 30
0.0
 10
41.0112106423677
 20
-20.48947124851824
 30
0.0
 10
41.16151110354173
 20
-20.42303485412569
 30
0.0
  0
SPLINE
  5
25C
330
1F
100
AcDbEntity
  8
0
  6
Continuous
 62
     1
370
    15
100
AcDbSpline
210
0.0
220
0.0
230
1.0
 70
     8
 71
     3
 72
    24
 73
    20
 74
     0
 42
0.000000001
 43
0.00000001
 40
0.2433347221549904
 40
0.2433347221549904
 40
0.2433347221549904
 40
0.2433347221549904
 40
0.2798664411191901
 40
0.3248959491149939
 40
0.3699123759191454
 40
0.4148995400599492
 40
0.4598960720554587
 40
0.5049315673457373
 40
0.5499383923265981
 40
0.5949243055131619
 40
0.6399279500391517
 40
0.6849644025044626
 40
0.7299634280877662
 40
0.7749499026358753
 40
0.8199624636211069
 40
0.8649948425817098
 40
0.9099878748797804
 40
0.9549767228394981
 40
1.0
 40
1.0
 40
1.0
 40
1.0
 10
1.997971097356952
 20
16.48697607135104
 30
0.0
 10
2.815268350229246
 20
15.93855128573639
 30
0.0
 10
4.640113738688171
 20
14.63952098443816
 30
0.0
 10
7.473929452236547
 20
12.39294617647344
 30
0.0
 10
10.49619290981968
 20
9.766991822940987
 30
0.0
 10
13.51640505343943
 20
6.960236819436748
 30
0.0
 10
16.53725167279902
 20
4.024771848360323
 30
0.0
 10
19.56091095114266
 20
1.016925861724061
 30
0.0
 10
22.58247906470393
 20
-2.011276269918575
 30
0.0
 10
25.60260527416136
 20
-5.002376825057622
 30
0.0
 10
28.62394724459347
 20
-7.901219022143708
 30
0.0
 10
31.64767738482828
 20
-10.6526323407817
 30
0.0
 10
34.6686955051228
 20
-13.20914739395726
 30
0.0
 10
37.68886058834016
 20
-15.52176669331638
 30
0.0
 10
40.71084105647242
 20
-17.54707596376443
 30
0.0
 10
43.73426985276279
 20
-19.25005477241833
 30
0.0
 10
46.75488109701394
 20
-20.59087639860371
 30
0.0
 10
49.77521084128574
 20
-21.58064733790053
 30
0.0
 10
51.7901274467273
 20
-21.90205084605693
 30
0.0
 10
52.79797109735688
 20
-22.06281406777573
 30
0.0
  0
ENDSEC
  0
SECTION
  2
OBJECTS
  0
DICTIONARY
  5
C
330
0
100
AcDbDictionary
281
     1
  3
ACAD_GROUP
350
D
  3
ACAD_IMAGE_VARS
350
128
  3
ACAD_LAYOUT
350
1A
  3
ACAD_MLINESTYLE
350
17
  3
ACAD_PLOTSETTINGS
350
19
  3
ACAD_PLOTSTYLENAME
350
E
  3
ACAD_SCALELIST
350
47
  3
APPDATA
350
126
  3
DWGPROPS
350
25E
  0
DICTIONARY
  5
1E2
330
2
100
AcDbDictionary
280
     1
281
     1
  3
ACAD_LAYERSTATES
360
1E3
  0
DICTIONARY
  5
D
102
{ACAD_REACTORS
330
C
102
}
330
C
100
AcDbDictionary
281
     1
  0
RASTERVARIABLES
  5
128
102
{ACAD_REACTORS
330
C
102
}
330
C
100
AcDbRasterVariables
 90
        0
 70
     1
 71
     1
 72
     1
  0
DICTIONARY
  5
1A
102
{ACAD_REACTORS
330
C
102
}
330
C
100
AcDbDictionary
281
     1
  3
Layout1
350
1E
  3
Layout2
350
26
  3
Model
350
22
  0
DICTIONARY
  5
17
102
{ACAD_REACTORS
330
C
102
}
330
C
100
AcDbDictionary
281
     1
  3
Standard
350
18
  0
DICTIONARY
  5
19
102
{ACAD_REACTORS
330
C
102
}
330
C
100
AcDbDictionary
281
     1
  0
ACDBDICTIONARYWDFLT
  5
E
102
{ACAD_REACTORS
330
C
102
}
330
C
100
AcDbDictionary
281
     1
  3
Normal
350
F
100
AcDbDictionaryWithDefault
340
F
  0
DICTIONARY
  5
47
102
{ACAD_REACTORS
330
C
102
}
330
C
100
AcDbDictionary
281
     1
  3
A0
350
48
  3
A1
350
49
  3
A2
350
4A
  3
A3
350
4B
  3
A4
350
4C
  3
A5
350
4D
  3
A6
350
4E
  3
A7
350
4F
  3
A8
350
50
  3
A9
350
51
  3
B0
350
52
  3
B1
350
53
  3
B2
350
54
  3
B3
350
55
  3
B4
350
56
  3
B5
350
57
  3
B6
350
58
  3
B7
350
59
  3
B8
350
5A
  3
B9
350
5B
  3
C0
350
5C
  3
C1
350
5D
  3
C2
350
5E
  3
C3
350
5F
  3
C4
350
60
  3
C5
350
61
  3
C6
350
62
  3
C7
350
63
  3
C8
350
64
  3
C9
350
65
  3
D0
350
66
  3
D1
350
67
  3
D2
350
68
  0
DICTIONARY
  5
126
102
{ACAD_REACTORS
330
C
102
}
330
C
100
AcDbDictionary
281
     1
  0
XRECORD
  5
25E
102
{ACAD_REACTORS
330
C
102
}
330
C
100
AcDbXrecord
280
     1
  1
DWGPROPS COOKIE
  2

  3

  4

  6

  7

  8
12017012
  9

300
=
301
=
302
=
303
=
304
=
305
=
306
=
307
=
308
=
309
=
 40
0.0
 41
2458323.107867535
 42
2458324.030145741
  1

 90
        0
  0
DICTIONARY
  5
1E3
102
{ACAD_REACTORS
330
1E2
102
}
330
1E2
100
AcDbDictionary
281
     1
  0
LAYOUT
  5
1E
102
{ACAD_REACTORS
330
1A
102
}
330
1A
100
AcDbPlotSettings
  1

  2
none_device
  4

  6

 40
0.0
 41
0.0
 42
0.0
 43
0.0
 44
0.0
 45
0.0
 46
0.0
 47
0.0
 48
0.0
 49
0.0
140
0.0
141
0.0
142
1.0
143
1.0
 70
   688
 72
     1
 73
     0
 74
     5
  7

 75
    16
147
1.0
148
0.0
149
0.0
100
AcDbLayout
  1
Layout1
 70
     1
 71
     1
 10
0.0
 20
0.0
 11
420.0
 21
297.0
 12
0.0
 22
0.0
 32
0.0
 14
1.000000000000000E+20
 24
1.000000000000000E+20
 34
1.000000000000000E+20
 15
-1.000000000000000E+20
 25
-1.000000000000000E+20
 35
-1.000000000000000E+20
146
0.0
 13
0.0
 23
0.0
 33
0.0
 16
1.0
 26
0.0
 36
0.0
 17
0.0
 27
1.0
 37
0.0
 76
     0
330
1B
  0
LAYOUT
  5
26
102
{ACAD_REACTORS
330
1A
102
}
330
1A
100
AcDbPlotSettings
  1

  2
none_device
  4

  6

 40
0.0
 41
0.0
 42
0.0
 43
0.0
 44
0.0
 45
0.0
 46
0.0
 47
0.0
 48
0.0
 49
0.0
140
0.0
141
0.0
142
1.0
143
1.0
 70
   688
 72
     1
 73
     0
 74
     5
  7

 75
    16
147
1.0
148
0.0
149
0.0
100
AcDbLayout
  1
Layout2
 70
     1
 71
     2
 10
0.0
 20
0.0
 11
0.0
 21
0.0
 12
0.0
 22
0.0
 32
0.0
 14
0.0
 24
0.0
 34
0.0
 15
0.0
 25
0.0
 35
0.0
146
0.0
 13
0.0
 23
0.0
 33
0.0
 16
1.0
 26
0.0
 36
0.0
 17
0.0
 27
1.0
 37
0.0
 76
     0
330
23
  0
LAYOUT
  5
22
102
{ACAD_REACTORS
330
1A
102
}
330
1A
100
AcDbPlotSettings
  1

  2
none_device
  4
ANSI_A_(11.00_x_8.50_Inches)
  6

 40
6.35
 41
19.05
 42
6.35000508
 43
19.05000254
 44
279.4
 45
215.9
 46
96.39525648754174
 47
90.09827952143297
 48
0.0
 49
0.0
140
0.0
141
0.0
142
0.0605651527843098
143
1.0
 70
  1696
 72
     0
 73
     0
 74
     0
  7

 75
     0
147
0.0235690232323232
148
0.0
149
0.0
100
AcDbLayout
  1
Model
 70
     1
 71
     0
 10
0.0
 20
0.0
 11
420.0
 21
297.0
 12
0.0
 22
0.0
 32
0.0
 14
1.000000000000000E+20
 24
1.000000000000000E+20
 34
1.000000000000000E+20
 15
-1.000000000000000E+20
 25
-1.000000000000000E+20
 35
-1.000000000000000E+20
146
0.0
 13
0.0
 23
0.0
 33
0.0
 16
1.0
 26
0.0
 36
0.0
 17
0.0
 27
1.0
 37
0.0
 76
     0
330
1F
331
29
  0
MLINESTYLE
  5
18
102
{ACAD_REACTORS
330
17
102
}
330
17
100
AcDbMlineStyle
  2
Standard
 70
     0
  3

 62
   256
 51
90.0
 52
90.0
 71
     2
 49
0.5
 62
   256
  6
BYLAYER
 49
-0.5
 62
   256
  6
BYLAYER
  0
ACDBPLACEHOLDER
  5
F
102
{ACAD_REACTORS
330
E
102
}
330
E
  0
SCALE
  5
48
102
{ACAD_REACTORS
330
47
102
}
330
47
100
AcDbScale
 70
     0
300
1:1
140
1.0
141
1.0
290
     1
  0
SCALE
  5
49
102
{ACAD_REACTORS
330
47
102
}
330
47
100
AcDbScale
 70
     0
300
1:2
140
1.0
141
2.0
290
     0
  0
SCALE
  5
4A
102
{ACAD_REACTORS
330
47
102
}
330
47
100
AcDbScale
 70
     0
300
1:4
140
1.0
141
4.0
290
     0
  0
SCALE
  5
4B
102
{ACAD_REACTORS
330
47
102
}
330
47
100
AcDbScale
 70
     0
300
1:5
140
1.0
141
5.0
290
     0
  0
SCALE
  5
4C
102
{ACAD_REACTORS
330
47
102
}
330
47
100
AcDbScale
 70
     0
300
1:8
140
1.0
141
8.0
290
     0
  0
SCALE
  5
4D
102
{ACAD_REACTORS
330
47
102
}
330
47
100
AcDbScale
 70
     0
300
1:10
140
1.0
141
10.0
290
     0
  0
SCALE
  5
4E
102
{ACAD_REACTORS
330
47
102
}
330
47
100
AcDbScale
 70
     0
300
1:16
140
1.0
141
16.0
290
     0
  0
SCALE
  5
4F
102
{ACAD_REACTORS
330
47
102
}
330
47
100
AcDbScale
 70
     0
300
1:20
140
1.0
141
20.0
290
     0
  0
SCALE
  5
50
102
{ACAD_REACTORS
330
47
102
}
330
47
100
AcDbScale
 70
     0
300
1:30
140
1.0
141
30.0
290
     0
  0
SCALE
  5
51
102
{ACAD_REACTORS
330
47
102
}
330
47
100
AcDbScale
 70
     0
300
1:40
140
1.0
141
40.0
290
     0
  0
SCALE
  5
52
102
{ACAD_REACTORS
330
47
102
}
330
47
100
AcDbScale
 70
     0
300
1:50
140
1.0
141
50.0
290
     0
  0
SCALE
  5
53
102
{ACAD_REACTORS
330
47
102
}
330
47
100
AcDbScale
 70
     0
300
1:100
140
1.0
141
100.0
290
     0
  0
SCALE
  5
54
102
{ACAD_REACTORS
330
47
102
}
330
47
100
AcDbScale
 70
     0
300
2:1
140
2.0
141
1.0
290
     0
  0
SCALE
  5
55
102
{ACAD_REACTORS
330
47
102
}
330
47
100
AcDbScale
 70
     0
300
4:1
140
4.0
141
1.0
290
     0
  0
SCALE
  5
56
102
{ACAD_REACTORS
330
47
102
}
330
47
100
AcDbScale
 70
     0
300
8:1
140
8.0
141
1.0
290
     0
  0
SCALE
  5
57
102
{ACAD_REACTORS
330
47
102
}
330
47
100
AcDbScale
 70
     0
300
10:1
140
10.0
141
1.0
290
     0
  0
SCALE
  5
58
102
{ACAD_REACTORS
330
47
102
}
330
47
100
AcDbScale
 70
     0
300
100:1
140
100.0
141
1.0
290
     0
  0
SCALE
  5
59
102
{ACAD_REACTORS
330
47
102
}
330
47
100
AcDbScale
 70
     0
300
1/128" = 1'-0"
140
0.0078125
141
12.0
290
     0
  0
SCALE
  5
5A
102
{ACAD_REACTORS
330
47
102
}
330
47
100
AcDbScale
 70
     0
300
1/64" = 1'-0"
140
0.015625
141
12.0
290
     0
  0
SCALE
  5
5B
102
{ACAD_REACTORS
330
47
102
}
330
47
100
AcDbScale
 70
     0
300
1/32" = 1'-0"
140
0.03125
141
12.0
290
     0
  0
SCALE
  5
5C
102
{ACAD_REACTORS
330
47
102
}
330
47
100
AcDbScale
 70
     0
300
1/16" = 1'-0"
140
0.0625
141
12.0
290
     0
  0
SCALE
  5
5D
102
{ACAD_REACTORS
330
47
102
}
330
47
100
AcDbScale
 70
     0
300
3/32" = 1'-0"
140
0.09375
141
12.0
290
     0
  0
SCALE
  5
5E
102
{ACAD_REACTORS
330
47
102
}
330
47
100
AcDbScale
 70
     0
300
1/8" = 1'-0"
140
0.125
141
12.0
290
     0
  0
SCALE
  5
5F
102
{ACAD_REACTORS
330
47
102
}
330
47
100
AcDbScale
 70
     0
300
3/16" = 1'-0"
140
0.1875
141
12.0
290
     0
  0
SCALE
  5
60
102
{ACAD_REACTORS
330
47
102
}
330
47
100
AcDbScale
 70
     0
300
1/4" = 1'-0"
140
0.25
141
12.0
290
     0
  0
SCALE
  5
61
102
{ACAD_REACTORS
330
47
102
}
330
47
100
AcDbScale
 70
     0
300
3/8" = 1'-0"
140
0.375
141
12.0
290
     0
  0
SCALE
  5
62
102
{ACAD_REACTORS
330
47
102
}
330
47
100
AcDbScale
 70
     0
300
1/2" = 1'-0"
140
0.5
141
12.0
290
     0
  0
SCALE
  5
63
102
{ACAD_REACTORS
330
47
102
}
330
47
100
AcDbScale
 70
     0
300
3/4" = 1'-0"
140
0.75
141
12.0
290
     0
  0
SCALE
  5
64
102
{ACAD_REACTORS
330
47
102
}
330
47
100
AcDbScale
 70
     0
300
1" = 1'-0"
140
1.0
141
12.0
290
     0
  0
SCALE
  5
65
102
{ACAD_REACTORS
330
47
102
}
330
47
100
AcDbScale
 70
     0
300
1-1/2" = 1'-0"
140
1.5
141
12.0
290
     0
  0
SCALE
  5
66
102
{ACAD_REACTORS
330
47
102
}
330
47
100
AcDbScale
 70
     0
300
3" = 1'-0"
140
3.0
141
12.0
290
     0
  0
SCALE
  5
67
102
{ACAD_REACTORS
330
47
102
}
330
47
100
AcDbScale
 70
     0
300
6" = 1'-0"
140
6.0
141
12.0
290
     0
  0
SCALE
  5
68
102
{ACAD_REACTORS
330
47
102
}
330
47
100
AcDbScale
 70
     0
300
1'-0" = 1'-0"
140
12.0
141
12.0
290
     0
  0
ENDSEC
  0
EOF
