  0
SECTION
  2
HEADER
  9
$ACADVER
  1
AC1015
  9
$ACADMAINTVER
 70
     6
  9
$DWGCODEPAGE
  3
ANSI_949
  9
$INSBASE
 10
0.0
 20
0.0
 30
0.0
  9
$EXTMIN
 10
1.000000000000000E+20
 20
1.000000000000000E+20
 30
1.000000000000000E+20
  9
$EXTMAX
 10
-1.000000000000000E+20
 20
-1.000000000000000E+20
 30
-1.000000000000000E+20
  9
$LIMMIN
 10
0.0
 20
0.0
  9
$LIMMAX
 10
420.0
 20
297.0
  9
$ORTHOMODE
 70
     0
  9
$REGENMODE
 70
     1
  9
$FILLMODE
 70
     1
  9
$QTEXTMODE
 70
     0
  9
$MIRRTEXT
 70
     1
  9
$LTSCALE
 40
1.0
  9
$ATTMODE
 70
     1
  9
$TEXTSIZE
 40
3.5
  9
$TRACEWID
 40
1.0
  9
$TEXTSTYLE
  7
Standard
  9
$CLAYER
  8
0
  9
$CELTYPE
  6
ByLayer
  9
$CECOLOR
 62
   256
  9
$CELTSCALE
 40
1.0
  9
$DISPSILH
 70
     0
  9
$DIMSCALE
 40
1.0
  9
$DIMASZ
 40
3.302
  9
$DIMEXO
 40
1.0
  9
$DIMDLI
 40
3.75
  9
$DIMRND
 40
0.0
  9
$DIMDLE
 40
0.0
  9
$DIMEXE
 40
1.0
  9
$DIMTP
 40
0.0
  9
$DIMTM
 40
0.0
  9
$DIMTXT
 40
3.5
  9
$DIMCEN
 40
2.5
  9
$DIMTSZ
 40
0.0
  9
$DIMTOL
 70
     0
  9
$DIMLIM
 70
     0
  9
$DIMTIH
 70
     1
  9
$DIMTOH
 70
     1
  9
$DIMSE1
 70
     0
  9
$DIMSE2
 70
     0
  9
$DIMTAD
 70
     1
  9
$DIMZIN
 70
     0
  9
$DIMBLK
  1

  9
$DIMASO
 70
     1
  9
$DIMSHO
 70
     1
  9
$DIMPOST
  1

  9
$DIMAPOST
  1

  9
$DIMALT
 70
     0
  9
$DIMALTD
 70
     3
  9
$DIMALTF
 40
0.0393700787401575
  9
$DIMLFAC
 40
1.0
  9
$DIMTOFL
 70
     1
  9
$DIMTVP
 40
0.0
  9
$DIMTIX
 70
     0
  9
$DIMSOXD
 70
     0
  9
$DIMSAH
 70
     0
  9
$DIMBLK1
  1

  9
$DIMBLK2
  1

  9
$DIMSTYLE
  2
ISO-25
  9
$DIMCLRD
 70
     0
  9
$DIMCLRE
 70
     0
  9
$DIMCLRT
 70
     0
  9
$DIMTFAC
 40
1.0
  9
$DIMGAP
 40
1.524
  9
$DIMJUST
 70
     0
  9
$DIMSD1
 70
     0
  9
$DIMSD2
 70
     0
  9
$DIMTOLJ
 70
     0
  9
$DIMTZIN
 70
     0
  9
$DIMALTZ
 70
     0
  9
$DIMALTTZ
 70
     0
  9
$DIMUPT
 70
     0
  9
$DIMDEC
 70
     2
  9
$DIMTDEC
 70
     2
  9
$DIMALTU
 70
     2
  9
$DIMALTTD
 70
     3
  9
$DIMTXSTY
  7
Standard
  9
$DIMAUNIT
 70
     0
  9
$DIMADEC
 70
     2
  9
$DIMALTRND
 40
0.0
  9
$DIMAZIN
 70
     0
  9
$DIMDSEP
 70
    44
  9
$DIMATFIT
 70
     3
  9
$DIMFRAC
 70
     0
  9
$DIMLDRBLK
  1

  9
$DIMLUNIT
 70
     2
  9
$DIMLWD
 70
    -2
  9
$DIMLWE
 70
    -2
  9
$DIMTMOVE
 70
     0
  9
$LUNITS
 70
     2
  9
$LUPREC
 70
     2
  9
$SKETCHINC
 40
1.0
  9
$FILLETRAD
 40
10.0
  9
$AUNITS
 70
     0
  9
$AUPREC
 70
     2
  9
$MENU
  1
.
  9
$ELEVATION
 40
0.0
  9
$PELEVATION
 40
0.0
  9
$THICKNESS
 40
0.0
  9
$LIMCHECK
 70
     0
  9
$CHAMFERA
 40
0.0
  9
$CHAMFERB
 40
0.0
  9
$CHAMFERC
 40
0.0
  9
$CHAMFERD
 40
0.0
  9
$SKPOLY
 70
     0
  9
$TDCREATE
 40
2458323.482443947
  9
$TDUCREATE
 40
2458323.107443947
  9
$TDUPDATE
 40
2458324.392733391
  9
$TDUUPDATE
 40
2458324.017733391
  9
$TDINDWG
 40
0.0010483102
  9
$TDUSRTIMER
 40
2458324.016685497
  9
$USRTIMER
 70
     1
  9
$ANGBASE
 50
0.0
  9
$ANGDIR
 70
     0
  9
$PDMODE
 70
     0
  9
$PDSIZE
 40
-1.0
  9
$PLINEWID
 40
0.0
  9
$SPLFRAME
 70
     0
  9
$SPLINETYPE
 70
     6
  9
$SPLINESEGS
 70
     8
  9
$HANDSEED
  5
36E
  9
$SURFTAB1
 70
     6
  9
$SURFTAB2
 70
     6
  9
$SURFTYPE
 70
     6
  9
$SURFU
 70
     6
  9
$SURFV
 70
     6
  9
$UCSBASE
  2

  9
$UCSNAME
  2

  9
$UCSORG
 10
0.0
 20
0.0
 30
0.0
  9
$UCSXDIR
 10
1.0
 20
0.0
 30
0.0
  9
$UCSYDIR
 10
0.0
 20
1.0
 30
0.0
  9
$UCSORTHOREF
  2

  9
$UCSORTHOVIEW
 70
     0
  9
$UCSORGTOP
 10
0.0
 20
0.0
 30
0.0
  9
$UCSORGBOTTOM
 10
0.0
 20
0.0
 30
0.0
  9
$UCSORGLEFT
 10
0.0
 20
0.0
 30
0.0
  9
$UCSORGRIGHT
 10
0.0
 20
0.0
 30
0.0
  9
$UCSORGFRONT
 10
0.0
 20
0.0
 30
0.0
  9
$UCSORGBACK
 10
0.0
 20
0.0
 30
0.0
  9
$PUCSBASE
  2

  9
$PUCSNAME
  2

  9
$PUCSORG
 10
0.0
 20
0.0
 30
0.0
  9
$PUCSXDIR
 10
1.0
 20
0.0
 30
0.0
  9
$PUCSYDIR
 10
0.0
 20
1.0
 30
0.0
  9
$PUCSORTHOREF
  2

  9
$PUCSORTHOVIEW
 70
     0
  9
$PUCSORGTOP
 10
0.0
 20
0.0
 30
0.0
  9
$PUCSORGBOTTOM
 10
0.0
 20
0.0
 30
0.0
  9
$PUCSORGLEFT
 10
0.0
 20
0.0
 30
0.0
  9
$PUCSORGRIGHT
 10
0.0
 20
0.0
 30
0.0
  9
$PUCSORGFRONT
 10
0.0
 20
0.0
 30
0.0
  9
$PUCSORGBACK
 10
0.0
 20
0.0
 30
0.0
  9
$USERI1
 70
     0
  9
$USERI2
 70
     0
  9
$USERI3
 70
     0
  9
$USERI4
 70
     0
  9
$USERI5
 70
     0
  9
$USERR1
 40
0.0
  9
$USERR2
 40
0.0
  9
$USERR3
 40
0.0
  9
$USERR4
 40
0.0
  9
$USERR5
 40
0.0
  9
$WORLDVIEW
 70
     1
  9
$SHADEDGE
 70
     3
  9
$SHADEDIF
 70
    70
  9
$TILEMODE
 70
     1
  9
$MAXACTVP
 70
    64
  9
$PINSBASE
 10
0.0
 20
0.0
 30
0.0
  9
$PLIMCHECK
 70
     0
  9
$PEXTMIN
 10
1.000000000000000E+20
 20
1.000000000000000E+20
 30
1.000000000000000E+20
  9
$PEXTMAX
 10
-1.000000000000000E+20
 20
-1.000000000000000E+20
 30
-1.000000000000000E+20
  9
$PLIMMIN
 10
0.0
 20
0.0
  9
$PLIMMAX
 10
0.0
 20
0.0
  9
$UNITMODE
 70
     0
  9
$VISRETAIN
 70
     1
  9
$PLINEGEN
 70
     0
  9
$PSLTSCALE
 70
     1
  9
$TREEDEPTH
 70
  3020
  9
$CMLSTYLE
  2
Standard
  9
$CMLJUST
 70
     0
  9
$CMLSCALE
 40
20.0
  9
$PROXYGRAPHICS
 70
     1
  9
$MEASUREMENT
 70
     1
  9
$CELWEIGHT
370
    -1
  9
$ENDCAPS
280
     0
  9
$JOINSTYLE
280
     0
  9
$LWDISPLAY
290
     1
  9
$INSUNITS
 70
     4
  9
$HYPERLINKBASE
  1

  9
$STYLESHEET
  1

  9
$XEDIT
290
     1
  9
$CEPSNTYPE
380
     0
  9
$PSTYLEMODE
290
     1
  9
$FINGERPRINTGUID
  2
{CFE22165-4DDB-4810-B732-7DED17642F78}
  9
$VERSIONGUID
  2
{FAEB1C32-E019-11D5-929B-00C0DF256EC4}
  9
$EXTNAMES
290
     1
  9
$PSVPSCALE
 40
0.0
  9
$OLESTARTUP
290
     0
  0
ENDSEC
  0
SECTION
  2
CLASSES
  0
CLASS
  1
ACDBDICTIONARYWDFLT
  2
AcDbDictionaryWithDefault
  3
ObjectDBX Classes
 90
        0
280
     0
281
     0
  0
CLASS
  1
VISUALSTYLE
  2
AcDbVisualStyle
  3
ObjectDBX Classes
 90
     4095
280
     0
281
     0
  0
CLASS
  1
MATERIAL
  2
AcDbMaterial
  3
ObjectDBX Classes
 90
     1153
280
     0
281
     0
  0
CLASS
  1
SCALE
  2
AcDbScale
  3
ObjectDBX Classes
 90
     1153
280
     0
281
     0
  0
CLASS
  1
SUN
  2
AcDbSun
  3
SCENEOE
 90
     1153
280
     0
281
     0
  0
CLASS
  1
ACDBPLACEHOLDER
  2
AcDbPlaceHolder
  3
ObjectDBX Classes
 90
        0
280
     0
281
     0
  0
CLASS
  1
LAYOUT
  2
AcDbLayout
  3
ObjectDBX Classes
 90
        0
280
     0
281
     0
  0
CLASS
  1
TABLESTYLE
  2
AcDbTableStyle
  3
ObjectDBX Classes
 90
     4095
280
     0
281
     0
  0
CLASS
  1
MLEADERSTYLE
  2
AcDbMLeaderStyle
  3
ACDB_MLEADERSTYLE_CLASS
 90
     4095
280
     0
281
     0
  0
CLASS
  1
RASTERVARIABLES
  2
AcDbRasterVariables
  3
ISM
 90
        0
280
     0
281
     0
  0
CLASS
  1
DIMASSOC
  2
AcDbDimAssoc
  3
"AcDbDimAssoc|Product Desc:     AcDim ARX App For Dimension|Company:          Autodesk, Inc.|WEB Address:      www.autodesk.com"
 90
        0
280
     0
281
     0
  0
ENDSEC
  0
SECTION
  2
TABLES
  0
TABLE
  2
VPORT
  5
8
330
0
100
AcDbSymbolTable
 70
     1
  0
VPORT
  5
29
330
8
100
AcDbSymbolTableRecord
100
AcDbViewportTableRecord
  2
*Active
 70
     0
 10
0.0
 20
0.0
 11
1.0
 21
1.0
 12
8.375913556058421
 22
13.21030378837624
 13
0.0
 23
0.0
 14
10.0
 24
10.0
 15
10.0
 25
10.0
 16
0.0
 26
0.0
 36
1.0
 17
0.0
 27
0.0
 37
0.0
 40
140.4656382528031
 41
1.632093933463796
 42
50.0
 43
0.0
 44
0.0
 50
0.0
 51
0.0
 71
    16
 72
  2000
 73
     1
 74
     3
 75
     0
 76
     0
 77
     0
 78
     0
281
     0
 65
     1
110
0.0
120
0.0
130
0.0
111
1.0
121
0.0
131
0.0
112
0.0
122
1.0
132
0.0
 79
     0
146
0.0
  0
ENDTAB
  0
TABLE
  2
LTYPE
  5
5
330
0
100
AcDbSymbolTable
 70
     6
  0
LTYPE
  5
14
330
5
100
AcDbSymbolTableRecord
100
AcDbLinetypeTableRecord
  2
ByBlock
 70
     0
  3

 72
    65
 73
     0
 40
0.0
  0
LTYPE
  5
15
330
5
100
AcDbSymbolTableRecord
100
AcDbLinetypeTableRecord
  2
ByLayer
 70
     0
  3

 72
    65
 73
     0
 40
0.0
  0
LTYPE
  5
16
330
5
100
AcDbSymbolTableRecord
100
AcDbLinetypeTableRecord
  2
Continuous
 70
     0
  3
Solid line
 72
    65
 73
     0
 40
0.0
  0
LTYPE
  5
6A
330
5
100
AcDbSymbolTableRecord
100
AcDbLinetypeTableRecord
  2
HIDDEN
 70
     0
  3
Hidden __ __ __ __ __ __ __ __ __ __ __ __ __ __
 72
    65
 73
     2
 40
1.905
 49
1.27
 74
     0
 49
-0.635
 74
     0
  0
LTYPE
  5
6B
330
5
100
AcDbSymbolTableRecord
100
AcDbLinetypeTableRecord
  2
PHANTOM
 70
     0
  3
Phantom ______  __  __  ______  __  __  ______
 72
    65
 73
     6
 40
12.7
 49
6.35
 74
     0
 49
-1.27
 74
     0
 49
1.27
 74
     0
 49
-1.27
 74
     0
 49
1.27
 74
     0
 49
-1.27
 74
     0
  0
LTYPE
  5
6C
330
5
100
AcDbSymbolTableRecord
100
AcDbLinetypeTableRecord
  2
CENTER
 70
     0
  3
Center ____ _ ____ _ ____ _ ____ _ ____ _ ____
 72
    65
 73
     4
 40
10.16
 49
6.35
 74
     0
 49
-1.27
 74
     0
 49
1.27
 74
     0
 49
-1.27
 74
     0
  0
LTYPE
  5
6D
330
5
100
AcDbSymbolTableRecord
100
AcDbLinetypeTableRecord
  2
CENTERX2
 70
     0
  3
Center (2x) ________  __  ________  __  _____
 72
    65
 73
     4
 40
20.32
 49
12.7
 74
     0
 49
-2.54
 74
     0
 49
2.54
 74
     0
 49
-2.54
 74
     0
  0
LTYPE
  5
6E
330
5
100
AcDbSymbolTableRecord
100
AcDbLinetypeTableRecord
  2
DOT2
 70
     0
  3
Dot (.5x) ........................................
 72
    65
 73
     2
 40
0.635
 49
0.0
 74
     0
 49
-0.635
 74
     0
  0
ENDTAB
  0
TABLE
  2
LAYER
  5
2
102
{ACAD_XDICTIONARY
360
1EC
102
}
330
0
100
AcDbSymbolTable
 70
    18
  0
LAYER
  5
10
330
2
100
AcDbSymbolTableRecord
100
AcDbLayerTableRecord
  2
0
 70
     0
 62
     7
  6
Continuous
370
    -3
390
F
  0
LAYER
  5
6F
330
2
100
AcDbSymbolTableRecord
100
AcDbLayerTableRecord
  2
FORMAT
 70
     0
 62
     2
  6
Continuous
370
    -3
390
F
  0
LAYER
  5
70
330
2
100
AcDbSymbolTableRecord
100
AcDbLayerTableRecord
  2
외형선
 70
     0
 62
     4
  6
Continuous
370
    30
390
F
  0
LAYER
  5
71
330
2
100
AcDbSymbolTableRecord
100
AcDbLayerTableRecord
  2
숨은선
 70
     0
 62
     2
  6
HIDDEN
370
    15
390
F
  0
LAYER
  5
72
330
2
100
AcDbSymbolTableRecord
100
AcDbLayerTableRecord
  2
중심선
 70
     0
 62
     1
  6
CENTERX2
370
    -3
390
F
  0
LAYER
  5
73
330
2
100
AcDbSymbolTableRecord
100
AcDbLayerTableRecord
  2
파단선
 70
     0
 62
     4
  6
Continuous
370
    -3
390
F
  0
LAYER
  5
74
330
2
100
AcDbSymbolTableRecord
100
AcDbLayerTableRecord
  2
해칭선
 70
     0
 62
   100
  6
Continuous
370
    -3
390
F
  0
LAYER
  5
75
330
2
100
AcDbSymbolTableRecord
100
AcDbLayerTableRecord
  2
가는실선
 70
     0
 62
     4
  6
Continuous
370
    -3
390
F
  0
LAYER
  5
76
330
2
100
AcDbSymbolTableRecord
100
AcDbLayerTableRecord
  2
치수_보조선
 70
     0
 62
     4
  6
Continuous
370
    -3
390
F
  0
LAYER
  5
77
330
2
100
AcDbSymbolTableRecord
100
AcDbLayerTableRecord
  2
치수문자_일반주서
 70
     0
 62
     7
  6
Continuous
370
    15
390
F
  0
LAYER
  5
78
330
2
100
AcDbSymbolTableRecord
100
AcDbLayerTableRecord
  2
개별주서
 70
     0
 62
   100
  6
Continuous
370
    30
390
F
  0
LAYER
  5
79
330
2
100
AcDbSymbolTableRecord
100
AcDbLayerTableRecord
  2
중간선
 70
     0
 62
     2
  6
Continuous
370
    15
390
F
  0
LAYER
  5
7A
330
2
100
AcDbSymbolTableRecord
100
AcDbLayerTableRecord
  2
윤곽선
 70
     0
 62
     3
  6
Continuous
370
    40
390
F
  0
LAYER
  5
7B
330
2
100
AcDbSymbolTableRecord
100
AcDbLayerTableRecord
  2
중심마크
 70
     0
 62
   100
  6
Continuous
370
    30
390
F
  0
LAYER
  5
7C
330
2
100
AcDbSymbolTableRecord
100
AcDbLayerTableRecord
  2
가상선
 70
     0
 62
     4
  6
PHANTOM
370
    -3
390
F
  0
LAYER
  5
7D
330
2
100
AcDbSymbolTableRecord
100
AcDbLayerTableRecord
  2
특수지정선
 70
     0
 62
     5
  6
CENTERX2
370
    60
390
F
  0
LAYER
  5
7E
330
2
100
AcDbSymbolTableRecord
100
AcDbLayerTableRecord
  2
참조1
 70
     0
 62
    -4
  6
Continuous
370
    -3
390
F
  0
LAYER
  5
144
330
2
100
AcDbSymbolTableRecord
100
AcDbLayerTableRecord
  2
Defpoints
 70
     0
 62
     7
  6
Continuous
290
     0
370
    -3
390
F
  0
ENDTAB
  0
TABLE
  2
STYLE
  5
3
330
0
100
AcDbSymbolTable
 70
     2
  0
STYLE
  5
11
330
3
100
AcDbSymbolTableRecord
100
AcDbTextStyleTableRecord
  2
Standard
 70
     0
 40
0.0
 41
1.0
 50
0.0
 71
     0
 42
3.5
  3
txt
  4

  0
STYLE
  5
94
330
3
100
AcDbSymbolTableRecord
100
AcDbTextStyleTableRecord
  2
SLDTEXTSTYLE0
 70
     0
 40
0.0
 41
0.75
 50
0.0
 71
     0
 42
3.5
  3
TXT
  4

  0
ENDTAB
  0
TABLE
  2
VIEW
  5
6
330
0
100
AcDbSymbolTable
 70
     0
  0
ENDTAB
  0
TABLE
  2
UCS
  5
7
330
0
100
AcDbSymbolTable
 70
     0
  0
ENDTAB
  0
TABLE
  2
APPID
  5
9
330
0
100
AcDbSymbolTable
 70
     1
  0
APPID
  5
12
330
9
100
AcDbSymbolTableRecord
100
AcDbRegAppTableRecord
  2
ACAD
 70
     0
  0
ENDTAB
  0
TABLE
  2
DIMSTYLE
  5
A
330
0
100
AcDbSymbolTable
 70
     3
100
AcDbDimStyleTable
  0
DIMSTYLE
105
27
330
A
100
AcDbSymbolTableRecord
100
AcDbDimStyleTableRecord
  2
ISO-25
 70
     0
 41
2.5
 42
0.625
 43
3.75
 44
1.25
 73
     0
 74
     0
 77
     1
 78
     8
140
2.5
141
2.5
143
0.03937007874016
147
0.625
171
     3
172
     1
178
     0
271
     2
272
     2
274
     3
278
    44
283
     0
284
     8
340
11
  0
DIMSTYLE
105
C2
102
{ACAD_REACTORS
330
1A5
330
1B2
330
1BF
330
1CC
330
28F
330
29C
330
2A9
330
2B6
330
310
330
312
330
313
330
35E
102
}
330
A
100
AcDbSymbolTableRecord
100
AcDbDimStyleTableRecord
  2
SLDDIMSTYLE0
 70
     0
 41
3.302
 44
0.0
 45
0.000000001
 73
     0
 74
     0
 77
     1
 78
    12
 79
     3
140
3.5
143
0.0393700787401575
147
0.875
148
0.000000001
170
     1
172
     1
173
     1
178
     0
271
     2
272
     2
276
     2
284
    12
289
     0
340
94
  0
DIMSTYLE
105
EB
330
A
100
AcDbSymbolTableRecord
100
AcDbDimStyleTableRecord
  2
SLDDIMSTYLE1
 70
     0
 41
3.302
 44
0.0
 45
0.000000001
 73
     0
 74
     0
 77
     1
 78
    12
 79
     3
140
3.5
143
0.0393700787401575
147
0.875
148
0.000000001
170
     1
173
     1
178
     0
271
     2
272
     2
276
     2
284
    12
340
94
  0
ENDTAB
  0
TABLE
  2
BLOCK_RECORD
  5
1
330
0
100
AcDbSymbolTable
 70
    22
  0
BLOCK_RECORD
  5
1F
330
1
100
AcDbSymbolTableRecord
100
AcDbBlockTableRecord
  2
*Model_Space
340
22
  0
BLOCK_RECORD
  5
1B
330
1
100
AcDbSymbolTableRecord
100
AcDbBlockTableRecord
  2
*Paper_Space
340
1E
  0
BLOCK_RECORD
  5
23
330
1
100
AcDbSymbolTableRecord
100
AcDbBlockTableRecord
  2
*Paper_Space0
340
26
  0
BLOCK_RECORD
  5
7F
330
1
100
AcDbSymbolTableRecord
100
AcDbBlockTableRecord
  2
블럭10
340
0
102
{BLKREFS
331
BA
331
24D
331
0
102
}
  0
BLOCK_RECORD
  5
C3
330
1
100
AcDbSymbolTableRecord
100
AcDbBlockTableRecord
  2
_D
340
0
  0
BLOCK_RECORD
  5
D7
330
1
100
AcDbSymbolTableRecord
100
AcDbBlockTableRecord
  2
_D_1
340
0
  0
BLOCK_RECORD
  5
EC
330
1
100
AcDbSymbolTableRecord
100
AcDbBlockTableRecord
  2
_D_2
340
0
  0
BLOCK_RECORD
  5
FF
330
1
100
AcDbSymbolTableRecord
100
AcDbBlockTableRecord
  2
_D_3
340
0
  0
BLOCK_RECORD
  5
118
330
1
100
AcDbSymbolTableRecord
100
AcDbBlockTableRecord
  2
SW_DOWELSYMBOL_0
340
0
102
{BLKREFS
331
0
331
1DC
331
2C6
331
314
102
}
  0
BLOCK_RECORD
  5
1F0
330
1
100
AcDbSymbolTableRecord
100
AcDbBlockTableRecord
  2
*D8
340
0
  0
BLOCK_RECORD
  5
1FC
330
1
100
AcDbSymbolTableRecord
100
AcDbBlockTableRecord
  2
*D9
340
0
  0
BLOCK_RECORD
  5
208
330
1
100
AcDbSymbolTableRecord
100
AcDbBlockTableRecord
  2
*D10
340
0
  0
BLOCK_RECORD
  5
214
330
1
100
AcDbSymbolTableRecord
100
AcDbBlockTableRecord
  2
*D11
340
0
  0
BLOCK_RECORD
  5
290
330
1
100
AcDbSymbolTableRecord
100
AcDbBlockTableRecord
  2
*D13
340
0
  0
BLOCK_RECORD
  5
29D
330
1
100
AcDbSymbolTableRecord
100
AcDbBlockTableRecord
  2
*D14
340
0
  0
BLOCK_RECORD
  5
2AA
330
1
100
AcDbSymbolTableRecord
100
AcDbBlockTableRecord
  2
*D15
340
0
  0
BLOCK_RECORD
  5
2B7
330
1
100
AcDbSymbolTableRecord
100
AcDbBlockTableRecord
  2
*D16
340
0
  0
BLOCK_RECORD
  5
329
330
1
100
AcDbSymbolTableRecord
100
AcDbBlockTableRecord
  2
*D17
340
0
  0
BLOCK_RECORD
  5
335
330
1
100
AcDbSymbolTableRecord
100
AcDbBlockTableRecord
  2
*D18
340
0
  0
BLOCK_RECORD
  5
341
330
1
100
AcDbSymbolTableRecord
100
AcDbBlockTableRecord
  2
*D19
340
0
  0
BLOCK_RECORD
  5
34D
330
1
100
AcDbSymbolTableRecord
100
AcDbBlockTableRecord
  2
*D20
340
0
  0
BLOCK_RECORD
  5
361
330
1
100
AcDbSymbolTableRecord
100
AcDbBlockTableRecord
  2
*D21
340
0
  0
ENDTAB
  0
ENDSEC
  0
SECTION
  2
BLOCKS
  0
BLOCK
  5
20
330
1F
100
AcDbEntity
  8
0
100
AcDbBlockBegin
  2
*Model_Space
 70
     0
 10
0.0
 20
0.0
 30
0.0
  3
*Model_Space
  1
*Model_Space
  0
ENDBLK
  5
21
330
1F
100
AcDbEntity
  8
0
100
AcDbBlockEnd
  0
BLOCK
  5
1C
330
1B
100
AcDbEntity
 67
     1
  8
0
100
AcDbBlockBegin
  2
*Paper_Space
 70
     0
 10
0.0
 20
0.0
 30
0.0
  3
*Paper_Space
  1
*Paper_Space
  0
ENDBLK
  5
1D
330
1B
100
AcDbEntity
 67
     1
  8
0
100
AcDbBlockEnd
  0
BLOCK
  5
24
330
23
100
AcDbEntity
  8
0
100
AcDbBlockBegin
  2
*Paper_Space0
 70
     0
 10
0.0
 20
0.0
 30
0.0
  3
*Paper_Space0
  1
*Paper_Space0
  0
ENDBLK
  5
25
330
23
100
AcDbEntity
  8
0
100
AcDbBlockEnd
  0
BLOCK
  5
80
330
7F
100
AcDbEntity
  8
0
100
AcDbBlockBegin
  2
블럭10
 70
     2
 10
0.0
 20
0.0
 30
0.0
  3
블럭10
  1
블럭10
  0
ELLIPSE
  5
82
330
7F
100
AcDbEntity
  8
중심선
100
AcDbEllipse
 10
20.54032771741204
 20
12.0471743016438
 30
0.0
 11
6.600054785286829
 21
-1.261213355974178E-13
 31
0.0
210
0.0
220
0.0
230
1.0
 40
0.636358354079598
 41
0.9219305317359503
 42
6.513795318482858
  0
ELLIPSE
  5
83
330
7F
100
AcDbEntity
  8
중심선
100
AcDbEllipse
 10
20.54032771746488
 20
12.04717430159265
 30
0.0
 11
3.960054785062283
 21
1.540847449632565E-10
 31
0.0
210
0.0
220
0.0
230
1.0
 40
0.3939339440162632
 41
1.131841032648279
 42
5.62031148352944
  0
LINE
  5
84
330
7F
100
AcDbEntity
  8
중심선
100
AcDbLine
 10
2.268634060543552
 20
16.24717430164393
 30
0.0
 11
5.714909304380834
 21
16.24717430164393
 31
0.0
  0
LINE
  5
85
330
7F
100
AcDbEntity
  8
중심선
100
AcDbLine
 10
5.245725140726316
 20
7.84717430164391
 30
0.0
 11
8.692000384563599
 21
7.84717430164391
 31
0.0
  0
LINE
  5
86
330
7F
100
AcDbEntity
  8
중심선
100
AcDbLine
 10
15.74043728645272
 20
16.24717430164393
 30
0.0
 11
8.692000384563599
 21
7.84717430164391
 31
0.0
  0
LINE
  5
87
330
7F
100
AcDbEntity
  8
중심선
100
AcDbLine
 10
0.1404042013395286
 20
13.71084872107135
 30
0.0
 11
3.58671253028996
 21
13.71088815037384
 31
0.0
  0
LINE
  5
88
330
7F
100
AcDbEntity
  8
중심선
100
AcDbLine
 10
2.750260043222114
 20
10.84717430164391
 30
0.0
 11
6.196535287059397
 21
10.84717430164391
 31
0.0
  0
LINE
  5
89
330
7F
100
AcDbEntity
  8
중심선
100
AcDbLine
 10
12.29416204261559
 20
16.24717430164393
 30
0.0
 11
5.245725140726316
 21
7.84717430164391
 31
0.0
  0
LINE
  5
8A
330
7F
100
AcDbEntity
  8
중심선
100
AcDbLine
 10
10.72767329541681
 20
16.24717430164393
 30
0.0
 11
6.196535287059397
 21
10.84717430164391
 31
0.0
  0
LINE
  5
8B
330
7F
100
AcDbEntity
  8
중심선
100
AcDbLine
 10
7.28139805157953
 20
16.24717430164393
 30
0.0
 11
2.750260043222114
 21
10.84717430164391
 31
0.0
  0
LINE
  5
8C
330
7F
100
AcDbEntity
  8
중심선
100
AcDbLine
 10
5.714909304380834
 20
16.24717430164393
 30
0.0
 11
3.58671253028996
 21
13.71088815037384
 31
0.0
  0
LINE
  5
8D
330
7F
100
AcDbEntity
  8
중심선
100
AcDbLine
 10
2.268634060543552
 20
16.24717430164393
 30
0.0
 11
0.1404042013395286
 21
13.71084872107135
 31
0.0
  0
LINE
  5
8E
330
7F
100
AcDbEntity
  8
중심선
100
AcDbLine
 10
7.28139805157953
 20
16.24717430164393
 30
0.0
 11
10.72767329541681
 21
16.24717430164393
 31
0.0
  0
LINE
  5
8F
330
7F
100
AcDbEntity
  8
중심선
100
AcDbLine
 10
12.29416204261559
 20
16.24717430164393
 30
0.0
 11
15.74043728645272
 21
16.24717430164393
 31
0.0
  0
LINE
  5
90
330
7F
100
AcDbEntity
  8
중심선
100
AcDbLine
 10
19.22036997980202
 20
11.08717430171403
 30
0.0
 11
23.66174974927406
 21
11.08717430171406
 31
0.0
  0
LINE
  5
91
330
7F
100
AcDbEntity
  8
중심선
100
AcDbLine
 10
19.22039502424796
 20
13.00717430171391
 30
0.0
 11
19.22036997980202
 21
11.08717430171403
 31
0.0
  0
LINE
  5
92
330
7F
100
AcDbEntity
  8
중심선
100
AcDbLine
 10
19.22039502424796
 20
13.00717430171391
 30
0.0
 11
26.96566020931264
 21
13.00717430171391
 31
0.0
  0
LINE
  5
93
330
7F
100
AcDbEntity
  8
중심선
100
AcDbLine
 10
22.22332737316547
 20
13.45928029700563
 30
0.0
 11
24.52862924686651
 21
15.39360700705356
 31
0.0
  0
ATTDEF
  5
95
330
7F
100
AcDbEntity
  8
FORMAT
 62
     2
100
AcDbText
 10
4.408487351596664
 20
2.075366912832191
 30
0.0
 40
4.233333333333333
  1
E2032124
 41
0.75
  7
SLDTEXTSTYLE0
 11
4.408487351596664
 21
-0.0412997538344756
 31
0.0
100
AcDbAttributeDefinition
  3

  2
AUTOATTR0
 70
     0
 74
     1
  0
ENDBLK
  5
81
330
7F
100
AcDbEntity
  8
0
100
AcDbBlockEnd
  0
BLOCK
  5
C4
330
C3
100
AcDbEntity
  8
0
100
AcDbBlockBegin
  2
_D
 70
     0
 10
0.0
 20
0.0
 30
0.0
  3
_D
  1
_D
  0
SOLID
  5
C6
330
C3
100
AcDbEntity
  8
치수문자_일반주서
100
AcDbTrace
 10
97.9119459855236
 20
12.5010749287239
 30
0.0
 11
98.4199459855236
 21
15.80307492872389
 31
0.0
 12
97.4039459855236
 22
15.80307492872389
 32
0.0
 13
97.4039459855236
 23
15.80307492872389
 33
0.0
  0
SOLID
  5
C7
330
C3
100
AcDbEntity
  8
치수문자_일반주서
100
AcDbTrace
 10
97.9119459855236
 20
-12.49892507127611
 30
0.0
 11
97.4039459855236
 21
-15.80092507127611
 31
0.0
 12
98.4199459855236
 22
-15.80092507127611
 32
0.0
 13
98.4199459855236
 23
-15.80092507127611
 33
0.0
  0
LINE
  5
C8
330
C3
100
AcDbEntity
  8
치수문자_일반주서
100
AcDbLine
 10
87.11906426948089
 20
-5.413291502344828
 30
0.0
 11
87.11906426948089
 21
-6.124228987909328
 31
0.0
  0
LINE
  5
C9
330
C3
100
AcDbEntity
  8
치수문자_일반주서
100
AcDbLine
 10
87.11906426948089
 20
-6.124228987909328
 30
0.0
 11
92.67531426054019
 21
-6.124228987909289
 31
0.0
  0
LINE
  5
CA
330
C3
100
AcDbEntity
  8
치수문자_일반주서
100
AcDbLine
 10
92.67531426054019
 20
-6.124228987909289
 30
0.0
 11
92.67531426054019
 21
-5.413291502344789
 31
0.0
  0
LINE
  5
CB
330
C3
100
AcDbEntity
  8
치수문자_일반주서
100
AcDbLine
 10
87.1190642694808
 20
5.41544135979243
 30
0.0
 11
87.1190642694808
 21
6.12637884535693
 31
0.0
  0
LINE
  5
CC
330
C3
100
AcDbEntity
  8
치수문자_일반주서
100
AcDbLine
 10
87.1190642694808
 20
6.12637884535693
 30
0.0
 11
92.6753142605401
 21
6.126378845356969
 31
0.0
  0
LINE
  5
CD
330
C3
100
AcDbEntity
  8
치수문자_일반주서
100
AcDbLine
 10
92.6753142605401
 20
6.126378845356969
 30
0.0
 11
92.6753142605401
 21
5.415441359792469
 31
0.0
  0
LINE
  5
CE
330
C3
100
AcDbEntity
  8
치수문자_일반주서
100
AcDbLine
 10
79.91194598552357
 20
12.5010749287239
 30
0.0
 11
98.9119459855236
 21
12.5010749287239
 31
0.0
  0
LINE
  5
CF
330
C3
100
AcDbEntity
  8
치수문자_일반주서
100
AcDbLine
 10
79.91194598552357
 20
-12.49892507127611
 30
0.0
 11
98.9119459855236
 21
-12.49892507127611
 31
0.0
  0
LINE
  5
D0
330
C3
100
AcDbEntity
  8
치수문자_일반주서
100
AcDbLine
 10
97.9119459855236
 20
12.5010749287239
 30
0.0
 11
97.9119459855236
 21
18.8510749287239
 31
0.0
  0
LINE
  5
D1
330
C3
100
AcDbEntity
  8
치수문자_일반주서
100
AcDbLine
 10
97.9119459855236
 20
12.5010749287239
 30
0.0
 11
97.9119459855236
 21
-12.49892507127611
 31
0.0
  0
LINE
  5
D2
330
C3
100
AcDbEntity
  8
치수문자_일반주서
100
AcDbLine
 10
97.9119459855236
 20
-12.49892507127611
 30
0.0
 11
97.9119459855236
 21
-18.84892507127611
 31
0.0
  0
MTEXT
  5
D3
330
C3
100
AcDbEntity
  8
치수문자_일반주서
100
AcDbMText
 10
88.16357734596129
 20
-4.52461960173345
 30
0.0
 40
3.5
 41
0.0
 71
     1
 72
     1
  1
0.98
  7
SLDTEXTSTYLE0
 11
-7.044195017643634E-15
 21
1.0
 31
0.0
 73
     1
 44
1.0
  0
MTEXT
  5
D4
330
C3
100
AcDbEntity
  8
치수문자_일반주서
100
AcDbMText
 10
93.40020889632177
 20
-5.22425519681665
 30
0.0
 40
3.5
 41
0.0
 71
     1
 72
     1
  1
%%c
  7
SLDTEXTSTYLE0
 11
-7.044195017643634E-15
 21
1.0
 31
0.0
 73
     1
 44
1.0
  0
MTEXT
  5
D5
330
C3
100
AcDbEntity
  8
치수문자_일반주서
100
AcDbMText
 10
93.40020889632173
 20
0.0541822015574309
 30
0.0
 40
3.5
 41
0.0
 71
     1
 72
     1
  1
25
  7
SLDTEXTSTYLE0
 11
-7.044195017643634E-15
 21
1.0
 31
0.0
 73
     1
 44
1.0
  0
ENDBLK
  5
C5
330
C3
100
AcDbEntity
  8
0
100
AcDbBlockEnd
  0
BLOCK
  5
D8
330
D7
100
AcDbEntity
  8
0
100
AcDbBlockBegin
  2
_D_1
 70
     0
 10
0.0
 20
0.0
 30
0.0
  3
_D_1
  1
_D_1
  0
SOLID
  5
DA
330
D7
100
AcDbEntity
  8
치수문자_일반주서
100
AcDbTrace
 10
-55.08805401447646
 20
7.938574928723906
 30
0.0
 11
-54.58005401447646
 21
11.24057492872391
 31
0.0
 12
-55.59605401447646
 22
11.24057492872391
 32
0.0
 13
-55.59605401447646
 23
11.24057492872391
 33
0.0
  0
SOLID
  5
DB
330
D7
100
AcDbEntity
  8
치수문자_일반주서
100
AcDbTrace
 10
-55.08805401447646
 20
-7.936425071276123
 30
0.0
 11
-55.59605401447646
 21
-11.23842507127612
 31
0.0
 12
-54.58005401447646
 22
-11.23842507127612
 32
0.0
 13
-54.58005401447646
 23
-11.23842507127612
 33
0.0
  0
LINE
  5
DC
330
D7
100
AcDbEntity
  8
치수문자_일반주서
100
AcDbLine
 10
-65.88093573051917
 20
-6.595745043212554
 30
0.0
 11
-65.88093573051917
 21
-7.306682528777054
 31
0.0
  0
LINE
  5
DD
330
D7
100
AcDbEntity
  8
치수문자_일반주서
100
AcDbLine
 10
-65.88093573051917
 20
-7.306682528777054
 30
0.0
 11
-60.32468573945987
 21
-7.306682528777015
 31
0.0
  0
LINE
  5
DE
330
D7
100
AcDbEntity
  8
치수문자_일반주서
100
AcDbLine
 10
-60.32468573945987
 20
-7.306682528777015
 30
0.0
 11
-60.32468573945987
 21
-6.595745043212514
 31
0.0
  0
LINE
  5
DF
330
D7
100
AcDbEntity
  8
치수문자_일반주서
100
AcDbLine
 10
-65.88093573051925
 20
4.232987818924705
 30
0.0
 11
-65.88093573051925
 21
4.943925304489205
 31
0.0
  0
LINE
  5
E0
330
D7
100
AcDbEntity
  8
치수문자_일반주서
100
AcDbLine
 10
-65.88093573051925
 20
4.943925304489205
 30
0.0
 11
-60.32468573945995
 21
4.943925304489244
 31
0.0
  0
LINE
  5
E1
330
D7
100
AcDbEntity
  8
치수문자_일반주서
100
AcDbLine
 10
-60.32468573945995
 20
4.943925304489244
 30
0.0
 11
-60.32468573945994
 21
4.232987818924744
 31
0.0
  0
LINE
  5
E2
330
D7
100
AcDbEntity
  8
치수문자_일반주서
100
AcDbLine
 10
-41.50055401447643
 20
7.938574928723908
 30
0.0
 11
-56.08805401447646
 21
7.938574928723906
 31
0.0
  0
LINE
  5
E3
330
D7
100
AcDbEntity
  8
치수문자_일반주서
100
AcDbLine
 10
-41.50055401447643
 20
-7.936425071276121
 30
0.0
 11
-56.08805401447646
 21
-7.936425071276123
 31
0.0
  0
LINE
  5
E4
330
D7
100
AcDbEntity
  8
치수문자_일반주서
100
AcDbLine
 10
-55.08805401447646
 20
7.938574928723906
 30
0.0
 11
-55.08805401447646
 21
14.28857492872391
 31
0.0
  0
LINE
  5
E5
330
D7
100
AcDbEntity
  8
치수문자_일반주서
100
AcDbLine
 10
-55.08805401447646
 20
7.938574928723906
 30
0.0
 11
-55.08805401447646
 21
-7.936425071276123
 31
0.0
  0
LINE
  5
E6
330
D7
100
AcDbEntity
  8
치수문자_일반주서
100
AcDbLine
 10
-55.08805401447646
 20
-7.936425071276123
 30
0.0
 11
-55.08805401447646
 21
-14.28642507127612
 31
0.0
  0
MTEXT
  5
E7
330
D7
100
AcDbEntity
  8
치수문자_일반주서
100
AcDbMText
 10
-64.83642265403878
 20
-5.707073142601175
 30
0.0
 40
3.5
 41
0.0
 71
     1
 72
     1
  1
0.63
  7
SLDTEXTSTYLE0
 11
-7.044195017643634E-15
 21
1.0
 31
0.0
 73
     1
 44
1.0
  0
MTEXT
  5
E8
330
D7
100
AcDbEntity
  8
치수문자_일반주서
100
AcDbMText
 10
-59.59979110367827
 20
-9.639347554964907
 30
0.0
 40
3.5
 41
0.0
 71
     1
 72
     1
  1
%%c
  7
SLDTEXTSTYLE0
 11
-7.044195017643634E-15
 21
1.0
 31
0.0
 73
     1
 44
1.0
  0
MTEXT
  5
E9
330
D7
100
AcDbEntity
  8
치수문자_일반주서
100
AcDbMText
 10
-59.59979110367831
 20
-4.360910156590827
 30
0.0
 40
3.5
 41
0.0
 71
     1
 72
     1
  1
15.88
  7
SLDTEXTSTYLE0
 11
-7.044195017643634E-15
 21
1.0
 31
0.0
 73
     1
 44
1.0
  0
ENDBLK
  5
D9
330
D7
100
AcDbEntity
  8
0
100
AcDbBlockEnd
  0
BLOCK
  5
ED
330
EC
100
AcDbEntity
  8
0
100
AcDbBlockBegin
  2
_D_2
 70
     0
 10
0.0
 20
0.0
 30
0.0
  3
_D_2
  1
_D_2
  0
SOLID
  5
EF
330
EC
100
AcDbEntity
  8
치수문자_일반주서
100
AcDbTrace
 10
78.91194598552359
 20
22.56803525087779
 30
0.0
 11
75.60994598552358
 21
23.07603525087779
 31
0.0
 12
75.60994598552358
 22
22.0600352508778
 32
0.0
 13
75.60994598552358
 23
22.0600352508778
 33
0.0
  0
SOLID
  5
F0
330
EC
100
AcDbEntity
  8
치수문자_일반주서
100
AcDbTrace
 10
33.91194598552357
 20
22.56803525087782
 30
0.0
 11
37.21394598552357
 21
22.06003525087782
 31
0.0
 12
37.21394598552357
 22
23.07603525087782
 32
0.0
 13
37.21394598552357
 23
23.07603525087782
 33
0.0
  0
LINE
  5
F1
330
EC
100
AcDbEntity
  8
치수문자_일반주서
100
AcDbLine
 10
50.99757990370087
 20
33.36091696692053
 30
0.0
 11
50.28664241813637
 21
33.36091696692054
 31
0.0
  0
LINE
  5
F2
330
EC
100
AcDbEntity
  8
치수문자_일반주서
100
AcDbLine
 10
50.28664241813637
 20
33.36091696692054
 30
0.0
 11
50.28664241813632
 21
27.80466697586124
 31
0.0
  0
LINE
  5
F3
330
EC
100
AcDbEntity
  8
치수문자_일반주서
100
AcDbLine
 10
50.28664241813632
 20
27.80466697586124
 30
0.0
 11
50.99757990370082
 21
27.80466697586123
 31
0.0
  0
LINE
  5
F4
330
EC
100
AcDbEntity
  8
치수문자_일반주서
100
AcDbLine
 10
61.82631276583813
 20
33.36091696692046
 30
0.0
 11
62.53725025140263
 21
33.36091696692045
 31
0.0
  0
LINE
  5
F5
330
EC
100
AcDbEntity
  8
치수문자_일반주서
100
AcDbLine
 10
62.53725025140263
 20
33.36091696692045
 30
0.0
 11
62.53725025140258
 21
27.80466697586115
 31
0.0
  0
LINE
  5
F6
330
EC
100
AcDbEntity
  8
치수문자_일반주서
100
AcDbLine
 10
62.53725025140258
 20
27.80466697586115
 30
0.0
 11
61.82631276583808
 21
27.80466697586115
 31
0.0
  0
LINE
  5
F7
330
EC
100
AcDbEntity
  8
치수문자_일반주서
100
AcDbLine
 10
78.91194598552359
 20
13.27771149834779
 30
0.0
 11
78.91194598552359
 21
23.56803525087779
 31
0.0
  0
LINE
  5
F8
330
EC
100
AcDbEntity
  8
치수문자_일반주서
100
AcDbLine
 10
33.91194598552357
 20
12.96761330504908
 30
0.0
 11
33.91194598552357
 21
23.56803525087782
 31
0.0
  0
LINE
  5
F9
330
EC
100
AcDbEntity
  8
치수문자_일반주서
100
AcDbLine
 10
78.91194598552359
 20
22.56803525087779
 30
0.0
 11
33.91194598552357
 21
22.56803525087782
 31
0.0
  0
MTEXT
  5
FA
330
EC
100
AcDbEntity
  8
치수문자_일반주서
100
AcDbMText
 10
49.77288369264962
 20
27.13324451673952
 30
0.0
 40
3.5
 41
0.0
 71
     1
 72
     1
  1

  7
SLDTEXTSTYLE0
 73
     1
 44
1.0
  0
MTEXT
  5
FB
330
EC
100
AcDbEntity
  8
치수문자_일반주서
100
AcDbMText
 10
51.88625180431223
 20
32.31640389044013
 30
0.0
 40
3.5
 41
0.0
 71
     1
 72
     1
  1
1.77
  7
SLDTEXTSTYLE0
 73
     1
 44
1.0
  0
MTEXT
  5
FC
330
EC
100
AcDbEntity
  8
치수문자_일반주서
100
AcDbMText
 10
53.82583514124664
 20
27.07977234007964
 30
0.0
 40
3.5
 41
0.0
 71
     1
 72
     1
  1
45
  7
SLDTEXTSTYLE0
 73
     1
 44
1.0
  0
MTEXT
  5
FD
330
EC
100
AcDbEntity
  8
치수문자_일반주서
100
AcDbMText
 10
64.38295349654318
 20
27.13324451673941
 30
0.0
 40
3.5
 41
0.0
 71
     1
 72
     1
  1

  7
SLDTEXTSTYLE0
 73
     1
 44
1.0
  0
ENDBLK
  5
EE
330
EC
100
AcDbEntity
  8
0
100
AcDbBlockEnd
  0
BLOCK
  5
100
330
FF
100
AcDbEntity
  8
0
100
AcDbBlockBegin
  2
_D_3
 70
     0
 10
0.0
 20
0.0
 30
0.0
  3
_D_3
  1
_D_3
  0
SOLID
  5
102
330
FF
100
AcDbEntity
  8
치수문자_일반주서
100
AcDbTrace
 10
78.91194598552357
 20
38.36394344956528
 30
0.0
 11
75.60994598552358
 21
38.87194344956529
 31
0.0
 12
75.60994598552358
 22
37.85594344956528
 32
0.0
 13
75.60994598552358
 23
37.85594344956528
 33
0.0
  0
SOLID
  5
103
330
FF
100
AcDbEntity
  8
치수문자_일반주서
100
AcDbTrace
 10
-42.08805401447642
 20
38.36394344956528
 30
0.0
 11
-38.78605401447642
 21
37.85594344956527
 31
0.0
 12
-38.78605401447642
 22
38.87194344956528
 32
0.0
 13
-38.78605401447642
 23
38.87194344956528
 33
0.0
  0
LINE
  5
104
330
FF
100
AcDbEntity
  8
치수문자_일반주서
100
AcDbLine
 10
14.47912979228456
 20
49.15682516560803
 30
0.0
 11
13.76819230672006
 21
49.15682516560804
 31
0.0
  0
LINE
  5
105
330
FF
100
AcDbEntity
  8
치수문자_일반주서
100
AcDbLine
 10
13.76819230672006
 20
49.15682516560804
 30
0.0
 11
13.76819230672002
 21
43.60057517454874
 31
0.0
  0
LINE
  5
106
330
FF
100
AcDbEntity
  8
치수문자_일반주서
100
AcDbLine
 10
13.76819230672002
 20
43.60057517454874
 30
0.0
 11
14.47912979228452
 21
43.60057517454873
 31
0.0
  0
LINE
  5
107
330
FF
100
AcDbEntity
  8
치수문자_일반주서
100
AcDbLine
 10
25.30786265442182
 20
49.15682516560796
 30
0.0
 11
26.01880013998632
 21
49.15682516560796
 31
0.0
  0
LINE
  5
108
330
FF
100
AcDbEntity
  8
치수문자_일반주서
100
AcDbLine
 10
26.01880013998632
 20
49.15682516560796
 30
0.0
 11
26.01880013998629
 21
43.60057517454865
 31
0.0
  0
LINE
  5
109
330
FF
100
AcDbEntity
  8
치수문자_일반주서
100
AcDbLine
 10
26.01880013998629
 20
43.60057517454865
 30
0.0
 11
25.30786265442179
 21
43.60057517454866
 31
0.0
  0
LINE
  5
10A
330
FF
100
AcDbEntity
  8
치수문자_일반주서
100
AcDbLine
 10
78.91194598552357
 20
13.21639659633511
 30
0.0
 11
78.91194598552357
 21
39.36394344956528
 31
0.0
  0
LINE
  5
10B
330
FF
100
AcDbEntity
  8
치수문자_일반주서
100
AcDbLine
 10
-42.08805401447642
 20
7.351074928723897
 30
0.0
 11
-42.08805401447642
 21
39.36394344956528
 31
0.0
  0
LINE
  5
10C
330
FF
100
AcDbEntity
  8
치수문자_일반주서
100
AcDbLine
 10
78.91194598552357
 20
38.36394344956528
 30
0.0
 11
-42.08805401447642
 21
38.36394344956528
 31
0.0
  0
MTEXT
  5
10D
330
FF
100
AcDbEntity
  8
치수문자_일반주서
100
AcDbMText
 10
13.25443358123332
 20
42.92915271542702
 30
0.0
 40
3.5
 41
0.0
 71
     1
 72
     1
  1

  7
SLDTEXTSTYLE0
 73
     1
 44
1.0
  0
MTEXT
  5
10E
330
FF
100
AcDbEntity
  8
치수문자_일반주서
100
AcDbMText
 10
15.36780169289593
 20
48.11231208912763
 30
0.0
 40
3.5
 41
0.0
 71
     1
 72
     1
  1
4.76
  7
SLDTEXTSTYLE0
 73
     1
 44
1.0
  0
MTEXT
  5
10F
330
FF
100
AcDbEntity
  8
치수문자_일반주서
100
AcDbMText
 10
16.01432954948426
 20
42.87568053876715
 30
0.0
 40
3.5
 41
0.0
 71
     1
 72
     1
  1
121
  7
SLDTEXTSTYLE0
 73
     1
 44
1.0
  0
MTEXT
  5
110
330
FF
100
AcDbEntity
  8
치수문자_일반주서
100
AcDbMText
 10
27.86450338512689
 20
42.92915271542692
 30
0.0
 40
3.5
 41
0.0
 71
     1
 72
     1
  1

  7
SLDTEXTSTYLE0
 73
     1
 44
1.0
  0
ENDBLK
  5
101
330
FF
100
AcDbEntity
  8
0
100
AcDbBlockEnd
  0
BLOCK
  5
119
330
118
100
AcDbEntity
  8
0
100
AcDbBlockBegin
  2
SW_DOWELSYMBOL_0
 70
     0
 10
0.0
 20
0.0
 30
0.0
  3
SW_DOWELSYMBOL_0
  1
SW_DOWELSYMBOL_0
  0
CIRCLE
  5
11B
330
118
100
AcDbEntity
  8
해칭선
 62
     0
100
AcDbCircle
 10
0.0
 20
0.0
 30
0.0
 40
3.000000000000001
  0
HATCH
  5
11C
330
118
100
AcDbEntity
  8
0
  6
Continuous
 62
     0
370
     0
100
AcDbHatch
 10
0.0
 20
0.0
 30
0.0
210
0.0
220
0.0
230
1.0
  2
SOLID
 70
     1
 71
     0
 91
        1
 92
        0
 93
        3
 72
     2
 10
0.0
 20
0.0
 40
3.000000000000001
 50
0.0
 51
90.0
 73
     1
 72
     1
 10
0.0
 20
3.000000000000001
 11
0.0
 21
0.0
 72
     1
 10
0.0
 20
0.0
 11
3.000000000000001
 21
0.0
 97
        0
 75
     0
 76
     1
 98
        1
 10
0.0
 20
0.0
  0
HATCH
  5
11D
330
118
100
AcDbEntity
  8
0
  6
Continuous
 62
     0
370
     0
100
AcDbHatch
 10
0.0
 20
0.0
 30
0.0
210
0.0
220
0.0
230
1.0
  2
SOLID
 70
     1
 71
     0
 91
        1
 92
        0
 93
        3
 72
     2
 10
0.0
 20
0.0
 40
3.000000000000001
 50
180.0
 51
270.0000000000008
 73
     1
 72
     1
 10
0.0
 20
-3.000000000000001
 11
0.0
 21
0.0
 72
     1
 10
0.0
 20
0.0
 11
-3.000000000000001
 21
0.0
 97
        0
 75
     0
 76
     1
 98
        1
 10
0.0
 20
0.0
  0
ENDBLK
  5
11A
330
118
100
AcDbEntity
  8
0
100
AcDbBlockEnd
  0
BLOCK
  5
1F1
330
1F0
100
AcDbEntity
  8
0
100
AcDbBlockBegin
  2
*D8
 70
     1
 10
0.0
 20
0.0
 30
0.0
  3
*D8
  1
*D8
  0
LINE
  5
1F3
330
1F0
100
AcDbEntity
  8
치수문자_일반주서
 62
     0
370
    -2
100
AcDbLine
 10
18.90000000000003
 20
32.00399999999993
 30
0.0
 11
4.374999999999984
 21
32.00399999999987
 31
0.0
  0
LINE
  5
1F4
330
1F0
100
AcDbEntity
  8
치수문자_일반주서
 62
     0
370
    -2
100
AcDbLine
 10
18.90000000000003
 20
6.603999999999949
 30
0.0
 11
4.375000000000073
 21
6.603999999999893
 31
0.0
  0
LINE
  5
1F5
330
1F0
100
AcDbEntity
  8
치수문자_일반주서
 62
     0
370
    -2
100
AcDbLine
 10
4.374999999999996
 20
28.70199999999987
 30
0.0
 11
4.375000000000061
 21
9.905999999999892
 31
0.0
  0
SOLID
  5
1F6
330
1F0
100
AcDbEntity
  8
치수문자_일반주서
 62
     0
100
AcDbTrace
 10
4.925333333333329
 20
28.70199999999987
 30
0.0
 11
3.824666666666662
 21
28.70199999999987
 31
0.0
 12
4.374999999999984
 22
32.00399999999987
 32
0.0
 13
4.374999999999984
 23
32.00399999999987
 33
0.0
  0
SOLID
  5
1F7
330
1F0
100
AcDbEntity
  8
치수문자_일반주서
 62
     0
100
AcDbTrace
 10
3.824666666666728
 20
9.90599999999989
 30
0.0
 11
4.925333333333395
 21
9.905999999999894
 31
0.0
 12
4.375000000000073
 22
6.603999999999893
 32
0.0
 13
4.375000000000073
 23
6.603999999999893
 33
0.0
  0
MTEXT
  5
1F8
330
1F0
100
AcDbEntity
  8
치수문자_일반주서
 62
     0
100
AcDbMText
 10
0.0000000000000284
 20
19.30399999999991
 30
0.0
 40
3.5
 41
0.0
 71
     2
 72
     1
  1
\A1;%%c25.4 [1]
  7
SLDTEXTSTYLE0
 11
-3.496765431890260E-15
 21
1.0
 31
0.0
 73
     1
 44
1.0
  0
POINT
  5
1F9
330
1F0
100
AcDbEntity
  8
Defpoints
 62
     0
100
AcDbPoint
 10
18.96250000000003
 20
32.00399999999993
 30
0.0
  0
POINT
  5
1FA
330
1F0
100
AcDbEntity
  8
Defpoints
 62
     0
100
AcDbPoint
 10
18.96250000000003
 20
6.603999999999949
 30
0.0
  0
POINT
  5
1FB
330
1F0
100
AcDbEntity
  8
Defpoints
 62
     0
100
AcDbPoint
 10
4.375000000000071
 20
6.603999999999895
 30
0.0
  0
ENDBLK
  5
1F2
330
1F0
100
AcDbEntity
  8
0
100
AcDbBlockEnd
  0
BLOCK
  5
1FD
330
1FC
100
AcDbEntity
  8
0
100
AcDbBlockBegin
  2
*D9
 70
     1
 10
0.0
 20
0.0
 30
0.0
  3
*D9
  1
*D9
  0
LINE
  5
1FF
330
1FC
100
AcDbEntity
  8
치수문자_일반주서
 62
     0
370
    -2
100
AcDbLine
 10
130.7225
 20
32.06649999999994
 30
0.0
 11
130.7225
 21
54.45130893707579
 31
0.0
  0
LINE
  5
200
330
1FC
100
AcDbEntity
  8
치수문자_일반주서
 62
     0
370
    -2
100
AcDbLine
 10
79.92250000000001
 20
32.03726140992451
 30
0.0
 11
79.92250000000001
 21
54.45130893707579
 31
0.0
  0
LINE
  5
201
330
1FC
100
AcDbEntity
  8
치수문자_일반주서
 62
     0
370
    -2
100
AcDbLine
 10
127.4205
 20
54.45130893707579
 30
0.0
 11
83.2245
 21
54.45130893707579
 31
0.0
  0
SOLID
  5
202
330
1FC
100
AcDbEntity
  8
치수문자_일반주서
 62
     0
100
AcDbTrace
 10
127.4205
 20
53.90097560374245
 30
0.0
 11
127.4205
 21
55.00164227040912
 31
0.0
 12
130.7225
 22
54.45130893707579
 32
0.0
 13
130.7225
 23
54.45130893707579
 33
0.0
  0
SOLID
  5
203
330
1FC
100
AcDbEntity
  8
치수문자_일반주서
 62
     0
100
AcDbTrace
 10
83.2245
 20
55.00164227040912
 30
0.0
 11
83.2245
 21
53.90097560374245
 31
0.0
 12
79.92250000000001
 22
54.45130893707579
 32
0.0
 13
79.92250000000001
 23
54.45130893707579
 33
0.0
  0
MTEXT
  5
204
330
1FC
100
AcDbEntity
  8
치수문자_일반주서
 62
     0
100
AcDbMText
 10
105.3225
 20
58.82630893707579
 30
0.0
 40
3.5
 41
0.0
 71
     2
 72
     1
  1
\A1;50.8 [2]
  7
SLDTEXTSTYLE0
 73
     1
 44
1.0
  0
POINT
  5
205
330
1FC
100
AcDbEntity
  8
Defpoints
 62
     0
100
AcDbPoint
 10
130.7225
 20
32.00399999999994
 30
0.0
  0
POINT
  5
206
330
1FC
100
AcDbEntity
  8
Defpoints
 62
     0
100
AcDbPoint
 10
79.92250000000001
 20
31.97476140992451
 30
0.0
  0
POINT
  5
207
330
1FC
100
AcDbEntity
  8
Defpoints
 62
     0
100
AcDbPoint
 10
79.92250000000001
 20
54.45130893707579
 30
0.0
  0
ENDBLK
  5
1FE
330
1FC
100
AcDbEntity
  8
0
100
AcDbBlockEnd
  0
BLOCK
  5
209
330
208
100
AcDbEntity
  8
0
100
AcDbBlockBegin
  2
*D10
 70
     1
 10
0.0
 20
0.0
 30
0.0
  3
*D10
  1
*D10
  0
LINE
  5
20B
330
208
100
AcDbEntity
  8
치수문자_일반주서
 62
     0
370
    -2
100
AcDbLine
 10
130.7225
 20
32.06649999999994
 30
0.0
 11
130.7225
 21
66.4513089370758
 31
0.0
  0
LINE
  5
20C
330
208
100
AcDbEntity
  8
치수문자_일반주서
 62
     0
370
    -2
100
AcDbLine
 10
16.42250000000001
 20
29.52649999999995
 30
0.0
 11
16.42250000000001
 21
66.4513089370758
 31
0.0
  0
LINE
  5
20D
330
208
100
AcDbEntity
  8
치수문자_일반주서
 62
     0
370
    -2
100
AcDbLine
 10
127.4205
 20
66.4513089370758
 30
0.0
 11
19.72450000000001
 21
66.4513089370758
 31
0.0
  0
SOLID
  5
20E
330
208
100
AcDbEntity
  8
치수문자_일반주서
 62
     0
100
AcDbTrace
 10
127.4205
 20
65.90097560374247
 30
0.0
 11
127.4205
 21
67.00164227040912
 31
0.0
 12
130.7225
 22
66.4513089370758
 32
0.0
 13
130.7225
 23
66.4513089370758
 33
0.0
  0
SOLID
  5
20F
330
208
100
AcDbEntity
  8
치수문자_일반주서
 62
     0
100
AcDbTrace
 10
19.72450000000001
 20
67.00164227040912
 30
0.0
 11
19.72450000000001
 21
65.90097560374247
 31
0.0
 12
16.42250000000001
 22
66.4513089370758
 32
0.0
 13
16.42250000000001
 23
66.4513089370758
 33
0.0
  0
MTEXT
  5
210
330
208
100
AcDbEntity
  8
치수문자_일반주서
 62
     0
100
AcDbMText
 10
73.57250000000002
 20
70.8263089370758
 30
0.0
 40
3.5
 41
0.0
 71
     2
 72
     1
  1
\A1;114.3 [4 1/2]
  7
SLDTEXTSTYLE0
 73
     1
 44
1.0
  0
POINT
  5
211
330
208
100
AcDbEntity
  8
Defpoints
 62
     0
100
AcDbPoint
 10
130.7225
 20
32.00399999999994
 30
0.0
  0
POINT
  5
212
330
208
100
AcDbEntity
  8
Defpoints
 62
     0
100
AcDbPoint
 10
16.42250000000001
 20
29.46399999999995
 30
0.0
  0
POINT
  5
213
330
208
100
AcDbEntity
  8
Defpoints
 62
     0
100
AcDbPoint
 10
16.42250000000001
 20
66.4513089370758
 30
0.0
  0
ENDBLK
  5
20A
330
208
100
AcDbEntity
  8
0
100
AcDbBlockEnd
  0
BLOCK
  5
215
330
214
100
AcDbEntity
  8
0
100
AcDbBlockBegin
  2
*D11
 70
     1
 10
0.0
 20
0.0
 30
0.0
  3
*D11
  1
*D11
  0
LINE
  5
217
330
214
100
AcDbEntity
  8
치수문자_일반주서
 62
     0
370
    -2
100
AcDbLine
 10
130.785
 20
32.00399999999994
 30
0.0
 11
148.224350938141
 21
32.004
 31
0.0
  0
LINE
  5
218
330
214
100
AcDbEntity
  8
치수문자_일반주서
 62
     0
370
    -2
100
AcDbLine
 10
130.785
 20
6.603999999999933
 30
0.0
 11
148.2243509381411
 21
6.603999999999999
 31
0.0
  0
LINE
  5
219
330
214
100
AcDbEntity
  8
치수문자_일반주서
 62
     0
370
    -2
100
AcDbLine
 10
148.224350938141
 20
32.004
 30
0.0
 11
148.2243509381409
 21
69.05326930339933
 31
0.0
  0
LINE
  5
21A
330
214
100
AcDbEntity
  8
치수문자_일반주서
 62
     0
370
    -2
100
AcDbLine
 10
148.224350938141
 20
32.004
 30
0.0
 11
148.2243509381411
 21
6.603999999999999
 31
0.0
  0
LINE
  5
21B
330
214
100
AcDbEntity
  8
치수문자_일반주서
 62
     0
370
    -2
100
AcDbLine
 10
148.224350938141
 20
35.306
 30
0.0
 11
148.224350938141
 21
38.608
 31
0.0
  0
LINE
  5
21C
330
214
100
AcDbEntity
  8
치수문자_일반주서
 62
     0
370
    -2
100
AcDbLine
 10
148.2243509381411
 20
3.302
 30
0.0
 11
148.2243509381411
 21
0.0
 31
0.0
  0
SOLID
  5
21D
330
214
100
AcDbEntity
  8
치수문자_일반주서
 62
     0
100
AcDbTrace
 10
147.6740176048077
 20
35.306
 30
0.0
 11
148.7746842714744
 21
35.306
 31
0.0
 12
148.224350938141
 22
32.004
 32
0.0
 13
148.224350938141
 23
32.004
 33
0.0
  0
SOLID
  5
21E
330
214
100
AcDbEntity
  8
치수문자_일반주서
 62
     0
100
AcDbTrace
 10
148.7746842714745
 20
3.302000000000001
 30
0.0
 11
147.6740176048078
 21
3.301999999999998
 31
0.0
 12
148.2243509381411
 22
6.603999999999999
 32
0.0
 13
148.2243509381411
 23
6.603999999999999
 33
0.0
  0
MTEXT
  5
21F
330
214
100
AcDbEntity
  8
치수문자_일반주서
 62
     0
100
AcDbMText
 10
143.849350938141
 20
58.99076930339931
 30
0.0
 40
3.5
 41
0.0
 71
     2
 72
     1
  1
\A1;%%c25.4 [1]
  7
SLDTEXTSTYLE0
 11
-3.356894814614646E-15
 21
1.0
 31
0.0
 73
     1
 44
1.0
  0
POINT
  5
220
330
214
100
AcDbEntity
  8
Defpoints
 62
     0
100
AcDbPoint
 10
130.7225
 20
32.00399999999994
 30
0.0
  0
POINT
  5
221
330
214
100
AcDbEntity
  8
Defpoints
 62
     0
100
AcDbPoint
 10
130.7225
 20
6.603999999999933
 30
0.0
  0
POINT
  5
222
330
214
100
AcDbEntity
  8
Defpoints
 62
     0
100
AcDbPoint
 10
148.2243509381411
 20
6.603999999999999
 30
0.0
  0
ENDBLK
  5
216
330
214
100
AcDbEntity
  8
0
100
AcDbBlockEnd
  0
BLOCK
  5
291
330
290
100
AcDbEntity
  8
0
100
AcDbBlockBegin
  2
*D13
 70
     1
 10
0.0
 20
0.0
 30
0.0
  3
*D13
  1
*D13
  0
LINE
  5
292
330
290
100
AcDbEntity
  8
치수문자_일반주서
 62
     0
370
    -2
100
AcDbLine
 10
16.36000000000001
 20
62.67157826389028
 30
0.0
 11
4.374999999999984
 21
62.67157826389023
 31
0.0
  0
LINE
  5
293
330
290
100
AcDbEntity
  8
치수문자_일반주서
 62
     0
370
    -2
100
AcDbLine
 10
18.90000000000003
 20
37.27157826389031
 30
0.0
 11
4.375000000000073
 21
37.27157826389025
 31
0.0
  0
LINE
  5
294
330
290
100
AcDbEntity
  8
치수문자_일반주서
 62
     0
370
    -2
100
AcDbLine
 10
4.374999999999996
 20
59.36957826389023
 30
0.0
 11
4.375000000000061
 21
40.57357826389025
 31
0.0
  0
SOLID
  5
295
330
290
100
AcDbEntity
  8
치수문자_일반주서
 62
     0
100
AcDbTrace
 10
4.925333333333329
 20
59.36957826389023
 30
0.0
 11
3.824666666666662
 21
59.36957826389023
 31
0.0
 12
4.374999999999984
 22
62.67157826389023
 32
0.0
 13
4.374999999999984
 23
62.67157826389023
 33
0.0
  0
SOLID
  5
296
330
290
100
AcDbEntity
  8
치수문자_일반주서
 62
     0
100
AcDbTrace
 10
3.824666666666728
 20
40.57357826389025
 30
0.0
 11
4.925333333333395
 21
40.57357826389025
 31
0.0
 12
4.375000000000073
 22
37.27157826389025
 32
0.0
 13
4.375000000000073
 23
37.27157826389025
 33
0.0
  0
MTEXT
  5
297
330
290
100
AcDbEntity
  8
치수문자_일반주서
 62
     0
100
AcDbMText
 10
0.0000000000000284
 20
49.97157826389027
 30
0.0
 40
3.5
 41
0.0
 71
     2
 72
     1
  1
\A1;%%c25.4 [1]
  7
SLDTEXTSTYLE0
 11
-3.496765431890260E-15
 21
1.0
 31
0.0
 73
     1
 44
1.0
  0
POINT
  5
298
330
290
100
AcDbEntity
  8
Defpoints
 62
     0
100
AcDbPoint
 10
16.42250000000001
 20
62.67157826389028
 30
0.0
  0
POINT
  5
299
330
290
100
AcDbEntity
  8
Defpoints
 62
     0
100
AcDbPoint
 10
18.96250000000003
 20
37.27157826389031
 30
0.0
  0
POINT
  5
29A
330
290
100
AcDbEntity
  8
Defpoints
 62
     0
100
AcDbPoint
 10
4.375000000000071
 20
37.27157826389025
 30
0.0
  0
ENDBLK
  5
29B
330
290
100
AcDbEntity
  8
0
100
AcDbBlockEnd
  0
BLOCK
  5
29E
330
29D
100
AcDbEntity
  8
0
100
AcDbBlockBegin
  2
*D14
 70
     1
 10
0.0
 20
0.0
 30
0.0
  3
*D14
  1
*D14
  0
LINE
  5
29F
330
29D
100
AcDbEntity
  8
치수문자_일반주서
 62
     0
370
    -2
100
AcDbLine
 10
130.7225
 20
65.90907826389027
 30
0.0
 11
130.7225
 21
93.90571443523507
 31
0.0
  0
LINE
  5
2A0
330
29D
100
AcDbEntity
  8
치수문자_일반주서
 62
     0
370
    -2
100
AcDbLine
 10
79.92250000000001
 20
65.87983967381484
 30
0.0
 11
79.92250000000001
 21
93.90571443523507
 31
0.0
  0
LINE
  5
2A1
330
29D
100
AcDbEntity
  8
치수문자_일반주서
 62
     0
370
    -2
100
AcDbLine
 10
127.4205
 20
93.90571443523507
 30
0.0
 11
83.2245
 21
93.90571443523507
 31
0.0
  0
SOLID
  5
2A2
330
29D
100
AcDbEntity
  8
치수문자_일반주서
 62
     0
100
AcDbTrace
 10
127.4205
 20
93.35538110190174
 30
0.0
 11
127.4205
 21
94.4560477685684
 31
0.0
 12
130.7225
 22
93.90571443523507
 32
0.0
 13
130.7225
 23
93.90571443523507
 33
0.0
  0
SOLID
  5
2A3
330
29D
100
AcDbEntity
  8
치수문자_일반주서
 62
     0
100
AcDbTrace
 10
83.2245
 20
94.4560477685684
 30
0.0
 11
83.2245
 21
93.35538110190174
 31
0.0
 12
79.92250000000001
 22
93.90571443523507
 32
0.0
 13
79.92250000000001
 23
93.90571443523507
 33
0.0
  0
MTEXT
  5
2A4
330
29D
100
AcDbEntity
  8
치수문자_일반주서
 62
     0
100
AcDbMText
 10
103.2210669214199
 20
98.28071443523507
 30
0.0
 40
3.5
 41
0.0
 71
     2
 72
     1
  1
\A1;50.8 [2]
  7
SLDTEXTSTYLE0
 73
     1
 44
1.0
  0
POINT
  5
2A5
330
29D
100
AcDbEntity
  8
Defpoints
 62
     0
100
AcDbPoint
 10
130.7225
 20
65.84657826389027
 30
0.0
  0
POINT
  5
2A6
330
29D
100
AcDbEntity
  8
Defpoints
 62
     0
100
AcDbPoint
 10
79.92250000000001
 20
65.81733967381484
 30
0.0
  0
POINT
  5
2A7
330
29D
100
AcDbEntity
  8
Defpoints
 62
     0
100
AcDbPoint
 10
79.92250000000001
 20
93.90571443523507
 30
0.0
  0
ENDBLK
  5
2A8
330
29D
100
AcDbEntity
  8
0
100
AcDbBlockEnd
  0
BLOCK
  5
2AB
330
2AA
100
AcDbEntity
  8
0
100
AcDbBlockBegin
  2
*D15
 70
     1
 10
0.0
 20
0.0
 30
0.0
  3
*D15
  1
*D15
  0
LINE
  5
2AC
330
2AA
100
AcDbEntity
  8
치수문자_일반주서
 62
     0
370
    -2
100
AcDbLine
 10
130.7225
 20
65.90907826389027
 30
0.0
 11
130.7225
 21
108.9057144352351
 31
0.0
  0
LINE
  5
2AD
330
2AA
100
AcDbEntity
  8
치수문자_일반주서
 62
     0
370
    -2
100
AcDbLine
 10
16.42250000000001
 20
60.1940782638903
 30
0.0
 11
16.42250000000001
 21
108.9057144352351
 31
0.0
  0
LINE
  5
2AE
330
2AA
100
AcDbEntity
  8
치수문자_일반주서
 62
     0
370
    -2
100
AcDbLine
 10
127.4205
 20
108.9057144352351
 30
0.0
 11
19.72450000000001
 21
108.9057144352351
 31
0.0
  0
SOLID
  5
2AF
330
2AA
100
AcDbEntity
  8
치수문자_일반주서
 62
     0
100
AcDbTrace
 10
127.4205
 20
108.3553811019018
 30
0.0
 11
127.4205
 21
109.4560477685684
 31
0.0
 12
130.7225
 22
108.9057144352351
 32
0.0
 13
130.7225
 23
108.9057144352351
 33
0.0
  0
SOLID
  5
2B0
330
2AA
100
AcDbEntity
  8
치수문자_일반주서
 62
     0
100
AcDbTrace
 10
19.72450000000001
 20
109.4560477685684
 30
0.0
 11
19.72450000000001
 21
108.3553811019018
 31
0.0
 12
16.42250000000001
 22
108.9057144352351
 32
0.0
 13
16.42250000000001
 23
108.9057144352351
 33
0.0
  0
MTEXT
  5
2B1
330
2AA
100
AcDbEntity
  8
치수문자_일반주서
 62
     0
100
AcDbMText
 10
71.60942621873423
 20
113.2807144352351
 30
0.0
 40
3.5
 41
0.0
 71
     2
 72
     1
  1
\A1;114.3 [4 1/2]
  7
SLDTEXTSTYLE0
 73
     1
 44
1.0
  0
POINT
  5
2B2
330
2AA
100
AcDbEntity
  8
Defpoints
 62
     0
100
AcDbPoint
 10
130.7225
 20
65.84657826389027
 30
0.0
  0
POINT
  5
2B3
330
2AA
100
AcDbEntity
  8
Defpoints
 62
     0
100
AcDbPoint
 10
16.42250000000001
 20
60.1315782638903
 30
0.0
  0
POINT
  5
2B4
330
2AA
100
AcDbEntity
  8
Defpoints
 62
     0
100
AcDbPoint
 10
16.42250000000001
 20
108.9057144352351
 30
0.0
  0
ENDBLK
  5
2B5
330
2AA
100
AcDbEntity
  8
0
100
AcDbBlockEnd
  0
BLOCK
  5
2B8
330
2B7
100
AcDbEntity
  8
0
100
AcDbBlockBegin
  2
*D16
 70
     1
 10
0.0
 20
0.0
 30
0.0
  3
*D16
  1
*D16
  0
LINE
  5
2B9
330
2B7
100
AcDbEntity
  8
치수문자_일반주서
 62
     0
370
    -2
100
AcDbLine
 10
130.785
 20
65.84657826389027
 30
0.0
 11
152.5998136726763
 21
65.84657826389035
 31
0.0
  0
LINE
  5
2BA
330
2B7
100
AcDbEntity
  8
치수문자_일반주서
 62
     0
370
    -2
100
AcDbLine
 10
130.785
 20
34.09657826389027
 30
0.0
 11
152.5998136726764
 21
34.09657826389035
 31
0.0
  0
LINE
  5
2BB
330
2B7
100
AcDbEntity
  8
치수문자_일반주서
 62
     0
370
    -2
100
AcDbLine
 10
152.5998136726763
 20
65.84657826389035
 30
0.0
 11
152.5998136726761
 21
115.3300398931395
 31
0.0
  0
LINE
  5
2BC
330
2B7
100
AcDbEntity
  8
치수문자_일반주서
 62
     0
370
    -2
100
AcDbLine
 10
152.5998136726763
 20
65.84657826389035
 30
0.0
 11
152.5998136726764
 21
34.09657826389035
 31
0.0
  0
LINE
  5
2BD
330
2B7
100
AcDbEntity
  8
치수문자_일반주서
 62
     0
370
    -2
100
AcDbLine
 10
152.5998136726763
 20
69.14857826389036
 30
0.0
 11
152.5998136726763
 21
72.45057826389035
 31
0.0
  0
LINE
  5
2BE
330
2B7
100
AcDbEntity
  8
치수문자_일반주서
 62
     0
370
    -2
100
AcDbLine
 10
152.5998136726764
 20
30.79457826389035
 30
0.0
 11
152.5998136726764
 21
27.49257826389035
 31
0.0
  0
SOLID
  5
2BF
330
2B7
100
AcDbEntity
  8
치수문자_일반주서
 62
     0
100
AcDbTrace
 10
152.049480339343
 20
69.14857826389036
 30
0.0
 11
153.1501470060096
 21
69.14857826389036
 31
0.0
 12
152.5998136726763
 22
65.84657826389035
 32
0.0
 13
152.5998136726763
 23
65.84657826389035
 33
0.0
  0
SOLID
  5
2C0
330
2B7
100
AcDbEntity
  8
치수문자_일반주서
 62
     0
100
AcDbTrace
 10
153.1501470060097
 20
30.79457826389035
 30
0.0
 11
152.0494803393431
 21
30.79457826389035
 31
0.0
 12
152.5998136726764
 22
34.09657826389035
 32
0.0
 13
152.5998136726764
 23
34.09657826389035
 33
0.0
  0
MTEXT
  5
2C1
330
2B7
100
AcDbEntity
  8
치수문자_일반주서
 62
     0
100
AcDbMText
 10
148.2248136726762
 20
99.58003989313949
 30
0.0
 40
3.5
 41
0.0
 71
     2
 72
     1
  1
\A1;%%c31.75 [1 1/4]
  7
SLDTEXTSTYLE0
 11
-3.580687802255623E-15
 21
1.0
 31
0.0
 73
     1
 44
1.0
  0
POINT
  5
2C2
330
2B7
100
AcDbEntity
  8
Defpoints
 62
     0
100
AcDbPoint
 10
130.7225
 20
65.84657826389027
 30
0.0
  0
POINT
  5
2C3
330
2B7
100
AcDbEntity
  8
Defpoints
 62
     0
100
AcDbPoint
 10
130.7225
 20
34.09657826389027
 30
0.0
  0
POINT
  5
2C4
330
2B7
100
AcDbEntity
  8
Defpoints
 62
     0
100
AcDbPoint
 10
152.5998136726764
 20
34.09657826389035
 30
0.0
  0
ENDBLK
  5
2C5
330
2B7
100
AcDbEntity
  8
0
100
AcDbBlockEnd
  0
BLOCK
  5
32A
330
329
100
AcDbEntity
  8
0
100
AcDbBlockBegin
  2
*D17
 70
     1
 10
0.0
 20
0.0
 30
0.0
  3
*D17
  1
*D17
  0
LINE
  5
32C
330
329
100
AcDbEntity
  8
치수문자_일반주서
 62
     0
370
    -2
100
AcDbLine
 10
-61.56249998687545
 20
12.70084580380242
 30
0.0
 11
-73.54749998687548
 21
12.70084580380238
 31
0.0
  0
LINE
  5
32D
330
329
100
AcDbEntity
  8
치수문자_일반주서
 62
     0
370
    -2
100
AcDbLine
 10
-59.02249998687543
 20
-12.69915419619755
 30
0.0
 11
-73.5474999868754
 21
-12.6991541961976
 31
0.0
  0
LINE
  5
32E
330
329
100
AcDbEntity
  8
치수문자_일반주서
 62
     0
370
    -2
100
AcDbLine
 10
-73.54749998687547
 20
9.398845803802379
 30
0.0
 11
-73.54749998687541
 21
-9.3971541961976
 31
0.0
  0
SOLID
  5
32F
330
329
100
AcDbEntity
  8
치수문자_일반주서
 62
     0
100
AcDbTrace
 10
-72.99716665354214
 20
9.39884580380238
 30
0.0
 11
-74.09783332020879
 21
9.398845803802377
 31
0.0
 12
-73.54749998687548
 22
12.70084580380238
 32
0.0
 13
-73.54749998687548
 23
12.70084580380238
 33
0.0
  0
SOLID
  5
330
330
329
100
AcDbEntity
  8
치수문자_일반주서
 62
     0
100
AcDbTrace
 10
-74.09783332020874
 20
-9.397154196197603
 30
0.0
 11
-72.99716665354208
 21
-9.397154196197599
 31
0.0
 12
-73.5474999868754
 22
-12.6991541961976
 32
0.0
 13
-73.5474999868754
 23
-12.6991541961976
 33
0.0
  0
MTEXT
  5
331
330
329
100
AcDbEntity
  8
치수문자_일반주서
 62
     0
100
AcDbMText
 10
-77.92249998687544
 20
0.0008458038024127
 30
0.0
 40
3.5
 41
0.0
 71
     2
 72
     1
  1
\A1;%%c25.4 [1]
  7
SLDTEXTSTYLE0
 11
-3.356894814614649E-15
 21
1.0
 31
0.0
 73
     1
 44
1.0
  0
POINT
  5
332
330
329
100
AcDbEntity
  8
Defpoints
 62
     0
100
AcDbPoint
 10
-61.49999998687545
 20
12.70084580380242
 30
0.0
  0
POINT
  5
333
330
329
100
AcDbEntity
  8
Defpoints
 62
     0
100
AcDbPoint
 10
-58.95999998687543
 20
-12.69915419619755
 30
0.0
  0
POINT
  5
334
330
329
100
AcDbEntity
  8
Defpoints
 62
     0
100
AcDbPoint
 10
-73.5474999868754
 20
-12.6991541961976
 30
0.0
  0
ENDBLK
  5
32B
330
329
100
AcDbEntity
  8
0
100
AcDbBlockEnd
  0
BLOCK
  5
336
330
335
100
AcDbEntity
  8
0
100
AcDbBlockBegin
  2
*D18
 70
     1
 10
0.0
 20
0.0
 30
0.0
  3
*D18
  1
*D18
  0
LINE
  5
338
330
335
100
AcDbEntity
  8
치수문자_일반주서
 62
     0
370
    -2
100
AcDbLine
 10
235.1276516654606
 20
23.36588447839874
 30
0.0
 11
235.1276516654606
 21
54.16843426687802
 31
0.0
  0
LINE
  5
339
330
335
100
AcDbEntity
  8
치수문자_일반주서
 62
     0
370
    -2
100
AcDbLine
 10
184.3276516654606
 20
23.25854545113657
 30
0.0
 11
184.3276516654606
 21
54.16843426687802
 31
0.0
  0
LINE
  5
33A
330
335
100
AcDbEntity
  8
치수문자_일반주서
 62
     0
370
    -2
100
AcDbLine
 10
231.8256516654606
 20
54.16843426687802
 30
0.0
 11
187.6296516654606
 21
54.16843426687802
 31
0.0
  0
SOLID
  5
33B
330
335
100
AcDbEntity
  8
치수문자_일반주서
 62
     0
100
AcDbTrace
 10
231.8256516654606
 20
53.61810093354469
 30
0.0
 11
231.8256516654606
 21
54.71876760021136
 31
0.0
 12
235.1276516654606
 22
54.16843426687802
 32
0.0
 13
235.1276516654606
 23
54.16843426687802
 33
0.0
  0
SOLID
  5
33C
330
335
100
AcDbEntity
  8
치수문자_일반주서
 62
     0
100
AcDbTrace
 10
187.6296516654606
 20
54.71876760021136
 30
0.0
 11
187.6296516654606
 21
53.61810093354469
 31
0.0
 12
184.3276516654606
 22
54.16843426687802
 32
0.0
 13
184.3276516654606
 23
54.16843426687802
 33
0.0
  0
MTEXT
  5
33D
330
335
100
AcDbEntity
  8
치수문자_일반주서
 62
     0
100
AcDbMText
 10
204.8760752790224
 20
58.54343426687802
 30
0.0
 40
3.5
 41
0.0
 71
     2
 72
     1
  1
\A1;50.8 [2]
  7
SLDTEXTSTYLE0
 73
     1
 44
1.0
  0
POINT
  5
33E
330
335
100
AcDbEntity
  8
Defpoints
 62
     0
100
AcDbPoint
 10
235.1276516654606
 20
23.30338447839874
 30
0.0
  0
POINT
  5
33F
330
335
100
AcDbEntity
  8
Defpoints
 62
     0
100
AcDbPoint
 10
184.3276516654606
 20
23.19604545113657
 30
0.0
  0
POINT
  5
340
330
335
100
AcDbEntity
  8
Defpoints
 62
     0
100
AcDbPoint
 10
184.3276516654606
 20
54.16843426687802
 30
0.0
  0
ENDBLK
  5
337
330
335
100
AcDbEntity
  8
0
100
AcDbBlockEnd
  0
BLOCK
  5
342
330
341
100
AcDbEntity
  8
0
100
AcDbBlockBegin
  2
*D19
 70
     1
 10
0.0
 20
0.0
 30
0.0
  3
*D19
  1
*D19
  0
LINE
  5
344
330
341
100
AcDbEntity
  8
치수문자_일반주서
 62
     0
370
    -2
100
AcDbLine
 10
52.80000001312456
 20
17.5258458038024
 30
0.0
 11
52.80000001312456
 21
64.82839559228171
 31
0.0
  0
LINE
  5
345
330
341
100
AcDbEntity
  8
치수문자_일반주서
 62
     0
370
    -2
100
AcDbLine
 10
-61.49999998687545
 20
10.22334580380245
 30
0.0
 11
-61.49999998687545
 21
64.82839559228171
 31
0.0
  0
LINE
  5
346
330
341
100
AcDbEntity
  8
치수문자_일반주서
 62
     0
370
    -2
100
AcDbLine
 10
49.49800001312456
 20
64.82839559228171
 30
0.0
 11
-58.19799998687545
 21
64.82839559228171
 31
0.0
  0
SOLID
  5
347
330
341
100
AcDbEntity
  8
치수문자_일반주서
 62
     0
100
AcDbTrace
 10
49.49800001312456
 20
64.27806225894838
 30
0.0
 11
49.49800001312456
 21
65.37872892561504
 31
0.0
 12
52.80000001312456
 22
64.82839559228171
 32
0.0
 13
52.80000001312456
 23
64.82839559228171
 33
0.0
  0
SOLID
  5
348
330
341
100
AcDbEntity
  8
치수문자_일반주서
 62
     0
100
AcDbTrace
 10
-58.19799998687545
 20
65.37872892561504
 30
0.0
 11
-58.19799998687545
 21
64.27806225894838
 31
0.0
 12
-61.49999998687545
 22
64.82839559228171
 32
0.0
 13
-61.49999998687545
 23
64.82839559228171
 33
0.0
  0
MTEXT
  5
349
330
341
100
AcDbEntity
  8
치수문자_일반주서
 62
     0
100
AcDbMText
 10
-12.22438114626783
 20
69.20339559228171
 30
0.0
 40
3.5
 41
0.0
 71
     2
 72
     1
  1
\A1;114.3 [4 1/2]
  7
SLDTEXTSTYLE0
 73
     1
 44
1.0
  0
POINT
  5
34A
330
341
100
AcDbEntity
  8
Defpoints
 62
     0
100
AcDbPoint
 10
52.80000001312456
 20
17.4633458038024
 30
0.0
  0
POINT
  5
34B
330
341
100
AcDbEntity
  8
Defpoints
 62
     0
100
AcDbPoint
 10
-61.49999998687545
 20
10.16084580380245
 30
0.0
  0
POINT
  5
34C
330
341
100
AcDbEntity
  8
Defpoints
 62
     0
100
AcDbPoint
 10
-61.49999998687545
 20
64.82839559228171
 30
0.0
  0
ENDBLK
  5
343
330
341
100
AcDbEntity
  8
0
100
AcDbBlockEnd
  0
BLOCK
  5
34E
330
34D
100
AcDbEntity
  8
0
100
AcDbBlockBegin
  2
*D20
 70
     1
 10
0.0
 20
0.0
 30
0.0
  3
*D20
  1
*D20
  0
LINE
  5
350
330
34D
100
AcDbEntity
  8
치수문자_일반주서
 62
     0
370
    -2
100
AcDbLine
 10
52.86250001312456
 20
17.4633458038024
 30
0.0
 11
76.86504505306846
 21
17.46334580380248
 31
0.0
  0
LINE
  5
351
330
34D
100
AcDbEntity
  8
치수문자_일반주서
 62
     0
370
    -2
100
AcDbLine
 10
52.86250001312456
 20
-17.4616541961976
 30
0.0
 11
76.86504505306858
 21
-17.46165419619751
 31
0.0
  0
LINE
  5
352
330
34D
100
AcDbEntity
  8
치수문자_일반주서
 62
     0
370
    -2
100
AcDbLine
 10
76.86504505306846
 20
17.46334580380248
 30
0.0
 11
76.86504505306826
 21
71.19515359597656
 31
0.0
  0
LINE
  5
353
330
34D
100
AcDbEntity
  8
치수문자_일반주서
 62
     0
370
    -2
100
AcDbLine
 10
76.86504505306846
 20
17.46334580380248
 30
0.0
 11
76.86504505306858
 21
-17.46165419619751
 31
0.0
  0
LINE
  5
354
330
34D
100
AcDbEntity
  8
치수문자_일반주서
 62
     0
370
    -2
100
AcDbLine
 10
76.86504505306844
 20
20.76534580380248
 30
0.0
 11
76.86504505306843
 21
24.06734580380248
 31
0.0
  0
LINE
  5
355
330
34D
100
AcDbEntity
  8
치수문자_일반주서
 62
     0
370
    -2
100
AcDbLine
 10
76.8650450530686
 20
-20.76365419619751
 30
0.0
 11
76.86504505306861
 21
-24.06565419619751
 31
0.0
  0
SOLID
  5
356
330
34D
100
AcDbEntity
  8
치수문자_일반주서
 62
     0
100
AcDbTrace
 10
76.31471171973512
 20
20.76534580380248
 30
0.0
 11
77.41537838640177
 21
20.76534580380249
 31
0.0
 12
76.86504505306846
 22
17.46334580380248
 32
0.0
 13
76.86504505306846
 23
17.46334580380248
 33
0.0
  0
SOLID
  5
357
330
34D
100
AcDbEntity
  8
치수문자_일반주서
 62
     0
100
AcDbTrace
 10
77.41537838640193
 20
-20.76365419619751
 30
0.0
 11
76.31471171973527
 21
-20.76365419619752
 31
0.0
 12
76.86504505306858
 22
-17.46165419619751
 32
0.0
 13
76.86504505306858
 23
-17.46165419619751
 33
0.0
  0
MTEXT
  5
358
330
34D
100
AcDbEntity
  8
치수문자_일반주서
 62
     0
100
AcDbMText
 10
72.49004505306831
 20
54.57015359597655
 30
0.0
 40
3.5
 41
0.0
 71
     2
 72
     1
  1
\A1;%%c34.93 [1 3/8]
  7
SLDTEXTSTYLE0
 11
-3.662067070488705E-15
 21
1.0
 31
0.0
 73
     1
 44
1.0
  0
POINT
  5
359
330
34D
100
AcDbEntity
  8
Defpoints
 62
     0
100
AcDbPoint
 10
52.80000001312456
 20
17.4633458038024
 30
0.0
  0
POINT
  5
35A
330
34D
100
AcDbEntity
  8
Defpoints
 62
     0
100
AcDbPoint
 10
52.80000001312456
 20
-17.4616541961976
 30
0.0
  0
POINT
  5
35B
330
34D
100
AcDbEntity
  8
Defpoints
 62
     0
100
AcDbPoint
 10
76.86504505306854
 20
-17.46165419619751
 30
0.0
  0
ENDBLK
  5
34F
330
34D
100
AcDbEntity
  8
0
100
AcDbBlockEnd
  0
BLOCK
  5
362
330
361
100
AcDbEntity
  8
0
100
AcDbBlockBegin
  2
*D21
 70
     1
 10
0.0
 20
0.0
 30
0.0
  3
*D21
  1
*D21
  0
LINE
  5
364
330
361
100
AcDbEntity
  8
치수문자_일반주서
 62
     0
370
    -2
100
AcDbLine
 10
2.00000001312452
 20
17.41850677654023
 30
0.0
 11
2.00000001312452
 21
29.56926766224706
 31
0.0
  0
LINE
  5
365
330
361
100
AcDbEntity
  8
치수문자_일반주서
 62
     0
370
    -2
100
AcDbLine
 10
52.80000001312456
 20
17.5258458038024
 30
0.0
 11
52.80000001312456
 21
29.56926766224706
 31
0.0
  0
LINE
  5
366
330
361
100
AcDbEntity
  8
치수문자_일반주서
 62
     0
370
    -2
100
AcDbLine
 10
5.30200001312452
 20
29.56926766224706
 30
0.0
 11
49.49800001312456
 21
29.56926766224706
 31
0.0
  0
SOLID
  5
367
330
361
100
AcDbEntity
  8
치수문자_일반주서
 62
     0
100
AcDbTrace
 10
5.30200001312452
 20
30.11960099558039
 30
0.0
 11
5.30200001312452
 21
29.01893432891372
 31
0.0
 12
2.00000001312452
 22
29.56926766224706
 32
0.0
 13
2.00000001312452
 23
29.56926766224706
 33
0.0
  0
SOLID
  5
368
330
361
100
AcDbEntity
  8
치수문자_일반주서
 62
     0
100
AcDbTrace
 10
49.49800001312456
 20
29.01893432891372
 30
0.0
 11
49.49800001312456
 21
30.11960099558039
 31
0.0
 12
52.80000001312456
 22
29.56926766224706
 32
0.0
 13
52.80000001312456
 23
29.56926766224706
 33
0.0
  0
MTEXT
  5
369
330
361
100
AcDbEntity
  8
치수문자_일반주서
 62
     0
100
AcDbMText
 10
27.40000001312454
 20
32.19426766224706
 30
0.0
 40
3.5
 41
0.0
 71
     5
 72
     1
  1
\A1;50.8 [2]
  7
SLDTEXTSTYLE0
 73
     1
 44
1.0
  0
POINT
  5
36A
330
361
100
AcDbEntity
  8
Defpoints
 62
     0
100
AcDbPoint
 10
2.00000001312452
 20
17.35600677654023
 30
0.0
  0
POINT
  5
36B
330
361
100
AcDbEntity
  8
Defpoints
 62
     0
100
AcDbPoint
 10
52.80000001312456
 20
17.4633458038024
 30
0.0
  0
POINT
  5
36C
330
361
100
AcDbEntity
  8
Defpoints
 62
     0
100
AcDbPoint
 10
52.80000001312456
 20
29.56926766224706
 30
0.0
  0
ENDBLK
  5
363
330
361
100
AcDbEntity
  8
0
100
AcDbBlockEnd
  0
ENDSEC
  0
SECTION
  2
ENTITIES
  0
LINE
  5
B7
330
1F
100
AcDbEntity
  8
참조1
100
AcDbLine
 10
18.41194598552359
 20
0.0010749287238892
 30
0.0
 11
18.4119459855236
 21
-39.99892507127611
 31
0.0
  0
LINE
  5
B8
330
1F
100
AcDbEntity
  8
참조1
100
AcDbLine
 10
18.4119459855236
 20
-39.99892507127611
 30
0.0
 11
3.253089171214916
 21
-39.9989250712761
 31
0.0
  0
INSERT
  5
BA
330
1F
100
AcDbEntity
  8
0
  6
Continuous
 62
     7
100
AcDbBlockReference
 66
     1
  2
블럭10
 10
4.471673053398387
 20
-52.04609937292004
 30
0.0
  0
ATTRIB
  5
BB
330
BA
100
AcDbEntity
  8
FORMAT
 62
     2
100
AcDbText
 10
-4.709622235342893
 20
-49.97073246008785
 30
0.0
 40
4.233333333333333
  1
E2032124 [ 6 FLUTE ]
 41
0.75
  7
SLDTEXTSTYLE0
 11
-4.709622235342893
 21
-52.08739912675452
 31
0.0
100
AcDbAttribute
  2
AUTOATTR0
 70
     0
 74
     1
  0
SEQEND
  5
BC
330
BA
100
AcDbEntity
  8
0
  6
Continuous
 62
     7
  0
HATCH
  5
BD
330
1F
100
AcDbEntity
  8
중심선
100
AcDbHatch
 10
0.0
 20
0.0
 30
0.0
210
0.0
220
0.0
230
1.0
  2
SOLID
 70
     1
 71
     0
 91
        1
 92
        0
 93
        4
 72
     1
 10
10.18658235777922
 20
-35.7989250712761
 11
6.74030711394194
 21
-35.7989250712761
 72
     1
 10
6.74030711394194
 20
-35.7989250712761
 11
4.612077254737917
 21
-38.3352506518487
 72
     1
 10
4.612077254737917
 20
-38.3352506518487
 11
8.058385583688349
 21
-38.33521122254621
 72
     1
 10
8.058385583688349
 20
-38.33521122254621
 11
10.18658235777922
 21
-35.7989250712761
 97
        0
 75
     0
 76
     1
 98
        1
 10
0.0
 20
0.0
  0
HATCH
  5
BE
330
1F
100
AcDbEntity
  8
중심선
100
AcDbHatch
 10
0.0
 20
0.0
 30
0.0
210
0.0
220
0.0
230
1.0
  2
SOLID
 70
     1
 71
     0
 91
        1
 92
        0
 93
        4
 72
     1
 10
15.1993463488152
 20
-35.7989250712761
 11
11.75307110497792
 21
-35.7989250712761
 72
     1
 10
11.75307110497792
 20
-35.7989250712761
 11
7.221933096620504
 21
-41.19892507127612
 72
     1
 10
7.221933096620504
 20
-41.19892507127612
 11
10.66820834045778
 21
-41.19892507127612
 72
     1
 10
10.66820834045778
 20
-41.19892507127612
 11
15.1993463488152
 21
-35.7989250712761
 97
        0
 75
     0
 76
     1
 98
        1
 10
0.0
 20
0.0
  0
HATCH
  5
BF
330
1F
100
AcDbEntity
  8
중심선
100
AcDbHatch
 10
0.0
 20
0.0
 30
0.0
210
0.0
220
0.0
230
1.0
  2
SOLID
 70
     1
 71
     0
 91
        1
 92
        0
 93
        4
 72
     1
 10
20.21211033985107
 20
-35.7989250712761
 11
16.76583509601396
 21
-35.7989250712761
 72
     1
 10
16.76583509601396
 20
-35.7989250712761
 11
9.717398194124705
 21
-44.19892507127612
 72
     1
 10
9.717398194124705
 20
-44.19892507127612
 11
13.16367343796199
 21
-44.19892507127612
 72
     1
 10
13.16367343796199
 20
-44.19892507127612
 11
20.21211033985107
 21
-35.7989250712761
 97
        0
 75
     0
 76
     1
 98
        1
 10
0.0
 20
0.0
  0
HATCH
  5
C0
330
1F
100
AcDbEntity
  8
중심선
100
AcDbHatch
 10
0.0
 20
0.0
 30
0.0
210
0.0
220
0.0
230
1.0
  2
SOLID
 70
     1
 71
     0
 91
        1
 92
        0
 93
        6
 72
     3
 10
25.01200077086327
 20
-39.99892507132738
 11
3.960054785062284
 21
1.540850780301639E-10
 40
0.3939339440162633
 50
17.09539180608432
 51
320.0019657685075
 73
     0
 72
     1
 10
26.69500042656387
 20
-38.58681907591438
 11
29.0003023002649
 21
-36.65249236586649
 72
     3
 10
25.01200077081042
 20
-39.99892507127625
 11
6.600054785286829
 21
-1.249000902703301E-13
 40
0.6363583540795982
 50
39.99873849337406
 51
368.4976242363725
 73
     1
 72
     1
 10
31.43733326271103
 20
-39.03892507120613
 11
23.69206807764634
 21
-39.0389250712061
 72
     1
 10
23.69206807764634
 20
-39.0389250712061
 11
23.69204303320041
 21
-40.95892507120602
 72
     1
 10
23.69204303320041
 20
-40.95892507120602
 11
28.13342280267245
 21
-40.95892507120599
 97
        0
 75
     0
 76
     1
 98
        1
 10
0.0
 20
0.0
  0
LINE
  5
111
330
1F
100
AcDbEntity
  8
참조1
100
AcDbLine
 10
101.2254298008692
 20
7.441074928723896
 30
0.0
 11
101.2254298008692
 21
-7.438925071276109
 31
0.0
  0
LINE
  5
112
330
1F
100
AcDbEntity
  8
참조1
100
AcDbLine
 10
113.9254298008692
 20
5.441074928723896
 30
0.0
 11
101.2254298008692
 21
5.441074928723896
 31
0.0
  0
SOLID
  5
113
330
1F
100
AcDbEntity
  8
참조1
100
AcDbTrace
 10
101.2254298008692
 20
5.441074928723896
 30
0.0
 11
107.5754298008692
 21
4.425074928723896
 31
0.0
 12
107.5754298008692
 22
6.457074928723896
 32
0.0
 13
107.5754298008692
 23
6.457074928723896
 33
0.0
  0
LINE
  5
114
330
1F
100
AcDbEntity
  8
참조1
100
AcDbLine
 10
113.9254298008692
 20
-5.438925071276109
 30
0.0
 11
101.2254298008692
 21
-5.438925071276109
 31
0.0
  0
SOLID
  5
115
330
1F
100
AcDbEntity
  8
참조1
100
AcDbTrace
 10
101.2254298008692
 20
-5.438925071276109
 30
0.0
 11
107.5754298008692
 21
-6.454925071276109
 31
0.0
 12
107.5754298008692
 22
-4.422925071276109
 32
0.0
 13
107.5754298008692
 23
-4.422925071276109
 33
0.0
  0
MTEXT
  5
116
330
1F
100
AcDbEntity
  8
참조1
100
AcDbMText
 10
110.6229198933395
 20
10.98929157337383
 30
0.0
 40
3.5
 41
0.0
 71
     1
 72
     1
  1
A
  7
SLDTEXTSTYLE0
 73
     1
 44
1.0
  0
MTEXT
  5
117
330
1F
100
AcDbEntity
  8
참조1
100
AcDbMText
 10
110.6229198933395
 20
0.1092915733738259
 30
0.0
 40
3.5
 41
0.0
 71
     1
 72
     1
  1
A
  7
SLDTEXTSTYLE0
 73
     1
 44
1.0
  0
LINE
  5
2EB
330
1F
100
AcDbEntity
  8
0
  6
Continuous
 62
     1
370
    15
100
AcDbLine
 10
18.33743287208401
 20
17.4633458038024
 30
0.0
 11
14.11667447556425
 21
17.4633458038024
 31
0.0
  0
LINE
  5
2EC
330
1F
100
AcDbEntity
  8
0
  6
Continuous
 62
     1
370
    15
100
AcDbLine
 10
14.11667447556411
 20
-17.4616541961976
 30
0.0
 11
18.33743287208395
 21
-17.4616541961976
 31
0.0
  0
LINE
  5
2ED
330
1F
100
AcDbEntity
  8
0
  6
Continuous
 62
     1
370
    15
100
AcDbLine
 10
50.68781433395233
 20
-17.4616541961976
 30
0.0
 11
52.80000001312456
 21
-17.4616541961976
 31
0.0
  0
LINE
  5
2EE
330
1F
100
AcDbEntity
  8
0
  6
Continuous
 62
     1
370
    15
100
AcDbLine
 10
32.4018868139797
 20
-17.4616541961976
 30
0.0
 11
36.62507195185884
 21
-17.4616541961976
 31
0.0
  0
LINE
  5
2EF
330
1F
100
AcDbEntity
  8
0
  6
Continuous
 62
     1
370
    15
100
AcDbLine
 10
36.62507195185884
 20
17.4633458038024
 30
0.0
 11
32.40188681397976
 21
17.4633458038024
 31
0.0
  0
LINE
  5
2F0
102
{ACAD_REACTORS
102
}
330
1F
100
AcDbEntity
  8
0
  6
Continuous
 62
     1
370
    15
100
AcDbLine
 10
52.80000001312456
 20
17.4633458038024
 30
0.0
 11
50.68781433395233
 21
17.4633458038024
 31
0.0
  0
LINE
  5
2F1
330
1F
100
AcDbEntity
  8
외형선
  6
Continuous
370
    15
100
AcDbLine
 10
-58.95999998687543
 20
-12.69915419619756
 30
0.0
 11
1.136936448457988
 21
-12.69915419619756
 31
0.0
  0
LINE
  5
2F2
330
1F
100
AcDbEntity
  8
외형선
  6
Continuous
370
    15
100
AcDbLine
 10
-61.49999998687545
 20
-10.15915419619757
 30
0.0
 11
-58.95999998687543
 21
-12.69915419619756
 31
0.0
  0
LINE
  5
2F3
330
1F
100
AcDbEntity
  8
0
  6
Continuous
 62
     1
370
    15
100
AcDbLine
 10
52.80000001312456
 20
-17.3342224913646
 30
0.0
 11
52.80000001312456
 21
-10.47575540570543
 31
0.0
  0
SPLINE
  5
2F4
102
{ACAD_REACTORS
102
}
330
1F
100
AcDbEntity
  8
0
  6
Continuous
 62
     1
370
    15
100
AcDbSpline
210
0.0
220
0.0
230
1.0
 70
     8
 71
     3
 72
    27
 73
    23
 74
     0
 42
0.000000001
 43
0.00000001
 40
0.0369734198722197
 40
0.0369734198722197
 40
0.0369734198722197
 40
0.0369734198722197
 40
0.0837942395790062
 40
0.132015735831507
 40
0.1802127675768494
 40
0.2284285225707008
 40
0.2766854862201239
 40
0.3249015308120935
 40
0.3730985430724428
 40
0.4213197109688626
 40
0.4695757490032232
 40
0.5177870237720148
 40
0.5659847016703654
 40
0.6142119634231383
 40
0.662465113165672
 40
0.7106723007715863
 40
0.7588713293159334
 40
0.8071053648283851
 40
0.855353664217799
 40
0.9035574480265649
 40
0.9517585119915748
 40
1.0
 40
1.0
 40
1.0
 40
1.0
 10
2.00000001312452
 20
17.35600677654023
 30
0.0
 10
2.823398070107402
 20
17.27909323433341
 30
0.0
 10
4.495606704633644
 20
16.95142386807411
 30
0.0
 10
7.014001624792712
 20
16.15286335471641
 30
0.0
 10
9.556320886358975
 20
14.99150776961883
 30
0.0
 10
12.0996459162908
 20
13.51578262777071
 30
0.0
 10
14.64534593555581
 20
11.75404607120513
 30
0.0
 10
17.18868877342365
 20
9.742439778293946
 30
0.0
 10
19.7310006371257
 20
7.52453587056587
 30
0.0
 10
22.27463241614495
 20
5.147177348018232
 30
0.0
 10
24.82027802337137
 20
2.662270519759311
 30
0.0
 10
27.36335571228653
 20
0.1193084327812199
 30
0.0
 10
29.90570337821964
 20
-2.425895627537252
 30
0.0
 10
32.44968231884573
 20
-4.919519636287708
 30
0.0
 10
34.99515955613174
 20
-7.307872245414023
 30
0.0
 10
37.53801421725095
 20
-9.542873464337694
 30
0.0
 10
40.08043458891021
 20
-11.57557838345384
 30
0.0
 10
42.62480271313751
 20
-13.36217084237103
 30
0.0
 10
45.16999720146148
 20
-14.86729923050988
 30
0.0
 10
47.71267111696932
 20
-16.05119361241875
 30
0.0
 10
50.25520114358218
 20
-16.92121348185624
 30
0.0
 10
51.95149672164692
 20
-17.19651435726723
 30
0.0
 10
52.80000001312456
 20
-17.3342224913646
 30
0.0
  0
SPLINE
  5
2F5
330
1F
100
AcDbEntity
  8
0
  6
Continuous
 62
     1
370
    15
100
AcDbSpline
210
0.0
220
0.0
230
1.0
 70
     8
 71
     3
 72
    25
 73
    21
 74
     0
 42
0.000000001
 43
0.00000001
 40
0.0
 40
0.0
 40
0.0
 40
0.0
 40
0.0556637349421874
 40
0.1112808263555195
 40
0.1669010560771449
 40
0.2225726503727973
 40
0.2782277862070873
 40
0.3338425290378822
 40
0.3894666862515924
 40
0.4451438771567518
 40
0.5007911970471546
 40
0.5564043814268355
 40
0.6120332546383392
 40
0.6677137782166268
 40
0.7233540666737375
 40
0.778966483002954
 40
0.834600859904001
 40
0.8902824515088699
 40
0.9459164942553632
 40
0.9999999999999999
 40
0.9999999999999999
 40
0.9999999999999999
 40
0.9999999999999999
 10
52.80000001312456
 20
-10.49034815002831
 30
0.0
 10
51.95149672164692
 20
-9.79100585472091
 30
0.0
 10
50.25520114358218
 20
-8.39290727926601
 30
0.0
 10
47.71267111696932
 20
-6.057340597678254
 30
0.0
 10
45.16999720146168
 20
-3.60924060083858
 30
0.0
 10
42.62480271313652
 20
-1.081730983640022
 30
0.0
 10
40.08043458891379
 20
1.468203008203972
 30
0.0
 10
37.53801421723762
 20
3.987863679796138
 30
0.0
 10
34.99515955618187
 20
6.423176313633078
 30
0.0
 10
32.44968231865829
 20
8.72100561296702
 30
0.0
 10
29.9057033789183
 20
10.83518901832977
 30
0.0
 10
27.36335570968052
 20
12.71997426745455
 30
0.0
 10
24.82027803310402
 20
14.33543722404557
 30
0.0
 10
22.27463237979617
 20
15.64632835033061
 30
0.0
 10
19.73100077263894
 20
16.62674910946292
 30
0.0
 10
17.1886882678682
 20
17.25438825178349
 30
0.0
 10
14.64534782385559
 20
17.51836614489783
 30
0.0
 10
12.09963886503127
 20
17.40434660933772
 30
0.0
 10
9.57964177238162
 20
16.95197810101214
 30
0.0
 10
7.908146858416387
 20
16.35571615816116
 30
0.0
 10
7.084210250054412
 20
16.06179839701015
 30
0.0
  0
SPLINE
  5
2F6
330
1F
100
AcDbEntity
  8
외형선
  6
Continuous
370
    15
100
AcDbSpline
210
0.0
220
0.0
230
1.0
 70
    24
 71
     3
 72
    34
 73
    30
 74
     0
 42
0.000000001
 43
0.00000001
 40
0.0
 40
0.0
 40
0.0
 40
0.0
 40
0.1250000000000012
 40
0.1250000000000012
 40
0.1562500000000016
 40
0.1562500000000016
 40
0.1875000000000018
 40
0.1875000000000018
 40
0.2500000000000018
 40
0.2500000000000018
 40
0.3750000000000016
 40
0.3750000000000016
 40
0.5000000000000012
 40
0.5000000000000012
 40
0.5625000000000011
 40
0.5625000000000011
 40
0.6250000000000009
 40
0.6250000000000009
 40
0.6875000000000008
 40
0.6875000000000008
 40
0.7500000000000007
 40
0.7500000000000007
 40
0.8125000000000004
 40
0.8125000000000004
 40
0.8750000000000003
 40
0.8750000000000003
 40
0.9375000000000001
 40
0.9375000000000001
 40
1.0
 40
1.0
 40
1.0
 40
1.0
 10
2.000000013124577
 20
2.697494954080518
 30
0.0
 10
2.000000013124549
 20
2.691418451945005
 30
0.0
 10
2.000000013124549
 20
2.618491298326624
 30
0.0
 10
2.000000013124549
 20
2.488723607103985
 30
0.0
 10
2.000000013124577
 20
2.460768184249595
 30
0.0
 10
2.000000013124577
 20
2.401687343804831
 30
0.0
 10
2.000000013124577
 20
2.370002326191141
 30
0.0
 10
2.000000013124549
 20
2.263346434897187
 30
0.0
 10
2.00000001312452
 20
2.178379195641647
 30
0.0
 10
2.000000013124549
 20
1.871868026355322
 30
0.0
 10
2.000000013124549
 20
1.598083698175884
 30
0.0
 10
2.000000013124577
 20
0.8615326313241738
 30
0.0
 10
2.000000013124549
 20
0.3965204683800252
 30
0.0
 10
2.000000013124549
 20
-0.446711278320322
 30
0.0
 10
2.000000013124549
 20
-0.7514436913103353
 30
0.0
 10
2.000000013124577
 20
-1.398197888419311
 30
0.0
 10
2.000000013124577
 20
-1.74019989408891
 30
0.0
 10
2.000000013124577
 20
-2.443512648725978
 30
0.0
 10
2.000000013124549
 20
-2.804706000990201
 30
0.0
 10
2.000000013124577
 20
-3.522356303611481
 30
0.0
 10
2.000000013124549
 20
-3.878626329935578
 30
0.0
 10
2.000000013124549
 20
-4.561056650525678
 30
0.0
 10
2.000000013124577
 20
-4.887040289676612
 30
0.0
 10
2.000000013124577
 20
-5.487987215122494
 30
0.0
 10
2.000000013124577
 20
-5.762862507695367
 30
0.0
 10
2.000000013124577
 20
-6.249380357435861
 30
0.0
 10
2.000000013124577
 20
-6.461045038539289
 30
0.0
 10
2.000000013124577
 20
-6.818632021826183
 30
0.0
 10
2.000000013124577
 20
-6.96464830950989
 30
0.0
 10
2.000000013124549
 20
-7.080426293773165
 30
0.0
  0
SPLINE
  5
2F7
330
1F
100
AcDbEntity
  8
외형선
  6
Continuous
370
    15
100
AcDbSpline
210
0.0
220
0.0
230
1.0
 70
    24
 71
     3
 72
    16
 73
    12
 74
     0
 42
0.000000001
 43
0.00000001
 40
0.0
 40
0.0
 40
0.0
 40
0.0
 40
0.1079026091461844
 40
0.2183750054846438
 40
0.3369164798318586
 40
0.4588956649657114
 40
0.5774371393129287
 40
0.6994163244467861
 40
0.8179577987940018
 40
0.9399369839278564
 40
1.0
 40
1.0
 40
1.0
 40
1.0
 10
2.000000013124549
 20
12.096893976068
 30
0.0
 10
2.000000013124549
 20
11.86790342646201
 30
0.0
 10
2.000000013124577
 20
11.40446873362347
 30
0.0
 10
2.000000013124492
 20
10.63037539992205
 30
0.0
 10
2.000000013124605
 20
9.801016761959104
 30
0.0
 10
2.00000001312452
 20
8.945575404463362
 30
0.0
 10
2.000000013124549
 20
8.102101002943932
 30
0.0
 10
2.000000013124662
 20
7.307293089093754
 30
0.0
 10
2.000000013124577
 20
6.576743186823656
 30
0.0
 10
2.000000013124577
 20
6.024525416761954
 30
0.0
 10
2.000000013124577
 20
5.760624045875865
 30
0.0
 10
2.000000013124577
 20
5.673552409870673
 30
0.0
  0
LINE
  5
2F8
330
1F
100
AcDbEntity
  8
0
  6
Continuous
 62
     1
370
    15
100
AcDbLine
 10
52.80000001312456
 20
-6.843028537533637
 30
0.0
 11
52.80000001312456
 21
6.844720145138762
 31
0.0
  0
SPLINE
  5
2F9
330
1F
100
AcDbEntity
  8
0
  6
Continuous
 62
     1
370
    15
100
AcDbSpline
210
0.0
220
0.0
230
1.0
 70
     8
 71
     3
 72
    21
 73
    17
 74
     0
 42
0.000000001
 43
0.00000001
 40
0.0
 40
0.0
 40
0.0
 40
0.0
 40
0.0404383461544571
 40
0.1142476874883044
 40
0.1881104025172715
 40
0.2619046010151854
 40
0.3356779875731311
 40
0.4094966564190075
 40
0.483354950507408
 40
0.5571428930224607
 40
0.6309183469357967
 40
0.7047473839822385
 40
0.7785982539167946
 40
0.8523809864372223
 40
0.9261595558507631
 40
1.0
 40
1.0
 40
1.0
 40
1.0
 10
18.33743287208401
 20
17.4175032272881
 30
0.0
 10
18.80183696623712
 20
17.42457997223217
 30
0.0
 10
20.11388602023248
 20
17.44457341463746
 30
0.0
 10
22.27463487642845
 20
17.07024228503415
 30
0.0
 10
24.82027736461478
 20
16.33504054400295
 30
0.0
 10
27.36335588867135
 20
15.23548475225093
 30
0.0
 10
29.90570333093163
 20
13.8180187183108
 30
0.0
 10
32.44968233152767
 20
12.10665600903819
 30
0.0
 10
34.9951595527364
 20
10.14014070687509
 30
0.0
 10
37.53801421816016
 20
7.957512496888782
 30
0.0
 10
40.08043458866641
 20
5.606449911576558
 30
0.0
 10
42.62480271320291
 20
3.137314461331375
 30
0.0
 10
45.16999720144392
 20
0.6016638383663873
 30
0.0
 10
47.71267111697409
 20
-1.945272741038123
 30
0.0
 10
50.25520114358116
 20
-4.461272105758257
 30
0.0
 10
51.95149672164652
 20
-6.048887909743
 30
0.0
 10
52.80000001312456
 20
-6.843028537533653
 30
0.0
  0
SPLINE
  5
2FA
330
1F
100
AcDbEntity
  8
0
  6
Continuous
 62
     1
370
    15
100
AcDbSpline
210
0.0
220
0.0
230
1.0
 70
     8
 71
     3
 72
    18
 73
    14
 74
     0
 42
0.000000001
 43
0.00000001
 40
0.0
 40
0.0
 40
0.0
 40
0.0
 40
0.0927761442179505
 40
0.1854745464955799
 40
0.2781781794704154
 40
0.3709674230700599
 40
0.4637292349390355
 40
0.5564237227751997
 40
0.6491339017996748
 40
0.7419324734088626
 40
0.8346812582479769
 40
0.9273731485745513
 40
1.0
 40
1.0
 40
1.0
 40
1.0
 10
52.80000001312456
 20
6.844720145138762
 30
0.0
 10
51.9514967213963
 20
7.610868735564011
 30
0.0
 10
50.25520114283037
 20
9.142523920797021
 30
0.0
 10
47.71267111997398
 20
11.20867562879751
 30
0.0
 10
45.16999719018855
 20
13.04777727533276
 30
0.0
 10
42.62480275526084
 20
14.60688841507812
 30
0.0
 10
40.08043443180472
 20
15.85779565038971
 30
0.0
 10
37.53801480315025
 20
16.77302029812703
 30
0.0
 10
34.99515736817801
 20
17.33218420952509
 30
0.0
 10
32.44969049118217
 20
17.52691443943044
 30
0.0
 10
29.9056729057383
 20
17.33993827811535
 30
0.0
 10
27.54709076104302
 20
16.86241739606139
 30
0.0
 10
26.0356964805672
 20
16.28924798439143
 30
0.0
 10
25.37171968828039
 20
16.03744658993485
 30
0.0
  0
LINE
  5
2FB
330
1F
100
AcDbEntity
  8
0
  6
Continuous
 62
     1
370
    15
100
AcDbLine
 10
52.80000001312456
 20
-10.49034815002831
 30
0.0
 11
52.80000001312456
 21
-6.843028537533637
 31
0.0
  0
LINE
  5
2FC
330
1F
100
AcDbEntity
  8
외형선
  6
Continuous
370
    15
100
AcDbLine
 10
2.000000013124549
 20
2.697494954080518
 30
0.0
 11
2.000000013124549
 21
5.590335116151316
 31
0.0
  0
LINE
  5
2FD
330
1F
100
AcDbEntity
  8
0
  6
Continuous
 62
     1
370
    15
100
AcDbLine
 10
52.80000001312456
 20
-17.4616541961976
 30
0.0
 11
52.80000001312456
 21
-17.3342224913646
 31
0.0
  0
LINE
  5
2FE
330
1F
100
AcDbEntity
  8
외형선
  6
Continuous
370
    15
100
AcDbLine
 10
2.000000013124549
 20
12.096893976068
 30
0.0
 11
2.000000013124549
 21
12.67160721372701
 31
0.0
  0
SPLINE
  5
2FF
330
1F
100
AcDbEntity
  8
0
  6
Continuous
 62
     1
370
    15
100
AcDbSpline
210
0.0
220
0.0
230
1.0
 70
     8
 71
     3
 72
    14
 73
    10
 74
     0
 42
0.000000001
 43
0.00000001
 40
0.0
 40
0.0
 40
0.0
 40
0.0
 40
0.0564574553181504
 40
0.213641970195944
 40
0.3709406482314828
 40
0.5282858429842305
 40
0.6854858655175381
 40
0.8426770182181077
 40
1.0
 40
1.0
 40
1.0
 40
1.0
 10
36.6250719518589
 20
17.42074259827342
 30
0.0
 10
36.92943567174132
 20
17.43210339246517
 30
0.0
 10
38.08118550540669
 20
17.47509403808385
 30
0.0
 10
40.08039355359807
 20
17.16747838394913
 30
0.0
 10
42.62481371557794
 20
16.50445902628704
 30
0.0
 10
45.16999425703918
 20
15.46870417811336
 30
0.0
 10
47.71267190177119
 20
14.1070611187997
 30
0.0
 10
50.25520094719442
 20
12.46071349870076
 30
0.0
 10
51.95149665616609
 20
11.14844768406459
 30
0.0
 10
52.80000001312456
 20
10.49203975763319
 30
0.0
  0
LINE
  5
300
330
1F
100
AcDbEntity
  8
0
  6
Continuous
 62
     1
370
    15
100
AcDbLine
 10
52.80000001312456
 20
6.844720145138762
 30
0.0
 11
52.80000001312456
 21
10.49203975763319
 31
0.0
  0
SPLINE
  5
301
330
1F
100
AcDbEntity
  8
0
  6
Continuous
 62
     1
370
    15
100
AcDbSpline
210
0.0
220
0.0
230
1.0
 70
     8
 71
     3
 72
    11
 73
     7
 74
     0
 42
0.000000001
 43
0.00000001
 40
0.0
 40
0.0
 40
0.0
 40
0.0
 40
0.2783312547540752
 40
0.5564292813224033
 40
0.8345430001414588
 40
1.0
 40
1.0
 40
1.0
 40
1.0
 10
52.80000001312456
 20
17.33591409896941
 30
0.0
 10
51.95149777711154
 20
17.40350935275289
 30
0.0
 10
50.2552043090914
 20
17.53864321875289
 30
0.0
 10
47.71265846701283
 20
17.25740620064063
 30
0.0
 10
45.5140437618123
 20
16.76965456707063
 30
0.0
 10
44.16173150319347
 20
16.22748560154721
 30
0.0
 10
43.65730341594272
 20
16.02525031712774
 30
0.0
  0
LINE
  5
302
330
1F
100
AcDbEntity
  8
0
  6
Continuous
 62
     1
370
    15
100
AcDbLine
 10
52.80000001312456
 20
17.33591409896941
 30
0.0
 11
52.80000001312456
 21
17.46334580380242
 31
0.0
  0
LINE
  5
303
330
1F
100
AcDbEntity
  8
외형선
  6
Continuous
370
    15
100
AcDbLine
 10
2.000000013124549
 20
-9.39855321818505
 30
0.0
 11
2.000000013124549
 21
-7.080426293773279
 31
0.0
  0
LINE
  5
304
330
1F
100
AcDbEntity
  8
0
  6
Continuous
 62
     1
370
    15
100
AcDbLine
 10
52.80000001312456
 20
10.45413565421737
 30
0.0
 11
52.80000001312456
 21
17.33591409896941
 31
0.0
  0
SPLINE
  5
305
330
1F
100
AcDbEntity
  8
외형선
  6
Continuous
370
    15
100
AcDbSpline
210
0.0
220
0.0
230
1.0
 70
    24
 71
     3
 72
    12
 73
     8
 74
     0
 42
0.000000001
 43
0.00000001
 40
0.0
 40
0.0
 40
0.0
 40
0.0
 40
0.1159378987235673
 40
0.3743116182073007
 40
0.6326853376910334
 40
0.8910590571747663
 40
1.0
 40
1.0
 40
1.0
 40
1.0
 10
2.000000013124549
 20
-9.481780511904397
 30
0.0
 10
2.000000013124549
 20
-9.591072429027257
 30
0.0
 10
2.000000013124549
 20
-9.94392714526439
 30
0.0
 10
2.000000013124492
 20
-10.61063522319458
 30
0.0
 10
2.000000013124549
 20
-11.45171062332066
 30
0.0
 10
2.000000013124549
 20
-12.14724032224596
 30
0.0
 10
2.000000013124549
 20
-12.55035640807159
 30
0.0
 10
2.000000013124577
 20
-12.66991560612212
 30
0.0
  0
LINE
  5
306
330
1F
100
AcDbEntity
  8
외형선
  6
Continuous
370
    15
100
AcDbLine
 10
1.136936448458016
 20
12.69619476198931
 30
0.0
 11
2.000000013124549
 21
12.67160721372701
 31
0.0
  0
SPLINE
  5
307
330
1F
100
AcDbEntity
  8
외형선
  6
Continuous
370
    15
100
AcDbSpline
210
0.0
220
0.0
230
1.0
 70
     8
 71
     3
 72
     8
 73
     4
 74
     0
 42
0.000000001
 43
0.00000001
 40
0.0
 40
0.0
 40
0.0
 40
0.0
 40
1.0
 40
1.0
 40
1.0
 40
1.0
 10
2.000000013124549
 20
-12.66991560612212
 30
0.0
 10
1.666534576625281
 20
-12.69250119015465
 30
0.0
 10
1.332574988071201
 20
-12.70200794946719
 30
0.0
 10
0.9996683352897264
 20
-12.69841374277626
 30
0.0
  0
LINE
  5
308
330
1F
100
AcDbEntity
  8
외형선
  6
Continuous
370
    15
100
AcDbLine
 10
-58.95999998687543
 20
-12.69915419619756
 30
0.0
 11
-58.95999998687543
 21
0.0008458038024415
 31
0.0
  0
LINE
  5
309
330
1F
100
AcDbEntity
  8
외형선
  6
Continuous
370
    15
100
AcDbLine
 10
-61.49999998687545
 20
0.0008458038024415
 30
0.0
 11
-61.49999998687545
 21
10.16084580380245
 31
0.0
  0
LINE
  5
30A
330
1F
100
AcDbEntity
  8
외형선
  6
Continuous
370
    15
100
AcDbLine
 10
-61.49999998687545
 20
-10.15915419619757
 30
0.0
 11
-61.49999998687545
 21
0.0008458038024415
 31
0.0
  0
SPLINE
  5
30B
330
1F
100
AcDbEntity
  8
외형선
  6
Continuous
370
    15
100
AcDbSpline
210
0.0
220
0.0
230
1.0
 70
    24
 71
     3
 72
    34
 73
    30
 74
     0
 42
0.000000001
 43
0.00000001
 40
0.0
 40
0.0
 40
0.0
 40
0.0
 40
0.0625000000000001
 40
0.0625000000000001
 40
0.1250000000000002
 40
0.1250000000000002
 40
0.1875000000000003
 40
0.1875000000000003
 40
0.2500000000000004
 40
0.2500000000000004
 40
0.3125000000000005
 40
0.3125000000000005
 40
0.3750000000000006
 40
0.3750000000000006
 40
0.4375000000000006
 40
0.4375000000000006
 40
0.5000000000000007
 40
0.5000000000000007
 40
0.6250000000000006
 40
0.6250000000000006
 40
0.7500000000000004
 40
0.7500000000000004
 40
0.8125000000000002
 40
0.8125000000000002
 40
0.84375
 40
0.84375
 40
0.8749999999999999
 40
0.8749999999999999
 40
1.0
 40
1.0
 40
1.0
 40
1.0
 10
2.000000013124549
 20
-7.080426293773165
 30
0.0
 10
2.000000013124577
 20
-6.96464830950989
 30
0.0
 10
2.000000013124577
 20
-6.818632021826183
 30
0.0
 10
2.000000013124577
 20
-6.461045038539304
 30
0.0
 10
2.000000013124577
 20
-6.249380357435889
 30
0.0
 10
2.000000013124605
 20
-5.762862507695395
 30
0.0
 10
2.000000013124577
 20
-5.487987215122537
 30
0.0
 10
2.000000013124577
 20
-4.887040289676683
 30
0.0
 10
2.000000013124549
 20
-4.561056650525764
 30
0.0
 10
2.00000001312452
 20
-3.878626329935678
 30
0.0
 10
2.000000013124577
 20
-3.522356303611581
 30
0.0
 10
2.000000013124549
 20
-2.804706000990322
 30
0.0
 10
2.000000013124577
 20
-2.44351264872612
 30
0.0
 10
2.000000013124577
 20
-1.740199894089052
 30
0.0
 10
2.000000013124577
 20
-1.398197888419453
 30
0.0
 10
2.000000013124577
 20
-0.7514436913104916
 30
0.0
 10
2.000000013124577
 20
-0.4467112783204783
 30
0.0
 10
2.000000013124605
 20
0.396520468379876
 30
0.0
 10
2.000000013124577
 20
0.8615326313240317
 30
0.0
 10
2.000000013124577
 20
1.598083698175763
 30
0.0
 10
2.000000013124577
 20
1.871868026355209
 30
0.0
 10
2.000000013124577
 20
2.178379195641561
 30
0.0
 10
2.000000013124577
 20
2.263346434897109
 30
0.0
 10
2.000000013124549
 20
2.370002326191077
 30
0.0
 10
2.000000013124549
 20
2.401687343804767
 30
0.0
 10
2.000000013124549
 20
2.460768184249531
 30
0.0
 10
2.000000013124577
 20
2.488723607103928
 30
0.0
 10
2.000000013124577
 20
2.618491298326575
 30
0.0
 10
2.000000013124549
 20
2.691418451944969
 30
0.0
 10
2.000000013124549
 20
2.697494954080504
 30
0.0
  0
SPLINE
  5
30C
330
1F
100
AcDbEntity
  8
외형선
  6
Continuous
370
    15
100
AcDbSpline
210
0.0
220
0.0
230
1.0
 70
    24
 71
     3
 72
    16
 73
    12
 74
     0
 42
0.000000001
 43
0.00000001
 40
0.0
 40
0.0
 40
0.0
 40
0.0
 40
0.102531879483829
 40
0.2229720492942685
 40
0.3434122191047071
 40
0.4638523889151456
 40
0.5842925587255856
 40
0.7047327285360251
 40
0.825172898346464
 40
0.9456130681569035
 40
1.0
 40
1.0
 40
1.0
 40
1.0
 10
2.000000013124605
 20
5.673552409870673
 30
0.0
 10
2.000000013124577
 20
5.831935762733316
 30
0.0
 10
2.000000013124549
 20
6.176365816485024
 30
0.0
 10
2.00000001312452
 20
6.82889915440628
 30
0.0
 10
2.000000013124549
 20
7.58478319727805
 30
0.0
 10
2.000000013124549
 20
8.400095398795145
 30
0.0
 10
2.000000013124549
 20
9.24965513375826
 30
0.0
 10
2.000000013124549
 20
10.10977061890821
 30
0.0
 10
2.000000013124577
 20
10.95449482917143
 30
0.0
 10
2.000000013124662
 20
11.61714829914822
 30
0.0
 10
2.000000013124549
 20
11.98306196048571
 30
0.0
 10
2.00000001312452
 20
12.09689397606792
 30
0.0
  0
SPLINE
  5
30D
330
1F
100
AcDbEntity
  8
외형선
  6
Continuous
370
    15
100
AcDbSpline
210
0.0
220
0.0
230
1.0
 70
    24
 71
     3
 72
    12
 73
     8
 74
     0
 42
0.000000001
 43
0.00000001
 40
0.0
 40
0.0
 40
0.0
 40
0.0
 40
0.2312373071319782
 40
0.4624746142639563
 40
0.7214153688438023
 40
0.9803561234236483
 40
0.9999999999999999
 40
0.9999999999999999
 40
0.9999999999999999
 40
0.9999999999999999
 10
2.000000013124549
 20
-12.66991560612212
 30
0.0
 10
2.000000013124577
 20
-12.41579570373334
 30
0.0
 10
2.000000013124577
 20
-11.9075558989558
 30
0.0
 10
2.000000013124605
 20
-11.11064531125876
 30
0.0
 10
2.000000013124577
 20
-10.3146432893489
 30
0.0
 10
2.00000001312452
 20
-9.753873777622921
 30
0.0
 10
2.00000001312452
 20
-9.49969355691588
 30
0.0
 10
2.00000001312452
 20
-9.481770511904394
 30
0.0
  0
LINE
  5
30E
330
1F
100
AcDbEntity
  8
중심선
100
AcDbLine
 10
-64.49999998687545
 20
0.0008458038024415
 30
0.0
 11
55.80000001312456
 21
0.0008458038024557
 31
0.0
  0
CIRCLE
  5
30F
330
1F
100
AcDbEntity
  8
해칭선
100
AcDbCircle
 10
0.0
 20
0.0
 30
0.0
 40
3.000000000000001
  0
DIMENSION
  5
310
330
1F
100
AcDbEntity
  8
치수문자_일반주서
100
AcDbDimension
  2
*D17
 10
-73.5474999868754
 20
-12.6991541961976
 30
0.0
 11
-73.54749998687544
 21
0.0008458038024273
 31
0.0
 70
   160
  1
%%c<>
 71
     2
 42
25.39999999999998
 52
-270.0
  3
SLDDIMSTYLE0
100
AcDbAlignedDimension
 13
-61.49999998687545
 23
12.70084580380242
 33
0.0
 14
-58.95999998687543
 24
-12.69915419619755
 34
0.0
 50
90.0000000000002
100
AcDbRotatedDimension
1001
ACAD
1000
DSTYLE
1002
{
1070
   171
1070
     6
1070
   273
1070
     7
1002
}
  0
DIMENSION
  5
312
330
1F
100
AcDbEntity
  8
치수문자_일반주서
100
AcDbDimension
  2
*D19
 10
-61.49999998687545
 20
64.82839559228171
 30
0.0
 11
-12.22438114626783
 21
64.82839559228171
 31
0.0
 70
   160
  1
<>
 71
     2
 42
114.3
  3
SLDDIMSTYLE0
100
AcDbAlignedDimension
 13
52.80000001312456
 23
17.4633458038024
 33
0.0
 14
-61.49999998687545
 24
10.16084580380245
 34
0.0
100
AcDbRotatedDimension
1001
ACAD
1000
DSTYLE
1002
{
1070
   171
1070
     6
1070
   273
1070
     7
1002
}
  0
DIMENSION
  5
313
330
1F
100
AcDbEntity
  8
치수문자_일반주서
100
AcDbDimension
  2
*D20
 10
76.86504505306858
 20
-17.46165419619751
 30
0.0
 11
76.86504505306831
 21
54.57015359597656
 31
0.0
 70
   160
  1
%%c<>
 71
     2
 42
34.925
 52
-270.0
  3
SLDDIMSTYLE0
100
AcDbAlignedDimension
 13
52.80000001312456
 23
17.4633458038024
 33
0.0
 14
52.80000001312456
 24
-17.4616541961976
 34
0.0
 50
90.0000000000002
100
AcDbRotatedDimension
1001
ACAD
1000
DSTYLE
1002
{
1070
   171
1070
     6
1070
   273
1070
     7
1002
}
  0
INSERT
  5
314
330
1F
100
AcDbEntity
  8
해칭선
100
AcDbBlockReference
  2
SW_DOWELSYMBOL_0
 10
0.0
 20
0.0
 30
0.0
  0
LINE
  5
315
330
1F
100
AcDbEntity
  8
외형선
  6
Continuous
370
    15
100
AcDbLine
 10
-39.08132498687536
 20
10.79584580380244
 30
0.0
 11
-25.97492498687546
 21
10.79584580380244
 31
0.0
  0
LINE
  5
316
330
1F
100
AcDbEntity
  8
외형선
  6
Continuous
370
    15
100
AcDbLine
 10
-39.08132498687536
 20
10.79584580380246
 30
0.0
 11
-40.98632498687533
 21
12.70084580380244
 31
0.0
  0
LINE
  5
317
330
1F
100
AcDbEntity
  8
외형선
  6
Continuous
370
    15
100
AcDbLine
 10
-25.97492498687546
 20
10.79584580380246
 30
0.0
 11
-24.06992498687544
 21
12.70084580380244
 31
0.0
  0
LINE
  5
318
330
1F
100
AcDbEntity
  8
외형선
  6
Continuous
370
    15
100
AcDbLine
 10
-48.79999998687543
 20
10.79584580380246
 30
0.0
 11
-46.89499998687546
 21
12.70084580380244
 31
0.0
  0
LINE
  5
319
330
1F
100
AcDbEntity
  8
외형선
  6
Continuous
370
    15
100
AcDbLine
 10
-58.95999998687543
 20
0.0008458038024415
 30
0.0
 11
-58.95999998687543
 21
10.79584580380244
 31
0.0
  0
LINE
  5
31A
330
1F
100
AcDbEntity
  8
외형선
  6
Continuous
370
    15
100
AcDbLine
 10
-60.86499998687546
 20
10.79584580380244
 30
0.0
 11
-48.79999998687543
 21
10.79584580380244
 31
0.0
  0
LINE
  5
31B
330
1F
100
AcDbEntity
  8
외형선
  6
Continuous
370
    15
100
AcDbLine
 10
-60.86499998687546
 20
10.79584580380244
 30
0.0
 11
-61.49999998687545
 21
10.16084580380245
 31
0.0
  0
LINE
  5
31C
330
1F
100
AcDbEntity
  8
외형선
  6
Continuous
370
    15
100
AcDbLine
 10
-40.98632498687533
 20
12.70084580380244
 30
0.0
 11
-46.89499998687546
 21
12.70084580380244
 31
0.0
  0
LINE
  5
31D
330
1F
100
AcDbEntity
  8
외형선
  6
Continuous
370
    15
100
AcDbLine
 10
1.136936448458016
 20
12.70084580380244
 30
0.0
 11
-24.06992498687544
 21
12.70084580380244
 31
0.0
  0
LINE
  5
31E
330
1F
100
AcDbEntity
  8
외형선
  6
Continuous
370
    15
100
AcDbLine
 10
2.000000013124549
 20
6.992355309614718
 30
0.0
 11
2.000000013124549
 21
17.35600677654023
 31
0.0
  0
LINE
  5
320
330
1F
100
AcDbEntity
  8
외형선
  6
Continuous
370
    15
100
AcDbLine
 10
2.000000013124577
 20
-12.66991560612212
 30
0.0
 11
2.000000013124577
 21
-17.35252139966039
 31
0.0
  0
LINE
  5
321
330
1F
100
AcDbEntity
  8
0
  6
Continuous
 62
     1
370
    15
100
AcDbLine
 10
-0.1118327719175625
 20
-17.4616541961976
 30
0.0
 11
0.0498622640691906
 21
-17.4616541961976
 31
0.0
  0
SPLINE
  5
322
330
1F
100
AcDbEntity
  8
0
  6
Continuous
 62
     1
370
    15
100
AcDbSpline
210
0.0
220
0.0
230
1.0
 70
     8
 71
     3
 72
    12
 73
     8
 74
     0
 42
0.000000001
 43
0.00000001
 40
0.0
 40
0.0
 40
0.0
 40
0.0
 40
0.0647087327981283
 40
0.1463171501753122
 40
0.2278938771915519
 40
0.3095120120362361
 40
0.3887594638591854
 40
0.3887594638591854
 40
0.3887594638591854
 40
0.3887594638591854
 10
14.11667447556411
 20
-17.4311652806966
 30
0.0
 10
13.44414466278266
 20
-17.42099400094094
 30
0.0
 10
11.92344349372863
 20
-17.39799505469166
 30
0.0
 10
9.556304311631322
 20
-16.92271623700652
 30
0.0
 10
7.014008487041565
 20
-16.09571533709862
 30
0.0
 10
4.495595415513776
 20
-14.92804535887533
 30
0.0
 10
2.82341678032455
 20
-13.95141913584244
 30
0.0
 10
2.000000013124549
 20
-13.42518134571612
 30
0.0
  0
LINE
  5
323
330
1F
100
AcDbEntity
  8
외형선
  6
Continuous
370
    15
100
AcDbLine
 10
0.9996683352897264
 20
-12.69841387377758
 30
0.0
 11
0.9996683352897264
 21
-12.69841374277626
 31
0.0
  0
SPLINE
  5
324
330
1F
100
AcDbEntity
  8
0
  6
Continuous
 62
     1
370
    15
100
AcDbSpline
210
0.0
220
0.0
230
1.0
 70
     8
 71
     3
 72
    17
 73
    13
 74
     0
 42
0.000000001
 43
0.00000001
 40
0.4490679854823329
 40
0.4490679854823329
 40
0.4490679854823329
 40
0.4490679854823329
 40
0.5072897356966581
 40
0.5672531858582083
 40
0.6271862143951775
 40
0.6871425252992671
 40
0.7471500791832852
 40
0.8071067502027521
 40
0.8670397545101246
 40
0.9270027963607548
 40
0.987009199242067
 40
1.0
 40
1.0
 40
1.0
 40
1.0
 10
2.000000013124577
 20
-10.36136882498535
 30
0.0
 10
2.823416975220738
 20
-11.02389318109008
 30
0.0
 10
4.49559650470033
 20
-12.29804018579119
 30
0.0
 10
7.014004204033
 20
-13.96587342522495
 30
0.0
 10
9.556320290178576
 20
-15.35450325430591
 30
0.0
 10
12.0996457211661
 20
-16.41773270899846
 30
0.0
 10
14.64534731380982
 20
-17.13326506596442
 30
0.0
 10
17.18868346192698
 20
-17.48428517668976
 30
0.0
 10
19.73102050243889
 20
-17.47246561879358
 30
0.0
 10
22.27455820014504
 20
-17.06183346208474
 30
0.0
 10
24.1560390120238
 20
-16.57055033424106
 30
0.0
 10
25.18805842574449
 20
-16.11655020384553
 30
0.0
 10
25.37171968828031
 20
-16.03575498233005
 30
0.0
  0
SPLINE
  5
325
330
1F
100
AcDbEntity
  8
0
  6
Continuous
 62
     1
370
    15
100
AcDbSpline
210
0.0
220
0.0
230
1.0
 70
     8
 71
     3
 72
    24
 73
    20
 74
     0
 42
0.000000001
 43
0.00000001
 40
0.3138001813104299
 40
0.3138001813104299
 40
0.3138001813104299
 40
0.3138001813104299
 40
0.3544844348382108
 40
0.3963857552193051
 40
0.4382658175467911
 40
0.4801621491503329
 40
0.5220942883752421
 40
0.5639908716205716
 40
0.6058709170168755
 40
0.6477719520780519
 40
0.6897032870041256
 40
0.7315957255856709
 40
0.7734763493777799
 40
0.8153826796008085
 40
0.8573115047905489
 40
0.8992003918953777
 40
0.9410821893103524
 40
0.9829944054866704
 40
1.0
 40
1.0
 40
1.0
 40
1.0
 10
2.00000001312452
 20
6.992355309614705
 30
0.0
 10
2.823416973971518
 20
6.238116395390627
 30
0.0
 10
4.495596497719021
 20
4.660311083792577
 30
0.0
 10
7.014004231485643
 20
2.184030538644894
 30
0.0
 10
9.556320187761543
 20
-0.3632519733835906
 30
0.0
 10
12.09964610370255
 20
-2.903039405307471
 30
0.0
 10
14.64534588533468
 20
-5.379680522655805
 30
0.0
 10
17.18868878699217
 20
-7.743983347612525
 30
0.0
 10
19.73100063303065
 20
-9.943991784099895
 30
0.0
 10
22.27463241895458
 20
-11.93336077962186
 30
0.0
 10
24.82027801622939
 20
-13.66893646750634
 30
0.0
 10
27.36335573801452
 20
-15.11614729364246
 30
0.0
 10
29.90570328244391
 20
-16.24278689115217
 30
0.0
 10
32.44968267655085
 20
-17.02563951287759
 30
0.0
 10
34.99515822094114
 20
-17.44621021450796
 30
0.0
 10
37.5380191945099
 20
-17.50305417823627
 30
0.0
 10
40.08041601076323
 20
-17.16808029796869
 30
0.0
 10
42.12052883967621
 20
-16.67057078927433
 30
0.0
 10
43.31309117687738
 20
-16.16847877790058
 30
0.0
 10
43.65730341594272
 20
-16.02355870952294
 30
0.0
  0
SPLINE
  5
326
330
1F
100
AcDbEntity
  8
0
  6
Continuous
 62
     1
370
    15
100
AcDbSpline
210
0.0
220
0.0
230
1.0
 70
     8
 71
     3
 72
    19
 73
    15
 74
     0
 42
0.000000001
 43
0.00000001
 40
0.0
 40
0.0
 40
0.0
 40
0.0
 40
0.0504823625578424
 40
0.1018949118745436
 40
0.1533219649972903
 40
0.2047967671755733
 40
0.2562343733152759
 40
0.3076462125947294
 40
0.359078353696401
 40
0.4105541432299288
 40
0.461985975416769
 40
0.5133978354808991
 40
0.5648357918786212
 40
0.6147796800425525
 40
0.6147796800425525
 40
0.6147796800425525
 40
0.6147796800425525
 10
32.4018868139797
 20
-17.45826070282133
 30
0.0
 10
31.56963435539492
 20
-17.42526937621624
 30
0.0
 10
29.88979437509096
 20
-17.35867882564131
 30
0.0
 10
27.36337219019845
 20
-16.7941663633922
 30
0.0
 10
24.82027360268603
 20
-15.89793521702872
 30
0.0
 10
22.27463360109058
 20
-14.65830972638321
 30
0.0
 10
19.73100031655639
 20
-13.10947211898978
 30
0.0
 10
17.18868887180821
 20
-11.28237907906993
 30
0.0
 10
14.64534586258239
 20
-9.216190076674312
 30
0.0
 10
12.09964610979546
 20
-6.956217805791612
 30
0.0
 10
9.556320186130392
 20
-4.547399160162798
 30
0.0
 10
7.014004231922883
 20
-2.042418831782324
 30
0.0
 10
4.495596497607863
 20
0.480636458873283
 30
0.0
 10
2.823416973951623
 20
2.146702128800653
 30
0.0
 10
2.000000013124549
 20
2.957906979879034
 30
0.0
  0
SPLINE
  5
328
330
1F
100
AcDbEntity
  8
0
  6
Continuous
 62
     1
370
    15
100
AcDbSpline
210
0.0
220
0.0
230
1.0
 70
     8
 71
     3
 72
    27
 73
    23
 74
     0
 42
0.000000001
 43
0.00000001
 40
0.0
 40
0.0
 40
0.0
 40
0.0
 40
0.0069957427474156
 40
0.0480780149304182
 40
0.0891626052647702
 40
0.1302851366952333
 40
0.1713955108738117
 40
0.2124760482464426
 40
0.253563539672792
 40
0.2946902051100725
 40
0.3357948059422572
 40
0.3768741921451447
 40
0.4179651671032655
 40
0.4590942942619535
 40
0.5001937012364768
 40
0.5412725201091169
 40
0.5823675604375417
 40
0.6234974765076522
 40
0.6645922700085645
 40
0.7056711054884681
 40
0.746770792324322
 40
0.786676696382777
 40
0.786676696382777
 40
0.786676696382777
 40
0.786676696382777
 10
50.68781433395233
 20
-17.4355115891874
 30
0.0
 10
50.54345756893659
 20
-17.44379614180085
 30
0.0
 10
49.5513703875861
 20
-17.50073146069721
 30
0.0
 10
47.71272854652784
 20
-17.24836925216595
 30
0.0
 10
45.16998179689151
 20
-16.66068099845082
 30
0.0
 10
42.6248068411285
 20
-15.68655681921615
 30
0.0
 10
40.08043348385866
 20
-14.38910430484407
 30
0.0
 10
37.53801451330494
 20
-12.78409668826061
 30
0.0
 10
34.99515947671165
 20
-10.90866152375947
 30
0.0
 10
32.44968234012705
 20
-8.803278125627214
 30
0.0
 10
29.90570337250546
 20
-6.510537322630364
 30
0.0
 10
27.36335571388156
 20
-4.079682569267522
 30
0.0
 10
24.82027802270503
 20
-1.562103409278806
 30
0.0
 10
22.27463241721412
 20
0.9868615616583263
 30
0.0
 10
19.73100063351905
 20
3.516436341890845
 30
0.0
 10
17.18868878677739
 20
5.971453616216092
 30
0.0
 10
14.64534588570555
 20
8.300163120468895
 30
0.0
 10
12.09964610243344
 20
10.45166360376324
 30
0.0
 10
9.556320192461328
 20
12.38321559406496
 30
0.0
 10
7.014004213957776
 20
14.05225900784085
 30
0.0
 10
4.495596566349576
 20
15.40998250842703
 30
0.0
 10
2.823416846863353
 20
16.09911747417163
 30
0.0
 10
2.000000013124577
 20
16.38394673715643
 30
0.0
  0
SPLINE
  5
35C
330
1F
100
AcDbEntity
  8
0
  6
Continuous
 62
     1
370
    15
100
AcDbSpline
210
0.0
220
0.0
230
1.0
 70
     8
 71
     3
 72
    10
 73
     6
 74
     0
 42
0.000000001
 43
0.00000001
 40
0.7893606597928626
 40
0.7893606597928626
 40
0.7893606597928626
 40
0.7893606597928626
 40
0.8917014065083898
 40
0.997103682733673
 40
1.0
 40
1.0
 40
1.0
 40
1.0
 10
2.000000013124577
 20
-17.35252139966039
 30
0.0
 10
2.823413524809013
 20
-17.25675350323989
 30
0.0
 10
4.495577221924208
 20
-16.93406997894153
 30
0.0
 10
6.189954806227888
 20
-16.46762100319701
 30
0.0
 10
7.060917390113076
 20
-16.07072139798442
 30
0.0
 10
7.084210250054298
 20
-16.06010678940535
 30
0.0
  0
DIMENSION
  5
35E
102
{ACAD_REACTORS
102
}
102
{ACAD_XDICTIONARY
360
35F
102
}
330
1F
100
AcDbEntity
  8
치수문자_일반주서
100
AcDbDimension
  2
*D21
 10
52.80000001312456
 20
29.56926766224706
 30
0.0
 11
27.40000001312454
 21
32.19426766224706
 31
0.0
 70
    32
 71
     5
 42
50.80000000000004
  3
SLDDIMSTYLE0
100
AcDbAlignedDimension
 13
2.00000001312452
 23
17.35600677654023
 33
0.0
 14
52.80000001312456
 24
17.4633458038024
 34
0.0
100
AcDbRotatedDimension
1001
ACAD
1000
DSTYLE
1002
{
1070
   171
1070
     6
1070
   273
1070
     7
1002
}
  0
ENDSEC
  0
SECTION
  2
OBJECTS
  0
DICTIONARY
  5
C
330
0
100
AcDbDictionary
281
     1
  3
ACAD_GROUP
350
D
  3
ACAD_IMAGE_VARS
350
142
  3
ACAD_LAYOUT
350
1A
  3
ACAD_MLINESTYLE
350
17
  3
ACAD_PLOTSETTINGS
350
19
  3
ACAD_PLOTSTYLENAME
350
E
  3
ACAD_SCALELIST
350
47
  3
APPDATA
350
140
  3
DWGPROPS
350
36D
  0
DICTIONARY
  5
1EC
330
2
100
AcDbDictionary
280
     1
281
     1
  3
ACAD_LAYERSTATES
360
1ED
  0
DICTIONARY
  5
35F
330
35E
100
AcDbDictionary
280
     1
281
     1
  0
DICTIONARY
  5
D
102
{ACAD_REACTORS
330
C
102
}
330
C
100
AcDbDictionary
281
     1
  0
RASTERVARIABLES
  5
142
102
{ACAD_REACTORS
330
C
102
}
330
C
100
AcDbRasterVariables
 90
        0
 70
     1
 71
     1
 72
     1
  0
DICTIONARY
  5
1A
102
{ACAD_REACTORS
330
C
102
}
330
C
100
AcDbDictionary
281
     1
  3
Layout1
350
1E
  3
Layout2
350
26
  3
Model
350
22
  0
DICTIONARY
  5
17
102
{ACAD_REACTORS
330
C
102
}
330
C
100
AcDbDictionary
281
     1
  3
Standard
350
18
  0
DICTIONARY
  5
19
102
{ACAD_REACTORS
330
C
102
}
330
C
100
AcDbDictionary
281
     1
  0
ACDBDICTIONARYWDFLT
  5
E
102
{ACAD_REACTORS
330
C
102
}
330
C
100
AcDbDictionary
281
     1
  3
Normal
350
F
100
AcDbDictionaryWithDefault
340
F
  0
DICTIONARY
  5
47
102
{ACAD_REACTORS
330
C
102
}
330
C
100
AcDbDictionary
281
     1
  3
A0
350
48
  3
A1
350
49
  3
A2
350
4A
  3
A3
350
4B
  3
A4
350
4C
  3
A5
350
4D
  3
A6
350
4E
  3
A7
350
4F
  3
A8
350
50
  3
A9
350
51
  3
B0
350
52
  3
B1
350
53
  3
B2
350
54
  3
B3
350
55
  3
B4
350
56
  3
B5
350
57
  3
B6
350
58
  3
B7
350
59
  3
B8
350
5A
  3
B9
350
5B
  3
C0
350
5C
  3
C1
350
5D
  3
C2
350
5E
  3
C3
350
5F
  3
C4
350
60
  3
C5
350
61
  3
C6
350
62
  3
C7
350
63
  3
C8
350
64
  3
C9
350
65
  3
D0
350
66
  3
D1
350
67
  3
D2
350
68
  0
DICTIONARY
  5
140
102
{ACAD_REACTORS
330
C
102
}
330
C
100
AcDbDictionary
281
     1
  0
XRECORD
  5
36D
102
{ACAD_REACTORS
330
C
102
}
330
C
100
AcDbXrecord
280
     1
  1
DWGPROPS COOKIE
  2

  3

  4

  6

  7

  8
12017012
  9

300
=
301
=
302
=
303
=
304
=
305
=
306
=
307
=
308
=
309
=
 40
0.0
 41
2458323.107443947
 42
2458324.017733391
  1

 90
        0
  0
DICTIONARY
  5
1ED
102
{ACAD_REACTORS
330
1EC
102
}
330
1EC
100
AcDbDictionary
281
     1
  0
LAYOUT
  5
1E
102
{ACAD_REACTORS
330
1A
102
}
330
1A
100
AcDbPlotSettings
  1

  2
none_device
  4

  6

 40
0.0
 41
0.0
 42
0.0
 43
0.0
 44
0.0
 45
0.0
 46
0.0
 47
0.0
 48
0.0
 49
0.0
140
0.0
141
0.0
142
1.0
143
1.0
 70
   688
 72
     1
 73
     0
 74
     5
  7

 75
    16
147
1.0
148
0.0
149
0.0
100
AcDbLayout
  1
Layout1
 70
     1
 71
     1
 10
0.0
 20
0.0
 11
420.0
 21
297.0
 12
0.0
 22
0.0
 32
0.0
 14
1.000000000000000E+20
 24
1.000000000000000E+20
 34
1.000000000000000E+20
 15
-1.000000000000000E+20
 25
-1.000000000000000E+20
 35
-1.000000000000000E+20
146
0.0
 13
0.0
 23
0.0
 33
0.0
 16
1.0
 26
0.0
 36
0.0
 17
0.0
 27
1.0
 37
0.0
 76
     0
330
1B
  0
LAYOUT
  5
26
102
{ACAD_REACTORS
330
1A
102
}
330
1A
100
AcDbPlotSettings
  1

  2
none_device
  4

  6

 40
0.0
 41
0.0
 42
0.0
 43
0.0
 44
0.0
 45
0.0
 46
0.0
 47
0.0
 48
0.0
 49
0.0
140
0.0
141
0.0
142
1.0
143
1.0
 70
   688
 72
     1
 73
     0
 74
     5
  7

 75
    16
147
1.0
148
0.0
149
0.0
100
AcDbLayout
  1
Layout2
 70
     1
 71
     2
 10
0.0
 20
0.0
 11
0.0
 21
0.0
 12
0.0
 22
0.0
 32
0.0
 14
0.0
 24
0.0
 34
0.0
 15
0.0
 25
0.0
 35
0.0
146
0.0
 13
0.0
 23
0.0
 33
0.0
 16
1.0
 26
0.0
 36
0.0
 17
0.0
 27
1.0
 37
0.0
 76
     0
330
23
  0
LAYOUT
  5
22
102
{ACAD_REACTORS
330
1A
102
}
330
1A
100
AcDbPlotSettings
  1

  2
none_device
  4
ANSI_A_(11.00_x_8.50_Inches)
  6

 40
6.35
 41
19.05
 42
6.35000508
 43
19.05000254
 44
279.4
 45
215.9
 46
96.39525648754174
 47
90.09827952143297
 48
0.0
 49
0.0
140
0.0
141
0.0
142
0.0605651527843098
143
1.0
 70
  1696
 72
     0
 73
     0
 74
     0
  7

 75
     0
147
0.0235690232323232
148
0.0
149
0.0
100
AcDbLayout
  1
Model
 70
     1
 71
     0
 10
0.0
 20
0.0
 11
420.0
 21
297.0
 12
0.0
 22
0.0
 32
0.0
 14
1.000000000000000E+20
 24
1.000000000000000E+20
 34
1.000000000000000E+20
 15
-1.000000000000000E+20
 25
-1.000000000000000E+20
 35
-1.000000000000000E+20
146
0.0
 13
0.0
 23
0.0
 33
0.0
 16
1.0
 26
0.0
 36
0.0
 17
0.0
 27
1.0
 37
0.0
 76
     0
330
1F
331
29
  0
MLINESTYLE
  5
18
102
{ACAD_REACTORS
330
17
102
}
330
17
100
AcDbMlineStyle
  2
Standard
 70
     0
  3

 62
   256
 51
90.0
 52
90.0
 71
     2
 49
0.5
 62
   256
  6
BYLAYER
 49
-0.5
 62
   256
  6
BYLAYER
  0
ACDBPLACEHOLDER
  5
F
102
{ACAD_REACTORS
330
E
102
}
330
E
  0
SCALE
  5
48
102
{ACAD_REACTORS
330
47
102
}
330
47
100
AcDbScale
 70
     0
300
1:1
140
1.0
141
1.0
290
     1
  0
SCALE
  5
49
102
{ACAD_REACTORS
330
47
102
}
330
47
100
AcDbScale
 70
     0
300
1:2
140
1.0
141
2.0
290
     0
  0
SCALE
  5
4A
102
{ACAD_REACTORS
330
47
102
}
330
47
100
AcDbScale
 70
     0
300
1:4
140
1.0
141
4.0
290
     0
  0
SCALE
  5
4B
102
{ACAD_REACTORS
330
47
102
}
330
47
100
AcDbScale
 70
     0
300
1:5
140
1.0
141
5.0
290
     0
  0
SCALE
  5
4C
102
{ACAD_REACTORS
330
47
102
}
330
47
100
AcDbScale
 70
     0
300
1:8
140
1.0
141
8.0
290
     0
  0
SCALE
  5
4D
102
{ACAD_REACTORS
330
47
102
}
330
47
100
AcDbScale
 70
     0
300
1:10
140
1.0
141
10.0
290
     0
  0
SCALE
  5
4E
102
{ACAD_REACTORS
330
47
102
}
330
47
100
AcDbScale
 70
     0
300
1:16
140
1.0
141
16.0
290
     0
  0
SCALE
  5
4F
102
{ACAD_REACTORS
330
47
102
}
330
47
100
AcDbScale
 70
     0
300
1:20
140
1.0
141
20.0
290
     0
  0
SCALE
  5
50
102
{ACAD_REACTORS
330
47
102
}
330
47
100
AcDbScale
 70
     0
300
1:30
140
1.0
141
30.0
290
     0
  0
SCALE
  5
51
102
{ACAD_REACTORS
330
47
102
}
330
47
100
AcDbScale
 70
     0
300
1:40
140
1.0
141
40.0
290
     0
  0
SCALE
  5
52
102
{ACAD_REACTORS
330
47
102
}
330
47
100
AcDbScale
 70
     0
300
1:50
140
1.0
141
50.0
290
     0
  0
SCALE
  5
53
102
{ACAD_REACTORS
330
47
102
}
330
47
100
AcDbScale
 70
     0
300
1:100
140
1.0
141
100.0
290
     0
  0
SCALE
  5
54
102
{ACAD_REACTORS
330
47
102
}
330
47
100
AcDbScale
 70
     0
300
2:1
140
2.0
141
1.0
290
     0
  0
SCALE
  5
55
102
{ACAD_REACTORS
330
47
102
}
330
47
100
AcDbScale
 70
     0
300
4:1
140
4.0
141
1.0
290
     0
  0
SCALE
  5
56
102
{ACAD_REACTORS
330
47
102
}
330
47
100
AcDbScale
 70
     0
300
8:1
140
8.0
141
1.0
290
     0
  0
SCALE
  5
57
102
{ACAD_REACTORS
330
47
102
}
330
47
100
AcDbScale
 70
     0
300
10:1
140
10.0
141
1.0
290
     0
  0
SCALE
  5
58
102
{ACAD_REACTORS
330
47
102
}
330
47
100
AcDbScale
 70
     0
300
100:1
140
100.0
141
1.0
290
     0
  0
SCALE
  5
59
102
{ACAD_REACTORS
330
47
102
}
330
47
100
AcDbScale
 70
     0
300
1/128" = 1'-0"
140
0.0078125
141
12.0
290
     0
  0
SCALE
  5
5A
102
{ACAD_REACTORS
330
47
102
}
330
47
100
AcDbScale
 70
     0
300
1/64" = 1'-0"
140
0.015625
141
12.0
290
     0
  0
SCALE
  5
5B
102
{ACAD_REACTORS
330
47
102
}
330
47
100
AcDbScale
 70
     0
300
1/32" = 1'-0"
140
0.03125
141
12.0
290
     0
  0
SCALE
  5
5C
102
{ACAD_REACTORS
330
47
102
}
330
47
100
AcDbScale
 70
     0
300
1/16" = 1'-0"
140
0.0625
141
12.0
290
     0
  0
SCALE
  5
5D
102
{ACAD_REACTORS
330
47
102
}
330
47
100
AcDbScale
 70
     0
300
3/32" = 1'-0"
140
0.09375
141
12.0
290
     0
  0
SCALE
  5
5E
102
{ACAD_REACTORS
330
47
102
}
330
47
100
AcDbScale
 70
     0
300
1/8" = 1'-0"
140
0.125
141
12.0
290
     0
  0
SCALE
  5
5F
102
{ACAD_REACTORS
330
47
102
}
330
47
100
AcDbScale
 70
     0
300
3/16" = 1'-0"
140
0.1875
141
12.0
290
     0
  0
SCALE
  5
60
102
{ACAD_REACTORS
330
47
102
}
330
47
100
AcDbScale
 70
     0
300
1/4" = 1'-0"
140
0.25
141
12.0
290
     0
  0
SCALE
  5
61
102
{ACAD_REACTORS
330
47
102
}
330
47
100
AcDbScale
 70
     0
300
3/8" = 1'-0"
140
0.375
141
12.0
290
     0
  0
SCALE
  5
62
102
{ACAD_REACTORS
330
47
102
}
330
47
100
AcDbScale
 70
     0
300
1/2" = 1'-0"
140
0.5
141
12.0
290
     0
  0
SCALE
  5
63
102
{ACAD_REACTORS
330
47
102
}
330
47
100
AcDbScale
 70
     0
300
3/4" = 1'-0"
140
0.75
141
12.0
290
     0
  0
SCALE
  5
64
102
{ACAD_REACTORS
330
47
102
}
330
47
100
AcDbScale
 70
     0
300
1" = 1'-0"
140
1.0
141
12.0
290
     0
  0
SCALE
  5
65
102
{ACAD_REACTORS
330
47
102
}
330
47
100
AcDbScale
 70
     0
300
1-1/2" = 1'-0"
140
1.5
141
12.0
290
     0
  0
SCALE
  5
66
102
{ACAD_REACTORS
330
47
102
}
330
47
100
AcDbScale
 70
     0
300
3" = 1'-0"
140
3.0
141
12.0
290
     0
  0
SCALE
  5
67
102
{ACAD_REACTORS
330
47
102
}
330
47
100
AcDbScale
 70
     0
300
6" = 1'-0"
140
6.0
141
12.0
290
     0
  0
SCALE
  5
68
102
{ACAD_REACTORS
330
47
102
}
330
47
100
AcDbScale
 70
     0
300
1'-0" = 1'-0"
140
12.0
141
12.0
290
     0
  0
ENDSEC
  0
EOF
