  0
SECTION
  2
HEADER
  9
$ACADVER
  1
AC1015
  9
$ACADMAINTVER
 70
     6
  9
$DWGCODEPAGE
  3
ANSI_949
  9
$INSBASE
 10
0.0
 20
0.0
 30
0.0
  9
$EXTMIN
 10
1.000000000000000E+20
 20
1.000000000000000E+20
 30
1.000000000000000E+20
  9
$EXTMAX
 10
-1.000000000000000E+20
 20
-1.000000000000000E+20
 30
-1.000000000000000E+20
  9
$LIMMIN
 10
0.0
 20
0.0
  9
$LIMMAX
 10
420.0
 20
297.0
  9
$ORTHOMODE
 70
     1
  9
$REGENMODE
 70
     1
  9
$FILLMODE
 70
     1
  9
$QTEXTMODE
 70
     0
  9
$MIRRTEXT
 70
     1
  9
$LTSCALE
 40
1.0
  9
$ATTMODE
 70
     1
  9
$TEXTSIZE
 40
3.5
  9
$TRACEWID
 40
1.0
  9
$TEXTSTYLE
  7
Standard
  9
$CLAYER
  8
0
  9
$CELTYPE
  6
ByLayer
  9
$CECOLOR
 62
   256
  9
$CELTSCALE
 40
1.0
  9
$DISPSILH
 70
     0
  9
$DIMSCALE
 40
1.0
  9
$DIMASZ
 40
3.302
  9
$DIMEXO
 40
1.0
  9
$DIMDLI
 40
3.75
  9
$DIMRND
 40
0.0
  9
$DIMDLE
 40
0.0
  9
$DIMEXE
 40
1.0
  9
$DIMTP
 40
0.0
  9
$DIMTM
 40
0.0
  9
$DIMTXT
 40
3.5
  9
$DIMCEN
 40
2.5
  9
$DIMTSZ
 40
0.0
  9
$DIMTOL
 70
     0
  9
$DIMLIM
 70
     0
  9
$DIMTIH
 70
     1
  9
$DIMTOH
 70
     1
  9
$DIMSE1
 70
     0
  9
$DIMSE2
 70
     0
  9
$DIMTAD
 70
     1
  9
$DIMZIN
 70
     0
  9
$DIMBLK
  1

  9
$DIMASO
 70
     1
  9
$DIMSHO
 70
     1
  9
$DIMPOST
  1

  9
$DIMAPOST
  1

  9
$DIMALT
 70
     0
  9
$DIMALTD
 70
     3
  9
$DIMALTF
 40
0.0393700787401575
  9
$DIMLFAC
 40
1.0
  9
$DIMTOFL
 70
     1
  9
$DIMTVP
 40
0.0
  9
$DIMTIX
 70
     0
  9
$DIMSOXD
 70
     0
  9
$DIMSAH
 70
     0
  9
$DIMBLK1
  1

  9
$DIMBLK2
  1

  9
$DIMSTYLE
  2
ISO-25
  9
$DIMCLRD
 70
     0
  9
$DIMCLRE
 70
     0
  9
$DIMCLRT
 70
     0
  9
$DIMTFAC
 40
1.0
  9
$DIMGAP
 40
1.524
  9
$DIMJUST
 70
     0
  9
$DIMSD1
 70
     0
  9
$DIMSD2
 70
     0
  9
$DIMTOLJ
 70
     0
  9
$DIMTZIN
 70
     0
  9
$DIMALTZ
 70
     0
  9
$DIMALTTZ
 70
     0
  9
$DIMUPT
 70
     0
  9
$DIMDEC
 70
     2
  9
$DIMTDEC
 70
     2
  9
$DIMALTU
 70
     2
  9
$DIMALTTD
 70
     3
  9
$DIMTXSTY
  7
Standard
  9
$DIMAUNIT
 70
     0
  9
$DIMADEC
 70
     2
  9
$DIMALTRND
 40
0.0
  9
$DIMAZIN
 70
     0
  9
$DIMDSEP
 70
    44
  9
$DIMATFIT
 70
     3
  9
$DIMFRAC
 70
     0
  9
$DIMLDRBLK
  1

  9
$DIMLUNIT
 70
     2
  9
$DIMLWD
 70
    -2
  9
$DIMLWE
 70
    -2
  9
$DIMTMOVE
 70
     0
  9
$LUNITS
 70
     2
  9
$LUPREC
 70
     2
  9
$SKETCHINC
 40
1.0
  9
$FILLETRAD
 40
10.0
  9
$AUNITS
 70
     0
  9
$AUPREC
 70
     2
  9
$MENU
  1
.
  9
$ELEVATION
 40
0.0
  9
$PELEVATION
 40
0.0
  9
$THICKNESS
 40
0.0
  9
$LIMCHECK
 70
     0
  9
$CHAMFERA
 40
0.0
  9
$CHAMFERB
 40
0.0
  9
$CHAMFERC
 40
0.0
  9
$CHAMFERD
 40
0.0
  9
$SKPOLY
 70
     0
  9
$TDCREATE
 40
2458323.444074572
  9
$TDUCREATE
 40
2458323.069074572
  9
$TDUPDATE
 40
2458324.396778113
  9
$TDUUPDATE
 40
2458324.021778113
  9
$TDINDWG
 40
0.0006784954
  9
$TDUSRTIMER
 40
2458324.021285289
  9
$USRTIMER
 70
     1
  9
$ANGBASE
 50
0.0
  9
$ANGDIR
 70
     0
  9
$PDMODE
 70
     0
  9
$PDSIZE
 40
-1.0
  9
$PLINEWID
 40
0.0
  9
$SPLFRAME
 70
     0
  9
$SPLINETYPE
 70
     6
  9
$SPLINESEGS
 70
     8
  9
$HANDSEED
  5
30D
  9
$SURFTAB1
 70
     6
  9
$SURFTAB2
 70
     6
  9
$SURFTYPE
 70
     6
  9
$SURFU
 70
     6
  9
$SURFV
 70
     6
  9
$UCSBASE
  2

  9
$UCSNAME
  2

  9
$UCSORG
 10
0.0
 20
0.0
 30
0.0
  9
$UCSXDIR
 10
1.0
 20
0.0
 30
0.0
  9
$UCSYDIR
 10
0.0
 20
1.0
 30
0.0
  9
$UCSORTHOREF
  2

  9
$UCSORTHOVIEW
 70
     0
  9
$UCSORGTOP
 10
0.0
 20
0.0
 30
0.0
  9
$UCSORGBOTTOM
 10
0.0
 20
0.0
 30
0.0
  9
$UCSORGLEFT
 10
0.0
 20
0.0
 30
0.0
  9
$UCSORGRIGHT
 10
0.0
 20
0.0
 30
0.0
  9
$UCSORGFRONT
 10
0.0
 20
0.0
 30
0.0
  9
$UCSORGBACK
 10
0.0
 20
0.0
 30
0.0
  9
$PUCSBASE
  2

  9
$PUCSNAME
  2

  9
$PUCSORG
 10
0.0
 20
0.0
 30
0.0
  9
$PUCSXDIR
 10
1.0
 20
0.0
 30
0.0
  9
$PUCSYDIR
 10
0.0
 20
1.0
 30
0.0
  9
$PUCSORTHOREF
  2

  9
$PUCSORTHOVIEW
 70
     0
  9
$PUCSORGTOP
 10
0.0
 20
0.0
 30
0.0
  9
$PUCSORGBOTTOM
 10
0.0
 20
0.0
 30
0.0
  9
$PUCSORGLEFT
 10
0.0
 20
0.0
 30
0.0
  9
$PUCSORGRIGHT
 10
0.0
 20
0.0
 30
0.0
  9
$PUCSORGFRONT
 10
0.0
 20
0.0
 30
0.0
  9
$PUCSORGBACK
 10
0.0
 20
0.0
 30
0.0
  9
$USERI1
 70
     0
  9
$USERI2
 70
     0
  9
$USERI3
 70
     0
  9
$USERI4
 70
     0
  9
$USERI5
 70
     0
  9
$USERR1
 40
0.0
  9
$USERR2
 40
0.0
  9
$USERR3
 40
0.0
  9
$USERR4
 40
0.0
  9
$USERR5
 40
0.0
  9
$WORLDVIEW
 70
     1
  9
$SHADEDGE
 70
     3
  9
$SHADEDIF
 70
    70
  9
$TILEMODE
 70
     1
  9
$MAXACTVP
 70
    64
  9
$PINSBASE
 10
0.0
 20
0.0
 30
0.0
  9
$PLIMCHECK
 70
     0
  9
$PEXTMIN
 10
1.000000000000000E+20
 20
1.000000000000000E+20
 30
1.000000000000000E+20
  9
$PEXTMAX
 10
-1.000000000000000E+20
 20
-1.000000000000000E+20
 30
-1.000000000000000E+20
  9
$PLIMMIN
 10
0.0
 20
0.0
  9
$PLIMMAX
 10
0.0
 20
0.0
  9
$UNITMODE
 70
     0
  9
$VISRETAIN
 70
     1
  9
$PLINEGEN
 70
     0
  9
$PSLTSCALE
 70
     1
  9
$TREEDEPTH
 70
  3020
  9
$CMLSTYLE
  2
Standard
  9
$CMLJUST
 70
     0
  9
$CMLSCALE
 40
20.0
  9
$PROXYGRAPHICS
 70
     1
  9
$MEASUREMENT
 70
     1
  9
$CELWEIGHT
370
    -1
  9
$ENDCAPS
280
     0
  9
$JOINSTYLE
280
     0
  9
$LWDISPLAY
290
     1
  9
$INSUNITS
 70
     4
  9
$HYPERLINKBASE
  1

  9
$STYLESHEET
  1

  9
$XEDIT
290
     1
  9
$CEPSNTYPE
380
     0
  9
$PSTYLEMODE
290
     1
  9
$FINGERPRINTGUID
  2
{0C546FEF-CC5C-41D9-BFEC-043727CCBE0C}
  9
$VERSIONGUID
  2
{FAEB1C32-E019-11D5-929B-00C0DF256EC4}
  9
$EXTNAMES
290
     1
  9
$PSVPSCALE
 40
0.0
  9
$OLESTARTUP
290
     0
  0
ENDSEC
  0
SECTION
  2
CLASSES
  0
CLASS
  1
ACDBDICTIONARYWDFLT
  2
AcDbDictionaryWithDefault
  3
ObjectDBX Classes
 90
        0
280
     0
281
     0
  0
CLASS
  1
VISUALSTYLE
  2
AcDbVisualStyle
  3
ObjectDBX Classes
 90
     4095
280
     0
281
     0
  0
CLASS
  1
MATERIAL
  2
AcDbMaterial
  3
ObjectDBX Classes
 90
     1153
280
     0
281
     0
  0
CLASS
  1
SCALE
  2
AcDbScale
  3
ObjectDBX Classes
 90
     1153
280
     0
281
     0
  0
CLASS
  1
SUN
  2
AcDbSun
  3
SCENEOE
 90
     1153
280
     0
281
     0
  0
CLASS
  1
ACDBPLACEHOLDER
  2
AcDbPlaceHolder
  3
ObjectDBX Classes
 90
        0
280
     0
281
     0
  0
CLASS
  1
LAYOUT
  2
AcDbLayout
  3
ObjectDBX Classes
 90
        0
280
     0
281
     0
  0
CLASS
  1
TABLESTYLE
  2
AcDbTableStyle
  3
ObjectDBX Classes
 90
     4095
280
     0
281
     0
  0
CLASS
  1
MLEADERSTYLE
  2
AcDbMLeaderStyle
  3
ACDB_MLEADERSTYLE_CLASS
 90
     4095
280
     0
281
     0
  0
CLASS
  1
RASTERVARIABLES
  2
AcDbRasterVariables
  3
ISM
 90
        0
280
     0
281
     0
  0
ENDSEC
  0
SECTION
  2
TABLES
  0
TABLE
  2
VPORT
  5
8
330
0
100
AcDbSymbolTable
 70
     1
  0
VPORT
  5
29
330
8
100
AcDbSymbolTableRecord
100
AcDbViewportTableRecord
  2
*Active
 70
     0
 10
0.0
 20
0.0
 11
1.0
 21
1.0
 12
-5.051003689454319
 22
-14.81165998582395
 13
0.0
 23
0.0
 14
10.0
 24
10.0
 15
10.0
 25
10.0
 16
0.0
 26
0.0
 36
1.0
 17
0.0
 27
0.0
 37
0.0
 40
193.0547518681482
 41
1.632093933463796
 42
50.0
 43
0.0
 44
0.0
 50
0.0
 51
0.0
 71
    16
 72
  2000
 73
     1
 74
     3
 75
     0
 76
     0
 77
     0
 78
     0
281
     0
 65
     1
110
0.0
120
0.0
130
0.0
111
1.0
121
0.0
131
0.0
112
0.0
122
1.0
132
0.0
 79
     0
146
0.0
  0
ENDTAB
  0
TABLE
  2
LTYPE
  5
5
330
0
100
AcDbSymbolTable
 70
     6
  0
LTYPE
  5
14
330
5
100
AcDbSymbolTableRecord
100
AcDbLinetypeTableRecord
  2
ByBlock
 70
     0
  3

 72
    65
 73
     0
 40
0.0
  0
LTYPE
  5
15
330
5
100
AcDbSymbolTableRecord
100
AcDbLinetypeTableRecord
  2
ByLayer
 70
     0
  3

 72
    65
 73
     0
 40
0.0
  0
LTYPE
  5
16
330
5
100
AcDbSymbolTableRecord
100
AcDbLinetypeTableRecord
  2
Continuous
 70
     0
  3
Solid line
 72
    65
 73
     0
 40
0.0
  0
LTYPE
  5
6A
330
5
100
AcDbSymbolTableRecord
100
AcDbLinetypeTableRecord
  2
HIDDEN
 70
     0
  3
Hidden __ __ __ __ __ __ __ __ __ __ __ __ __ __
 72
    65
 73
     2
 40
1.905
 49
1.27
 74
     0
 49
-0.635
 74
     0
  0
LTYPE
  5
6B
330
5
100
AcDbSymbolTableRecord
100
AcDbLinetypeTableRecord
  2
PHANTOM
 70
     0
  3
Phantom ______  __  __  ______  __  __  ______
 72
    65
 73
     6
 40
12.7
 49
6.35
 74
     0
 49
-1.27
 74
     0
 49
1.27
 74
     0
 49
-1.27
 74
     0
 49
1.27
 74
     0
 49
-1.27
 74
     0
  0
LTYPE
  5
6C
330
5
100
AcDbSymbolTableRecord
100
AcDbLinetypeTableRecord
  2
CENTER
 70
     0
  3
Center ____ _ ____ _ ____ _ ____ _ ____ _ ____
 72
    65
 73
     4
 40
10.16
 49
6.35
 74
     0
 49
-1.27
 74
     0
 49
1.27
 74
     0
 49
-1.27
 74
     0
  0
LTYPE
  5
6D
330
5
100
AcDbSymbolTableRecord
100
AcDbLinetypeTableRecord
  2
CENTERX2
 70
     0
  3
Center (2x) ________  __  ________  __  _____
 72
    65
 73
     4
 40
20.32
 49
12.7
 74
     0
 49
-2.54
 74
     0
 49
2.54
 74
     0
 49
-2.54
 74
     0
  0
LTYPE
  5
6E
330
5
100
AcDbSymbolTableRecord
100
AcDbLinetypeTableRecord
  2
DOT2
 70
     0
  3
Dot (.5x) ........................................
 72
    65
 73
     2
 40
0.635
 49
0.0
 74
     0
 49
-0.635
 74
     0
  0
ENDTAB
  0
TABLE
  2
LAYER
  5
2
102
{ACAD_XDICTIONARY
360
222
102
}
330
0
100
AcDbSymbolTable
 70
    18
  0
LAYER
  5
10
330
2
100
AcDbSymbolTableRecord
100
AcDbLayerTableRecord
  2
0
 70
     0
 62
     7
  6
Continuous
370
    -3
390
F
  0
LAYER
  5
6F
330
2
100
AcDbSymbolTableRecord
100
AcDbLayerTableRecord
  2
FORMAT
 70
     0
 62
     2
  6
Continuous
370
    -3
390
F
  0
LAYER
  5
70
330
2
100
AcDbSymbolTableRecord
100
AcDbLayerTableRecord
  2
외형선
 70
     0
 62
     4
  6
Continuous
370
    30
390
F
  0
LAYER
  5
71
330
2
100
AcDbSymbolTableRecord
100
AcDbLayerTableRecord
  2
숨은선
 70
     0
 62
     2
  6
HIDDEN
370
    15
390
F
  0
LAYER
  5
72
330
2
100
AcDbSymbolTableRecord
100
AcDbLayerTableRecord
  2
중심선
 70
     0
 62
     1
  6
CENTERX2
370
    -3
390
F
  0
LAYER
  5
73
330
2
100
AcDbSymbolTableRecord
100
AcDbLayerTableRecord
  2
파단선
 70
     0
 62
     4
  6
Continuous
370
    -3
390
F
  0
LAYER
  5
74
330
2
100
AcDbSymbolTableRecord
100
AcDbLayerTableRecord
  2
해칭선
 70
     0
 62
   100
  6
Continuous
370
    -3
390
F
  0
LAYER
  5
75
330
2
100
AcDbSymbolTableRecord
100
AcDbLayerTableRecord
  2
가는실선
 70
     0
 62
     4
  6
Continuous
370
    -3
390
F
  0
LAYER
  5
76
330
2
100
AcDbSymbolTableRecord
100
AcDbLayerTableRecord
  2
치수_보조선
 70
     0
 62
     4
  6
Continuous
370
    -3
390
F
  0
LAYER
  5
77
330
2
100
AcDbSymbolTableRecord
100
AcDbLayerTableRecord
  2
치수문자_일반주서
 70
     0
 62
     7
  6
Continuous
370
    15
390
F
  0
LAYER
  5
78
330
2
100
AcDbSymbolTableRecord
100
AcDbLayerTableRecord
  2
개별주서
 70
     0
 62
   100
  6
Continuous
370
    30
390
F
  0
LAYER
  5
79
330
2
100
AcDbSymbolTableRecord
100
AcDbLayerTableRecord
  2
중간선
 70
     0
 62
     2
  6
Continuous
370
    15
390
F
  0
LAYER
  5
7A
330
2
100
AcDbSymbolTableRecord
100
AcDbLayerTableRecord
  2
윤곽선
 70
     0
 62
     3
  6
Continuous
370
    40
390
F
  0
LAYER
  5
7B
330
2
100
AcDbSymbolTableRecord
100
AcDbLayerTableRecord
  2
중심마크
 70
     0
 62
   100
  6
Continuous
370
    30
390
F
  0
LAYER
  5
7C
330
2
100
AcDbSymbolTableRecord
100
AcDbLayerTableRecord
  2
가상선
 70
     0
 62
     4
  6
PHANTOM
370
    -3
390
F
  0
LAYER
  5
7D
330
2
100
AcDbSymbolTableRecord
100
AcDbLayerTableRecord
  2
특수지정선
 70
     0
 62
     5
  6
CENTERX2
370
    60
390
F
  0
LAYER
  5
7E
330
2
100
AcDbSymbolTableRecord
100
AcDbLayerTableRecord
  2
참조1
 70
     0
 62
    -4
  6
Continuous
370
    -3
390
F
  0
LAYER
  5
155
330
2
100
AcDbSymbolTableRecord
100
AcDbLayerTableRecord
  2
Defpoints
 70
     0
 62
     7
  6
Continuous
290
     0
370
    -3
390
F
  0
ENDTAB
  0
TABLE
  2
STYLE
  5
3
330
0
100
AcDbSymbolTable
 70
     2
  0
STYLE
  5
11
330
3
100
AcDbSymbolTableRecord
100
AcDbTextStyleTableRecord
  2
Standard
 70
     0
 40
0.0
 41
1.0
 50
0.0
 71
     0
 42
3.5
  3
txt
  4

  0
STYLE
  5
94
330
3
100
AcDbSymbolTableRecord
100
AcDbTextStyleTableRecord
  2
SLDTEXTSTYLE0
 70
     0
 40
0.0
 41
0.75
 50
0.0
 71
     0
 42
3.5
  3
TXT
  4

  0
ENDTAB
  0
TABLE
  2
VIEW
  5
6
330
0
100
AcDbSymbolTable
 70
     0
  0
ENDTAB
  0
TABLE
  2
UCS
  5
7
330
0
100
AcDbSymbolTable
 70
     0
  0
ENDTAB
  0
TABLE
  2
APPID
  5
9
330
0
100
AcDbSymbolTable
 70
     1
  0
APPID
  5
12
330
9
100
AcDbSymbolTableRecord
100
AcDbRegAppTableRecord
  2
ACAD
 70
     0
  0
ENDTAB
  0
TABLE
  2
DIMSTYLE
  5
A
330
0
100
AcDbSymbolTable
 70
     3
100
AcDbDimStyleTable
  0
DIMSTYLE
105
27
330
A
100
AcDbSymbolTableRecord
100
AcDbDimStyleTableRecord
  2
ISO-25
 70
     0
 41
2.5
 42
0.625
 43
3.75
 44
1.25
 73
     0
 74
     0
 77
     1
 78
     8
140
2.5
141
2.5
143
0.03937007874016
147
0.625
171
     3
172
     1
178
     0
271
     2
272
     2
274
     3
278
    44
283
     0
284
     8
340
11
  0
DIMSTYLE
105
D9
102
{ACAD_REACTORS
330
D8
330
112
330
1DE
330
1EB
330
1F8
330
205
330
EB
330
FF
102
}
330
A
100
AcDbSymbolTableRecord
100
AcDbDimStyleTableRecord
  2
SLDDIMSTYLE0
 70
     0
 41
3.302
 44
0.0
 45
0.000000001
 73
     0
 74
     0
 77
     1
 78
    12
 79
     3
140
3.5
143
0.0393700787401575
147
0.875
148
0.000000001
170
     1
173
     1
178
     0
271
     2
272
     2
276
     2
284
    12
340
94
  0
DIMSTYLE
105
EC
330
A
100
AcDbSymbolTableRecord
100
AcDbDimStyleTableRecord
  2
SLDDIMSTYLE1
 70
     0
 41
3.302
 44
0.0
 45
0.000000001
 73
     0
 74
     0
 77
     1
 78
     4
 79
     1
140
3.5
143
0.0393700787401575
147
0.875
148
0.000000001
170
     1
173
     1
178
     0
271
     2
272
     2
276
     2
284
    12
340
94
  0
ENDTAB
  0
TABLE
  2
BLOCK_RECORD
  5
1
330
0
100
AcDbSymbolTable
 70
    17
  0
BLOCK_RECORD
  5
1F
330
1
100
AcDbSymbolTableRecord
100
AcDbBlockTableRecord
  2
*Model_Space
340
22
  0
BLOCK_RECORD
  5
1B
330
1
100
AcDbSymbolTableRecord
100
AcDbBlockTableRecord
  2
*Paper_Space
340
1E
  0
BLOCK_RECORD
  5
23
330
1
100
AcDbSymbolTableRecord
100
AcDbBlockTableRecord
  2
*Paper_Space0
340
26
  0
BLOCK_RECORD
  5
7F
330
1
100
AcDbSymbolTableRecord
100
AcDbBlockTableRecord
  2
블럭10
340
0
102
{BLKREFS
331
D1
102
}
  0
BLOCK_RECORD
  5
DA
330
1
100
AcDbSymbolTableRecord
100
AcDbBlockTableRecord
  2
_D
340
0
  0
BLOCK_RECORD
  5
ED
330
1
100
AcDbSymbolTableRecord
100
AcDbBlockTableRecord
  2
_D_1
340
0
  0
BLOCK_RECORD
  5
100
330
1
100
AcDbSymbolTableRecord
100
AcDbBlockTableRecord
  2
_D_2
340
0
  0
BLOCK_RECORD
  5
113
330
1
100
AcDbSymbolTableRecord
100
AcDbBlockTableRecord
  2
_D_3
340
0
  0
BLOCK_RECORD
  5
12C
330
1
100
AcDbSymbolTableRecord
100
AcDbBlockTableRecord
  2
SW_DOWELSYMBOL_0
340
0
102
{BLKREFS
331
132
331
215
331
0
102
}
  0
BLOCK_RECORD
  5
226
330
1
100
AcDbSymbolTableRecord
100
AcDbBlockTableRecord
  2
*D8
340
0
  0
BLOCK_RECORD
  5
232
330
1
100
AcDbSymbolTableRecord
100
AcDbBlockTableRecord
  2
*D9
340
0
  0
BLOCK_RECORD
  5
23E
330
1
100
AcDbSymbolTableRecord
100
AcDbBlockTableRecord
  2
*D10
340
0
  0
BLOCK_RECORD
  5
24A
330
1
100
AcDbSymbolTableRecord
100
AcDbBlockTableRecord
  2
*D11
340
0
  0
BLOCK_RECORD
  5
29E
330
1
100
AcDbSymbolTableRecord
100
AcDbBlockTableRecord
  2
*D12
340
0
  0
BLOCK_RECORD
  5
2AA
330
1
100
AcDbSymbolTableRecord
100
AcDbBlockTableRecord
  2
*D13
340
0
  0
BLOCK_RECORD
  5
2B6
330
1
100
AcDbSymbolTableRecord
100
AcDbBlockTableRecord
  2
*D14
340
0
  0
BLOCK_RECORD
  5
2C2
330
1
100
AcDbSymbolTableRecord
100
AcDbBlockTableRecord
  2
*D15
340
0
  0
ENDTAB
  0
ENDSEC
  0
SECTION
  2
BLOCKS
  0
BLOCK
  5
20
330
1F
100
AcDbEntity
  8
0
100
AcDbBlockBegin
  2
*Model_Space
 70
     0
 10
0.0
 20
0.0
 30
0.0
  3
*Model_Space
  1
*Model_Space
  0
ENDBLK
  5
21
330
1F
100
AcDbEntity
  8
0
100
AcDbBlockEnd
  0
BLOCK
  5
1C
330
1B
100
AcDbEntity
 67
     1
  8
0
100
AcDbBlockBegin
  2
*Paper_Space
 70
     0
 10
0.0
 20
0.0
 30
0.0
  3
*Paper_Space
  1
*Paper_Space
  0
ENDBLK
  5
1D
330
1B
100
AcDbEntity
 67
     1
  8
0
100
AcDbBlockEnd
  0
BLOCK
  5
24
330
23
100
AcDbEntity
  8
0
100
AcDbBlockBegin
  2
*Paper_Space0
 70
     0
 10
0.0
 20
0.0
 30
0.0
  3
*Paper_Space0
  1
*Paper_Space0
  0
ENDBLK
  5
25
330
23
100
AcDbEntity
  8
0
100
AcDbBlockEnd
  0
BLOCK
  5
80
330
7F
100
AcDbEntity
  8
0
100
AcDbBlockBegin
  2
블럭10
 70
     2
 10
0.0
 20
0.0
 30
0.0
  3
블럭10
  1
블럭10
  0
ELLIPSE
  5
82
330
7F
100
AcDbEntity
  8
중심선
100
AcDbEllipse
 10
20.54032771741204
 20
12.0471743016438
 30
0.0
 11
6.600054785286829
 21
-1.261213355974178E-13
 31
0.0
210
0.0
220
0.0
230
1.0
 40
0.636358354079598
 41
0.9219305317359503
 42
6.513795318482858
  0
ELLIPSE
  5
83
330
7F
100
AcDbEntity
  8
중심선
100
AcDbEllipse
 10
20.54032771746488
 20
12.04717430159265
 30
0.0
 11
3.960054785062283
 21
1.540847449632565E-10
 31
0.0
210
0.0
220
0.0
230
1.0
 40
0.3939339440162632
 41
1.131841032648279
 42
5.62031148352944
  0
LINE
  5
84
330
7F
100
AcDbEntity
  8
중심선
100
AcDbLine
 10
2.268634060543552
 20
16.24717430164393
 30
0.0
 11
5.714909304380834
 21
16.24717430164393
 31
0.0
  0
LINE
  5
85
330
7F
100
AcDbEntity
  8
중심선
100
AcDbLine
 10
5.245725140726316
 20
7.84717430164391
 30
0.0
 11
8.692000384563599
 21
7.84717430164391
 31
0.0
  0
LINE
  5
86
330
7F
100
AcDbEntity
  8
중심선
100
AcDbLine
 10
15.74043728645272
 20
16.24717430164393
 30
0.0
 11
8.692000384563599
 21
7.84717430164391
 31
0.0
  0
LINE
  5
87
330
7F
100
AcDbEntity
  8
중심선
100
AcDbLine
 10
0.1404042013395286
 20
13.71084872107135
 30
0.0
 11
3.58671253028996
 21
13.71088815037384
 31
0.0
  0
LINE
  5
88
330
7F
100
AcDbEntity
  8
중심선
100
AcDbLine
 10
2.750260043222114
 20
10.84717430164391
 30
0.0
 11
6.196535287059397
 21
10.84717430164391
 31
0.0
  0
LINE
  5
89
330
7F
100
AcDbEntity
  8
중심선
100
AcDbLine
 10
12.29416204261559
 20
16.24717430164393
 30
0.0
 11
5.245725140726316
 21
7.84717430164391
 31
0.0
  0
LINE
  5
8A
330
7F
100
AcDbEntity
  8
중심선
100
AcDbLine
 10
10.72767329541681
 20
16.24717430164393
 30
0.0
 11
6.196535287059397
 21
10.84717430164391
 31
0.0
  0
LINE
  5
8B
330
7F
100
AcDbEntity
  8
중심선
100
AcDbLine
 10
7.28139805157953
 20
16.24717430164393
 30
0.0
 11
2.750260043222114
 21
10.84717430164391
 31
0.0
  0
LINE
  5
8C
330
7F
100
AcDbEntity
  8
중심선
100
AcDbLine
 10
5.714909304380834
 20
16.24717430164393
 30
0.0
 11
3.58671253028996
 21
13.71088815037384
 31
0.0
  0
LINE
  5
8D
330
7F
100
AcDbEntity
  8
중심선
100
AcDbLine
 10
2.268634060543552
 20
16.24717430164393
 30
0.0
 11
0.1404042013395286
 21
13.71084872107135
 31
0.0
  0
LINE
  5
8E
330
7F
100
AcDbEntity
  8
중심선
100
AcDbLine
 10
7.28139805157953
 20
16.24717430164393
 30
0.0
 11
10.72767329541681
 21
16.24717430164393
 31
0.0
  0
LINE
  5
8F
330
7F
100
AcDbEntity
  8
중심선
100
AcDbLine
 10
12.29416204261559
 20
16.24717430164393
 30
0.0
 11
15.74043728645272
 21
16.24717430164393
 31
0.0
  0
LINE
  5
90
330
7F
100
AcDbEntity
  8
중심선
100
AcDbLine
 10
19.22036997980202
 20
11.08717430171403
 30
0.0
 11
23.66174974927406
 21
11.08717430171406
 31
0.0
  0
LINE
  5
91
330
7F
100
AcDbEntity
  8
중심선
100
AcDbLine
 10
19.22039502424796
 20
13.00717430171391
 30
0.0
 11
19.22036997980202
 21
11.08717430171403
 31
0.0
  0
LINE
  5
92
330
7F
100
AcDbEntity
  8
중심선
100
AcDbLine
 10
19.22039502424796
 20
13.00717430171391
 30
0.0
 11
26.96566020931264
 21
13.00717430171391
 31
0.0
  0
LINE
  5
93
330
7F
100
AcDbEntity
  8
중심선
100
AcDbLine
 10
22.22332737316547
 20
13.45928029700563
 30
0.0
 11
24.52862924686651
 21
15.39360700705356
 31
0.0
  0
ATTDEF
  5
95
330
7F
100
AcDbEntity
  8
FORMAT
 62
     2
100
AcDbText
 10
4.408487351596664
 20
2.075366912832191
 30
0.0
 40
4.233333333333333
  1
E2032116
 41
0.75
  7
SLDTEXTSTYLE0
 11
4.408487351596664
 21
-0.0412997538344756
 31
0.0
100
AcDbAttributeDefinition
  3

  2
AUTOATTR0
 70
     0
 74
     1
  0
ENDBLK
  5
81
330
7F
100
AcDbEntity
  8
0
100
AcDbBlockEnd
  0
BLOCK
  5
DB
330
DA
100
AcDbEntity
  8
0
100
AcDbBlockBegin
  2
_D
 70
     0
 10
0.0
 20
0.0
 30
0.0
  3
_D
  1
_D
  0
LINE
  5
DD
330
DA
100
AcDbEntity
  8
치수문자_일반주서
 62
     0
370
    -2
100
AcDbLine
 10
-48.38749999999996
 20
15.87607492872389
 30
0.0
 11
-62.91250000000004
 21
15.87607492872384
 31
0.0
  0
LINE
  5
DE
330
DA
100
AcDbEntity
  8
치수문자_일반주서
 62
     0
370
    -2
100
AcDbLine
 10
-48.38749999999996
 20
-15.87392507127611
 30
0.0
 11
-62.91249999999992
 21
-15.87392507127616
 31
0.0
  0
LINE
  5
DF
330
DA
100
AcDbEntity
  8
치수문자_일반주서
 62
     0
370
    -2
100
AcDbLine
 10
-62.91250000000002
 20
12.57407492872384
 30
0.0
 11
-62.91249999999994
 21
-12.57192507127616
 31
0.0
  0
SOLID
  5
E0
330
DA
100
AcDbEntity
  8
치수문자_일반주서
 62
     0
100
AcDbTrace
 10
-62.36216666666669
 20
12.57407492872384
 30
0.0
 11
-63.46283333333336
 21
12.57407492872384
 31
0.0
 12
-62.91250000000004
 22
15.87607492872384
 32
0.0
 13
-62.91250000000004
 23
15.87607492872384
 33
0.0
  0
SOLID
  5
E1
330
DA
100
AcDbEntity
  8
치수문자_일반주서
 62
     0
100
AcDbTrace
 10
-63.46283333333327
 20
-12.57192507127616
 30
0.0
 11
-62.3621666666666
 21
-12.57192507127616
 31
0.0
 12
-62.91249999999992
 22
-15.87392507127616
 32
0.0
 13
-62.91249999999992
 23
-15.87392507127616
 33
0.0
  0
MTEXT
  5
E2
330
DA
100
AcDbEntity
  8
치수문자_일반주서
 62
     0
100
AcDbMText
 10
-67.28749999999998
 20
0.0010749287238715
 30
0.0
 40
3.5
 41
0.0
 71
     2
 72
     1
  1
\A1;%%c31.75 [1 1/4]
  7
SLDTEXTSTYLE0
 11
-3.580687802255623E-15
 21
1.0
 31
0.0
 73
     1
 44
1.0
  0
POINT
  5
E3
330
DA
100
AcDbEntity
  8
Defpoints
 62
     0
100
AcDbPoint
 10
-48.32499999999996
 20
15.87607492872389
 30
0.0
  0
POINT
  5
E4
330
DA
100
AcDbEntity
  8
Defpoints
 62
     0
100
AcDbPoint
 10
-48.32499999999996
 20
-15.87392507127611
 30
0.0
  0
POINT
  5
E5
330
DA
100
AcDbEntity
  8
Defpoints
 62
     0
100
AcDbPoint
 10
-62.91249999999992
 20
-15.87392507127617
 30
0.0
  0
ENDBLK
  5
DC
330
DA
100
AcDbEntity
  8
0
100
AcDbBlockEnd
  0
BLOCK
  5
EE
330
ED
100
AcDbEntity
  8
0
100
AcDbBlockBegin
  2
_D_1
 70
     0
 10
0.0
 20
0.0
 30
0.0
  3
_D_1
  1
_D_1
  0
LINE
  5
F0
330
ED
100
AcDbEntity
  8
치수문자_일반주서
 62
     0
370
    -2
100
AcDbLine
 10
62.80000000000001
 20
15.9385749287239
 30
0.0
 11
62.80000000000001
 21
38.30021446492104
 31
0.0
  0
LINE
  5
F1
330
ED
100
AcDbEntity
  8
치수문자_일반주서
 62
     0
370
    -2
100
AcDbLine
 10
12.00000000000005
 20
15.90764480566851
 30
0.0
 11
12.00000000000005
 21
38.30021446492104
 31
0.0
  0
LINE
  5
F2
330
ED
100
AcDbEntity
  8
치수문자_일반주서
 62
     0
370
    -2
100
AcDbLine
 10
59.49800000000001
 20
38.30021446492104
 30
0.0
 11
15.30200000000005
 21
38.30021446492104
 31
0.0
  0
SOLID
  5
F3
330
ED
100
AcDbEntity
  8
치수문자_일반주서
 62
     0
100
AcDbTrace
 10
59.49800000000001
 20
37.74988113158771
 30
0.0
 11
59.49800000000001
 21
38.85054779825438
 31
0.0
 12
62.80000000000001
 22
38.30021446492104
 32
0.0
 13
62.80000000000001
 23
38.30021446492104
 33
0.0
  0
SOLID
  5
F4
330
ED
100
AcDbEntity
  8
치수문자_일반주서
 62
     0
100
AcDbTrace
 10
15.30200000000005
 20
38.85054779825438
 30
0.0
 11
15.30200000000005
 21
37.74988113158771
 31
0.0
 12
12.00000000000005
 22
38.30021446492104
 32
0.0
 13
12.00000000000005
 23
38.30021446492104
 33
0.0
  0
MTEXT
  5
F5
330
ED
100
AcDbEntity
  8
치수문자_일반주서
 62
     0
100
AcDbMText
 10
37.40000000000002
 20
42.67521446492104
 30
0.0
 40
3.5
 41
0.0
 71
     2
 72
     1
  1
\A1;50.8 [2]
  7
SLDTEXTSTYLE0
 73
     1
 44
1.0
  0
POINT
  5
F6
330
ED
100
AcDbEntity
  8
Defpoints
 62
     0
100
AcDbPoint
 10
62.80000000000001
 20
15.8760749287239
 30
0.0
  0
POINT
  5
F7
330
ED
100
AcDbEntity
  8
Defpoints
 62
     0
100
AcDbPoint
 10
12.00000000000005
 20
15.84514480566851
 30
0.0
  0
POINT
  5
F8
330
ED
100
AcDbEntity
  8
Defpoints
 62
     0
100
AcDbPoint
 10
12.00000000000005
 20
38.30021446492104
 30
0.0
  0
ENDBLK
  5
EF
330
ED
100
AcDbEntity
  8
0
100
AcDbBlockEnd
  0
BLOCK
  5
101
330
100
100
AcDbEntity
  8
0
100
AcDbBlockBegin
  2
_D_2
 70
     0
 10
0.0
 20
0.0
 30
0.0
  3
_D_2
  1
_D_2
  0
LINE
  5
103
330
100
100
AcDbEntity
  8
치수문자_일반주서
 62
     0
370
    -2
100
AcDbLine
 10
62.80000000000001
 20
15.9385749287239
 30
0.0
 11
62.80000000000001
 21
50.30021446492103
 31
0.0
  0
LINE
  5
104
330
100
100
AcDbEntity
  8
치수문자_일반주서
 62
     0
370
    -2
100
AcDbLine
 10
-51.49999999999999
 20
12.76357492872391
 30
0.0
 11
-51.49999999999999
 21
50.30021446492103
 31
0.0
  0
LINE
  5
105
330
100
100
AcDbEntity
  8
치수문자_일반주서
 62
     0
370
    -2
100
AcDbLine
 10
59.49800000000001
 20
50.30021446492103
 30
0.0
 11
-48.19799999999999
 21
50.30021446492103
 31
0.0
  0
SOLID
  5
106
330
100
100
AcDbEntity
  8
치수문자_일반주서
 62
     0
100
AcDbTrace
 10
59.49800000000001
 20
49.74988113158769
 30
0.0
 11
59.49800000000001
 21
50.85054779825436
 31
0.0
 12
62.80000000000001
 22
50.30021446492103
 32
0.0
 13
62.80000000000001
 23
50.30021446492103
 33
0.0
  0
SOLID
  5
107
330
100
100
AcDbEntity
  8
치수문자_일반주서
 62
     0
100
AcDbTrace
 10
-48.19799999999999
 20
50.85054779825436
 30
0.0
 11
-48.19799999999999
 21
49.74988113158769
 31
0.0
 12
-51.49999999999999
 22
50.30021446492103
 32
0.0
 13
-51.49999999999999
 23
50.30021446492103
 33
0.0
  0
MTEXT
  5
108
330
100
100
AcDbEntity
  8
치수문자_일반주서
 62
     0
100
AcDbMText
 10
5.650000000000013
 20
54.67521446492103
 30
0.0
 40
3.5
 41
0.0
 71
     2
 72
     1
  1
\A1;114.3 [4 1/2]
  7
SLDTEXTSTYLE0
 73
     1
 44
1.0
  0
POINT
  5
109
330
100
100
AcDbEntity
  8
Defpoints
 62
     0
100
AcDbPoint
 10
62.80000000000001
 20
15.8760749287239
 30
0.0
  0
POINT
  5
10A
330
100
100
AcDbEntity
  8
Defpoints
 62
     0
100
AcDbPoint
 10
-51.49999999999999
 20
12.70107492872391
 30
0.0
  0
POINT
  5
10B
330
100
100
AcDbEntity
  8
Defpoints
 62
     0
100
AcDbPoint
 10
-51.49999999999999
 20
50.30021446492103
 30
0.0
  0
ENDBLK
  5
102
330
100
100
AcDbEntity
  8
0
100
AcDbBlockEnd
  0
BLOCK
  5
114
330
113
100
AcDbEntity
  8
0
100
AcDbBlockBegin
  2
_D_3
 70
     0
 10
0.0
 20
0.0
 30
0.0
  3
_D_3
  1
_D_3
  0
LINE
  5
116
330
113
100
AcDbEntity
  8
치수문자_일반주서
 62
     0
370
    -2
100
AcDbLine
 10
62.86250000000001
 20
15.8760749287239
 30
0.0
 11
80.8495425908268
 21
15.87607492872397
 31
0.0
  0
LINE
  5
117
330
113
100
AcDbEntity
  8
치수문자_일반주서
 62
     0
370
    -2
100
AcDbLine
 10
62.86250000000001
 20
-15.87392507127611
 30
0.0
 11
80.84954259082691
 21
-15.87392507127604
 31
0.0
  0
LINE
  5
118
330
113
100
AcDbEntity
  8
치수문자_일반주서
 62
     0
370
    -2
100
AcDbLine
 10
80.84954259082681
 20
12.57407492872397
 30
0.0
 11
80.8495425908269
 21
-12.57192507127604
 31
0.0
  0
SOLID
  5
119
330
113
100
AcDbEntity
  8
치수문자_일반주서
 62
     0
100
AcDbTrace
 10
81.39987592416014
 20
12.57407492872397
 30
0.0
 11
80.29920925749349
 21
12.57407492872397
 31
0.0
 12
80.8495425908268
 22
15.87607492872397
 32
0.0
 13
80.8495425908268
 23
15.87607492872397
 33
0.0
  0
SOLID
  5
11A
330
113
100
AcDbEntity
  8
치수문자_일반주서
 62
     0
100
AcDbTrace
 10
80.29920925749357
 20
-12.57192507127604
 30
0.0
 11
81.39987592416023
 21
-12.57192507127604
 31
0.0
 12
80.84954259082691
 22
-15.87392507127604
 32
0.0
 13
80.84954259082691
 23
-15.87392507127604
 33
0.0
  0
MTEXT
  5
11B
330
113
100
AcDbEntity
  8
치수문자_일반주서
 62
     0
100
AcDbMText
 10
76.47454259082686
 20
-0.1998901199157514
 30
0.0
 40
3.5
 41
0.0
 71
     2
 72
     1
  1
\A1;%%c31.75 [1 1/4]
  7
SLDTEXTSTYLE0
 11
-3.580687802255622E-15
 21
1.0
 31
0.0
 73
     1
 44
1.0
  0
POINT
  5
11C
330
113
100
AcDbEntity
  8
Defpoints
 62
     0
100
AcDbPoint
 10
62.80000000000001
 20
15.8760749287239
 30
0.0
  0
POINT
  5
11D
330
113
100
AcDbEntity
  8
Defpoints
 62
     0
100
AcDbPoint
 10
62.80000000000001
 20
-15.87392507127611
 30
0.0
  0
POINT
  5
11E
330
113
100
AcDbEntity
  8
Defpoints
 62
     0
100
AcDbPoint
 10
80.84954259082691
 20
-15.87392507127604
 30
0.0
  0
ENDBLK
  5
115
330
113
100
AcDbEntity
  8
0
100
AcDbBlockEnd
  0
BLOCK
  5
12D
330
12C
100
AcDbEntity
  8
0
100
AcDbBlockBegin
  2
SW_DOWELSYMBOL_0
 70
     0
 10
0.0
 20
0.0
 30
0.0
  3
SW_DOWELSYMBOL_0
  1
SW_DOWELSYMBOL_0
  0
CIRCLE
  5
12F
330
12C
100
AcDbEntity
  8
해칭선
 62
     0
100
AcDbCircle
 10
0.0
 20
0.0
 30
0.0
 40
3.000000000000001
  0
HATCH
  5
130
330
12C
100
AcDbEntity
  8
0
  6
Continuous
 62
     0
370
     0
100
AcDbHatch
 10
0.0
 20
0.0
 30
0.0
210
0.0
220
0.0
230
1.0
  2
SOLID
 70
     1
 71
     0
 91
        1
 92
        0
 93
        3
 72
     2
 10
0.0
 20
0.0
 40
3.000000000000001
 50
0.0
 51
90.0
 73
     1
 72
     1
 10
0.0
 20
3.000000000000001
 11
0.0
 21
0.0
 72
     1
 10
0.0
 20
0.0
 11
3.000000000000001
 21
0.0
 97
        0
 75
     0
 76
     1
 98
        1
 10
0.0
 20
0.0
  0
HATCH
  5
131
330
12C
100
AcDbEntity
  8
0
  6
Continuous
 62
     0
370
     0
100
AcDbHatch
 10
0.0
 20
0.0
 30
0.0
210
0.0
220
0.0
230
1.0
  2
SOLID
 70
     1
 71
     0
 91
        1
 92
        0
 93
        3
 72
     2
 10
0.0
 20
0.0
 40
3.000000000000001
 50
180.0
 51
270.0000000000007
 73
     1
 72
     1
 10
0.0
 20
-3.000000000000001
 11
0.0
 21
0.0
 72
     1
 10
0.0
 20
0.0
 11
-3.000000000000001
 21
0.0
 97
        0
 75
     0
 76
     1
 98
        1
 10
0.0
 20
0.0
  0
ENDBLK
  5
12E
330
12C
100
AcDbEntity
  8
0
100
AcDbBlockEnd
  0
BLOCK
  5
227
330
226
100
AcDbEntity
  8
0
100
AcDbBlockBegin
  2
*D8
 70
     1
 10
0.0
 20
0.0
 30
0.0
  3
*D8
  1
*D8
  0
LINE
  5
229
330
226
100
AcDbEntity
  8
치수문자_일반주서
 62
     0
370
    -2
100
AcDbLine
 10
18.90000000000003
 20
32.00399999999992
 30
0.0
 11
4.374999999999984
 21
32.00399999999986
 31
0.0
  0
LINE
  5
22A
330
226
100
AcDbEntity
  8
치수문자_일반주서
 62
     0
370
    -2
100
AcDbLine
 10
18.90000000000003
 20
6.603999999999953
 30
0.0
 11
4.375000000000073
 21
6.603999999999896
 31
0.0
  0
LINE
  5
22B
330
226
100
AcDbEntity
  8
치수문자_일반주서
 62
     0
370
    -2
100
AcDbLine
 10
4.374999999999996
 20
28.70199999999986
 30
0.0
 11
4.375000000000061
 21
9.905999999999896
 31
0.0
  0
SOLID
  5
22C
330
226
100
AcDbEntity
  8
치수문자_일반주서
 62
     0
100
AcDbTrace
 10
4.925333333333329
 20
28.70199999999987
 30
0.0
 11
3.824666666666662
 21
28.70199999999986
 31
0.0
 12
4.374999999999984
 22
32.00399999999986
 32
0.0
 13
4.374999999999984
 23
32.00399999999986
 33
0.0
  0
SOLID
  5
22D
330
226
100
AcDbEntity
  8
치수문자_일반주서
 62
     0
100
AcDbTrace
 10
3.824666666666728
 20
9.905999999999894
 30
0.0
 11
4.925333333333395
 21
9.905999999999898
 31
0.0
 12
4.375000000000073
 22
6.603999999999896
 32
0.0
 13
4.375000000000073
 23
6.603999999999896
 33
0.0
  0
MTEXT
  5
22E
330
226
100
AcDbEntity
  8
치수문자_일반주서
 62
     0
100
AcDbMText
 10
0.0000000000000284
 20
19.30399999999991
 30
0.0
 40
3.5
 41
0.0
 71
     2
 72
     1
  1
\A1;%%c25.4 [1]
  7
SLDTEXTSTYLE0
 11
-3.496765431890262E-15
 21
1.0
 31
0.0
 73
     1
 44
1.0
  0
POINT
  5
22F
330
226
100
AcDbEntity
  8
Defpoints
 62
     0
100
AcDbPoint
 10
18.96250000000003
 20
32.00399999999992
 30
0.0
  0
POINT
  5
230
330
226
100
AcDbEntity
  8
Defpoints
 62
     0
100
AcDbPoint
 10
18.96250000000003
 20
6.603999999999953
 30
0.0
  0
POINT
  5
231
330
226
100
AcDbEntity
  8
Defpoints
 62
     0
100
AcDbPoint
 10
4.375000000000071
 20
6.603999999999899
 30
0.0
  0
ENDBLK
  5
228
330
226
100
AcDbEntity
  8
0
100
AcDbBlockEnd
  0
BLOCK
  5
233
330
232
100
AcDbEntity
  8
0
100
AcDbBlockBegin
  2
*D9
 70
     1
 10
0.0
 20
0.0
 30
0.0
  3
*D9
  1
*D9
  0
LINE
  5
235
330
232
100
AcDbEntity
  8
치수문자_일반주서
 62
     0
370
    -2
100
AcDbLine
 10
130.7225
 20
32.06649999999994
 30
0.0
 11
130.7225
 21
54.45130893707578
 31
0.0
  0
LINE
  5
236
330
232
100
AcDbEntity
  8
치수문자_일반주서
 62
     0
370
    -2
100
AcDbLine
 10
79.92250000000001
 20
32.0372614099245
 30
0.0
 11
79.92250000000001
 21
54.45130893707578
 31
0.0
  0
LINE
  5
237
330
232
100
AcDbEntity
  8
치수문자_일반주서
 62
     0
370
    -2
100
AcDbLine
 10
127.4205
 20
54.45130893707578
 30
0.0
 11
83.22450000000002
 21
54.45130893707578
 31
0.0
  0
SOLID
  5
238
330
232
100
AcDbEntity
  8
치수문자_일반주서
 62
     0
100
AcDbTrace
 10
127.4205
 20
53.90097560374245
 30
0.0
 11
127.4205
 21
55.00164227040911
 31
0.0
 12
130.7225
 22
54.45130893707578
 32
0.0
 13
130.7225
 23
54.45130893707578
 33
0.0
  0
SOLID
  5
239
330
232
100
AcDbEntity
  8
치수문자_일반주서
 62
     0
100
AcDbTrace
 10
83.22450000000002
 20
55.00164227040911
 30
0.0
 11
83.22450000000002
 21
53.90097560374245
 31
0.0
 12
79.92250000000001
 22
54.45130893707578
 32
0.0
 13
79.92250000000001
 23
54.45130893707578
 33
0.0
  0
MTEXT
  5
23A
330
232
100
AcDbEntity
  8
치수문자_일반주서
 62
     0
100
AcDbMText
 10
105.3225
 20
58.82630893707578
 30
0.0
 40
3.5
 41
0.0
 71
     2
 72
     1
  1
\A1;50.8 [2]
  7
SLDTEXTSTYLE0
 73
     1
 44
1.0
  0
POINT
  5
23B
330
232
100
AcDbEntity
  8
Defpoints
 62
     0
100
AcDbPoint
 10
130.7225
 20
32.00399999999994
 30
0.0
  0
POINT
  5
23C
330
232
100
AcDbEntity
  8
Defpoints
 62
     0
100
AcDbPoint
 10
79.92250000000001
 20
31.9747614099245
 30
0.0
  0
POINT
  5
23D
330
232
100
AcDbEntity
  8
Defpoints
 62
     0
100
AcDbPoint
 10
79.92250000000001
 20
54.45130893707578
 30
0.0
  0
ENDBLK
  5
234
330
232
100
AcDbEntity
  8
0
100
AcDbBlockEnd
  0
BLOCK
  5
23F
330
23E
100
AcDbEntity
  8
0
100
AcDbBlockBegin
  2
*D10
 70
     1
 10
0.0
 20
0.0
 30
0.0
  3
*D10
  1
*D10
  0
LINE
  5
241
330
23E
100
AcDbEntity
  8
치수문자_일반주서
 62
     0
370
    -2
100
AcDbLine
 10
130.7225
 20
32.06649999999994
 30
0.0
 11
130.7225
 21
66.4513089370758
 31
0.0
  0
LINE
  5
242
330
23E
100
AcDbEntity
  8
치수문자_일반주서
 62
     0
370
    -2
100
AcDbLine
 10
16.42250000000001
 20
29.52649999999994
 30
0.0
 11
16.42250000000001
 21
66.4513089370758
 31
0.0
  0
LINE
  5
243
330
23E
100
AcDbEntity
  8
치수문자_일반주서
 62
     0
370
    -2
100
AcDbLine
 10
127.4205
 20
66.4513089370758
 30
0.0
 11
19.72450000000001
 21
66.4513089370758
 31
0.0
  0
SOLID
  5
244
330
23E
100
AcDbEntity
  8
치수문자_일반주서
 62
     0
100
AcDbTrace
 10
127.4205
 20
65.90097560374247
 30
0.0
 11
127.4205
 21
67.00164227040912
 31
0.0
 12
130.7225
 22
66.4513089370758
 32
0.0
 13
130.7225
 23
66.4513089370758
 33
0.0
  0
SOLID
  5
245
330
23E
100
AcDbEntity
  8
치수문자_일반주서
 62
     0
100
AcDbTrace
 10
19.72450000000001
 20
67.00164227040912
 30
0.0
 11
19.72450000000001
 21
65.90097560374247
 31
0.0
 12
16.42250000000001
 22
66.4513089370758
 32
0.0
 13
16.42250000000001
 23
66.4513089370758
 33
0.0
  0
MTEXT
  5
246
330
23E
100
AcDbEntity
  8
치수문자_일반주서
 62
     0
100
AcDbMText
 10
73.57250000000002
 20
70.8263089370758
 30
0.0
 40
3.5
 41
0.0
 71
     2
 72
     1
  1
\A1;114.3 [4 1/2]
  7
SLDTEXTSTYLE0
 73
     1
 44
1.0
  0
POINT
  5
247
330
23E
100
AcDbEntity
  8
Defpoints
 62
     0
100
AcDbPoint
 10
130.7225
 20
32.00399999999994
 30
0.0
  0
POINT
  5
248
330
23E
100
AcDbEntity
  8
Defpoints
 62
     0
100
AcDbPoint
 10
16.42250000000001
 20
29.46399999999994
 30
0.0
  0
POINT
  5
249
330
23E
100
AcDbEntity
  8
Defpoints
 62
     0
100
AcDbPoint
 10
16.42250000000001
 20
66.4513089370758
 30
0.0
  0
ENDBLK
  5
240
330
23E
100
AcDbEntity
  8
0
100
AcDbBlockEnd
  0
BLOCK
  5
24B
330
24A
100
AcDbEntity
  8
0
100
AcDbBlockBegin
  2
*D11
 70
     1
 10
0.0
 20
0.0
 30
0.0
  3
*D11
  1
*D11
  0
LINE
  5
24D
330
24A
100
AcDbEntity
  8
치수문자_일반주서
 62
     0
370
    -2
100
AcDbLine
 10
130.785
 20
32.00399999999994
 30
0.0
 11
148.224350938141
 21
32.004
 31
0.0
  0
LINE
  5
24E
330
24A
100
AcDbEntity
  8
치수문자_일반주서
 62
     0
370
    -2
100
AcDbLine
 10
130.785
 20
6.603999999999933
 30
0.0
 11
148.2243509381411
 21
6.603999999999999
 31
0.0
  0
LINE
  5
24F
330
24A
100
AcDbEntity
  8
치수문자_일반주서
 62
     0
370
    -2
100
AcDbLine
 10
148.224350938141
 20
32.004
 30
0.0
 11
148.2243509381409
 21
69.05326930339933
 31
0.0
  0
LINE
  5
250
330
24A
100
AcDbEntity
  8
치수문자_일반주서
 62
     0
370
    -2
100
AcDbLine
 10
148.224350938141
 20
28.70200000000001
 30
0.0
 11
148.2243509381411
 21
9.905999999999999
 31
0.0
  0
SOLID
  5
251
330
24A
100
AcDbEntity
  8
치수문자_일반주서
 62
     0
100
AcDbTrace
 10
148.7746842714744
 20
28.70200000000001
 30
0.0
 11
147.6740176048077
 21
28.702
 31
0.0
 12
148.224350938141
 22
32.004
 32
0.0
 13
148.224350938141
 23
32.004
 33
0.0
  0
SOLID
  5
252
330
24A
100
AcDbEntity
  8
치수문자_일반주서
 62
     0
100
AcDbTrace
 10
147.6740176048078
 20
9.905999999999997
 30
0.0
 11
148.7746842714745
 21
9.906
 31
0.0
 12
148.2243509381411
 22
6.603999999999999
 32
0.0
 13
148.2243509381411
 23
6.603999999999999
 33
0.0
  0
MTEXT
  5
253
330
24A
100
AcDbEntity
  8
치수문자_일반주서
 62
     0
100
AcDbMText
 10
143.849350938141
 20
58.99076930339931
 30
0.0
 40
3.5
 41
0.0
 71
     2
 72
     1
  1
\A1;%%c25.4 [1]
  7
SLDTEXTSTYLE0
 11
-3.356894814614646E-15
 21
1.0
 31
0.0
 73
     1
 44
1.0
  0
POINT
  5
254
330
24A
100
AcDbEntity
  8
Defpoints
 62
     0
100
AcDbPoint
 10
130.7225
 20
32.00399999999994
 30
0.0
  0
POINT
  5
255
330
24A
100
AcDbEntity
  8
Defpoints
 62
     0
100
AcDbPoint
 10
130.7225
 20
6.603999999999933
 30
0.0
  0
POINT
  5
256
330
24A
100
AcDbEntity
  8
Defpoints
 62
     0
100
AcDbPoint
 10
148.2243509381411
 20
6.603999999999999
 30
0.0
  0
ENDBLK
  5
24C
330
24A
100
AcDbEntity
  8
0
100
AcDbBlockEnd
  0
BLOCK
  5
29F
330
29E
100
AcDbEntity
  8
0
100
AcDbBlockBegin
  2
*D12
 70
     1
 10
0.0
 20
0.0
 30
0.0
  3
*D12
  1
*D12
  0
LINE
  5
2A1
330
29E
100
AcDbEntity
  8
치수문자_일반주서
 62
     0
370
    -2
100
AcDbLine
 10
122.7730353009871
 20
-29.79669149806185
 30
0.0
 11
108.248035300987
 21
-29.7966914980619
 31
0.0
  0
LINE
  5
2A2
330
29E
100
AcDbEntity
  8
치수문자_일반주서
 62
     0
370
    -2
100
AcDbLine
 10
122.7730353009871
 20
-55.19669149806181
 30
0.0
 11
108.2480353009871
 21
-55.19669149806187
 31
0.0
  0
LINE
  5
2A3
330
29E
100
AcDbEntity
  8
치수문자_일반주서
 62
     0
370
    -2
100
AcDbLine
 10
108.2480353009871
 20
-33.0986914980619
 30
0.0
 11
108.2480353009871
 21
-51.89469149806187
 31
0.0
  0
SOLID
  5
2A4
330
29E
100
AcDbEntity
  8
치수문자_일반주서
 62
     0
100
AcDbTrace
 10
108.7983686343204
 20
-33.0986914980619
 30
0.0
 11
107.6977019676537
 21
-33.0986914980619
 31
0.0
 12
108.248035300987
 22
-29.7966914980619
 32
0.0
 13
108.248035300987
 23
-29.7966914980619
 33
0.0
  0
SOLID
  5
2A5
330
29E
100
AcDbEntity
  8
치수문자_일반주서
 62
     0
100
AcDbTrace
 10
107.6977019676538
 20
-51.89469149806187
 30
0.0
 11
108.7983686343204
 21
-51.89469149806187
 31
0.0
 12
108.2480353009871
 22
-55.19669149806187
 32
0.0
 13
108.2480353009871
 23
-55.19669149806187
 33
0.0
  0
MTEXT
  5
2A6
330
29E
100
AcDbEntity
  8
치수문자_일반주서
 62
     0
100
AcDbMText
 10
103.8730353009871
 20
-42.49669149806186
 30
0.0
 40
3.5
 41
0.0
 71
     2
 72
     1
  1
\A1;%%c25.4 [1]
  7
SLDTEXTSTYLE0
 11
-3.356894814614651E-15
 21
1.0
 31
0.0
 73
     1
 44
1.0
  0
POINT
  5
2A7
330
29E
100
AcDbEntity
  8
Defpoints
 62
     0
100
AcDbPoint
 10
122.8355353009871
 20
-29.79669149806185
 30
0.0
  0
POINT
  5
2A8
330
29E
100
AcDbEntity
  8
Defpoints
 62
     0
100
AcDbPoint
 10
122.8355353009871
 20
-55.19669149806181
 30
0.0
  0
POINT
  5
2A9
330
29E
100
AcDbEntity
  8
Defpoints
 62
     0
100
AcDbPoint
 10
108.2480353009871
 20
-55.19669149806187
 30
0.0
  0
ENDBLK
  5
2A0
330
29E
100
AcDbEntity
  8
0
100
AcDbBlockEnd
  0
BLOCK
  5
2AB
330
2AA
100
AcDbEntity
  8
0
100
AcDbBlockBegin
  2
*D13
 70
     1
 10
0.0
 20
0.0
 30
0.0
  3
*D13
  1
*D13
  0
LINE
  5
2AD
330
2AA
100
AcDbEntity
  8
치수문자_일반주서
 62
     0
370
    -2
100
AcDbLine
 10
234.5955353009871
 20
-29.73419149806183
 30
0.0
 11
234.5955353009871
 21
-7.349382560985987
 31
0.0
  0
LINE
  5
2AE
330
2AA
100
AcDbEntity
  8
치수문자_일반주서
 62
     0
370
    -2
100
AcDbLine
 10
183.7955353009871
 20
-29.76343008813726
 30
0.0
 11
183.7955353009871
 21
-7.349382560985987
 31
0.0
  0
LINE
  5
2AF
330
2AA
100
AcDbEntity
  8
치수문자_일반주서
 62
     0
370
    -2
100
AcDbLine
 10
231.2935353009871
 20
-7.349382560985987
 30
0.0
 11
187.0975353009871
 21
-7.349382560985987
 31
0.0
  0
SOLID
  5
2B0
330
2AA
100
AcDbEntity
  8
치수문자_일반주서
 62
     0
100
AcDbTrace
 10
231.2935353009871
 20
-7.89971589431932
 30
0.0
 11
231.2935353009871
 21
-6.799049227652653
 31
0.0
 12
234.5955353009871
 22
-7.349382560985987
 32
0.0
 13
234.5955353009871
 23
-7.349382560985987
 33
0.0
  0
SOLID
  5
2B1
330
2AA
100
AcDbEntity
  8
치수문자_일반주서
 62
     0
100
AcDbTrace
 10
187.0975353009871
 20
-6.799049227652653
 30
0.0
 11
187.0975353009871
 21
-7.89971589431932
 31
0.0
 12
183.7955353009871
 22
-7.349382560985987
 32
0.0
 13
183.7955353009871
 23
-7.349382560985987
 33
0.0
  0
MTEXT
  5
2B2
330
2AA
100
AcDbEntity
  8
치수문자_일반주서
 62
     0
100
AcDbMText
 10
209.1955353009871
 20
-2.974382560985987
 30
0.0
 40
3.5
 41
0.0
 71
     2
 72
     1
  1
\A1;50.8 [2]
  7
SLDTEXTSTYLE0
 73
     1
 44
1.0
  0
POINT
  5
2B3
330
2AA
100
AcDbEntity
  8
Defpoints
 62
     0
100
AcDbPoint
 10
234.5955353009871
 20
-29.79669149806183
 30
0.0
  0
POINT
  5
2B4
330
2AA
100
AcDbEntity
  8
Defpoints
 62
     0
100
AcDbPoint
 10
183.7955353009871
 20
-29.82593008813726
 30
0.0
  0
POINT
  5
2B5
330
2AA
100
AcDbEntity
  8
Defpoints
 62
     0
100
AcDbPoint
 10
183.7955353009871
 20
-7.349382560985987
 30
0.0
  0
ENDBLK
  5
2AC
330
2AA
100
AcDbEntity
  8
0
100
AcDbBlockEnd
  0
BLOCK
  5
2B7
330
2B6
100
AcDbEntity
  8
0
100
AcDbBlockBegin
  2
*D14
 70
     1
 10
0.0
 20
0.0
 30
0.0
  3
*D14
  1
*D14
  0
LINE
  5
2B9
330
2B6
100
AcDbEntity
  8
치수문자_일반주서
 62
     0
370
    -2
100
AcDbLine
 10
234.5955353009871
 20
-29.73419149806183
 30
0.0
 11
234.5955353009871
 21
4.650617439014027
 31
0.0
  0
LINE
  5
2BA
330
2B6
100
AcDbEntity
  8
치수문자_일반주서
 62
     0
370
    -2
100
AcDbLine
 10
120.2955353009871
 20
-32.27419149806182
 30
0.0
 11
120.2955353009871
 21
4.650617439014027
 31
0.0
  0
LINE
  5
2BB
330
2B6
100
AcDbEntity
  8
치수문자_일반주서
 62
     0
370
    -2
100
AcDbLine
 10
231.2935353009871
 20
4.650617439014027
 30
0.0
 11
123.5975353009871
 21
4.650617439014027
 31
0.0
  0
SOLID
  5
2BC
330
2B6
100
AcDbEntity
  8
치수문자_일반주서
 62
     0
100
AcDbTrace
 10
231.2935353009871
 20
4.100284105680694
 30
0.0
 11
231.2935353009871
 21
5.200950772347361
 31
0.0
 12
234.5955353009871
 22
4.650617439014027
 32
0.0
 13
234.5955353009871
 23
4.650617439014027
 33
0.0
  0
SOLID
  5
2BD
330
2B6
100
AcDbEntity
  8
치수문자_일반주서
 62
     0
100
AcDbTrace
 10
123.5975353009871
 20
5.200950772347361
 30
0.0
 11
123.5975353009871
 21
4.100284105680694
 31
0.0
 12
120.2955353009871
 22
4.650617439014027
 32
0.0
 13
120.2955353009871
 23
4.650617439014027
 33
0.0
  0
MTEXT
  5
2BE
330
2B6
100
AcDbEntity
  8
치수문자_일반주서
 62
     0
100
AcDbMText
 10
177.4455353009871
 20
9.025617439014027
 30
0.0
 40
3.5
 41
0.0
 71
     2
 72
     1
  1
\A1;114.3 [4 1/2]
  7
SLDTEXTSTYLE0
 73
     1
 44
1.0
  0
POINT
  5
2BF
330
2B6
100
AcDbEntity
  8
Defpoints
 62
     0
100
AcDbPoint
 10
234.5955353009871
 20
-29.79669149806183
 30
0.0
  0
POINT
  5
2C0
330
2B6
100
AcDbEntity
  8
Defpoints
 62
     0
100
AcDbPoint
 10
120.2955353009871
 20
-32.33669149806182
 30
0.0
  0
POINT
  5
2C1
330
2B6
100
AcDbEntity
  8
Defpoints
 62
     0
100
AcDbPoint
 10
120.2955353009871
 20
4.650617439014027
 30
0.0
  0
ENDBLK
  5
2B8
330
2B6
100
AcDbEntity
  8
0
100
AcDbBlockEnd
  0
BLOCK
  5
2C3
330
2C2
100
AcDbEntity
  8
0
100
AcDbBlockBegin
  2
*D15
 70
     1
 10
0.0
 20
0.0
 30
0.0
  3
*D15
  1
*D15
  0
LINE
  5
2C5
330
2C2
100
AcDbEntity
  8
치수문자_일반주서
 62
     0
370
    -2
100
AcDbLine
 10
234.6580353009871
 20
-29.79669149806183
 30
0.0
 11
252.0973862391281
 21
-29.79669149806176
 31
0.0
  0
LINE
  5
2C6
330
2C2
100
AcDbEntity
  8
치수문자_일반주서
 62
     0
370
    -2
100
AcDbLine
 10
234.6580353009871
 20
-55.19669149806183
 30
0.0
 11
252.0973862391282
 21
-55.19669149806177
 31
0.0
  0
LINE
  5
2C7
330
2C2
100
AcDbEntity
  8
치수문자_일반주서
 62
     0
370
    -2
100
AcDbLine
 10
252.0973862391281
 20
-29.79669149806176
 30
0.0
 11
252.097386239128
 21
7.252577805337559
 31
0.0
  0
LINE
  5
2C8
330
2C2
100
AcDbEntity
  8
치수문자_일반주서
 62
     0
370
    -2
100
AcDbLine
 10
252.0973862391281
 20
-33.09869149806176
 30
0.0
 11
252.0973862391282
 21
-51.89469149806177
 31
0.0
  0
SOLID
  5
2C9
330
2C2
100
AcDbEntity
  8
치수문자_일반주서
 62
     0
100
AcDbTrace
 10
252.6477195724614
 20
-33.09869149806176
 30
0.0
 11
251.5470529057948
 21
-33.09869149806176
 31
0.0
 12
252.0973862391281
 22
-29.79669149806176
 32
0.0
 13
252.0973862391281
 23
-29.79669149806176
 33
0.0
  0
SOLID
  5
2CA
330
2C2
100
AcDbEntity
  8
치수문자_일반주서
 62
     0
100
AcDbTrace
 10
251.5470529057949
 20
-51.89469149806177
 30
0.0
 11
252.6477195724615
 21
-51.89469149806177
 31
0.0
 12
252.0973862391282
 22
-55.19669149806177
 32
0.0
 13
252.0973862391282
 23
-55.19669149806177
 33
0.0
  0
MTEXT
  5
2CB
330
2C2
100
AcDbEntity
  8
치수문자_일반주서
 62
     0
100
AcDbMText
 10
247.722386239128
 20
-2.809922194662456
 30
0.0
 40
3.5
 41
0.0
 71
     2
 72
     1
  1
\A1;%%c25.4 [1]
  7
SLDTEXTSTYLE0
 11
-3.356894814614646E-15
 21
1.0
 31
0.0
 73
     1
 44
1.0
  0
POINT
  5
2CC
330
2C2
100
AcDbEntity
  8
Defpoints
 62
     0
100
AcDbPoint
 10
234.5955353009871
 20
-29.79669149806183
 30
0.0
  0
POINT
  5
2CD
330
2C2
100
AcDbEntity
  8
Defpoints
 62
     0
100
AcDbPoint
 10
234.5955353009871
 20
-55.19669149806183
 30
0.0
  0
POINT
  5
2CE
330
2C2
100
AcDbEntity
  8
Defpoints
 62
     0
100
AcDbPoint
 10
252.0973862391282
 20
-55.19669149806177
 30
0.0
  0
ENDBLK
  5
2C4
330
2C2
100
AcDbEntity
  8
0
100
AcDbBlockEnd
  0
ENDSEC
  0
SECTION
  2
ENTITIES
  0
LINE
  5
96
330
1F
100
AcDbEntity
  8
0
  6
Continuous
 62
     1
370
    15
100
AcDbLine
 10
60.88004673753215
 20
-15.87392507127611
 30
0.0
 11
62.80000000000001
 21
-15.87392507127611
 31
0.0
  0
LINE
  5
97
330
1F
100
AcDbEntity
  8
0
  6
Continuous
 62
     1
370
    15
100
AcDbLine
 10
14.84570894158724
 20
15.8760749287239
 30
0.0
 11
12.00000000000002
 21
15.8760749287239
 31
0.0
  0
LINE
  5
98
330
1F
100
AcDbEntity
  8
0
  6
Continuous
 62
     1
370
    15
100
AcDbLine
 10
31.47094488118613
 20
15.8760749287239
 30
0.0
 11
27.63217231108429
 21
15.8760749287239
 31
0.0
  0
LINE
  5
99
330
1F
100
AcDbEntity
  8
0
  6
Continuous
 62
     1
370
    15
100
AcDbLine
 10
44.25602647667891
 20
-15.87392507127611
 30
0.0
 11
48.0951103935751
 21
-15.87392507127611
 31
0.0
  0
LINE
  5
9A
330
1F
100
AcDbEntity
  8
0
  6
Continuous
 62
     1
370
    15
100
AcDbLine
 10
27.63217231108417
 20
-15.87392507127611
 30
0.0
 11
31.47094488118605
 21
-15.87392507127611
 31
0.0
  0
LINE
  5
9B
330
1F
100
AcDbEntity
  8
0
  6
Continuous
 62
     1
370
    15
100
AcDbLine
 10
48.0951103935751
 20
15.8760749287239
 30
0.0
 11
44.25602647667904
 21
15.8760749287239
 31
0.0
  0
LINE
  5
9C
330
1F
100
AcDbEntity
  8
0
  6
Continuous
 62
     1
370
    15
100
AcDbLine
 10
12.00000000000002
 20
-15.87392507127611
 30
0.0
 11
14.84570894158712
 21
-15.87392507127611
 31
0.0
  0
LINE
  5
9D
330
1F
100
AcDbEntity
  8
0
  6
Continuous
 62
     1
370
    15
100
AcDbLine
 10
62.80000000000001
 20
15.8760749287239
 30
0.0
 11
60.88004673753215
 21
15.8760749287239
 31
0.0
  0
LINE
  5
9E
330
1F
100
AcDbEntity
  8
외형선
  6
Continuous
370
    15
100
AcDbLine
 10
11.00761660211789
 20
-15.87392507127611
 30
0.0
 11
12.00000000000002
 21
-15.87392507127611
 31
0.0
  0
LINE
  5
9F
330
1F
100
AcDbEntity
  8
외형선
  6
Continuous
370
    15
100
AcDbLine
 10
-48.32499999999999
 20
-15.87392507127611
 30
0.0
 11
11.00761660211789
 21
-15.87392507127611
 31
0.0
  0
LINE
  5
A0
330
1F
100
AcDbEntity
  8
외형선
  6
Continuous
370
    15
100
AcDbLine
 10
10.99974503390006
 20
15.8760749287239
 30
0.0
 11
-13.58732499999994
 21
15.8760749287239
 31
0.0
  0
LINE
  5
A1
330
1F
100
AcDbEntity
  8
외형선
  6
Continuous
370
    15
100
AcDbLine
 10
12.00000000000002
 20
15.8760749287239
 30
0.0
 11
10.99974503390006
 21
15.8760749287239
 31
0.0
  0
LINE
  5
A2
330
1F
100
AcDbEntity
  8
외형선
  6
Continuous
370
    15
100
AcDbLine
 10
-50.71260000000001
 20
13.48847492872389
 30
0.0
 11
-51.49999999999999
 21
12.70107492872391
 31
0.0
  0
LINE
  5
A3
330
1F
100
AcDbEntity
  8
외형선
  6
Continuous
370
    15
100
AcDbLine
 10
-51.49999999999999
 20
-12.69892507127612
 30
0.0
 11
-48.32499999999999
 21
-15.87392507127611
 31
0.0
  0
LINE
  5
A4
330
1F
100
AcDbEntity
  8
0
  6
Continuous
 62
     1
370
    15
100
AcDbLine
 10
62.80000000000001
 20
-15.75807806688246
 30
0.0
 11
62.80000000000001
 21
-9.507873805967618
 31
0.0
  0
SPLINE
  5
A5
330
1F
100
AcDbEntity
  8
0
  6
Continuous
 62
     1
370
    15
100
AcDbSpline
210
0.0
220
0.0
230
1.0
 70
     8
 71
     3
 72
    30
 73
    26
 74
     0
 42
0.000000001
 43
0.00000001
 40
0.0
 40
0.0
 40
0.0
 40
0.0
 40
0.0237028670255771
 40
0.0652645216872554
 40
0.1067804593725871
 40
0.1483180673637284
 40
0.1898849875439518
 40
0.2348752143626565
 40
0.2798664411191901
 40
0.3248959491149939
 40
0.3699123759191454
 40
0.4148995400599492
 40
0.4598960720554587
 40
0.5049315673457373
 40
0.5499383923265981
 40
0.5949243055131619
 40
0.6399279500391517
 40
0.6849644025044626
 40
0.7299634280877662
 40
0.7749499026358753
 40
0.8199624636211069
 40
0.8649948425817098
 40
0.9099878748797804
 40
0.9549767228394981
 40
1.0
 40
1.0
 40
1.0
 40
1.0
 10
14.84570894158724
 20
15.84546212053931
 30
0.0
 10
15.22456864538882
 20
15.84954470899329
 30
0.0
 10
16.26773769867273
 20
15.8607858884847
 30
0.0
 10
17.97550229851879
 20
15.60263038720351
 30
0.0
 10
19.96621664950107
 20
15.09883977823545
 30
0.0
 10
21.95806688304371
 20
14.34618380847024
 30
0.0
 10
24.00668065069755
 20
13.34463934951375
 30
0.0
 10
26.10872966019278
 20
12.08285007936759
 30
0.0
 10
28.26625087523632
 20
10.56512164269256
 30
0.0
 10
30.42568435420364
 20
8.853179391074137
 30
0.0
 10
32.58444397909881
 20
6.97749769926135
 30
0.0
 10
34.74173837972603
 20
4.972672685302176
 30
0.0
 10
36.89948597731286
 20
2.875911979694674
 30
0.0
 10
39.0592426170426
 20
0.7274505483918442
 30
0.0
 10
41.21750556763359
 20
-1.43555098657005
 30
0.0
 10
43.37473858671598
 20
-3.572051395306514
 30
0.0
 10
45.53284000649947
 20
-5.642652976485723
 30
0.0
 10
47.6926472618661
 20
-7.60794821531455
 30
0.0
 10
49.85051736012143
 20
-9.434030406588986
 30
0.0
 10
52.00777814617537
 20
-11.08590134414191
 30
0.0
 10
54.16633563574723
 20
-12.53255083129994
 30
0.0
 10
56.32592764543804
 20
-13.74896427300367
 30
0.0
 10
58.48350711794649
 20
-14.70669401146596
 30
0.0
 10
60.64088551903997
 20
-15.41367325786071
 30
0.0
 10
62.08011167400805
 20
-15.64324719356999
 30
0.0
 10
62.79999999999998
 20
-15.75807806688246
 30
0.0
  0
SPLINE
  5
A6
330
1F
100
AcDbEntity
  8
0
  6
Continuous
 62
     1
370
    15
100
AcDbSpline
210
0.0
220
0.0
230
1.0
 70
     8
 71
     3
 72
    27
 73
    23
 74
     0
 42
0.000000001
 43
0.00000001
 40
0.0
 40
0.0
 40
0.0
 40
0.0
 40
0.0519490220846624
 40
0.103858318866666
 40
0.1557724436465229
 40
0.2077319676236349
 40
0.2596686251080083
 40
0.31157518338629
 40
0.3634962233737148
 40
0.4154604474659532
 40
0.4673868169089557
 40
0.5192927274737626
 40
0.5712227666078845
 40
0.6231858862868047
 40
0.6751040491081155
 40
0.7270114030562902
 40
0.7789525210225546
 40
0.8309087324061996
 40
0.8828207739055164
 40
0.9347316616506947
 40
0.9826926496244487
 40
1.0
 40
1.0
 40
1.0
 40
1.0
 10
62.79999999999998
 20
-9.536374120213098
 30
0.0
 10
62.08011167400805
 20
-8.944216379320826
 30
0.0
 10
60.64088551904
 20
-7.760353719255239
 30
0.0
 10
58.48350711794654
 20
-5.793281714637004
 30
0.0
 10
56.32592764543791
 20
-3.731761526695604
 30
0.0
 10
54.16633563574773
 20
-1.5991869395732
 30
0.0
 10
52.00777814617344
 20
0.5628144027207138
 30
0.0
 10
49.85051736012868
 20
2.714924992390142
 30
0.0
 10
47.69264726183903
 20
4.817009085593575
 30
0.0
 10
45.53284000660049
 20
6.828945648575947
 30
0.0
 10
43.37473858633932
 20
8.716054269042903
 30
0.0
 10
41.21750556903893
 20
10.44221258320956
 30
0.0
 10
39.05924261179349
 20
11.97560876165832
 30
0.0
 10
36.89948599690908
 20
13.28732474262087
 30
0.0
 10
34.74173830667041
 20
14.35467148395529
 30
0.0
 10
32.58444425176513
 20
15.15684206677007
 30
0.0
 10
30.42568333572789
 20
15.67948124682411
 30
0.0
 10
28.26625467602296
 20
15.9115393219078
 30
0.0
 10
26.10871548917953
 20
15.85465584126387
 30
0.0
 10
24.00673183698246
 20
15.49721599941641
 30
0.0
 10
22.38235416141588
 20
15.06131517970646
 30
0.0
 10
21.4782771137498
 20
14.68053458790544
 30
0.0
 10
21.23854099320221
 20
14.57956215187927
 30
0.0
  0
SPLINE
  5
A7
330
1F
100
AcDbEntity
  8
0
  6
Continuous
 62
     1
370
    15
100
AcDbSpline
210
0.0
220
0.0
230
1.0
 70
     8
 71
     3
 72
    28
 73
    24
 74
     0
 42
0.000000001
 43
0.00000001
 40
0.0
 40
0.0
 40
0.0
 40
0.0
 40
0.0468547921881376
 40
0.0937430240903105
 40
0.1406505782244128
 40
0.1875065350012808
 40
0.2343869494435413
 40
0.2813004463775203
 40
0.3320775753725744
 40
0.382855832923222
 40
0.4336772956666849
 40
0.4844839946402604
 40
0.5352576670181368
 40
0.5860419121981626
 40
0.6368701323564104
 40
0.6876659944648644
 40
0.7384382549835596
 40
0.7892305275487135
 40
0.8400598279993607
 40
0.8908468875068091
 40
0.9416197815926055
 40
0.9924221175033594
 40
1.0
 40
1.0
 40
1.0
 40
1.0
 10
12.00000000000005
 20
10.26357314012998
 30
0.0
 10
12.66332691462413
 20
9.741550464983403
 30
0.0
 10
13.9904541524886
 20
8.697132553247506
 30
0.0
 10
15.98248694988967
 20
6.95078545087426
 30
0.0
 10
17.97547682575997
 20
5.107649487416907
 30
0.0
 10
19.96622347424396
 20
3.179221677002952
 30
0.0
 10
21.95806505734286
 20
1.202488830304476
 30
0.0
 10
24.00668118509428
 20
-0.8476463482653939
 30
0.0
 10
26.10872951224396
 20
-2.941481450108357
 30
0.0
 10
28.26625091491799
 20
-5.03584982849599
 30
0.0
 10
30.42568434356837
 20
-7.036287890988231
 30
0.0
 10
32.58444398195358
 20
-8.907368684391884
 30
0.0
 10
34.74173837893305
 20
-10.61436684468782
 30
0.0
 10
36.89948597763045
 20
-12.12547674538535
 30
0.0
 10
39.05924261656584
 20
-13.41194372381289
 30
0.0
 10
41.2175055692216
 20
-14.45159907706108
 30
0.0
 10
43.37473858084225
 20
-15.22432777338883
 30
0.0
 10
45.53284002842378
 20
-15.7164803475183
 30
0.0
 10
47.69264718001045
 20
-15.91662298263052
 30
0.0
 10
49.85051766528363
 20
-15.82990625336643
 30
0.0
 10
52.00777700733997
 20
-15.42556717199681
 30
0.0
 10
53.55380037157472
 20
-14.99985307593375
 30
0.0
 10
54.38088534118417
 20
-14.63426176099101
 30
0.0
 10
54.48824281406482
 20
-14.58680719329659
 30
0.0
  0
SPLINE
  5
A8
330
1F
100
AcDbEntity
  8
외형선
  6
Continuous
370
    15
100
AcDbSpline
210
0.0
220
0.0
230
1.0
 70
    24
 71
     3
 72
    13
 73
     9
 74
     0
 42
0.000000001
 43
0.00000001
 40
0.0
 40
0.0
 40
0.0
 40
0.0
 40
0.1625496257372143
 40
0.3288386962523394
 40
0.5104086693975421
 40
0.6972441840643805
 40
0.8788141572095834
 40
1.0
 40
1.0
 40
1.0
 40
1.0
 10
12.00000000000006
 20
15.84514480566851
 30
0.0
 10
12.00000000000005
 20
15.53749163530885
 30
0.0
 10
12.00000000000002
 20
14.91510775112492
 30
0.0
 10
12.00000000000005
 20
13.92193346058885
 30
0.0
 10
11.99999999999999
 20
12.88919183047352
 30
0.0
 10
12.00000000000003
 20
11.86687755606898
 30
0.0
 10
12.00000000000009
 20
11.00141756499881
 30
0.0
 10
12.00000000000007
 20
10.53586301774144
 30
0.0
 10
12.00000000000007
 20
10.34951277373393
 30
0.0
  0
SPLINE
  5
A9
330
1F
100
AcDbEntity
  8
0
  6
Continuous
 62
     1
370
    15
100
AcDbSpline
210
0.0
220
0.0
230
1.0
 70
     8
 71
     3
 72
    31
 73
    27
 74
     0
 42
0.000000001
 43
0.00000001
 40
0.0
 40
0.0
 40
0.0
 40
0.0
 40
0.0048988018589237
 40
0.0490346462380552
 40
0.0931745956190867
 40
0.1373531456367903
 40
0.1815122534345532
 40
0.2256457694027527
 40
0.2697915984343283
 40
0.3139741447217301
 40
0.3581245051192957
 40
0.4022574703695527
 40
0.4464109509195033
 40
0.4905925581802304
 40
0.5347359409032691
 40
0.5788701333892554
 40
0.6230330337087207
 40
0.6672087671960758
 40
0.7113469452692411
 40
0.7554841423637327
 40
0.7962629398567644
 40
0.8370129809296067
 40
0.8777417625728744
 40
0.9185153943833511
 40
0.9592722306566267
 40
1.0
 40
1.0
 40
1.0
 40
1.0
 10
60.88004673753215
 20
-15.85946806642109
 30
0.0
 10
60.80021083814195
 20
-15.86417009062426
 30
0.0
 10
60.00109195225261
 20
-15.91123508734091
 30
0.0
 10
58.48355802619696
 20
-15.7230416460088
 30
0.0
 10
56.32591399057797
 20
-15.27648180444001
 30
0.0
 10
54.16633929418227
 20
-14.51853638781392
 30
0.0
 10
52.00777716672626
 20
-13.50038263361193
 30
0.0
 10
49.85051762257444
 20
-12.23074265375841
 30
0.0
 10
47.69264719146658
 20
-10.73574608446524
 30
0.0
 10
45.53284002535548
 20
-9.04350995356556
 30
0.0
 10
43.37473858166372
 20
-7.183398686180284
 30
0.0
 10
41.21750556900139
 20
-5.190702747909095
 30
0.0
 10
39.05924261662483
 20
-3.102184983605738
 30
0.0
 10
36.89948597761463
 20
-0.9575318651242689
 30
0.0
 10
34.74173837893728
 20
1.206171945221814
 30
0.0
 10
32.58444398195242
 20
3.347475861780058
 30
0.0
 10
30.42568434356869
 20
5.426609382999324
 30
0.0
 10
28.26625091491794
 20
7.405143780502272
 30
0.0
 10
26.108729512244
 20
9.247988264194655
 30
0.0
 10
24.00668118509428
 20
10.87734003831282
 30
0.0
 10
21.95806505734287
 20
12.27870360269465
 30
0.0
 10
19.966223474244
 20
13.44964781327231
 30
0.0
 10
17.97547682575997
 20
14.41072171703915
 30
0.0
 10
15.9824869498897
 20
15.13958985254293
 30
0.0
 10
13.99045415248859
 20
15.64876235689745
 30
0.0
 10
12.66332691462415
 20
15.77969955857902
 30
0.0
 10
12.00000000000006
 20
15.84514480566829
 30
0.0
  0
SPLINE
  5
AA
330
1F
100
AcDbEntity
  8
0
  6
Continuous
 62
     1
370
    15
100
AcDbSpline
210
0.0
220
0.0
230
1.0
 70
     8
 71
     3
 72
    20
 73
    16
 74
     0
 42
0.000000001
 43
0.00000001
 40
0.0
 40
0.0
 40
0.0
 40
0.0
 40
0.076970914843862
 40
0.1539967629242449
 40
0.2310543526856596
 40
0.3080271806627535
 40
0.3850401865766654
 40
0.4621075388985753
 40
0.5455218896911415
 40
0.628938094423346
 40
0.7124252746750588
 40
0.7958882016792016
 40
0.8792968740987777
 40
0.9627229150353375
 40
1.0
 40
1.0
 40
1.0
 40
1.0
 10
12.00000000000003
 20
-5.356840212340488
 30
0.0
 10
12.66332691462904
 20
-5.973581092913667
 30
0.0
 10
13.99045415250333
 20
-7.207503014771816
 30
0.0
 10
15.98248694983065
 20
-8.922163456103137
 30
0.0
 10
17.97547682598132
 20
-10.50190784723479
 30
0.0
 10
19.96622347341848
 20
-11.916400070851
 30
0.0
 10
21.95806506042666
 20
-13.14319041590262
 30
0.0
 10
24.00668117317558
 20
-14.19105512707986
 30
0.0
 10
26.10872956082153
 20
-15.02325320981999
 30
0.0
 10
28.26625073403153
 20
-15.60006976893078
 30
0.0
 10
30.42568501907384
 20
-15.88770224220175
 30
0.0
 10
32.58444146254631
 20
-15.88637690044703
 30
0.0
 10
34.74174777557455
 20
-15.57631856101433
 30
0.0
 10
36.50105506718563
 20
-15.13603813445576
 30
0.0
 10
37.54209960669053
 20
-14.70399017207096
 30
0.0
 10
37.86360831213105
 20
-14.5705595878804
 30
0.0
  0
SPLINE
  5
AB
330
1F
100
AcDbEntity
  8
외형선
  6
Continuous
370
    15
100
AcDbSpline
210
0.0
220
0.0
230
1.0
 70
    24
 71
     3
 72
    34
 73
    30
 74
     0
 42
0.000000001
 43
0.00000001
 40
0.0
 40
0.0
 40
0.0
 40
0.0
 40
0.125
 40
0.125
 40
0.1562500000000001
 40
0.1562500000000001
 40
0.1875000000000003
 40
0.1875000000000003
 40
0.2500000000000003
 40
0.2500000000000003
 40
0.3750000000000004
 40
0.3750000000000004
 40
0.5000000000000004
 40
0.5000000000000004
 40
0.5625000000000004
 40
0.5625000000000004
 40
0.6250000000000003
 40
0.6250000000000003
 40
0.6875000000000003
 40
0.6875000000000003
 40
0.7500000000000002
 40
0.7500000000000002
 40
0.8125000000000002
 40
0.8125000000000002
 40
0.8750000000000002
 40
0.8750000000000002
 40
0.9375000000000001
 40
0.9375000000000001
 40
1.0
 40
1.0
 40
1.0
 40
1.0
 10
12.00000000000003
 20
7.065318487618786
 30
0.0
 10
12.00000000000003
 20
6.910518817972178
 30
0.0
 10
12.0
 20
6.69062062509391
 30
0.0
 10
12.00000000000002
 20
6.389587061119806
 30
0.0
 10
12.0
 20
6.327958929714534
 30
0.0
 10
12.00000000000002
 20
6.202802524071848
 30
0.0
 10
12.00000000000003
 20
6.13801573780057
 30
0.0
 10
12.00000000000002
 20
5.927206799363088
 30
0.0
 10
12.00000000000002
 20
5.768128711496872
 30
0.0
 10
11.99999999999999
 20
5.224994990404404
 30
0.0
 10
12.00000000000003
 20
4.77370679701866
 30
0.0
 10
12.00000000000003
 20
3.653215933651367
 30
0.0
 10
12.00000000000003
 20
2.981401656062606
 30
0.0
 10
12.00000000000003
 20
1.834340436672023
 30
0.0
 10
12.00000000000002
 20
1.429664903174885
 30
0.0
 10
12.00000000000003
 20
0.5931172943535095
 30
0.0
 10
12.00000000000002
 20
0.1613146930672343
 30
0.0
 10
12.00000000000002
 20
-0.7034120821254303
 30
0.0
 10
12.00000000000003
 20
-1.136154496127062
 30
0.0
 10
12.00000000000005
 20
-1.971775705314561
 30
0.0
 10
12.00000000000006
 20
-2.374416223790067
 30
0.0
 10
12.00000000000003
 20
-3.120526241178083
 30
0.0
 10
12.00000000000002
 20
-3.463807068484771
 30
0.0
 10
12.00000000000002
 20
-4.07039722450423
 30
0.0
 10
12.00000000000002
 20
-4.333650247864163
 30
0.0
 10
12.00000000000002
 20
-4.771821568998472
 30
0.0
 10
12.0
 20
-4.946817356080486
 30
0.0
 10
12.0
 20
-5.212153559495419
 30
0.0
 10
12.0
 20
-5.302640113616626
 30
0.0
 10
12.00000000000002
 20
-5.356840212340439
 30
0.0
  0
SPLINE
  5
AC
330
1F
100
AcDbEntity
  8
0
  6
Continuous
 62
     1
370
    15
100
AcDbSpline
210
0.0
220
0.0
230
1.0
 70
     8
 71
     3
 72
    23
 73
    19
 74
     0
 42
0.000000001
 43
0.00000001
 40
0.0
 40
0.0
 40
0.0
 40
0.0
 40
0.0273284138121237
 40
0.0942056846465868
 40
0.1611140435179873
 40
0.2280650244439818
 40
0.2949580814859812
 40
0.3618372120227277
 40
0.4287598452233843
 40
0.4957019252760659
 40
0.5625870954068367
 40
0.6294707790030847
 40
0.6912652826984675
 40
0.7530162101036479
 40
0.8147349218482358
 40
0.876521597681853
 40
0.9382828222528182
 40
1.0
 40
1.0
 40
1.0
 40
1.0
 10
44.25602647667891
 20
-15.83849257637693
 30
0.0
 10
43.96218052421423
 20
-15.84719270573787
 30
0.0
 10
42.94924361090224
 20
-15.87718352952285
 30
0.0
 10
41.21753995228454
 20
-15.62063026374374
 30
0.0
 10
39.05923339503805
 20
-15.07972438889037
 30
0.0
 10
36.89948844682928
 20
-14.24298056571886
 30
0.0
 10
34.7417377177232
 20
-13.14762544451746
 30
0.0
 10
32.58444415923573
 20
-11.8082885244182
 30
0.0
 10
30.42568429603535
 20
-10.25160680738468
 30
0.0
 10
28.26625092764632
 20
-8.506083824202108
 30
0.0
 10
26.10872950882576
 20
-6.602732699695431
 30
0.0
 10
24.00668118593295
 20
-4.629135037088762
 30
0.0
 10
21.95806505712588
 20
-2.632326748510179
 30
0.0
 10
19.96622347430212
 20
-0.6471689878080547
 30
0.0
 10
17.97547682574442
 20
1.349655404447709
 30
0.0
 10
15.98248694989384
 20
3.321143500886524
 30
0.0
 10
13.99045415248758
 20
5.24933476179205
 30
0.0
 10
12.6633269146238
 20
6.460134549895698
 30
0.0
 10
12.00000000000007
 20
7.065318487618713
 30
0.0
  0
LINE
  5
AD
330
1F
100
AcDbEntity
  8
0
  6
Continuous
 62
     1
370
    15
100
AcDbLine
 10
62.80000000000001
 20
-6.220629017945231
 30
0.0
 11
62.80000000000001
 21
6.222778875393319
 31
0.0
  0
SPLINE
  5
AE
330
1F
100
AcDbEntity
  8
0
  6
Continuous
 62
     1
370
    15
100
AcDbSpline
210
0.0
220
0.0
230
1.0
 70
     8
 71
     3
 72
    22
 73
    18
 74
     0
 42
0.000000001
 43
0.00000001
 40
0.0
 40
0.0
 40
0.0
 40
0.0
 40
0.0355481218190962
 40
0.1044083141025477
 40
0.1732828454155568
 40
0.2422170164062614
 40
0.3111073028121729
 40
0.3799655803061252
 40
0.4488509985071132
 40
0.5177866346103233
 40
0.5866649827661642
 40
0.6555241195155215
 40
0.7244231858116853
 40
0.7933525867515369
 40
0.8622217612068025
 40
0.9310845308497387
 40
1.0
 40
1.0
 40
1.0
 40
1.0
 10
31.47094488118615
 20
15.83943931401561
 30
0.0
 10
31.84223704004269
 20
15.84606580622861
 30
0.0
 10
32.93275846176465
 20
15.86552846262135
 30
0.0
 10
34.74171387384857
 20
15.57879539528561
 30
0.0
 10
36.89949255069759
 20
15.00496191187144
 30
0.0
 10
39.05924085628843
 20
14.13980546861185
 30
0.0
 10
41.21750603904835
 20
13.01728038994767
 30
0.0
 10
43.37473846037301
 20
11.65338498764014
 30
0.0
 10
45.53284004038706
 20
10.07460993892131
 30
0.0
 10
47.69264725279149
 20
8.310885957077454
 30
0.0
 10
49.85051736255129
 20
6.392702778756741
 30
0.0
 10
52.00777814552396
 20
4.356597069119047
 30
0.0
 10
54.1663356359219
 20
2.240480549307891
 30
0.0
 10
56.3259276453913
 20
0.0832639227809412
 30
0.0
 10
58.48350711795892
 20
-2.074505192580036
 30
0.0
 10
60.64088551903689
 20
-4.202098814152098
 30
0.0
 10
62.08011167400706
 20
-5.547614065664105
 30
0.0
 10
62.79999999999998
 20
-6.220629017945233
 30
0.0
  0
SPLINE
  5
AF
330
1F
100
AcDbEntity
  8
0
  6
Continuous
 62
     1
370
    15
100
AcDbSpline
210
0.0
220
0.0
230
1.0
 70
     8
 71
     3
 72
    19
 73
    15
 74
     0
 42
0.000000001
 43
0.00000001
 40
0.0
 40
0.0
 40
0.0
 40
0.0
 40
0.0865835215555369
 40
0.1731008328830264
 40
0.2596261910425723
 40
0.3462272161197308
 40
0.4327901295753904
 40
0.5193028766341697
 40
0.6058397603816762
 40
0.6924486191485374
 40
0.7789943855085242
 40
0.8655060530221772
 40
0.952057935662459
 40
0.9999999999999999
 40
0.9999999999999999
 40
0.9999999999999999
 40
0.9999999999999999
 10
62.79999999999998
 20
6.222778875393316
 30
0.0
 10
62.08011167399029
 20
6.873631309165383
 30
0.0
 10
60.64088551898668
 20
8.174838471288307
 30
0.0
 10
58.48350711815957
 20
9.945953101379663
 30
0.0
 10
56.32592764463847
 20
11.54174085840461
 30
0.0
 10
54.16633563873474
 20
12.92150785882945
 30
0.0
 10
52.00777813503392
 20
14.06399220756833
 30
0.0
 10
49.85051740168062
 20
14.94677906017942
 30
0.0
 10
47.69264710665914
 20
15.5539640155493
 30
0.0
 10
45.53284058609292
 20
15.87295796853537
 30
0.0
 10
43.37473642581895
 20
15.90268194417142
 30
0.0
 10
41.21751363043678
 20
15.62594777406681
 30
0.0
 10
39.38058359081742
 20
15.18589616556714
 30
0.0
 10
38.26225179202788
 20
14.73384779175807
 30
0.0
 10
37.86360831213116
 20
14.57270944532818
 30
0.0
  0
LINE
  5
B0
330
1F
100
AcDbEntity
  8
0
  6
Continuous
 62
     1
370
    15
100
AcDbLine
 10
62.80000000000001
 20
-15.87392507127611
 30
0.0
 11
62.80000000000001
 21
-15.75807806688246
 31
0.0
  0
LINE
  5
B1
330
1F
100
AcDbEntity
  8
0
  6
Continuous
 62
     1
370
    15
100
AcDbLine
 10
62.80000000000001
 20
-9.536374120213098
 30
0.0
 11
62.80000000000001
 21
-6.220629017945231
 31
0.0
  0
LINE
  5
B2
330
1F
100
AcDbEntity
  8
외형선
  6
Continuous
370
    15
100
AcDbLine
 10
12.00000000000005
 20
7.065318487618798
 30
0.0
 11
12.00000000000003
 21
10.26357314012999
 31
0.0
  0
SPLINE
  5
B3
330
1F
100
AcDbEntity
  8
0
  6
Continuous
 62
     1
370
    15
100
AcDbSpline
210
0.0
220
0.0
230
1.0
 70
     8
 71
     3
 72
    15
 73
    11
 74
     0
 42
0.000000001
 43
0.00000001
 40
0.0
 40
0.0
 40
0.0
 40
0.0
 40
0.097464408258461
 40
0.2354688071193924
 40
0.3629724504125875
 40
0.4903861805997661
 40
0.6177334386275936
 40
0.7452209303080297
 40
0.8726559071445804
 40
1.0
 40
1.0
 40
1.0
 40
1.0
 10
27.63217231108417
 20
-15.84351393353184
 30
0.0
 10
27.1243427778048
 20
-15.84151898588566
 30
0.0
 10
25.89745373637969
 20
-15.83669929887476
 30
0.0
 10
24.00670174688321
 20
-15.49933097973468
 30
0.0
 10
21.95805973727519
 20
-14.91152573228269
 30
0.0
 10
19.96622489841334
 20
-14.09532150419804
 30
0.0
 10
17.97547644389661
 20
-13.0601040974313
 30
0.0
 10
15.98248705172279
 20
-11.81734136513225
 30
0.0
 10
13.99045412705589
 20
-10.39836017329054
 30
0.0
 10
12.66332690614858
 20
-9.31849258166732
 30
0.0
 10
12.00000000000006
 20
-8.778751389325727
 30
0.0
  0
LINE
  5
B4
330
1F
100
AcDbEntity
  8
외형선
  6
Continuous
370
    15
100
AcDbLine
 10
12.00000000000005
 20
-8.778751389325853
 30
0.0
 11
12.00000000000003
 21
-5.35684021234047
 31
0.0
  0
SPLINE
  5
B5
330
1F
100
AcDbEntity
  8
0
  6
Continuous
 62
     1
370
    15
100
AcDbSpline
210
0.0
220
0.0
230
1.0
 70
     8
 71
     3
 72
    14
 73
    10
 74
     0
 42
0.000000001
 43
0.00000001
 40
0.0
 40
0.0
 40
0.0
 40
0.0
 40
0.1193950496622267
 40
0.2660985569122916
 40
0.4128871335494553
 40
0.5597403377557442
 40
0.7064652302094439
 40
0.8531764772926617
 40
1.0
 40
1.0
 40
1.0
 40
1.0
 10
48.0951103935751
 20
15.85384954951323
 30
0.0
 10
48.68032775968518
 20
15.84408510499846
 30
0.0
 10
49.98461547548629
 20
15.82232285772121
 30
0.0
 10
52.00775492586146
 20
15.43822306150228
 30
0.0
 10
54.16634186221458
 20
14.77554097326931
 30
0.0
 10
56.32592597894474
 20
13.83291914146639
 30
0.0
 10
58.48350756212321
 20
12.63336609205362
 30
0.0
 10
60.64088540790098
 20
11.21262376446841
 30
0.0
 10
62.08011163695228
 20
10.09669951846527
 30
0.0
 10
62.79999999999998
 20
9.538523977660969
 30
0.0
  0
LINE
  5
B6
330
1F
100
AcDbEntity
  8
0
  6
Continuous
 62
     1
370
    15
100
AcDbLine
 10
62.80000000000001
 20
6.222778875393319
 30
0.0
 11
62.80000000000001
 21
9.53852397766097
 31
0.0
  0
SPLINE
  5
B7
330
1F
100
AcDbEntity
  8
0
  6
Continuous
 62
     1
370
    15
100
AcDbSpline
210
0.0
220
0.0
230
1.0
 70
     8
 71
     3
 72
    12
 73
     8
 74
     0
 42
0.000000001
 43
0.00000001
 40
0.0
 40
0.0
 40
0.0
 40
0.0
 40
0.2154663355284955
 40
0.431086446846144
 40
0.646795413333427
 40
0.8622671043368795
 40
0.9999999999999999
 40
0.9999999999999999
 40
0.9999999999999999
 40
0.9999999999999999
 10
12.00000000000003
 20
-15.61933842374663
 30
0.0
 10
12.66332755356762
 20
-15.71392636469071
 30
0.0
 10
13.99045606977514
 20
-15.90316975287969
 30
0.0
 10
15.98247927303931
 20
-15.87343909458087
 30
0.0
 10
17.97550561313459
 20
-15.60261338567277
 30
0.0
 10
19.72650575601415
 20
-15.1749568556313
 30
0.0
 10
20.81433832166374
 20
-14.74505388967339
 30
0.0
 10
21.2385409932021
 20
-14.57741229443147
 30
0.0
  0
SPLINE
  5
B8
330
1F
100
AcDbEntity
  8
외형선
  6
Continuous
370
    15
100
AcDbSpline
210
0.0
220
0.0
230
1.0
 70
    24
 71
     3
 72
    15
 73
    11
 74
     0
 42
0.000000001
 43
0.00000001
 40
0.0
 40
0.0
 40
0.0
 40
0.0
 40
0.0523271191531792
 40
0.197100631220203
 40
0.3460725849448263
 40
0.4908460970118227
 40
0.639818050736476
 40
0.7845915628035012
 40
0.9335635165281236
 40
1.0
 40
1.0
 40
1.0
 40
1.0
 10
12.0
 20
-8.864701022929784
 30
0.0
 10
11.99999999999999
 20
-8.952148857478976
 30
0.0
 10
11.99999999999996
 20
-9.281538735374415
 30
0.0
 10
12.0
 20
-9.986291895578642
 30
0.0
 10
12.00000000000005
 20
-10.94018562769378
 30
0.0
 10
12.00000000000002
 20
-11.97761928353057
 30
0.0
 10
12.00000000000002
 20
-13.03988639877218
 30
0.0
 10
12.00000000000003
 20
-14.11776517151996
 30
0.0
 10
12.0000000000001
 20
-14.97802297026104
 30
0.0
 10
12.00000000000003
 20
-15.46816754784539
 30
0.0
 10
12.00000000000002
 20
-15.61933842374663
 30
0.0
  0
SPLINE
  5
B9
330
1F
100
AcDbEntity
  8
0
  6
Continuous
 62
     1
370
    15
100
AcDbSpline
210
0.0
220
0.0
230
1.0
 70
     8
 71
     3
 72
    11
 73
     7
 74
     0
 42
0.000000001
 43
0.00000001
 40
0.0
 40
0.0
 40
0.0
 40
0.0
 40
0.2597647419880049
 40
0.5193308424505017
 40
0.7789210847267679
 40
0.9999999999999999
 40
0.9999999999999999
 40
0.9999999999999999
 40
0.9999999999999999
 10
62.79999999999998
 20
15.76022792433026
 30
0.0
 10
62.08011119680552
 20
15.81930264936379
 30
0.0
 10
60.64088408779729
 20
15.93740692511887
 30
0.0
 10
58.4835128380319
 20
15.73575441202321
 30
0.0
 10
56.43320391652166
 20
15.31375272092718
 30
0.0
 10
55.10098392078449
 20
14.81729688773774
 30
0.0
 10
54.48824281406482
 20
14.58895705074438
 30
0.0
  0
LINE
  5
BA
330
1F
100
AcDbEntity
  8
0
  6
Continuous
 62
     1
370
    15
100
AcDbLine
 10
62.80000000000001
 20
9.518109470408437
 30
0.0
 11
62.80000000000001
 21
15.76022792433026
 31
0.0
  0
LINE
  5
BB
330
1F
100
AcDbEntity
  8
0
  6
Continuous
 62
     1
370
    15
100
AcDbLine
 10
62.80000000000001
 20
15.76022792433026
 30
0.0
 11
62.80000000000001
 21
15.8760749287239
 31
0.0
  0
LINE
  5
BC
330
1F
100
AcDbEntity
  8
외형선
  6
Continuous
370
    15
100
AcDbLine
 10
12.00000000000002
 20
-15.87392507127611
 30
0.0
 11
12.00000000000002
 21
-15.61933842374663
 31
0.0
  0
SPLINE
  5
BD
330
1F
100
AcDbEntity
  8
외형선
  6
Continuous
370
    15
100
AcDbSpline
210
0.0
220
0.0
230
1.0
 70
     8
 71
     3
 72
     8
 73
     4
 74
     0
 42
0.000000001
 43
0.00000001
 40
0.0
 40
0.0
 40
0.0
 40
0.0
 40
1.0
 40
1.0
 40
1.0
 40
1.0
 10
12.0
 20
15.84514480566829
 30
0.0
 10
11.6667858197751
 20
15.8659175067422
 30
0.0
 10
11.33303743694418
 20
15.87623792309013
 30
0.0
 10
10.99974503390006
 20
15.87607298081584
 30
0.0
  0
LINE
  5
BE
330
1F
100
AcDbEntity
  8
외형선
  6
Continuous
370
    15
100
AcDbLine
 10
10.99974503390006
 20
11.00494529069329
 30
0.0
 11
10.99974503390006
 21
15.87607298168663
 31
0.0
  0
SPLINE
  5
BF
330
1F
100
AcDbEntity
  8
외형선
  6
Continuous
370
    15
100
AcDbSpline
210
0.0
220
0.0
230
1.0
 70
     8
 71
     3
 72
     8
 73
     4
 74
     0
 42
0.000000001
 43
0.00000001
 40
0.0
 40
0.0
 40
0.0
 40
0.0
 40
1.0
 40
1.0
 40
1.0
 40
1.0
 10
12.00000000000005
 20
10.26357314012997
 30
0.0
 10
11.66678581977514
 20
10.51758393879354
 30
0.0
 10
11.3330374369442
 20
10.76495298067929
 30
0.0
 10
10.99974503390006
 20
11.00494470799332
 30
0.0
  0
SPLINE
  5
C0
330
1F
100
AcDbEntity
  8
외형선
  6
Continuous
370
    15
100
AcDbSpline
210
0.0
220
0.0
230
1.0
 70
     8
 71
     3
 72
     8
 73
     4
 74
     0
 42
0.000000001
 43
0.00000001
 40
0.0
 40
0.0
 40
0.0
 40
0.0
 40
1.0
 40
1.0
 40
1.0
 40
1.0
 10
12.0
 20
7.06531848761874
 30
0.0
 10
11.6667858197751
 20
7.36347072318063
 30
0.0
 10
11.33303743694418
 20
7.657116876473471
 30
0.0
 10
10.99974503390006
 20
7.945384575723422
 30
0.0
  0
SPLINE
  5
C1
330
1F
100
AcDbEntity
  8
외형선
  6
Continuous
370
    15
100
AcDbSpline
210
0.0
220
0.0
230
1.0
 70
     8
 71
     3
 72
     8
 73
     4
 74
     0
 42
0.000000001
 43
0.00000001
 40
0.0
 40
0.0
 40
0.0
 40
0.0
 40
1.0
 40
1.0
 40
1.0
 40
1.0
 10
12.00000000000005
 20
-5.356840212340488
 30
0.0
 10
11.66678581977514
 20
-5.04344350677813
 30
0.0
 10
11.3330374369442
 20
-4.726341195511504
 30
0.0
 10
10.99974503390006
 20
-4.406473324603958
 30
0.0
  0
SPLINE
  5
C2
330
1F
100
AcDbEntity
  8
외형선
  6
Continuous
370
    15
100
AcDbSpline
210
0.0
220
0.0
230
1.0
 70
     8
 71
     3
 72
     8
 73
     4
 74
     0
 42
0.000000001
 43
0.00000001
 40
0.0
 40
0.0
 40
0.0
 40
0.0
 40
1.0
 40
1.0
 40
1.0
 40
1.0
 10
12.0
 20
-8.778751389325697
 30
0.0
 10
11.6667858197751
 20
-8.50137185483771
 30
0.0
 10
11.33303743694418
 20
-8.2180461178928
 30
0.0
 10
10.99974503390006
 20
-7.929613476368552
 30
0.0
  0
LINE
  5
C3
330
1F
100
AcDbEntity
  8
외형선
  6
Continuous
370
    15
100
AcDbLine
 10
10.99974503390006
 20
-15.41034290993414
 30
0.0
 11
10.99974503390006
 21
-7.929614999280497
 31
0.0
  0
SPLINE
  5
C4
330
1F
100
AcDbEntity
  8
외형선
  6
Continuous
370
    15
100
AcDbSpline
210
0.0
220
0.0
230
1.0
 70
     8
 71
     3
 72
     8
 73
     4
 74
     0
 42
0.000000001
 43
0.00000001
 40
0.0
 40
0.0
 40
0.0
 40
0.0
 40
1.0
 40
1.0
 40
1.0
 40
1.0
 10
12.00000000000005
 20
-15.61933842374663
 30
0.0
 10
11.66678581977514
 20
-15.55995251684783
 30
0.0
 10
11.3330374369442
 20
-15.49021924746696
 30
0.0
 10
10.99974503390006
 20
-15.41034310387345
 30
0.0
  0
LINE
  5
C5
330
1F
100
AcDbEntity
  8
외형선
  6
Continuous
370
    15
100
AcDbLine
 10
-48.32499999999999
 20
0.0010749287238949
 30
0.0
 11
-48.32499999999999
 21
13.48847492872389
 31
0.0
  0
LINE
  5
C6
330
1F
100
AcDbEntity
  8
외형선
  6
Continuous
370
    15
100
AcDbLine
 10
-48.32499999999999
 20
-15.87392507127611
 30
0.0
 11
-48.32499999999999
 21
0.0010749287238949
 31
0.0
  0
LINE
  5
C7
330
1F
100
AcDbEntity
  8
외형선
  6
Continuous
370
    15
100
AcDbLine
 10
10.99974503390006
 20
-4.406472547964676
 30
0.0
 11
10.99974503390006
 21
7.945383053682274
 31
0.0
  0
LINE
  5
C8
330
1F
100
AcDbEntity
  8
외형선
  6
Continuous
370
    15
100
AcDbLine
 10
-51.49999999999999
 20
0.0010749287238949
 30
0.0
 11
-51.49999999999999
 21
12.70107492872392
 31
0.0
  0
LINE
  5
C9
330
1F
100
AcDbEntity
  8
외형선
  6
Continuous
370
    15
100
AcDbLine
 10
-51.49999999999999
 20
-12.69892507127613
 30
0.0
 11
-51.49999999999999
 21
0.0010749287238949
 31
0.0
  0
SPLINE
  5
CA
330
1F
100
AcDbEntity
  8
외형선
  6
Continuous
370
    15
100
AcDbSpline
210
0.0
220
0.0
230
1.0
 70
    24
 71
     3
 72
    34
 73
    30
 74
     0
 42
0.000000001
 43
0.00000001
 40
0.0
 40
0.0
 40
0.0
 40
0.0
 40
0.0625
 40
0.0625
 40
0.125
 40
0.125
 40
0.1875
 40
0.1875
 40
0.2499999999999999
 40
0.2499999999999999
 40
0.3124999999999999
 40
0.3124999999999999
 40
0.3749999999999999
 40
0.3749999999999999
 40
0.4374999999999999
 40
0.4374999999999999
 40
0.4999999999999999
 40
0.4999999999999999
 40
0.6249999999999999
 40
0.6249999999999999
 40
0.7499999999999999
 40
0.7499999999999999
 40
0.8124999999999997
 40
0.8124999999999997
 40
0.8437499999999998
 40
0.8437499999999998
 40
0.8749999999999999
 40
0.8749999999999999
 40
1.0
 40
1.0
 40
1.0
 40
1.0
 10
12.0
 20
-5.356840212340391
 30
0.0
 10
12.0
 20
-5.302640113616571
 30
0.0
 10
12.00000000000003
 20
-5.212153559495353
 30
0.0
 10
12.00000000000005
 20
-4.946817356080403
 30
0.0
 10
12.00000000000002
 20
-4.771821568998382
 30
0.0
 10
12.00000000000005
 20
-4.333650247864068
 30
0.0
 10
12.0
 20
-4.070397224504132
 30
0.0
 10
12.00000000000003
 20
-3.463807068484675
 30
0.0
 10
12.00000000000002
 20
-3.120526241177989
 30
0.0
 10
12.00000000000003
 20
-2.374416223789984
 30
0.0
 10
12.00000000000006
 20
-1.971775705314485
 30
0.0
 10
12.00000000000003
 20
-1.136154496127006
 30
0.0
 10
12.00000000000002
 20
-0.703412082125385
 30
0.0
 10
12.00000000000003
 20
0.1613146930672583
 30
0.0
 10
12.00000000000002
 20
0.593117294353522
 30
0.0
 10
12.0
 20
1.429664903174878
 30
0.0
 10
12.0
 20
1.834340436672005
 30
0.0
 10
12.0
 20
2.981401656062566
 30
0.0
 10
12.00000000000002
 20
3.653215933651316
 30
0.0
 10
12.00000000000003
 20
4.773706797018598
 30
0.0
 10
12.00000000000003
 20
5.224994990404347
 30
0.0
 10
12.00000000000005
 20
5.768128711496821
 30
0.0
 10
12.00000000000003
 20
5.927206799363038
 30
0.0
 10
12.0
 20
6.138015737800522
 30
0.0
 10
12.0
 20
6.202802524071806
 30
0.0
 10
12.00000000000002
 20
6.327958929714487
 30
0.0
 10
12.00000000000002
 20
6.389587061119757
 30
0.0
 10
12.00000000000002
 20
6.69062062509386
 30
0.0
 10
12.0
 20
6.910518817972132
 30
0.0
 10
12.00000000000002
 20
7.065318487618755
 30
0.0
  0
SPLINE
  5
CB
330
1F
100
AcDbEntity
  8
외형선
  6
Continuous
370
    15
100
AcDbSpline
210
0.0
220
0.0
230
1.0
 70
    24
 71
     3
 72
    15
 73
    11
 74
     0
 42
0.000000001
 43
0.00000001
 40
0.0
 40
0.0
 40
0.0
 40
0.0
 40
0.039657994486877
 40
0.186510017707677
 40
0.3333620409284768
 40
0.4802140641492775
 40
0.6270660873700784
 40
0.7739181105908793
 40
0.9207701338116803
 40
1.0
 40
1.0
 40
1.0
 40
1.0
 10
12.00000000000005
 20
-15.61933842374662
 30
0.0
 10
12.00000000000006
 20
-15.52942588009863
 30
0.0
 10
12.0000000000001
 20
-15.10657065696126
 30
0.0
 10
12.00000000000006
 20
-14.3167067625842
 30
0.0
 10
11.99999999999999
 20
-13.24605871649945
 30
0.0
 10
12.00000000000002
 20
-12.17552640538476
 30
0.0
 10
12.00000000000002
 20
-11.13370603503286
 30
0.0
 10
12.0
 20
-10.15951785090999
 30
0.0
 10
11.99999999999998
 20
-9.388615533163568
 30
0.0
 10
11.99999999999999
 20
-9.000651948369342
 30
0.0
 10
12.0
 20
-8.864691022929787
 30
0.0
  0
SPLINE
  5
CC
330
1F
100
AcDbEntity
  8
외형선
  6
Continuous
370
    15
100
AcDbSpline
210
0.0
220
0.0
230
1.0
 70
    24
 71
     3
 72
    18
 73
    14
 74
     0
 42
0.000000001
 43
0.00000001
 40
0.0
 40
0.0
 40
0.0
 40
0.0
 40
0.0801434416924622
 40
0.1734537690411363
 40
0.267450367467248
 40
0.3581449224249797
 40
0.4494691854285555
 40
0.542779512777236
 40
0.6367761112033566
 40
0.7260248684479775
 40
0.8158734639975721
 40
0.9076108001185951
 40
1.0
 40
1.0
 40
1.0
 40
1.0
 10
12.00000000000005
 20
10.34951277373393
 30
0.0
 10
12.00000000000003
 20
10.47432437296515
 30
0.0
 10
12.0
 20
10.74445305535668
 30
0.0
 10
12.00000000000005
 20
11.1919972886808
 30
0.0
 10
12.00000000000002
 20
11.67630439689355
 30
0.0
 10
11.99999999999993
 20
12.17559171937456
 30
0.0
 10
11.99999999999998
 20
12.68749567461225
 30
0.0
 10
12.00000000000006
 20
13.21636501330282
 30
0.0
 10
11.99999999999996
 20
13.74828979594079
 30
0.0
 10
12.00000000000006
 20
14.2765951402462
 30
0.0
 10
11.99999999999998
 20
14.79973910079779
 30
0.0
 10
11.99999999999998
 20
15.32559476414996
 30
0.0
 10
12.00000000000005
 20
15.67155319258775
 30
0.0
 10
12.00000000000005
 20
15.84514480566829
 30
0.0
  0
LINE
  5
CD
330
1F
100
AcDbEntity
  8
중심선
100
AcDbLine
 10
-54.49999999999997
 20
0.0010749287238888
 30
0.0
 11
65.80000000000001
 21
0.0010749287239044
 31
0.0
  0
LINE
  5
CE
330
1F
100
AcDbEntity
  8
참조1
100
AcDbLine
 10
15.17500000000004
 20
0.0010749287238892
 30
0.0
 11
15.17500000000004
 21
-39.99892507127611
 31
0.0
  0
LINE
  5
CF
330
1F
100
AcDbEntity
  8
참조1
100
AcDbLine
 10
15.17500000000004
 20
-39.99892507127611
 30
0.0
 11
-9.508856814308633
 21
-39.9989250712761
 31
0.0
  0
CIRCLE
  5
D0
330
1F
100
AcDbEntity
  8
해칭선
100
AcDbCircle
 10
0.0
 20
0.0
 30
0.0
 40
3.000000000000001
  0
INSERT
  5
D1
330
1F
100
AcDbEntity
  8
0
  6
Continuous
 62
     7
100
AcDbBlockReference
 66
     1
  2
블럭10
 10
-8.290272932125186
 20
-52.04609937292004
 30
0.0
  0
ATTRIB
  5
D2
330
D1
100
AcDbEntity
  8
FORMAT
 62
     2
100
AcDbText
 10
-17.47156822086647
 20
-49.97073246008785
 30
0.0
 40
4.233333333333333
  1
E2032116 [ 6 FLUTE ]
 41
0.75
  7
SLDTEXTSTYLE0
 11
-17.47156822086647
 21
-52.08739912675452
 31
0.0
100
AcDbAttribute
  2
AUTOATTR0
 70
     0
 74
     1
  0
SEQEND
  5
D3
330
D1
100
AcDbEntity
  8
0
  6
Continuous
 62
     7
  0
HATCH
  5
D4
330
1F
100
AcDbEntity
  8
중심선
100
AcDbHatch
 10
0.0
 20
0.0
 30
0.0
210
0.0
220
0.0
230
1.0
  2
SOLID
 70
     1
 71
     0
 91
        1
 92
        0
 93
        4
 72
     1
 10
-2.575363627744336
 20
-35.7989250712761
 11
-6.021638871581619
 21
-35.7989250712761
 72
     1
 10
-6.021638871581619
 20
-35.7989250712761
 11
-8.149868730785641
 21
-38.33525065184873
 72
     1
 10
-8.149868730785641
 20
-38.33525065184873
 11
-4.703560401835182
 21
-38.33521122254624
 72
     1
 10
-4.703560401835182
 20
-38.33521122254624
 11
-2.575363627744336
 21
-35.7989250712761
 97
        0
 75
     0
 76
     1
 98
        1
 10
-9.525000000000016
 20
0.0
  0
HATCH
  5
D5
330
1F
100
AcDbEntity
  8
중심선
100
AcDbHatch
 10
0.0
 20
0.0
 30
0.0
210
0.0
220
0.0
230
1.0
  2
SOLID
 70
     1
 71
     0
 91
        1
 92
        0
 93
        4
 72
     1
 10
2.437400363291644
 20
-35.7989250712761
 11
-1.00887488054564
 21
-35.7989250712761
 72
     1
 10
-1.00887488054564
 20
-35.7989250712761
 11
-5.540012888903057
 21
-41.19892507127612
 72
     1
 10
-5.540012888903057
 20
-41.19892507127612
 11
-2.093737645065775
 21
-41.19892507127612
 72
     1
 10
-2.093737645065774
 20
-41.19892507127612
 11
2.437400363291644
 21
-35.7989250712761
 97
        0
 75
     0
 76
     1
 98
        1
 10
-9.525000000000016
 20
0.0
  0
HATCH
  5
D6
330
1F
100
AcDbEntity
  8
중심선
100
AcDbHatch
 10
0.0
 20
0.0
 30
0.0
210
0.0
220
0.0
230
1.0
  2
SOLID
 70
     1
 71
     0
 91
        1
 92
        0
 93
        4
 72
     1
 10
7.450164354327512
 20
-35.7989250712761
 11
4.003889110490423
 21
-35.7989250712761
 72
     1
 10
4.003889110490423
 20
-35.7989250712761
 11
-3.044547791398855
 21
-44.19892507127612
 72
     1
 10
-3.044547791398855
 20
-44.19892507127612
 11
0.4017274524384273
 21
-44.19892507127612
 72
     1
 10
0.4017274524384273
 20
-44.19892507127612
 11
7.450164354327512
 21
-35.7989250712761
 97
        0
 75
     0
 76
     1
 98
        1
 10
-9.525000000000016
 20
0.0
  0
HATCH
  5
D7
330
1F
100
AcDbEntity
  8
중심선
100
AcDbHatch
 10
0.0
 20
0.0
 30
0.0
210
0.0
220
0.0
230
1.0
  2
SOLID
 70
     1
 71
     0
 91
        1
 92
        0
 93
        6
 72
     3
 10
12.25005478533971
 20
-39.99892507132738
 11
3.960054785062283
 21
1.540882976769353E-10
 40
0.3939339440162628
 50
17.09539180608437
 51
320.0019657685082
 73
     0
 72
     1
 10
13.93305444104027
 20
-38.58681907591443
 11
16.23835631474134
 21
-36.65249236586651
 72
     3
 10
12.25005478528686
 20
-39.99892507127625
 11
6.600054785286829
 21
-1.278976924368180E-13
 40
0.636358354079598
 50
39.99873849337384
 51
368.4976242363725
 73
     1
 72
     1
 10
18.67538727718748
 20
-39.03892507120613
 11
10.93012209212282
 21
-39.03892507120613
 72
     1
 10
10.93012209212282
 20
-39.03892507120613
 11
10.93009704767685
 21
-40.95892507120602
 72
     1
 10
10.93009704767685
 20
-40.95892507120602
 11
15.37147681714888
 21
-40.95892507120599
 97
        0
 75
     0
 76
     1
 98
        1
 10
-9.525000000000016
 20
0.0
  0
DIMENSION
  5
D8
330
1F
100
AcDbEntity
  8
치수문자_일반주서
100
AcDbDimension
  2
_D
 10
-62.91249999999992
 20
-15.87392507127616
 30
0.0
 11
-62.91249999999998
 21
0.001074928723887
 31
0.0
 70
   160
  1
%%c<>
 71
     2
 42
31.75
 52
-270.0
  3
SLDDIMSTYLE0
100
AcDbAlignedDimension
 13
-48.32499999999996
 23
15.87607492872389
 33
0.0
 14
-48.32499999999996
 24
-15.87392507127611
 34
0.0
 50
90.0000000000002
100
AcDbRotatedDimension
1001
ACAD
1000
DSTYLE
1002
{
1070
   171
1070
     6
1070
   273
1070
     7
1002
}
  0
DIMENSION
  5
EB
330
1F
100
AcDbEntity
  8
치수문자_일반주서
100
AcDbDimension
  2
_D_1
 10
12.00000000000005
 20
38.30021446492104
 30
0.0
 11
37.40000000000002
 21
38.30021446492104
 31
0.0
 70
   160
  1
<>
 71
     2
 42
50.79999999999995
  3
SLDDIMSTYLE0
100
AcDbAlignedDimension
 13
62.80000000000001
 23
15.8760749287239
 33
0.0
 14
12.00000000000005
 24
15.84514480566851
 34
0.0
 50
-0.0000000000000481
100
AcDbRotatedDimension
1001
ACAD
1000
DSTYLE
1002
{
1070
   171
1070
     6
1070
   273
1070
     7
1002
}
  0
DIMENSION
  5
FF
330
1F
100
AcDbEntity
  8
치수문자_일반주서
100
AcDbDimension
  2
_D_2
 10
-51.49999999999999
 20
50.30021446492103
 30
0.0
 11
5.650000000000013
 21
50.30021446492103
 31
0.0
 70
   160
  1
<>
 71
     2
 42
114.3
  3
SLDDIMSTYLE0
100
AcDbAlignedDimension
 13
62.80000000000001
 23
15.8760749287239
 33
0.0
 14
-51.49999999999999
 24
12.70107492872391
 34
0.0
100
AcDbRotatedDimension
1001
ACAD
1000
DSTYLE
1002
{
1070
   171
1070
     6
1070
   273
1070
     7
1002
}
  0
DIMENSION
  5
112
330
1F
100
AcDbEntity
  8
치수문자_일반주서
100
AcDbDimension
  2
_D_3
 10
80.84954259082691
 20
-15.87392507127604
 30
0.0
 11
80.84954259082686
 21
-0.1998901199157359
 31
0.0
 70
   160
  1
%%c<>
 71
     2
 42
31.75000000000001
 52
-270.0
  3
SLDDIMSTYLE0
100
AcDbAlignedDimension
 13
62.80000000000001
 23
15.8760749287239
 33
0.0
 14
62.80000000000001
 24
-15.87392507127611
 34
0.0
 50
90.0000000000002
100
AcDbRotatedDimension
1001
ACAD
1000
DSTYLE
1002
{
1070
   171
1070
     6
1070
   273
1070
     7
1002
}
  0
LINE
  5
125
330
1F
100
AcDbEntity
  8
참조1
100
AcDbLine
 10
88.46348381534564
 20
7.441074928723896
 30
0.0
 11
88.46348381534564
 21
-7.438925071276109
 31
0.0
  0
LINE
  5
126
330
1F
100
AcDbEntity
  8
참조1
100
AcDbLine
 10
101.1634838153456
 20
5.441074928723896
 30
0.0
 11
88.46348381534564
 21
5.441074928723896
 31
0.0
  0
SOLID
  5
127
330
1F
100
AcDbEntity
  8
참조1
100
AcDbTrace
 10
88.46348381534564
 20
5.441074928723896
 30
0.0
 11
94.81348381534563
 21
4.425074928723896
 31
0.0
 12
94.81348381534563
 22
6.457074928723896
 32
0.0
 13
94.81348381534563
 23
6.457074928723896
 33
0.0
  0
LINE
  5
128
330
1F
100
AcDbEntity
  8
참조1
100
AcDbLine
 10
101.1634838153456
 20
-5.438925071276109
 30
0.0
 11
88.46348381534564
 21
-5.438925071276109
 31
0.0
  0
SOLID
  5
129
330
1F
100
AcDbEntity
  8
참조1
100
AcDbTrace
 10
88.46348381534564
 20
-5.438925071276109
 30
0.0
 11
94.81348381534563
 21
-6.454925071276109
 31
0.0
 12
94.81348381534563
 22
-4.422925071276109
 32
0.0
 13
94.81348381534563
 23
-4.422925071276109
 33
0.0
  0
MTEXT
  5
12A
330
1F
100
AcDbEntity
  8
참조1
100
AcDbMText
 10
97.8609739078159
 20
10.98929157337383
 30
0.0
 40
3.5
 41
0.0
 71
     1
 72
     1
  1
A
  7
SLDTEXTSTYLE0
 73
     1
 44
1.0
  0
MTEXT
  5
12B
330
1F
100
AcDbEntity
  8
참조1
100
AcDbMText
 10
97.8609739078159
 20
0.1092915733738251
 30
0.0
 40
3.5
 41
0.0
 71
     1
 72
     1
  1
A
  7
SLDTEXTSTYLE0
 73
     1
 44
1.0
  0
INSERT
  5
132
330
1F
100
AcDbEntity
  8
해칭선
100
AcDbBlockReference
  2
SW_DOWELSYMBOL_0
 10
0.0
 20
0.0
 30
0.0
  0
LINE
  5
304
330
1F
100
AcDbEntity
  8
외형선
  6
Continuous
370
    15
100
AcDbLine
 10
-29.08132499999997
 20
13.48847492872389
 30
0.0
 11
-15.97492499999997
 21
13.48847492872389
 31
0.0
  0
LINE
  5
305
330
1F
100
AcDbEntity
  8
외형선
  6
Continuous
370
    15
100
AcDbLine
 10
-15.97492499999997
 20
13.48847492872389
 30
0.0
 11
-13.58732499999995
 21
15.87607492872391
 31
0.0
  0
LINE
  5
306
330
1F
100
AcDbEntity
  8
외형선
  6
Continuous
370
    15
100
AcDbLine
 10
-29.08132499999997
 20
13.48847492872389
 30
0.0
 11
-31.468925
 21
15.87607492872391
 31
0.0
  0
LINE
  5
308
330
1F
100
AcDbEntity
  8
외형선
  6
Continuous
370
    15
100
AcDbLine
 10
-50.71260000000001
 20
13.48847492872389
 30
0.0
 11
-38.8
 21
13.48847492872389
 31
0.0
  0
LINE
  5
309
330
1F
100
AcDbEntity
  8
외형선
  6
Continuous
370
    15
100
AcDbLine
 10
-38.8
 20
13.48847492872389
 30
0.0
 11
-36.41240000000009
 21
15.87607492872388
 31
0.0
  0
LINE
  5
30B
330
1F
100
AcDbEntity
  8
외형선
  6
Continuous
370
    15
100
AcDbLine
 10
-31.46892499999998
 20
15.8760749287239
 30
0.0
 11
-36.41240000000007
 21
15.8760749287239
 31
0.0
  0
ENDSEC
  0
SECTION
  2
OBJECTS
  0
DICTIONARY
  5
C
330
0
100
AcDbDictionary
281
     1
  3
ACAD_GROUP
350
D
  3
ACAD_IMAGE_VARS
350
179
  3
ACAD_LAYOUT
350
1A
  3
ACAD_MLINESTYLE
350
17
  3
ACAD_PLOTSETTINGS
350
19
  3
ACAD_PLOTSTYLENAME
350
E
  3
ACAD_SCALELIST
350
47
  3
APPDATA
350
154
  3
DWGPROPS
350
30C
  0
DICTIONARY
  5
222
330
2
100
AcDbDictionary
280
     1
281
     1
  3
ACAD_LAYERSTATES
360
223
  0
DICTIONARY
  5
D
102
{ACAD_REACTORS
330
C
102
}
330
C
100
AcDbDictionary
281
     1
  0
RASTERVARIABLES
  5
179
102
{ACAD_REACTORS
330
C
102
}
330
C
100
AcDbRasterVariables
 90
        0
 70
     1
 71
     1
 72
     1
  0
DICTIONARY
  5
1A
102
{ACAD_REACTORS
330
C
102
}
330
C
100
AcDbDictionary
281
     1
  3
Layout1
350
1E
  3
Layout2
350
26
  3
Model
350
22
  0
DICTIONARY
  5
17
102
{ACAD_REACTORS
330
C
102
}
330
C
100
AcDbDictionary
281
     1
  3
Standard
350
18
  0
DICTIONARY
  5
19
102
{ACAD_REACTORS
330
C
102
}
330
C
100
AcDbDictionary
281
     1
  0
ACDBDICTIONARYWDFLT
  5
E
102
{ACAD_REACTORS
330
C
102
}
330
C
100
AcDbDictionary
281
     1
  3
Normal
350
F
100
AcDbDictionaryWithDefault
340
F
  0
DICTIONARY
  5
47
102
{ACAD_REACTORS
330
C
102
}
330
C
100
AcDbDictionary
281
     1
  3
A0
350
48
  3
A1
350
49
  3
A2
350
4A
  3
A3
350
4B
  3
A4
350
4C
  3
A5
350
4D
  3
A6
350
4E
  3
A7
350
4F
  3
A8
350
50
  3
A9
350
51
  3
B0
350
52
  3
B1
350
53
  3
B2
350
54
  3
B3
350
55
  3
B4
350
56
  3
B5
350
57
  3
B6
350
58
  3
B7
350
59
  3
B8
350
5A
  3
B9
350
5B
  3
C0
350
5C
  3
C1
350
5D
  3
C2
350
5E
  3
C3
350
5F
  3
C4
350
60
  3
C5
350
61
  3
C6
350
62
  3
C7
350
63
  3
C8
350
64
  3
C9
350
65
  3
D0
350
66
  3
D1
350
67
  3
D2
350
68
  0
DICTIONARY
  5
154
102
{ACAD_REACTORS
330
C
102
}
330
C
100
AcDbDictionary
281
     1
  0
XRECORD
  5
30C
102
{ACAD_REACTORS
330
C
102
}
330
C
100
AcDbXrecord
280
     1
  1
DWGPROPS COOKIE
  2

  3

  4

  6

  7

  8
12017012
  9

300
=
301
=
302
=
303
=
304
=
305
=
306
=
307
=
308
=
309
=
 40
0.0
 41
2458323.069074572
 42
2458324.021778113
  1

 90
        0
  0
DICTIONARY
  5
223
102
{ACAD_REACTORS
330
222
102
}
330
222
100
AcDbDictionary
281
     1
  0
LAYOUT
  5
1E
102
{ACAD_REACTORS
330
1A
102
}
330
1A
100
AcDbPlotSettings
  1

  2
none_device
  4

  6

 40
0.0
 41
0.0
 42
0.0
 43
0.0
 44
0.0
 45
0.0
 46
0.0
 47
0.0
 48
0.0
 49
0.0
140
0.0
141
0.0
142
1.0
143
1.0
 70
   688
 72
     1
 73
     0
 74
     5
  7

 75
    16
147
1.0
148
0.0
149
0.0
100
AcDbLayout
  1
Layout1
 70
     1
 71
     1
 10
0.0
 20
0.0
 11
420.0
 21
297.0
 12
0.0
 22
0.0
 32
0.0
 14
1.000000000000000E+20
 24
1.000000000000000E+20
 34
1.000000000000000E+20
 15
-1.000000000000000E+20
 25
-1.000000000000000E+20
 35
-1.000000000000000E+20
146
0.0
 13
0.0
 23
0.0
 33
0.0
 16
1.0
 26
0.0
 36
0.0
 17
0.0
 27
1.0
 37
0.0
 76
     0
330
1B
  0
LAYOUT
  5
26
102
{ACAD_REACTORS
330
1A
102
}
330
1A
100
AcDbPlotSettings
  1

  2
none_device
  4

  6

 40
0.0
 41
0.0
 42
0.0
 43
0.0
 44
0.0
 45
0.0
 46
0.0
 47
0.0
 48
0.0
 49
0.0
140
0.0
141
0.0
142
1.0
143
1.0
 70
   688
 72
     1
 73
     0
 74
     5
  7

 75
    16
147
1.0
148
0.0
149
0.0
100
AcDbLayout
  1
Layout2
 70
     1
 71
     2
 10
0.0
 20
0.0
 11
0.0
 21
0.0
 12
0.0
 22
0.0
 32
0.0
 14
0.0
 24
0.0
 34
0.0
 15
0.0
 25
0.0
 35
0.0
146
0.0
 13
0.0
 23
0.0
 33
0.0
 16
1.0
 26
0.0
 36
0.0
 17
0.0
 27
1.0
 37
0.0
 76
     0
330
23
  0
LAYOUT
  5
22
102
{ACAD_REACTORS
330
1A
102
}
330
1A
100
AcDbPlotSettings
  1

  2
none_device
  4
ANSI_A_(11.00_x_8.50_Inches)
  6

 40
6.35
 41
19.05
 42
6.35000508
 43
19.05000254
 44
279.4
 45
215.9
 46
52.51662963774768
 47
84.25338633280148
 48
0.0
 49
0.0
140
0.0
141
0.0
142
0.0352535133557838
143
1.0
 70
  1696
 72
     0
 73
     0
 74
     0
  7

 75
     0
147
0.0235690232323232
148
0.0
149
0.0
100
AcDbLayout
  1
Model
 70
     1
 71
     0
 10
0.0
 20
0.0
 11
420.0
 21
297.0
 12
0.0
 22
0.0
 32
0.0
 14
1.000000000000000E+20
 24
1.000000000000000E+20
 34
1.000000000000000E+20
 15
-1.000000000000000E+20
 25
-1.000000000000000E+20
 35
-1.000000000000000E+20
146
0.0
 13
0.0
 23
0.0
 33
0.0
 16
1.0
 26
0.0
 36
0.0
 17
0.0
 27
1.0
 37
0.0
 76
     0
330
1F
331
29
  0
MLINESTYLE
  5
18
102
{ACAD_REACTORS
330
17
102
}
330
17
100
AcDbMlineStyle
  2
Standard
 70
     0
  3

 62
   256
 51
90.0
 52
90.0
 71
     2
 49
0.5
 62
   256
  6
BYLAYER
 49
-0.5
 62
   256
  6
BYLAYER
  0
ACDBPLACEHOLDER
  5
F
102
{ACAD_REACTORS
330
E
102
}
330
E
  0
SCALE
  5
48
102
{ACAD_REACTORS
330
47
102
}
330
47
100
AcDbScale
 70
     0
300
1:1
140
1.0
141
1.0
290
     1
  0
SCALE
  5
49
102
{ACAD_REACTORS
330
47
102
}
330
47
100
AcDbScale
 70
     0
300
1:2
140
1.0
141
2.0
290
     0
  0
SCALE
  5
4A
102
{ACAD_REACTORS
330
47
102
}
330
47
100
AcDbScale
 70
     0
300
1:4
140
1.0
141
4.0
290
     0
  0
SCALE
  5
4B
102
{ACAD_REACTORS
330
47
102
}
330
47
100
AcDbScale
 70
     0
300
1:5
140
1.0
141
5.0
290
     0
  0
SCALE
  5
4C
102
{ACAD_REACTORS
330
47
102
}
330
47
100
AcDbScale
 70
     0
300
1:8
140
1.0
141
8.0
290
     0
  0
SCALE
  5
4D
102
{ACAD_REACTORS
330
47
102
}
330
47
100
AcDbScale
 70
     0
300
1:10
140
1.0
141
10.0
290
     0
  0
SCALE
  5
4E
102
{ACAD_REACTORS
330
47
102
}
330
47
100
AcDbScale
 70
     0
300
1:16
140
1.0
141
16.0
290
     0
  0
SCALE
  5
4F
102
{ACAD_REACTORS
330
47
102
}
330
47
100
AcDbScale
 70
     0
300
1:20
140
1.0
141
20.0
290
     0
  0
SCALE
  5
50
102
{ACAD_REACTORS
330
47
102
}
330
47
100
AcDbScale
 70
     0
300
1:30
140
1.0
141
30.0
290
     0
  0
SCALE
  5
51
102
{ACAD_REACTORS
330
47
102
}
330
47
100
AcDbScale
 70
     0
300
1:40
140
1.0
141
40.0
290
     0
  0
SCALE
  5
52
102
{ACAD_REACTORS
330
47
102
}
330
47
100
AcDbScale
 70
     0
300
1:50
140
1.0
141
50.0
290
     0
  0
SCALE
  5
53
102
{ACAD_REACTORS
330
47
102
}
330
47
100
AcDbScale
 70
     0
300
1:100
140
1.0
141
100.0
290
     0
  0
SCALE
  5
54
102
{ACAD_REACTORS
330
47
102
}
330
47
100
AcDbScale
 70
     0
300
2:1
140
2.0
141
1.0
290
     0
  0
SCALE
  5
55
102
{ACAD_REACTORS
330
47
102
}
330
47
100
AcDbScale
 70
     0
300
4:1
140
4.0
141
1.0
290
     0
  0
SCALE
  5
56
102
{ACAD_REACTORS
330
47
102
}
330
47
100
AcDbScale
 70
     0
300
8:1
140
8.0
141
1.0
290
     0
  0
SCALE
  5
57
102
{ACAD_REACTORS
330
47
102
}
330
47
100
AcDbScale
 70
     0
300
10:1
140
10.0
141
1.0
290
     0
  0
SCALE
  5
58
102
{ACAD_REACTORS
330
47
102
}
330
47
100
AcDbScale
 70
     0
300
100:1
140
100.0
141
1.0
290
     0
  0
SCALE
  5
59
102
{ACAD_REACTORS
330
47
102
}
330
47
100
AcDbScale
 70
     0
300
1/128" = 1'-0"
140
0.0078125
141
12.0
290
     0
  0
SCALE
  5
5A
102
{ACAD_REACTORS
330
47
102
}
330
47
100
AcDbScale
 70
     0
300
1/64" = 1'-0"
140
0.015625
141
12.0
290
     0
  0
SCALE
  5
5B
102
{ACAD_REACTORS
330
47
102
}
330
47
100
AcDbScale
 70
     0
300
1/32" = 1'-0"
140
0.03125
141
12.0
290
     0
  0
SCALE
  5
5C
102
{ACAD_REACTORS
330
47
102
}
330
47
100
AcDbScale
 70
     0
300
1/16" = 1'-0"
140
0.0625
141
12.0
290
     0
  0
SCALE
  5
5D
102
{ACAD_REACTORS
330
47
102
}
330
47
100
AcDbScale
 70
     0
300
3/32" = 1'-0"
140
0.09375
141
12.0
290
     0
  0
SCALE
  5
5E
102
{ACAD_REACTORS
330
47
102
}
330
47
100
AcDbScale
 70
     0
300
1/8" = 1'-0"
140
0.125
141
12.0
290
     0
  0
SCALE
  5
5F
102
{ACAD_REACTORS
330
47
102
}
330
47
100
AcDbScale
 70
     0
300
3/16" = 1'-0"
140
0.1875
141
12.0
290
     0
  0
SCALE
  5
60
102
{ACAD_REACTORS
330
47
102
}
330
47
100
AcDbScale
 70
     0
300
1/4" = 1'-0"
140
0.25
141
12.0
290
     0
  0
SCALE
  5
61
102
{ACAD_REACTORS
330
47
102
}
330
47
100
AcDbScale
 70
     0
300
3/8" = 1'-0"
140
0.375
141
12.0
290
     0
  0
SCALE
  5
62
102
{ACAD_REACTORS
330
47
102
}
330
47
100
AcDbScale
 70
     0
300
1/2" = 1'-0"
140
0.5
141
12.0
290
     0
  0
SCALE
  5
63
102
{ACAD_REACTORS
330
47
102
}
330
47
100
AcDbScale
 70
     0
300
3/4" = 1'-0"
140
0.75
141
12.0
290
     0
  0
SCALE
  5
64
102
{ACAD_REACTORS
330
47
102
}
330
47
100
AcDbScale
 70
     0
300
1" = 1'-0"
140
1.0
141
12.0
290
     0
  0
SCALE
  5
65
102
{ACAD_REACTORS
330
47
102
}
330
47
100
AcDbScale
 70
     0
300
1-1/2" = 1'-0"
140
1.5
141
12.0
290
     0
  0
SCALE
  5
66
102
{ACAD_REACTORS
330
47
102
}
330
47
100
AcDbScale
 70
     0
300
3" = 1'-0"
140
3.0
141
12.0
290
     0
  0
SCALE
  5
67
102
{ACAD_REACTORS
330
47
102
}
330
47
100
AcDbScale
 70
     0
300
6" = 1'-0"
140
6.0
141
12.0
290
     0
  0
SCALE
  5
68
102
{ACAD_REACTORS
330
47
102
}
330
47
100
AcDbScale
 70
     0
300
1'-0" = 1'-0"
140
12.0
141
12.0
290
     0
  0
ENDSEC
  0
EOF
