  0
SECTION
  2
HEADER
  9
$ACADVER
  1
AC1015
  9
$ACADMAINTVER
 70
     6
  9
$DWGCODEPAGE
  3
ANSI_949
  9
$INSBASE
 10
0.0
 20
0.0
 30
0.0
  9
$EXTMIN
 10
1.000000000000000E+20
 20
1.000000000000000E+20
 30
1.000000000000000E+20
  9
$EXTMAX
 10
-1.000000000000000E+20
 20
-1.000000000000000E+20
 30
-1.000000000000000E+20
  9
$LIMMIN
 10
0.0
 20
0.0
  9
$LIMMAX
 10
420.0
 20
297.0
  9
$ORTHOMODE
 70
     0
  9
$REGENMODE
 70
     1
  9
$FILLMODE
 70
     1
  9
$QTEXTMODE
 70
     0
  9
$MIRRTEXT
 70
     1
  9
$LTSCALE
 40
1.0
  9
$ATTMODE
 70
     1
  9
$TEXTSIZE
 40
3.5
  9
$TRACEWID
 40
1.0
  9
$TEXTSTYLE
  7
Standard
  9
$CLAYER
  8
0
  9
$CELTYPE
  6
ByLayer
  9
$CECOLOR
 62
   256
  9
$CELTSCALE
 40
1.0
  9
$DISPSILH
 70
     0
  9
$DIMSCALE
 40
1.0
  9
$DIMASZ
 40
3.302
  9
$DIMEXO
 40
1.0
  9
$DIMDLI
 40
3.75
  9
$DIMRND
 40
0.0
  9
$DIMDLE
 40
0.0
  9
$DIMEXE
 40
1.0
  9
$DIMTP
 40
0.0
  9
$DIMTM
 40
0.0
  9
$DIMTXT
 40
3.5
  9
$DIMCEN
 40
2.5
  9
$DIMTSZ
 40
0.0
  9
$DIMTOL
 70
     0
  9
$DIMLIM
 70
     0
  9
$DIMTIH
 70
     1
  9
$DIMTOH
 70
     1
  9
$DIMSE1
 70
     0
  9
$DIMSE2
 70
     0
  9
$DIMTAD
 70
     1
  9
$DIMZIN
 70
     0
  9
$DIMBLK
  1

  9
$DIMASO
 70
     1
  9
$DIMSHO
 70
     1
  9
$DIMPOST
  1

  9
$DIMAPOST
  1

  9
$DIMALT
 70
     0
  9
$DIMALTD
 70
     3
  9
$DIMALTF
 40
0.0393700787401575
  9
$DIMLFAC
 40
1.0
  9
$DIMTOFL
 70
     1
  9
$DIMTVP
 40
0.0
  9
$DIMTIX
 70
     0
  9
$DIMSOXD
 70
     0
  9
$DIMSAH
 70
     0
  9
$DIMBLK1
  1

  9
$DIMBLK2
  1

  9
$DIMSTYLE
  2
ISO-25
  9
$DIMCLRD
 70
     0
  9
$DIMCLRE
 70
     0
  9
$DIMCLRT
 70
     0
  9
$DIMTFAC
 40
1.0
  9
$DIMGAP
 40
1.524
  9
$DIMJUST
 70
     0
  9
$DIMSD1
 70
     0
  9
$DIMSD2
 70
     0
  9
$DIMTOLJ
 70
     0
  9
$DIMTZIN
 70
     0
  9
$DIMALTZ
 70
     0
  9
$DIMALTTZ
 70
     0
  9
$DIMUPT
 70
     0
  9
$DIMDEC
 70
     2
  9
$DIMTDEC
 70
     2
  9
$DIMALTU
 70
     2
  9
$DIMALTTD
 70
     3
  9
$DIMTXSTY
  7
Standard
  9
$DIMAUNIT
 70
     0
  9
$DIMADEC
 70
     2
  9
$DIMALTRND
 40
0.0
  9
$DIMAZIN
 70
     0
  9
$DIMDSEP
 70
    44
  9
$DIMATFIT
 70
     3
  9
$DIMFRAC
 70
     0
  9
$DIMLDRBLK
  1

  9
$DIMLUNIT
 70
     2
  9
$DIMLWD
 70
    -2
  9
$DIMLWE
 70
    -2
  9
$DIMTMOVE
 70
     0
  9
$LUNITS
 70
     2
  9
$LUPREC
 70
     2
  9
$SKETCHINC
 40
1.0
  9
$FILLETRAD
 40
10.0
  9
$AUNITS
 70
     0
  9
$AUPREC
 70
     2
  9
$MENU
  1
.
  9
$ELEVATION
 40
0.0
  9
$PELEVATION
 40
0.0
  9
$THICKNESS
 40
0.0
  9
$LIMCHECK
 70
     0
  9
$CHAMFERA
 40
0.0
  9
$CHAMFERB
 40
0.0
  9
$CHAMFERC
 40
0.0
  9
$CHAMFERD
 40
0.0
  9
$SKPOLY
 70
     0
  9
$TDCREATE
 40
2458323.443862789
  9
$TDUCREATE
 40
2458323.068862789
  9
$TDUPDATE
 40
2458324.389880139
  9
$TDUUPDATE
 40
2458324.014880139
  9
$TDINDWG
 40
0.0003491088
  9
$TDUSRTIMER
 40
2458324.014531505
  9
$USRTIMER
 70
     1
  9
$ANGBASE
 50
0.0
  9
$ANGDIR
 70
     0
  9
$PDMODE
 70
     0
  9
$PDSIZE
 40
-1.0
  9
$PLINEWID
 40
0.0
  9
$SPLFRAME
 70
     0
  9
$SPLINETYPE
 70
     6
  9
$SPLINESEGS
 70
     8
  9
$HANDSEED
  5
305
  9
$SURFTAB1
 70
     6
  9
$SURFTAB2
 70
     6
  9
$SURFTYPE
 70
     6
  9
$SURFU
 70
     6
  9
$SURFV
 70
     6
  9
$UCSBASE
  2

  9
$UCSNAME
  2

  9
$UCSORG
 10
0.0
 20
0.0
 30
0.0
  9
$UCSXDIR
 10
1.0
 20
0.0
 30
0.0
  9
$UCSYDIR
 10
0.0
 20
1.0
 30
0.0
  9
$UCSORTHOREF
  2

  9
$UCSORTHOVIEW
 70
     0
  9
$UCSORGTOP
 10
0.0
 20
0.0
 30
0.0
  9
$UCSORGBOTTOM
 10
0.0
 20
0.0
 30
0.0
  9
$UCSORGLEFT
 10
0.0
 20
0.0
 30
0.0
  9
$UCSORGRIGHT
 10
0.0
 20
0.0
 30
0.0
  9
$UCSORGFRONT
 10
0.0
 20
0.0
 30
0.0
  9
$UCSORGBACK
 10
0.0
 20
0.0
 30
0.0
  9
$PUCSBASE
  2

  9
$PUCSNAME
  2

  9
$PUCSORG
 10
0.0
 20
0.0
 30
0.0
  9
$PUCSXDIR
 10
1.0
 20
0.0
 30
0.0
  9
$PUCSYDIR
 10
0.0
 20
1.0
 30
0.0
  9
$PUCSORTHOREF
  2

  9
$PUCSORTHOVIEW
 70
     0
  9
$PUCSORGTOP
 10
0.0
 20
0.0
 30
0.0
  9
$PUCSORGBOTTOM
 10
0.0
 20
0.0
 30
0.0
  9
$PUCSORGLEFT
 10
0.0
 20
0.0
 30
0.0
  9
$PUCSORGRIGHT
 10
0.0
 20
0.0
 30
0.0
  9
$PUCSORGFRONT
 10
0.0
 20
0.0
 30
0.0
  9
$PUCSORGBACK
 10
0.0
 20
0.0
 30
0.0
  9
$USERI1
 70
     0
  9
$USERI2
 70
     0
  9
$USERI3
 70
     0
  9
$USERI4
 70
     0
  9
$USERI5
 70
     0
  9
$USERR1
 40
0.0
  9
$USERR2
 40
0.0
  9
$USERR3
 40
0.0
  9
$USERR4
 40
0.0
  9
$USERR5
 40
0.0
  9
$WORLDVIEW
 70
     1
  9
$SHADEDGE
 70
     3
  9
$SHADEDIF
 70
    70
  9
$TILEMODE
 70
     1
  9
$MAXACTVP
 70
    64
  9
$PINSBASE
 10
0.0
 20
0.0
 30
0.0
  9
$PLIMCHECK
 70
     0
  9
$PEXTMIN
 10
1.000000000000000E+20
 20
1.000000000000000E+20
 30
1.000000000000000E+20
  9
$PEXTMAX
 10
-1.000000000000000E+20
 20
-1.000000000000000E+20
 30
-1.000000000000000E+20
  9
$PLIMMIN
 10
0.0
 20
0.0
  9
$PLIMMAX
 10
0.0
 20
0.0
  9
$UNITMODE
 70
     0
  9
$VISRETAIN
 70
     1
  9
$PLINEGEN
 70
     0
  9
$PSLTSCALE
 70
     1
  9
$TREEDEPTH
 70
  3020
  9
$CMLSTYLE
  2
Standard
  9
$CMLJUST
 70
     0
  9
$CMLSCALE
 40
20.0
  9
$PROXYGRAPHICS
 70
     1
  9
$MEASUREMENT
 70
     1
  9
$CELWEIGHT
370
    -1
  9
$ENDCAPS
280
     0
  9
$JOINSTYLE
280
     0
  9
$LWDISPLAY
290
     1
  9
$INSUNITS
 70
     4
  9
$HYPERLINKBASE
  1

  9
$STYLESHEET
  1

  9
$XEDIT
290
     1
  9
$CEPSNTYPE
380
     0
  9
$PSTYLEMODE
290
     1
  9
$FINGERPRINTGUID
  2
{CF15C0B7-CEAB-4235-94DF-7388E3B33038}
  9
$VERSIONGUID
  2
{FAEB1C32-E019-11D5-929B-00C0DF256EC4}
  9
$EXTNAMES
290
     1
  9
$PSVPSCALE
 40
0.0
  9
$OLESTARTUP
290
     0
  0
ENDSEC
  0
SECTION
  2
CLASSES
  0
CLASS
  1
ACDBDICTIONARYWDFLT
  2
AcDbDictionaryWithDefault
  3
ObjectDBX Classes
 90
        0
280
     0
281
     0
  0
CLASS
  1
VISUALSTYLE
  2
AcDbVisualStyle
  3
ObjectDBX Classes
 90
     4095
280
     0
281
     0
  0
CLASS
  1
MATERIAL
  2
AcDbMaterial
  3
ObjectDBX Classes
 90
     1153
280
     0
281
     0
  0
CLASS
  1
SCALE
  2
AcDbScale
  3
ObjectDBX Classes
 90
     1153
280
     0
281
     0
  0
CLASS
  1
SUN
  2
AcDbSun
  3
SCENEOE
 90
     1153
280
     0
281
     0
  0
CLASS
  1
ACDBPLACEHOLDER
  2
AcDbPlaceHolder
  3
ObjectDBX Classes
 90
        0
280
     0
281
     0
  0
CLASS
  1
LAYOUT
  2
AcDbLayout
  3
ObjectDBX Classes
 90
        0
280
     0
281
     0
  0
CLASS
  1
TABLESTYLE
  2
AcDbTableStyle
  3
ObjectDBX Classes
 90
     4095
280
     0
281
     0
  0
CLASS
  1
MLEADERSTYLE
  2
AcDbMLeaderStyle
  3
ACDB_MLEADERSTYLE_CLASS
 90
     4095
280
     0
281
     0
  0
CLASS
  1
RASTERVARIABLES
  2
AcDbRasterVariables
  3
ISM
 90
        0
280
     0
281
     0
  0
ENDSEC
  0
SECTION
  2
TABLES
  0
TABLE
  2
VPORT
  5
8
330
0
100
AcDbSymbolTable
 70
     1
  0
VPORT
  5
29
330
8
100
AcDbSymbolTableRecord
100
AcDbViewportTableRecord
  2
*Active
 70
     0
 10
0.0
 20
0.0
 11
1.0
 21
1.0
 12
15.70591682655385
 22
-8.542022983133702
 13
0.0
 23
0.0
 14
10.0
 24
10.0
 15
10.0
 25
10.0
 16
0.0
 26
0.0
 36
1.0
 17
0.0
 27
0.0
 37
0.0
 40
154.7612832211374
 41
1.632093933463796
 42
50.0
 43
0.0
 44
0.0
 50
0.0
 51
0.0
 71
    16
 72
  2000
 73
     1
 74
     3
 75
     0
 76
     0
 77
     0
 78
     0
281
     0
 65
     1
110
0.0
120
0.0
130
0.0
111
1.0
121
0.0
131
0.0
112
0.0
122
1.0
132
0.0
 79
     0
146
0.0
  0
ENDTAB
  0
TABLE
  2
LTYPE
  5
5
330
0
100
AcDbSymbolTable
 70
     6
  0
LTYPE
  5
14
330
5
100
AcDbSymbolTableRecord
100
AcDbLinetypeTableRecord
  2
ByBlock
 70
     0
  3

 72
    65
 73
     0
 40
0.0
  0
LTYPE
  5
15
330
5
100
AcDbSymbolTableRecord
100
AcDbLinetypeTableRecord
  2
ByLayer
 70
     0
  3

 72
    65
 73
     0
 40
0.0
  0
LTYPE
  5
16
330
5
100
AcDbSymbolTableRecord
100
AcDbLinetypeTableRecord
  2
Continuous
 70
     0
  3
Solid line
 72
    65
 73
     0
 40
0.0
  0
LTYPE
  5
6A
330
5
100
AcDbSymbolTableRecord
100
AcDbLinetypeTableRecord
  2
HIDDEN
 70
     0
  3
Hidden __ __ __ __ __ __ __ __ __ __ __ __ __ __
 72
    65
 73
     2
 40
1.905
 49
1.27
 74
     0
 49
-0.635
 74
     0
  0
LTYPE
  5
6B
330
5
100
AcDbSymbolTableRecord
100
AcDbLinetypeTableRecord
  2
PHANTOM
 70
     0
  3
Phantom ______  __  __  ______  __  __  ______
 72
    65
 73
     6
 40
12.7
 49
6.35
 74
     0
 49
-1.27
 74
     0
 49
1.27
 74
     0
 49
-1.27
 74
     0
 49
1.27
 74
     0
 49
-1.27
 74
     0
  0
LTYPE
  5
6C
330
5
100
AcDbSymbolTableRecord
100
AcDbLinetypeTableRecord
  2
CENTER
 70
     0
  3
Center ____ _ ____ _ ____ _ ____ _ ____ _ ____
 72
    65
 73
     4
 40
10.16
 49
6.35
 74
     0
 49
-1.27
 74
     0
 49
1.27
 74
     0
 49
-1.27
 74
     0
  0
LTYPE
  5
6D
330
5
100
AcDbSymbolTableRecord
100
AcDbLinetypeTableRecord
  2
CENTERX2
 70
     0
  3
Center (2x) ________  __  ________  __  _____
 72
    65
 73
     4
 40
20.32
 49
12.7
 74
     0
 49
-2.54
 74
     0
 49
2.54
 74
     0
 49
-2.54
 74
     0
  0
LTYPE
  5
6E
330
5
100
AcDbSymbolTableRecord
100
AcDbLinetypeTableRecord
  2
DOT2
 70
     0
  3
Dot (.5x) ........................................
 72
    65
 73
     2
 40
0.635
 49
0.0
 74
     0
 49
-0.635
 74
     0
  0
ENDTAB
  0
TABLE
  2
LAYER
  5
2
102
{ACAD_XDICTIONARY
360
214
102
}
330
0
100
AcDbSymbolTable
 70
    18
  0
LAYER
  5
10
330
2
100
AcDbSymbolTableRecord
100
AcDbLayerTableRecord
  2
0
 70
     0
 62
     7
  6
Continuous
370
    -3
390
F
  0
LAYER
  5
6F
330
2
100
AcDbSymbolTableRecord
100
AcDbLayerTableRecord
  2
FORMAT
 70
     0
 62
     2
  6
Continuous
370
    -3
390
F
  0
LAYER
  5
70
330
2
100
AcDbSymbolTableRecord
100
AcDbLayerTableRecord
  2
외형선
 70
     0
 62
     4
  6
Continuous
370
    30
390
F
  0
LAYER
  5
71
330
2
100
AcDbSymbolTableRecord
100
AcDbLayerTableRecord
  2
숨은선
 70
     0
 62
     2
  6
HIDDEN
370
    15
390
F
  0
LAYER
  5
72
330
2
100
AcDbSymbolTableRecord
100
AcDbLayerTableRecord
  2
중심선
 70
     0
 62
     1
  6
CENTERX2
370
    -3
390
F
  0
LAYER
  5
73
330
2
100
AcDbSymbolTableRecord
100
AcDbLayerTableRecord
  2
파단선
 70
     0
 62
     4
  6
Continuous
370
    -3
390
F
  0
LAYER
  5
74
330
2
100
AcDbSymbolTableRecord
100
AcDbLayerTableRecord
  2
해칭선
 70
     0
 62
   100
  6
Continuous
370
    -3
390
F
  0
LAYER
  5
75
330
2
100
AcDbSymbolTableRecord
100
AcDbLayerTableRecord
  2
가는실선
 70
     0
 62
     4
  6
Continuous
370
    -3
390
F
  0
LAYER
  5
76
330
2
100
AcDbSymbolTableRecord
100
AcDbLayerTableRecord
  2
치수_보조선
 70
     0
 62
     4
  6
Continuous
370
    -3
390
F
  0
LAYER
  5
77
330
2
100
AcDbSymbolTableRecord
100
AcDbLayerTableRecord
  2
치수문자_일반주서
 70
     0
 62
     7
  6
Continuous
370
    15
390
F
  0
LAYER
  5
78
330
2
100
AcDbSymbolTableRecord
100
AcDbLayerTableRecord
  2
개별주서
 70
     0
 62
   100
  6
Continuous
370
    30
390
F
  0
LAYER
  5
79
330
2
100
AcDbSymbolTableRecord
100
AcDbLayerTableRecord
  2
중간선
 70
     0
 62
     2
  6
Continuous
370
    15
390
F
  0
LAYER
  5
7A
330
2
100
AcDbSymbolTableRecord
100
AcDbLayerTableRecord
  2
윤곽선
 70
     0
 62
     3
  6
Continuous
370
    40
390
F
  0
LAYER
  5
7B
330
2
100
AcDbSymbolTableRecord
100
AcDbLayerTableRecord
  2
중심마크
 70
     0
 62
   100
  6
Continuous
370
    30
390
F
  0
LAYER
  5
7C
330
2
100
AcDbSymbolTableRecord
100
AcDbLayerTableRecord
  2
가상선
 70
     0
 62
     4
  6
PHANTOM
370
    -3
390
F
  0
LAYER
  5
7D
330
2
100
AcDbSymbolTableRecord
100
AcDbLayerTableRecord
  2
특수지정선
 70
     0
 62
     5
  6
CENTERX2
370
    60
390
F
  0
LAYER
  5
7E
330
2
100
AcDbSymbolTableRecord
100
AcDbLayerTableRecord
  2
참조1
 70
     0
 62
    -4
  6
Continuous
370
    -3
390
F
  0
LAYER
  5
15C
330
2
100
AcDbSymbolTableRecord
100
AcDbLayerTableRecord
  2
Defpoints
 70
     0
 62
     7
  6
Continuous
290
     0
370
    -3
390
F
  0
ENDTAB
  0
TABLE
  2
STYLE
  5
3
330
0
100
AcDbSymbolTable
 70
     2
  0
STYLE
  5
11
330
3
100
AcDbSymbolTableRecord
100
AcDbTextStyleTableRecord
  2
Standard
 70
     0
 40
0.0
 41
1.0
 50
0.0
 71
     0
 42
3.5
  3
txt
  4

  0
STYLE
  5
94
330
3
100
AcDbSymbolTableRecord
100
AcDbTextStyleTableRecord
  2
SLDTEXTSTYLE0
 70
     0
 40
0.0
 41
0.75
 50
0.0
 71
     0
 42
3.5
  3
TXT
  4

  0
ENDTAB
  0
TABLE
  2
VIEW
  5
6
330
0
100
AcDbSymbolTable
 70
     0
  0
ENDTAB
  0
TABLE
  2
UCS
  5
7
330
0
100
AcDbSymbolTable
 70
     0
  0
ENDTAB
  0
TABLE
  2
APPID
  5
9
330
0
100
AcDbSymbolTable
 70
     3
  0
APPID
  5
12
330
9
100
AcDbSymbolTableRecord
100
AcDbRegAppTableRecord
  2
ACAD
 70
     0
  0
APPID
  5
166
330
9
100
AcDbSymbolTableRecord
100
AcDbRegAppTableRecord
  2
PE_URL
 70
     0
  0
APPID
  5
167
330
9
100
AcDbSymbolTableRecord
100
AcDbRegAppTableRecord
  2
ACAD_DSTYLE_DIMRADIAL_EXTENSION
 70
     0
  0
ENDTAB
  0
TABLE
  2
DIMSTYLE
  5
A
330
0
100
AcDbSymbolTable
 70
     4
100
AcDbDimStyleTable
  0
DIMSTYLE
105
27
330
A
100
AcDbSymbolTableRecord
100
AcDbDimStyleTableRecord
  2
ISO-25
 70
     0
 41
2.5
 42
0.625
 43
3.75
 44
1.25
 73
     0
 74
     0
 77
     1
 78
     8
140
2.5
141
2.5
143
0.03937007874016
147
0.625
171
     3
172
     1
178
     0
271
     2
272
     2
274
     3
278
    44
283
     0
284
     8
340
11
  0
DIMSTYLE
105
DB
102
{ACAD_REACTORS
330
DA
330
103
330
EF
330
116
102
}
330
A
100
AcDbSymbolTableRecord
100
AcDbDimStyleTableRecord
  2
SLDDIMSTYLE0
 70
     0
 41
3.302
 44
0.0
 45
0.000000001
 73
     0
 74
     0
 77
     1
 78
     4
 79
     1
140
3.5
143
0.0393700787401575
147
0.875
148
0.000000001
170
     1
172
     1
173
     1
178
     0
271
     2
272
     2
276
     2
284
    12
289
     0
340
94
  0
DIMSTYLE
105
F0
330
A
100
AcDbSymbolTableRecord
100
AcDbDimStyleTableRecord
  2
SLDDIMSTYLE1
 70
     0
 41
3.302
 44
0.0
 45
0.000000001
 73
     0
 74
     0
 77
     1
 78
     4
 79
     1
140
3.5
143
0.0393700787401575
147
0.875
148
0.000000001
170
     1
173
     1
178
     0
271
     2
272
     2
276
     2
284
    12
340
94
  0
DIMSTYLE
105
164
102
{ACAD_REACTORS
330
1E0
330
1C6
330
1D3
330
1FA
330
205
102
}
330
A
100
AcDbSymbolTableRecord
100
AcDbDimStyleTableRecord
  2
SLDDIMSTYLE2
 70
     0
 41
3.302
 44
0.0
 45
0.000000001
 73
     0
 74
     0
 77
     1
 78
    12
 79
     3
140
3.5
147
0.875
172
     1
173
     1
178
     0
271
     2
272
     2
276
     2
284
    12
289
     0
340
94
  0
ENDTAB
  0
TABLE
  2
BLOCK_RECORD
  5
1
330
0
100
AcDbSymbolTable
 70
    19
  0
BLOCK_RECORD
  5
1F
330
1
100
AcDbSymbolTableRecord
100
AcDbBlockTableRecord
  2
*Model_Space
340
22
  0
BLOCK_RECORD
  5
1B
330
1
100
AcDbSymbolTableRecord
100
AcDbBlockTableRecord
  2
*Paper_Space
340
1E
  0
BLOCK_RECORD
  5
23
330
1
100
AcDbSymbolTableRecord
100
AcDbBlockTableRecord
  2
*Paper_Space0
340
26
  0
BLOCK_RECORD
  5
7F
330
1
100
AcDbSymbolTableRecord
100
AcDbBlockTableRecord
  2
블럭10
340
0
102
{BLKREFS
331
D3
102
}
  0
BLOCK_RECORD
  5
DC
330
1
100
AcDbSymbolTableRecord
100
AcDbBlockTableRecord
  2
_D
340
0
  0
BLOCK_RECORD
  5
F1
330
1
100
AcDbSymbolTableRecord
100
AcDbBlockTableRecord
  2
_D_1
340
0
  0
BLOCK_RECORD
  5
104
330
1
100
AcDbSymbolTableRecord
100
AcDbBlockTableRecord
  2
_D_2
340
0
  0
BLOCK_RECORD
  5
117
330
1
100
AcDbSymbolTableRecord
100
AcDbBlockTableRecord
  2
_D_3
340
0
  0
BLOCK_RECORD
  5
130
330
1
100
AcDbSymbolTableRecord
100
AcDbBlockTableRecord
  2
SW_DOWELSYMBOL_0
340
0
102
{BLKREFS
331
136
331
1EF
331
0
102
}
  0
BLOCK_RECORD
  5
1FB
330
1
100
AcDbSymbolTableRecord
100
AcDbBlockTableRecord
  2
*D8
340
0
  0
BLOCK_RECORD
  5
206
330
1
100
AcDbSymbolTableRecord
100
AcDbBlockTableRecord
  2
*D9
340
0
  0
BLOCK_RECORD
  5
218
330
1
100
AcDbSymbolTableRecord
100
AcDbBlockTableRecord
  2
*D10
340
0
  0
BLOCK_RECORD
  5
224
330
1
100
AcDbSymbolTableRecord
100
AcDbBlockTableRecord
  2
*D11
340
0
  0
BLOCK_RECORD
  5
230
330
1
100
AcDbSymbolTableRecord
100
AcDbBlockTableRecord
  2
*D12
340
0
  0
BLOCK_RECORD
  5
28A
330
1
100
AcDbSymbolTableRecord
100
AcDbBlockTableRecord
  2
*D13
340
0
  0
BLOCK_RECORD
  5
296
330
1
100
AcDbSymbolTableRecord
100
AcDbBlockTableRecord
  2
*D14
340
0
  0
BLOCK_RECORD
  5
2A2
330
1
100
AcDbSymbolTableRecord
100
AcDbBlockTableRecord
  2
*D15
340
0
  0
BLOCK_RECORD
  5
2B0
330
1
100
AcDbSymbolTableRecord
100
AcDbBlockTableRecord
  2
*D16
340
0
  0
BLOCK_RECORD
  5
2B9
330
1
100
AcDbSymbolTableRecord
100
AcDbBlockTableRecord
  2
*D17
340
0
  0
ENDTAB
  0
ENDSEC
  0
SECTION
  2
BLOCKS
  0
BLOCK
  5
20
330
1F
100
AcDbEntity
  8
0
100
AcDbBlockBegin
  2
*Model_Space
 70
     0
 10
0.0
 20
0.0
 30
0.0
  3
*Model_Space
  1
*Model_Space
  0
ENDBLK
  5
21
330
1F
100
AcDbEntity
  8
0
100
AcDbBlockEnd
  0
BLOCK
  5
1C
330
1B
100
AcDbEntity
 67
     1
  8
0
100
AcDbBlockBegin
  2
*Paper_Space
 70
     0
 10
0.0
 20
0.0
 30
0.0
  3
*Paper_Space
  1
*Paper_Space
  0
ENDBLK
  5
1D
330
1B
100
AcDbEntity
 67
     1
  8
0
100
AcDbBlockEnd
  0
BLOCK
  5
24
330
23
100
AcDbEntity
  8
0
100
AcDbBlockBegin
  2
*Paper_Space0
 70
     0
 10
0.0
 20
0.0
 30
0.0
  3
*Paper_Space0
  1
*Paper_Space0
  0
ENDBLK
  5
25
330
23
100
AcDbEntity
  8
0
100
AcDbBlockEnd
  0
BLOCK
  5
80
330
7F
100
AcDbEntity
  8
0
100
AcDbBlockBegin
  2
블럭10
 70
     2
 10
0.0
 20
0.0
 30
0.0
  3
블럭10
  1
블럭10
  0
ELLIPSE
  5
82
330
7F
100
AcDbEntity
  8
중심선
100
AcDbEllipse
 10
20.54032771741204
 20
12.0471743016438
 30
0.0
 11
6.600054785286829
 21
-1.261213355974178E-13
 31
0.0
210
0.0
220
0.0
230
1.0
 40
0.636358354079598
 41
0.9219305317359503
 42
6.513795318482858
  0
ELLIPSE
  5
83
330
7F
100
AcDbEntity
  8
중심선
100
AcDbEllipse
 10
20.54032771746488
 20
12.04717430159265
 30
0.0
 11
3.960054785062283
 21
1.540847449632565E-10
 31
0.0
210
0.0
220
0.0
230
1.0
 40
0.3939339440162632
 41
1.131841032648279
 42
5.62031148352944
  0
LINE
  5
84
330
7F
100
AcDbEntity
  8
중심선
100
AcDbLine
 10
2.268634060543552
 20
16.24717430164393
 30
0.0
 11
5.714909304380834
 21
16.24717430164393
 31
0.0
  0
LINE
  5
85
330
7F
100
AcDbEntity
  8
중심선
100
AcDbLine
 10
5.245725140726316
 20
7.84717430164391
 30
0.0
 11
8.692000384563599
 21
7.84717430164391
 31
0.0
  0
LINE
  5
86
330
7F
100
AcDbEntity
  8
중심선
100
AcDbLine
 10
15.74043728645272
 20
16.24717430164393
 30
0.0
 11
8.692000384563599
 21
7.84717430164391
 31
0.0
  0
LINE
  5
87
330
7F
100
AcDbEntity
  8
중심선
100
AcDbLine
 10
0.1404042013395286
 20
13.71084872107135
 30
0.0
 11
3.58671253028996
 21
13.71088815037384
 31
0.0
  0
LINE
  5
88
330
7F
100
AcDbEntity
  8
중심선
100
AcDbLine
 10
2.750260043222114
 20
10.84717430164391
 30
0.0
 11
6.196535287059397
 21
10.84717430164391
 31
0.0
  0
LINE
  5
89
330
7F
100
AcDbEntity
  8
중심선
100
AcDbLine
 10
12.29416204261559
 20
16.24717430164393
 30
0.0
 11
5.245725140726316
 21
7.84717430164391
 31
0.0
  0
LINE
  5
8A
330
7F
100
AcDbEntity
  8
중심선
100
AcDbLine
 10
10.72767329541681
 20
16.24717430164393
 30
0.0
 11
6.196535287059397
 21
10.84717430164391
 31
0.0
  0
LINE
  5
8B
330
7F
100
AcDbEntity
  8
중심선
100
AcDbLine
 10
7.28139805157953
 20
16.24717430164393
 30
0.0
 11
2.750260043222114
 21
10.84717430164391
 31
0.0
  0
LINE
  5
8C
330
7F
100
AcDbEntity
  8
중심선
100
AcDbLine
 10
5.714909304380834
 20
16.24717430164393
 30
0.0
 11
3.58671253028996
 21
13.71088815037384
 31
0.0
  0
LINE
  5
8D
330
7F
100
AcDbEntity
  8
중심선
100
AcDbLine
 10
2.268634060543552
 20
16.24717430164393
 30
0.0
 11
0.1404042013395286
 21
13.71084872107135
 31
0.0
  0
LINE
  5
8E
330
7F
100
AcDbEntity
  8
중심선
100
AcDbLine
 10
7.28139805157953
 20
16.24717430164393
 30
0.0
 11
10.72767329541681
 21
16.24717430164393
 31
0.0
  0
LINE
  5
8F
330
7F
100
AcDbEntity
  8
중심선
100
AcDbLine
 10
12.29416204261559
 20
16.24717430164393
 30
0.0
 11
15.74043728645272
 21
16.24717430164393
 31
0.0
  0
LINE
  5
90
330
7F
100
AcDbEntity
  8
중심선
100
AcDbLine
 10
19.22036997980202
 20
11.08717430171403
 30
0.0
 11
23.66174974927406
 21
11.08717430171406
 31
0.0
  0
LINE
  5
91
330
7F
100
AcDbEntity
  8
중심선
100
AcDbLine
 10
19.22039502424796
 20
13.00717430171391
 30
0.0
 11
19.22036997980202
 21
11.08717430171403
 31
0.0
  0
LINE
  5
92
330
7F
100
AcDbEntity
  8
중심선
100
AcDbLine
 10
19.22039502424796
 20
13.00717430171391
 30
0.0
 11
26.96566020931264
 21
13.00717430171391
 31
0.0
  0
LINE
  5
93
330
7F
100
AcDbEntity
  8
중심선
100
AcDbLine
 10
22.22332737316547
 20
13.45928029700563
 30
0.0
 11
24.52862924686651
 21
15.39360700705356
 31
0.0
  0
ATTDEF
  5
95
330
7F
100
AcDbEntity
  8
FORMAT
 62
     2
100
AcDbText
 10
4.408487351596664
 20
2.075366912832191
 30
0.0
 40
4.233333333333333
  1
E2032064
 41
0.75
  7
SLDTEXTSTYLE0
 11
4.408487351596664
 21
-0.0412997538344756
 31
0.0
100
AcDbAttributeDefinition
  3

  2
AUTOATTR0
 70
     0
 74
     1
  0
ENDBLK
  5
81
330
7F
100
AcDbEntity
  8
0
100
AcDbBlockEnd
  0
BLOCK
  5
DD
330
DC
100
AcDbEntity
  8
0
100
AcDbBlockBegin
  2
_D
 70
     0
 10
0.0
 20
0.0
 30
0.0
  3
_D
  1
_D
  0
LINE
  5
DF
330
DC
100
AcDbEntity
  8
치수문자_일반주서
 62
     0
370
    -2
100
AcDbLine
 10
-49.02249999999997
 20
12.70107492872388
 30
0.0
 11
-63.54750000000001
 21
12.70107492872383
 31
0.0
  0
LINE
  5
E0
330
DC
100
AcDbEntity
  8
치수문자_일반주서
 62
     0
370
    -2
100
AcDbLine
 10
-49.02249999999997
 20
-12.69892507127609
 30
0.0
 11
-63.54749999999993
 21
-12.69892507127615
 31
0.0
  0
LINE
  5
E1
330
DC
100
AcDbEntity
  8
치수문자_일반주서
 62
     0
370
    -2
100
AcDbLine
 10
-63.5475
 20
9.399074928723833
 30
0.0
 11
-63.54749999999994
 21
-9.396925071276145
 31
0.0
  0
SOLID
  5
E2
330
DC
100
AcDbEntity
  8
치수문자_일반주서
 62
     0
100
AcDbTrace
 10
-62.99716666666666
 20
9.399074928723834
 30
0.0
 11
-64.09783333333333
 21
9.39907492872383
 31
0.0
 12
-63.54750000000001
 22
12.70107492872383
 32
0.0
 13
-63.54750000000001
 23
12.70107492872383
 33
0.0
  0
SOLID
  5
E3
330
DC
100
AcDbEntity
  8
치수문자_일반주서
 62
     0
100
AcDbTrace
 10
-64.09783333333327
 20
-9.396925071276147
 30
0.0
 11
-62.99716666666661
 21
-9.396925071276144
 31
0.0
 12
-63.54749999999993
 22
-12.69892507127615
 32
0.0
 13
-63.54749999999993
 23
-12.69892507127615
 33
0.0
  0
MTEXT
  5
E4
330
DC
100
AcDbEntity
  8
치수문자_일반주서
 62
     0
100
AcDbMText
 10
-67.92249999999997
 20
0.0010749287238656
 30
0.0
 40
3.5
 41
0.0
 71
     2
 72
     1
  1
\A1;%%c25.40 [1]
  7
SLDTEXTSTYLE0
 11
-3.356894814614649E-15
 21
1.0
 31
0.0
 73
     1
 44
1.0
  0
POINT
  5
E5
330
DC
100
AcDbEntity
  8
Defpoints
 62
     0
100
AcDbPoint
 10
-48.95999999999997
 20
12.70107492872388
 30
0.0
  0
POINT
  5
E6
330
DC
100
AcDbEntity
  8
Defpoints
 62
     0
100
AcDbPoint
 10
-48.95999999999997
 20
-12.69892507127609
 30
0.0
  0
POINT
  5
E7
330
DC
100
AcDbEntity
  8
Defpoints
 62
     0
100
AcDbPoint
 10
-63.54749999999993
 20
-12.69892507127615
 30
0.0
  0
ENDBLK
  5
DE
330
DC
100
AcDbEntity
  8
0
100
AcDbBlockEnd
  0
BLOCK
  5
F2
330
F1
100
AcDbEntity
  8
0
100
AcDbBlockBegin
  2
_D_1
 70
     0
 10
0.0
 20
0.0
 30
0.0
  3
_D_1
  1
_D_1
  0
LINE
  5
F4
330
F1
100
AcDbEntity
  8
치수문자_일반주서
 62
     0
370
    -2
100
AcDbLine
 10
62.80000000000001
 20
12.7635749287239
 30
0.0
 11
62.80000000000001
 21
35.14838386579974
 31
0.0
  0
LINE
  5
F5
330
F1
100
AcDbEntity
  8
치수문자_일반주서
 62
     0
370
    -2
100
AcDbLine
 10
12.00000000000002
 20
12.73433633864846
 30
0.0
 11
12.00000000000002
 21
35.14838386579974
 31
0.0
  0
LINE
  5
F6
330
F1
100
AcDbEntity
  8
치수문자_일반주서
 62
     0
370
    -2
100
AcDbLine
 10
59.49800000000001
 20
35.14838386579974
 30
0.0
 11
15.30200000000002
 21
35.14838386579974
 31
0.0
  0
SOLID
  5
F7
330
F1
100
AcDbEntity
  8
치수문자_일반주서
 62
     0
100
AcDbTrace
 10
59.49800000000001
 20
34.59805053246641
 30
0.0
 11
59.49800000000001
 21
35.69871719913308
 31
0.0
 12
62.80000000000001
 22
35.14838386579974
 32
0.0
 13
62.80000000000001
 23
35.14838386579974
 33
0.0
  0
SOLID
  5
F8
330
F1
100
AcDbEntity
  8
치수문자_일반주서
 62
     0
100
AcDbTrace
 10
15.30200000000002
 20
35.69871719913308
 30
0.0
 11
15.30200000000002
 21
34.59805053246641
 31
0.0
 12
12.00000000000002
 22
35.14838386579974
 32
0.0
 13
12.00000000000002
 23
35.14838386579974
 33
0.0
  0
MTEXT
  5
F9
330
F1
100
AcDbEntity
  8
치수문자_일반주서
 62
     0
100
AcDbMText
 10
37.40000000000002
 20
39.52338386579974
 30
0.0
 40
3.5
 41
0.0
 71
     2
 72
     1
  1
\A1;50.80 [2]
  7
SLDTEXTSTYLE0
 73
     1
 44
1.0
  0
POINT
  5
FA
330
F1
100
AcDbEntity
  8
Defpoints
 62
     0
100
AcDbPoint
 10
62.80000000000001
 20
12.7010749287239
 30
0.0
  0
POINT
  5
FB
330
F1
100
AcDbEntity
  8
Defpoints
 62
     0
100
AcDbPoint
 10
12.00000000000002
 20
12.67183633864846
 30
0.0
  0
POINT
  5
FC
330
F1
100
AcDbEntity
  8
Defpoints
 62
     0
100
AcDbPoint
 10
12.00000000000002
 20
35.14838386579974
 30
0.0
  0
ENDBLK
  5
F3
330
F1
100
AcDbEntity
  8
0
100
AcDbBlockEnd
  0
BLOCK
  5
105
330
104
100
AcDbEntity
  8
0
100
AcDbBlockBegin
  2
_D_2
 70
     0
 10
0.0
 20
0.0
 30
0.0
  3
_D_2
  1
_D_2
  0
LINE
  5
107
330
104
100
AcDbEntity
  8
치수문자_일반주서
 62
     0
370
    -2
100
AcDbLine
 10
62.80000000000001
 20
12.7635749287239
 30
0.0
 11
62.80000000000001
 21
47.14838386579975
 31
0.0
  0
LINE
  5
108
330
104
100
AcDbEntity
  8
치수문자_일반주서
 62
     0
370
    -2
100
AcDbLine
 10
-51.49999999999999
 20
10.2235749287239
 30
0.0
 11
-51.49999999999999
 21
47.14838386579975
 31
0.0
  0
LINE
  5
109
330
104
100
AcDbEntity
  8
치수문자_일반주서
 62
     0
370
    -2
100
AcDbLine
 10
59.49800000000001
 20
47.14838386579975
 30
0.0
 11
-48.19799999999999
 21
47.14838386579975
 31
0.0
  0
SOLID
  5
10A
330
104
100
AcDbEntity
  8
치수문자_일반주서
 62
     0
100
AcDbTrace
 10
59.49800000000001
 20
46.59805053246642
 30
0.0
 11
59.49800000000001
 21
47.69871719913309
 31
0.0
 12
62.80000000000001
 22
47.14838386579975
 32
0.0
 13
62.80000000000001
 23
47.14838386579975
 33
0.0
  0
SOLID
  5
10B
330
104
100
AcDbEntity
  8
치수문자_일반주서
 62
     0
100
AcDbTrace
 10
-48.19799999999999
 20
47.69871719913309
 30
0.0
 11
-48.19799999999999
 21
46.59805053246642
 31
0.0
 12
-51.49999999999999
 22
47.14838386579975
 32
0.0
 13
-51.49999999999999
 23
47.14838386579975
 33
0.0
  0
MTEXT
  5
10C
330
104
100
AcDbEntity
  8
치수문자_일반주서
 62
     0
100
AcDbMText
 10
5.650000000000013
 20
51.52338386579975
 30
0.0
 40
3.5
 41
0.0
 71
     2
 72
     1
  1
\A1;114.30 [4 1/2]
  7
SLDTEXTSTYLE0
 73
     1
 44
1.0
  0
POINT
  5
10D
330
104
100
AcDbEntity
  8
Defpoints
 62
     0
100
AcDbPoint
 10
62.80000000000001
 20
12.7010749287239
 30
0.0
  0
POINT
  5
10E
330
104
100
AcDbEntity
  8
Defpoints
 62
     0
100
AcDbPoint
 10
-51.49999999999999
 20
10.1610749287239
 30
0.0
  0
POINT
  5
10F
330
104
100
AcDbEntity
  8
Defpoints
 62
     0
100
AcDbPoint
 10
-51.49999999999999
 20
47.14838386579975
 30
0.0
  0
ENDBLK
  5
106
330
104
100
AcDbEntity
  8
0
100
AcDbBlockEnd
  0
BLOCK
  5
118
330
117
100
AcDbEntity
  8
0
100
AcDbBlockBegin
  2
_D_3
 70
     0
 10
0.0
 20
0.0
 30
0.0
  3
_D_3
  1
_D_3
  0
LINE
  5
11A
330
117
100
AcDbEntity
  8
치수문자_일반주서
 62
     0
370
    -2
100
AcDbLine
 10
62.86250000000001
 20
12.7010749287239
 30
0.0
 11
80.30185093814104
 21
12.70107492872396
 31
0.0
  0
LINE
  5
11B
330
117
100
AcDbEntity
  8
치수문자_일반주서
 62
     0
370
    -2
100
AcDbLine
 10
62.86250000000001
 20
-12.69892507127611
 30
0.0
 11
80.30185093814113
 21
-12.69892507127604
 31
0.0
  0
LINE
  5
11C
330
117
100
AcDbEntity
  8
치수문자_일반주서
 62
     0
370
    -2
100
AcDbLine
 10
80.30185093814104
 20
12.70107492872396
 30
0.0
 11
80.30185093814092
 21
50.84409423212328
 31
0.0
  0
LINE
  5
11D
330
117
100
AcDbEntity
  8
치수문자_일반주서
 62
     0
370
    -2
100
AcDbLine
 10
80.30185093814104
 20
12.70107492872396
 30
0.0
 11
80.30185093814113
 21
-12.69892507127604
 31
0.0
  0
LINE
  5
11E
330
117
100
AcDbEntity
  8
치수문자_일반주서
 62
     0
370
    -2
100
AcDbLine
 10
80.30185093814103
 20
16.00307492872396
 30
0.0
 11
80.30185093814102
 21
19.30507492872396
 31
0.0
  0
LINE
  5
11F
330
117
100
AcDbEntity
  8
치수문자_일반주서
 62
     0
370
    -2
100
AcDbLine
 10
80.30185093814114
 20
-16.00092507127604
 30
0.0
 11
80.30185093814116
 21
-19.30292507127604
 31
0.0
  0
SOLID
  5
120
330
117
100
AcDbEntity
  8
치수문자_일반주서
 62
     0
100
AcDbTrace
 10
79.7515176048077
 20
16.00307492872395
 30
0.0
 11
80.85218427147436
 21
16.00307492872396
 31
0.0
 12
80.30185093814104
 22
12.70107492872396
 32
0.0
 13
80.30185093814104
 23
12.70107492872396
 33
0.0
  0
SOLID
  5
121
330
117
100
AcDbEntity
  8
치수문자_일반주서
 62
     0
100
AcDbTrace
 10
80.85218427147447
 20
-16.00092507127604
 30
0.0
 11
79.75151760480782
 21
-16.00092507127605
 31
0.0
 12
80.30185093814113
 22
-12.69892507127604
 32
0.0
 13
80.30185093814113
 23
-12.69892507127604
 33
0.0
  0
MTEXT
  5
122
330
117
100
AcDbEntity
  8
치수문자_일반주서
 62
     0
100
AcDbMText
 10
75.92685093814096
 20
39.68784423212327
 30
0.0
 40
3.5
 41
0.0
 71
     2
 72
     1
  1
\A1;%%c25.40 [1]
  7
SLDTEXTSTYLE0
 11
-3.356894814614646E-15
 21
1.0
 31
0.0
 73
     1
 44
1.0
  0
POINT
  5
123
330
117
100
AcDbEntity
  8
Defpoints
 62
     0
100
AcDbPoint
 10
62.80000000000001
 20
12.7010749287239
 30
0.0
  0
POINT
  5
2C7
330
117
100
AcDbEntity
  8
Defpoints
 62
     0
100
AcDbPoint
 10
62.80000000000001
 20
-12.69892507127611
 30
0.0
  0
POINT
  5
2C8
330
117
100
AcDbEntity
  8
Defpoints
 62
     0
100
AcDbPoint
 10
80.30185093814113
 20
-12.69892507127604
 30
0.0
  0
ENDBLK
  5
119
330
117
100
AcDbEntity
  8
0
100
AcDbBlockEnd
  0
BLOCK
  5
131
330
130
100
AcDbEntity
  8
0
100
AcDbBlockBegin
  2
SW_DOWELSYMBOL_0
 70
     0
 10
0.0
 20
0.0
 30
0.0
  3
SW_DOWELSYMBOL_0
  1
SW_DOWELSYMBOL_0
  0
CIRCLE
  5
133
330
130
100
AcDbEntity
  8
해칭선
 62
     0
100
AcDbCircle
 10
0.0
 20
0.0
 30
0.0
 40
3.000000000000001
  0
HATCH
  5
134
330
130
100
AcDbEntity
  8
0
  6
Continuous
 62
     0
370
     0
100
AcDbHatch
 10
0.0
 20
0.0
 30
0.0
210
0.0
220
0.0
230
1.0
  2
SOLID
 70
     1
 71
     0
 91
        1
 92
        0
 93
        3
 72
     2
 10
0.0
 20
0.0
 40
3.000000000000001
 50
0.0
 51
90.0
 73
     1
 72
     1
 10
0.0
 20
3.000000000000001
 11
0.0
 21
0.0
 72
     1
 10
0.0
 20
0.0
 11
3.000000000000001
 21
0.0
 97
        0
 75
     0
 76
     1
 98
        1
 10
0.0
 20
0.0
  0
HATCH
  5
135
330
130
100
AcDbEntity
  8
0
  6
Continuous
 62
     0
370
     0
100
AcDbHatch
 10
0.0
 20
0.0
 30
0.0
210
0.0
220
0.0
230
1.0
  2
SOLID
 70
     1
 71
     0
 91
        1
 92
        0
 93
        3
 72
     2
 10
0.0
 20
0.0
 40
3.000000000000001
 50
180.0
 51
270.0000000000008
 73
     1
 72
     1
 10
0.0
 20
-3.000000000000001
 11
0.0
 21
0.0
 72
     1
 10
0.0
 20
0.0
 11
-3.000000000000001
 21
0.0
 97
        0
 75
     0
 76
     1
 98
        1
 10
0.0
 20
0.0
  0
ENDBLK
  5
132
330
130
100
AcDbEntity
  8
0
100
AcDbBlockEnd
  0
BLOCK
  5
1FC
330
1FB
100
AcDbEntity
  8
0
100
AcDbBlockBegin
  2
*D8
 70
     1
 10
0.0
 20
0.0
 30
0.0
  3
*D8
  1
*D19
  0
LINE
  5
1FD
330
1FB
100
AcDbEntity
  8
치수문자_일반주서
 62
     0
370
    -2
100
AcDbLine
 10
122.2075719207232
 20
21.09418497419865
 30
0.0
 11
139.6519314323745
 21
-0.000000000000079
 31
0.0
  0
MTEXT
  5
1FE
330
1FB
100
AcDbEntity
  8
치수문자_일반주서
 62
     0
100
AcDbMText
 10
140.03527720752
 20
4.047751970745924
 30
0.0
 40
4.0
 41
0.0
 71
     5
 72
     1
  1
\A1;R1
  7
SLDTEXTSTYLE0
 11
0.6372880340174896
 21
-0.7706256949376417
 31
0.0
 73
     1
 44
1.0
  0
LINE
  5
1FF
330
1FB
100
AcDbEntity
  8
치수문자_일반주서
 62
     0
370
    -2
100
AcDbLine
 10
119.0211317506357
 20
24.94731344888685
 30
0.0
 11
119.6584197846532
 21
24.17668775394921
 31
0.0
  0
SOLID
  5
200
330
1FB
100
AcDbEntity
  8
치수문자_일반주서
 62
     0
100
AcDbTrace
 10
122.7213223840149
 20
21.51904366354364
 30
0.0
 11
121.6938214574314
 21
20.66932628485365
 31
0.0
 12
119.6584197846532
 22
24.17668775394921
 32
0.0
 13
119.6584197846532
 23
24.17668775394921
 33
0.0
  0
POINT
  5
201
330
1FB
100
AcDbEntity
  8
Defpoints
 62
     0
100
AcDbPoint
 10
119.6584197846532
 20
24.17668775394921
 30
0.0
  0
POINT
  5
202
330
1FB
100
AcDbEntity
  8
Defpoints
 62
     0
100
AcDbPoint
 10
119.0211317506357
 20
24.94731344888685
 30
0.0
  0
ENDBLK
  5
203
330
1FB
100
AcDbEntity
  8
0
100
AcDbBlockEnd
  0
BLOCK
  5
207
330
206
100
AcDbEntity
  8
0
100
AcDbBlockBegin
  2
*D9
 70
     1
 10
0.0
 20
0.0
 30
0.0
  3
*D9
  1
*D20
  0
LINE
  5
208
330
206
100
AcDbEntity
  8
치수문자_일반주서
 62
     0
370
    -2
100
AcDbLine
 10
120.0836317506357
 20
43.94731344888685
 30
0.0
 11
136.2577258430566
 21
43.94731344888685
 31
0.0
  0
LINE
  5
209
330
206
100
AcDbEntity
  8
치수문자_일반주서
 62
     0
370
    -2
100
AcDbLine
 10
120.0836317506357
 20
23.94731344888685
 30
0.0
 11
136.2577258430566
 21
23.94731344888685
 31
0.0
  0
LINE
  5
20A
330
206
100
AcDbEntity
  8
치수문자_일반주서
 62
     0
370
    -2
100
AcDbLine
 10
136.2577258430566
 20
43.94731344888685
 30
0.0
 11
136.2577258430566
 21
23.94731344888685
 31
0.0
  0
LINE
  5
20B
330
206
100
AcDbEntity
  8
치수문자_일반주서
 62
     0
370
    -2
100
AcDbLine
 10
136.2577258430566
 20
47.94731344888685
 30
0.0
 11
136.2577258430566
 21
51.94731344888685
 31
0.0
  0
LINE
  5
20C
330
206
100
AcDbEntity
  8
치수문자_일반주서
 62
     0
370
    -2
100
AcDbLine
 10
136.2577258430566
 20
19.94731344888685
 30
0.0
 11
136.2577258430566
 21
15.94731344888685
 31
0.0
  0
SOLID
  5
20D
330
206
100
AcDbEntity
  8
치수문자_일반주서
 62
     0
100
AcDbTrace
 10
135.59105917639
 20
47.94731344888685
 30
0.0
 11
136.9243925097233
 21
47.94731344888685
 31
0.0
 12
136.2577258430566
 22
43.94731344888685
 32
0.0
 13
136.2577258430566
 23
43.94731344888685
 33
0.0
  0
SOLID
  5
20E
330
206
100
AcDbEntity
  8
치수문자_일반주서
 62
     0
100
AcDbTrace
 10
136.9243925097233
 20
19.94731344888685
 30
0.0
 11
135.59105917639
 21
19.94731344888685
 31
0.0
 12
136.2577258430566
 22
23.94731344888685
 32
0.0
 13
136.2577258430566
 23
23.94731344888685
 33
0.0
  0
MTEXT
  5
20F
330
206
100
AcDbEntity
  8
치수문자_일반주서
 62
     0
100
AcDbMText
 10
133.3827258430566
 20
33.94731344888685
 30
0.0
 40
4.0
 41
0.0
 71
     5
 72
     1
  1
\A1;{%%c20}
  7
SLDTEXTSTYLE0
 11
0.0
 21
1.0
 31
0.0
 73
     1
 44
1.0
  0
POINT
  5
210
330
206
100
AcDbEntity
  8
Defpoints
 62
     0
100
AcDbPoint
 10
120.0211317506357
 20
43.94731344888685
 30
0.0
  0
POINT
  5
211
330
206
100
AcDbEntity
  8
Defpoints
 62
     0
100
AcDbPoint
 10
120.0211317506357
 20
23.94731344888685
 30
0.0
  0
POINT
  5
212
330
206
100
AcDbEntity
  8
Defpoints
 62
     0
100
AcDbPoint
 10
136.2577258430566
 20
23.94731344888685
 30
0.0
  0
ENDBLK
  5
213
330
206
100
AcDbEntity
  8
0
100
AcDbBlockEnd
  0
BLOCK
  5
219
330
218
100
AcDbEntity
  8
0
100
AcDbBlockBegin
  2
*D10
 70
     1
 10
0.0
 20
0.0
 30
0.0
  3
*D10
  1
*D10
  0
LINE
  5
21B
330
218
100
AcDbEntity
  8
치수문자_일반주서
 62
     0
370
    -2
100
AcDbLine
 10
16.02113175063572
 20
43.50981344888685
 30
0.0
 11
16.02113175063573
 21
78.60979761696561
 31
0.0
  0
LINE
  5
21C
330
218
100
AcDbEntity
  8
치수문자_일반주서
 62
     0
370
    -2
100
AcDbLine
 10
120.0211317506357
 20
44.00981344888685
 30
0.0
 11
120.0211317506357
 21
78.60979761696561
 31
0.0
  0
LINE
  5
21D
330
218
100
AcDbEntity
  8
치수문자_일반주서
 62
     0
370
    -2
100
AcDbLine
 10
20.02113175063573
 20
78.60979761696561
 30
0.0
 11
116.0211317506357
 21
78.60979761696561
 31
0.0
  0
SOLID
  5
21E
330
218
100
AcDbEntity
  8
치수문자_일반주서
 62
     0
100
AcDbTrace
 10
20.02113175063573
 20
79.27646428363228
 30
0.0
 11
20.02113175063573
 21
77.94313095029894
 31
0.0
 12
16.02113175063573
 22
78.60979761696561
 32
0.0
 13
16.02113175063573
 23
78.60979761696561
 33
0.0
  0
SOLID
  5
21F
330
218
100
AcDbEntity
  8
치수문자_일반주서
 62
     0
100
AcDbTrace
 10
116.0211317506357
 20
77.94313095029894
 30
0.0
 11
116.0211317506357
 21
79.27646428363228
 31
0.0
 12
120.0211317506357
 22
78.60979761696561
 32
0.0
 13
120.0211317506357
 23
78.60979761696561
 33
0.0
  0
MTEXT
  5
220
330
218
100
AcDbEntity
  8
치수문자_일반주서
 62
     0
100
AcDbMText
 10
68.02113175063575
 20
83.48479761696561
 30
0.0
 40
4.0
 41
0.0
 71
     2
 72
     1
  1
\A1;104
  7
SLDTEXTSTYLE0
 73
     1
 44
1.0
  0
POINT
  5
221
330
218
100
AcDbEntity
  8
Defpoints
 62
     0
100
AcDbPoint
 10
16.02113175063572
 20
43.44731344888685
 30
0.0
  0
POINT
  5
222
330
218
100
AcDbEntity
  8
Defpoints
 62
     0
100
AcDbPoint
 10
120.0211317506357
 20
43.94731344888685
 30
0.0
  0
POINT
  5
223
330
218
100
AcDbEntity
  8
Defpoints
 62
     0
100
AcDbPoint
 10
120.0211317506357
 20
78.60979761696561
 30
0.0
  0
ENDBLK
  5
21A
330
218
100
AcDbEntity
  8
0
100
AcDbBlockEnd
  0
BLOCK
  5
225
330
224
100
AcDbEntity
  8
0
100
AcDbBlockBegin
  2
*D11
 70
     1
 10
0.0
 20
0.0
 30
0.0
  3
*D11
  1
*D11
  0
LINE
  5
227
330
224
100
AcDbEntity
  8
치수문자_일반주서
 62
     0
370
    -2
100
AcDbLine
 10
82.02101279996386
 20
33.65694216895067
 30
0.0
 11
82.02101279996386
 21
65.23491305159995
 31
0.0
  0
LINE
  5
228
330
224
100
AcDbEntity
  8
치수문자_일반주서
 62
     0
370
    -2
100
AcDbLine
 10
120.0211317506357
 20
44.07231344888685
 30
0.0
 11
120.0211317506357
 21
65.23491305159995
 31
0.0
  0
LINE
  5
229
330
224
100
AcDbEntity
  8
치수문자_일반주서
 62
     0
370
    -2
100
AcDbLine
 10
86.02101279996386
 20
65.23491305159995
 30
0.0
 11
116.0211317506357
 21
65.23491305159995
 31
0.0
  0
SOLID
  5
22A
330
224
100
AcDbEntity
  8
치수문자_일반주서
 62
     0
100
AcDbTrace
 10
86.02101279996386
 20
65.90157971826662
 30
0.0
 11
86.02101279996386
 21
64.56824638493327
 31
0.0
 12
82.02101279996386
 22
65.23491305159995
 32
0.0
 13
82.02101279996386
 23
65.23491305159995
 33
0.0
  0
SOLID
  5
22B
330
224
100
AcDbEntity
  8
치수문자_일반주서
 62
     0
100
AcDbTrace
 10
116.0211317506357
 20
64.56824638493327
 30
0.0
 11
116.0211317506357
 21
65.90157971826662
 31
0.0
 12
120.0211317506357
 22
65.23491305159995
 32
0.0
 13
120.0211317506357
 23
65.23491305159995
 33
0.0
  0
MTEXT
  5
22C
330
224
100
AcDbEntity
  8
치수문자_일반주서
 62
     0
100
AcDbMText
 10
101.0891571575877
 20
70.10991305159995
 30
0.0
 40
4.0
 41
0.0
 71
     2
 72
     1
  1
\A1;38
  7
SLDTEXTSTYLE0
 73
     1
 44
1.0
  0
POINT
  5
22D
330
224
100
AcDbEntity
  8
Defpoints
 62
     0
100
AcDbPoint
 10
82.02101279996386
 20
33.59444216895067
 30
0.0
  0
POINT
  5
22E
330
224
100
AcDbEntity
  8
Defpoints
 62
     0
100
AcDbPoint
 10
120.0211317506357
 20
44.00981344888685
 30
0.0
  0
POINT
  5
22F
330
224
100
AcDbEntity
  8
Defpoints
 62
     0
100
AcDbPoint
 10
120.0211317506357
 20
65.23491305159995
 30
0.0
  0
ENDBLK
  5
226
330
224
100
AcDbEntity
  8
0
100
AcDbBlockEnd
  0
BLOCK
  5
231
330
230
100
AcDbEntity
  8
0
100
AcDbBlockBegin
  2
*D12
 70
     1
 10
0.0
 20
0.0
 30
0.0
  3
*D12
  1
*D12
  0
LINE
  5
233
330
230
100
AcDbEntity
  8
치수문자_일반주서
 62
     0
370
    -2
100
AcDbLine
 10
16.45863175063572
 20
43.94731344888685
 30
0.0
 11
4.87499999999998
 21
43.94731344888681
 31
0.0
  0
LINE
  5
234
330
230
100
AcDbEntity
  8
치수문자_일반주서
 62
     0
370
    -2
100
AcDbLine
 10
16.45863175063572
 20
23.94731344888685
 30
0.0
 11
4.87500000000005
 21
23.94731344888681
 31
0.0
  0
LINE
  5
235
330
230
100
AcDbEntity
  8
치수문자_일반주서
 62
     0
370
    -2
100
AcDbLine
 10
4.87499999999998
 20
43.94731344888681
 30
0.0
 11
4.87500000000005
 21
23.94731344888681
 31
0.0
  0
LINE
  5
236
330
230
100
AcDbEntity
  8
치수문자_일반주서
 62
     0
370
    -2
100
AcDbLine
 10
4.874999999999965
 20
47.94731344888681
 30
0.0
 11
4.874999999999951
 21
51.94731344888681
 31
0.0
  0
LINE
  5
237
330
230
100
AcDbEntity
  8
치수문자_일반주서
 62
     0
370
    -2
100
AcDbLine
 10
4.875000000000064
 20
19.94731344888681
 30
0.0
 11
4.875000000000078
 21
15.94731344888681
 31
0.0
  0
SOLID
  5
238
330
230
100
AcDbEntity
  8
치수문자_일반주서
 62
     0
100
AcDbTrace
 10
4.208333333333298
 20
47.94731344888681
 30
0.0
 11
5.541666666666632
 21
47.94731344888681
 31
0.0
 12
4.87499999999998
 22
43.94731344888681
 32
0.0
 13
4.87499999999998
 23
43.94731344888681
 33
0.0
  0
SOLID
  5
239
330
230
100
AcDbEntity
  8
치수문자_일반주서
 62
     0
100
AcDbTrace
 10
5.541666666666731
 20
19.94731344888681
 30
0.0
 11
4.208333333333397
 21
19.94731344888681
 31
0.0
 12
4.87500000000005
 22
23.94731344888681
 32
0.0
 13
4.87500000000005
 23
23.94731344888681
 33
0.0
  0
MTEXT
  5
23A
330
230
100
AcDbEntity
  8
치수문자_일반주서
 62
     0
100
AcDbMText
 10
0.0000000000000142
 20
33.94731344888684
 30
0.0
 40
4.0
 41
0.0
 71
     2
 72
     1
  1
\A1;%%c20
  7
SLDTEXTSTYLE0
 11
-3.508304757815495E-15
 21
1.0
 31
0.0
 73
     1
 44
1.0
  0
POINT
  5
23B
330
230
100
AcDbEntity
  8
Defpoints
 62
     0
100
AcDbPoint
 10
16.52113175063572
 20
43.94731344888685
 30
0.0
  0
POINT
  5
23C
330
230
100
AcDbEntity
  8
Defpoints
 62
     0
100
AcDbPoint
 10
16.52113175063572
 20
23.94731344888685
 30
0.0
  0
POINT
  5
23D
330
230
100
AcDbEntity
  8
Defpoints
 62
     0
100
AcDbPoint
 10
4.875000000000057
 20
23.94731344888681
 30
0.0
  0
ENDBLK
  5
232
330
230
100
AcDbEntity
  8
0
100
AcDbBlockEnd
  0
BLOCK
  5
28B
330
28A
100
AcDbEntity
  8
0
100
AcDbBlockBegin
  2
*D13
 70
     1
 10
0.0
 20
0.0
 30
0.0
  3
*D13
  1
*D13
  0
LINE
  5
28D
330
28A
100
AcDbEntity
  8
치수문자_일반주서
 62
     0
370
    -2
100
AcDbLine
 10
114.6831559466412
 20
-68.83920914753284
 30
0.0
 11
114.6831559466412
 21
-33.73922497945408
 31
0.0
  0
LINE
  5
28E
330
28A
100
AcDbEntity
  8
치수문자_일반주서
 62
     0
370
    -2
100
AcDbLine
 10
218.6831559466412
 20
-68.33920914753284
 30
0.0
 11
218.6831559466412
 21
-33.73922497945408
 31
0.0
  0
LINE
  5
28F
330
28A
100
AcDbEntity
  8
치수문자_일반주서
 62
     0
370
    -2
100
AcDbLine
 10
118.6831559466412
 20
-33.73922497945408
 30
0.0
 11
214.6831559466412
 21
-33.73922497945408
 31
0.0
  0
SOLID
  5
290
330
28A
100
AcDbEntity
  8
치수문자_일반주서
 62
     0
100
AcDbTrace
 10
118.6831559466412
 20
-33.07255831278741
 30
0.0
 11
118.6831559466412
 21
-34.40589164612074
 31
0.0
 12
114.6831559466412
 22
-33.73922497945408
 32
0.0
 13
114.6831559466412
 23
-33.73922497945408
 33
0.0
  0
SOLID
  5
291
330
28A
100
AcDbEntity
  8
치수문자_일반주서
 62
     0
100
AcDbTrace
 10
214.6831559466412
 20
-34.40589164612074
 30
0.0
 11
214.6831559466412
 21
-33.07255831278741
 31
0.0
 12
218.6831559466412
 22
-33.73922497945408
 32
0.0
 13
218.6831559466412
 23
-33.73922497945408
 33
0.0
  0
MTEXT
  5
292
330
28A
100
AcDbEntity
  8
치수문자_일반주서
 62
     0
100
AcDbMText
 10
166.6831559466412
 20
-28.86422497945408
 30
0.0
 40
4.0
 41
0.0
 71
     2
 72
     1
  1
\A1;104
  7
SLDTEXTSTYLE0
 73
     1
 44
1.0
  0
POINT
  5
293
330
28A
100
AcDbEntity
  8
Defpoints
 62
     0
100
AcDbPoint
 10
114.6831559466412
 20
-68.90170914753284
 30
0.0
  0
POINT
  5
294
330
28A
100
AcDbEntity
  8
Defpoints
 62
     0
100
AcDbPoint
 10
218.6831559466412
 20
-68.40170914753284
 30
0.0
  0
POINT
  5
295
330
28A
100
AcDbEntity
  8
Defpoints
 62
     0
100
AcDbPoint
 10
218.6831559466412
 20
-33.73922497945408
 30
0.0
  0
ENDBLK
  5
28C
330
28A
100
AcDbEntity
  8
0
100
AcDbBlockEnd
  0
BLOCK
  5
297
330
296
100
AcDbEntity
  8
0
100
AcDbBlockBegin
  2
*D14
 70
     1
 10
0.0
 20
0.0
 30
0.0
  3
*D14
  1
*D14
  0
LINE
  5
299
330
296
100
AcDbEntity
  8
치수문자_일반주서
 62
     0
370
    -2
100
AcDbLine
 10
180.6830369959693
 20
-78.69208042746902
 30
0.0
 11
180.6830369959693
 21
-47.11410954481974
 31
0.0
  0
LINE
  5
29A
330
296
100
AcDbEntity
  8
치수문자_일반주서
 62
     0
370
    -2
100
AcDbLine
 10
218.6831559466412
 20
-68.27670914753284
 30
0.0
 11
218.6831559466412
 21
-47.11410954481974
 31
0.0
  0
LINE
  5
29B
330
296
100
AcDbEntity
  8
치수문자_일반주서
 62
     0
370
    -2
100
AcDbLine
 10
184.6830369959693
 20
-47.11410954481974
 30
0.0
 11
214.6831559466412
 21
-47.11410954481974
 31
0.0
  0
SOLID
  5
29C
330
296
100
AcDbEntity
  8
치수문자_일반주서
 62
     0
100
AcDbTrace
 10
184.6830369959693
 20
-46.44744287815308
 30
0.0
 11
184.6830369959693
 21
-47.7807762114864
 31
0.0
 12
180.6830369959693
 22
-47.11410954481974
 32
0.0
 13
180.6830369959693
 23
-47.11410954481974
 33
0.0
  0
SOLID
  5
29D
330
296
100
AcDbEntity
  8
치수문자_일반주서
 62
     0
100
AcDbTrace
 10
214.6831559466412
 20
-47.7807762114864
 30
0.0
 11
214.6831559466412
 21
-46.44744287815308
 31
0.0
 12
218.6831559466412
 22
-47.11410954481974
 32
0.0
 13
218.6831559466412
 23
-47.11410954481974
 33
0.0
  0
MTEXT
  5
29E
330
296
100
AcDbEntity
  8
치수문자_일반주서
 62
     0
100
AcDbMText
 10
199.7511813535932
 20
-42.23910954481974
 30
0.0
 40
4.0
 41
0.0
 71
     2
 72
     1
  1
\A1;38
  7
SLDTEXTSTYLE0
 73
     1
 44
1.0
  0
POINT
  5
29F
330
296
100
AcDbEntity
  8
Defpoints
 62
     0
100
AcDbPoint
 10
180.6830369959693
 20
-78.75458042746902
 30
0.0
  0
POINT
  5
2A0
330
296
100
AcDbEntity
  8
Defpoints
 62
     0
100
AcDbPoint
 10
218.6831559466412
 20
-68.33920914753284
 30
0.0
  0
POINT
  5
2A1
330
296
100
AcDbEntity
  8
Defpoints
 62
     0
100
AcDbPoint
 10
218.6831559466412
 20
-47.11410954481974
 30
0.0
  0
ENDBLK
  5
298
330
296
100
AcDbEntity
  8
0
100
AcDbBlockEnd
  0
BLOCK
  5
2A3
330
2A2
100
AcDbEntity
  8
0
100
AcDbBlockBegin
  2
*D15
 70
     1
 10
0.0
 20
0.0
 30
0.0
  3
*D15
  1
*D15
  0
LINE
  5
2A5
330
2A2
100
AcDbEntity
  8
치수문자_일반주서
 62
     0
370
    -2
100
AcDbLine
 10
115.1206559466412
 20
-68.40170914753284
 30
0.0
 11
103.5370241960054
 21
-68.40170914753288
 31
0.0
  0
LINE
  5
2A6
330
2A2
100
AcDbEntity
  8
치수문자_일반주서
 62
     0
370
    -2
100
AcDbLine
 10
115.1206559466412
 20
-88.40170914753284
 30
0.0
 11
103.5370241960055
 21
-88.40170914753288
 31
0.0
  0
LINE
  5
2A7
330
2A2
100
AcDbEntity
  8
치수문자_일반주서
 62
     0
370
    -2
100
AcDbLine
 10
103.5370241960054
 20
-68.40170914753288
 30
0.0
 11
103.5370241960055
 21
-88.40170914753288
 31
0.0
  0
LINE
  5
2A8
330
2A2
100
AcDbEntity
  8
치수문자_일반주서
 62
     0
370
    -2
100
AcDbLine
 10
103.5370241960054
 20
-64.40170914753288
 30
0.0
 11
103.5370241960054
 21
-60.40170914753288
 31
0.0
  0
LINE
  5
2A9
330
2A2
100
AcDbEntity
  8
치수문자_일반주서
 62
     0
370
    -2
100
AcDbLine
 10
103.5370241960055
 20
-92.40170914753288
 30
0.0
 11
103.5370241960055
 21
-96.40170914753288
 31
0.0
  0
SOLID
  5
2AA
330
2A2
100
AcDbEntity
  8
치수문자_일반주서
 62
     0
100
AcDbTrace
 10
102.8703575293387
 20
-64.40170914753288
 30
0.0
 11
104.2036908626721
 21
-64.40170914753288
 31
0.0
 12
103.5370241960054
 22
-68.40170914753288
 32
0.0
 13
103.5370241960054
 23
-68.40170914753288
 33
0.0
  0
SOLID
  5
2AB
330
2A2
100
AcDbEntity
  8
치수문자_일반주서
 62
     0
100
AcDbTrace
 10
104.2036908626722
 20
-92.40170914753288
 30
0.0
 11
102.8703575293388
 21
-92.40170914753288
 31
0.0
 12
103.5370241960055
 22
-88.40170914753288
 32
0.0
 13
103.5370241960055
 23
-88.40170914753288
 33
0.0
  0
MTEXT
  5
2AC
330
2A2
100
AcDbEntity
  8
치수문자_일반주서
 62
     0
100
AcDbMText
 10
98.66202419600545
 20
-78.40170914753286
 30
0.0
 40
4.0
 41
0.0
 71
     2
 72
     1
  1
\A1;%%c20
  7
SLDTEXTSTYLE0
 11
-3.552713678800501E-15
 21
1.0
 31
0.0
 73
     1
 44
1.0
  0
POINT
  5
2AD
330
2A2
100
AcDbEntity
  8
Defpoints
 62
     0
100
AcDbPoint
 10
115.1831559466412
 20
-68.40170914753284
 30
0.0
  0
POINT
  5
2AE
330
2A2
100
AcDbEntity
  8
Defpoints
 62
     0
100
AcDbPoint
 10
115.1831559466412
 20
-88.40170914753284
 30
0.0
  0
POINT
  5
2AF
330
2A2
100
AcDbEntity
  8
Defpoints
 62
     0
100
AcDbPoint
 10
103.5370241960055
 20
-88.40170914753288
 30
0.0
  0
ENDBLK
  5
2A4
330
2A2
100
AcDbEntity
  8
0
100
AcDbBlockEnd
  0
BLOCK
  5
2B1
330
2B0
100
AcDbEntity
  8
0
100
AcDbBlockBegin
  2
*D16
 70
     1
 10
0.0
 20
0.0
 30
0.0
  3
*D16
  1
*D16
  0
LINE
  5
2B3
330
2B0
100
AcDbEntity
  8
치수문자_일반주서
 62
     0
370
    -2
100
AcDbLine
 10
220.8695961167286
 20
-91.25483762222106
 30
0.0
 11
238.3139556283797
 21
-112.3490225964199
 31
0.0
  0
MTEXT
  5
2B4
330
2B0
100
AcDbEntity
  8
치수문자_일반주서
 62
     0
100
AcDbMText
 10
238.6973014035252
 20
-108.301270625674
 30
0.0
 40
4.0
 41
0.0
 71
     5
 72
     1
  1
\A1;R1
  7
SLDTEXTSTYLE0
 11
0.637288034017483
 21
-0.7706256949376472
 31
0.0
 73
     1
 44
1.0
  0
LINE
  5
2B5
330
2B0
100
AcDbEntity
  8
치수문자_일반주서
 62
     0
370
    -2
100
AcDbLine
 10
217.6831559466412
 20
-87.40170914753284
 30
0.0
 11
218.3204439806586
 21
-88.17233484247048
 31
0.0
  0
SOLID
  5
2B6
330
2B0
100
AcDbEntity
  8
치수문자_일반주서
 62
     0
100
AcDbTrace
 10
221.3833465800203
 20
-90.82997893287607
 30
0.0
 11
220.3558456534368
 21
-91.67969631156605
 31
0.0
 12
218.3204439806586
 22
-88.17233484247048
 32
0.0
 13
218.3204439806586
 23
-88.17233484247048
 33
0.0
  0
POINT
  5
2B7
330
2B0
100
AcDbEntity
  8
Defpoints
 62
     0
100
AcDbPoint
 10
218.3204439806586
 20
-88.17233484247048
 30
0.0
  0
POINT
  5
2B8
330
2B0
100
AcDbEntity
  8
Defpoints
 62
     0
100
AcDbPoint
 10
217.6831559466412
 20
-87.40170914753284
 30
0.0
  0
ENDBLK
  5
2B2
330
2B0
100
AcDbEntity
  8
0
100
AcDbBlockEnd
  0
BLOCK
  5
2BA
330
2B9
100
AcDbEntity
  8
0
100
AcDbBlockBegin
  2
*D17
 70
     1
 10
0.0
 20
0.0
 30
0.0
  3
*D17
  1
*D17
  0
LINE
  5
2BC
330
2B9
100
AcDbEntity
  8
치수문자_일반주서
 62
     0
370
    -2
100
AcDbLine
 10
218.7456559466412
 20
-68.40170914753284
 30
0.0
 11
234.9197500390621
 21
-68.40170914753284
 31
0.0
  0
LINE
  5
2BD
330
2B9
100
AcDbEntity
  8
치수문자_일반주서
 62
     0
370
    -2
100
AcDbLine
 10
218.7456559466412
 20
-88.40170914753284
 30
0.0
 11
234.9197500390621
 21
-88.40170914753284
 31
0.0
  0
LINE
  5
2BE
330
2B9
100
AcDbEntity
  8
치수문자_일반주서
 62
     0
370
    -2
100
AcDbLine
 10
234.9197500390621
 20
-68.40170914753284
 30
0.0
 11
234.9197500390621
 21
-88.40170914753284
 31
0.0
  0
LINE
  5
2BF
330
2B9
100
AcDbEntity
  8
치수문자_일반주서
 62
     0
370
    -2
100
AcDbLine
 10
234.9197500390621
 20
-64.40170914753284
 30
0.0
 11
234.9197500390621
 21
-60.40170914753284
 31
0.0
  0
LINE
  5
2C0
330
2B9
100
AcDbEntity
  8
치수문자_일반주서
 62
     0
370
    -2
100
AcDbLine
 10
234.9197500390621
 20
-92.40170914753284
 30
0.0
 11
234.9197500390621
 21
-96.40170914753284
 31
0.0
  0
SOLID
  5
2C1
330
2B9
100
AcDbEntity
  8
치수문자_일반주서
 62
     0
100
AcDbTrace
 10
234.2530833723954
 20
-64.40170914753284
 30
0.0
 11
235.5864167057287
 21
-64.40170914753284
 31
0.0
 12
234.9197500390621
 22
-68.40170914753284
 32
0.0
 13
234.9197500390621
 23
-68.40170914753284
 33
0.0
  0
SOLID
  5
2C2
330
2B9
100
AcDbEntity
  8
치수문자_일반주서
 62
     0
100
AcDbTrace
 10
235.5864167057287
 20
-92.40170914753284
 30
0.0
 11
234.2530833723954
 21
-92.40170914753284
 31
0.0
 12
234.9197500390621
 22
-88.40170914753284
 32
0.0
 13
234.9197500390621
 23
-88.40170914753284
 33
0.0
  0
MTEXT
  5
2C3
330
2B9
100
AcDbEntity
  8
치수문자_일반주서
 62
     0
100
AcDbMText
 10
232.0447500390621
 20
-78.40170914753284
 30
0.0
 40
4.0
 41
0.0
 71
     5
 72
     1
  1
\A1;{%%c20}
  7
SLDTEXTSTYLE0
 11
0.0
 21
1.0
 31
0.0
 73
     1
 44
1.0
  0
POINT
  5
2C4
330
2B9
100
AcDbEntity
  8
Defpoints
 62
     0
100
AcDbPoint
 10
218.6831559466412
 20
-68.40170914753284
 30
0.0
  0
POINT
  5
2C5
330
2B9
100
AcDbEntity
  8
Defpoints
 62
     0
100
AcDbPoint
 10
218.6831559466412
 20
-88.40170914753284
 30
0.0
  0
POINT
  5
2C6
330
2B9
100
AcDbEntity
  8
Defpoints
 62
     0
100
AcDbPoint
 10
234.9197500390621
 20
-88.40170914753284
 30
0.0
  0
ENDBLK
  5
2BB
330
2B9
100
AcDbEntity
  8
0
100
AcDbBlockEnd
  0
ENDSEC
  0
SECTION
  2
ENTITIES
  0
LINE
  5
96
330
1F
100
AcDbEntity
  8
0
  6
Continuous
 62
     1
370
    15
100
AcDbLine
 10
46.8733031228093
 20
-2.470662482442564
 30
0.0
 11
46.94389557328685
 21
-2.538953571668928
 31
0.0
  0
LINE
  5
97
330
1F
100
AcDbEntity
  8
0
  6
Continuous
 62
     1
370
    15
100
AcDbLine
 10
37.73631480651603
 20
12.7010749287239
 30
0.0
 11
34.66667233631982
 21
12.7010749287239
 31
0.0
  0
LINE
  5
98
330
1F
100
AcDbEntity
  8
0
  6
Continuous
 62
     1
370
    15
100
AcDbLine
 10
34.66667233631975
 20
-12.69892507127611
 30
0.0
 11
37.73631480651595
 21
-12.69892507127611
 31
0.0
  0
LINE
  5
99
330
1F
100
AcDbEntity
  8
0
  6
Continuous
 62
     1
370
    15
100
AcDbLine
 10
61.26386496060206
 20
-12.69892507127611
 30
0.0
 11
62.80000000000001
 21
-12.69892507127611
 31
0.0
  0
LINE
  5
9A
330
1F
100
AcDbEntity
  8
0
  6
Continuous
 62
     1
370
    15
100
AcDbLine
 10
24.43626345523262
 20
12.7010749287239
 30
0.0
 11
21.367453272094
 21
12.7010749287239
 31
0.0
  0
LINE
  5
9B
330
1F
100
AcDbEntity
  8
0
  6
Continuous
 62
     1
370
    15
100
AcDbLine
 10
47.96500858244013
 20
-12.69892507127611
 30
0.0
 11
51.03641595544318
 21
-12.69892507127611
 31
0.0
  0
LINE
  5
9C
330
1F
100
AcDbEntity
  8
0
  6
Continuous
 62
     1
370
    15
100
AcDbLine
 10
51.03641595544318
 20
12.7010749287239
 30
0.0
 11
47.96500858244022
 21
12.7010749287239
 31
0.0
  0
LINE
  5
9D
330
1F
100
AcDbEntity
  8
0
  6
Continuous
 62
     1
370
    15
100
AcDbLine
 10
21.367453272094
 20
-12.69892507127611
 30
0.0
 11
24.43626345523252
 21
-12.69892507127611
 31
0.0
  0
LINE
  5
9E
330
1F
100
AcDbEntity
  8
0
  6
Continuous
 62
     1
370
    15
100
AcDbLine
 10
62.80000000000001
 20
12.7010749287239
 30
0.0
 11
61.26386496060208
 21
12.7010749287239
 31
0.0
  0
LINE
  5
9F
330
1F
100
AcDbEntity
  8
외형선
  6
Continuous
370
    15
100
AcDbLine
 10
-48.95999999999998
 20
-12.69892507127611
 30
0.0
 11
11.13693643533346
 21
-12.69892507127611
 31
0.0
  0
LINE
  5
A0
330
1F
100
AcDbEntity
  8
외형선
  6
Continuous
370
    15
100
AcDbLine
 10
11.13693643533347
 20
12.7010749287239
 30
0.0
 11
-14.06992499999997
 21
12.7010749287239
 31
0.0
  0
LINE
  5
A1
330
1F
100
AcDbEntity
  8
외형선
  6
Continuous
370
    15
100
AcDbLine
 10
-50.86499999999998
 20
10.7960749287239
 30
0.0
 11
-51.49999999999999
 21
10.1610749287239
 31
0.0
  0
LINE
  5
A2
330
1F
100
AcDbEntity
  8
외형선
  6
Continuous
370
    15
100
AcDbLine
 10
-51.49999999999999
 20
-10.15892507127611
 30
0.0
 11
-48.95999999999998
 21
-12.69892507127611
 31
0.0
  0
SPLINE
  5
A3
330
1F
100
AcDbEntity
  8
0
  6
Continuous
 62
     1
370
    15
100
AcDbSpline
210
0.0
220
0.0
230
1.0
 70
     8
 71
     3
 72
    31
 73
    27
 74
     0
 42
0.000000001
 43
0.00000001
 40
0.0
 40
0.0
 40
0.0
 40
0.0
 40
0.0450957682638993
 40
0.0901980191992993
 40
0.1353244929585533
 40
0.1804588028633548
 40
0.2255652725685298
 40
0.2706609762620706
 40
0.3125531969233666
 40
0.3544844348382108
 40
0.3963857552193051
 40
0.4382658175467911
 40
0.4801621491503329
 40
0.5220942883752421
 40
0.5639908716205716
 40
0.6058709170168755
 40
0.6477719520780519
 40
0.6897032870041256
 40
0.7315957255856709
 40
0.7734763493777799
 40
0.8153826796008085
 40
0.8573115047905489
 40
0.8992003918953777
 40
0.9410821893103524
 40
0.9829944054866704
 40
1.0
 40
1.0
 40
1.0
 40
1.0
 10
12.00000000000002
 20
12.67183633864846
 30
0.0
 10
12.66357726977933
 20
12.59677453908284
 30
0.0
 10
13.9908272008485
 20
12.44664014956021
 30
0.0
 10
15.98214396383514
 20
11.83253277883609
 30
0.0
 10
17.97473747864099
 20
10.95032491358176
 30
0.0
 10
19.96772672579115
 20
9.79351511931283
 30
0.0
 10
21.95925585612417
 20
8.397584729894406
 30
0.0
 10
23.90308485956362
 20
6.833354968497646
 30
0.0
 10
25.79976967787941
 20
5.153626408828987
 30
0.0
 10
27.65117476550202
 20
3.407819948490969
 30
0.0
 10
29.50109397698992
 20
1.588845644972984
 30
0.0
 10
31.3500510360997
 20
-0.263723454684092
 30
0.0
 10
33.1997426113295
 20
-2.110841586992371
 30
0.0
 10
35.05116063433469
 20
-3.912035126882066
 30
0.0
 10
36.90086456281287
 20
-5.631528090486956
 30
0.0
 10
38.74981863265901
 20
-7.23153422611414
 30
0.0
 10
40.59973265878551
 20
-8.678348041039202
 30
0.0
 10
42.45111127498537
 20
-9.940584904955186
 30
0.0
 10
44.30062234537459
 20
-10.99310186941782
 30
0.0
 10
46.14960237768686
 20
-11.81247612215215
 30
0.0
 10
47.99976920976462
 20
-12.38182348340701
 30
0.0
 10
49.85102415113938
 20
-12.68769308459272
 30
0.0
 10
51.7003775864621
 20
-12.72903414912241
 30
0.0
 10
53.54939345282816
 20
-12.48541678165507
 30
0.0
 10
55.0331118738558
 20
-12.12359168442282
 30
0.0
 10
55.90042993727482
 20
-11.75843385796917
 30
0.0
 10
56.15076611114054
 20
-11.65303744460362
 30
0.0
  0
SPLINE
  5
A4
330
1F
100
AcDbEntity
  8
0
  6
Continuous
 62
     1
370
    15
100
AcDbSpline
210
0.0
220
0.0
230
1.0
 70
     8
 71
     3
 72
    32
 73
    28
 74
     0
 42
0.000000001
 43
0.00000001
 40
0.0
 40
0.0
 40
0.0
 40
0.0
 40
0.0069957427474156
 40
0.0480780149304182
 40
0.0891626052647702
 40
0.1302851366952333
 40
0.1713955108738117
 40
0.2124760482464426
 40
0.253563539672792
 40
0.2946902051100725
 40
0.3357948059422572
 40
0.3768741921451447
 40
0.4179651671032655
 40
0.4590942942619535
 40
0.5001937012364768
 40
0.5412725201091169
 40
0.5823675604375417
 40
0.6234974765076522
 40
0.6645922700085645
 40
0.7056711054884681
 40
0.746770792324322
 40
0.787899824327747
 40
0.8289905855347521
 40
0.873223542458068
 40
0.9174670594234681
 40
0.9617378839647563
 40
1.0
 40
1.0
 40
1.0
 40
1.0
 10
61.26386496060208
 20
-12.67991226617778
 30
0.0
 10
61.15887822240877
 20
-12.68593739535119
 30
0.0
 10
60.4373602723357
 20
-12.72734490000309
 30
0.0
 10
59.10016620611154
 20
-12.54380874834399
 30
0.0
 10
57.25089584273964
 20
-12.11639910927845
 30
0.0
 10
55.39985951127564
 20
-11.40794516074414
 30
0.0
 10
53.54940616053393
 20
-10.46434333210989
 30
0.0
 10
51.70037418194941
 20
-9.297065065503741
 30
0.0
 10
49.85102506442702
 20
-7.933112218593828
 30
0.0
 10
47.99976896509278
 20
-6.401924292679453
 30
0.0
 10
46.14960244318617
 20
-4.734476435954477
 30
0.0
 10
44.30062232782332
 20
-2.966582069872406
 30
0.0
 10
42.45111127969494
 20
-1.135615408062432
 30
0.0
 10
40.59973265751974
 20
0.7181772980736589
 30
0.0
 10
38.74981863301421
 20
2.557868047333676
 30
0.0
 10
36.90086456265668
 20
4.343335155933854
 30
0.0
 10
35.0511606346044
 20
6.03694206811771
 30
0.0
 10
33.19974261040652
 20
7.601669692331784
 30
0.0
 10
31.3500510395177
 20
9.00643477618758
 30
0.0
 10
29.50109396424238
 20
10.22028453166094
 30
0.0
 10
27.65117481311672
 20
11.21761262826723
 30
0.0
 10
25.79976950011106
 20
11.97706181777474
 30
0.0
 10
23.90308554371805
 20
12.49579323470591
 30
0.0
 10
21.95925308415067
 20
12.74065791423811
 30
0.0
 10
19.96773705106917
 20
12.67111669549691
 30
0.0
 10
18.0647764482638
 20
12.33486124054225
 30
0.0
 10
16.82625439855603
 20
11.87940089532853
 30
0.0
 10
16.25207790554493
 20
11.6682503358515
 30
0.0
  0
LINE
  5
A5
330
1F
100
AcDbEntity
  8
0
  6
Continuous
 62
     1
370
    15
100
AcDbLine
 10
62.80000000000001
 20
-12.60624746776119
 30
0.0
 11
62.80000000000001
 21
-7.618271405463623
 31
0.0
  0
SPLINE
  5
A6
330
1F
100
AcDbEntity
  8
0
  6
Continuous
 62
     1
370
    15
100
AcDbSpline
210
0.0
220
0.0
230
1.0
 70
     8
 71
     3
 72
    28
 73
    24
 74
     0
 42
0.000000001
 43
0.00000001
 40
0.0
 40
0.0
 40
0.0
 40
0.0
 40
0.0355383131885413
 40
0.0837942395790062
 40
0.132015735831507
 40
0.1802127675768494
 40
0.2284285225707008
 40
0.2766854862201239
 40
0.3249015308120935
 40
0.3730985430724428
 40
0.4213197109688626
 40
0.4695757490032232
 40
0.5177870237720148
 40
0.5659847016703654
 40
0.6142119634231383
 40
0.662465113165672
 40
0.7106723007715863
 40
0.7588713293159334
 40
0.8071053648283851
 40
0.855353664217799
 40
0.9035574480265649
 40
0.9517585119915748
 40
1.0
 40
1.0
 40
1.0
 40
1.0
 10
24.43626345523261
 20
12.67499247440435
 30
0.0
 10
24.89061291643242
 20
12.67127602223061
 30
0.0
 10
25.96190370624528
 20
12.66251316164748
 30
0.0
 10
27.65118184687473
 20
12.33458678003592
 30
0.0
 10
29.50109208121323
 20
11.74799678393408
 30
0.0
 10
31.35005154417056
 20
10.90337454022676
 30
0.0
 10
33.19974247503004
 20
9.83011989160993
 30
0.0
 10
35.05116067085913
 20
8.54885694138043
 30
0.0
 10
36.90086455294487
 20
7.08587054653593
 30
0.0
 10
38.74981863563724
 20
5.472849522733695
 30
0.0
 10
40.59973265674215
 20
3.743861506335415
 30
0.0
 10
42.45111128017957
 20
1.936656540328925
 30
0.0
 10
44.30062232666332
 20
0.087229567981224
 30
0.0
 10
46.14960244734195
 20
-1.763827930432218
 30
0.0
 10
47.99976894961543
 20
-3.577372664068908
 30
0.0
 10
49.85102512218708
 20
-5.314356379797141
 30
0.0
 10
51.70037396663744
 20
-6.939811811741619
 30
0.0
 10
53.54940696420778
 20
-8.418142662007908
 30
0.0
 10
55.39985650910039
 20
-9.717482632129506
 30
0.0
 10
57.25090704606326
 20
-10.81212145986685
 30
0.0
 10
59.10012443915987
 20
-11.67313555580058
 30
0.0
 10
60.94923718578744
 20
-12.30587727902784
 30
0.0
 10
62.18290669710723
 20
-12.50609609750856
 30
0.0
 10
62.80000000000004
 20
-12.60624746776119
 30
0.0
  0
SPLINE
  5
A7
330
1F
100
AcDbEntity
  8
0
  6
Continuous
 62
     1
370
    15
100
AcDbSpline
210
0.0
220
0.0
230
1.0
 70
     8
 71
     3
 72
    25
 73
    21
 74
     0
 42
0.000000001
 43
0.00000001
 40
0.0
 40
0.0
 40
0.0
 40
0.0
 40
0.0556637349421874
 40
0.1112808263555195
 40
0.1669010560771449
 40
0.2225726503727973
 40
0.2782277862070873
 40
0.3338425290378822
 40
0.3894666862515924
 40
0.4451438771567518
 40
0.5007911970471546
 40
0.5564043814268355
 40
0.6120332546383392
 40
0.6677137782166268
 40
0.7233540666737375
 40
0.778966483002954
 40
0.834600859904001
 40
0.8902824515088699
 40
0.9459164942553632
 40
0.9999999999999999
 40
0.9999999999999999
 40
0.9999999999999999
 40
0.9999999999999999
 10
62.80000000000004
 20
-7.628884310425702
 30
0.0
 10
62.18290669710726
 20
-7.12027173202033
 30
0.0
 10
60.94923718578744
 20
-6.103472768053124
 30
0.0
 10
59.10012443915987
 20
-4.404878817807486
 30
0.0
 10
57.25090704606338
 20
-2.624442456469536
 30
0.0
 10
55.39985650909969
 20
-0.7862536439614974
 30
0.0
 10
53.54940696421042
 20
1.068243804652317
 30
0.0
 10
51.70037396662772
 20
2.900724293082984
 30
0.0
 10
49.85102512222353
 20
4.671860754055301
 30
0.0
 10
47.99976894947913
 20
6.343009335389077
 30
0.0
 10
46.14960244785007
 20
7.880597266561989
 30
0.0
 10
44.30062232476807
 20
9.251350175016364
 30
0.0
 10
42.45111128725786
 20
10.42623232526438
 30
0.0
 10
40.59973263030668
 20
11.37960768983532
 30
0.0
 10
38.74981873419232
 20
12.09264096920427
 30
0.0
 10
36.90086418526815
 20
12.54910579998286
 30
0.0
 10
35.05116204416805
 20
12.74108972224785
 30
0.0
 10
33.19973734684132
 20
12.65816642365867
 30
0.0
 10
31.36701218855061
 20
12.32917114487643
 30
0.0
 10
30.15137952384864
 20
11.89552609553026
 30
0.0
 10
29.55215289958541
 20
11.68176772378408
 30
0.0
  0
SPLINE
  5
A8
330
1F
100
AcDbEntity
  8
0
  6
Continuous
 62
     1
370
    15
100
AcDbSpline
210
0.0
220
0.0
230
1.0
 70
     8
 71
     3
 72
    17
 73
    13
 74
     0
 42
0.000000001
 43
0.00000001
 40
0.0
 40
0.0
 40
0.0
 40
0.0
 40
0.1134378721222229
 40
0.226892051327993
 40
0.3404071627609005
 40
0.4539419859253246
 40
0.5674067773966059
 40
0.6808444870928552
 40
0.786223873080527
 40
0.8917014065083898
 40
0.997103682733673
 40
1.0
 40
1.0
 40
1.0
 40
1.0
 10
12.00000000000002
 20
-7.080197168851834
 30
0.0
 10
12.66357727028512
 20
-7.614473048347125
 30
0.0
 10
13.99082720236598
 20
-8.683101611329544
 30
0.0
 10
15.98214395776291
 20
-10.0265661965985
 30
0.0
 10
17.97473750142715
 20
-11.13626929493241
 30
0.0
 10
19.96772664073014
 20
-11.96897299797877
 30
0.0
 10
21.95925617333173
 20
-12.5095040648485
 30
0.0
 10
23.90308371155136
 20
-12.73482323738247
 30
0.0
 10
25.7997736265315
 20
-12.67524836106085
 30
0.0
 10
27.65115998177472
 20
-12.32027926804217
 30
0.0
 10
28.90178530407519
 20
-11.97599184000295
 30
0.0
 10
29.53521263780987
 20
-11.68733758166651
 30
0.0
 10
29.55215289958532
 20
-11.67961786633629
 30
0.0
  0
SPLINE
  5
A9
330
1F
100
AcDbEntity
  8
외형선
  6
Continuous
370
    15
100
AcDbSpline
210
0.0
220
0.0
230
1.0
 70
    24
 71
     3
 72
    34
 73
    30
 74
     0
 42
0.000000001
 43
0.00000001
 40
0.0
 40
0.0
 40
0.0
 40
0.0
 40
0.1250000000000012
 40
0.1250000000000012
 40
0.1562500000000016
 40
0.1562500000000016
 40
0.1875000000000018
 40
0.1875000000000018
 40
0.2500000000000018
 40
0.2500000000000018
 40
0.3750000000000016
 40
0.3750000000000016
 40
0.5000000000000012
 40
0.5000000000000012
 40
0.5625000000000011
 40
0.5625000000000011
 40
0.6250000000000009
 40
0.6250000000000009
 40
0.6875000000000008
 40
0.6875000000000008
 40
0.7500000000000007
 40
0.7500000000000007
 40
0.8125000000000004
 40
0.8125000000000004
 40
0.8750000000000003
 40
0.8750000000000003
 40
0.9375000000000001
 40
0.9375000000000001
 40
1.0
 40
1.0
 40
1.0
 40
1.0
 10
12.00000000000004
 20
2.697724079001967
 30
0.0
 10
12.00000000000002
 20
2.691647576866456
 30
0.0
 10
12.00000000000001
 20
2.618720423248076
 30
0.0
 10
12.00000000000002
 20
2.488952732025435
 30
0.0
 10
12.00000000000004
 20
2.460997309171046
 30
0.0
 10
12.00000000000004
 20
2.401916468726282
 30
0.0
 10
12.00000000000004
 20
2.370231451112593
 30
0.0
 10
12.00000000000002
 20
2.263575559818637
 30
0.0
 10
11.99999999999999
 20
2.178608320563094
 30
0.0
 10
12.00000000000001
 20
1.872097151276768
 30
0.0
 10
12.00000000000002
 20
1.598312823097336
 30
0.0
 10
12.00000000000004
 20
0.8617617562456243
 30
0.0
 10
12.00000000000002
 20
0.3967495933014767
 30
0.0
 10
12.00000000000002
 20
-0.4464821533988722
 30
0.0
 10
12.00000000000002
 20
-0.751214566388884
 30
0.0
 10
12.00000000000004
 20
-1.397968763497856
 30
0.0
 10
12.00000000000004
 20
-1.739970769167457
 30
0.0
 10
12.00000000000005
 20
-2.443283523804527
 30
0.0
 10
12.00000000000001
 20
-2.804476876068749
 30
0.0
 10
12.00000000000004
 20
-3.522127178690024
 30
0.0
 10
12.00000000000002
 20
-3.87839720501412
 30
0.0
 10
12.00000000000001
 20
-4.56082752560423
 30
0.0
 10
12.00000000000004
 20
-4.886811164755156
 30
0.0
 10
12.00000000000004
 20
-5.487758090201043
 30
0.0
 10
12.00000000000004
 20
-5.762633382773909
 30
0.0
 10
12.00000000000004
 20
-6.24915123251441
 30
0.0
 10
12.00000000000004
 20
-6.46081591361784
 30
0.0
 10
12.00000000000004
 20
-6.818402896904725
 30
0.0
 10
12.00000000000004
 20
-6.964419184588434
 30
0.0
 10
12.00000000000002
 20
-7.080197168851714
 30
0.0
  0
SPLINE
  5
AA
330
1F
100
AcDbEntity
  8
0
  6
Continuous
 62
     1
370
    15
100
AcDbSpline
210
0.0
220
0.0
230
1.0
 70
     8
 71
     3
 72
    19
 73
    15
 74
     0
 42
0.000000001
 43
0.00000001
 40
0.0
 40
0.0
 40
0.0
 40
0.0
 40
0.0647087327981283
 40
0.1463171501753122
 40
0.2278938771915519
 40
0.3095120120362361
 40
0.391188422211665
 40
0.4727888320264275
 40
0.5606291958025548
 40
0.6484905303209223
 40
0.7364060938026399
 40
0.8243063935270781
 40
0.9121595104495036
 40
1.0
 40
1.0
 40
1.0
 40
1.0
 10
34.66667233631975
 20
-12.6767513145481
 30
0.0
 10
34.17755974520597
 20
-12.66935402018036
 30
0.0
 10
33.07159525862122
 20
-12.65262751381724
 30
0.0
 10
31.35003948982316
 20
-12.30697019186441
 30
0.0
 10
29.50109707193971
 20
-11.7055149919314
 30
0.0
 10
27.65117393549609
 20
-10.84779243129702
 30
0.0
 10
25.79976989956946
 20
-9.763127497372047
 30
0.0
 10
23.90308479511048
 20
-8.437223548151648
 30
0.0
 10
21.9592558739332
 20
-6.882866082620115
 30
0.0
 10
19.96772672101553
 20
-5.121492863452539
 30
0.0
 10
17.97473747992026
 20
-3.23449943359194
 30
0.0
 10
15.98214396349422
 20
-1.269111633807957
 30
0.0
 10
13.99082720093368
 20
0.7323550969431487
 30
0.0
 10
12.6635772698077
 20
2.042632475537995
 30
0.0
 10
12.00000000000004
 20
2.697724079001954
 30
0.0
  0
SPLINE
  5
AB
330
1F
100
AcDbEntity
  8
0
  6
Continuous
 62
     1
370
    15
100
AcDbSpline
210
0.0
220
0.0
230
1.0
 70
     8
 71
     3
 72
    24
 73
    20
 74
     0
 42
0.000000001
 43
0.00000001
 40
0.0
 40
0.0
 40
0.0
 40
0.0
 40
0.064534907926415
 40
0.1290790929673913
 40
0.1936579424074303
 40
0.2582480058693362
 40
0.3227982282377484
 40
0.3873330437598808
 40
0.4472834716445755
 40
0.5072897356966581
 40
0.5672531858582083
 40
0.6271862143951775
 40
0.6871425252992671
 40
0.7471500791832852
 40
0.8071067502027521
 40
0.8670397545101246
 40
0.9270027963607548
 40
0.987009199242067
 40
1.0
 40
1.0
 40
1.0
 40
1.0
 10
12.00000000000001
 20
5.590564241072782
 30
0.0
 10
12.66357726977911
 20
4.981227173839193
 30
0.0
 10
13.99082720084793
 20
3.762465445076762
 30
0.0
 10
15.98214396383736
 20
1.804884308359268
 30
0.0
 10
17.97473747863272
 20
-0.1869917473369356
 30
0.0
 10
19.96772672582193
 20
-2.176635699466053
 30
0.0
 10
21.95925585600931
 20
-4.112610560867497
 30
0.0
 10
23.90308485997936
 20
-5.903931864175926
 30
0.0
 10
25.79976967644934
 20
-7.517920484917219
 30
0.0
 10
27.6511747708564
 20
-8.93141704350132
 30
0.0
 10
29.50109395702438
 20
-10.15653905602327
 30
0.0
 10
31.3500511105848
 20
-11.16645165899124
 30
0.0
 10
33.19974233312118
 20
-11.93970944422218
 30
0.0
 10
35.05116167322571
 20
-12.4600966129247
 30
0.0
 10
36.90086069003819
 20
-12.71538396617949
 30
0.0
 10
38.74983308313777
 20
-12.70678792407318
 30
0.0
 10
40.5996786814695
 20
-12.40814635555767
 30
0.0
 10
41.96802836283588
 20
-12.05084953530771
 30
0.0
 10
42.71858793645093
 20
-11.72066762229279
 30
0.0
 10
42.85215976374968
 20
-11.66190746119062
 30
0.0
  0
SPLINE
  5
AC
330
1F
100
AcDbEntity
  8
외형선
  6
Continuous
370
    15
100
AcDbSpline
210
0.0
220
0.0
230
1.0
 70
    24
 71
     3
 72
    16
 73
    12
 74
     0
 42
0.000000001
 43
0.00000001
 40
0.0
 40
0.0
 40
0.0
 40
0.0
 40
0.1079026091461844
 40
0.2183750054846438
 40
0.3369164798318586
 40
0.4588956649657114
 40
0.5774371393129287
 40
0.6994163244467861
 40
0.8179577987940018
 40
0.9399369839278564
 40
1.0
 40
1.0
 40
1.0
 40
1.0
 10
12.00000000000002
 20
12.09712310098944
 30
0.0
 10
12.00000000000002
 20
11.86813255138346
 30
0.0
 10
12.00000000000004
 20
11.40469785854492
 30
0.0
 10
11.99999999999996
 20
10.6306045248435
 30
0.0
 10
12.00000000000009
 20
9.801245886880555
 30
0.0
 10
11.99999999999998
 20
8.945804529384809
 30
0.0
 10
12.00000000000001
 20
8.102330127865388
 30
0.0
 10
12.00000000000012
 20
7.307522214015202
 30
0.0
 10
12.00000000000004
 20
6.576972311745108
 30
0.0
 10
12.00000000000005
 20
6.024754541683398
 30
0.0
 10
12.00000000000005
 20
5.760853170797311
 30
0.0
 10
12.00000000000004
 20
5.673781534792123
 30
0.0
  0
SPLINE
  5
AD
330
1F
100
AcDbEntity
  8
0
  6
Continuous
 62
     1
370
    15
100
AcDbSpline
210
0.0
220
0.0
230
1.0
 70
     8
 71
     3
 72
    26
 73
    22
 74
     0
 42
0.000000001
 43
0.00000001
 40
0.0
 40
0.0
 40
0.0
 40
0.0
 40
0.0504823625578424
 40
0.1018949118745436
 40
0.1533219649972903
 40
0.2047967671755733
 40
0.2562343733152759
 40
0.3076462125947294
 40
0.359078353696401
 40
0.4105541432299288
 40
0.461985975416769
 40
0.5133978354808991
 40
0.5648357918786212
 40
0.6163104749661605
 40
0.6677372605705534
 40
0.723096633955827
 40
0.7784692236701313
 40
0.8338759899440641
 40
0.889273136585266
 40
0.9446405473483167
 40
1.0
 40
1.0
 40
1.0
 40
1.0
 10
47.96500858244013
 20
-12.69645707609335
 30
0.0
 10
47.35973406710576
 20
-12.67246338401693
 30
0.0
 10
46.13803226324833
 20
-12.62403389268972
 30
0.0
 10
44.30063431059919
 20
-12.21347937469036
 30
0.0
 10
42.45110806513566
 20
-11.56167490460783
 30
0.0
 10
40.59973351852081
 20
-10.66012909322927
 30
0.0
 10
38.74981840249593
 20
-9.53370174239769
 30
0.0
 10
36.90086462449726
 20
-8.204906804274161
 30
0.0
 10
35.05116061778757
 20
-6.702223893440987
 30
0.0
 10
33.19974261576068
 20
-5.058607696435391
 30
0.0
 10
31.35005103491335
 20
-3.306739590523516
 30
0.0
 10
29.50109397730792
 20
-1.484935715337717
 30
0.0
 10
27.65117476541677
 20
0.3683974011589785
 30
0.0
 10
25.7997696779022
 20
2.212879657414753
 30
0.0
 10
23.90308485955693
 20
4.057767250084474
 30
0.0
 10
21.95925585612601
 20
5.855504723116533
 30
0.0
 10
19.96772672579065
 20
7.553091487168232
 30
0.0
 10
17.97473747864109
 20
9.066402280310035
 30
0.0
 10
15.98214396383514
 20
10.35167216317978
 30
0.0
 10
13.99082720084847
 20
11.40421670723803
 30
0.0
 10
12.66357726977932
 20
11.86616537006117
 30
0.0
 10
12.00000000000004
 20
12.09712310098938
 30
0.0
  0
LINE
  5
AE
330
1F
100
AcDbEntity
  8
0
  6
Continuous
 62
     1
370
    15
100
AcDbLine
 10
62.80000000000001
 20
-4.976288228611404
 30
0.0
 11
62.80000000000001
 21
4.978438086059432
 31
0.0
  0
SPLINE
  5
AF
330
1F
100
AcDbEntity
  8
0
  6
Continuous
 62
     1
370
    15
100
AcDbSpline
210
0.0
220
0.0
230
1.0
 70
     8
 71
     3
 72
    21
 73
    17
 74
     0
 42
0.000000001
 43
0.00000001
 40
0.0
 40
0.0
 40
0.0
 40
0.0
 40
0.0404383461544571
 40
0.1142476874883044
 40
0.1881104025172715
 40
0.2619046010151854
 40
0.3356779875731311
 40
0.4094966564190075
 40
0.483354950507408
 40
0.5571428930224607
 40
0.6309183469357967
 40
0.7047473839822385
 40
0.7785982539167946
 40
0.8523809864372223
 40
0.9261595558507631
 40
1.0
 40
1.0
 40
1.0
 40
1.0
 10
37.73631480651603
 20
12.66773487307713
 30
0.0
 10
38.07406323862737
 20
12.67288159667282
 30
0.0
 10
39.02828073244216
 20
12.68742228205848
 30
0.0
 10
40.59973444603925
 20
12.4151814605288
 30
0.0
 10
42.45111080108386
 20
11.8804892852334
 30
0.0
 10
44.30062245494318
 20
11.08081234577737
 30
0.0
 10
46.14960241295066
 20
10.04992795745728
 30
0.0
 10
47.99976895883867
 20
8.805300532531739
 30
0.0
 10
49.85102511971778
 20
7.375107585504031
 30
0.0
 10
51.70037396729866
 20
5.787741614604901
 30
0.0
 10
53.54940696403048
 20
4.077877916196011
 30
0.0
 10
55.39985650914792
 20
2.282143043290426
 30
0.0
 10
57.2509070460505
 20
0.438033499315884
 30
0.0
 10
59.10012443916331
 20
-1.414284012978304
 30
0.0
 10
60.94923718578661
 20
-3.244101732774757
 30
0.0
 10
62.18290669710697
 20
-4.398731408400024
 30
0.0
 10
62.80000000000004
 20
-4.976288228611406
 30
0.0
  0
SPLINE
  5
B0
330
1F
100
AcDbEntity
  8
0
  6
Continuous
 62
     1
370
    15
100
AcDbSpline
210
0.0
220
0.0
230
1.0
 70
     8
 71
     3
 72
    18
 73
    14
 74
     0
 42
0.000000001
 43
0.00000001
 40
0.0
 40
0.0
 40
0.0
 40
0.0
 40
0.0927761442179505
 40
0.1854745464955799
 40
0.2781781794704154
 40
0.3709674230700599
 40
0.4637292349390355
 40
0.5564237227751997
 40
0.6491339017996748
 40
0.7419324734088626
 40
0.8346812582479769
 40
0.9273731485745513
 40
1.0
 40
1.0
 40
1.0
 40
1.0
 10
62.80000000000004
 20
4.978438086059435
 30
0.0
 10
62.18290669692493
 20
5.535637060914157
 30
0.0
 10
60.94923718524063
 20
6.649568104719985
 30
0.0
 10
59.10012444134509
 20
8.152223892356702
 30
0.0
 10
57.25090703786479
 20
9.489752362564156
 30
0.0
 10
55.39985653973555
 20
10.62365137328806
 30
0.0
 10
53.54940684994929
 20
11.5334020898783
 30
0.0
 10
51.700374392746
 20
12.19902001550544
 30
0.0
 10
49.85102353094801
 20
12.6056846783404
 30
0.0
 10
47.99977489313287
 20
12.7473066637261
 30
0.0
 10
46.14958028553731
 20
12.6113240009515
 30
0.0
 10
44.43424781666803
 20
12.26403608673043
 30
0.0
 10
43.33505197632196
 20
11.84718560551591
 30
0.0
 10
42.85215976374977
 20
11.6640573186384
 30
0.0
  0
LINE
  5
B1
330
1F
100
AcDbEntity
  8
0
  6
Continuous
 62
     1
370
    15
100
AcDbLine
 10
62.80000000000001
 20
-7.628884310425705
 30
0.0
 11
62.80000000000001
 21
-4.976288228611404
 31
0.0
  0
LINE
  5
B2
330
1F
100
AcDbEntity
  8
외형선
  6
Continuous
370
    15
100
AcDbLine
 10
12.00000000000002
 20
2.697724079001963
 30
0.0
 11
12.00000000000002
 21
5.590564241072771
 31
0.0
  0
LINE
  5
B3
330
1F
100
AcDbEntity
  8
0
  6
Continuous
 62
     1
370
    15
100
AcDbLine
 10
62.80000000000001
 20
-12.69892507127611
 30
0.0
 11
62.80000000000001
 21
-12.60624746776119
 31
0.0
  0
LINE
  5
B4
330
1F
100
AcDbEntity
  8
외형선
  6
Continuous
370
    15
100
AcDbLine
 10
12.00000000000002
 20
12.09712310098944
 30
0.0
 11
12.00000000000002
 21
12.67183633864846
 31
0.0
  0
SPLINE
  5
B5
330
1F
100
AcDbEntity
  8
0
  6
Continuous
 62
     1
370
    15
100
AcDbSpline
210
0.0
220
0.0
230
1.0
 70
     8
 71
     3
 72
    10
 73
     6
 74
     0
 42
0.000000001
 43
0.00000001
 40
0.0
 40
0.0
 40
0.0
 40
0.0
 40
0.4682059735203764
 40
0.9364792532567869
 40
0.9999999999999999
 40
0.9999999999999999
 40
0.9999999999999999
 40
0.9999999999999999
 10
12.00000000000002
 20
-12.66968648120067
 30
0.0
 10
12.66358798725607
 20
-12.58955773805833
 30
0.0
 10
13.99085935481939
 20
-12.42928873299174
 30
0.0
 10
15.40804813571489
 20
-12.04631775386779
 30
0.0
 10
16.16201899274011
 20
-11.70667008350758
 30
0.0
 10
16.25207790554493
 20
-11.66610047840371
 30
0.0
  0
SPLINE
  5
B6
330
1F
100
AcDbEntity
  8
0
  6
Continuous
 62
     1
370
    15
100
AcDbSpline
210
0.0
220
0.0
230
1.0
 70
     8
 71
     3
 72
    14
 73
    10
 74
     0
 42
0.000000001
 43
0.00000001
 40
0.0
 40
0.0
 40
0.0
 40
0.0
 40
0.0564574553181504
 40
0.213641970195944
 40
0.3709406482314828
 40
0.5282858429842305
 40
0.6854858655175381
 40
0.8426770182181077
 40
1.0
 40
1.0
 40
1.0
 40
1.0
 10
51.03641595544319
 20
12.67009077924827
 30
0.0
 10
51.25777138808498
 20
12.67835317502409
 30
0.0
 10
52.09540763075071
 20
12.7096190991104
 30
0.0
 10
53.54937712034443
 20
12.48589862337606
 30
0.0
 10
55.3998645108752
 20
12.00370272689454
 30
0.0
 10
57.25090490466523
 20
11.25042647367732
 30
0.0
 10
59.10012500992485
 20
10.2601406123583
 30
0.0
 10
60.94923704295998
 20
9.062796888649974
 30
0.0
 10
62.18290664948479
 20
8.108421750732768
 30
0.0
 10
62.80000000000004
 20
7.631034167873557
 30
0.0
  0
LINE
  5
B7
330
1F
100
AcDbEntity
  8
0
  6
Continuous
 62
     1
370
    15
100
AcDbLine
 10
62.80000000000001
 20
4.978438086059432
 30
0.0
 11
62.80000000000001
 21
7.631034167873559
 31
0.0
  0
SPLINE
  5
B8
330
1F
100
AcDbEntity
  8
0
  6
Continuous
 62
     1
370
    15
100
AcDbSpline
210
0.0
220
0.0
230
1.0
 70
     8
 71
     3
 72
    11
 73
     7
 74
     0
 42
0.000000001
 43
0.00000001
 40
0.0
 40
0.0
 40
0.0
 40
0.0
 40
0.2783312547540752
 40
0.5564292813224033
 40
0.8345430001414588
 40
1.0
 40
1.0
 40
1.0
 40
1.0
 10
62.80000000000004
 20
12.60839732520899
 30
0.0
 10
62.18290746471784
 20
12.6575575097788
 30
0.0
 10
60.94923948797594
 20
12.75583668505153
 30
0.0
 10
59.1001152391915
 20
12.55130067187898
 30
0.0
 10
57.5011227263184
 20
12.19657221110079
 30
0.0
 10
56.51762290186836
 20
11.80226750890193
 30
0.0
 10
56.15076611114054
 20
11.65518730205141
 30
0.0
  0
SPLINE
  5
B9
330
1F
100
AcDbEntity
  8
0
  6
Continuous
 62
     1
370
    15
100
AcDbSpline
210
0.0
220
0.0
230
1.0
 70
     8
 71
     3
 72
    12
 73
     8
 74
     0
 42
0.000000001
 43
0.00000001
 40
0.0
 40
0.0
 40
0.0
 40
0.0
 40
0.1494102151718334
 40
0.3621500889887015
 40
0.5748530272543545
 40
0.7874417916132609
 40
1.0
 40
1.0
 40
1.0
 40
1.0
 10
21.36745327209402
 20
-12.66632451026305
 30
0.0
 10
20.90099116548954
 20
-12.66436256506825
 30
0.0
 10
19.7703503105628
 20
-12.65960707612077
 30
0.0
 10
17.97472908114183
 20
-12.29274679660264
 30
0.0
 10
15.98214620167268
 20
-11.62159560428995
 30
0.0
 10
13.99082664160805
 20
-10.67031518217171
 30
0.0
 10
12.66357708337477
 20
-9.822300806863565
 30
0.0
 10
12.00000000000004
 20
-9.39832409326354
 30
0.0
  0
LINE
  5
BA
330
1F
100
AcDbEntity
  8
0
  6
Continuous
 62
     1
370
    15
100
AcDbLine
 10
62.80000000000001
 20
12.60839732520899
 30
0.0
 11
62.80000000000001
 21
12.7010749287239
 31
0.0
  0
LINE
  5
BB
330
1F
100
AcDbEntity
  8
외형선
  6
Continuous
370
    15
100
AcDbLine
 10
12.00000000000002
 20
-9.398324093263595
 30
0.0
 11
12.00000000000002
 21
-7.080197168851834
 31
0.0
  0
LINE
  5
BC
330
1F
100
AcDbEntity
  8
0
  6
Continuous
 62
     1
370
    15
100
AcDbLine
 10
62.80000000000001
 20
7.603467547207512
 30
0.0
 11
62.80000000000001
 21
12.60839732520899
 31
0.0
  0
SPLINE
  5
BD
330
1F
100
AcDbEntity
  8
외형선
  6
Continuous
370
    15
100
AcDbSpline
210
0.0
220
0.0
230
1.0
 70
    24
 71
     3
 72
    12
 73
     8
 74
     0
 42
0.000000001
 43
0.00000001
 40
0.0
 40
0.0
 40
0.0
 40
0.0
 40
0.1159378987235673
 40
0.3743116182073007
 40
0.6326853376910334
 40
0.8910590571747663
 40
1.0
 40
1.0
 40
1.0
 40
1.0
 10
12.00000000000001
 20
-9.481551386982943
 30
0.0
 10
12.00000000000001
 20
-9.590843304105801
 30
0.0
 10
12.00000000000001
 20
-9.943698020342943
 30
0.0
 10
11.99999999999996
 20
-10.61040609827313
 30
0.0
 10
12.00000000000001
 20
-11.45148149839921
 30
0.0
 10
12.00000000000001
 20
-12.14701119732451
 30
0.0
 10
12.00000000000002
 20
-12.55012728315014
 30
0.0
 10
12.00000000000004
 20
-12.66968648120067
 30
0.0
  0
LINE
  5
BE
330
1F
100
AcDbEntity
  8
외형선
  6
Continuous
370
    15
100
AcDbLine
 10
11.13693643533347
 20
12.69642388691076
 30
0.0
 11
12.00000000000002
 21
12.67183633864846
 31
0.0
  0
SPLINE
  5
BF
330
1F
100
AcDbEntity
  8
외형선
  6
Continuous
370
    15
100
AcDbSpline
210
0.0
220
0.0
230
1.0
 70
     8
 71
     3
 72
     8
 73
     4
 74
     0
 42
0.000000001
 43
0.00000001
 40
0.0
 40
0.0
 40
0.0
 40
0.0
 40
1.0
 40
1.0
 40
1.0
 40
1.0
 10
12.00000000000002
 20
12.09712310098937
 30
0.0
 10
11.66653456350075
 20
12.19860270108645
 30
0.0
 10
11.33257497494666
 20
12.28763599697646
 30
0.0
 10
10.9996683221652
 20
12.3638315747845
 30
0.0
  0
LINE
  5
C0
330
1F
100
AcDbEntity
  8
외형선
  6
Continuous
370
    15
100
AcDbLine
 10
10.99966832216519
 20
6.469459687591563
 30
0.0
 11
10.99966832216519
 21
12.36383658257656
 31
0.0
  0
SPLINE
  5
C1
330
1F
100
AcDbEntity
  8
외형선
  6
Continuous
370
    15
100
AcDbSpline
210
0.0
220
0.0
230
1.0
 70
     8
 71
     3
 72
     8
 73
     4
 74
     0
 42
0.000000001
 43
0.00000001
 40
0.0
 40
0.0
 40
0.0
 40
0.0
 40
1.0
 40
1.0
 40
1.0
 40
1.0
 10
12.00000000000002
 20
5.59056424107278
 30
0.0
 10
11.66653456350075
 20
5.889609931246198
 30
0.0
 10
11.33257497494666
 20
6.183028273477561
 30
0.0
 10
10.9996683221652
 20
6.469470128262833
 30
0.0
  0
SPLINE
  5
C2
330
1F
100
AcDbEntity
  8
외형선
  6
Continuous
370
    15
100
AcDbSpline
210
0.0
220
0.0
230
1.0
 70
     8
 71
     3
 72
     8
 73
     4
 74
     0
 42
0.000000001
 43
0.00000001
 40
0.0
 40
0.0
 40
0.0
 40
0.0
 40
1.0
 40
1.0
 40
1.0
 40
1.0
 10
12.00000000000002
 20
2.697724079001954
 30
0.0
 10
11.66653456350075
 20
3.023165043819621
 30
0.0
 10
11.33257497494666
 20
3.345980180154654
 30
0.0
 10
10.9996683221652
 20
3.664679218463365
 30
0.0
  0
SPLINE
  5
C3
330
1F
100
AcDbEntity
  8
외형선
  6
Continuous
370
    15
100
AcDbSpline
210
0.0
220
0.0
230
1.0
 70
     8
 71
     3
 72
     8
 73
     4
 74
     0
 42
0.000000001
 43
0.00000001
 40
0.0
 40
0.0
 40
0.0
 40
0.0
 40
1.0
 40
1.0
 40
1.0
 40
1.0
 10
12.00000000000002
 20
-7.08019716885182
 30
0.0
 10
11.66653456350075
 20
-6.803737062710928
 30
0.0
 10
11.33257497494666
 20
-6.519825479792102
 30
0.0
 10
10.9996683221652
 20
-6.229789418315899
 30
0.0
  0
SPLINE
  5
C4
330
1F
100
AcDbEntity
  8
외형선
  6
Continuous
370
    15
100
AcDbSpline
210
0.0
220
0.0
230
1.0
 70
     8
 71
     3
 72
     8
 73
     4
 74
     0
 42
0.000000001
 43
0.00000001
 40
0.0
 40
0.0
 40
0.0
 40
0.0
 40
1.0
 40
1.0
 40
1.0
 40
1.0
 10
12.00000000000002
 20
-9.39832409326354
 30
0.0
 10
11.66653456350075
 20
-9.174362728542949
 30
0.0
 10
11.33257497494666
 20
-8.94058088809792
 30
0.0
 10
10.9996683221652
 20
-8.698077427597251
 30
0.0
  0
LINE
  5
C5
330
1F
100
AcDbEntity
  8
외형선
  6
Continuous
370
    15
100
AcDbLine
 10
10.99966832216519
 20
-12.69818474885613
 30
0.0
 11
10.99966832216519
 21
-8.698061489502523
 31
0.0
  0
SPLINE
  5
C6
330
1F
100
AcDbEntity
  8
외형선
  6
Continuous
370
    15
100
AcDbSpline
210
0.0
220
0.0
230
1.0
 70
     8
 71
     3
 72
     8
 73
     4
 74
     0
 42
0.000000001
 43
0.00000001
 40
0.0
 40
0.0
 40
0.0
 40
0.0
 40
1.0
 40
1.0
 40
1.0
 40
1.0
 10
12.00000000000002
 20
-12.66968648120067
 30
0.0
 10
11.66653456350075
 20
-12.6922720652332
 30
0.0
 10
11.33257497494666
 20
-12.70177882454574
 30
0.0
 10
10.9996683221652
 20
-12.69818461785481
 30
0.0
  0
LINE
  5
C7
330
1F
100
AcDbEntity
  8
외형선
  6
Continuous
370
    15
100
AcDbLine
 10
-48.95999999999998
 20
0.0010749287238949
 30
0.0
 11
-48.95999999999998
 21
10.7960749287239
 31
0.0
  0
LINE
  5
C8
330
1F
100
AcDbEntity
  8
외형선
  6
Continuous
370
    15
100
AcDbLine
 10
-48.95999999999998
 20
-12.69892507127611
 30
0.0
 11
-48.95999999999998
 21
0.0010749287238949
 31
0.0
  0
LINE
  5
C9
330
1F
100
AcDbEntity
  8
외형선
  6
Continuous
370
    15
100
AcDbLine
 10
10.99966832216519
 20
-6.229799989988487
 30
0.0
 11
10.99966832216519
 21
3.664700164350155
 31
0.0
  0
LINE
  5
CA
330
1F
100
AcDbEntity
  8
외형선
  6
Continuous
370
    15
100
AcDbLine
 10
-51.49999999999999
 20
0.0010749287238949
 30
0.0
 11
-51.49999999999999
 21
10.1610749287239
 31
0.0
  0
LINE
  5
CB
330
1F
100
AcDbEntity
  8
외형선
  6
Continuous
370
    15
100
AcDbLine
 10
-51.49999999999999
 20
-10.15892507127611
 30
0.0
 11
-51.49999999999999
 21
0.0010749287238949
 31
0.0
  0
SPLINE
  5
CC
330
1F
100
AcDbEntity
  8
외형선
  6
Continuous
370
    15
100
AcDbSpline
210
0.0
220
0.0
230
1.0
 70
    24
 71
     3
 72
    34
 73
    30
 74
     0
 42
0.000000001
 43
0.00000001
 40
0.0
 40
0.0
 40
0.0
 40
0.0
 40
0.0625000000000001
 40
0.0625000000000001
 40
0.1250000000000002
 40
0.1250000000000002
 40
0.1875000000000003
 40
0.1875000000000003
 40
0.2500000000000004
 40
0.2500000000000004
 40
0.3125000000000005
 40
0.3125000000000005
 40
0.3750000000000006
 40
0.3750000000000006
 40
0.4375000000000006
 40
0.4375000000000006
 40
0.5000000000000007
 40
0.5000000000000007
 40
0.6250000000000006
 40
0.6250000000000006
 40
0.7500000000000004
 40
0.7500000000000004
 40
0.8125000000000002
 40
0.8125000000000002
 40
0.84375
 40
0.84375
 40
0.8749999999999999
 40
0.8749999999999999
 40
1.0
 40
1.0
 40
1.0
 40
1.0
 10
12.00000000000002
 20
-7.080197168851715
 30
0.0
 10
12.00000000000005
 20
-6.964419184588437
 30
0.0
 10
12.00000000000004
 20
-6.81840289690473
 30
0.0
 10
12.00000000000005
 20
-6.460815913617856
 30
0.0
 10
12.00000000000005
 20
-6.249151232514434
 30
0.0
 10
12.00000000000006
 20
-5.762633382773948
 30
0.0
 10
12.00000000000005
 20
-5.48775809020109
 30
0.0
 10
12.00000000000005
 20
-4.886811164755225
 30
0.0
 10
12.00000000000002
 20
-4.560827525604309
 30
0.0
 10
11.99999999999999
 20
-3.878397205014219
 30
0.0
 10
12.00000000000004
 20
-3.52212717869013
 30
0.0
 10
12.00000000000002
 20
-2.804476876068873
 30
0.0
 10
12.00000000000005
 20
-2.443283523804665
 30
0.0
 10
12.00000000000004
 20
-1.739970769167606
 30
0.0
 10
12.00000000000005
 20
-1.397968763498007
 30
0.0
 10
12.00000000000004
 20
-0.751214566389039
 30
0.0
 10
12.00000000000005
 20
-0.4464821533990282
 30
0.0
 10
12.00000000000006
 20
0.3967495933013261
 30
0.0
 10
12.00000000000005
 20
0.8617617562454791
 30
0.0
 10
12.00000000000005
 20
1.598312823097217
 30
0.0
 10
12.00000000000004
 20
1.872097151276664
 30
0.0
 10
12.00000000000005
 20
2.178608320563012
 30
0.0
 10
12.00000000000005
 20
2.263575559818561
 30
0.0
 10
12.00000000000001
 20
2.370231451112526
 30
0.0
 10
12.00000000000001
 20
2.401916468726216
 30
0.0
 10
12.00000000000002
 20
2.460997309170982
 30
0.0
 10
12.00000000000004
 20
2.488952732025377
 30
0.0
 10
12.00000000000004
 20
2.618720423248025
 30
0.0
 10
12.00000000000001
 20
2.691647576866419
 30
0.0
 10
12.00000000000002
 20
2.697724079001955
 30
0.0
  0
SPLINE
  5
CD
330
1F
100
AcDbEntity
  8
외형선
  6
Continuous
370
    15
100
AcDbSpline
210
0.0
220
0.0
230
1.0
 70
    24
 71
     3
 72
    16
 73
    12
 74
     0
 42
0.000000001
 43
0.00000001
 40
0.0
 40
0.0
 40
0.0
 40
0.0
 40
0.102531879483829
 40
0.2229720492942685
 40
0.3434122191047071
 40
0.4638523889151456
 40
0.5842925587255856
 40
0.7047327285360251
 40
0.825172898346464
 40
0.9456130681569035
 40
1.0
 40
1.0
 40
1.0
 40
1.0
 10
12.00000000000006
 20
5.673781534792123
 30
0.0
 10
12.00000000000005
 20
5.832164887654761
 30
0.0
 10
12.00000000000002
 20
6.17659494140648
 30
0.0
 10
11.99999999999998
 20
6.829128279327734
 30
0.0
 10
12.00000000000002
 20
7.585012322199498
 30
0.0
 10
12.00000000000002
 20
8.400324523716595
 30
0.0
 10
12.00000000000002
 20
9.249884258679712
 30
0.0
 10
12.00000000000001
 20
10.10999974382966
 30
0.0
 10
12.00000000000005
 20
10.95472395409288
 30
0.0
 10
12.00000000000015
 20
11.61737742406967
 30
0.0
 10
12.00000000000002
 20
11.98329108540715
 30
0.0
 10
11.99999999999999
 20
12.09712310098937
 30
0.0
  0
SPLINE
  5
CE
330
1F
100
AcDbEntity
  8
외형선
  6
Continuous
370
    15
100
AcDbSpline
210
0.0
220
0.0
230
1.0
 70
    24
 71
     3
 72
    12
 73
     8
 74
     0
 42
0.000000001
 43
0.00000001
 40
0.0
 40
0.0
 40
0.0
 40
0.0
 40
0.2312373071319782
 40
0.4624746142639563
 40
0.7214153688438023
 40
0.9803561234236483
 40
0.9999999999999999
 40
0.9999999999999999
 40
0.9999999999999999
 40
0.9999999999999999
 10
12.00000000000002
 20
-12.66968648120067
 30
0.0
 10
12.00000000000004
 20
-12.4155665788119
 30
0.0
 10
12.00000000000005
 20
-11.90732677403434
 30
0.0
 10
12.00000000000009
 20
-11.11041618633731
 30
0.0
 10
12.00000000000004
 20
-10.31441416442745
 30
0.0
 10
11.99999999999998
 20
-9.753644652701471
 30
0.0
 10
11.99999999999999
 20
-9.499464431994424
 30
0.0
 10
11.99999999999999
 20
-9.481541386982945
 30
0.0
  0
LINE
  5
CF
330
1F
100
AcDbEntity
  8
중심선
100
AcDbLine
 10
-54.49999999999997
 20
0.0010749287238888
 30
0.0
 11
65.80000000000001
 21
0.0010749287239044
 31
0.0
  0
LINE
  5
D0
330
1F
100
AcDbEntity
  8
참조1
100
AcDbLine
 10
15.17500000000004
 20
0.0010749287238892
 30
0.0
 11
15.17500000000004
 21
-39.99892507127611
 31
0.0
  0
LINE
  5
D1
330
1F
100
AcDbEntity
  8
참조1
100
AcDbLine
 10
15.17500000000004
 20
-39.99892507127611
 30
0.0
 11
-9.508856814308633
 21
-39.9989250712761
 31
0.0
  0
CIRCLE
  5
D2
330
1F
100
AcDbEntity
  8
해칭선
100
AcDbCircle
 10
0.0
 20
0.0
 30
0.0
 40
3.000000000000001
  0
INSERT
  5
D3
330
1F
100
AcDbEntity
  8
0
  6
Continuous
 62
     7
100
AcDbBlockReference
 66
     1
  2
블럭10
 10
1.234727067874831
 20
-52.04609937292004
 30
0.0
  0
ATTRIB
  5
D4
330
D3
100
AcDbEntity
  8
FORMAT
 62
     2
100
AcDbText
 10
-7.94656822086645
 20
-49.97073246008785
 30
0.0
 40
4.233333333333333
  1
E2032064 [ 6 FLUTE ]
 41
0.75
  7
SLDTEXTSTYLE0
 11
-7.94656822086645
 21
-52.08739912675452
 31
0.0
100
AcDbAttribute
  2
AUTOATTR0
 70
     0
 74
     1
  0
SEQEND
  5
D5
330
D3
100
AcDbEntity
  8
0
  6
Continuous
 62
     7
  0
HATCH
  5
D6
330
1F
100
AcDbEntity
  8
중심선
100
AcDbHatch
 10
0.0
 20
0.0
 30
0.0
210
0.0
220
0.0
230
1.0
  2
SOLID
 70
     1
 71
     0
 91
        1
 92
        0
 93
        4
 72
     1
 10
6.94963637225568
 20
-35.7989250712761
 11
3.503361128418398
 21
-35.7989250712761
 72
     1
 10
3.503361128418398
 20
-35.7989250712761
 11
1.375131269214375
 21
-38.33525065184873
 72
     1
 10
1.375131269214375
 20
-38.33525065184873
 11
4.821439598164834
 21
-38.33521122254624
 72
     1
 10
4.821439598164834
 20
-38.33521122254624
 11
6.94963637225568
 21
-35.7989250712761
 97
        0
 75
     0
 76
     1
 98
        1
 10
0.0
 20
0.0
  0
HATCH
  5
D7
330
1F
100
AcDbEntity
  8
중심선
100
AcDbHatch
 10
0.0
 20
0.0
 30
0.0
210
0.0
220
0.0
230
1.0
  2
SOLID
 70
     1
 71
     0
 91
        1
 92
        0
 93
        4
 72
     1
 10
11.96240036329166
 20
-35.7989250712761
 11
8.516125119454376
 21
-35.7989250712761
 72
     1
 10
8.516125119454376
 20
-35.7989250712761
 11
3.98498711109696
 21
-41.19892507127612
 72
     1
 10
3.98498711109696
 20
-41.19892507127612
 11
7.431262354934242
 21
-41.19892507127612
 72
     1
 10
7.431262354934242
 20
-41.19892507127612
 11
11.96240036329166
 21
-35.7989250712761
 97
        0
 75
     0
 76
     1
 98
        1
 10
0.0
 20
0.0
  0
HATCH
  5
D8
330
1F
100
AcDbEntity
  8
중심선
100
AcDbHatch
 10
0.0
 20
0.0
 30
0.0
210
0.0
220
0.0
230
1.0
  2
SOLID
 70
     1
 71
     0
 91
        1
 92
        0
 93
        4
 72
     1
 10
16.97516435432753
 20
-35.7989250712761
 11
13.52888911049044
 21
-35.7989250712761
 72
     1
 10
13.52888911049044
 20
-35.7989250712761
 11
6.480452208601162
 21
-44.19892507127612
 72
     1
 10
6.480452208601162
 20
-44.19892507127612
 11
9.926727452438444
 21
-44.19892507127612
 72
     1
 10
9.926727452438444
 20
-44.19892507127612
 11
16.97516435432753
 21
-35.7989250712761
 97
        0
 75
     0
 76
     1
 98
        1
 10
0.0
 20
0.0
  0
HATCH
  5
D9
330
1F
100
AcDbEntity
  8
중심선
100
AcDbHatch
 10
0.0
 20
0.0
 30
0.0
210
0.0
220
0.0
230
1.0
  2
SOLID
 70
     1
 71
     0
 91
        1
 92
        0
 93
        6
 72
     3
 10
21.77505478533973
 20
-39.99892507132738
 11
3.960054785062284
 21
1.540850780301639E-10
 40
0.3939339440162633
 50
17.09539180608434
 51
320.0019657685081
 73
     0
 72
     1
 10
23.45805444104029
 20
-38.58681907591443
 11
25.76335631474136
 21
-36.65249236586651
 72
     3
 10
21.77505478528688
 20
-39.99892507127625
 11
6.600054785286829
 21
-1.249000902703301E-13
 40
0.6363583540795982
 50
39.99873849337385
 51
368.4976242363725
 73
     1
 72
     1
 10
28.20038727718749
 20
-39.03892507120613
 11
20.45512209212283
 21
-39.03892507120613
 72
     1
 10
20.45512209212283
 20
-39.03892507120613
 11
20.45509704767687
 21
-40.95892507120602
 72
     1
 10
20.45509704767687
 20
-40.95892507120602
 11
24.8964768171489
 21
-40.95892507120599
 97
        0
 75
     0
 76
     1
 98
        1
 10
0.0
 20
0.0
  0
DIMENSION
  5
DA
330
1F
100
AcDbEntity
  8
치수문자_일반주서
100
AcDbDimension
  2
_D
 10
-63.54749999999993
 20
-12.69892507127615
 30
0.0
 11
-63.54749999999997
 21
0.0010749287238801
 31
0.0
 70
   160
  1
%%c<>
 71
     2
 42
25.39999999999998
 52
-270.0
  3
SLDDIMSTYLE0
100
AcDbAlignedDimension
 13
-48.95999999999997
 23
12.70107492872388
 33
0.0
 14
-48.95999999999997
 24
-12.69892507127609
 34
0.0
 50
90.0000000000002
100
AcDbRotatedDimension
1001
ACAD
1000
DSTYLE
1002
{
1070
   171
1070
     6
1070
   273
1070
     7
1002
}
  0
DIMENSION
  5
EF
330
1F
100
AcDbEntity
  8
치수문자_일반주서
100
AcDbDimension
  2
_D_1
 10
12.00000000000002
 20
35.14838386579974
 30
0.0
 11
37.40000000000002
 21
35.14838386579974
 31
0.0
 70
   160
  1
<>
 71
     2
 42
50.79999999999999
  3
SLDDIMSTYLE0
100
AcDbAlignedDimension
 13
62.80000000000001
 23
12.7010749287239
 33
0.0
 14
12.00000000000002
 24
12.67183633864846
 34
0.0
100
AcDbRotatedDimension
1001
ACAD
1000
DSTYLE
1002
{
1070
   171
1070
     6
1070
   273
1070
     7
1002
}
  0
DIMENSION
  5
103
330
1F
100
AcDbEntity
  8
치수문자_일반주서
100
AcDbDimension
  2
_D_2
 10
-51.49999999999999
 20
47.14838386579975
 30
0.0
 11
5.650000000000013
 21
47.14838386579975
 31
0.0
 70
   160
  1
<>
 71
     2
 42
114.3
  3
SLDDIMSTYLE0
100
AcDbAlignedDimension
 13
62.80000000000001
 23
12.7010749287239
 33
0.0
 14
-51.49999999999999
 24
10.1610749287239
 34
0.0
100
AcDbRotatedDimension
1001
ACAD
1000
DSTYLE
1002
{
1070
   171
1070
     6
1070
   273
1070
     7
1002
}
  0
DIMENSION
  5
116
330
1F
100
AcDbEntity
  8
치수문자_일반주서
100
AcDbDimension
  2
_D_3
 10
80.30185093814113
 20
-12.69892507127604
 30
0.0
 11
80.30185093814096
 21
39.68784423212328
 31
0.0
 70
   160
  1
%%c<>
 71
     2
 42
25.40000000000001
 52
-270.0
  3
SLDDIMSTYLE0
100
AcDbAlignedDimension
 13
62.80000000000001
 23
12.7010749287239
 33
0.0
 14
62.80000000000001
 24
-12.69892507127611
 34
0.0
 50
90.0000000000002
100
AcDbRotatedDimension
1001
ACAD
1000
DSTYLE
1002
{
1070
   171
1070
     6
1070
   273
1070
     7
1002
}
  0
LINE
  5
129
330
1F
100
AcDbEntity
  8
참조1
100
AcDbLine
 10
88.46348381534564
 20
7.441074928723896
 30
0.0
 11
88.46348381534564
 21
-7.438925071276109
 31
0.0
  0
LINE
  5
12A
330
1F
100
AcDbEntity
  8
참조1
100
AcDbLine
 10
101.1634838153456
 20
5.441074928723896
 30
0.0
 11
88.46348381534564
 21
5.441074928723896
 31
0.0
  0
SOLID
  5
12B
330
1F
100
AcDbEntity
  8
참조1
100
AcDbTrace
 10
88.46348381534564
 20
5.441074928723896
 30
0.0
 11
94.81348381534563
 21
4.425074928723896
 31
0.0
 12
94.81348381534563
 22
6.457074928723896
 32
0.0
 13
94.81348381534563
 23
6.457074928723896
 33
0.0
  0
LINE
  5
12C
330
1F
100
AcDbEntity
  8
참조1
100
AcDbLine
 10
101.1634838153456
 20
-5.438925071276109
 30
0.0
 11
88.46348381534564
 21
-5.438925071276109
 31
0.0
  0
SOLID
  5
12D
330
1F
100
AcDbEntity
  8
참조1
100
AcDbTrace
 10
88.46348381534564
 20
-5.438925071276109
 30
0.0
 11
94.81348381534563
 21
-6.454925071276109
 31
0.0
 12
94.81348381534563
 22
-4.422925071276109
 32
0.0
 13
94.81348381534563
 23
-4.422925071276109
 33
0.0
  0
MTEXT
  5
12E
330
1F
100
AcDbEntity
  8
참조1
100
AcDbMText
 10
97.8609739078159
 20
10.98929157337383
 30
0.0
 40
3.5
 41
0.0
 71
     1
 72
     1
  1
A
  7
SLDTEXTSTYLE0
 73
     1
 44
1.0
  0
MTEXT
  5
12F
330
1F
100
AcDbEntity
  8
참조1
100
AcDbMText
 10
97.8609739078159
 20
0.1092915733738251
 30
0.0
 40
3.5
 41
0.0
 71
     1
 72
     1
  1
A
  7
SLDTEXTSTYLE0
 73
     1
 44
1.0
  0
INSERT
  5
136
330
1F
100
AcDbEntity
  8
해칭선
100
AcDbBlockReference
  2
SW_DOWELSYMBOL_0
 10
0.0
 20
0.0
 30
0.0
  0
LINE
  5
2FD
330
1F
100
AcDbEntity
  8
외형선
  6
Continuous
370
    15
100
AcDbLine
 10
-29.08132499999989
 20
10.7960749287239
 30
0.0
 11
-15.974925
 21
10.7960749287239
 31
0.0
  0
LINE
  5
2FE
330
1F
100
AcDbEntity
  8
외형선
  6
Continuous
370
    15
100
AcDbLine
 10
-29.08132499999989
 20
10.7960749287239
 30
0.0
 11
-30.98632499999986
 21
12.7010749287239
 31
0.0
  0
LINE
  5
2FF
330
1F
100
AcDbEntity
  8
외형선
  6
Continuous
370
    15
100
AcDbLine
 10
-15.974925
 20
10.7960749287239
 30
0.0
 11
-14.06992499999997
 21
12.7010749287239
 31
0.0
  0
LINE
  5
300
330
1F
100
AcDbEntity
  8
외형선
  6
Continuous
370
    15
100
AcDbLine
 10
-50.86499999999998
 20
10.7960749287239
 30
0.0
 11
-38.79999999999997
 21
10.7960749287239
 31
0.0
  0
LINE
  5
301
330
1F
100
AcDbEntity
  8
외형선
  6
Continuous
370
    15
100
AcDbLine
 10
-38.79999999999997
 20
10.7960749287239
 30
0.0
 11
-36.895
 21
12.70107492872389
 31
0.0
  0
LINE
  5
303
330
1F
100
AcDbEntity
  8
외형선
  6
Continuous
370
    15
100
AcDbLine
 10
-30.98632499999986
 20
12.7010749287239
 30
0.0
 11
-36.89499999999999
 21
12.7010749287239
 31
0.0
  0
ENDSEC
  0
SECTION
  2
OBJECTS
  0
DICTIONARY
  5
C
330
0
100
AcDbDictionary
281
     1
  3
ACAD_GROUP
350
D
  3
ACAD_IMAGE_VARS
350
15A
  3
ACAD_LAYOUT
350
1A
  3
ACAD_MLINESTYLE
350
17
  3
ACAD_PLOTSETTINGS
350
19
  3
ACAD_PLOTSTYLENAME
350
E
  3
ACAD_SCALELIST
350
47
  3
APPDATA
350
158
  3
DWGPROPS
350
304
  0
DICTIONARY
  5
214
330
2
100
AcDbDictionary
280
     1
281
     1
  3
ACAD_LAYERSTATES
360
215
  0
DICTIONARY
  5
D
102
{ACAD_REACTORS
330
C
102
}
330
C
100
AcDbDictionary
281
     1
  0
RASTERVARIABLES
  5
15A
102
{ACAD_REACTORS
330
C
102
}
330
C
100
AcDbRasterVariables
 90
        0
 70
     1
 71
     1
 72
     1
  0
DICTIONARY
  5
1A
102
{ACAD_REACTORS
330
C
102
}
330
C
100
AcDbDictionary
281
     1
  3
Layout1
350
1E
  3
Layout2
350
26
  3
Model
350
22
  0
DICTIONARY
  5
17
102
{ACAD_REACTORS
330
C
102
}
330
C
100
AcDbDictionary
281
     1
  3
Standard
350
18
  0
DICTIONARY
  5
19
102
{ACAD_REACTORS
330
C
102
}
330
C
100
AcDbDictionary
281
     1
  0
ACDBDICTIONARYWDFLT
  5
E
102
{ACAD_REACTORS
330
C
102
}
330
C
100
AcDbDictionary
281
     1
  3
Normal
350
F
100
AcDbDictionaryWithDefault
340
F
  0
DICTIONARY
  5
47
102
{ACAD_REACTORS
330
C
102
}
330
C
100
AcDbDictionary
281
     1
  3
A0
350
48
  3
A1
350
49
  3
A2
350
4A
  3
A3
350
4B
  3
A4
350
4C
  3
A5
350
4D
  3
A6
350
4E
  3
A7
350
4F
  3
A8
350
50
  3
A9
350
51
  3
B0
350
52
  3
B1
350
53
  3
B2
350
54
  3
B3
350
55
  3
B4
350
56
  3
B5
350
57
  3
B6
350
58
  3
B7
350
59
  3
B8
350
5A
  3
B9
350
5B
  3
C0
350
5C
  3
C1
350
5D
  3
C2
350
5E
  3
C3
350
5F
  3
C4
350
60
  3
C5
350
61
  3
C6
350
62
  3
C7
350
63
  3
C8
350
64
  3
C9
350
65
  3
D0
350
66
  3
D1
350
67
  3
D2
350
68
  0
DICTIONARY
  5
158
102
{ACAD_REACTORS
330
C
102
}
330
C
100
AcDbDictionary
281
     1
  0
XRECORD
  5
304
102
{ACAD_REACTORS
330
C
102
}
330
C
100
AcDbXrecord
280
     1
  1
DWGPROPS COOKIE
  2

  3

  4

  6

  7

  8
12017012
  9

300
=
301
=
302
=
303
=
304
=
305
=
306
=
307
=
308
=
309
=
 40
0.0
 41
2458323.068862789
 42
2458324.014880139
  1

 90
        0
  0
DICTIONARY
  5
215
102
{ACAD_REACTORS
330
214
102
}
330
214
100
AcDbDictionary
281
     1
  0
LAYOUT
  5
1E
102
{ACAD_REACTORS
330
1A
102
}
330
1A
100
AcDbPlotSettings
  1

  2
none_device
  4

  6

 40
0.0
 41
0.0
 42
0.0
 43
0.0
 44
0.0
 45
0.0
 46
0.0
 47
0.0
 48
0.0
 49
0.0
140
0.0
141
0.0
142
1.0
143
1.0
 70
   688
 72
     1
 73
     0
 74
     5
  7

 75
    16
147
1.0
148
0.0
149
0.0
100
AcDbLayout
  1
Layout1
 70
     1
 71
     1
 10
0.0
 20
0.0
 11
420.0
 21
297.0
 12
0.0
 22
0.0
 32
0.0
 14
1.000000000000000E+20
 24
1.000000000000000E+20
 34
1.000000000000000E+20
 15
-1.000000000000000E+20
 25
-1.000000000000000E+20
 35
-1.000000000000000E+20
146
0.0
 13
0.0
 23
0.0
 33
0.0
 16
1.0
 26
0.0
 36
0.0
 17
0.0
 27
1.0
 37
0.0
 76
     0
330
1B
  0
LAYOUT
  5
26
102
{ACAD_REACTORS
330
1A
102
}
330
1A
100
AcDbPlotSettings
  1

  2
none_device
  4

  6

 40
0.0
 41
0.0
 42
0.0
 43
0.0
 44
0.0
 45
0.0
 46
0.0
 47
0.0
 48
0.0
 49
0.0
140
0.0
141
0.0
142
1.0
143
1.0
 70
   688
 72
     1
 73
     0
 74
     5
  7

 75
    16
147
1.0
148
0.0
149
0.0
100
AcDbLayout
  1
Layout2
 70
     1
 71
     2
 10
0.0
 20
0.0
 11
0.0
 21
0.0
 12
0.0
 22
0.0
 32
0.0
 14
0.0
 24
0.0
 34
0.0
 15
0.0
 25
0.0
 35
0.0
146
0.0
 13
0.0
 23
0.0
 33
0.0
 16
1.0
 26
0.0
 36
0.0
 17
0.0
 27
1.0
 37
0.0
 76
     0
330
23
  0
LAYOUT
  5
22
102
{ACAD_REACTORS
330
1A
102
}
330
1A
100
AcDbPlotSettings
  1

  2
none_device
  4
ANSI_A_(11.00_x_8.50_Inches)
  6

 40
6.35
 41
19.05
 42
6.35000508
 43
19.05000254
 44
279.4
 45
215.9
 46
52.96617225572761
 47
85.671160077828
 48
0.0
 49
0.0
140
0.0
141
0.0
142
0.0351811932893136
143
1.0
 70
  1696
 72
     0
 73
     0
 74
     0
  7

 75
     0
147
0.0235690232323232
148
0.0
149
0.0
100
AcDbLayout
  1
Model
 70
     1
 71
     0
 10
0.0
 20
0.0
 11
420.0
 21
297.0
 12
0.0
 22
0.0
 32
0.0
 14
1.000000000000000E+20
 24
1.000000000000000E+20
 34
1.000000000000000E+20
 15
-1.000000000000000E+20
 25
-1.000000000000000E+20
 35
-1.000000000000000E+20
146
0.0
 13
0.0
 23
0.0
 33
0.0
 16
1.0
 26
0.0
 36
0.0
 17
0.0
 27
1.0
 37
0.0
 76
     0
330
1F
331
29
  0
MLINESTYLE
  5
18
102
{ACAD_REACTORS
330
17
102
}
330
17
100
AcDbMlineStyle
  2
Standard
 70
     0
  3

 62
   256
 51
90.0
 52
90.0
 71
     2
 49
0.5
 62
   256
  6
BYLAYER
 49
-0.5
 62
   256
  6
BYLAYER
  0
ACDBPLACEHOLDER
  5
F
102
{ACAD_REACTORS
330
E
102
}
330
E
  0
SCALE
  5
48
102
{ACAD_REACTORS
330
47
102
}
330
47
100
AcDbScale
 70
     0
300
1:1
140
1.0
141
1.0
290
     1
  0
SCALE
  5
49
102
{ACAD_REACTORS
330
47
102
}
330
47
100
AcDbScale
 70
     0
300
1:2
140
1.0
141
2.0
290
     0
  0
SCALE
  5
4A
102
{ACAD_REACTORS
330
47
102
}
330
47
100
AcDbScale
 70
     0
300
1:4
140
1.0
141
4.0
290
     0
  0
SCALE
  5
4B
102
{ACAD_REACTORS
330
47
102
}
330
47
100
AcDbScale
 70
     0
300
1:5
140
1.0
141
5.0
290
     0
  0
SCALE
  5
4C
102
{ACAD_REACTORS
330
47
102
}
330
47
100
AcDbScale
 70
     0
300
1:8
140
1.0
141
8.0
290
     0
  0
SCALE
  5
4D
102
{ACAD_REACTORS
330
47
102
}
330
47
100
AcDbScale
 70
     0
300
1:10
140
1.0
141
10.0
290
     0
  0
SCALE
  5
4E
102
{ACAD_REACTORS
330
47
102
}
330
47
100
AcDbScale
 70
     0
300
1:16
140
1.0
141
16.0
290
     0
  0
SCALE
  5
4F
102
{ACAD_REACTORS
330
47
102
}
330
47
100
AcDbScale
 70
     0
300
1:20
140
1.0
141
20.0
290
     0
  0
SCALE
  5
50
102
{ACAD_REACTORS
330
47
102
}
330
47
100
AcDbScale
 70
     0
300
1:30
140
1.0
141
30.0
290
     0
  0
SCALE
  5
51
102
{ACAD_REACTORS
330
47
102
}
330
47
100
AcDbScale
 70
     0
300
1:40
140
1.0
141
40.0
290
     0
  0
SCALE
  5
52
102
{ACAD_REACTORS
330
47
102
}
330
47
100
AcDbScale
 70
     0
300
1:50
140
1.0
141
50.0
290
     0
  0
SCALE
  5
53
102
{ACAD_REACTORS
330
47
102
}
330
47
100
AcDbScale
 70
     0
300
1:100
140
1.0
141
100.0
290
     0
  0
SCALE
  5
54
102
{ACAD_REACTORS
330
47
102
}
330
47
100
AcDbScale
 70
     0
300
2:1
140
2.0
141
1.0
290
     0
  0
SCALE
  5
55
102
{ACAD_REACTORS
330
47
102
}
330
47
100
AcDbScale
 70
     0
300
4:1
140
4.0
141
1.0
290
     0
  0
SCALE
  5
56
102
{ACAD_REACTORS
330
47
102
}
330
47
100
AcDbScale
 70
     0
300
8:1
140
8.0
141
1.0
290
     0
  0
SCALE
  5
57
102
{ACAD_REACTORS
330
47
102
}
330
47
100
AcDbScale
 70
     0
300
10:1
140
10.0
141
1.0
290
     0
  0
SCALE
  5
58
102
{ACAD_REACTORS
330
47
102
}
330
47
100
AcDbScale
 70
     0
300
100:1
140
100.0
141
1.0
290
     0
  0
SCALE
  5
59
102
{ACAD_REACTORS
330
47
102
}
330
47
100
AcDbScale
 70
     0
300
1/128" = 1'-0"
140
0.0078125
141
12.0
290
     0
  0
SCALE
  5
5A
102
{ACAD_REACTORS
330
47
102
}
330
47
100
AcDbScale
 70
     0
300
1/64" = 1'-0"
140
0.015625
141
12.0
290
     0
  0
SCALE
  5
5B
102
{ACAD_REACTORS
330
47
102
}
330
47
100
AcDbScale
 70
     0
300
1/32" = 1'-0"
140
0.03125
141
12.0
290
     0
  0
SCALE
  5
5C
102
{ACAD_REACTORS
330
47
102
}
330
47
100
AcDbScale
 70
     0
300
1/16" = 1'-0"
140
0.0625
141
12.0
290
     0
  0
SCALE
  5
5D
102
{ACAD_REACTORS
330
47
102
}
330
47
100
AcDbScale
 70
     0
300
3/32" = 1'-0"
140
0.09375
141
12.0
290
     0
  0
SCALE
  5
5E
102
{ACAD_REACTORS
330
47
102
}
330
47
100
AcDbScale
 70
     0
300
1/8" = 1'-0"
140
0.125
141
12.0
290
     0
  0
SCALE
  5
5F
102
{ACAD_REACTORS
330
47
102
}
330
47
100
AcDbScale
 70
     0
300
3/16" = 1'-0"
140
0.1875
141
12.0
290
     0
  0
SCALE
  5
60
102
{ACAD_REACTORS
330
47
102
}
330
47
100
AcDbScale
 70
     0
300
1/4" = 1'-0"
140
0.25
141
12.0
290
     0
  0
SCALE
  5
61
102
{ACAD_REACTORS
330
47
102
}
330
47
100
AcDbScale
 70
     0
300
3/8" = 1'-0"
140
0.375
141
12.0
290
     0
  0
SCALE
  5
62
102
{ACAD_REACTORS
330
47
102
}
330
47
100
AcDbScale
 70
     0
300
1/2" = 1'-0"
140
0.5
141
12.0
290
     0
  0
SCALE
  5
63
102
{ACAD_REACTORS
330
47
102
}
330
47
100
AcDbScale
 70
     0
300
3/4" = 1'-0"
140
0.75
141
12.0
290
     0
  0
SCALE
  5
64
102
{ACAD_REACTORS
330
47
102
}
330
47
100
AcDbScale
 70
     0
300
1" = 1'-0"
140
1.0
141
12.0
290
     0
  0
SCALE
  5
65
102
{ACAD_REACTORS
330
47
102
}
330
47
100
AcDbScale
 70
     0
300
1-1/2" = 1'-0"
140
1.5
141
12.0
290
     0
  0
SCALE
  5
66
102
{ACAD_REACTORS
330
47
102
}
330
47
100
AcDbScale
 70
     0
300
3" = 1'-0"
140
3.0
141
12.0
290
     0
  0
SCALE
  5
67
102
{ACAD_REACTORS
330
47
102
}
330
47
100
AcDbScale
 70
     0
300
6" = 1'-0"
140
6.0
141
12.0
290
     0
  0
SCALE
  5
68
102
{ACAD_REACTORS
330
47
102
}
330
47
100
AcDbScale
 70
     0
300
1'-0" = 1'-0"
140
12.0
141
12.0
290
     0
  0
ENDSEC
  0
EOF
